  0
SECTION
  2
HEADER
  9
$ACADVER
  1
AC1018
  9
$ACADMAINTVER
 70
     2
  9
$DWGCODEPAGE
  3
ANSI_1252
  9
$INSBASE
 10
0.0
 20
0.0
 30
0.0
  9
$EXTMIN
 10
-0.0320322101771353
 20
-0.0453026972500084
 30
-0.0000000000000053
  9
$EXTMAX
 10
420.0000048900108
 20
594.000006915872
 30
0.0000000000000099
  9
$LIMMIN
 10
0.0
 20
0.0
  9
$LIMMAX
 10
420.0
 20
594.0
  9
$ORTHOMODE
 70
     0
  9
$REGENMODE
 70
     1
  9
$FILLMODE
 70
     1
  9
$QTEXTMODE
 70
     0
  9
$MIRRTEXT
 70
     1
  9
$LTSCALE
 40
20.0
  9
$ATTMODE
 70
     1
  9
$TEXTSIZE
 40
1.8
  9
$TRACEWID
 40
1.0
  9
$TEXTSTYLE
  7
GREEKS
  9
$CLAYER
  8
SCHRAFF
  9
$CELTYPE
  6
ByLayer
  9
$CECOLOR
 62
   256
  9
$CELTSCALE
 40
1.0
  9
$DISPSILH
 70
     0
  9
$DIMSCALE
 40
2.0
  9
$DIMASZ
 40
3.5
  9
$DIMEXO
 40
1.0
  9
$DIMDLI
 40
7.0
  9
$DIMRND
 40
0.0
  9
$DIMDLE
 40
0.0
  9
$DIMEXE
 40
1.0
  9
$DIMTP
 40
0.16
  9
$DIMTM
 40
0.16
  9
$DIMTXT
 40
3.5
  9
$DIMCEN
 40
1.5
  9
$DIMTSZ
 40
0.0
  9
$DIMTOL
 70
     0
  9
$DIMLIM
 70
     0
  9
$DIMTIH
 70
     0
  9
$DIMTOH
 70
     0
  9
$DIMSE1
 70
     0
  9
$DIMSE2
 70
     0
  9
$DIMTAD
 70
     1
  9
$DIMZIN
 70
     8
  9
$DIMBLK
  1

  9
$DIMASO
 70
     1
  9
$DIMSHO
 70
     0
  9
$DIMPOST
  1

  9
$DIMAPOST
  1

  9
$DIMALT
 70
     0
  9
$DIMALTD
 70
     2
  9
$DIMALTF
 40
25.4
  9
$DIMLFAC
 40
1.0
  9
$DIMTOFL
 70
     1
  9
$DIMTVP
 40
0.2857142857142857
  9
$DIMTIX
 70
     0
  9
$DIMSOXD
 70
     0
  9
$DIMSAH
 70
     0
  9
$DIMBLK1
  1

  9
$DIMBLK2
  1

  9
$DIMSTYLE
  2
Standard
  9
$DIMCLRD
 70
     0
  9
$DIMCLRE
 70
     0
  9
$DIMCLRT
 70
     1
  9
$DIMTFAC
 40
0.5
  9
$DIMGAP
 40
1.5
  9
$DIMJUST
 70
     0
  9
$DIMSD1
 70
     0
  9
$DIMSD2
 70
     0
  9
$DIMTOLJ
 70
     1
  9
$DIMTZIN
 70
     8
  9
$DIMALTZ
 70
     8
  9
$DIMALTTZ
 70
     8
  9
$DIMUPT
 70
     0
  9
$DIMDEC
 70
     2
  9
$DIMTDEC
 70
     2
  9
$DIMALTU
 70
     2
  9
$DIMALTTD
 70
     2
  9
$DIMTXSTY
  7
GREEKS
  9
$DIMAUNIT
 70
     0
  9
$DIMADEC
 70
     2
  9
$DIMALTRND
 40
0.0
  9
$DIMAZIN
 70
     2
  9
$DIMDSEP
 70
    46
  9
$DIMATFIT
 70
     3
  9
$DIMFRAC
 70
     0
  9
$DIMLDRBLK
  1

  9
$DIMLUNIT
 70
     2
  9
$DIMLWD
 70
    -2
  9
$DIMLWE
 70
    -2
  9
$DIMTMOVE
 70
     0
  9
$LUNITS
 70
     2
  9
$LUPREC
 70
     2
  9
$SKETCHINC
 40
1.0
  9
$FILLETRAD
 40
0.0
  9
$AUNITS
 70
     0
  9
$AUPREC
 70
     0
  9
$MENU
  1
ACAD
  9
$ELEVATION
 40
0.0
  9
$PELEVATION
 40
0.0
  9
$THICKNESS
 40
0.0
  9
$LIMCHECK
 70
     0
  9
$CHAMFERA
 40
0.0
  9
$CHAMFERB
 40
0.0
  9
$CHAMFERC
 40
0.0
  9
$CHAMFERD
 40
0.0
  9
$SKPOLY
 70
     0
  9
$TDCREATE
 40
2451463.491336459
  9
$TDUCREATE
 40
2451463.408003125
  9
$TDUPDATE
 40
2455462.304605568
  9
$TDUUPDATE
 40
2455462.221272234
  9
$TDINDWG
 40
0.1509534838
  9
$TDUSRTIMER
 40
0.1509534838
  9
$USRTIMER
 70
     1
  9
$ANGBASE
 50
0.0
  9
$ANGDIR
 70
     0
  9
$PDMODE
 70
     0
  9
$PDSIZE
 40
0.0
  9
$PLINEWID
 40
0.0
  9
$SPLFRAME
 70
     0
  9
$SPLINETYPE
 70
     6
  9
$SPLINESEGS
 70
     8
  9
$HANDSEED
  5
806
  9
$SURFTAB1
 70
     6
  9
$SURFTAB2
 70
     6
  9
$SURFTYPE
 70
     6
  9
$SURFU
 70
     6
  9
$SURFV
 70
     6
  9
$UCSBASE
  2

  9
$UCSNAME
  2

  9
$UCSORG
 10
0.0
 20
0.0
 30
0.0
  9
$UCSXDIR
 10
1.0
 20
0.0
 30
0.0
  9
$UCSYDIR
 10
0.0
 20
1.0
 30
0.0
  9
$UCSORTHOREF
  2

  9
$UCSORTHOVIEW
 70
     0
  9
$UCSORGTOP
 10
0.0
 20
0.0
 30
0.0
  9
$UCSORGBOTTOM
 10
0.0
 20
0.0
 30
0.0
  9
$UCSORGLEFT
 10
0.0
 20
0.0
 30
0.0
  9
$UCSORGRIGHT
 10
0.0
 20
0.0
 30
0.0
  9
$UCSORGFRONT
 10
0.0
 20
0.0
 30
0.0
  9
$UCSORGBACK
 10
0.0
 20
0.0
 30
0.0
  9
$PUCSBASE
  2

  9
$PUCSNAME
  2

  9
$PUCSORG
 10
0.0
 20
0.0
 30
0.0
  9
$PUCSXDIR
 10
1.0
 20
0.0
 30
0.0
  9
$PUCSYDIR
 10
0.0
 20
1.0
 30
0.0
  9
$PUCSORTHOREF
  2

  9
$PUCSORTHOVIEW
 70
     0
  9
$PUCSORGTOP
 10
0.0
 20
0.0
 30
0.0
  9
$PUCSORGBOTTOM
 10
0.0
 20
0.0
 30
0.0
  9
$PUCSORGLEFT
 10
0.0
 20
0.0
 30
0.0
  9
$PUCSORGRIGHT
 10
0.0
 20
0.0
 30
0.0
  9
$PUCSORGFRONT
 10
0.0
 20
0.0
 30
0.0
  9
$PUCSORGBACK
 10
0.0
 20
0.0
 30
0.0
  9
$USERI1
 70
     0
  9
$USERI2
 70
     0
  9
$USERI3
 70
     0
  9
$USERI4
 70
     0
  9
$USERI5
 70
     0
  9
$USERR1
 40
0.0
  9
$USERR2
 40
0.0
  9
$USERR3
 40
0.0
  9
$USERR4
 40
0.0
  9
$USERR5
 40
0.0
  9
$WORLDVIEW
 70
     1
  9
$SHADEDGE
 70
     3
  9
$SHADEDIF
 70
    70
  9
$TILEMODE
 70
     1
  9
$MAXACTVP
 70
    16
  9
$PINSBASE
 10
0.0
 20
0.0
 30
0.0
  9
$PLIMCHECK
 70
     0
  9
$PEXTMIN
 10
1.000000000000000E+20
 20
1.000000000000000E+20
 30
1.000000000000000E+20
  9
$PEXTMAX
 10
-1.000000000000000E+20
 20
-1.000000000000000E+20
 30
-1.000000000000000E+20
  9
$PLIMMIN
 10
0.0
 20
0.0
  9
$PLIMMAX
 10
12.0
 20
9.0
  9
$UNITMODE
 70
     0
  9
$VISRETAIN
 70
     0
  9
$PLINEGEN
 70
     0
  9
$PSLTSCALE
 70
     0
  9
$TREEDEPTH
 70
  3020
  9
$CMLSTYLE
  2
Standard
  9
$CMLJUST
 70
     0
  9
$CMLSCALE
 40
1.0
  9
$PROXYGRAPHICS
 70
     1
  9
$MEASUREMENT
 70
     0
  9
$CELWEIGHT
370
    -1
  9
$ENDCAPS
280
     0
  9
$JOINSTYLE
280
     0
  9
$LWDISPLAY
290
     0
  9
$INSUNITS
 70
     0
  9
$HYPERLINKBASE
  1

  9
$STYLESHEET
  1
monochrome 1.ctb
  9
$XEDIT
290
     1
  9
$CEPSNTYPE
380
     0
  9
$PSTYLEMODE
290
     1
  9
$FINGERPRINTGUID
  2
{B1AAA80E-AFDD-4C73-A251-C94F254D7CA7}
  9
$VERSIONGUID
  2
{73585FD0-1909-4250-B42E-10759E5DA011}
  9
$EXTNAMES
290
     1
  9
$PSVPSCALE
 40
0.0
  9
$OLESTARTUP
290
     0
  9
$SORTENTS
280
   127
  9
$INDEXCTL
280
     0
  9
$HIDETEXT
280
     1
  9
$XCLIPFRAME
290
     0
  9
$HALOGAP
280
     0
  9
$OBSCOLOR
 70
   257
  9
$OBSLTYPE
280
     0
  9
$INTERSECTIONDISPLAY
280
     0
  9
$INTERSECTIONCOLOR
 70
   257
  9
$DIMASSOC
280
     2
  9
$PROJECTNAME
  1

  0
ENDSEC
  0
SECTION
  2
CLASSES
  0
CLASS
  1
ACDBDICTIONARYWDFLT
  2
AcDbDictionaryWithDefault
  3
ObjectDBX Classes
 90
        0
 91
        1
280
     0
281
     0
  0
CLASS
  1
DICTIONARYVAR
  2
AcDbDictionaryVar
  3
ObjectDBX Classes
 90
        0
 91
        3
280
     0
281
     0
  0
CLASS
  1
DIMASSOC
  2
AcDbDimAssoc
  3
"AcDbDimAssoc|Product Desc:     AcDim ARX App For Dimension|Company:          Autodesk, Inc.|WEB Address:      www.autodesk.com"
 90
        0
 91
        1
280
     0
281
     0
  0
ENDSEC
  0
SECTION
  2
TABLES
  0
TABLE
  2
VPORT
  5
8
330
0
100
AcDbSymbolTable
 70
     2
  0
VPORT
  5
805
330
8
100
AcDbSymbolTableRecord
100
AcDbViewportTableRecord
  2
*Active
 70
     0
 10
0.0
 20
0.0
 11
1.0
 21
1.0
 12
209.9839863399169
 22
296.977352109311
 13
0.0
 23
0.0
 14
2.5
 24
2.5
 15
10.0
 25
10.0
 16
0.0
 26
0.0
 36
1.0
 17
0.0
 27
0.0
 37
0.0
 40
598.8424453569696
 41
1.336927223719676
 42
50.0
 43
0.0
 44
0.0
 50
0.0
 51
0.0
 71
     0
 72
   500
 73
     1
 74
     0
 75
     0
 76
     0
 77
     0
 78
     0
281
     0
 65
     1
110
0.0
120
0.0
130
0.0
111
1.0
121
0.0
131
0.0
112
0.0
122
1.0
132
0.0
 79
     0
146
0.0
  0
ENDTAB
  0
TABLE
  2
LTYPE
  5
5
330
0
100
AcDbSymbolTable
 70
     2
  0
LTYPE
  5
13
330
5
100
AcDbSymbolTableRecord
100
AcDbLinetypeTableRecord
  2
ByBlock
 70
     0
  3

 72
    65
 73
     0
 40
0.0
  0
LTYPE
  5
14
330
5
100
AcDbSymbolTableRecord
100
AcDbLinetypeTableRecord
  2
ByLayer
 70
     0
  3

 72
    65
 73
     0
 40
0.0
  0
LTYPE
  5
15
330
5
100
AcDbSymbolTableRecord
100
AcDbLinetypeTableRecord
  2
Continuous
 70
     0
  3
Solid line
 72
    65
 73
     0
 40
0.0
  0
LTYPE
  5
33
330
5
100
AcDbSymbolTableRecord
100
AcDbLinetypeTableRecord
  2
STRICHPUNKT
 70
     0
  3
__ . __ . __ . __ . __ . __ . __ . __ . __ . __
 72
    65
 73
     4
 40
1.0
 49
0.5
 74
     0
 49
-0.25
 74
     0
 49
0.0
 74
     0
 49
-0.25
 74
     0
  0
ENDTAB
  0
TABLE
  2
LAYER
  5
2
330
0
100
AcDbSymbolTable
 70
     9
  0
LAYER
  5
10
330
2
100
AcDbSymbolTableRecord
100
AcDbLayerTableRecord
  2
0
 70
     0
 62
     7
  6
Continuous
370
    -3
390
F
  0
LAYER
  5
36
330
2
100
AcDbSymbolTableRecord
100
AcDbLayerTableRecord
  2
VOLL
 70
     0
 62
     1
  6
Continuous
370
    -3
390
F
  0
LAYER
  5
37
330
2
100
AcDbSymbolTableRecord
100
AcDbLayerTableRecord
  2
MITTEL
 70
     0
 62
     2
  6
STRICHPUNKT
370
    -3
390
F
  0
LAYER
  5
38
330
2
100
AcDbSymbolTableRecord
100
AcDbLayerTableRecord
  2
BEM
 70
     0
 62
     7
  6
Continuous
370
    -3
390
F
  0
LAYER
  5
39
330
2
100
AcDbSymbolTableRecord
100
AcDbLayerTableRecord
  2
HILF
 70
     0
 62
     2
  6
Continuous
370
    -3
390
F
  0
LAYER
  5
3A
330
2
100
AcDbSymbolTableRecord
100
AcDbLayerTableRecord
  2
SCHRAFF
 70
     0
 62
     7
  6
Continuous
370
    -3
390
F
  0
LAYER
  5
3B
330
2
100
AcDbSymbolTableRecord
100
AcDbLayerTableRecord
  2
STEMPEL
 70
     0
 62
     3
  6
Continuous
370
    -3
390
F
  0
LAYER
  5
3C
330
2
100
AcDbSymbolTableRecord
100
AcDbLayerTableRecord
  2
DEFPOINTS
 70
     0
 62
     7
  6
Continuous
290
     0
370
    -3
390
F
  0
LAYER
  5
3D
330
2
100
AcDbSymbolTableRecord
100
AcDbLayerTableRecord
  2
TEXT
 70
     0
 62
     7
  6
Continuous
370
    -3
390
F
  0
ENDTAB
  0
TABLE
  2
STYLE
  5
3
330
0
100
AcDbSymbolTable
 70
     2
  0
STYLE
  5
11
330
3
100
AcDbSymbolTableRecord
100
AcDbTextStyleTableRecord
  2
STANDARD
 70
     0
 40
0.0
 41
1.0
 50
0.0
 71
     0
 42
3.5
  3
txt
  4

  0
STYLE
  5
32
330
3
100
AcDbSymbolTableRecord
100
AcDbTextStyleTableRecord
  2
GREEKS
 70
     0
 40
0.0
 41
0.8
 50
0.0
 71
     0
 42
1.8
  3
SIMPLEX.shx
  4

  0
ENDTAB
  0
TABLE
  2
VIEW
  5
6
330
0
100
AcDbSymbolTable
 70
     0
  0
ENDTAB
  0
TABLE
  2
UCS
  5
7
330
0
100
AcDbSymbolTable
 70
     0
  0
ENDTAB
  0
TABLE
  2
APPID
  5
9
330
0
100
AcDbSymbolTable
 70
     1
  0
APPID
  5
12
330
9
100
AcDbSymbolTableRecord
100
AcDbRegAppTableRecord
  2
ACAD
 70
     0
  0
ENDTAB
  0
TABLE
  2
DIMSTYLE
  5
A
330
0
100
AcDbSymbolTable
 70
     1
100
AcDbDimStyleTable
 71
     1
340
3DE
  0
DIMSTYLE
105
3DE
102
{ACAD_REACTORS
330
32F
330
351
330
32B
330
2DA
330
319
330
584
330
68F
102
}
330
A
100
AcDbSymbolTableRecord
100
AcDbDimStyleTableRecord
  2
Standard
 70
     0
340
11
  0
ENDTAB
  0
TABLE
  2
BLOCK_RECORD
  5
1
330
0
100
AcDbSymbolTable
 70
    15
  0
BLOCK_RECORD
  5
20
330
1
100
AcDbSymbolTableRecord
100
AcDbBlockTableRecord
  2
*Model_Space
340
23
  0
BLOCK_RECORD
  5
1C
330
1
100
AcDbSymbolTableRecord
100
AcDbBlockTableRecord
  2
*Paper_Space
340
1F
  0
BLOCK_RECORD
  5
24
330
1
100
AcDbSymbolTableRecord
100
AcDbBlockTableRecord
  2
LOGO
340
0
102
{BLKREFS
331
2FD
102
}
  0
BLOCK_RECORD
  5
25
330
1
100
AcDbSymbolTableRecord
100
AcDbBlockTableRecord
  2
*X1
340
0
102
{BLKREFS
331
352
102
}
  0
BLOCK_RECORD
  5
26
330
1
100
AcDbSymbolTableRecord
100
AcDbBlockTableRecord
  2
*X2
340
0
102
{BLKREFS
331
2DF
102
}
  0
BLOCK_RECORD
  5
27
330
1
100
AcDbSymbolTableRecord
100
AcDbBlockTableRecord
  2
*X3
340
0
102
{BLKREFS
331
32E
102
}
  0
BLOCK_RECORD
  5
28
330
1
100
AcDbSymbolTableRecord
100
AcDbBlockTableRecord
  2
*X4
340
0
102
{BLKREFS
331
353
102
}
  0
BLOCK_RECORD
  5
29
330
1
100
AcDbSymbolTableRecord
100
AcDbBlockTableRecord
  2
*X5
340
0
102
{BLKREFS
331
37D
331
3A1
102
}
  0
BLOCK_RECORD
  5
2F
330
1
100
AcDbSymbolTableRecord
100
AcDbBlockTableRecord
  2
*X6
340
0
102
{BLKREFS
331
350
102
}
  0
BLOCK_RECORD
  5
30
330
1
100
AcDbSymbolTableRecord
100
AcDbBlockTableRecord
  2
*X7
340
0
102
{BLKREFS
331
329
331
336
102
}
  0
BLOCK_RECORD
  5
3E9
330
1
100
AcDbSymbolTableRecord
100
AcDbBlockTableRecord
  2
*D8
340
0
  0
BLOCK_RECORD
  5
3F5
330
1
100
AcDbSymbolTableRecord
100
AcDbBlockTableRecord
  2
*D9
340
0
  0
BLOCK_RECORD
  5
401
330
1
100
AcDbSymbolTableRecord
100
AcDbBlockTableRecord
  2
*D10
340
0
  0
BLOCK_RECORD
  5
40D
330
1
100
AcDbSymbolTableRecord
100
AcDbBlockTableRecord
  2
*D11
340
0
  0
BLOCK_RECORD
  5
419
330
1
100
AcDbSymbolTableRecord
100
AcDbBlockTableRecord
  2
*D12
340
0
  0
BLOCK_RECORD
  5
585
330
1
100
AcDbSymbolTableRecord
100
AcDbBlockTableRecord
  2
*D13
340
0
  0
BLOCK_RECORD
  5
690
330
1
100
AcDbSymbolTableRecord
100
AcDbBlockTableRecord
  2
*D14
340
0
  0
ENDTAB
  0
ENDSEC
  0
SECTION
  2
BLOCKS
  0
BLOCK
  5
41
330
20
100
AcDbEntity
  8
0
100
AcDbBlockBegin
  2
*Model_Space
 70
     0
 10
0.0
 20
0.0
 30
0.0
  3
*Model_Space
  1

  0
ENDBLK
  5
42
330
20
100
AcDbEntity
  8
0
100
AcDbBlockEnd
  0
BLOCK
  5
3F
330
1C
100
AcDbEntity
 67
     1
  8
0
100
AcDbBlockBegin
  2
*Paper_Space
 70
     0
 10
0.0
 20
0.0
 30
0.0
  3
*Paper_Space
  1

  0
ENDBLK
  5
40
330
1C
100
AcDbEntity
 67
     1
  8
0
100
AcDbBlockEnd
  0
BLOCK
  5
43
330
24
100
AcDbEntity
  8
0
100
AcDbBlockBegin
  2
LOGO
 70
     0
 10
0.0
 20
0.0
 30
0.0
  3
LOGO
  1

  0
ARC
  5
44
330
24
100
AcDbEntity
  8
0
100
AcDbCircle
 10
11.59973089678112
 20
-9.271599258481501
 30
0.0
 40
4.5
100
AcDbArc
 50
270.0
 51
231.0575587310159
  0
LINE
  5
45
330
24
100
AcDbEntity
  8
0
100
AcDbLine
 10
3.599730896781125
 20
-4.771599258481529
 30
0.0
 11
3.599730896781153
 21
-11.77159925848133
 31
0.0
  0
LINE
  5
46
330
24
100
AcDbEntity
  8
0
100
AcDbLine
 10
2.599730896781125
 20
-4.771599258481529
 30
0.0
 11
2.599730896781153
 21
-11.77159925848133
 31
0.0
  0
CIRCLE
  5
47
330
24
100
AcDbEntity
  8
0
100
AcDbCircle
 10
11.59973089678112
 20
-9.271599258481501
 30
0.0
 40
3.5
  0
ARC
  5
48
330
24
100
AcDbEntity
  8
0
100
AcDbCircle
 10
31.59973089678115
 20
-9.271599258481472
 30
0.0
 40
4.5
100
AcDbArc
 50
270.0
 51
231.0575587310182
  0
LINE
  5
49
330
24
100
AcDbEntity
  8
0
100
AcDbLine
 10
17.59973089678112
 20
-4.771599258481472
 30
0.0
 11
17.59973089678115
 21
-13.77159925848147
 31
0.0
  0
ARC
  5
4A
330
24
100
AcDbEntity
  8
0
100
AcDbCircle
 10
22.59973089678116
 20
-7.271599258481472
 30
0.0
 40
2.5
100
AcDbArc
 50
293.1161887722295
 51
90.0
  0
CIRCLE
  5
4B
330
24
100
AcDbEntity
  8
0
100
AcDbCircle
 10
31.59973089678115
 20
-9.271599258481472
 30
0.0
 40
3.5
  0
ARC
  5
4C
330
24
100
AcDbEntity
  8
0
100
AcDbCircle
 10
4.599730896781153
 20
-11.77159925848133
 30
0.0
 40
1.0
100
AcDbArc
 50
180.0
 51
270.0
  0
ARC
  5
4D
330
24
100
AcDbEntity
  8
0
100
AcDbCircle
 10
4.599730896781153
 20
-11.77159925848133
 30
0.0
 40
2.0
100
AcDbArc
 50
179.9999999999992
 51
270.0
  0
LINE
  5
4E
330
24
100
AcDbEntity
  8
0
100
AcDbLine
 10
11.59973089678115
 20
-13.77159925848144
 30
0.0
 11
4.599730896781153
 21
-13.77159925848147
 31
0.0
  0
LINE
  5
4F
330
24
100
AcDbEntity
  8
0
100
AcDbLine
 10
8.771303772034769
 20
-12.77159925848136
 30
0.0
 11
4.599730896781153
 21
-12.77159925848133
 31
0.0
  0
LINE
  5
50
330
24
100
AcDbEntity
  8
0
100
AcDbLine
 10
31.59973089678115
 20
-13.77159925848147
 30
0.0
 11
23.6715276665056
 21
-13.77159925848144
 31
0.0
  0
LINE
  5
51
330
24
100
AcDbEntity
  8
0
100
AcDbLine
 10
23.56565672307022
 20
-9.51278021337896
 30
0.0
 11
24.4388546544846
 21
-12.77159925848144
 31
0.0
  0
LINE
  5
52
330
24
100
AcDbEntity
  8
0
100
AcDbLine
 10
22.59973089678116
 20
-9.771599258481472
 30
0.0
 11
18.59973089678112
 21
-9.771599258481472
 31
0.0
  0
LINE
  5
53
330
24
100
AcDbEntity
  8
0
100
AcDbLine
 10
18.59973089678115
 20
-13.77159925848144
 30
0.0
 11
17.59973089678115
 21
-13.77159925848144
 31
0.0
  0
LINE
  5
54
330
24
100
AcDbEntity
  8
0
100
AcDbLine
 10
18.59973089678115
 20
-9.771599258481472
 30
0.0
 11
18.59973089678115
 21
-13.77159925848144
 31
0.0
  0
LINE
  5
55
330
24
100
AcDbEntity
  8
0
100
AcDbLine
 10
22.59973089678116
 20
-9.771599258481472
 30
0.0
 11
23.67152766650562
 21
-13.77159925848147
 31
0.0
  0
ARC
  5
56
330
24
100
AcDbEntity
  8
0
100
AcDbCircle
 10
22.59973089678116
 20
-7.271599258481472
 30
0.0
 40
2.5
100
AcDbArc
 50
270.0
 51
270.0000000000007
  0
LINE
  5
57
330
24
100
AcDbEntity
  8
0
100
AcDbLine
 10
28.77130377203494
 20
-12.77159925848147
 30
0.0
 11
24.43885465448463
 21
-12.77159925848144
 31
0.0
  0
LINE
  5
58
330
24
100
AcDbEntity
  8
0
100
AcDbLine
 10
3.599730896781125
 20
-4.771599258481472
 30
0.0
 11
2.599730896781125
 21
-4.771599258481472
 31
0.0
  0
LINE
  5
59
330
24
100
AcDbEntity
  8
0
100
AcDbLine
 10
22.59973089678116
 20
-8.771599258481472
 30
0.0
 11
18.59973089678115
 21
-8.771599258481472
 31
0.0
  0
LINE
  5
5A
330
24
100
AcDbEntity
  8
0
100
AcDbLine
 10
22.59973089678116
 20
-5.771599258481472
 30
0.0
 11
18.59973089678115
 21
-5.771599258481472
 31
0.0
  0
LINE
  5
5B
330
24
100
AcDbEntity
  8
0
100
AcDbLine
 10
22.59973089678116
 20
-4.771599258481472
 30
0.0
 11
17.59973089678115
 21
-4.771599258481472
 31
0.0
  0
LINE
  5
5C
330
24
100
AcDbEntity
  8
0
100
AcDbLine
 10
18.59973089678115
 20
-5.771599258481472
 30
0.0
 11
18.59973089678115
 21
-8.771599258481472
 31
0.0
  0
ARC
  5
5D
330
24
100
AcDbEntity
  8
0
100
AcDbCircle
 10
22.59973089678116
 20
-7.271599258481472
 30
0.0
 40
1.5
100
AcDbArc
 50
270.0
 51
90.0
  0
ENDBLK
  5
5E
330
24
100
AcDbEntity
  8
0
100
AcDbBlockEnd
  0
BLOCK
  5
5F
330
25
100
AcDbEntity
  8
0
100
AcDbBlockBegin
  2
*X1
 70
     1
 10
0.0
 20
0.0
 30
0.0
  3
*X1
  1

  0
LINE
  5
60
330
25
100
AcDbEntity
  8
0
 62
     0
100
AcDbLine
 10
182.3359627999391
 20
386.9
 30
0.0
 11
184.9299187518418
 21
386.9
 31
0.0
  0
LINE
  5
61
330
25
100
AcDbEntity
  8
0
 62
     0
100
AcDbLine
 10
257.9299187518418
 20
386.9
 30
0.0
 11
260.5238747037459
 21
386.9
 31
0.0
  0
LINE
  5
62
330
25
100
AcDbEntity
  8
0
 62
     0
100
AcDbLine
 10
182.2803847787668
 20
387.0
 30
0.0
 11
184.9299187518418
 21
387.0
 31
0.0
  0
LINE
  5
63
330
25
100
AcDbEntity
  8
0
 62
     0
100
AcDbLine
 10
257.9299187518418
 20
387.0
 30
0.0
 11
260.5794527249182
 21
387.0
 31
0.0
  0
LINE
  5
64
330
25
100
AcDbEntity
  8
0
 62
     0
100
AcDbLine
 10
182.2296496784816
 20
387.1
 30
0.0
 11
184.9299187518418
 21
387.1
 31
0.0
  0
LINE
  5
65
330
25
100
AcDbEntity
  8
0
 62
     0
100
AcDbLine
 10
257.9299187518418
 20
387.1
 30
0.0
 11
260.6301878252034
 21
387.1
 31
0.0
  0
LINE
  5
66
330
25
100
AcDbEntity
  8
0
 62
     0
100
AcDbLine
 10
182.1834890945207
 20
387.2
 30
0.0
 11
184.9299187518418
 21
387.2
 31
0.0
  0
LINE
  5
67
330
25
100
AcDbEntity
  8
0
 62
     0
100
AcDbLine
 10
257.9299187518418
 20
387.2
 30
0.0
 11
260.6763484091642
 21
387.2
 31
0.0
  0
LINE
  5
68
330
25
100
AcDbEntity
  8
0
 62
     0
100
AcDbLine
 10
182.141675818258
 20
387.3
 30
0.0
 11
184.9299187518418
 21
387.3
 31
0.0
  0
LINE
  5
69
330
25
100
AcDbEntity
  8
0
 62
     0
100
AcDbLine
 10
257.9299187518418
 20
387.3
 30
0.0
 11
260.7181616854269
 21
387.3
 31
0.0
  0
LINE
  5
6A
330
25
100
AcDbEntity
  8
0
 62
     0
100
AcDbLine
 10
182.1040168691241
 20
387.4
 30
0.0
 11
184.9299187518418
 21
387.4
 31
0.0
  0
LINE
  5
6B
330
25
100
AcDbEntity
  8
0
 62
     0
100
AcDbLine
 10
257.9299187518418
 20
387.4
 30
0.0
 11
260.7558206345607
 21
387.4
 31
0.0
  0
LINE
  5
6C
330
25
100
AcDbEntity
  8
0
 62
     0
100
AcDbLine
 10
182.0703481119005
 20
387.5
 30
0.0
 11
184.9299187518418
 21
387.5
 31
0.0
  0
LINE
  5
6D
330
25
100
AcDbEntity
  8
0
 62
     0
100
AcDbLine
 10
257.9299187518418
 20
387.5
 30
0.0
 11
260.7894893917844
 21
387.5
 31
0.0
  0
LINE
  5
6E
330
25
100
AcDbEntity
  8
0
 62
     0
100
AcDbLine
 10
182.0405300554422
 20
387.6
 30
0.0
 11
184.9299187518418
 21
387.6
 31
0.0
  0
LINE
  5
6F
330
25
100
AcDbEntity
  8
0
 62
     0
100
AcDbLine
 10
257.9299187518418
 20
387.6
 30
0.0
 11
260.8193074482426
 21
387.6
 31
0.0
  0
LINE
  5
70
330
25
100
AcDbEntity
  8
0
 62
     0
100
AcDbLine
 10
182.0144445480545
 20
387.7000000000001
 30
0.0
 11
184.9299187518418
 21
387.7000000000001
 31
0.0
  0
LINE
  5
71
330
25
100
AcDbEntity
  8
0
 62
     0
100
AcDbLine
 10
257.9299187518418
 20
387.7000000000001
 30
0.0
 11
260.8453929556303
 21
387.7000000000001
 31
0.0
  0
LINE
  5
72
330
25
100
AcDbEntity
  8
0
 62
     0
100
AcDbLine
 10
181.9919921654519
 20
387.8
 30
0.0
 11
184.9299187518418
 21
387.8
 31
0.0
  0
LINE
  5
73
330
25
100
AcDbEntity
  8
0
 62
     0
100
AcDbLine
 10
257.9299187518418
 20
387.8
 30
0.0
 11
260.8678453382328
 21
387.8
 31
0.0
  0
LINE
  5
74
330
25
100
AcDbEntity
  8
0
 62
     0
100
AcDbLine
 10
181.973090143166
 20
387.9
 30
0.0
 11
184.9299187518418
 21
387.9
 31
0.0
  0
LINE
  5
75
330
25
100
AcDbEntity
  8
0
 62
     0
100
AcDbLine
 10
257.9299187518418
 20
387.9
 30
0.0
 11
260.8867473605188
 21
387.9
 31
0.0
  0
LINE
  5
76
330
25
100
AcDbEntity
  8
0
 62
     0
100
AcDbLine
 10
181.9576707448359
 20
388.0
 30
0.0
 11
184.9299187518418
 21
388.0
 31
0.0
  0
LINE
  5
77
330
25
100
AcDbEntity
  8
0
 62
     0
100
AcDbLine
 10
257.9299187518418
 20
388.0
 30
0.0
 11
260.9021667588489
 21
388.0
 31
0.0
  0
LINE
  5
78
330
25
100
AcDbEntity
  8
0
 62
     0
100
AcDbLine
 10
181.9456799863912
 20
388.1
 30
0.0
 11
184.9299187518418
 21
388.1
 31
0.0
  0
LINE
  5
79
330
25
100
AcDbEntity
  8
0
 62
     0
100
AcDbLine
 10
257.9299187518418
 20
388.1
 30
0.0
 11
260.9141575172935
 21
388.1
 31
0.0
  0
LINE
  5
7A
330
25
100
AcDbEntity
  8
0
 62
     0
100
AcDbLine
 10
181.9370766572292
 20
388.2000000000001
 30
0.0
 11
184.9299187518418
 21
388.2000000000001
 31
0.0
  0
LINE
  5
7B
330
25
100
AcDbEntity
  8
0
 62
     0
100
AcDbLine
 10
257.9299187518418
 20
388.2000000000001
 30
0.0
 11
260.9227608464556
 21
388.2000000000001
 31
0.0
  0
LINE
  5
7C
330
25
100
AcDbEntity
  8
0
 62
     0
100
AcDbLine
 10
181.9318315954448
 20
388.3
 30
0.0
 11
184.9299187518418
 21
388.3
 31
0.0
  0
LINE
  5
7D
330
25
100
AcDbEntity
  8
0
 62
     0
100
AcDbLine
 10
257.9299187518418
 20
388.3
 30
0.0
 11
260.9280059082399
 21
388.3
 31
0.0
  0
LINE
  5
7E
330
25
100
AcDbEntity
  8
0
 62
     0
100
AcDbLine
 10
182.3967024787329
 20
386.8
 30
0.0
 11
184.9299187518418
 21
386.8
 31
0.0
  0
LINE
  5
7F
330
25
100
AcDbEntity
  8
0
 62
     0
100
AcDbLine
 10
257.9299187518418
 20
386.8
 30
0.0
 11
260.4631350249522
 21
386.8
 31
0.0
  0
LINE
  5
80
330
25
100
AcDbEntity
  8
0
 62
     0
100
AcDbLine
 10
182.4629850493932
 20
386.7
 30
0.0
 11
184.9299187518418
 21
386.7
 31
0.0
  0
LINE
  5
81
330
25
100
AcDbEntity
  8
0
 62
     0
100
AcDbLine
 10
257.9299187518418
 20
386.7
 30
0.0
 11
260.3968524542919
 21
386.7
 31
0.0
  0
LINE
  5
82
330
25
100
AcDbEntity
  8
0
 62
     0
100
AcDbLine
 10
182.5352707405029
 20
386.6
 30
0.0
 11
184.9299187518418
 21
386.6
 31
0.0
  0
LINE
  5
83
330
25
100
AcDbEntity
  8
0
 62
     0
100
AcDbLine
 10
257.9299187518418
 20
386.6
 30
0.0
 11
260.3245667631823
 21
386.6
 31
0.0
  0
LINE
  5
84
330
25
100
AcDbEntity
  8
0
 62
     0
100
AcDbLine
 10
182.6141216311634
 20
386.5
 30
0.0
 11
184.9299187518418
 21
386.5
 31
0.0
  0
LINE
  5
85
330
25
100
AcDbEntity
  8
0
 62
     0
100
AcDbLine
 10
257.9299187518418
 20
386.5
 30
0.0
 11
260.2457158725218
 21
386.5
 31
0.0
  0
LINE
  5
86
330
25
100
AcDbEntity
  8
0
 62
     0
100
AcDbLine
 10
182.7002341306285
 20
386.4
 30
0.0
 11
184.9299187518418
 21
386.4
 31
0.0
  0
LINE
  5
87
330
25
100
AcDbEntity
  8
0
 62
     0
100
AcDbLine
 10
257.9299187518418
 20
386.4
 30
0.0
 11
260.1596033730568
 21
386.4
 31
0.0
  0
LINE
  5
88
330
25
100
AcDbEntity
  8
0
 62
     0
100
AcDbLine
 10
182.7944865435973
 20
386.3
 30
0.0
 11
184.9299187518418
 21
386.3
 31
0.0
  0
LINE
  5
89
330
25
100
AcDbEntity
  8
0
 62
     0
100
AcDbLine
 10
257.9299187518418
 20
386.3
 30
0.0
 11
260.065350960088
 21
386.3
 31
0.0
  0
LINE
  5
8A
330
25
100
AcDbEntity
  8
0
 62
     0
100
AcDbLine
 10
182.8980112928416
 20
386.2
 30
0.0
 11
184.9299187518418
 21
386.2
 31
0.0
  0
LINE
  5
8B
330
25
100
AcDbEntity
  8
0
 62
     0
100
AcDbLine
 10
257.9299187518418
 20
386.2
 30
0.0
 11
259.9618262108439
 21
386.2
 31
0.0
  0
LINE
  5
8C
330
25
100
AcDbEntity
  8
0
 62
     0
100
AcDbLine
 10
183.0123095299529
 20
386.1
 30
0.0
 11
184.9299187518418
 21
386.1
 31
0.0
  0
LINE
  5
8D
330
25
100
AcDbEntity
  8
0
 62
     0
100
AcDbLine
 10
257.9299187518418
 20
386.1
 30
0.0
 11
259.8475279737328
 21
386.1
 31
0.0
  0
LINE
  5
8E
330
25
100
AcDbEntity
  8
0
 62
     0
100
AcDbLine
 10
183.1394433027484
 20
386.0
 30
0.0
 11
184.9299187518418
 21
386.0
 31
0.0
  0
LINE
  5
8F
330
25
100
AcDbEntity
  8
0
 62
     0
100
AcDbLine
 10
257.9299187518418
 20
386.0
 30
0.0
 11
259.7203942009374
 21
386.0
 31
0.0
  0
LINE
  5
90
330
25
100
AcDbEntity
  8
0
 62
     0
100
AcDbLine
 10
183.2823813350469
 20
385.9
 30
0.0
 11
184.9299187518418
 21
385.9
 31
0.0
  0
LINE
  5
91
330
25
100
AcDbEntity
  8
0
 62
     0
100
AcDbLine
 10
257.9299187518418
 20
385.9
 30
0.0
 11
259.5774561686391
 21
385.9
 31
0.0
  0
LINE
  5
92
330
25
100
AcDbEntity
  8
0
 62
     0
100
AcDbLine
 10
183.4456826703266
 20
385.8
 30
0.0
 11
184.9299187518418
 21
385.8
 31
0.0
  0
LINE
  5
93
330
25
100
AcDbEntity
  8
0
 62
     0
100
AcDbLine
 10
257.9299187518418
 20
385.8
 30
0.0
 11
259.4141548333598
 21
385.8
 31
0.0
  0
LINE
  5
94
330
25
100
AcDbEntity
  8
0
 62
     0
100
AcDbLine
 10
183.6370405860409
 20
385.7000000000001
 30
0.0
 11
184.9299187518418
 21
385.7000000000001
 31
0.0
  0
LINE
  5
95
330
25
100
AcDbEntity
  8
0
 62
     0
100
AcDbLine
 10
257.9299187518418
 20
385.7000000000001
 30
0.0
 11
259.2227969176458
 21
385.7000000000001
 31
0.0
  0
LINE
  5
96
330
25
100
AcDbEntity
  8
0
 62
     0
100
AcDbLine
 10
183.8715657117189
 20
385.6
 30
0.0
 11
184.9299187518418
 21
385.6
 31
0.0
  0
LINE
  5
97
330
25
100
AcDbEntity
  8
0
 62
     0
100
AcDbLine
 10
257.9299187518418
 20
385.6
 30
0.0
 11
258.9882717919686
 21
385.6
 31
0.0
  0
LINE
  5
98
330
25
100
AcDbEntity
  8
0
 62
     0
100
AcDbLine
 10
184.1891837361513
 20
385.5
 30
0.0
 11
184.9299187518418
 21
385.5
 31
0.0
  0
LINE
  5
99
330
25
100
AcDbEntity
  8
0
 62
     0
100
AcDbLine
 10
257.9299187518418
 20
385.5
 30
0.0
 11
258.6706537675379
 21
385.5
 31
0.0
  0
ENDBLK
  5
9A
330
25
100
AcDbEntity
  8
0
100
AcDbBlockEnd
  0
BLOCK
  5
9B
330
26
100
AcDbEntity
  8
0
100
AcDbBlockBegin
  2
*X2
 70
     1
 10
0.0
 20
0.0
 30
0.0
  3
*X2
  1

  0
LINE
  5
9C
330
26
100
AcDbEntity
  8
0
 62
     0
100
AcDbLine
 10
184.9299187518418
 20
275.4395867437199
 30
0.0
 11
186.5299187518417
 21
277.0395867437198
 31
0.0
  0
LINE
  5
9D
330
26
100
AcDbEntity
  8
0
 62
     0
100
AcDbLine
 10
256.3299187518418
 20
346.8395867437199
 30
0.0
 11
257.9299187518418
 21
348.4395867437199
 31
0.0
  0
LINE
  5
9E
330
26
100
AcDbEntity
  8
0
 62
     0
100
AcDbLine
 10
184.9299187518418
 20
278.2680138684661
 30
0.0
 11
186.5299187518417
 21
279.868013868466
 31
0.0
  0
LINE
  5
9F
330
26
100
AcDbEntity
  8
0
 62
     0
100
AcDbLine
 10
256.3299187518418
 20
349.668013868466
 30
0.0
 11
257.9299187518418
 21
351.2680138684661
 31
0.0
  0
LINE
  5
A0
330
26
100
AcDbEntity
  8
0
 62
     0
100
AcDbLine
 10
184.9299187518418
 20
281.0964409932123
 30
0.0
 11
186.5299187518417
 21
282.6964409932122
 31
0.0
  0
LINE
  5
A1
330
26
100
AcDbEntity
  8
0
 62
     0
100
AcDbLine
 10
256.3299187518418
 20
352.4964409932122
 30
0.0
 11
257.9299187518418
 21
354.0964409932123
 31
0.0
  0
LINE
  5
A2
330
26
100
AcDbEntity
  8
0
 62
     0
100
AcDbLine
 10
184.9299187518418
 20
283.9248681179585
 30
0.0
 11
186.5299187518417
 21
285.5248681179584
 31
0.0
  0
LINE
  5
A3
330
26
100
AcDbEntity
  8
0
 62
     0
100
AcDbLine
 10
256.3299187518418
 20
355.3248681179584
 30
0.0
 11
257.9299187518418
 21
356.9248681179585
 31
0.0
  0
LINE
  5
A4
330
26
100
AcDbEntity
  8
0
 62
     0
100
AcDbLine
 10
184.9299187518418
 20
286.7532952427047
 30
0.0
 11
186.5299187518417
 21
288.3532952427046
 31
0.0
  0
LINE
  5
A5
330
26
100
AcDbEntity
  8
0
 62
     0
100
AcDbLine
 10
256.3299187518418
 20
358.1532952427047
 30
0.0
 11
257.9299187518418
 21
359.7532952427047
 31
0.0
  0
LINE
  5
A6
330
26
100
AcDbEntity
  8
0
 62
     0
100
AcDbLine
 10
184.9299187518418
 20
289.5817223674509
 30
0.0
 11
186.5299187518417
 21
291.1817223674508
 31
0.0
  0
LINE
  5
A7
330
26
100
AcDbEntity
  8
0
 62
     0
100
AcDbLine
 10
256.3299187518418
 20
360.9817223674508
 30
0.0
 11
257.9299187518418
 21
362.5817223674508
 31
0.0
  0
LINE
  5
A8
330
26
100
AcDbEntity
  8
0
 62
     0
100
AcDbLine
 10
184.9299187518418
 20
292.410149492197
 30
0.0
 11
186.5299187518417
 21
294.010149492197
 31
0.0
  0
LINE
  5
A9
330
26
100
AcDbEntity
  8
0
 62
     0
100
AcDbLine
 10
256.3299187518418
 20
363.810149492197
 30
0.0
 11
257.9299187518418
 21
365.410149492197
 31
0.0
  0
LINE
  5
AA
330
26
100
AcDbEntity
  8
0
 62
     0
100
AcDbLine
 10
184.9299187518418
 20
295.2385766169432
 30
0.0
 11
186.5299187518417
 21
296.8385766169431
 31
0.0
  0
LINE
  5
AB
330
26
100
AcDbEntity
  8
0
 62
     0
100
AcDbLine
 10
256.3299187518418
 20
366.6385766169432
 30
0.0
 11
257.9299187518418
 21
368.2385766169432
 31
0.0
  0
LINE
  5
AC
330
26
100
AcDbEntity
  8
0
 62
     0
100
AcDbLine
 10
184.9299187518418
 20
298.0670037416895
 30
0.0
 11
186.5299187518417
 21
299.6670037416893
 31
0.0
  0
LINE
  5
AD
330
26
100
AcDbEntity
  8
0
 62
     0
100
AcDbLine
 10
256.3299187518418
 20
369.4670037416894
 30
0.0
 11
257.9299187518418
 21
371.0670037416894
 31
0.0
  0
LINE
  5
AE
330
26
100
AcDbEntity
  8
0
 62
     0
100
AcDbLine
 10
184.9299187518418
 20
300.8954308664356
 30
0.0
 11
186.5299187518417
 21
302.4954308664355
 31
0.0
  0
LINE
  5
AF
330
26
100
AcDbEntity
  8
0
 62
     0
100
AcDbLine
 10
256.3299187518418
 20
372.2954308664356
 30
0.0
 11
257.9299187518418
 21
373.8954308664356
 31
0.0
  0
LINE
  5
B0
330
26
100
AcDbEntity
  8
0
 62
     0
100
AcDbLine
 10
184.9299187518418
 20
303.7238579911818
 30
0.0
 11
186.5299187518417
 21
305.3238579911818
 31
0.0
  0
LINE
  5
B1
330
26
100
AcDbEntity
  8
0
 62
     0
100
AcDbLine
 10
256.3299187518418
 20
375.1238579911818
 30
0.0
 11
257.9299187518418
 21
376.7238579911818
 31
0.0
  0
LINE
  5
B2
330
26
100
AcDbEntity
  8
0
 62
     0
100
AcDbLine
 10
184.9299187518418
 20
306.552285115928
 30
0.0
 11
186.5299187518417
 21
308.1522851159279
 31
0.0
  0
LINE
  5
B3
330
26
100
AcDbEntity
  8
0
 62
     0
100
AcDbLine
 10
256.3299187518418
 20
377.952285115928
 30
0.0
 11
257.9299187518418
 21
379.552285115928
 31
0.0
  0
LINE
  5
B4
330
26
100
AcDbEntity
  8
0
 62
     0
100
AcDbLine
 10
184.9299187518418
 20
309.3807122406742
 30
0.0
 11
186.5299187518417
 21
310.9807122406741
 31
0.0
  0
LINE
  5
B5
330
26
100
AcDbEntity
  8
0
 62
     0
100
AcDbLine
 10
256.3299187518419
 20
380.7807122406742
 30
0.0
 11
257.9299187518418
 21
382.3807122406742
 31
0.0
  0
LINE
  5
B6
330
26
100
AcDbEntity
  8
0
 62
     0
100
AcDbLine
 10
184.9299187518418
 20
312.2091393654204
 30
0.0
 11
186.5299187518417
 21
313.8091393654203
 31
0.0
  0
LINE
  5
B7
330
26
100
AcDbEntity
  8
0
 62
     0
100
AcDbLine
 10
256.3299187518419
 20
383.6091393654204
 30
0.0
 11
257.9299187518418
 21
385.2091393654204
 31
0.0
  0
LINE
  5
B8
330
26
100
AcDbEntity
  8
0
 62
     0
100
AcDbLine
 10
184.9299187518418
 20
315.0375664901666
 30
0.0
 11
186.5299187518417
 21
316.6375664901665
 31
0.0
  0
LINE
  5
B9
330
26
100
AcDbEntity
  8
0
 62
     0
100
AcDbLine
 10
256.3299187518419
 20
386.4375664901666
 30
0.0
 11
257.9299187518418
 21
388.0375664901666
 31
0.0
  0
LINE
  5
BA
330
26
100
AcDbEntity
  8
0
 62
     0
100
AcDbLine
 10
184.9299187518418
 20
317.8659936149128
 30
0.0
 11
186.5299187518417
 21
319.4659936149127
 31
0.0
  0
LINE
  5
BB
330
26
100
AcDbEntity
  8
0
 62
     0
100
AcDbLine
 10
256.3299187518419
 20
389.2659936149128
 30
0.0
 11
257.4710391072652
 21
390.4071139703362
 31
0.0
  0
LINE
  5
BC
330
26
100
AcDbEntity
  8
0
 62
     0
100
AcDbLine
 10
184.9299187518418
 20
320.6944207396589
 30
0.0
 11
186.5299187518417
 21
322.2944207396588
 31
0.0
  0
LINE
  5
BD
330
26
100
AcDbEntity
  8
0
 62
     0
100
AcDbLine
 10
184.9299187518418
 20
323.5228478644052
 30
0.0
 11
186.5299187518417
 21
325.1228478644051
 31
0.0
  0
LINE
  5
BE
330
26
100
AcDbEntity
  8
0
 62
     0
100
AcDbLine
 10
184.9299187518418
 20
326.3512749891514
 30
0.0
 11
186.5299187518417
 21
327.9512749891512
 31
0.0
  0
LINE
  5
BF
330
26
100
AcDbEntity
  8
0
 62
     0
100
AcDbLine
 10
184.9299187518418
 20
329.1797021138975
 30
0.0
 11
186.5299187518417
 21
330.7797021138974
 31
0.0
  0
LINE
  5
C0
330
26
100
AcDbEntity
  8
0
 62
     0
100
AcDbLine
 10
184.9299187518418
 20
332.0081292386437
 30
0.0
 11
186.5299187518417
 21
333.6081292386436
 31
0.0
  0
LINE
  5
C1
330
26
100
AcDbEntity
  8
0
 62
     0
100
AcDbLine
 10
184.9299187518418
 20
334.8365563633899
 30
0.0
 11
186.5299187518417
 21
336.4365563633898
 31
0.0
  0
LINE
  5
C2
330
26
100
AcDbEntity
  8
0
 62
     0
100
AcDbLine
 10
184.9299187518418
 20
337.6649834881361
 30
0.0
 11
186.5299187518417
 21
339.264983488136
 31
0.0
  0
LINE
  5
C3
330
26
100
AcDbEntity
  8
0
 62
     0
100
AcDbLine
 10
184.9299187518418
 20
340.4934106128823
 30
0.0
 11
186.5299187518417
 21
342.0934106128822
 31
0.0
  0
LINE
  5
C4
330
26
100
AcDbEntity
  8
0
 62
     0
100
AcDbLine
 10
184.9299187518418
 20
343.3218377376285
 30
0.0
 11
186.5299187518417
 21
344.9218377376284
 31
0.0
  0
LINE
  5
C5
330
26
100
AcDbEntity
  8
0
 62
     0
100
AcDbLine
 10
184.9299187518418
 20
346.1502648623747
 30
0.0
 11
186.5299187518417
 21
347.7502648623746
 31
0.0
  0
LINE
  5
C6
330
26
100
AcDbEntity
  8
0
 62
     0
100
AcDbLine
 10
184.9299187518418
 20
348.9786919871209
 30
0.0
 11
186.5299187518417
 21
350.5786919871208
 31
0.0
  0
LINE
  5
C7
330
26
100
AcDbEntity
  8
0
 62
     0
100
AcDbLine
 10
184.9299187518418
 20
351.8071191118671
 30
0.0
 11
186.5299187518417
 21
353.407119111867
 31
0.0
  0
LINE
  5
C8
330
26
100
AcDbEntity
  8
0
 62
     0
100
AcDbLine
 10
184.9299187518418
 20
354.6355462366133
 30
0.0
 11
186.5299187518417
 21
356.2355462366131
 31
0.0
  0
LINE
  5
C9
330
26
100
AcDbEntity
  8
0
 62
     0
100
AcDbLine
 10
184.9299187518418
 20
357.4639733613594
 30
0.0
 11
186.5299187518417
 21
359.0639733613593
 31
0.0
  0
LINE
  5
CA
330
26
100
AcDbEntity
  8
0
 62
     0
100
AcDbLine
 10
184.9299187518418
 20
360.2924004861056
 30
0.0
 11
186.5299187518417
 21
361.8924004861055
 31
0.0
  0
LINE
  5
CB
330
26
100
AcDbEntity
  8
0
 62
     0
100
AcDbLine
 10
184.9299187518418
 20
363.1208276108518
 30
0.0
 11
186.5299187518417
 21
364.7208276108517
 31
0.0
  0
LINE
  5
CC
330
26
100
AcDbEntity
  8
0
 62
     0
100
AcDbLine
 10
184.9299187518418
 20
365.949254735598
 30
0.0
 11
186.5299187518417
 21
367.5492547355978
 31
0.0
  0
LINE
  5
CD
330
26
100
AcDbEntity
  8
0
 62
     0
100
AcDbLine
 10
184.9299187518418
 20
368.7776818603442
 30
0.0
 11
186.5299187518417
 21
370.377681860344
 31
0.0
  0
LINE
  5
CE
330
26
100
AcDbEntity
  8
0
 62
     0
100
AcDbLine
 10
184.9299187518418
 20
371.6061089850904
 30
0.0
 11
186.5299187518417
 21
373.2061089850903
 31
0.0
  0
LINE
  5
CF
330
26
100
AcDbEntity
  8
0
 62
     0
100
AcDbLine
 10
184.9299187518418
 20
374.4345361098366
 30
0.0
 11
186.5299187518417
 21
376.0345361098365
 31
0.0
  0
LINE
  5
D0
330
26
100
AcDbEntity
  8
0
 62
     0
100
AcDbLine
 10
184.9299187518418
 20
377.2629632345827
 30
0.0
 11
186.5299187518417
 21
378.8629632345827
 31
0.0
  0
LINE
  5
D1
330
26
100
AcDbEntity
  8
0
 62
     0
100
AcDbLine
 10
184.9299187518418
 20
380.091390359329
 30
0.0
 11
186.5299187518417
 21
381.6913903593288
 31
0.0
  0
LINE
  5
D2
330
26
100
AcDbEntity
  8
0
 62
     0
100
AcDbLine
 10
184.9299187518418
 20
382.9198174840751
 30
0.0
 11
186.5299187518417
 21
384.519817484075
 31
0.0
  0
LINE
  5
D3
330
26
100
AcDbEntity
  8
0
 62
     0
100
AcDbLine
 10
184.9299187518418
 20
385.7482446088213
 30
0.0
 11
186.5299187518417
 21
387.3482446088212
 31
0.0
  0
LINE
  5
D4
330
26
100
AcDbEntity
  8
0
 62
     0
100
AcDbLine
 10
184.9299187518418
 20
388.5766717335675
 30
0.0
 11
186.5299187518417
 21
390.1766717335674
 31
0.0
  0
LINE
  5
D5
330
26
100
AcDbEntity
  8
0
 62
     0
100
AcDbLine
 10
184.9299187518418
 20
272.6111596189737
 30
0.0
 11
186.5299187518417
 21
274.2111596189736
 31
0.0
  0
LINE
  5
D6
330
26
100
AcDbEntity
  8
0
 62
     0
100
AcDbLine
 10
256.3299187518417
 20
344.0111596189737
 30
0.0
 11
257.9299187518418
 21
345.6111596189737
 31
0.0
  0
LINE
  5
D7
330
26
100
AcDbEntity
  8
0
 62
     0
100
AcDbLine
 10
184.9299187518418
 20
269.7827324942275
 30
0.0
 11
186.5299187518417
 21
271.3827324942275
 31
0.0
  0
LINE
  5
D8
330
26
100
AcDbEntity
  8
0
 62
     0
100
AcDbLine
 10
256.3299187518417
 20
341.1827324942274
 30
0.0
 11
257.9299187518418
 21
342.7827324942275
 31
0.0
  0
LINE
  5
D9
330
26
100
AcDbEntity
  8
0
 62
     0
100
AcDbLine
 10
184.9299187518418
 20
266.9543053694813
 30
0.0
 11
186.5299187518417
 21
268.5543053694813
 31
0.0
  0
LINE
  5
DA
330
26
100
AcDbEntity
  8
0
 62
     0
100
AcDbLine
 10
256.3299187518417
 20
338.3543053694813
 30
0.0
 11
257.9299187518418
 21
339.9543053694813
 31
0.0
  0
LINE
  5
DB
330
26
100
AcDbEntity
  8
0
 62
     0
100
AcDbLine
 10
184.9299187518418
 20
264.1258782447352
 30
0.0
 11
186.5299187518417
 21
265.7258782447351
 31
0.0
  0
LINE
  5
DC
330
26
100
AcDbEntity
  8
0
 62
     0
100
AcDbLine
 10
256.3299187518417
 20
335.525878244735
 30
0.0
 11
257.9299187518418
 21
337.1258782447351
 31
0.0
  0
LINE
  5
DD
330
26
100
AcDbEntity
  8
0
 62
     0
100
AcDbLine
 10
184.9299187518418
 20
261.297451119989
 30
0.0
 11
186.5299187518417
 21
262.8974511199889
 31
0.0
  0
LINE
  5
DE
330
26
100
AcDbEntity
  8
0
 62
     0
100
AcDbLine
 10
256.3299187518417
 20
332.6974511199888
 30
0.0
 11
257.9299187518418
 21
334.2974511199889
 31
0.0
  0
LINE
  5
DF
330
26
100
AcDbEntity
  8
0
 62
     0
100
AcDbLine
 10
184.9299187518418
 20
258.4690239952428
 30
0.0
 11
186.5299187518417
 21
260.0690239952427
 31
0.0
  0
LINE
  5
E0
330
26
100
AcDbEntity
  8
0
 62
     0
100
AcDbLine
 10
256.3299187518417
 20
329.8690239952426
 30
0.0
 11
257.9299187518418
 21
331.4690239952428
 31
0.0
  0
LINE
  5
E1
330
26
100
AcDbEntity
  8
0
 62
     0
100
AcDbLine
 10
184.9299187518418
 20
255.6405968704966
 30
0.0
 11
186.5299187518417
 21
257.2405968704964
 31
0.0
  0
LINE
  5
E2
330
26
100
AcDbEntity
  8
0
 62
     0
100
AcDbLine
 10
256.3299187518417
 20
327.0405968704964
 30
0.0
 11
257.9299187518418
 21
328.6405968704965
 31
0.0
  0
LINE
  5
E3
330
26
100
AcDbEntity
  8
0
 62
     0
100
AcDbLine
 10
184.9299187518418
 20
252.8121697457504
 30
0.0
 11
186.5299187518417
 21
254.4121697457503
 31
0.0
  0
LINE
  5
E4
330
26
100
AcDbEntity
  8
0
 62
     0
100
AcDbLine
 10
256.3299187518417
 20
324.2121697457502
 30
0.0
 11
257.9299187518418
 21
325.8121697457504
 31
0.0
  0
LINE
  5
E5
330
26
100
AcDbEntity
  8
0
 62
     0
100
AcDbLine
 10
184.9299187518418
 20
249.9837426210042
 30
0.0
 11
186.5299187518417
 21
251.5837426210041
 31
0.0
  0
LINE
  5
E6
330
26
100
AcDbEntity
  8
0
 62
     0
100
AcDbLine
 10
256.3299187518417
 20
321.383742621004
 30
0.0
 11
257.9299187518418
 21
322.9837426210042
 31
0.0
  0
LINE
  5
E7
330
26
100
AcDbEntity
  8
0
 62
     0
100
AcDbLine
 10
185.0306261699273
 20
247.2560229143435
 30
0.0
 11
186.5299187518417
 21
248.7553154962579
 31
0.0
  0
LINE
  5
E8
330
26
100
AcDbEntity
  8
0
 62
     0
100
AcDbLine
 10
256.3299187518417
 20
318.5553154962578
 30
0.0
 11
257.9299187518418
 21
320.155315496258
 31
0.0
  0
LINE
  5
E9
330
26
100
AcDbEntity
  8
0
 62
     0
100
AcDbLine
 10
185.2581736537072
 20
244.6551432733772
 30
0.0
 11
186.7350734081026
 21
246.1320430277726
 31
0.0
  0
LINE
  5
EA
330
26
100
AcDbEntity
  8
0
 62
     0
100
AcDbLine
 10
256.3299187518417
 20
315.7268883715116
 30
0.0
 11
257.9299187518418
 21
317.3268883715118
 31
0.0
  0
LINE
  5
EB
330
26
100
AcDbEntity
  8
0
 62
     0
100
AcDbLine
 10
185.4857211374871
 20
242.0542636324109
 30
0.0
 11
186.9626208918825
 21
243.5311633868064
 31
0.0
  0
LINE
  5
EC
330
26
100
AcDbEntity
  8
0
 62
     0
100
AcDbLine
 10
256.3299187518417
 20
312.8984612467655
 30
0.0
 11
257.9299187518418
 21
314.4984612467656
 31
0.0
  0
LINE
  5
ED
330
26
100
AcDbEntity
  8
0
 62
     0
100
AcDbLine
 10
185.713268621267
 20
239.4533839914446
 30
0.0
 11
187.1901683756625
 21
240.9302837458401
 31
0.0
  0
LINE
  5
EE
330
26
100
AcDbEntity
  8
0
 62
     0
100
AcDbLine
 10
256.3299187518417
 20
310.0700341220193
 30
0.0
 11
257.9299187518418
 21
311.6700341220195
 31
0.0
  0
LINE
  5
EF
330
26
100
AcDbEntity
  8
0
 62
     0
100
AcDbLine
 10
256.3299187518416
 20
307.241606997273
 30
0.0
 11
257.9299187518418
 21
308.8416069972732
 31
0.0
  0
LINE
  5
F0
330
26
100
AcDbEntity
  8
0
 62
     0
100
AcDbLine
 10
256.3299187518416
 20
304.4131798725268
 30
0.0
 11
257.9299187518418
 21
306.013179872527
 31
0.0
  0
LINE
  5
F1
330
26
100
AcDbEntity
  8
0
 62
     0
100
AcDbLine
 10
256.3299187518416
 20
301.5847527477807
 30
0.0
 11
257.9299187518418
 21
303.1847527477808
 31
0.0
  0
LINE
  5
F2
330
26
100
AcDbEntity
  8
0
 62
     0
100
AcDbLine
 10
256.3299187518416
 20
298.7563256230345
 30
0.0
 11
257.9299187518418
 21
300.3563256230346
 31
0.0
  0
LINE
  5
F3
330
26
100
AcDbEntity
  8
0
 62
     0
100
AcDbLine
 10
256.3299187518416
 20
295.9278984982883
 30
0.0
 11
257.9299187518418
 21
297.5278984982885
 31
0.0
  0
LINE
  5
F4
330
26
100
AcDbEntity
  8
0
 62
     0
100
AcDbLine
 10
256.3299187518416
 20
293.099471373542
 30
0.0
 11
257.9299187518418
 21
294.6994713735423
 31
0.0
  0
LINE
  5
F5
330
26
100
AcDbEntity
  8
0
 62
     0
100
AcDbLine
 10
256.3299187518416
 20
290.2710442487959
 30
0.0
 11
257.9299187518418
 21
291.8710442487961
 31
0.0
  0
LINE
  5
F6
330
26
100
AcDbEntity
  8
0
 62
     0
100
AcDbLine
 10
256.3299187518416
 20
287.4426171240497
 30
0.0
 11
257.9299187518418
 21
289.0426171240499
 31
0.0
  0
LINE
  5
F7
330
26
100
AcDbEntity
  8
0
 62
     0
100
AcDbLine
 10
256.3299187518416
 20
284.6141899993035
 30
0.0
 11
257.9299187518418
 21
286.2141899993037
 31
0.0
  0
LINE
  5
F8
330
26
100
AcDbEntity
  8
0
 62
     0
100
AcDbLine
 10
256.3299187518416
 20
281.7857628745572
 30
0.0
 11
257.9299187518418
 21
283.3857628745576
 31
0.0
  0
LINE
  5
F9
330
26
100
AcDbEntity
  8
0
 62
     0
100
AcDbLine
 10
256.3299187518416
 20
278.9573357498111
 30
0.0
 11
257.9299187518418
 21
280.5573357498113
 31
0.0
  0
LINE
  5
FA
330
26
100
AcDbEntity
  8
0
 62
     0
100
AcDbLine
 10
256.3299187518416
 20
276.1289086250648
 30
0.0
 11
257.9299187518418
 21
277.7289086250651
 31
0.0
  0
LINE
  5
FB
330
26
100
AcDbEntity
  8
0
 62
     0
100
AcDbLine
 10
256.3299187518416
 20
273.3004815003186
 30
0.0
 11
257.9299187518418
 21
274.900481500319
 31
0.0
  0
LINE
  5
FC
330
26
100
AcDbEntity
  8
0
 62
     0
100
AcDbLine
 10
256.3299187518415
 20
270.4720543755724
 30
0.0
 11
257.9299187518418
 21
272.0720543755728
 31
0.0
  0
LINE
  5
FD
330
26
100
AcDbEntity
  8
0
 62
     0
100
AcDbLine
 10
256.3299187518415
 20
267.6436272508263
 30
0.0
 11
257.9299187518418
 21
269.2436272508266
 31
0.0
  0
LINE
  5
FE
330
26
100
AcDbEntity
  8
0
 62
     0
100
AcDbLine
 10
256.3299187518415
 20
264.8152001260801
 30
0.0
 11
257.9299187518418
 21
266.4152001260804
 31
0.0
  0
LINE
  5
FF
330
26
100
AcDbEntity
  8
0
 62
     0
100
AcDbLine
 10
256.3299187518415
 20
261.9867730013339
 30
0.0
 11
257.9299187518418
 21
263.5867730013341
 31
0.0
  0
LINE
  5
100
330
26
100
AcDbEntity
  8
0
 62
     0
100
AcDbLine
 10
256.3299187518415
 20
259.1583458765876
 30
0.0
 11
257.9299187518418
 21
260.758345876588
 31
0.0
  0
LINE
  5
101
330
26
100
AcDbEntity
  8
0
 62
     0
100
AcDbLine
 10
256.3299187518415
 20
256.3299187518415
 30
0.0
 11
257.9299187518418
 21
257.9299187518418
 31
0.0
  0
LINE
  5
102
330
26
100
AcDbEntity
  8
0
 62
     0
100
AcDbLine
 10
256.3299187518414
 20
253.5014916270953
 30
0.0
 11
257.9299187518418
 21
255.1014916270956
 31
0.0
  0
LINE
  5
103
330
26
100
AcDbEntity
  8
0
 62
     0
100
AcDbLine
 10
256.3299187518414
 20
250.6730645023491
 30
0.0
 11
257.9299187518418
 21
252.2730645023494
 31
0.0
  0
LINE
  5
104
330
26
100
AcDbEntity
  8
0
 62
     0
100
AcDbLine
 10
256.2692925840112
 20
247.7840112097727
 30
0.0
 11
257.9299187518418
 21
249.4446373776032
 31
0.0
  0
LINE
  5
105
330
26
100
AcDbEntity
  8
0
 62
     0
100
AcDbLine
 10
255.9981120527308
 20
244.684403553746
 30
0.0
 11
257.7582126409331
 21
246.4445041419483
 31
0.0
  0
LINE
  5
106
330
26
100
AcDbEntity
  8
0
 62
     0
100
AcDbLine
 10
255.7269315214503
 20
241.5847958977193
 30
0.0
 11
257.4870321096526
 21
243.3448964859216
 31
0.0
  0
LINE
  5
107
330
26
100
AcDbEntity
  8
0
 62
     0
100
AcDbLine
 10
255.4557509901699
 20
238.4851882416927
 30
0.0
 11
257.2158515783721
 21
240.245288829895
 31
0.0
  0
ENDBLK
  5
108
330
26
100
AcDbEntity
  8
0
100
AcDbBlockEnd
  0
BLOCK
  5
109
330
27
100
AcDbEntity
  8
0
100
AcDbBlockBegin
  2
*X3
 70
     1
 10
0.0
 20
0.0
 30
0.0
  3
*X3
  1

  0
LINE
  5
10A
330
27
100
AcDbEntity
  8
0
 62
     0
100
AcDbLine
 10
163.9075472462249
 20
452.4071139703362
 30
0.0
 11
163.9299187518419
 21
452.4294854759532
 31
0.0
  0
LINE
  5
10B
330
27
100
AcDbEntity
  8
0
 62
     0
100
AcDbLine
 10
161.1688489745415
 20
452.496842823399
 30
0.0
 11
163.0791201214787
 21
454.4071139703363
 31
0.0
  0
LINE
  5
10C
330
27
100
AcDbEntity
  8
0
 62
     0
100
AcDbLine
 10
158.9946731841829
 20
453.1510941577867
 30
0.0
 11
160.5358749559991
 21
454.6922959296028
 31
0.0
  0
LINE
  5
10D
330
27
100
AcDbEntity
  8
0
 62
     0
100
AcDbLine
 10
157.2609331594792
 20
454.2457812578291
 30
0.0
 11
158.6834758619232
 21
455.6683239602731
 31
0.0
  0
LINE
  5
10E
330
27
100
AcDbEntity
  8
0
 62
     0
100
AcDbLine
 10
155.8915467654589
 20
455.7048219885551
 30
0.0
 11
157.3294295202763
 21
457.1427047433724
 31
0.0
  0
LINE
  5
10F
330
27
100
AcDbEntity
  8
0
 62
     0
100
AcDbLine
 10
154.8241876353012
 20
457.4658899831435
 30
0.0
 11
156.2882892504389
 21
458.9299915982812
 31
0.0
  0
LINE
  5
110
330
27
100
AcDbEntity
  8
0
 62
     0
100
AcDbLine
 10
153.7889114548911
 20
459.2590409274796
 30
0.0
 11
155.2530130700288
 21
460.7231425426173
 31
0.0
  0
LINE
  5
111
330
27
100
AcDbEntity
  8
0
 62
     0
100
AcDbLine
 10
152.753635274481
 20
461.0521918718157
 30
0.0
 11
154.2177368896188
 21
462.5162934869535
 31
0.0
  0
LINE
  5
112
330
27
100
AcDbEntity
  8
0
 62
     0
100
AcDbLine
 10
151.7183590940709
 20
462.8453428161519
 30
0.0
 11
153.1824607092087
 21
464.3094444312896
 31
0.0
  0
LINE
  5
113
330
27
100
AcDbEntity
  8
0
 62
     0
100
AcDbLine
 10
150.6830829136609
 20
464.6384937604879
 30
0.0
 11
152.1471845287987
 21
466.1025953756257
 31
0.0
  0
LINE
  5
114
330
27
100
AcDbEntity
  8
0
 62
     0
100
AcDbLine
 10
149.6478067332508
 20
466.431644704824
 30
0.0
 11
151.1119083483886
 21
467.8957463199618
 31
0.0
  0
LINE
  5
115
330
27
100
AcDbEntity
  8
0
 62
     0
100
AcDbLine
 10
148.6125305528407
 20
468.2247956491601
 30
0.0
 11
150.0766321679785
 21
469.6888972642979
 31
0.0
  0
LINE
  5
116
330
27
100
AcDbEntity
  8
0
 62
     0
100
AcDbLine
 10
147.9299187518419
 20
470.3706109729075
 30
0.0
 11
149.9299187518419
 21
472.3706109729075
 31
0.0
  0
LINE
  5
117
330
27
100
AcDbEntity
  8
0
 62
     0
100
AcDbLine
 10
147.9299187518419
 20
473.1990380976538
 30
0.0
 11
150.4087404093871
 21
475.6778597551989
 31
0.0
  0
LINE
  5
118
330
27
100
AcDbEntity
  8
0
 62
     0
100
AcDbLine
 10
148.5621583708615
 20
476.6597048414196
 30
0.0
 11
151.0838194140108
 21
479.1813658845688
 31
0.0
  0
LINE
  5
119
330
27
100
AcDbEntity
  8
0
 62
     0
100
AcDbLine
 10
149.1702193397017
 20
480.0961929350059
 30
0.0
 11
151.0274217185975
 21
481.9533953139017
 31
0.0
  0
LINE
  5
11A
330
27
100
AcDbEntity
  8
0
 62
     0
100
AcDbLine
 10
148.7861661513661
 20
482.5405668714164
 30
0.0
 11
150.298997689498
 21
484.0533984095483
 31
0.0
  0
LINE
  5
11B
330
27
100
AcDbEntity
  8
0
 62
     0
100
AcDbLine
 10
147.7316107591274
 20
484.314438603924
 30
0.0
 11
149.1489085351231
 21
485.7317363799197
 31
0.0
  0
LINE
  5
11C
330
27
100
AcDbEntity
  8
0
 62
     0
100
AcDbLine
 10
146.1869794860274
 20
485.5982344555703
 30
0.0
 11
147.6376787437679
 21
487.0489337133107
 31
0.0
  0
LINE
  5
11D
330
27
100
AcDbEntity
  8
0
 62
     0
100
AcDbLine
 10
144.0967208528384
 20
486.3364029471274
 30
0.0
 11
145.7446260613981
 21
487.984308155687
 31
0.0
  0
LINE
  5
11E
330
27
100
AcDbEntity
  8
0
 62
     0
100
AcDbLine
 10
141.3390047513012
 20
486.4071139703362
 30
0.0
 11
143.3374217289025
 21
488.4055309479376
 31
0.0
  0
LINE
  5
11F
330
27
100
AcDbEntity
  8
0
 62
     0
100
AcDbLine
 10
138.510577626555
 20
486.4071139703362
 30
0.0
 11
140.5105776265549
 21
488.4071139703363
 31
0.0
  0
LINE
  5
120
330
27
100
AcDbEntity
  8
0
 62
     0
100
AcDbLine
 10
135.6821505018088
 20
486.4071139703362
 30
0.0
 11
137.6821505018087
 21
488.4071139703363
 31
0.0
  0
LINE
  5
121
330
27
100
AcDbEntity
  8
0
 62
     0
100
AcDbLine
 10
132.8537233770626
 20
486.4071139703362
 30
0.0
 11
134.8537233770626
 21
488.4071139703363
 31
0.0
  0
LINE
  5
122
330
27
100
AcDbEntity
  8
0
 62
     0
100
AcDbLine
 10
130.0252962523164
 20
486.4071139703362
 30
0.0
 11
132.0252962523163
 21
488.4071139703363
 31
0.0
  0
LINE
  5
123
330
27
100
AcDbEntity
  8
0
 62
     0
100
AcDbLine
 10
127.1968691275702
 20
486.4071139703362
 30
0.0
 11
129.1968691275702
 21
488.4071139703363
 31
0.0
  0
LINE
  5
124
330
27
100
AcDbEntity
  8
0
 62
     0
100
AcDbLine
 10
124.368442002824
 20
486.4071139703362
 30
0.0
 11
126.368442002824
 21
488.4071139703363
 31
0.0
  0
LINE
  5
125
330
27
100
AcDbEntity
  8
0
 62
     0
100
AcDbLine
 10
121.5400148780778
 20
486.4071139703362
 30
0.0
 11
123.5400148780778
 21
488.4071139703363
 31
0.0
  0
LINE
  5
126
330
27
100
AcDbEntity
  8
0
 62
     0
100
AcDbLine
 10
118.7115877533316
 20
486.4071139703362
 30
0.0
 11
120.7115877533316
 21
488.4071139703363
 31
0.0
  0
LINE
  5
127
330
27
100
AcDbEntity
  8
0
 62
     0
100
AcDbLine
 10
115.8831606285855
 20
486.4071139703362
 30
0.0
 11
117.8831606285854
 21
488.4071139703363
 31
0.0
  0
LINE
  5
128
330
27
100
AcDbEntity
  8
0
 62
     0
100
AcDbLine
 10
113.0547335038392
 20
486.4071139703362
 30
0.0
 11
115.0547335038392
 21
488.4071139703363
 31
0.0
  0
LINE
  5
129
330
27
100
AcDbEntity
  8
0
 62
     0
100
AcDbLine
 10
110.2263063790931
 20
486.4071139703362
 30
0.0
 11
112.226306379093
 21
488.4071139703363
 31
0.0
  0
LINE
  5
12A
330
27
100
AcDbEntity
  8
0
 62
     0
100
AcDbLine
 10
107.3978792543469
 20
486.4071139703362
 30
0.0
 11
109.3978792543468
 21
488.4071139703363
 31
0.0
  0
LINE
  5
12B
330
27
100
AcDbEntity
  8
0
 62
     0
100
AcDbLine
 10
104.5694521296007
 20
486.4071139703362
 30
0.0
 11
106.5694521296006
 21
488.4071139703363
 31
0.0
  0
LINE
  5
12C
330
27
100
AcDbEntity
  8
0
 62
     0
100
AcDbLine
 10
101.7410250048545
 20
486.4071139703362
 30
0.0
 11
103.7410250048544
 21
488.4071139703363
 31
0.0
  0
LINE
  5
12D
330
27
100
AcDbEntity
  8
0
 62
     0
100
AcDbLine
 10
98.91259788010833
 20
486.4071139703362
 30
0.0
 11
100.9125978801083
 21
488.4071139703363
 31
0.0
  0
LINE
  5
12E
330
27
100
AcDbEntity
  8
0
 62
     0
100
AcDbLine
 10
96.08417075536214
 20
486.4071139703362
 30
0.0
 11
98.0841707553621
 21
488.4071139703363
 31
0.0
  0
LINE
  5
12F
330
27
100
AcDbEntity
  8
0
 62
     0
100
AcDbLine
 10
92.93504850486487
 20
486.0864188445852
 30
0.0
 11
95.2557436306159
 21
488.4071139703363
 31
0.0
  0
LINE
  5
130
330
27
100
AcDbEntity
  8
0
 62
     0
100
AcDbLine
 10
89.44110911547246
 20
485.4209065799389
 30
0.0
 11
91.95611597740576
 21
487.9359134418723
 31
0.0
  0
LINE
  5
131
330
27
100
AcDbEntity
  8
0
 62
     0
100
AcDbLine
 10
85.94716972608008
 20
484.7553943152927
 30
0.0
 11
88.46217658801341
 21
487.2704011772261
 31
0.0
  0
LINE
  5
132
330
27
100
AcDbEntity
  8
0
 62
     0
100
AcDbLine
 10
84.06440571256744
 20
485.7010574265264
 30
0.0
 11
84.96823719862105
 21
486.6048889125799
 31
0.0
  0
LINE
  5
133
330
27
100
AcDbEntity
  8
0
 62
     0
100
AcDbLine
 10
291.7238302580068
 20
481.2284476160015
 30
0.0
 11
298.8602231119438
 21
488.3648404699385
 31
0.0
  0
LINE
  5
134
330
27
100
AcDbEntity
  8
0
 62
     0
100
AcDbLine
 10
291.8897174460128
 20
478.5659076792613
 30
0.0
 11
293.6817581985074
 21
480.3579484317559
 31
0.0
  0
LINE
  5
135
330
27
100
AcDbEntity
  8
0
 62
     0
100
AcDbLine
 10
299.7309237370878
 20
486.4071139703362
 30
0.0
 11
301.7309237370878
 21
488.4071139703362
 31
0.0
  0
LINE
  5
136
330
27
100
AcDbEntity
  8
0
 62
     0
100
AcDbLine
 10
292.3500319159312
 20
476.1977950244335
 30
0.0
 11
294.0558816978833
 21
477.9036448063856
 31
0.0
  0
LINE
  5
137
330
27
100
AcDbEntity
  8
0
 62
     0
100
AcDbLine
 10
302.559350861834
 20
486.4071139703362
 30
0.0
 11
304.5593508618339
 21
488.4071139703362
 31
0.0
  0
LINE
  5
138
330
27
100
AcDbEntity
  8
0
 62
     0
100
AcDbLine
 10
292.8103463858495
 20
473.8296823696057
 30
0.0
 11
294.5161961678017
 21
475.5355321515578
 31
0.0
  0
LINE
  5
139
330
27
100
AcDbEntity
  8
0
 62
     0
100
AcDbLine
 10
305.3877779865802
 20
486.4071139703362
 30
0.0
 11
307.3877779865802
 21
488.4071139703362
 31
0.0
  0
LINE
  5
13A
330
27
100
AcDbEntity
  8
0
 62
     0
100
AcDbLine
 10
292.9299187518418
 20
471.1208276108518
 30
0.0
 11
294.9299187518418
 21
473.1208276108517
 31
0.0
  0
LINE
  5
13B
330
27
100
AcDbEntity
  8
0
 62
     0
100
AcDbLine
 10
308.2162051113264
 20
486.4071139703362
 30
0.0
 11
310.2162051113263
 21
488.4071139703362
 31
0.0
  0
LINE
  5
13C
330
27
100
AcDbEntity
  8
0
 62
     0
100
AcDbLine
 10
278.9299187518418
 20
454.2924004861055
 30
0.0
 11
279.0446322360725
 21
454.4071139703363
 31
0.0
  0
LINE
  5
13D
330
27
100
AcDbEntity
  8
0
 62
     0
100
AcDbLine
 10
311.0446322360725
 20
486.4071139703362
 30
0.0
 11
313.0446322360725
 21
488.4071139703362
 31
0.0
  0
LINE
  5
13E
330
27
100
AcDbEntity
  8
0
 62
     0
100
AcDbLine
 10
290.6751410068727
 20
466.0376227411364
 30
0.0
 11
294.9299187518418
 21
470.2924004861055
 31
0.0
  0
LINE
  5
13F
330
27
100
AcDbEntity
  8
0
 62
     0
100
AcDbLine
 10
279.8730593608186
 20
452.4071139703361
 30
0.0
 11
282.0881025437259
 21
454.6221571532434
 31
0.0
  0
LINE
  5
140
330
27
100
AcDbEntity
  8
0
 62
     0
100
AcDbLine
 10
313.8730593608187
 20
486.4071139703362
 30
0.0
 11
315.8730593608187
 21
488.4071139703362
 31
0.0
  0
LINE
  5
141
330
27
100
AcDbEntity
  8
0
 62
     0
100
AcDbLine
 10
286.8114377017166
 20
459.3454923112341
 30
0.0
 11
292.2755393168543
 21
464.8095939263718
 31
0.0
  0
LINE
  5
142
330
27
100
AcDbEntity
  8
0
 62
     0
100
AcDbLine
 10
283.1569319243338
 20
452.8625594091051
 30
0.0
 11
288.411836011698
 21
458.1174634964694
 31
0.0
  0
LINE
  5
143
330
27
100
AcDbEntity
  8
0
 62
     0
100
AcDbLine
 10
316.7014864855649
 20
486.4071139703362
 30
0.0
 11
318.7014864855649
 21
488.4071139703362
 31
0.0
  0
LINE
  5
144
330
27
100
AcDbEntity
  8
0
 62
     0
100
AcDbLine
 10
319.5299136103111
 20
486.4071139703362
 30
0.0
 11
321.5299136103111
 21
488.4071139703362
 31
0.0
  0
LINE
  5
145
330
27
100
AcDbEntity
  8
0
 62
     0
100
AcDbLine
 10
322.3583407350572
 20
486.4071139703362
 30
0.0
 11
324.3583407350572
 21
488.4071139703362
 31
0.0
  0
LINE
  5
146
330
27
100
AcDbEntity
  8
0
 62
     0
100
AcDbLine
 10
325.1867678598035
 20
486.4071139703362
 30
0.0
 11
327.1867678598035
 21
488.4071139703362
 31
0.0
  0
LINE
  5
147
330
27
100
AcDbEntity
  8
0
 62
     0
100
AcDbLine
 10
328.0151949845497
 20
486.4071139703362
 30
0.0
 11
330.0151949845496
 21
488.4071139703362
 31
0.0
  0
LINE
  5
148
330
27
100
AcDbEntity
  8
0
 62
     0
100
AcDbLine
 10
330.8436221092958
 20
486.4071139703362
 30
0.0
 11
332.8436221092959
 21
488.4071139703362
 31
0.0
  0
LINE
  5
149
330
27
100
AcDbEntity
  8
0
 62
     0
100
AcDbLine
 10
333.6720492340421
 20
486.4071139703362
 30
0.0
 11
335.6720492340421
 21
488.4071139703362
 31
0.0
  0
LINE
  5
14A
330
27
100
AcDbEntity
  8
0
 62
     0
100
AcDbLine
 10
336.5004763587882
 20
486.4071139703362
 30
0.0
 11
338.5004763587882
 21
488.4071139703362
 31
0.0
  0
LINE
  5
14B
330
27
100
AcDbEntity
  8
0
 62
     0
100
AcDbLine
 10
339.3289034835344
 20
486.4071139703362
 30
0.0
 11
341.3289034835344
 21
488.4071139703362
 31
0.0
  0
LINE
  5
14C
330
27
100
AcDbEntity
  8
0
 62
     0
100
AcDbLine
 10
342.1573306082806
 20
486.4071139703362
 30
0.0
 11
344.1573306082806
 21
488.4071139703362
 31
0.0
  0
LINE
  5
14D
330
27
100
AcDbEntity
  8
0
 62
     0
100
AcDbLine
 10
344.9857577330268
 20
486.4071139703362
 30
0.0
 11
346.9857577330268
 21
488.4071139703362
 31
0.0
  0
LINE
  5
14E
330
27
100
AcDbEntity
  8
0
 62
     0
100
AcDbLine
 10
347.814184857773
 20
486.4071139703362
 30
0.0
 11
349.592702280824
 21
488.1856313933872
 31
0.0
  0
LINE
  5
14F
330
27
100
AcDbEntity
  8
0
 62
     0
100
AcDbLine
 10
350.2583763994963
 20
486.0228783873134
 30
0.0
 11
351.9685810656107
 21
487.7330830534279
 31
0.0
  0
LINE
  5
150
330
27
100
AcDbEntity
  8
0
 62
     0
100
AcDbLine
 10
352.6342551842831
 20
485.570330047354
 30
0.0
 11
354.3444598503976
 21
487.2805347134685
 31
0.0
  0
LINE
  5
151
330
27
100
AcDbEntity
  8
0
 62
     0
100
AcDbLine
 10
355.0101339690698
 20
485.1177817073945
 30
0.0
 11
356.7203386351843
 21
486.827986373509
 31
0.0
  0
LINE
  5
152
330
27
100
AcDbEntity
  8
0
 62
     0
100
AcDbLine
 10
357.3860127538566
 20
484.665233367435
 30
0.0
 11
358.8833364918614
 21
486.1625571054399
 31
0.0
  0
ENDBLK
  5
153
330
27
100
AcDbEntity
  8
0
100
AcDbBlockEnd
  0
BLOCK
  5
154
330
28
100
AcDbEntity
  8
0
100
AcDbBlockBegin
  2
*X4
 70
     1
 10
0.0
 20
0.0
 30
0.0
  3
*X4
  1

  0
LINE
  5
155
330
28
100
AcDbEntity
  8
0
 62
     0
100
AcDbLine
 10
162.1289519151894
 20
448.8113070299877
 30
0.0
 11
159.0137080721927
 21
451.9265508729843
 31
0.0
  0
LINE
  5
156
330
28
100
AcDbEntity
  8
0
 62
     0
100
AcDbLine
 10
163.6519511362066
 20
444.4598806842242
 30
0.0
 11
160.3920095822962
 21
447.7198222381345
 31
0.0
  0
LINE
  5
157
330
28
100
AcDbEntity
  8
0
 62
     0
100
AcDbLine
 10
164.4109361662397
 20
440.8724685294449
 30
0.0
 11
161.9134390948266
 21
443.369965600858
 31
0.0
  0
LINE
  5
158
330
28
100
AcDbEntity
  8
0
 62
     0
100
AcDbLine
 10
164.4299187518418
 20
438.0250588190966
 30
0.0
 11
162.4299187518419
 21
440.0250588190965
 31
0.0
  0
LINE
  5
159
330
28
100
AcDbEntity
  8
0
 62
     0
100
AcDbLine
 10
164.4299187518418
 20
435.1966316943504
 30
0.0
 11
162.4299187518419
 21
437.1966316943503
 31
0.0
  0
LINE
  5
15A
330
28
100
AcDbEntity
  8
0
 62
     0
100
AcDbLine
 10
164.4299187518418
 20
432.3682045696042
 30
0.0
 11
162.4299187518419
 21
434.3682045696041
 31
0.0
  0
LINE
  5
15B
330
28
100
AcDbEntity
  8
0
 62
     0
100
AcDbLine
 10
164.4299187518418
 20
429.539777444858
 30
0.0
 11
162.4299187518419
 21
431.539777444858
 31
0.0
  0
LINE
  5
15C
330
28
100
AcDbEntity
  8
0
 62
     0
100
AcDbLine
 10
164.4299187518418
 20
426.7113503201119
 30
0.0
 11
162.4299187518419
 21
428.7113503201118
 31
0.0
  0
LINE
  5
15D
330
28
100
AcDbEntity
  8
0
 62
     0
100
AcDbLine
 10
164.4299187518418
 20
423.8829231953657
 30
0.0
 11
162.4299187518419
 21
425.8829231953655
 31
0.0
  0
LINE
  5
15E
330
28
100
AcDbEntity
  8
0
 62
     0
100
AcDbLine
 10
164.4299187518418
 20
421.0544960706195
 30
0.0
 11
162.4299187518419
 21
423.0544960706194
 31
0.0
  0
LINE
  5
15F
330
28
100
AcDbEntity
  8
0
 62
     0
100
AcDbLine
 10
164.4299187518418
 20
418.2260689458733
 30
0.0
 11
162.4299187518419
 21
420.2260689458732
 31
0.0
  0
LINE
  5
160
330
28
100
AcDbEntity
  8
0
 62
     0
100
AcDbLine
 10
164.4299187518418
 20
415.3976418211271
 30
0.0
 11
162.4299187518419
 21
417.397641821127
 31
0.0
  0
LINE
  5
161
330
28
100
AcDbEntity
  8
0
 62
     0
100
AcDbLine
 10
164.7692469714451
 20
412.2298864767776
 30
0.0
 11
162.4299187518419
 21
414.5692146963808
 31
0.0
  0
LINE
  5
162
330
28
100
AcDbEntity
  8
0
 62
     0
100
AcDbLine
 10
184.9299187518418
 20
389.2407875716347
 30
0.0
 11
183.7635923531403
 21
390.4071139703362
 31
0.0
  0
LINE
  5
163
330
28
100
AcDbEntity
  8
0
 62
     0
100
AcDbLine
 10
165.6624344845228
 20
408.5082718389537
 30
0.0
 11
162.956127088274
 21
411.2145792352025
 31
0.0
  0
LINE
  5
164
330
28
100
AcDbEntity
  8
0
 62
     0
100
AcDbLine
 10
182.9351652283941
 20
388.4071139703362
 30
0.0
 11
180.9351652283941
 21
390.4071139703362
 31
0.0
  0
LINE
  5
165
330
28
100
AcDbEntity
  8
0
 62
     0
100
AcDbLine
 10
166.5556219976005
 20
404.7866572011297
 30
0.0
 11
163.8493146013516
 21
407.4929645973786
 31
0.0
  0
LINE
  5
166
330
28
100
AcDbEntity
  8
0
 62
     0
100
AcDbLine
 10
180.1067381036479
 20
388.4071139703362
 30
0.0
 11
178.1067381036479
 21
390.4071139703362
 31
0.0
  0
LINE
  5
167
330
28
100
AcDbEntity
  8
0
 62
     0
100
AcDbLine
 10
167.4488095106782
 20
401.0650425633058
 30
0.0
 11
164.7425021144294
 21
403.7713499595547
 31
0.0
  0
LINE
  5
168
330
28
100
AcDbEntity
  8
0
 62
     0
100
AcDbLine
 10
177.2783109789017
 20
388.4071139703362
 30
0.0
 11
175.2783109789017
 21
390.4071139703362
 31
0.0
  0
LINE
  5
169
330
28
100
AcDbEntity
  8
0
 62
     0
100
AcDbLine
 10
168.3419970237559
 20
397.343427925482
 30
0.0
 11
165.635689627507
 21
400.0497353217308
 31
0.0
  0
LINE
  5
16A
330
28
100
AcDbEntity
  8
0
 62
     0
100
AcDbLine
 10
174.4445325808212
 20
388.4124652436706
 30
0.0
 11
171.5048283082581
 21
391.3521695162336
 31
0.0
  0
LINE
  5
16B
330
28
100
AcDbEntity
  8
0
 62
     0
100
AcDbLine
 10
169.6821487823359
 20
393.1748490421559
 30
0.0
 11
166.5288771405847
 21
396.328120683907
 31
0.0
  0
LINE
  5
16C
330
28
100
AcDbEntity
  8
0
 62
     0
100
AcDbLine
 10
170.2331517598273
 20
389.7954189399182
 30
0.0
 11
168.1253982060205
 21
391.9031724937251
 31
0.0
  0
LINE
  5
16D
330
28
100
AcDbEntity
  8
0
 62
     0
100
AcDbLine
 10
259.3026975965412
 20
388.4071139703363
 30
0.0
 11
257.9299187518418
 21
389.7798928150357
 31
0.0
  0
LINE
  5
16E
330
28
100
AcDbEntity
  8
0
 62
     0
100
AcDbLine
 10
262.1311247212875
 20
388.4071139703363
 30
0.0
 11
260.1311247212874
 21
390.4071139703362
 31
0.0
  0
LINE
  5
16F
330
28
100
AcDbEntity
  8
0
 62
     0
100
AcDbLine
 10
264.9595518460336
 20
388.4071139703363
 30
0.0
 11
262.9595518460337
 21
390.4071139703362
 31
0.0
  0
LINE
  5
170
330
28
100
AcDbEntity
  8
0
 62
     0
100
AcDbLine
 10
267.7879789707798
 20
388.4071139703363
 30
0.0
 11
265.7879789707798
 21
390.4071139703362
 31
0.0
  0
LINE
  5
171
330
28
100
AcDbEntity
  8
0
 62
     0
100
AcDbLine
 10
270.3112408909074
 20
388.7122791749549
 30
0.0
 11
268.5975869509836
 21
390.4259331148787
 31
0.0
  0
LINE
  5
172
330
28
100
AcDbEntity
  8
0
 62
     0
100
AcDbLine
 10
272.279896285112
 20
389.5720509054965
 30
0.0
 11
270.8096051958738
 21
391.0423419947347
 31
0.0
  0
LINE
  5
173
330
28
100
AcDbEntity
  8
0
 62
     0
100
AcDbLine
 10
273.8543559219852
 20
390.8260183933695
 30
0.0
 11
272.4399754587553
 21
392.2403988565994
 31
0.0
  0
LINE
  5
174
330
28
100
AcDbEntity
  8
0
 62
     0
100
AcDbLine
 10
275.0694564119513
 20
392.4393450281495
 30
0.0
 11
273.5848062512446
 21
393.9239951888563
 31
0.0
  0
LINE
  5
175
330
28
100
AcDbEntity
  8
0
 62
     0
100
AcDbLine
 10
275.8811809662805
 20
394.4560475985666
 30
0.0
 11
274.2228650269154
 21
396.1143635379317
 31
0.0
  0
LINE
  5
176
330
28
100
AcDbEntity
  8
0
 62
     0
100
AcDbLine
 10
276.4290070681156
 20
396.7366486214776
 30
0.0
 11
274.7703025349308
 21
398.3953531546625
 31
0.0
  0
LINE
  5
177
330
28
100
AcDbEntity
  8
0
 62
     0
100
AcDbLine
 10
276.976444576131
 20
399.0176382382084
 30
0.0
 11
275.3177400429462
 21
400.6763427713933
 31
0.0
  0
LINE
  5
178
330
28
100
AcDbEntity
  8
0
 62
     0
100
AcDbLine
 10
277.5238820841464
 20
401.2986278549392
 30
0.0
 11
275.8651775509616
 21
402.957332388124
 31
0.0
  0
LINE
  5
179
330
28
100
AcDbEntity
  8
0
 62
     0
100
AcDbLine
 10
278.0713195921618
 20
403.5796174716699
 30
0.0
 11
276.412615058977
 21
405.2383220048548
 31
0.0
  0
LINE
  5
17A
330
28
100
AcDbEntity
  8
0
 62
     0
100
AcDbLine
 10
278.6187571001772
 20
405.8606070884007
 30
0.0
 11
276.9600525669924
 21
407.5193116215856
 31
0.0
  0
LINE
  5
17B
330
28
100
AcDbEntity
  8
0
 62
     0
100
AcDbLine
 10
279.1661946081926
 20
408.1415967051315
 30
0.0
 11
277.5074900750078
 21
409.8003012383164
 31
0.0
  0
LINE
  5
17C
330
28
100
AcDbEntity
  8
0
 62
     0
100
AcDbLine
 10
279.713632116208
 20
410.4225863218623
 30
0.0
 11
278.0549275830231
 21
412.0812908550472
 31
0.0
  0
LINE
  5
17D
330
28
100
AcDbEntity
  8
0
 62
     0
100
AcDbLine
 10
280.2584453689322
 20
412.7062001938843
 30
0.0
 11
278.4299187518418
 21
414.5347268109746
 31
0.0
  0
LINE
  5
17E
330
28
100
AcDbEntity
  8
0
 62
     0
100
AcDbLine
 10
280.4299187518418
 20
415.3631539357209
 30
0.0
 11
278.4299187518418
 21
417.3631539357208
 31
0.0
  0
LINE
  5
17F
330
28
100
AcDbEntity
  8
0
 62
     0
100
AcDbLine
 10
280.4299187518418
 20
418.1915810604671
 30
0.0
 11
278.4299187518418
 21
420.1915810604671
 31
0.0
  0
LINE
  5
180
330
28
100
AcDbEntity
  8
0
 62
     0
100
AcDbLine
 10
280.4299187518418
 20
421.0200081852133
 30
0.0
 11
278.4299187518418
 21
423.0200081852133
 31
0.0
  0
LINE
  5
181
330
28
100
AcDbEntity
  8
0
 62
     0
100
AcDbLine
 10
280.4299187518418
 20
423.8484353099595
 30
0.0
 11
278.4299187518418
 21
425.8484353099595
 31
0.0
  0
LINE
  5
182
330
28
100
AcDbEntity
  8
0
 62
     0
100
AcDbLine
 10
280.4299187518418
 20
426.6768624347057
 30
0.0
 11
278.4299187518418
 21
428.6768624347056
 31
0.0
  0
LINE
  5
183
330
28
100
AcDbEntity
  8
0
 62
     0
100
AcDbLine
 10
280.4299187518418
 20
429.5052895594518
 30
0.0
 11
278.4299187518418
 21
431.5052895594518
 31
0.0
  0
LINE
  5
184
330
28
100
AcDbEntity
  8
0
 62
     0
100
AcDbLine
 10
280.4299187518418
 20
432.333716684198
 30
0.0
 11
278.4299187518418
 21
434.333716684198
 31
0.0
  0
LINE
  5
185
330
28
100
AcDbEntity
  8
0
 62
     0
100
AcDbLine
 10
280.4299187518418
 20
435.1621438089442
 30
0.0
 11
278.4299187518418
 21
437.1621438089442
 31
0.0
  0
LINE
  5
186
330
28
100
AcDbEntity
  8
0
 62
     0
100
AcDbLine
 10
280.4299187518418
 20
437.9905709336903
 30
0.0
 11
278.4299187518418
 21
439.9905709336904
 31
0.0
  0
LINE
  5
187
330
28
100
AcDbEntity
  8
0
 62
     0
100
AcDbLine
 10
280.4481176798368
 20
440.8007991304415
 30
0.0
 11
278.6687824430503
 21
442.5801343672281
 31
0.0
  0
LINE
  5
188
330
28
100
AcDbEntity
  8
0
 62
     0
100
AcDbLine
 10
280.8879100051242
 20
443.1894339299003
 30
0.0
 11
279.3140729668571
 21
444.7632709681674
 31
0.0
  0
LINE
  5
189
330
28
100
AcDbEntity
  8
0
 62
     0
100
AcDbLine
 10
281.6169703770074
 20
445.2888006827634
 30
0.0
 11
280.0473688880877
 21
446.8584021716831
 31
0.0
  0
LINE
  5
18A
330
28
100
AcDbEntity
  8
0
 62
     0
100
AcDbLine
 10
282.3502662982379
 20
447.3839318862791
 30
0.0
 11
280.7806648093182
 21
448.9535333751988
 31
0.0
  0
LINE
  5
18B
330
28
100
AcDbEntity
  8
0
 62
     0
100
AcDbLine
 10
283.0835622194684
 20
449.4790630897947
 30
0.0
 11
281.5139607305487
 21
451.0486645787145
 31
0.0
  0
LINE
  5
18C
330
28
100
AcDbEntity
  8
0
 62
     0
100
AcDbLine
 10
283.8168581406989
 20
451.5741942933104
 30
0.0
 11
283.2590096307744
 21
452.132042803235
 31
0.0
  0
ENDBLK
  5
18D
330
28
100
AcDbEntity
  8
0
100
AcDbBlockEnd
  0
BLOCK
  5
18E
330
29
100
AcDbEntity
  8
0
100
AcDbBlockBegin
  2
*X5
 70
     1
 10
0.0
 20
0.0
 30
0.0
  3
*X5
  1

  0
LINE
  5
18F
330
29
100
AcDbEntity
  8
0
 62
     0
100
AcDbLine
 10
159.4782100496859
 20
450.3306780455925
 30
0.0
 11
155.9814788402524
 21
453.8274092550261
 31
0.0
  0
LINE
  5
190
330
29
100
AcDbEntity
  8
0
 62
     0
100
AcDbLine
 10
159.5543600107368
 20
450.1131067283044
 30
0.0
 11
155.9531881694807
 21
453.7142785695606
 31
0.0
  0
LINE
  5
191
330
29
100
AcDbEntity
  8
0
 62
     0
100
AcDbLine
 10
159.6305099717877
 20
449.8955354110162
 30
0.0
 11
155.9271893210262
 21
453.5988560617776
 31
0.0
  0
LINE
  5
192
330
29
100
AcDbEntity
  8
0
 62
     0
100
AcDbLine
 10
159.7066599328385
 20
449.6779640937281
 30
0.0
 11
155.9035876232422
 21
453.4810364033244
 31
0.0
  0
LINE
  5
193
330
29
100
AcDbEntity
  8
0
 62
     0
100
AcDbLine
 10
159.7828098938894
 20
449.46039277644
 30
0.0
 11
155.882501159186
 21
453.3607015111432
 31
0.0
  0
LINE
  5
194
330
29
100
AcDbEntity
  8
0
 62
     0
100
AcDbLine
 10
159.8589598549402
 20
449.2428214591517
 30
0.0
 11
155.8640628656071
 21
453.2377184484849
 31
0.0
  0
LINE
  5
195
330
29
100
AcDbEntity
  8
0
 62
     0
100
AcDbLine
 10
159.9351098159911
 20
449.0252501418636
 30
0.0
 11
155.8484231138361
 21
453.1119368440186
 31
0.0
  0
LINE
  5
196
330
29
100
AcDbEntity
  8
0
 62
     0
100
AcDbLine
 10
160.011259777042
 20
448.8076788245754
 30
0.0
 11
155.8357529147989
 21
452.9831856868184
 31
0.0
  0
LINE
  5
197
330
29
100
AcDbEntity
  8
0
 62
     0
100
AcDbLine
 10
160.0874097380928
 20
448.5901075072873
 30
0.0
 11
155.8262479430193
 21
452.8512693023608
 31
0.0
  0
LINE
  5
198
330
29
100
AcDbEntity
  8
0
 62
     0
100
AcDbLine
 10
160.1635596991437
 20
448.3725361899991
 30
0.0
 11
155.8201336509829
 21
452.7159622381597
 31
0.0
  0
LINE
  5
199
330
29
100
AcDbEntity
  8
0
 62
     0
100
AcDbLine
 10
160.2397096601946
 20
448.1549648727108
 30
0.0
 11
155.8176718587157
 21
452.5770026741898
 31
0.0
  0
LINE
  5
19A
330
29
100
AcDbEntity
  8
0
 62
     0
100
AcDbLine
 10
160.3158596212454
 20
447.9373935554227
 30
0.0
 11
155.8191693755171
 21
452.434083801151
 31
0.0
  0
LINE
  5
19B
330
29
100
AcDbEntity
  8
0
 62
     0
100
AcDbLine
 10
160.3920095822963
 20
447.7198222381345
 30
0.0
 11
155.8249894784299
 21
452.2868423420009
 31
0.0
  0
LINE
  5
19C
330
29
100
AcDbEntity
  8
0
 62
     0
100
AcDbLine
 10
160.3945529682123
 20
447.5758574959812
 30
0.0
 11
155.8355675002373
 21
452.1348429639561
 31
0.0
  0
LINE
  5
19D
330
29
100
AcDbEntity
  8
0
 62
     0
100
AcDbLine
 10
160.237266624737
 20
447.5917224832192
 30
0.0
 11
155.8514324874754
 21
451.9775566204808
 31
0.0
  0
LINE
  5
19E
330
29
100
AcDbEntity
  8
0
 62
     0
100
AcDbLine
 10
160.0740396529547
 20
447.6135280987641
 30
0.0
 11
155.8732381030203
 21
451.8143296486986
 31
0.0
  0
LINE
  5
19F
330
29
100
AcDbEntity
  8
0
 62
     0
100
AcDbLine
 10
159.9040482764944
 20
447.6420981189872
 30
0.0
 11
155.9018081232433
 21
451.6443382722382
 31
0.0
  0
LINE
  5
1A0
330
29
100
AcDbEntity
  8
0
 62
     0
100
AcDbLine
 10
159.7262290599052
 20
447.678495979339
 30
0.0
 11
155.9382059835952
 21
451.4665190556491
 31
0.0
  0
LINE
  5
1A1
330
29
100
AcDbEntity
  8
0
 62
     0
100
AcDbLine
 10
159.5391676246174
 20
447.7241360583896
 30
0.0
 11
155.9838460626457
 21
451.2794576203612
 31
0.0
  0
LINE
  5
1A2
330
29
100
AcDbEntity
  8
0
 62
     0
100
AcDbLine
 10
159.3409101003204
 20
447.7809722264493
 30
0.0
 11
156.0406822307055
 21
451.0812000960641
 31
0.0
  0
LINE
  5
1A3
330
29
100
AcDbEntity
  8
0
 62
     0
100
AcDbLine
 10
159.1286192601141
 20
447.8518417104182
 30
0.0
 11
156.1115517146744
 21
450.8689092558579
 31
0.0
  0
LINE
  5
1A4
330
29
100
AcDbEntity
  8
0
 62
     0
100
AcDbLine
 10
158.8978822393727
 20
447.9411573749223
 30
0.0
 11
156.2008673791785
 21
450.6381722351165
 31
0.0
  0
LINE
  5
1A5
330
29
100
AcDbEntity
  8
0
 62
     0
100
AcDbLine
 10
158.641105714471
 20
448.0565125435866
 30
0.0
 11
156.3162225478428
 21
450.3813957102149
 31
0.0
  0
LINE
  5
1A6
330
29
100
AcDbEntity
  8
0
 62
     0
100
AcDbLine
 10
158.3428698023491
 20
448.2133270994713
 30
0.0
 11
156.4730371037275
 21
450.083159798093
 31
0.0
  0
LINE
  5
1A7
330
29
100
AcDbEntity
  8
0
 62
     0
100
AcDbLine
 10
157.9592288887512
 20
448.455546656832
 30
0.0
 11
156.7152566610881
 21
449.6995188844949
 31
0.0
  0
LINE
  5
1A8
330
29
100
AcDbEntity
  8
0
 62
     0
100
AcDbLine
 10
159.4020600886351
 20
450.5482493628807
 30
0.0
 11
156.0119670372605
 21
453.9383424142553
 31
0.0
  0
LINE
  5
1A9
330
29
100
AcDbEntity
  8
0
 62
     0
100
AcDbLine
 10
159.3259101275842
 20
450.7658206801689
 30
0.0
 11
156.0445680717288
 21
454.0471627360243
 31
0.0
  0
LINE
  5
1AA
330
29
100
AcDbEntity
  8
0
 62
     0
100
AcDbLine
 10
159.2497601665334
 20
450.983391997457
 30
0.0
 11
156.079205674581
 21
454.1539464894094
 31
0.0
  0
LINE
  5
1AB
330
29
100
AcDbEntity
  8
0
 62
     0
100
AcDbLine
 10
159.1736102054825
 20
451.2009633147453
 30
0.0
 11
156.1158110000026
 21
454.2587625202251
 31
0.0
  0
LINE
  5
1AC
330
29
100
AcDbEntity
  8
0
 62
     0
100
AcDbLine
 10
159.0974602444317
 20
451.4185346320334
 30
0.0
 11
156.1543217843022
 21
454.3616730921628
 31
0.0
  0
LINE
  5
1AD
330
29
100
AcDbEntity
  8
0
 62
     0
100
AcDbLine
 10
159.0213102833808
 20
451.6361059493216
 30
0.0
 11
156.1946816319546
 21
454.4627346007477
 31
0.0
  0
LINE
  5
1AE
330
29
100
AcDbEntity
  8
0
 62
     0
100
AcDbLine
 10
158.9451603223299
 20
451.8536772666098
 30
0.0
 11
156.2368394065929
 21
454.5619981823469
 31
0.0
  0
LINE
  5
1AF
330
29
100
AcDbEntity
  8
0
 62
     0
100
AcDbLine
 10
159.0137080721927
 20
451.9265508729843
 30
0.0
 11
156.2807487092282
 21
454.6595102359487
 31
0.0
  0
LINE
  5
1B0
330
29
100
AcDbEntity
  8
0
 62
     0
100
AcDbLine
 10
159.1184646323685
 20
451.9632156690457
 30
0.0
 11
156.3263674294644
 21
454.7553128719498
 31
0.0
  0
LINE
  5
1B1
330
29
100
AcDbEntity
  8
0
 62
     0
100
AcDbLine
 10
159.2232211925443
 20
451.9998804651073
 30
0.0
 11
156.373657358203
 21
454.8494442994486
 31
0.0
  0
LINE
  5
1B2
330
29
100
AcDbEntity
  8
0
 62
     0
100
AcDbLine
 10
159.3279777527201
 20
452.0365452611688
 30
0.0
 11
156.4225838524774
 21
454.9419391614115
 31
0.0
  0
LINE
  5
1B3
330
29
100
AcDbEntity
  8
0
 62
     0
100
AcDbLine
 10
159.4327343128959
 20
452.0732100572304
 30
0.0
 11
157.2564351193678
 21
454.2495092507585
 31
0.0
  0
LINE
  5
1B4
330
29
100
AcDbEntity
  8
0
 62
     0
100
AcDbLine
 10
159.5374908730717
 20
452.1098748532919
 30
0.0
 11
157.8350953410163
 21
453.8122703853472
 31
0.0
  0
LINE
  5
1B5
330
29
100
AcDbEntity
  8
0
 62
     0
100
AcDbLine
 10
159.6422474332475
 20
452.1465396493534
 30
0.0
 11
158.2324191222768
 21
453.5563679603241
 31
0.0
  0
LINE
  5
1B6
330
29
100
AcDbEntity
  8
0
 62
     0
100
AcDbLine
 10
159.7470039934232
 20
452.1832044454149
 30
0.0
 11
158.5621656348939
 21
453.3680428039442
 31
0.0
  0
LINE
  5
1B7
330
29
100
AcDbEntity
  8
0
 62
     0
100
AcDbLine
 10
159.851760553599
 20
452.2198692414764
 30
0.0
 11
158.8531159519464
 21
453.2185138431291
 31
0.0
  0
LINE
  5
1B8
330
29
100
AcDbEntity
  8
0
 62
     0
100
AcDbLine
 10
159.9565171137748
 20
452.2565340375379
 30
0.0
 11
159.1179173695606
 21
453.0951337817522
 31
0.0
  0
LINE
  5
1B9
330
29
100
AcDbEntity
  8
0
 62
     0
100
AcDbLine
 10
160.0612736739506
 20
452.2931988335995
 30
0.0
 11
159.3634765490219
 21
452.9909959585282
 31
0.0
  0
LINE
  5
1BA
330
29
100
AcDbEntity
  8
0
 62
     0
100
AcDbLine
 10
160.1660302341264
 20
452.329863629661
 30
0.0
 11
159.5940600640272
 21
452.9018337997603
 31
0.0
  0
LINE
  5
1BB
330
29
100
AcDbEntity
  8
0
 62
     0
100
AcDbLine
 10
160.2707867943022
 20
452.3665284257226
 30
0.0
 11
159.8125247779627
 21
452.8247904420619
 31
0.0
  0
LINE
  5
1BC
330
29
100
AcDbEntity
  8
0
 62
     0
100
AcDbLine
 10
160.375543354478
 20
452.403193221784
 30
0.0
 11
160.0208960794674
 21
452.7578404967947
 31
0.0
  0
LINE
  5
1BD
330
29
100
AcDbEntity
  8
0
 62
     0
100
AcDbLine
 10
160.4802999146538
 20
452.4398580178456
 30
0.0
 11
160.220672548849
 21
452.6994853836503
 31
0.0
  0
LINE
  5
1BE
330
29
100
AcDbEntity
  8
0
 62
     0
100
AcDbLine
 10
160.5850564748295
 20
452.476522813907
 30
0.0
 11
160.413000409787
 21
452.6485788789496
 31
0.0
  0
LINE
  5
1BF
330
29
100
AcDbEntity
  8
0
 62
     0
100
AcDbLine
 10
160.6898130350053
 20
452.5131876099686
 30
0.0
 11
160.5987799745038
 21
452.6042206704701
 31
0.0
  0
LINE
  5
1C0
330
29
100
AcDbEntity
  8
0
 62
     0
100
AcDbLine
 10
160.7945695951811
 20
452.5498524060301
 30
0.0
 11
160.7787339417159
 21
452.5656880594953
 31
0.0
  0
ENDBLK
  5
1C1
330
29
100
AcDbEntity
  8
0
100
AcDbBlockEnd
  0
BLOCK
  5
1FD
330
2F
100
AcDbEntity
  8
0
100
AcDbBlockBegin
  2
*X6
 70
     1
 10
0.0
 20
0.0
 30
0.0
  3
*X6
  1

  0
LINE
  5
1FE
330
2F
100
AcDbEntity
  8
0
 62
     0
100
AcDbLine
 10
163.4299187518414
 20
484.2798928150361
 30
0.0
 11
163.2212818835829
 21
484.4885296832946
 31
0.0
  0
LINE
  5
1FF
330
2F
100
AcDbEntity
  8
0
 62
     0
100
AcDbLine
 10
163.4299187518414
 20
481.4514656902899
 30
0.0
 11
161.4299187518414
 21
483.4514656902897
 31
0.0
  0
LINE
  5
200
330
2F
100
AcDbEntity
  8
0
 62
     0
100
AcDbLine
 10
163.4299187518414
 20
478.6230385655436
 30
0.0
 11
161.4299187518414
 21
480.6230385655436
 31
0.0
  0
LINE
  5
201
330
2F
100
AcDbEntity
  8
0
 62
     0
100
AcDbLine
 10
163.4299187518414
 20
475.7946114407975
 30
0.0
 11
161.4299187518414
 21
477.7946114407974
 31
0.0
  0
LINE
  5
202
330
2F
100
AcDbEntity
  8
0
 62
     0
100
AcDbLine
 10
163.4299187518414
 20
472.9661843160513
 30
0.0
 11
161.4299187518414
 21
474.9661843160512
 31
0.0
  0
LINE
  5
203
330
2F
100
AcDbEntity
  8
0
 62
     0
100
AcDbLine
 10
163.4299187518414
 20
470.1377571913051
 30
0.0
 11
161.4299187518414
 21
472.137757191305
 31
0.0
  0
LINE
  5
204
330
2F
100
AcDbEntity
  8
0
 62
     0
100
AcDbLine
 10
163.4299187518414
 20
467.3093300665589
 30
0.0
 11
161.4299187518414
 21
469.3093300665588
 31
0.0
  0
LINE
  5
205
330
2F
100
AcDbEntity
  8
0
 62
     0
100
AcDbLine
 10
163.4299187518414
 20
464.4809029418127
 30
0.0
 11
161.4299187518414
 21
466.4809029418127
 31
0.0
  0
LINE
  5
206
330
2F
100
AcDbEntity
  8
0
 62
     0
100
AcDbLine
 10
163.4299187518414
 20
461.6524758170665
 30
0.0
 11
161.4299187518414
 21
463.6524758170664
 31
0.0
  0
LINE
  5
207
330
2F
100
AcDbEntity
  8
0
 62
     0
100
AcDbLine
 10
279.5593770002069
 20
461.4885296832947
 30
0.0
 11
279.429918751842
 21
461.6179879316597
 31
0.0
  0
LINE
  5
208
330
2F
100
AcDbEntity
  8
0
 62
     0
100
AcDbLine
 10
281.429918751842
 20
462.4464150564058
 30
0.0
 11
279.429918751842
 21
464.4464150564059
 31
0.0
  0
LINE
  5
209
330
2F
100
AcDbEntity
  8
0
 62
     0
100
AcDbLine
 10
281.429918751842
 20
465.2748421811519
 30
0.0
 11
279.429918751842
 21
467.274842181152
 31
0.0
  0
LINE
  5
20A
330
2F
100
AcDbEntity
  8
0
 62
     0
100
AcDbLine
 10
281.429918751842
 20
468.1032693058981
 30
0.0
 11
279.429918751842
 21
470.1032693058983
 31
0.0
  0
LINE
  5
20B
330
2F
100
AcDbEntity
  8
0
 62
     0
100
AcDbLine
 10
281.429918751842
 20
470.9316964306444
 30
0.0
 11
279.429918751842
 21
472.9316964306444
 31
0.0
  0
LINE
  5
20C
330
2F
100
AcDbEntity
  8
0
 62
     0
100
AcDbLine
 10
281.429918751842
 20
473.7601235553905
 30
0.0
 11
279.429918751842
 21
475.7601235553906
 31
0.0
  0
LINE
  5
20D
330
2F
100
AcDbEntity
  8
0
 62
     0
100
AcDbLine
 10
281.429918751842
 20
476.5885506801367
 30
0.0
 11
279.429918751842
 21
478.5885506801368
 31
0.0
  0
LINE
  5
20E
330
2F
100
AcDbEntity
  8
0
 62
     0
100
AcDbLine
 10
281.429918751842
 20
479.4169778048829
 30
0.0
 11
279.429918751842
 21
481.416977804883
 31
0.0
  0
LINE
  5
20F
330
2F
100
AcDbEntity
  8
0
 62
     0
100
AcDbLine
 10
281.429918751842
 20
482.2454049296291
 30
0.0
 11
279.429918751842
 21
484.2454049296292
 31
0.0
  0
ENDBLK
  5
210
330
2F
100
AcDbEntity
  8
0
100
AcDbBlockEnd
  0
BLOCK
  5
211
330
30
100
AcDbEntity
  8
0
100
AcDbBlockBegin
  2
*X7
 70
     1
 10
0.0
 20
0.0
 30
0.0
  3
*X7
  1

  0
LINE
  5
212
330
30
100
AcDbEntity
  8
0
 62
     0
100
AcDbLine
 10
129.5504225181633
 20
488.4071139703361
 30
0.0
 11
131.0504225181633
 21
489.9071139703361
 31
0.0
  0
LINE
  5
213
330
30
100
AcDbEntity
  8
0
 62
     0
100
AcDbLine
 10
127.7826555651969
 20
488.4071139703361
 30
0.0
 11
129.2826555651969
 21
489.9071139703361
 31
0.0
  0
LINE
  5
214
330
30
100
AcDbEntity
  8
0
 62
     0
100
AcDbLine
 10
126.0148886122306
 20
488.4071139703361
 30
0.0
 11
127.5148886122306
 21
489.9071139703361
 31
0.0
  0
LINE
  5
215
330
30
100
AcDbEntity
  8
0
 62
     0
100
AcDbLine
 10
124.2471216592642
 20
488.4071139703361
 30
0.0
 11
125.7471216592642
 21
489.9071139703361
 31
0.0
  0
LINE
  5
216
330
30
100
AcDbEntity
  8
0
 62
     0
100
AcDbLine
 10
122.4793547062978
 20
488.4071139703361
 30
0.0
 11
123.9793547062978
 21
489.9071139703361
 31
0.0
  0
LINE
  5
217
330
30
100
AcDbEntity
  8
0
 62
     0
100
AcDbLine
 10
120.7115877533315
 20
488.4071139703361
 30
0.0
 11
122.2115877533315
 21
489.9071139703361
 31
0.0
  0
LINE
  5
218
330
30
100
AcDbEntity
  8
0
 62
     0
100
AcDbLine
 10
118.9438208003651
 20
488.4071139703361
 30
0.0
 11
120.4438208003651
 21
489.9071139703361
 31
0.0
  0
LINE
  5
219
330
30
100
AcDbEntity
  8
0
 62
     0
100
AcDbLine
 10
117.1760538473987
 20
488.4071139703361
 30
0.0
 11
118.6760538473987
 21
489.9071139703361
 31
0.0
  0
LINE
  5
21A
330
30
100
AcDbEntity
  8
0
 62
     0
100
AcDbLine
 10
115.4082868944324
 20
488.4071139703361
 30
0.0
 11
116.9082868944324
 21
489.9071139703361
 31
0.0
  0
LINE
  5
21B
330
30
100
AcDbEntity
  8
0
 62
     0
100
AcDbLine
 10
113.640519941466
 20
488.4071139703361
 30
0.0
 11
115.140519941466
 21
489.9071139703361
 31
0.0
  0
LINE
  5
21C
330
30
100
AcDbEntity
  8
0
 62
     0
100
AcDbLine
 10
111.8727529884996
 20
488.4071139703361
 30
0.0
 11
113.3727529884996
 21
489.9071139703361
 31
0.0
  0
LINE
  5
21D
330
30
100
AcDbEntity
  8
0
 62
     0
100
AcDbLine
 10
110.1049860355332
 20
488.4071139703361
 30
0.0
 11
111.6049860355333
 21
489.9071139703361
 31
0.0
  0
LINE
  5
21E
330
30
100
AcDbEntity
  8
0
 62
     0
100
AcDbLine
 10
108.3372190825669
 20
488.4071139703361
 30
0.0
 11
109.8372190825669
 21
489.9071139703361
 31
0.0
  0
LINE
  5
21F
330
30
100
AcDbEntity
  8
0
 62
     0
100
AcDbLine
 10
106.5694521296005
 20
488.4071139703361
 30
0.0
 11
108.0694521296005
 21
489.9071139703361
 31
0.0
  0
LINE
  5
220
330
30
100
AcDbEntity
  8
0
 62
     0
100
AcDbLine
 10
104.8016851766341
 20
488.4071139703361
 30
0.0
 11
106.3016851766342
 21
489.9071139703361
 31
0.0
  0
LINE
  5
221
330
30
100
AcDbEntity
  8
0
 62
     0
100
AcDbLine
 10
103.0339182236678
 20
488.4071139703361
 30
0.0
 11
104.5339182236678
 21
489.9071139703361
 31
0.0
  0
LINE
  5
222
330
30
100
AcDbEntity
  8
0
 62
     0
100
AcDbLine
 10
101.2661512707014
 20
488.4071139703361
 30
0.0
 11
102.7661512707014
 21
489.9071139703361
 31
0.0
  0
LINE
  5
223
330
30
100
AcDbEntity
  8
0
 62
     0
100
AcDbLine
 10
99.49838431773507
 20
488.4071139703361
 30
0.0
 11
100.9983843177351
 21
489.9071139703361
 31
0.0
  0
LINE
  5
224
330
30
100
AcDbEntity
  8
0
 62
     0
100
AcDbLine
 10
97.73061736476869
 20
488.4071139703361
 30
0.0
 11
99.23061736476872
 21
489.9071139703361
 31
0.0
  0
LINE
  5
225
330
30
100
AcDbEntity
  8
0
 62
     0
100
AcDbLine
 10
95.96285041180232
 20
488.4071139703361
 30
0.0
 11
97.46285041180236
 21
489.9071139703361
 31
0.0
  0
LINE
  5
226
330
30
100
AcDbEntity
  8
0
 62
     0
100
AcDbLine
 10
94.19508345883595
 20
488.4071139703361
 30
0.0
 11
95.69508345883599
 21
489.9071139703361
 31
0.0
  0
LINE
  5
227
330
30
100
AcDbEntity
  8
0
 62
     0
100
AcDbLine
 10
92.42731650586959
 20
488.4071139703361
 30
0.0
 11
93.92731650586963
 21
489.9071139703361
 31
0.0
  0
LINE
  5
228
330
30
100
AcDbEntity
  8
0
 62
     0
100
AcDbLine
 10
90.65954955290321
 20
488.4071139703361
 30
0.0
 11
92.15954955290326
 21
489.9071139703361
 31
0.0
  0
LINE
  5
229
330
30
100
AcDbEntity
  8
0
 62
     0
100
AcDbLine
 10
88.89178259993684
 20
488.4071139703361
 30
0.0
 11
90.39178259993688
 21
489.9071139703361
 31
0.0
  0
LINE
  5
22A
330
30
100
AcDbEntity
  8
0
 62
     0
100
AcDbLine
 10
87.12401564697048
 20
488.4071139703361
 30
0.0
 11
88.62401564697051
 21
489.9071139703361
 31
0.0
  0
LINE
  5
22B
330
30
100
AcDbEntity
  8
0
 62
     0
100
AcDbLine
 10
85.35624869400411
 20
488.4071139703361
 30
0.0
 11
86.85624869400415
 21
489.9071139703361
 31
0.0
  0
LINE
  5
22C
330
30
100
AcDbEntity
  8
0
 62
     0
100
AcDbLine
 10
83.58848174103775
 20
488.4071139703361
 30
0.0
 11
85.08848174103778
 21
489.9071139703361
 31
0.0
  0
LINE
  5
22D
330
30
100
AcDbEntity
  8
0
 62
     0
100
AcDbLine
 10
81.82071478807136
 20
488.4071139703361
 30
0.0
 11
83.32071478807142
 21
489.9071139703361
 31
0.0
  0
LINE
  5
22E
330
30
100
AcDbEntity
  8
0
 62
     0
100
AcDbLine
 10
80.052947835105
 20
488.4071139703361
 30
0.0
 11
81.55294783510504
 21
489.9071139703361
 31
0.0
  0
LINE
  5
22F
330
30
100
AcDbEntity
  8
0
 62
     0
100
AcDbLine
 10
78.28518088213863
 20
488.4071139703361
 30
0.0
 11
79.78518088213867
 21
489.9071139703361
 31
0.0
  0
LINE
  5
230
330
30
100
AcDbEntity
  8
0
 62
     0
100
AcDbLine
 10
76.51741392917227
 20
488.4071139703361
 30
0.0
 11
78.01741392917231
 21
489.9071139703361
 31
0.0
  0
LINE
  5
231
330
30
100
AcDbEntity
  8
0
 62
     0
100
AcDbLine
 10
74.74964697620589
 20
488.4071139703361
 30
0.0
 11
76.24964697620594
 21
489.9071139703361
 31
0.0
  0
LINE
  5
232
330
30
100
AcDbEntity
  8
0
 62
     0
100
AcDbLine
 10
72.98188002323953
 20
488.4071139703361
 30
0.0
 11
74.48188002323958
 21
489.9071139703361
 31
0.0
  0
LINE
  5
233
330
30
100
AcDbEntity
  8
0
 62
     0
100
AcDbLine
 10
71.21411307027315
 20
488.4071139703361
 30
0.0
 11
72.71411307027321
 21
489.9071139703361
 31
0.0
  0
LINE
  5
234
330
30
100
AcDbEntity
  8
0
 62
     0
100
AcDbLine
 10
69.44634611730679
 20
488.4071139703361
 30
0.0
 11
70.94634611730684
 21
489.9071139703361
 31
0.0
  0
LINE
  5
235
330
30
100
AcDbEntity
  8
0
 62
     0
100
AcDbLine
 10
67.67857916434042
 20
488.4071139703361
 30
0.0
 11
69.17857916434048
 21
489.9071139703361
 31
0.0
  0
LINE
  5
236
330
30
100
AcDbEntity
  8
0
 62
     0
100
AcDbLine
 10
65.91081221137405
 20
488.4071139703361
 30
0.0
 11
67.4108122113741
 21
489.9071139703361
 31
0.0
  0
LINE
  5
237
330
30
100
AcDbEntity
  8
0
 62
     0
100
AcDbLine
 10
64.14304525840768
 20
488.4071139703361
 30
0.0
 11
65.64304525840774
 21
489.9071139703361
 31
0.0
  0
LINE
  5
238
330
30
100
AcDbEntity
  8
0
 62
     0
100
AcDbLine
 10
62.37527830544131
 20
488.4071139703361
 30
0.0
 11
63.87527830544136
 21
489.9071139703361
 31
0.0
  0
LINE
  5
239
330
30
100
AcDbEntity
  8
0
 62
     0
100
AcDbLine
 10
61.42991875184179
 20
489.2295213697029
 30
0.0
 11
62.107511352475
 21
489.9071139703361
 31
0.0
  0
LINE
  5
23A
330
30
100
AcDbEntity
  8
0
 62
     0
100
AcDbLine
 10
131.3181894711297
 20
488.4071139703361
 30
0.0
 11
132.8181894711297
 21
489.9071139703361
 31
0.0
  0
LINE
  5
23B
330
30
100
AcDbEntity
  8
0
 62
     0
100
AcDbLine
 10
133.0859564240961
 20
488.4071139703361
 30
0.0
 11
134.585956424096
 21
489.9071139703361
 31
0.0
  0
LINE
  5
23C
330
30
100
AcDbEntity
  8
0
 62
     0
100
AcDbLine
 10
134.8537233770624
 20
488.4071139703361
 30
0.0
 11
136.3537233770624
 21
489.9071139703361
 31
0.0
  0
LINE
  5
23D
330
30
100
AcDbEntity
  8
0
 62
     0
100
AcDbLine
 10
136.6214903300288
 20
488.4071139703361
 30
0.0
 11
138.1214903300288
 21
489.9071139703361
 31
0.0
  0
LINE
  5
23E
330
30
100
AcDbEntity
  8
0
 62
     0
100
AcDbLine
 10
138.3892572829952
 20
488.4071139703361
 30
0.0
 11
139.8892572829951
 21
489.9071139703361
 31
0.0
  0
LINE
  5
23F
330
30
100
AcDbEntity
  8
0
 62
     0
100
AcDbLine
 10
140.1570242359615
 20
488.4071139703361
 30
0.0
 11
141.6570242359615
 21
489.9071139703361
 31
0.0
  0
LINE
  5
240
330
30
100
AcDbEntity
  8
0
 62
     0
100
AcDbLine
 10
141.9247911889279
 20
488.4071139703361
 30
0.0
 11
143.4216727986321
 21
489.9039955800404
 31
0.0
  0
LINE
  5
241
330
30
100
AcDbEntity
  8
0
 62
     0
100
AcDbLine
 10
143.6769980738488
 20
488.3915539022907
 30
0.0
 11
145.0135902259979
 21
489.7281460544398
 31
0.0
  0
LINE
  5
242
330
30
100
AcDbEntity
  8
0
 62
     0
100
AcDbLine
 10
145.2005164778418
 20
488.1473053533173
 30
0.0
 11
146.3980565585648
 21
489.3448454340403
 31
0.0
  0
LINE
  5
243
330
30
100
AcDbEntity
  8
0
 62
     0
100
AcDbLine
 10
146.5040356036408
 20
487.6830575261499
 30
0.0
 11
147.6237784500291
 21
488.8028003725382
 31
0.0
  0
LINE
  5
244
330
30
100
AcDbEntity
  8
0
 62
     0
100
AcDbLine
 10
147.6376787437686
 20
487.0489337133114
 30
0.0
 11
148.7153621747302
 21
488.126617144273
 31
0.0
  0
LINE
  5
245
330
30
100
AcDbEntity
  8
0
 62
     0
100
AcDbLine
 10
148.6240069805498
 20
486.2674949971262
 30
0.0
 11
149.6852675629098
 21
487.3287555794862
 31
0.0
  0
LINE
  5
246
330
30
100
AcDbEntity
  8
0
 62
     0
100
AcDbLine
 10
149.4710875214976
 20
485.3468085851076
 30
0.0
 11
150.5381946553787
 21
486.4139157189888
 31
0.0
  0
LINE
  5
247
330
30
100
AcDbEntity
  8
0
 62
     0
100
AcDbLine
 10
150.1760936015961
 20
484.2840477122398
 30
0.0
 11
151.2724809649784
 21
485.380435075622
 31
0.0
  0
LINE
  5
248
330
30
100
AcDbEntity
  8
0
 62
     0
100
AcDbLine
 10
150.7241020797608
 20
483.0642892374381
 30
0.0
 11
151.8796226309373
 21
484.2198097886146
 31
0.0
  0
LINE
  5
249
330
30
100
AcDbEntity
  8
0
 62
     0
100
AcDbLine
 10
151.0806583751124
 20
481.6530785798234
 30
0.0
 11
152.341557215009
 21
482.91397741972
 31
0.0
  0
LINE
  5
24A
330
30
100
AcDbEntity
  8
0
 62
     0
100
AcDbLine
 10
151.1663868800299
 20
479.9710401317745
 30
0.0
 11
152.623276038915
 21
481.4279292906596
 31
0.0
  0
LINE
  5
24B
330
30
100
AcDbEntity
  8
0
 62
     0
100
AcDbLine
 10
150.8352680758513
 20
477.8721543746295
 30
0.0
 11
152.6510172212519
 21
479.6879035200301
 31
0.0
  0
LINE
  5
24C
330
30
100
AcDbEntity
  8
0
 62
     0
100
AcDbLine
 10
150.4087404093871
 20
475.6778597551989
 30
0.0
 11
152.305510138038
 21
477.5746294838499
 31
0.0
  0
LINE
  5
24D
330
30
100
AcDbEntity
  8
0
 62
     0
100
AcDbLine
 10
149.982212742923
 20
473.4835651357685
 30
0.0
 11
151.8789824715738
 21
475.3803348644193
 31
0.0
  0
LINE
  5
24E
330
30
100
AcDbEntity
  8
0
 62
     0
100
AcDbLine
 10
149.9299187518419
 20
471.6635041917211
 30
0.0
 11
151.4524548051097
 21
473.1860402449888
 31
0.0
  0
LINE
  5
24F
330
30
100
AcDbEntity
  8
0
 62
     0
100
AcDbLine
 10
149.9472226454272
 20
469.9130411323399
 30
0.0
 11
151.4299187518417
 21
471.3957372387544
 31
0.0
  0
LINE
  5
250
330
30
100
AcDbEntity
  8
0
 62
     0
100
AcDbLine
 10
150.5942702581835
 20
468.7923217921299
 30
0.0
 11
151.6923464695367
 21
469.890398003483
 31
0.0
  0
LINE
  5
251
330
30
100
AcDbEntity
  8
0
 62
     0
100
AcDbLine
 10
151.2413178709398
 20
467.6716024519198
 30
0.0
 11
152.339394082293
 21
468.769678663273
 31
0.0
  0
LINE
  5
252
330
30
100
AcDbEntity
  8
0
 62
     0
100
AcDbLine
 10
151.8883654836961
 20
466.5508831117097
 30
0.0
 11
152.9864416950493
 21
467.6489593230629
 31
0.0
  0
LINE
  5
253
330
30
100
AcDbEntity
  8
0
 62
     0
100
AcDbLine
 10
152.5354130964524
 20
465.4301637714996
 30
0.0
 11
153.6334893078056
 21
466.5282399828528
 31
0.0
  0
LINE
  5
254
330
30
100
AcDbEntity
  8
0
 62
     0
100
AcDbLine
 10
153.1824607092086
 20
464.3094444312896
 30
0.0
 11
154.2805369205619
 21
465.4075206426427
 31
0.0
  0
LINE
  5
255
330
30
100
AcDbEntity
  8
0
 62
     0
100
AcDbLine
 10
153.8295083219649
 20
463.1887250910795
 30
0.0
 11
154.9275845333182
 21
464.2868013024327
 31
0.0
  0
LINE
  5
256
330
30
100
AcDbEntity
  8
0
 62
     0
100
AcDbLine
 10
154.4765559347212
 20
462.0680057508693
 30
0.0
 11
155.5746321460745
 21
463.1660819622227
 31
0.0
  0
LINE
  5
257
330
30
100
AcDbEntity
  8
0
 62
     0
100
AcDbLine
 10
155.1236035474775
 20
460.9472864106593
 30
0.0
 11
156.2216797588308
 21
462.0453626220125
 31
0.0
  0
LINE
  5
258
330
30
100
AcDbEntity
  8
0
 62
     0
100
AcDbLine
 10
155.7706511602338
 20
459.8265670704492
 30
0.0
 11
156.8687273715871
 21
460.9246432818024
 31
0.0
  0
LINE
  5
259
330
30
100
AcDbEntity
  8
0
 62
     0
100
AcDbLine
 10
156.4176987729901
 20
458.7058477302392
 30
0.0
 11
157.5157749843434
 21
459.8039239415924
 31
0.0
  0
LINE
  5
25A
330
30
100
AcDbEntity
  8
0
 62
     0
100
AcDbLine
 10
157.0647463857464
 20
457.585128390029
 30
0.0
 11
158.1628225970997
 21
458.6832046013824
 31
0.0
  0
LINE
  5
25B
330
30
100
AcDbEntity
  8
0
 62
     0
100
AcDbLine
 10
157.7812902384334
 20
456.5339052897497
 30
0.0
 11
158.809870209856
 21
457.5624852611722
 31
0.0
  0
LINE
  5
25C
330
30
100
AcDbEntity
  8
0
 62
     0
100
AcDbLine
 10
158.683475861924
 20
455.6683239602739
 30
0.0
 11
159.6499244101108
 21
456.6347725084607
 31
0.0
  0
LINE
  5
25D
330
30
100
AcDbEntity
  8
0
 62
     0
100
AcDbLine
 10
159.861040408825
 20
455.0781215542086
 30
0.0
 11
161.271448537911
 21
456.4885296832946
 31
0.0
  0
LINE
  5
25E
330
30
100
AcDbEntity
  8
0
 62
     0
100
AcDbLine
 10
161.5392154908774
 20
454.9885296832946
 30
0.0
 11
163.0392154908774
 21
456.4885296832946
 31
0.0
  0
LINE
  5
25F
330
30
100
AcDbEntity
  8
0
 62
     0
100
AcDbLine
 10
163.3069824438437
 20
454.9885296832946
 30
0.0
 11
163.9299187518419
 21
455.6114659912927
 31
0.0
  0
LINE
  5
260
330
30
100
AcDbEntity
  8
0
 62
     0
100
AcDbLine
 10
94.95598050856553
 20
488.4071139703361
 30
0.0
 11
93.45598050856549
 21
489.9071139703361
 31
0.0
  0
LINE
  5
261
330
30
100
AcDbEntity
  8
0
 62
     0
100
AcDbLine
 10
93.18821355559917
 20
488.4071139703361
 30
0.0
 11
91.68821355559911
 21
489.9071139703361
 31
0.0
  0
LINE
  5
262
330
30
100
AcDbEntity
  8
0
 62
     0
100
AcDbLine
 10
91.42044660263278
 20
488.4071139703361
 30
0.0
 11
89.92044660263275
 21
489.9071139703361
 31
0.0
  0
LINE
  5
263
330
30
100
AcDbEntity
  8
0
 62
     0
100
AcDbLine
 10
89.65267964966642
 20
488.4071139703361
 30
0.0
 11
88.15267964966638
 21
489.9071139703361
 31
0.0
  0
LINE
  5
264
330
30
100
AcDbEntity
  8
0
 62
     0
100
AcDbLine
 10
87.88491269670005
 20
488.4071139703361
 30
0.0
 11
86.3849126967
 21
489.9071139703362
 31
0.0
  0
LINE
  5
265
330
30
100
AcDbEntity
  8
0
 62
     0
100
AcDbLine
 10
86.11714574373369
 20
488.4071139703361
 30
0.0
 11
84.61714574373363
 21
489.9071139703362
 31
0.0
  0
LINE
  5
266
330
30
100
AcDbEntity
  8
0
 62
     0
100
AcDbLine
 10
84.34937879076732
 20
488.4071139703361
 30
0.0
 11
82.84937879076727
 21
489.9071139703362
 31
0.0
  0
LINE
  5
267
330
30
100
AcDbEntity
  8
0
 62
     0
100
AcDbLine
 10
82.58161183780094
 20
488.4071139703361
 30
0.0
 11
81.08161183780088
 21
489.9071139703362
 31
0.0
  0
LINE
  5
268
330
30
100
AcDbEntity
  8
0
 62
     0
100
AcDbLine
 10
80.81384488483458
 20
488.4071139703361
 30
0.0
 11
79.31384488483452
 21
489.9071139703362
 31
0.0
  0
LINE
  5
269
330
30
100
AcDbEntity
  8
0
 62
     0
100
AcDbLine
 10
79.04607793186821
 20
488.4071139703361
 30
0.0
 11
77.54607793186815
 21
489.9071139703362
 31
0.0
  0
LINE
  5
26A
330
30
100
AcDbEntity
  8
0
 62
     0
100
AcDbLine
 10
77.27831097890184
 20
488.4071139703361
 30
0.0
 11
75.77831097890179
 21
489.9071139703362
 31
0.0
  0
LINE
  5
26B
330
30
100
AcDbEntity
  8
0
 62
     0
100
AcDbLine
 10
75.51054402593547
 20
488.4071139703361
 30
0.0
 11
74.01054402593541
 21
489.9071139703362
 31
0.0
  0
LINE
  5
26C
330
30
100
AcDbEntity
  8
0
 62
     0
100
AcDbLine
 10
73.74277707296911
 20
488.4071139703361
 30
0.0
 11
72.24277707296905
 21
489.9071139703362
 31
0.0
  0
LINE
  5
26D
330
30
100
AcDbEntity
  8
0
 62
     0
100
AcDbLine
 10
71.97501012000273
 20
488.4071139703361
 30
0.0
 11
70.47501012000267
 21
489.9071139703362
 31
0.0
  0
LINE
  5
26E
330
30
100
AcDbEntity
  8
0
 62
     0
100
AcDbLine
 10
70.20724316703637
 20
488.4071139703361
 30
0.0
 11
68.70724316703629
 21
489.9071139703362
 31
0.0
  0
LINE
  5
26F
330
30
100
AcDbEntity
  8
0
 62
     0
100
AcDbLine
 10
68.43947621407
 20
488.4071139703361
 30
0.0
 11
66.93947621406993
 21
489.9071139703362
 31
0.0
  0
LINE
  5
270
330
30
100
AcDbEntity
  8
0
 62
     0
100
AcDbLine
 10
66.67170926110363
 20
488.4071139703361
 30
0.0
 11
65.17170926110356
 21
489.9071139703362
 31
0.0
  0
LINE
  5
271
330
30
100
AcDbEntity
  8
0
 62
     0
100
AcDbLine
 10
64.90394230813726
 20
488.4071139703361
 30
0.0
 11
63.40394230813719
 21
489.9071139703362
 31
0.0
  0
LINE
  5
272
330
30
100
AcDbEntity
  8
0
 62
     0
100
AcDbLine
 10
63.13617535517089
 20
488.4071139703361
 30
0.0
 11
61.63617535517082
 21
489.9071139703362
 31
0.0
  0
LINE
  5
273
330
30
100
AcDbEntity
  8
0
 62
     0
100
AcDbLine
 10
96.7237474615319
 20
488.4071139703361
 30
0.0
 11
95.22374746153186
 21
489.9071139703361
 31
0.0
  0
LINE
  5
274
330
30
100
AcDbEntity
  8
0
 62
     0
100
AcDbLine
 10
98.49151441449826
 20
488.4071139703361
 30
0.0
 11
96.99151441449822
 21
489.9071139703361
 31
0.0
  0
LINE
  5
275
330
30
100
AcDbEntity
  8
0
 62
     0
100
AcDbLine
 10
100.2592813674646
 20
488.4071139703361
 30
0.0
 11
98.75928136746459
 21
489.9071139703361
 31
0.0
  0
LINE
  5
276
330
30
100
AcDbEntity
  8
0
 62
     0
100
AcDbLine
 10
102.027048320431
 20
488.4071139703361
 30
0.0
 11
100.5270483204309
 21
489.9071139703361
 31
0.0
  0
LINE
  5
277
330
30
100
AcDbEntity
  8
0
 62
     0
100
AcDbLine
 10
103.7948152733974
 20
488.4071139703361
 30
0.0
 11
102.2948152733973
 21
489.9071139703361
 31
0.0
  0
LINE
  5
278
330
30
100
AcDbEntity
  8
0
 62
     0
100
AcDbLine
 10
105.5625822263637
 20
488.4071139703361
 30
0.0
 11
104.0625822263637
 21
489.9071139703361
 31
0.0
  0
LINE
  5
279
330
30
100
AcDbEntity
  8
0
 62
     0
100
AcDbLine
 10
107.3303491793301
 20
488.4071139703361
 30
0.0
 11
105.8303491793301
 21
489.9071139703361
 31
0.0
  0
LINE
  5
27A
330
30
100
AcDbEntity
  8
0
 62
     0
100
AcDbLine
 10
109.0981161322964
 20
488.4071139703361
 30
0.0
 11
107.5981161322964
 21
489.9071139703361
 31
0.0
  0
LINE
  5
27B
330
30
100
AcDbEntity
  8
0
 62
     0
100
AcDbLine
 10
110.8658830852628
 20
488.4071139703361
 30
0.0
 11
109.3658830852628
 21
489.9071139703361
 31
0.0
  0
LINE
  5
27C
330
30
100
AcDbEntity
  8
0
 62
     0
100
AcDbLine
 10
112.6336500382292
 20
488.4071139703361
 30
0.0
 11
111.1336500382292
 21
489.9071139703361
 31
0.0
  0
LINE
  5
27D
330
30
100
AcDbEntity
  8
0
 62
     0
100
AcDbLine
 10
114.4014169911956
 20
488.4071139703361
 30
0.0
 11
112.9014169911955
 21
489.9071139703361
 31
0.0
  0
LINE
  5
27E
330
30
100
AcDbEntity
  8
0
 62
     0
100
AcDbLine
 10
116.1691839441619
 20
488.4071139703361
 30
0.0
 11
114.6691839441619
 21
489.9071139703361
 31
0.0
  0
LINE
  5
27F
330
30
100
AcDbEntity
  8
0
 62
     0
100
AcDbLine
 10
117.9369508971283
 20
488.4071139703361
 30
0.0
 11
116.4369508971283
 21
489.9071139703361
 31
0.0
  0
LINE
  5
280
330
30
100
AcDbEntity
  8
0
 62
     0
100
AcDbLine
 10
119.7047178500947
 20
488.4071139703361
 30
0.0
 11
118.2047178500946
 21
489.9071139703361
 31
0.0
  0
LINE
  5
281
330
30
100
AcDbEntity
  8
0
 62
     0
100
AcDbLine
 10
121.472484803061
 20
488.4071139703361
 30
0.0
 11
119.972484803061
 21
489.9071139703361
 31
0.0
  0
LINE
  5
282
330
30
100
AcDbEntity
  8
0
 62
     0
100
AcDbLine
 10
123.2402517560274
 20
488.4071139703361
 30
0.0
 11
121.7402517560274
 21
489.9071139703361
 31
0.0
  0
LINE
  5
283
330
30
100
AcDbEntity
  8
0
 62
     0
100
AcDbLine
 10
125.0080187089938
 20
488.4071139703361
 30
0.0
 11
123.5080187089937
 21
489.9071139703361
 31
0.0
  0
LINE
  5
284
330
30
100
AcDbEntity
  8
0
 62
     0
100
AcDbLine
 10
160.1641780362625
 20
455.0187215960337
 30
0.0
 11
156.3366208908905
 21
458.8462787414058
 31
0.0
  0
LINE
  5
285
330
30
100
AcDbEntity
  8
0
 62
     0
100
AcDbLine
 10
126.7757856619601
 20
488.4071139703361
 30
0.0
 11
125.2757856619601
 21
489.9071139703361
 31
0.0
  0
LINE
  5
286
330
30
100
AcDbEntity
  8
0
 62
     0
100
AcDbLine
 10
161.962136901968
 20
454.9885296832946
 30
0.0
 11
160.4621369019681
 21
456.4885296832946
 31
0.0
  0
LINE
  5
287
330
30
100
AcDbEntity
  8
0
 62
     0
100
AcDbLine
 10
128.5435526149265
 20
488.4071139703361
 30
0.0
 11
127.0435526149265
 21
489.9071139703361
 31
0.0
  0
LINE
  5
288
330
30
100
AcDbEntity
  8
0
 62
     0
100
AcDbLine
 10
158.019882536521
 20
458.9307840487416
 30
0.0
 11
153.921806325168
 21
463.0288602600947
 31
0.0
  0
LINE
  5
289
330
30
100
AcDbEntity
  8
0
 62
     0
100
AcDbLine
 10
163.7299038549344
 20
454.9885296832946
 30
0.0
 11
162.2299038549344
 21
456.4885296832946
 31
0.0
  0
LINE
  5
28A
330
30
100
AcDbEntity
  8
0
 62
     0
100
AcDbLine
 10
130.3113195678929
 20
488.4071139703361
 30
0.0
 11
128.8113195678929
 21
489.9071139703361
 31
0.0
  0
LINE
  5
28B
330
30
100
AcDbEntity
  8
0
 62
     0
100
AcDbLine
 10
155.6050679707983
 20
463.1133655674307
 30
0.0
 11
151.5069917594455
 21
467.2114417787835
 31
0.0
  0
LINE
  5
28C
330
30
100
AcDbEntity
  8
0
 62
     0
100
AcDbLine
 10
153.1902534050757
 20
467.2959470861197
 30
0.0
 11
149.9299187518419
 21
470.5562817393535
 31
0.0
  0
LINE
  5
28D
330
30
100
AcDbEntity
  8
0
 62
     0
100
AcDbLine
 10
132.0790865208593
 20
488.4071139703361
 30
0.0
 11
130.5790865208592
 21
489.9071139703361
 31
0.0
  0
LINE
  5
28E
330
30
100
AcDbEntity
  8
0
 62
     0
100
AcDbLine
 10
151.4299187518417
 20
470.8240486923201
 30
0.0
 11
149.9299187518419
 21
472.3240486923199
 31
0.0
  0
LINE
  5
28F
330
30
100
AcDbEntity
  8
0
 62
     0
100
AcDbLine
 10
133.8468534738256
 20
488.4071139703361
 30
0.0
 11
132.3468534738256
 21
489.9071139703361
 31
0.0
  0
LINE
  5
290
330
30
100
AcDbEntity
  8
0
 62
     0
100
AcDbLine
 10
151.4299187518417
 20
472.5918156452864
 30
0.0
 11
150.0726922988016
 21
473.9490420983266
 31
0.0
  0
LINE
  5
291
330
30
100
AcDbEntity
  8
0
 62
     0
100
AcDbLine
 10
135.614620426792
 20
488.4071139703361
 30
0.0
 11
134.114620426792
 21
489.9071139703361
 31
0.0
  0
LINE
  5
292
330
30
100
AcDbEntity
  8
0
 62
     0
100
AcDbLine
 10
151.6397761789644
 20
474.1497251711301
 30
0.0
 11
150.3603888425005
 21
475.429112507594
 31
0.0
  0
LINE
  5
293
330
30
100
AcDbEntity
  8
0
 62
     0
100
AcDbLine
 10
137.3823873797583
 20
488.4071139703361
 30
0.0
 11
135.8823873797583
 21
489.9071139703361
 31
0.0
  0
LINE
  5
294
330
30
100
AcDbEntity
  8
0
 62
     0
100
AcDbLine
 10
151.9274727226634
 20
475.6297955803975
 30
0.0
 11
150.6480853861995
 21
476.9091829168614
 31
0.0
  0
LINE
  5
295
330
30
100
AcDbEntity
  8
0
 62
     0
100
AcDbLine
 10
139.1501543327247
 20
488.4071139703361
 30
0.0
 11
137.6501543327247
 21
489.9071139703361
 31
0.0
  0
LINE
  5
296
330
30
100
AcDbEntity
  8
0
 62
     0
100
AcDbLine
 10
152.2151692663624
 20
477.1098659896649
 30
0.0
 11
150.9357819298985
 21
478.3892533261287
 31
0.0
  0
LINE
  5
297
330
30
100
AcDbEntity
  8
0
 62
     0
100
AcDbLine
 10
140.9179212856911
 20
488.4071139703361
 30
0.0
 11
139.4179212856911
 21
489.9071139703361
 31
0.0
  0
LINE
  5
298
330
30
100
AcDbEntity
  8
0
 62
     0
100
AcDbLine
 10
152.5028658100614
 20
478.5899363989322
 30
0.0
 11
151.1639708091071
 21
479.9288313998864
 31
0.0
  0
LINE
  5
299
330
30
100
AcDbEntity
  8
0
 62
     0
100
AcDbLine
 10
142.6856882386575
 20
488.4071139703361
 30
0.0
 11
141.1856882386575
 21
489.9071139703361
 31
0.0
  0
LINE
  5
29A
330
30
100
AcDbEntity
  8
0
 62
     0
100
AcDbLine
 10
152.675681211264
 20
480.184887950696
 30
0.0
 11
151.0551247896592
 21
481.8054443723008
 31
0.0
  0
LINE
  5
29B
330
30
100
AcDbEntity
  8
0
 62
     0
100
AcDbLine
 10
144.5766111480393
 20
488.2839580139207
 30
0.0
 11
142.9534551916238
 21
489.9071139703361
 31
0.0
  0
LINE
  5
29C
330
30
100
AcDbEntity
  8
0
 62
     0
100
AcDbLine
 10
152.5257625949802
 20
482.102573519946
 30
0.0
 11
149.9299389583742
 21
484.6983971565522
 31
0.0
  0
LINE
  5
29D
330
30
100
AcDbEntity
  8
0
 62
     0
100
AcDbLine
 10
147.4695639322906
 20
487.1587721826356
 30
0.0
 11
144.8737402956844
 21
489.7545958192419
 31
0.0
  0
LINE
  5
29E
330
30
100
AcDbEntity
  8
0
 62
     0
100
AcDbLine
 10
151.6076008017923
 20
484.7885022661004
 30
0.0
 11
147.5596690418388
 21
488.8364340260539
 31
0.0
  0
ENDBLK
  5
29F
330
30
100
AcDbEntity
  8
0
100
AcDbBlockEnd
  0
BLOCK
  5
3F3
330
3E9
100
AcDbEntity
  8
0
100
AcDbBlockBegin
  2
*D8
 70
     1
 10
0.0
 20
0.0
 30
0.0
  3
*D8
  1

  0
LINE
  5
461
330
3E9
100
AcDbEntity
  8
BEM
 62
     0
370
    -2
100
AcDbLine
 10
83.92991875184179
 20
398.4311126580743
 30
0.0
 11
83.92991875184179
 21
410.3952681636656
 31
0.0
  0
LINE
  5
462
330
3E9
100
AcDbEntity
  8
BEM
 62
     0
370
    -2
100
AcDbLine
 10
358.9299187518417
 20
398.4311126580743
 30
0.0
 11
358.9299187518417
 21
410.3952681636656
 31
0.0
  0
LINE
  5
463
330
3E9
100
AcDbEntity
  8
BEM
 62
     0
370
    -2
100
AcDbLine
 10
90.9299187518418
 20
408.3952681636656
 30
0.0
 11
351.9299187518417
 21
408.3952681636656
 31
0.0
  0
SOLID
  5
464
330
3E9
100
AcDbEntity
  8
BEM
 62
     0
100
AcDbTrace
 10
90.9299187518418
 20
409.5619348303323
 30
0.0
 11
90.9299187518418
 21
407.2286014969988
 31
0.0
 12
83.92991875184179
 22
408.3952681636656
 32
0.0
 13
83.92991875184179
 23
408.3952681636656
 33
0.0
  0
SOLID
  5
465
330
3E9
100
AcDbEntity
  8
BEM
 62
     0
100
AcDbTrace
 10
351.9299187518417
 20
409.5619348303323
 30
0.0
 11
351.9299187518417
 21
407.2286014969988
 31
0.0
 12
358.9299187518417
 22
408.3952681636656
 32
0.0
 13
358.9299187518417
 23
408.3952681636656
 33
0.0
  0
MTEXT
  5
466
330
3E9
100
AcDbEntity
  8
BEM
 62
     1
100
AcDbMText
 10
221.4299187518417
 20
414.8952681636655
 30
0.0
 40
7.0
 41
0.0
 71
     5
 72
     1
  1
\A1;%%c275
  7
GREEKS
 73
     1
 44
1.0
  0
POINT
  5
467
330
3E9
100
AcDbEntity
  8
DEFPOINTS
 62
     0
100
AcDbPoint
 10
83.92991875184179
 20
396.4311126580743
 30
0.0
  0
POINT
  5
468
330
3E9
100
AcDbEntity
  8
DEFPOINTS
 62
     0
100
AcDbPoint
 10
358.9299187518417
 20
396.4311126580743
 30
0.0
  0
POINT
  5
469
330
3E9
100
AcDbEntity
  8
DEFPOINTS
 62
     0
100
AcDbPoint
 10
358.9299187518417
 20
408.3952681636656
 30
0.0
  0
ENDBLK
  5
3F4
330
3E9
100
AcDbEntity
  8
0
100
AcDbBlockEnd
  0
BLOCK
  5
3FF
330
3F5
100
AcDbEntity
  8
0
100
AcDbBlockBegin
  2
*D9
 70
     1
 10
0.0
 20
0.0
 30
0.0
  3
*D9
  1

  0
LINE
  5
458
330
3F5
100
AcDbEntity
  8
BEM
 62
     0
370
    -2
100
AcDbLine
 10
162.4299187518419
 20
322.3776730105608
 30
0.0
 11
162.4299187518419
 21
276.9045127574734
 31
0.0
  0
LINE
  5
459
330
3F5
100
AcDbEntity
  8
BEM
 62
     0
370
    -2
100
AcDbLine
 10
280.4299187518417
 20
322.3776730105606
 30
0.0
 11
280.4299187518417
 21
276.9045127574734
 31
0.0
  0
LINE
  5
45A
330
3F5
100
AcDbEntity
  8
BEM
 62
     0
370
    -2
100
AcDbLine
 10
169.4299187518419
 20
278.9045127574734
 30
0.0
 11
273.4299187518417
 21
278.9045127574734
 31
0.0
  0
SOLID
  5
45B
330
3F5
100
AcDbEntity
  8
BEM
 62
     0
100
AcDbTrace
 10
169.4299187518419
 20
280.0711794241402
 30
0.0
 11
169.4299187518419
 21
277.7378460908068
 31
0.0
 12
162.4299187518419
 22
278.9045127574734
 32
0.0
 13
162.4299187518419
 23
278.9045127574734
 33
0.0
  0
SOLID
  5
45C
330
3F5
100
AcDbEntity
  8
BEM
 62
     0
100
AcDbTrace
 10
273.4299187518417
 20
280.0711794241402
 30
0.0
 11
273.4299187518417
 21
277.7378460908068
 31
0.0
 12
280.4299187518417
 22
278.9045127574734
 32
0.0
 13
280.4299187518417
 23
278.9045127574734
 33
0.0
  0
MTEXT
  5
45D
330
3F5
100
AcDbEntity
  8
BEM
 62
     1
100
AcDbMText
 10
221.4299187518418
 20
285.4045127574735
 30
0.0
 40
7.0
 41
0.0
 71
     5
 72
     1
  1
\A1;%%c118
  7
GREEKS
 73
     1
 44
1.0
  0
POINT
  5
45E
330
3F5
100
AcDbEntity
  8
DEFPOINTS
 62
     0
100
AcDbPoint
 10
162.4299187518419
 20
324.3776730105608
 30
0.0
  0
POINT
  5
45F
330
3F5
100
AcDbEntity
  8
DEFPOINTS
 62
     0
100
AcDbPoint
 10
280.4299187518417
 20
324.3776730105606
 30
0.0
  0
POINT
  5
460
330
3F5
100
AcDbEntity
  8
DEFPOINTS
 62
     0
100
AcDbPoint
 10
280.4299187518417
 20
278.9045127574734
 30
0.0
  0
ENDBLK
  5
400
330
3F5
100
AcDbEntity
  8
0
100
AcDbBlockEnd
  0
BLOCK
  5
40B
330
401
100
AcDbEntity
  8
0
100
AcDbBlockBegin
  2
*D10
 70
     1
 10
0.0
 20
0.0
 30
0.0
  3
*D10
  1

  0
LINE
  5
67D
330
401
100
AcDbEntity
  8
BEM
 62
     0
370
    -2
100
AcDbLine
 10
63.42991875184179
 20
398.4311126580741
 30
0.0
 11
77.64556368385099
 21
398.4311126580741
 31
0.0
  0
LINE
  5
67E
330
401
100
AcDbEntity
  8
BEM
 62
     0
370
    -2
100
AcDbLine
 10
172.7370932364385
 20
298.4311126580741
 30
0.0
 11
73.64556368385098
 21
298.4311126580742
 31
0.0
  0
LINE
  5
67F
330
401
100
AcDbEntity
  8
BEM
 62
     0
370
    -2
100
AcDbLine
 10
75.64556368385099
 20
391.4311126580741
 30
0.0
 11
75.64556368385098
 21
305.4311126580742
 31
0.0
  0
SOLID
  5
680
330
401
100
AcDbEntity
  8
BEM
 62
     0
100
AcDbTrace
 10
74.47889701718432
 20
391.4311126580741
 30
0.0
 11
76.81223035051766
 21
391.4311126580741
 31
0.0
 12
75.64556368385099
 22
398.4311126580741
 32
0.0
 13
75.64556368385099
 23
398.4311126580741
 33
0.0
  0
SOLID
  5
681
330
401
100
AcDbEntity
  8
BEM
 62
     0
100
AcDbTrace
 10
74.4788970171843
 20
305.4311126580742
 30
0.0
 11
76.81223035051765
 21
305.4311126580742
 31
0.0
 12
75.64556368385098
 22
298.4311126580742
 32
0.0
 13
75.64556368385098
 23
298.4311126580742
 33
0.0
  0
MTEXT
  5
682
330
401
100
AcDbEntity
  8
BEM
 62
     1
100
AcDbMText
 10
69.14556368385094
 20
348.4311126580742
 30
0.0
 40
7.0
 41
0.0
 71
     5
 72
     1
  1
\A1;100
  7
GREEKS
 11
0.0000000000000001
 21
1.0
 31
0.0
 73
     1
 44
1.0
  0
POINT
  5
683
330
401
100
AcDbEntity
  8
DEFPOINTS
 62
     0
100
AcDbPoint
 10
61.42991875184179
 20
398.4311126580741
 30
0.0
  0
POINT
  5
684
330
401
100
AcDbEntity
  8
DEFPOINTS
 62
     0
100
AcDbPoint
 10
174.7370932364385
 20
298.4311126580741
 30
0.0
  0
POINT
  5
685
330
401
100
AcDbEntity
  8
DEFPOINTS
 62
     0
100
AcDbPoint
 10
75.64556368385098
 20
298.4311126580742
 30
0.0
  0
ENDBLK
  5
40C
330
401
100
AcDbEntity
  8
0
100
AcDbBlockEnd
  0
BLOCK
  5
417
330
40D
100
AcDbEntity
  8
0
100
AcDbBlockBegin
  2
*D11
 70
     1
 10
0.0
 20
0.0
 30
0.0
  3
*D11
  1

  0
LINE
  5
686
330
40D
100
AcDbEntity
  8
BEM
 62
     0
370
    -2
100
AcDbLine
 10
183.804805387101
 20
148.4311126580743
 30
0.0
 11
55.85654180656443
 21
148.4311126580743
 31
0.0
  0
LINE
  5
687
330
40D
100
AcDbEntity
  8
BEM
 62
     0
370
    -2
100
AcDbLine
 10
59.4299187518418
 20
398.4311126580741
 30
0.0
 11
55.85654180656447
 21
398.4311126580741
 31
0.0
  0
LINE
  5
688
330
40D
100
AcDbEntity
  8
BEM
 62
     0
370
    -2
100
AcDbLine
 10
57.85654180656442
 20
155.4311126580743
 30
0.0
 11
57.85654180656447
 21
391.4311126580741
 31
0.0
  0
SOLID
  5
689
330
40D
100
AcDbEntity
  8
BEM
 62
     0
100
AcDbTrace
 10
56.68987513989776
 20
155.4311126580743
 30
0.0
 11
59.02320847323109
 21
155.4311126580743
 31
0.0
 12
57.85654180656442
 22
148.4311126580743
 32
0.0
 13
57.85654180656442
 23
148.4311126580743
 33
0.0
  0
SOLID
  5
68A
330
40D
100
AcDbEntity
  8
BEM
 62
     0
100
AcDbTrace
 10
56.6898751398978
 20
391.4311126580741
 30
0.0
 11
59.02320847323114
 21
391.4311126580741
 31
0.0
 12
57.85654180656447
 22
398.4311126580741
 32
0.0
 13
57.85654180656447
 23
398.4311126580741
 33
0.0
  0
MTEXT
  5
68B
330
40D
100
AcDbEntity
  8
BEM
 62
     1
100
AcDbMText
 10
51.3565418065644
 20
273.4311126580743
 30
0.0
 40
7.0
 41
0.0
 71
     5
 72
     1
  1
\A1;250
  7
GREEKS
 11
0.0000000000000001
 21
1.0
 31
0.0
 73
     1
 44
1.0
  0
POINT
  5
68C
330
40D
100
AcDbEntity
  8
DEFPOINTS
 62
     0
100
AcDbPoint
 10
185.804805387101
 20
148.4311126580743
 30
0.0
  0
POINT
  5
68D
330
40D
100
AcDbEntity
  8
DEFPOINTS
 62
     0
100
AcDbPoint
 10
61.42991875184179
 20
398.4311126580741
 30
0.0
  0
POINT
  5
68E
330
40D
100
AcDbEntity
  8
DEFPOINTS
 62
     0
100
AcDbPoint
 10
57.85654180656447
 20
398.4311126580741
 30
0.0
  0
ENDBLK
  5
418
330
40D
100
AcDbEntity
  8
0
100
AcDbBlockEnd
  0
BLOCK
  5
423
330
419
100
AcDbEntity
  8
0
100
AcDbBlockBegin
  2
*D12
 70
     1
 10
0.0
 20
0.0
 30
0.0
  3
*D12
  1

  0
LINE
  5
473
330
419
100
AcDbEntity
  8
BEM
 62
     0
370
    -2
100
AcDbLine
 10
184.9299187518418
 20
156.4311126580744
 30
0.0
 11
184.9299187518418
 21
125.4733620292872
 31
0.0
  0
LINE
  5
474
330
419
100
AcDbEntity
  8
BEM
 62
     0
370
    -2
100
AcDbLine
 10
257.9299187518418
 20
156.4311126580743
 30
0.0
 11
257.9299187518418
 21
125.4733620292872
 31
0.0
  0
LINE
  5
475
330
419
100
AcDbEntity
  8
BEM
 62
     0
370
    -2
100
AcDbLine
 10
191.9299187518418
 20
127.4733620292872
 30
0.0
 11
250.9299187518418
 21
127.4733620292872
 31
0.0
  0
SOLID
  5
476
330
419
100
AcDbEntity
  8
BEM
 62
     0
100
AcDbTrace
 10
191.9299187518418
 20
128.6400286959539
 30
0.0
 11
191.9299187518418
 21
126.3066953626206
 31
0.0
 12
184.9299187518418
 22
127.4733620292872
 32
0.0
 13
184.9299187518418
 23
127.4733620292872
 33
0.0
  0
SOLID
  5
477
330
419
100
AcDbEntity
  8
BEM
 62
     0
100
AcDbTrace
 10
250.9299187518418
 20
128.6400286959539
 30
0.0
 11
250.9299187518418
 21
126.3066953626206
 31
0.0
 12
257.9299187518418
 22
127.4733620292872
 32
0.0
 13
257.9299187518418
 23
127.4733620292872
 33
0.0
  0
MTEXT
  5
478
330
419
100
AcDbEntity
  8
BEM
 62
     1
100
AcDbMText
 10
221.4299187518418
 20
133.9733620292872
 30
0.0
 40
7.0
 41
0.0
 71
     5
 72
     1
  1
\A1;%%C73
  7
GREEKS
 73
     1
 44
1.0
  0
POINT
  5
479
330
419
100
AcDbEntity
  8
DEFPOINTS
 62
     0
100
AcDbPoint
 10
184.9299187518418
 20
158.4311126580744
 30
0.0
  0
POINT
  5
47A
330
419
100
AcDbEntity
  8
DEFPOINTS
 62
     0
100
AcDbPoint
 10
257.9299187518418
 20
158.4311126580743
 30
0.0
  0
POINT
  5
47B
330
419
100
AcDbEntity
  8
DEFPOINTS
 62
     0
100
AcDbPoint
 10
257.9299187518418
 20
127.4733620292872
 30
0.0
  0
ENDBLK
  5
424
330
419
100
AcDbEntity
  8
0
100
AcDbBlockEnd
  0
BLOCK
  5
58F
330
585
100
AcDbEntity
  8
0
100
AcDbBlockBegin
  2
*D13
 70
     1
 10
0.0
 20
0.0
 30
0.0
  3
*D13
  1

  0
LINE
  5
7E5
330
585
100
AcDbEntity
  8
BEM
 62
     0
370
    -2
100
AcDbLine
 10
146.4299187518417
 20
501.9311126580739
 30
0.0
 11
146.4299187518417
 21
514.203597628669
 31
0.0
  0
LINE
  5
7E6
330
585
100
AcDbEntity
  8
BEM
 62
     0
370
    -2
100
AcDbLine
 10
296.429918751842
 20
501.931112658074
 30
0.0
 11
296.429918751842
 21
514.203597628669
 31
0.0
  0
LINE
  5
7E7
330
585
100
AcDbEntity
  8
BEM
 62
     0
370
    -2
100
AcDbLine
 10
153.4299187518417
 20
512.203597628669
 30
0.0
 11
289.429918751842
 21
512.203597628669
 31
0.0
  0
SOLID
  5
7E8
330
585
100
AcDbEntity
  8
BEM
 62
     0
100
AcDbTrace
 10
153.4299187518417
 20
513.3702642953356
 30
0.0
 11
153.4299187518417
 21
511.0369309620024
 31
0.0
 12
146.4299187518417
 22
512.203597628669
 32
0.0
 13
146.4299187518417
 23
512.203597628669
 33
0.0
  0
SOLID
  5
7E9
330
585
100
AcDbEntity
  8
BEM
 62
     0
100
AcDbTrace
 10
289.429918751842
 20
513.3702642953356
 30
0.0
 11
289.429918751842
 21
511.0369309620024
 31
0.0
 12
296.429918751842
 22
512.203597628669
 32
0.0
 13
296.429918751842
 23
512.203597628669
 33
0.0
  0
MTEXT
  5
7EA
330
585
100
AcDbEntity
  8
BEM
 62
     1
100
AcDbMText
 10
229.3403471979337
 20
518.703597628669
 30
0.0
 40
7.0
 41
0.0
 71
     5
 72
     1
  1
\A1;150
  7
GREEKS
 73
     1
 44
1.0
  0
POINT
  5
7EB
330
585
100
AcDbEntity
  8
DEFPOINTS
 62
     0
100
AcDbPoint
 10
146.4299187518417
 20
499.931112658074
 30
0.0
  0
POINT
  5
7EC
330
585
100
AcDbEntity
  8
DEFPOINTS
 62
     0
100
AcDbPoint
 10
296.429918751842
 20
499.931112658074
 30
0.0
  0
POINT
  5
7ED
330
585
100
AcDbEntity
  8
DEFPOINTS
 62
     0
100
AcDbPoint
 10
296.429918751842
 20
512.203597628669
 30
0.0
  0
ENDBLK
  5
590
330
585
100
AcDbEntity
  8
0
100
AcDbBlockEnd
  0
BLOCK
  5
69A
330
690
100
AcDbEntity
  8
0
100
AcDbBlockBegin
  2
*D14
 70
     1
 10
0.0
 20
0.0
 30
0.0
  3
*D14
  1

  0
LINE
  5
6B0
330
690
100
AcDbEntity
  8
SCHRAFF
 62
     0
370
    -2
100
AcDbLine
 10
59.4299187518418
 20
398.4311126580741
 30
0.0
 11
55.85654180656447
 21
398.4311126580741
 31
0.0
  0
LINE
  5
6B1
330
690
100
AcDbEntity
  8
SCHRAFF
 62
     0
370
    -2
100
AcDbLine
 10
144.4299187518417
 20
499.931112658074
 30
0.0
 11
55.85654180656449
 21
499.931112658074
 31
0.0
  0
LINE
  5
6B2
330
690
100
AcDbEntity
  8
SCHRAFF
 62
     0
370
    -2
100
AcDbLine
 10
57.85654180656447
 20
405.4311126580741
 30
0.0
 11
57.85654180656448
 21
492.931112658074
 31
0.0
  0
SOLID
  5
6B3
330
690
100
AcDbEntity
  8
SCHRAFF
 62
     0
100
AcDbTrace
 10
56.6898751398978
 20
405.4311126580741
 30
0.0
 11
59.02320847323114
 21
405.4311126580741
 31
0.0
 12
57.85654180656447
 22
398.4311126580741
 32
0.0
 13
57.85654180656447
 23
398.4311126580741
 33
0.0
  0
SOLID
  5
6B4
330
690
100
AcDbEntity
  8
SCHRAFF
 62
     0
100
AcDbTrace
 10
56.68987513989782
 20
492.931112658074
 30
0.0
 11
59.02320847323115
 21
492.931112658074
 31
0.0
 12
57.85654180656449
 22
499.931112658074
 32
0.0
 13
57.85654180656449
 23
499.931112658074
 33
0.0
  0
MTEXT
  5
6B5
330
690
100
AcDbEntity
  8
SCHRAFF
 62
     1
100
AcDbMText
 10
51.35654180656441
 20
449.181112658074
 30
0.0
 40
7.0
 41
0.0
 71
     5
 72
     1
  1
\A1;min.15 - max.100
  7
GREEKS
 11
0.0000000000000001
 21
1.0
 31
0.0
 73
     1
 44
1.0
  0
POINT
  5
6B6
330
690
100
AcDbEntity
  8
DEFPOINTS
 62
     0
100
AcDbPoint
 10
61.42991875184179
 20
398.4311126580741
 30
0.0
  0
POINT
  5
6B7
330
690
100
AcDbEntity
  8
DEFPOINTS
 62
     0
100
AcDbPoint
 10
146.4299187518417
 20
499.931112658074
 30
0.0
  0
POINT
  5
6B8
330
690
100
AcDbEntity
  8
DEFPOINTS
 62
     0
100
AcDbPoint
 10
57.85654180656449
 20
499.931112658074
 30
0.0
  0
ENDBLK
  5
69B
330
690
100
AcDbEntity
  8
0
100
AcDbBlockEnd
  0
ENDSEC
  0
SECTION
  2
ENTITIES
  0
LINE
  5
2D4
330
20
100
AcDbEntity
  8
MITTEL
100
AcDbLine
 10
221.4299187518417
 20
276.6368589980552
 30
0.0
 11
221.4299187518416
 21
143.4311126580744
 31
0.0
  0
LINE
  5
2D5
330
20
100
AcDbEntity
  8
HILF
100
AcDbLine
 10
420.0
 20
0.0
 30
0.0
 11
420.0
 21
594.0
 31
0.0
  0
LINE
  5
2D6
330
20
100
AcDbEntity
  8
STEMPEL
100
AcDbLine
 10
410.0
 20
10.0
 30
0.0
 11
410.0
 21
584.0
 31
0.0
  0
LINE
  5
2D8
330
20
100
AcDbEntity
  8
STEMPEL
100
AcDbLine
 10
257.9299187518418
 20
300.4311126580742
 30
0.0
 11
257.9299187518418
 21
158.4311126580743
 31
0.0
  0
LINE
  5
2D9
330
20
100
AcDbEntity
  8
STEMPEL
100
AcDbLine
 10
256.3299187518419
 20
300.4311126580742
 30
0.0
 11
256.3299187518414
 21
158.5009701667261
 31
0.0
  0
DIMENSION
  5
2DA
330
20
100
AcDbEntity
  8
BEM
100
AcDbDimension
  2
*D11
 10
57.85654180656447
 20
398.4311126580741
 30
0.0
 11
51.3565418065644
 21
273.4311126580743
 31
0.0
 70
    32
 71
     5
 42
249.9999999999998
  3
Standard
100
AcDbAlignedDimension
 13
185.804805387101
 23
148.4311126580743
 33
0.0
 14
61.42991875184179
 24
398.4311126580741
 34
0.0
 50
90.0
100
AcDbRotatedDimension
1001
ACAD
1000
DSTYLE
1002
{
1070
    40
1040
2.0
1070
    41
1040
3.5
1070
    42
1040
1.0
1070
    43
1040
7.0
1070
    44
1040
1.0
1070
    47
1040
0.16
1070
    48
1040
0.16
1070
    73
1070
     0
1070
    74
1070
     0
1070
    77
1070
     1
1070
    78
1070
     8
1070
    79
1070
     2
1070
   140
1040
3.5
1070
   141
1040
1.5
1070
   145
1040
0.2857142857142857
1070
   146
1040
0.5
1070
   147
1040
1.5
1070
   172
1070
     1
1070
   178
1070
     1
1070
   179
1070
     2
1070
   271
1070
     2
1070
   272
1070
     2
1070
   284
1070
     8
1070
   285
1070
     8
1070
   286
1070
     8
1070
   340
1005
32
1002
}
  0
LINE
  5
2DB
330
20
100
AcDbEntity
  8
STEMPEL
100
AcDbLine
 10
40.00000000000051
 20
584.0
 30
0.0
 11
39.99999999999955
 21
10.0
 31
0.0
  0
LINE
  5
2DC
330
20
100
AcDbEntity
  8
STEMPEL
100
AcDbLine
 10
184.9299187518418
 20
300.4311126580742
 30
0.0
 11
184.9299187518418
 21
158.4311126580744
 31
0.0
  0
LINE
  5
2DD
330
20
100
AcDbEntity
  8
STEMPEL
100
AcDbLine
 10
186.5299187518417
 20
300.4311126580742
 30
0.0
 11
186.5299187518417
 21
158.5009701667273
 31
0.0
  0
LINE
  5
2DE
330
20
100
AcDbEntity
  8
HILF
100
AcDbLine
 10
0.0
 20
0.0
 30
0.0
 11
0.0
 21
594.0
 31
0.0
  0
INSERT
  5
2DF
330
20
100
AcDbEntity
  8
SCHRAFF
100
AcDbBlockReference
  2
*X2
 10
0.0
 20
-89.97600131226205
 30
0.0
1001
ACAD
1000
HATCH
1002
{
1070
    16
1000
_U,I
1040
2.0
1040
0.7853981633974483
1070
     0
1002
}
  0
LINE
  5
2E0
330
20
100
AcDbEntity
  8
STEMPEL
100
AcDbLine
 10
135.9999999999996
 20
30.0
 30
0.0
 11
39.9999999999996
 21
30.0
 31
0.0
  0
LINE
  5
2E1
330
20
100
AcDbEntity
  8
HILF
100
AcDbLine
 10
39.99999999999971
 20
100.0
 30
0.0
 11
135.9999999999998
 21
100.0
 31
0.0
  0
LINE
  5
2E2
330
20
100
AcDbEntity
  8
HILF
100
AcDbLine
 10
39.99999999999971
 20
90.0
 30
0.0
 11
135.9999999999998
 21
90.0
 31
0.0
  0
LINE
  5
2E3
330
20
100
AcDbEntity
  8
HILF
100
AcDbLine
 10
39.99999999999971
 20
80.0
 30
0.0
 11
135.9999999999998
 21
80.0
 31
0.0
  0
LINE
  5
2E4
330
20
100
AcDbEntity
  8
HILF
100
AcDbLine
 10
39.99999999999971
 20
70.0
 30
0.0
 11
135.9999999999998
 21
70.0
 31
0.0
  0
LINE
  5
2E5
330
20
100
AcDbEntity
  8
HILF
100
AcDbLine
 10
39.99999999999971
 20
60.0
 30
0.0
 11
135.9999999999998
 21
60.0
 31
0.0
  0
LINE
  5
2E6
330
20
100
AcDbEntity
  8
HILF
100
AcDbLine
 10
39.99999999999971
 20
50.0
 30
0.0
 11
135.9999999999998
 21
50.0
 31
0.0
  0
LINE
  5
2E7
330
20
100
AcDbEntity
  8
HILF
100
AcDbLine
 10
39.99999999999971
 20
40.0
 30
0.0
 11
135.9999999999998
 21
40.0
 31
0.0
  0
TEXT
  5
2E8
330
20
100
AcDbEntity
  8
TEXT
100
AcDbText
 10
43.64453517758119
 20
113.5954219225907
 30
0.0
 40
5.0
  1
Erstellt mit AUTOCAD 2004
 41
0.8
  7
GREEKS
100
AcDbText
  0
LINE
  5
2E9
330
20
100
AcDbEntity
  8
STEMPEL
100
AcDbLine
 10
410.0
 20
110.0
 30
0.0
 11
39.99999999999971
 21
110.0
 31
0.0
  0
LINE
  5
2EA
330
20
100
AcDbEntity
  8
HILF
100
AcDbLine
 10
0.0
 20
0.0
 30
0.0
 11
420.0
 21
0.0
 31
0.0
  0
LINE
  5
2EB
330
20
100
AcDbEntity
  8
STEMPEL
100
AcDbLine
 10
39.99999999999955
 20
10.0
 30
0.0
 11
410.0
 21
10.0
 31
0.0
  0
LINE
  5
2EC
330
20
100
AcDbEntity
  8
VOLL
100
AcDbLine
 10
53.99999999999971
 20
110.0
 30
0.0
 11
53.9999999999996
 21
10.0
 31
0.0
  0
TEXT
  5
2ED
330
20
100
AcDbEntity
  8
TEXT
100
AcDbText
 10
48.2664110704572
 20
13.65465846027189
 30
0.0
 40
3.6
  1
Index
 50
90.0
 41
0.8
  7
GREEKS
100
AcDbText
  0
TEXT
  5
2EE
330
20
100
AcDbEntity
  8
TEXT
100
AcDbText
 10
62.06468870795872
 20
18.67381894984123
 30
0.0
 40
4.0
  1
Änderung
 41
0.8
  7
GREEKS
 72
     1
 11
72.80754585081587
 21
18.67381894984123
 31
0.0
100
AcDbText
  0
TEXT
  5
2EF
330
20
100
AcDbEntity
  8
TEXT
100
AcDbText
 10
225.1623031583288
 20
52.75131145345461
 30
0.0
 40
5.0
  1
EDV-Art.Nr. 16261.070X
 41
0.8
  7
GREEKS
100
AcDbText
  0
LINE
  5
2F0
330
20
100
AcDbEntity
  8
STEMPEL
100
AcDbLine
 10
332.0
 20
109.9999999999996
 30
0.0
 11
332.0
 21
40.0
 31
0.0
  0
LINE
  5
2F1
330
20
100
AcDbEntity
  8
STEMPEL
100
AcDbLine
 10
219.9999999999995
 20
110.0
 30
0.0
 11
219.9999999999995
 21
10.0
 31
0.0
  0
TEXT
  5
2F2
330
20
100
AcDbEntity
  8
TEXT
100
AcDbText
 10
337.2400861497006
 20
52.07416177878599
 30
0.0
 40
5.0
  1
ersetzt durch:
 41
0.8
  7
GREEKS
100
AcDbText
  0
LINE
  5
2F3
330
20
100
AcDbEntity
  8
VOLL
100
AcDbLine
 10
179.9999999999998
 20
109.9999999999999
 30
0.0
 11
179.9999999999996
 21
40.0
 31
0.0
  0
LINE
  5
2F4
330
20
100
AcDbEntity
  8
VOLL
100
AcDbLine
 10
153.9999999999998
 20
80.0
 30
0.0
 11
153.9999999999998
 21
40.0
 31
0.0
  0
LINE
  5
2F5
330
20
100
AcDbEntity
  8
STEMPEL
100
AcDbLine
 10
135.9999999999998
 20
109.9999999999999
 30
0.0
 11
135.9999999999996
 21
9.999999999999886
 31
0.0
  0
LINE
  5
2F6
330
20
100
AcDbEntity
  8
VOLL
100
AcDbLine
 10
93.99999999999982
 20
110.0
 30
0.0
 11
93.99999999999961
 21
10.0
 31
0.0
  0
LINE
  5
2F7
330
20
100
AcDbEntity
  8
VOLL
100
AcDbLine
 10
113.9999999999998
 20
109.9999999999999
 30
0.0
 11
113.9999999999996
 21
9.999999999999886
 31
0.0
  0
TEXT
  5
2F8
330
20
100
AcDbEntity
  8
TEXT
100
AcDbText
 10
137.5515086571668
 20
53.68926291428374
 30
0.0
 40
3.6
  1
Gepr.
 41
0.8
  7
GREEKS
100
AcDbText
  0
LINE
  5
2F9
330
20
100
AcDbEntity
  8
HILF
100
AcDbLine
 10
224.7736801096944
 20
50.0
 30
0.0
 11
326.629784251481
 21
50.0
 31
0.0
  0
LINE
  5
2FA
330
20
100
AcDbEntity
  8
HILF
100
AcDbLine
 10
224.7736801096944
 20
14.89398258028302
 30
0.0
 11
404.8588839326728
 21
14.89398258028302
 31
0.0
  0
LINE
  5
2FB
330
20
100
AcDbEntity
  8
STEMPEL
100
AcDbLine
 10
410.0
 20
40.0
 30
0.0
 11
135.9999999999996
 21
40.0
 31
0.0
  0
LINE
  5
2FC
330
20
100
AcDbEntity
  8
HILF
100
AcDbLine
 10
135.9999999999998
 20
50.0
 30
0.0
 11
219.9999999999995
 21
50.0
 31
0.0
  0
INSERT
  5
2FD
330
20
100
AcDbEntity
  8
STEMPEL
100
AcDbBlockReference
  2
LOGO
 10
138.9705276546527
 20
44.3239197186715
 30
0.0
 41
2.0
 42
2.0
 43
2.0
  0
TEXT
  5
2FE
330
20
100
AcDbEntity
  8
TEXT
100
AcDbText
 10
137.60067773873
 20
43.52946389649798
 30
0.0
 40
3.6
  1
Norm.
 41
0.8
  7
GREEKS
100
AcDbText
  0
TEXT
  5
2FF
330
20
100
AcDbEntity
  8
TEXT
100
AcDbText
 10
119.0756407737948
 20
18.59324216966399
 30
0.0
 40
4.0
  1
Name
 41
0.8
  7
GREEKS
 72
     1
 11
125.3994502976043
 21
18.59324216966399
 31
0.0
100
AcDbText
  0
TEXT
  5
300
330
20
100
AcDbEntity
  8
TEXT
100
AcDbText
 10
100.0124138850654
 20
18.67156269339807
 30
0.0
 40
4.0
  1
Tag
 41
0.8
  7
GREEKS
 72
     1
 11
103.7457472183987
 21
18.67156269339807
 31
0.0
100
AcDbText
  0
TEXT
  5
301
330
20
100
AcDbEntity
  8
TEXT
100
AcDbText
 10
224.7422383911355
 20
30.8456057019306
 30
0.0
 40
5.0
  1
Bauvorhaben
 41
0.8
  7
GREEKS
100
AcDbText
  0
TEXT
  5
302
330
20
100
AcDbEntity
  8
TEXT
100
AcDbText
 10
224.971340053456
 20
42.19504573013546
 30
0.0
 40
4.0
  1
16261070W.DWG
 41
0.8
  7
GREEKS
100
AcDbText
  0
TEXT
  5
303
330
20
100
AcDbEntity
  8
TEXT
 62
     1
100
AcDbText
 10
224.9791173409946
 20
86.99412083985317
 30
0.0
 40
7.0
  1
Kompletteinheit DN70
 41
0.8
  7
GREEKS
100
AcDbText
  0
LINE
  5
304
330
20
100
AcDbEntity
  8
HILF
100
AcDbLine
 10
224.7736801096944
 20
84.03758247564132
 30
0.0
 11
326.629784251481
 21
84.03758247564132
 31
0.0
  0
LINE
  5
305
330
20
100
AcDbEntity
  8
HILF
100
AcDbLine
 10
224.7736801096944
 20
70.0
 30
0.0
 11
326.629784251481
 21
70.0
 31
0.0
  0
LINE
  5
306
330
20
100
AcDbEntity
  8
HILF
100
AcDbLine
 10
224.7736801096944
 20
60.0
 30
0.0
 11
326.629784251481
 21
60.0
 31
0.0
  0
TEXT
  5
307
330
20
100
AcDbEntity
  8
TEXT
 62
     1
100
AcDbText
 10
295.9109730986456
 20
176.524594800038
 30
0.0
 40
7.0
  1
EDV-Art.Nr. 16225.070X
 41
0.8
  7
GREEKS
100
AcDbText
  0
LINE
  5
308
330
20
100
AcDbEntity
  8
TEXT
 62
     2
100
AcDbLine
 10
397.8934195613847
 20
186.1161896519585
 30
0.0
 11
294.5406517120891
 21
186.1161896519585
 31
0.0
  0
TEXT
  5
309
330
20
100
AcDbEntity
  8
TEXT
 62
     1
100
AcDbText
 10
295.9109730986456
 20
189.1194322503197
 30
0.0
 40
7.0
  1
Grundeineit DN70
 41
0.8
  7
GREEKS
100
AcDbText
  0
LINE
  5
30A
330
20
100
AcDbEntity
  8
STEMPEL
100
AcDbLine
 10
410.0
 20
80.0
 30
0.0
 11
135.9999999999998
 21
80.0
 31
0.0
  0
TEXT
  5
30B
330
20
100
AcDbEntity
  8
TEXT
100
AcDbText
 10
187.9646614905594
 20
102.4184168434818
 30
0.0
 40
5.0
  1
zul.Abw
 41
0.8
  7
GREEKS
100
AcDbText
  0
TEXT
  5
30C
330
20
100
AcDbEntity
  8
TEXT
100
AcDbText
 10
182.9942584755854
 20
90.23051162274779
 30
0.0
 40
4.0
  1
DIN EN1123-2
 41
0.8
  7
GREEKS
100
AcDbText
  0
LINE
  5
30D
330
20
100
AcDbEntity
  8
HILF
100
AcDbLine
 10
135.9999999999998
 20
70.0
 30
0.0
 11
219.9999999999995
 21
70.0
 31
0.0
  0
LINE
  5
30E
330
20
100
AcDbEntity
  8
HILF
100
AcDbLine
 10
135.9999999999998
 20
60.0
 30
0.0
 11
219.9999999999995
 21
60.0
 31
0.0
  0
TEXT
  5
30F
330
20
100
AcDbEntity
  8
TEXT
 62
     1
100
AcDbText
 10
148.8064310364446
 20
86.22410504373215
 30
0.0
 40
7.0
  1
1:2
 41
0.8
  7
GREEKS
100
AcDbText
  0
TEXT
  5
310
330
20
100
AcDbEntity
  8
TEXT
100
AcDbText
 10
143.5163572150373
 20
102.4620895087088
 30
0.0
 40
5.0
  1
Maßstab
 41
0.8
  7
GREEKS
100
AcDbText
  0
TEXT
  5
311
330
20
100
AcDbEntity
  8
TEXT
100
AcDbText
 10
137.5836127167611
 20
63.62990369617955
 30
0.0
 40
3.6
  1
Gez.
 41
0.8
  7
GREEKS
100
AcDbText
  0
TEXT
  5
312
330
20
100
AcDbEntity
  8
TEXT
100
AcDbText
 10
139.917019006539
 20
72.73769730562207
 30
0.0
 40
3.6
  1
2008
 41
0.8
  7
GREEKS
100
AcDbText
  0
TEXT
  5
313
330
20
100
AcDbEntity
  8
TEXT
100
AcDbText
 10
162.3311673153646
 20
73.31880501229921
 30
0.0
 40
3.6
  1
Tag
 41
0.8
  7
GREEKS
100
AcDbText
  0
TEXT
  5
314
330
20
100
AcDbEntity
  8
TEXT
100
AcDbText
 10
160.4500884820462
 20
63.40553235359493
 30
0.0
 40
3.6
  1
02.06.
 41
0.8
  7
GREEKS
 72
     1
 11
166.7586599106176
 21
63.40553235359493
 31
0.0
100
AcDbText
  0
TEXT
  5
315
330
20
100
AcDbEntity
  8
TEXT
100
AcDbText
 10
192.4626584226292
 20
73.30961091915219
 30
0.0
 40
3.6
  1
Name
 41
0.8
  7
GREEKS
100
AcDbText
  0
TEXT
  5
316
330
20
100
AcDbEntity
  8
TEXT
100
AcDbText
 10
195.1121860477739
 20
63.502532587509
 30
0.0
 40
3.6
  1
Koeh
 41
0.8
  7
GREEKS
 72
     1
 11
199.8436146192025
 21
63.502532587509
 31
0.0
100
AcDbText
  0
TEXT
  5
317
330
20
100
AcDbEntity
  8
TEXT
100
AcDbText
 10
224.8629872542567
 20
72.29651127304101
 30
0.0
 40
5.0
  1
für obere Balkone
 41
0.8
  7
GREEKS
100
AcDbText
  0
TEXT
  5
318
330
20
100
AcDbEntity
  8
TEXT
100
AcDbText
 10
224.8779403809006
 20
102.5489328011779
 30
0.0
 40
5.0
  1
Benennung
 41
0.8
  7
GREEKS
100
AcDbText
  0
DIMENSION
  5
319
330
20
100
AcDbEntity
  8
BEM
100
AcDbDimension
  2
*D12
 10
257.9299187518418
 20
127.4733620292872
 30
0.0
 11
221.4299187518418
 21
133.9733620292872
 31
0.0
 70
    32
  1
%%C<>
 71
     5
 42
72.99999999999994
  3
Standard
100
AcDbAlignedDimension
 13
184.9299187518418
 23
158.4311126580744
 33
0.0
 14
257.9299187518418
 24
158.4311126580743
 34
0.0
100
AcDbRotatedDimension
1001
ACAD
1000
DSTYLE
1002
{
1070
    40
1040
2.0
1070
    41
1040
3.5
1070
    42
1040
1.0
1070
    43
1040
7.0
1070
    44
1040
1.0
1070
    47
1040
0.16
1070
    48
1040
0.16
1070
    73
1070
     0
1070
    74
1070
     0
1070
    77
1070
     1
1070
    78
1070
     8
1070
    79
1070
     2
1070
   140
1040
3.5
1070
   141
1040
1.5
1070
   145
1040
0.2857142857142857
1070
   146
1040
0.5
1070
   147
1040
1.5
1070
   172
1070
     1
1070
   178
1070
     1
1070
   179
1070
     2
1070
   271
1070
     2
1070
   272
1070
     2
1070
   284
1070
     8
1070
   285
1070
     8
1070
   286
1070
     8
1070
   340
1005
32
1002
}
  0
LINE
  5
31A
330
20
100
AcDbEntity
  8
STEMPEL
100
AcDbLine
 10
185.804805387101
 20
148.4311126580743
 30
0.0
 11
257.0550321165824
 21
148.4311126580743
 31
0.0
  0
LINE
  5
31B
330
20
100
AcDbEntity
  8
HILF
100
AcDbLine
 10
188.1421422319805
 20
158.4311126580745
 30
0.0
 11
254.717695271703
 21
158.4311126580742
 31
0.0
  0
LINE
  5
31C
330
20
100
AcDbEntity
  8
STEMPEL
100
AcDbLine
 10
186.5299187518417
 20
158.5009701667273
 30
0.0
 11
187.4109171271703
 21
148.4311126580744
 31
0.0
  0
LINE
  5
31D
330
20
100
AcDbEntity
  8
STEMPEL
100
AcDbLine
 10
184.9299187518418
 20
158.4311126580744
 30
0.0
 11
185.804805387101
 21
148.4311126580743
 31
0.0
  0
LINE
  5
31E
330
20
100
AcDbEntity
  8
STEMPEL
100
AcDbLine
 10
257.9299187518416
 20
158.4311126580744
 30
0.0
 11
257.0550321165824
 21
148.4311126580743
 31
0.0
  0
LINE
  5
31F
330
20
100
AcDbEntity
  8
STEMPEL
100
AcDbLine
 10
256.3299187518414
 20
158.5009701667261
 30
0.0
 11
255.4489203765131
 21
148.4311126580743
 31
0.0
  0
LINE
  5
320
330
20
100
AcDbEntity
  8
TEXT
 62
     2
100
AcDbLine
 10
294.5406517120891
 20
186.1161896519585
 30
0.0
 11
257.1117351800711
 21
177.1348430653209
 31
0.0
  0
TEXT
  5
321
330
20
100
AcDbEntity
  8
TEXT
 62
     1
100
AcDbText
 10
347.4377728175696
 20
87.01863741763578
 30
0.0
 40
7.0
  1
16261070W
 41
0.8
  7
GREEKS
 72
     1
 11
370.371106150903
 21
87.01863741763578
 31
0.0
100
AcDbText
  0
LINE
  5
322
330
20
100
AcDbEntity
  8
VOLL
100
AcDbLine
 10
332.0
 20
60.0
 30
0.0
 11
410.0
 21
60.0
 31
0.0
  0
LINE
  5
323
330
20
100
AcDbEntity
  8
HILF
100
AcDbLine
 10
336.7238616296993
 20
83.77983636955821
 30
0.0
 11
404.8588839326728
 21
83.77983636955821
 31
0.0
  0
TEXT
  5
324
330
20
100
AcDbEntity
  8
TEXT
100
AcDbText
 10
336.178754957634
 20
102.3132034537136
 30
0.0
 40
5.0
  1
Zeichnungs Nr.
 41
0.8
  7
GREEKS
100
AcDbText
  0
TEXT
  5
325
330
20
100
AcDbEntity
  8
TEXT
100
AcDbText
 10
336.7238616296993
 20
73.18118237099963
 30
0.0
 40
5.0
  1
Ersatz für:
 41
0.8
  7
GREEKS
100
AcDbText
  0
LINE
  5
326
330
20
100
AcDbEntity
  8
STEMPEL
100
AcDbLine
 10
94.42991875184167
 20
398.4311126580743
 30
0.0
 11
83.92991875184179
 21
396.4311126580743
 31
0.0
  0
LINE
  5
327
330
20
100
AcDbEntity
  8
STEMPEL
100
AcDbLine
 10
94.61869791505774
 20
396.4311126580743
 30
0.0
 11
84.30414296762171
 21
394.4664355252292
 31
0.0
  0
LINE
  5
328
330
20
100
AcDbEntity
  8
STEMPEL
100
AcDbLine
 10
84.30414296762171
 20
394.4664355252292
 30
0.0
 11
147.6185700787438
 21
394.4664355252292
 31
0.0
  0
INSERT
  5
329
330
20
100
AcDbEntity
  8
SCHRAFF
100
AcDbBlockReference
  2
*X7
 10
0.0
 20
-89.97600131226205
 30
0.0
1001
ACAD
1000
HATCH
1002
{
1070
    16
1000
NET,I
1040
10.0
1040
0.7853981633974483
1002
}
  0
LINE
  5
32A
102
{ACAD_REACTORS
330
6A6
102
}
330
20
100
AcDbEntity
  8
STEMPEL
100
AcDbLine
 10
61.42991875184179
 20
398.4311126580741
 30
0.0
 11
143.1782807460746
 21
398.4311126580741
 31
0.0
  0
DIMENSION
  5
32B
330
20
100
AcDbEntity
  8
BEM
100
AcDbDimension
  2
*D10
 10
75.64556368385098
 20
298.4311126580742
 30
0.0
 11
69.14556368385094
 21
348.4311126580742
 31
0.0
 70
    32
 71
     5
 42
99.99999999999994
  3
Standard
100
AcDbAlignedDimension
 13
61.42991875184179
 23
398.4311126580741
 33
0.0
 14
174.7370932364385
 24
298.4311126580741
 34
0.0
 50
90.0
100
AcDbRotatedDimension
1001
ACAD
1000
DSTYLE
1002
{
1070
    40
1040
2.0
1070
    41
1040
3.5
1070
    42
1040
1.0
1070
    43
1040
7.0
1070
    44
1040
1.0
1070
    47
1040
0.16
1070
    48
1040
0.16
1070
    73
1070
     0
1070
    74
1070
     0
1070
    77
1070
     1
1070
    78
1070
     8
1070
    79
1070
     2
1070
   140
1040
3.5
1070
   141
1040
1.5
1070
   145
1040
0.2857142857142857
1070
   146
1040
0.5
1070
   147
1040
1.5
1070
   172
1070
     1
1070
   178
1070
     1
1070
   179
1070
     2
1070
   271
1070
     2
1070
   272
1070
     2
1070
   284
1070
     8
1070
   285
1070
     8
1070
   286
1070
     8
1070
   340
1005
32
1002
}
  0
LINE
  5
32D
330
20
100
AcDbEntity
  8
STEMPEL
100
AcDbLine
 10
61.42991875184179
 20
399.9311126580741
 30
0.0
 11
170.4299187518418
 21
399.931112658074
 31
0.0
  0
INSERT
  5
32E
330
20
100
AcDbEntity
  8
SCHRAFF
100
AcDbBlockReference
  2
*X3
 10
0.0
 20
-89.97600131226205
 30
0.0
1001
ACAD
1000
HATCH
1002
{
1070
    16
1000
_U,I
1040
2.0
1040
0.7853981633974483
1070
     0
1002
}
  0
DIMENSION
  5
32F
330
20
100
AcDbEntity
  8
BEM
100
AcDbDimension
  2
*D8
 10
358.9299187518417
 20
408.3952681636656
 30
0.0
 11
221.4299187518417
 21
414.8952681636655
 31
0.0
 70
    32
  1
%%c<>
 71
     5
 42
274.9999999999999
  3
Standard
100
AcDbAlignedDimension
 13
83.92991875184179
 23
396.4311126580743
 33
0.0
 14
358.9299187518417
 24
396.4311126580743
 34
0.0
100
AcDbRotatedDimension
1001
ACAD
1000
DSTYLE
1002
{
1070
    40
1040
2.0
1070
    41
1040
3.5
1070
    42
1040
1.0
1070
    43
1040
7.0
1070
    44
1040
1.0
1070
    47
1040
0.16
1070
    48
1040
0.16
1070
    73
1070
     0
1070
    74
1070
     0
1070
    77
1070
     1
1070
    78
1070
     8
1070
    79
1070
     2
1070
   140
1040
3.5
1070
   141
1040
1.5
1070
   145
1040
0.2857142857142857
1070
   146
1040
0.5
1070
   147
1040
1.5
1070
   172
1070
     1
1070
   178
1070
     1
1070
   179
1070
     2
1070
   271
1070
     2
1070
   272
1070
     2
1070
   284
1070
     8
1070
   285
1070
     8
1070
   286
1070
     8
1070
   340
1005
32
1002
}
  0
LINE
  5
330
330
20
100
AcDbEntity
  8
HILF
100
AcDbLine
 10
420.0
 20
594.0
 30
0.0
 11
0.0
 21
594.0
 31
0.0
  0
LINE
  5
331
330
20
100
AcDbEntity
  8
STEMPEL
100
AcDbLine
 10
410.0
 20
584.0
 30
0.0
 11
40.00000000000051
 21
584.0
 31
0.0
  0
LINE
  5
332
102
{ACAD_REACTORS
330
6A6
102
}
330
20
100
AcDbEntity
  8
HILF
100
AcDbLine
 10
61.42991875184179
 20
396.4311126580741
 30
0.0
 11
61.42991875184179
 21
401.9311126580741
 31
0.0
  0
LINE
  5
333
330
20
100
AcDbEntity
  8
STEMPEL
100
AcDbLine
 10
83.92991875184179
 20
396.4311126580743
 30
0.0
 11
84.30414296762171
 21
394.4664355252292
 31
0.0
  0
LINE
  5
335
330
20
100
AcDbEntity
  8
STEMPEL
100
AcDbLine
 10
272.4299187518418
 20
399.9311126580741
 30
0.0
 11
381.4299187518418
 21
399.9311126580741
 31
0.0
  0
INSERT
  5
336
330
20
100
AcDbEntity
  8
SCHRAFF
100
AcDbBlockReference
  2
*X7
 10
442.8598375036822
 20
-89.97600131226272
 30
0.0
 41
-1.0
 50
359.9999999999998
1001
ACAD
1000
HATCH
1002
{
1070
    16
1000
NET,I
1040
10.0
1040
0.7853981633974483
1002
}
  0
LINE
  5
337
330
20
100
AcDbEntity
  8
STEMPEL
100
AcDbLine
 10
299.6815567576091
 20
398.4311126580743
 30
0.0
 11
348.4299187518418
 21
398.4311126580743
 31
0.0
  0
LINE
  5
33A
330
20
100
AcDbEntity
  8
STEMPEL
100
AcDbLine
 10
299.6815567576091
 20
398.4311126580741
 30
0.0
 11
381.4299187518418
 21
398.4311126580741
 31
0.0
  0
LINE
  5
33B
330
20
100
AcDbEntity
  8
STEMPEL
100
AcDbLine
 10
358.5556945360616
 20
394.4664355252292
 30
0.0
 11
295.2412674249398
 21
394.4664355252292
 31
0.0
  0
LINE
  5
33C
330
20
100
AcDbEntity
  8
STEMPEL
100
AcDbLine
 10
348.2411395886259
 20
396.4311126580743
 30
0.0
 11
299.681556757609
 21
396.4311126580743
 31
0.0
  0
LINE
  5
33D
330
20
100
AcDbEntity
  8
STEMPEL
100
AcDbLine
 10
292.9299187518418
 20
383.2385345616789
 30
0.0
 11
292.9299187518418
 21
379.9670110429365
 31
0.0
  0
LINE
  5
33E
330
20
100
AcDbEntity
  8
STEMPEL
100
AcDbLine
 10
294.9299187518418
 20
383.4311126580742
 30
0.0
 11
294.9299187518418
 21
379.4311126580742
 31
0.0
  0
LINE
  5
33F
330
20
100
AcDbEntity
  8
STEMPEL
100
AcDbLine
 10
292.9299187518418
 20
383.238534561679
 30
0.0
 11
292.9299187518418
 21
379.9670110429365
 31
0.0
  0
LINE
  5
340
102
{ACAD_REACTORS
330
618
102
}
330
20
100
AcDbEntity
  8
STEMPEL
100
AcDbLine
 10
291.4299187518418
 20
383.0941009893826
 30
0.0
 11
291.4299187518418
 21
380.3689348315832
 31
0.0
  0
LINE
  5
341
102
{ACAD_REACTORS
330
618
102
}
330
20
100
AcDbEntity
  8
STEMPEL
100
AcDbLine
 10
272.4299187518417
 20
375.1838101906489
 30
0.0
 11
274.0632071192986
 21
384.4466488151999
 31
0.0
  0
LINE
  5
343
102
{ACAD_REACTORS
330
618
102
}
330
20
100
AcDbEntity
  8
STEMPEL
100
AcDbLine
 10
281.429918751842
 20
371.5125283710327
 30
0.0
 11
281.429918751842
 21
394.5125283710327
 31
0.0
  0
LINE
  5
344
102
{ACAD_REACTORS
330
618
102
}
330
20
100
AcDbEntity
  8
STEMPEL
100
AcDbLine
 10
279.429918751842
 20
371.5125283710327
 30
0.0
 11
279.429918751842
 21
394.5125283710326
 31
0.0
  0
LINE
  5
345
330
20
100
AcDbEntity
  8
STEMPEL
100
AcDbLine
 10
248.024091045786
 20
372.4311126580742
 30
0.0
 11
238.4299187518418
 21
398.4311126580742
 31
0.0
  0
LINE
  5
346
330
20
100
AcDbEntity
  8
MITTEL
100
AcDbLine
 10
221.4299187518419
 20
504.9311126580739
 30
0.0
 11
221.4299187518418
 21
422.2502571553154
 31
0.0
  0
LINE
  5
347
102
{ACAD_REACTORS
330
618
102
}
330
20
100
AcDbEntity
  8
STEMPEL
100
AcDbLine
 10
170.4299187518419
 20
375.1838101906476
 30
0.0
 11
168.7966303843849
 21
384.4466488151999
 31
0.0
  0
LINE
  5
348
102
{ACAD_REACTORS
330
618
102
}
330
20
100
AcDbEntity
  8
STEMPEL
100
AcDbLine
 10
151.4299187518417
 20
383.0941009893828
 30
0.0
 11
151.4299187518417
 21
380.3689348315832
 31
0.0
  0
LINE
  5
349
330
20
100
AcDbEntity
  8
STEMPEL
100
AcDbLine
 10
149.9299187518419
 20
383.2385345616789
 30
0.0
 11
149.9299187518419
 21
379.9670110429365
 31
0.0
  0
LINE
  5
34A
330
20
100
AcDbEntity
  8
STEMPEL
100
AcDbLine
 10
147.9299187518419
 20
383.4311126580742
 30
0.0
 11
147.9299187518419
 21
379.4311126580742
 31
0.0
  0
LINE
  5
34B
330
20
100
AcDbEntity
  8
STEMPEL
100
AcDbLine
 10
149.9299187518419
 20
383.238534561679
 30
0.0
 11
149.9299187518419
 21
379.9670110429365
 31
0.0
  0
LINE
  5
34D
102
{ACAD_REACTORS
330
618
102
}
330
20
100
AcDbEntity
  8
STEMPEL
100
AcDbLine
 10
161.4299187518414
 20
371.5125283710327
 30
0.0
 11
161.4299187518414
 21
394.5125283710327
 31
0.0
  0
LINE
  5
34E
102
{ACAD_REACTORS
330
618
102
}
330
20
100
AcDbEntity
  8
STEMPEL
100
AcDbLine
 10
163.4299187518414
 20
371.5125283710327
 30
0.0
 11
163.4299187518414
 21
394.5125283710326
 31
0.0
  0
LINE
  5
34F
330
20
100
AcDbEntity
  8
STEMPEL
100
AcDbLine
 10
194.8357464578974
 20
372.4311126580742
 30
0.0
 11
204.4299187518419
 21
398.4311126580743
 31
0.0
  0
INSERT
  5
350
330
20
100
AcDbEntity
  8
SCHRAFF
100
AcDbBlockReference
  2
*X6
 10
0.0
 20
-89.97600131226205
 30
0.0
1001
ACAD
1000
HATCH
1002
{
1070
    16
1000
_U,I
1040
2.0
1040
2.356194490192344
1070
     0
1002
}
  0
DIMENSION
  5
351
330
20
100
AcDbEntity
  8
BEM
100
AcDbDimension
  2
*D9
 10
280.4299187518417
 20
278.9045127574734
 30
0.0
 11
221.4299187518418
 21
285.4045127574735
 31
0.0
 70
    32
  1
%%c<>
 71
     5
 42
117.9999999999997
  3
Standard
100
AcDbAlignedDimension
 13
162.4299187518419
 23
324.3776730105608
 33
0.0
 14
280.4299187518417
 24
324.3776730105606
 34
0.0
100
AcDbRotatedDimension
1001
ACAD
1000
DSTYLE
1002
{
1070
    40
1040
2.0
1070
    41
1040
3.5
1070
    42
1040
1.0
1070
    43
1040
7.0
1070
    44
1040
1.0
1070
    47
1040
0.16
1070
    48
1040
0.16
1070
    73
1070
     0
1070
    74
1070
     0
1070
    77
1070
     1
1070
    78
1070
     8
1070
    79
1070
     2
1070
   140
1040
3.5
1070
   141
1040
1.5
1070
   145
1040
0.2857142857142857
1070
   146
1040
0.5
1070
   147
1040
1.5
1070
   172
1070
     1
1070
   178
1070
     1
1070
   179
1070
     2
1070
   271
1070
     2
1070
   272
1070
     2
1070
   284
1070
     8
1070
   285
1070
     8
1070
   286
1070
     8
1070
   340
1005
32
1002
}
  0
INSERT
  5
352
330
20
100
AcDbEntity
  8
SCHRAFF
100
AcDbBlockReference
  2
*X1
 10
0.0
 20
-89.97600131226205
 30
0.0
1001
ACAD
1000
HATCH
1002
{
1070
    16
1000
_U,I
1040
0.1
1040
0.0
1070
     0
1002
}
  0
INSERT
  5
353
330
20
100
AcDbEntity
  8
SCHRAFF
100
AcDbBlockReference
  2
*X4
 10
0.0
 20
-89.97600131226205
 30
0.0
1001
ACAD
1000
HATCH
1002
{
1070
    16
1000
_U,I
1040
2.0
1040
2.356194490192344
1070
     0
1002
}
  0
LINE
  5
354
330
20
100
AcDbEntity
  8
STEMPEL
100
AcDbLine
 10
194.8357464578974
 20
300.4311126580742
 30
0.0
 11
194.8357464578974
 21
372.4311126580742
 31
0.0
  0
LINE
  5
355
330
20
100
AcDbEntity
  8
STEMPEL
100
AcDbLine
 10
162.6508203359977
 20
322.5106893907583
 30
0.0
 11
166.9579948205943
 21
304.5641290382716
 31
0.0
  0
LINE
  5
356
330
20
100
AcDbEntity
  8
STEMPEL
100
AcDbLine
 10
164.5955949399587
 20
322.9774352957087
 30
0.0
 11
168.9027694245554
 21
305.0308749432223
 31
0.0
  0
LINE
  5
357
330
20
100
AcDbEntity
  8
STEMPEL
100
AcDbLine
 10
174.7370932364385
 20
300.4311126580742
 30
0.0
 11
194.8357464578973
 21
300.4311126580742
 31
0.0
  0
LINE
  5
358
330
20
100
AcDbEntity
  8
STEMPEL
100
AcDbLine
 10
174.7370932364385
 20
298.4311126580741
 30
0.0
 11
184.9299187518419
 21
298.4311126580741
 31
0.0
  0
ARC
  5
359
330
20
100
AcDbEntity
  8
STEMPEL
100
AcDbCircle
 10
174.7370932364385
 20
306.4311126580742
 30
0.0
 40
6.0
100
AcDbArc
 50
193.4957332807956
 51
270.0
  0
ARC
  5
35A
330
20
100
AcDbEntity
  8
STEMPEL
100
AcDbCircle
 10
174.7370932364385
 20
306.4311126580741
 30
0.0
 40
8.0
100
AcDbArc
 50
193.4957332807954
 51
270.0
  0
ARC
  5
35B
330
20
100
AcDbEntity
  8
SCHRAFF
100
AcDbCircle
 10
184.9299187518418
 20
298.4311126580741
 30
0.0
 40
3.0
100
AcDbArc
 50
180.0
 51
270.0
  0
LINE
  5
35C
330
20
100
AcDbEntity
  8
STEMPEL
100
AcDbLine
 10
147.9299187518419
 20
379.4311126580742
 30
0.0
 11
155.435472251307
 21
366.4311126580742
 31
0.0
  0
LINE
  5
35D
330
20
100
AcDbEntity
  8
STEMPEL
100
AcDbLine
 10
164.4299187518418
 20
350.2217660122893
 30
0.0
 11
164.4299187518418
 21
324.3776730105607
 31
0.0
  0
LINE
  5
35E
330
20
100
AcDbEntity
  8
STEMPEL
100
AcDbLine
 10
162.4299187518418
 20
350.2217660122893
 30
0.0
 11
162.4299187518419
 21
324.3776730105608
 31
0.0
  0
LINE
  5
35F
330
20
100
AcDbEntity
  8
HILF
100
AcDbLine
 10
166.5435292321065
 20
323.4311126580742
 30
0.0
 11
194.8357464578974
 21
323.4311126580741
 31
0.0
  0
ARC
  5
360
330
20
100
AcDbEntity
  8
STEMPEL
100
AcDbCircle
 10
170.4299187518419
 20
324.3776730105608
 30
0.0
 40
8.0
100
AcDbArc
 50
180.0
 51
193.4957332807954
  0
ARC
  5
361
330
20
100
AcDbEntity
  8
STEMPEL
100
AcDbCircle
 10
170.4299187518418
 20
324.3776730105607
 30
0.0
 40
6.0
100
AcDbArc
 50
180.0
 51
193.4957332807956
  0
LINE
  5
362
102
{ACAD_REACTORS
330
618
102
}
330
20
100
AcDbEntity
  8
STEMPEL
100
AcDbLine
 10
160.2959441556257
 20
366.5125283710326
 30
0.0
 11
170.929918751842
 21
366.5125283710326
 31
0.0
  0
LINE
  5
363
102
{ACAD_REACTORS
330
618
102
}
330
20
100
AcDbEntity
  8
STEMPEL
100
AcDbLine
 10
166.9299187518418
 20
367.5125283710326
 30
0.0
 11
170.4299187518419
 21
367.5125283710326
 31
0.0
  0
LINE
  5
365
330
20
100
AcDbEntity
  8
STEMPEL
100
AcDbLine
 10
160.5887247649493
 20
365.0125283710326
 30
0.0
 11
170.929918751842
 21
365.0125283710326
 31
0.0
  0
LINE
  5
366
330
20
100
AcDbEntity
  8
STEMPEL
100
AcDbLine
 10
162.3636754815825
 20
362.4311126580742
 30
0.0
 11
170.4299187518419
 21
362.4311126580742
 31
0.0
  0
LINE
  5
367
330
20
100
AcDbEntity
  8
STEMPEL
100
AcDbLine
 10
162.3636754815825
 20
364.4311126580742
 30
0.0
 11
170.9299187518419
 21
364.4311126580742
 31
0.0
  0
LINE
  5
368
330
20
100
AcDbEntity
  8
HILF
100
AcDbLine
 10
166.4299187518418
 20
351.9212232985994
 30
0.0
 11
170.4299187518419
 21
351.9212232985994
 31
0.0
  0
LINE
  5
369
102
{ACAD_REACTORS
330
618
102
}
330
20
100
AcDbEntity
  8
STEMPEL
100
AcDbLine
 10
161.4299187518414
 20
371.5125283710327
 30
0.0
 11
163.4299187518414
 21
371.5125283710327
 31
0.0
  0
LINE
  5
36A
102
{ACAD_REACTORS
330
618
102
}
330
20
100
AcDbEntity
  8
STEMPEL
100
AcDbLine
 10
166.9299187518412
 20
367.5125283710326
 30
0.0
 11
165.1978679442726
 21
366.5125283710327
 31
0.0
  0
LINE
  5
36B
330
20
100
AcDbEntity
  8
STEMPEL
100
AcDbLine
 10
163.9299187518419
 20
366.5125283710326
 30
0.0
 11
163.9299187518419
 21
365.0125283710326
 31
0.0
  0
LINE
  5
36C
330
20
100
AcDbEntity
  8
STEMPEL
100
AcDbLine
 10
163.9299187518419
 20
364.4311126580742
 30
0.0
 11
163.9299187518419
 21
362.4311126580742
 31
0.0
  0
ARC
  5
36D
330
20
100
AcDbEntity
  8
STEMPEL
100
AcDbCircle
 10
152.4299187518418
 20
350.2217660122893
 30
0.0
 40
10.0
100
AcDbArc
 50
0.0
 51
19.29004621918884
  0
ARC
  5
36E
330
20
100
AcDbEntity
  8
STEMPEL
100
AcDbCircle
 10
152.4299187518418
 20
350.2217660122893
 30
0.0
 40
12.0
100
AcDbArc
 50
0.0
 51
19.29004621918894
  0
LINE
  5
36F
330
20
100
AcDbEntity
  8
STEMPEL
100
AcDbLine
 10
163.756219028234
 20
354.1859711090266
 30
0.0
 11
160.8176354645739
 21
362.5819241480556
 31
0.0
  0
ARC
  5
372
102
{ACAD_REACTORS
330
618
102
}
330
20
100
AcDbEntity
  8
STEMPEL
100
AcDbCircle
 10
160.2959441556257
 20
368.0125283710326
 30
0.0
 40
1.5
100
AcDbArc
 50
209.9999999999996
 51
269.9999999999999
  0
ARC
  5
373
330
20
100
AcDbEntity
  8
STEMPEL
100
AcDbCircle
 10
162.3636754815825
 20
370.4311126580742
 30
0.0
 40
6.0
100
AcDbArc
 50
210.0
 51
233.7257981863588
  0
ARC
  5
374
330
20
100
AcDbEntity
  8
STEMPEL
100
AcDbCircle
 10
160.5887247649493
 20
368.0125283710326
 30
0.0
 40
3.0
100
AcDbArc
 50
233.7257981863588
 51
270.0
  0
ARC
  5
375
330
20
100
AcDbEntity
  8
SCHRAFF
100
AcDbCircle
 10
160.8176354645738
 20
362.5819241480556
 30
0.0
 40
5.0
100
AcDbArc
 50
150.6472394648852
 51
265.7118677409872
  0
LINE
  5
376
102
{ACAD_REACTORS
330
618
102
}
330
20
100
AcDbEntity
  8
STEMPEL
100
AcDbLine
 10
151.4299187518417
 20
380.3689348315832
 30
0.0
 11
158.9969060499492
 21
367.2625283710326
 31
0.0
  0
LINE
  5
377
330
20
100
AcDbEntity
  8
STEMPEL
100
AcDbLine
 10
149.9299187518419
 20
379.9670110429365
 30
0.0
 11
157.1675230588757
 21
367.4311126580741
 31
0.0
  0
LINE
  5
378
330
20
100
AcDbEntity
  8
STEMPEL
100
AcDbLine
 10
149.9299187518419
 20
379.9670110429365
 30
0.0
 11
157.1675230588758
 21
367.4311126580742
 31
0.0
  0
ARC
  5
379
330
20
100
AcDbEntity
  8
STEMPEL
100
AcDbCircle
 10
162.3636754815825
 20
370.4311126580742
 30
0.0
 40
8.0
100
AcDbArc
 50
210.0
 51
270.0
  0
ARC
  5
37A
330
20
100
AcDbEntity
  8
STEMPEL
100
AcDbCircle
 10
162.3636754815825
 20
370.4311126580742
 30
0.0
 40
6.0
100
AcDbArc
 50
210.0
 51
270.0
  0
LINE
  5
37B
330
20
100
AcDbEntity
  8
STEMPEL
100
AcDbLine
 10
161.868502315502
 20
353.5252702595703
 30
0.0
 11
158.9299187518418
 21
361.9212232985994
 31
0.0
  0
LINE
  5
37C
330
20
100
AcDbEntity
  8
STEMPEL
100
AcDbLine
 10
160.8176354645739
 20
362.5819241480556
 30
0.0
 11
158.9299187518418
 21
361.9212232985994
 31
0.0
  0
INSERT
  5
37D
330
20
100
AcDbEntity
  8
SCHRAFF
100
AcDbBlockReference
  2
*X5
 10
0.0
 20
-89.97600131226205
 30
0.0
1001
ACAD
1000
HATCH
1002
{
1070
    16
1000
_U,I
1040
0.1
1040
2.356194490192344
1070
     0
1002
}
  0
LINE
  5
37E
330
20
100
AcDbEntity
  8
STEMPEL
100
AcDbLine
 10
280.2090171676858
 20
322.5106893907579
 30
0.0
 11
275.9018426830891
 21
304.5641290382716
 31
0.0
  0
LINE
  5
37F
330
20
100
AcDbEntity
  8
STEMPEL
100
AcDbLine
 10
248.024091045786
 20
300.4311126580742
 30
0.0
 11
248.024091045786
 21
372.4311126580742
 31
0.0
  0
LINE
  5
380
330
20
100
AcDbEntity
  8
STEMPEL
100
AcDbLine
 10
278.2642425637248
 20
322.9774352957087
 30
0.0
 11
273.957068079128
 21
305.0308749432222
 31
0.0
  0
LINE
  5
381
330
20
100
AcDbEntity
  8
STEMPEL
100
AcDbLine
 10
248.024091045786
 20
300.4311126580742
 30
0.0
 11
268.1227442672449
 21
300.4311126580742
 31
0.0
  0
LINE
  5
382
330
20
100
AcDbEntity
  8
STEMPEL
100
AcDbLine
 10
257.9299187518418
 20
298.4311126580742
 30
0.0
 11
268.1227442672449
 21
298.4311126580742
 31
0.0
  0
ARC
  5
383
330
20
100
AcDbEntity
  8
SCHRAFF
100
AcDbCircle
 10
257.9299187518416
 20
298.431112658074
 30
0.0
 40
3.0
100
AcDbArc
 50
269.9999999999999
 51
359.9999999999999
  0
ARC
  5
384
330
20
100
AcDbEntity
  8
STEMPEL
100
AcDbCircle
 10
268.1227442672449
 20
306.4311126580742
 30
0.0
 40
6.0
100
AcDbArc
 50
270.0
 51
346.5042667192039
  0
ARC
  5
385
330
20
100
AcDbEntity
  8
STEMPEL
100
AcDbCircle
 10
268.1227442672449
 20
306.4311126580742
 30
0.0
 40
8.0
100
AcDbArc
 50
270.0
 51
346.5042667192041
  0
LINE
  5
387
102
{ACAD_REACTORS
330
618
102
}
330
20
100
AcDbEntity
  8
STEMPEL
100
AcDbLine
 10
271.9299187518417
 20
366.5125283710326
 30
0.0
 11
282.5638933480577
 21
366.5125283710326
 31
0.0
  0
LINE
  5
388
102
{ACAD_REACTORS
330
618
102
}
330
20
100
AcDbEntity
  8
STEMPEL
100
AcDbLine
 10
272.4299187518417
 20
367.5125283710326
 30
0.0
 11
275.9299187518422
 21
367.5125283710326
 31
0.0
  0
LINE
  5
389
330
20
100
AcDbEntity
  8
STEMPEL
100
AcDbLine
 10
271.9299187518418
 20
365.0125283710326
 30
0.0
 11
282.2711127387326
 21
365.0125283710326
 31
0.0
  0
LINE
  5
38A
330
20
100
AcDbEntity
  8
STEMPEL
100
AcDbLine
 10
271.9299187518418
 20
364.4311126580742
 30
0.0
 11
280.4961620221011
 21
364.4311126580742
 31
0.0
  0
LINE
  5
38B
330
20
100
AcDbEntity
  8
STEMPEL
100
AcDbLine
 10
272.4299187518417
 20
362.4311126580742
 30
0.0
 11
280.4961620221011
 21
362.4311126580741
 31
0.0
  0
LINE
  5
38C
330
20
100
AcDbEntity
  8
HILF
100
AcDbLine
 10
272.4299187518417
 20
351.9212232985994
 30
0.0
 11
276.4299187518418
 21
351.9212232985994
 31
0.0
  0
LINE
  5
38D
330
20
100
AcDbEntity
  8
HILF
100
AcDbLine
 10
248.024091045786
 20
323.4311126580741
 30
0.0
 11
276.3163082715797
 21
323.4311126580741
 31
0.0
  0
LINE
  5
38E
330
20
100
AcDbEntity
  8
STEMPEL
100
AcDbLine
 10
280.4299187518418
 20
350.2217660122893
 30
0.0
 11
280.4299187518417
 21
324.3776730105606
 31
0.0
  0
LINE
  5
38F
330
20
100
AcDbEntity
  8
STEMPEL
100
AcDbLine
 10
278.4299187518418
 20
350.2217660122893
 30
0.0
 11
278.4299187518418
 21
324.3776730105607
 31
0.0
  0
ARC
  5
390
330
20
100
AcDbEntity
  8
STEMPEL
100
AcDbCircle
 10
272.4299187518417
 20
324.3776730105606
 30
0.0
 40
8.0
100
AcDbArc
 50
346.5042667192041
 51
359.9999999999999
  0
ARC
  5
391
330
20
100
AcDbEntity
  8
STEMPEL
100
AcDbCircle
 10
272.4299187518418
 20
324.3776730105607
 30
0.0
 40
6.0
100
AcDbArc
 50
346.5042667192039
 51
0.0
  0
LINE
  5
392
330
20
100
AcDbEntity
  8
STEMPEL
100
AcDbLine
 10
294.9299187518418
 20
379.4311126580742
 30
0.0
 11
287.4243652523767
 21
366.4311126580742
 31
0.0
  0
LINE
  5
393
102
{ACAD_REACTORS
330
618
102
}
330
20
100
AcDbEntity
  8
STEMPEL
100
AcDbLine
 10
281.429918751842
 20
371.5125283710327
 30
0.0
 11
279.429918751842
 21
371.5125283710327
 31
0.0
  0
ARC
  5
394
330
20
100
AcDbEntity
  8
STEMPEL
100
AcDbCircle
 10
280.4961620221011
 20
370.4311126580742
 30
0.0
 40
6.0
100
AcDbArc
 50
306.2742018136171
 51
330.0000000000001
  0
LINE
  5
395
102
{ACAD_REACTORS
330
618
102
}
330
20
100
AcDbEntity
  8
STEMPEL
100
AcDbLine
 10
275.9299187518422
 20
367.5125283710326
 30
0.0
 11
277.6619695594109
 21
366.5125283710327
 31
0.0
  0
LINE
  5
396
330
20
100
AcDbEntity
  8
STEMPEL
100
AcDbLine
 10
278.9299187518418
 20
366.5125283710326
 30
0.0
 11
278.9299187518418
 21
365.0125283710326
 31
0.0
  0
LINE
  5
397
330
20
100
AcDbEntity
  8
STEMPEL
100
AcDbLine
 10
278.9299187518418
 20
364.4311126580742
 30
0.0
 11
278.9299187518418
 21
362.4311126580742
 31
0.0
  0
ARC
  5
398
330
20
100
AcDbEntity
  8
STEMPEL
100
AcDbCircle
 10
290.4299187518418
 20
350.2217660122893
 30
0.0
 40
10.0
100
AcDbArc
 50
160.7099537808111
 51
180.0
  0
ARC
  5
399
330
20
100
AcDbEntity
  8
STEMPEL
100
AcDbCircle
 10
290.4299187518418
 20
350.2217660122893
 30
0.0
 40
12.0
100
AcDbArc
 50
160.709953780811
 51
180.0
  0
LINE
  5
39A
330
20
100
AcDbEntity
  8
STEMPEL
100
AcDbLine
 10
279.1036184754496
 20
354.1859711090266
 30
0.0
 11
282.0422020391097
 21
362.5819241480556
 31
0.0
  0
ARC
  5
39B
102
{ACAD_REACTORS
330
618
102
}
330
20
100
AcDbEntity
  8
STEMPEL
100
AcDbCircle
 10
282.5638933480577
 20
368.0125283710326
 30
0.0
 40
1.5
100
AcDbArc
 50
270.0
 51
330.0000000000003
  0
ARC
  5
39C
330
20
100
AcDbEntity
  8
STEMPEL
100
AcDbCircle
 10
282.2711127387326
 20
368.0125283710326
 30
0.0
 40
3.0
100
AcDbArc
 50
270.0
 51
306.2742018136158
  0
ARC
  5
39D
330
20
100
AcDbEntity
  8
STEMPEL
100
AcDbCircle
 10
280.4961620221011
 20
370.4311126580742
 30
0.0
 40
6.0
100
AcDbArc
 50
270.0
 51
330.0000000000001
  0
ARC
  5
39E
330
20
100
AcDbEntity
  8
STEMPEL
100
AcDbCircle
 10
280.4961620221011
 20
370.4311126580742
 30
0.0
 40
8.0
100
AcDbArc
 50
270.0
 51
330.0000000000001
  0
LINE
  5
39F
330
20
100
AcDbEntity
  8
STEMPEL
100
AcDbLine
 10
280.9913351881816
 20
353.5252702595704
 30
0.0
 11
283.9299187518418
 21
361.9212232985994
 31
0.0
  0
LINE
  5
3A0
330
20
100
AcDbEntity
  8
STEMPEL
100
AcDbLine
 10
282.0422020391097
 20
362.5819241480556
 30
0.0
 11
283.9299187518418
 21
361.9212232985994
 31
0.0
  0
INSERT
  5
3A1
330
20
100
AcDbEntity
  8
SCHRAFF
100
AcDbBlockReference
  2
*X5
 10
442.8598375036829
 20
-89.97600131226239
 30
0.0
 41
-1.0
 50
359.9999999999999
1001
ACAD
1000
HATCH
1002
{
1070
    16
1000
_U,I
1040
0.1
1040
2.356194490192344
1070
     0
1002
}
  0
ARC
  5
3A2
330
20
100
AcDbEntity
  8
SCHRAFF
100
AcDbCircle
 10
282.0422020391097
 20
362.5819241480555
 30
0.0
 40
5.0
100
AcDbArc
 50
274.2881322590127
 51
29.35276053511467
  0
LINE
  5
3A3
102
{ACAD_REACTORS
330
618
102
}
330
20
100
AcDbEntity
  8
STEMPEL
100
AcDbLine
 10
291.4299187518418
 20
380.3689348315832
 30
0.0
 11
283.8629314537344
 21
367.2625283710326
 31
0.0
  0
LINE
  5
3A4
330
20
100
AcDbEntity
  8
STEMPEL
100
AcDbLine
 10
292.9299187518418
 20
379.9670110429365
 30
0.0
 11
285.6923144448078
 21
367.4311126580741
 31
0.0
  0
LINE
  5
3A5
330
20
100
AcDbEntity
  8
STEMPEL
100
AcDbLine
 10
292.9299187518418
 20
379.9670110429365
 30
0.0
 11
285.6923144448078
 21
367.4311126580742
 31
0.0
  0
LINE
  5
3A8
330
20
100
AcDbEntity
  8
STEMPEL
100
AcDbLine
 10
238.4299187518418
 20
398.4311126580742
 30
0.0
 11
204.4299187518419
 21
398.4311126580743
 31
0.0
  0
LINE
  5
3A9
330
20
100
AcDbEntity
  8
HILF
100
AcDbLine
 10
238.7343885335872
 20
393.4311126580742
 30
0.0
 11
204.1254489700961
 21
393.4311126580742
 31
0.0
  0
LINE
  5
3AA
330
20
100
AcDbEntity
  8
HILF
100
AcDbLine
 10
239.6148889373376
 20
390.1450404151927
 30
0.0
 11
203.2449485663458
 21
390.1450404151927
 31
0.0
  0
ARC
  5
3AE
330
20
100
AcDbEntity
  8
STEMPEL
100
AcDbCircle
 10
143.1782807460746
 20
390.4311126580741
 30
0.0
 40
8.0
100
AcDbArc
 50
348.9999999999997
 51
90.0
  0
ARC
  5
3AF
330
20
100
AcDbEntity
  8
STEMPEL
100
AcDbCircle
 10
143.1782807460744
 20
390.4311126580743
 30
0.0
 40
9.5
100
AcDbArc
 50
348.9999999999997
 51
89.99999999999992
  0
ARC
  5
3B0
330
20
100
AcDbEntity
  8
STEMPEL
100
AcDbCircle
 10
143.1782807460746
 20
390.4311126580743
 30
0.0
 40
6.0
100
AcDbArc
 50
348.9999999999999
 51
90.0
  0
LINE
  5
3B1
330
20
100
AcDbEntity
  8
STEMPEL
100
AcDbLine
 10
94.42991875184167
 20
398.4311126580743
 30
0.0
 11
143.1782807460746
 21
398.4311126580743
 31
0.0
  0
LINE
  5
3B2
330
20
100
AcDbEntity
  8
STEMPEL
100
AcDbLine
 10
94.61869791505774
 20
396.4311126580743
 30
0.0
 11
143.1782807460746
 21
396.4311126580743
 31
0.0
  0
LINE
  5
3B3
330
20
100
AcDbEntity
  8
STEMPEL
100
AcDbLine
 10
147.9299187518419
 20
383.4311126580742
 30
0.0
 11
149.0680438467606
 21
389.2862586858151
 31
0.0
  0
LINE
  5
3B4
102
{ACAD_REACTORS
330
618
102
}
330
20
100
AcDbEntity
  8
STEMPEL
100
AcDbLine
 10
161.4375584269285
 20
396.5125283710326
 30
0.0
 11
170.9299187518419
 21
396.5125283710328
 31
0.0
  0
LINE
  5
3B5
102
{ACAD_REACTORS
330
618
102
}
330
20
100
AcDbEntity
  8
STEMPEL
100
AcDbLine
 10
166.1298280600495
 20
386.5125283710326
 30
0.0
 11
170.4299187518419
 21
386.5125283710327
 31
0.0
  0
LINE
  5
3B6
102
{ACAD_REACTORS
330
618
102
}
330
20
100
AcDbEntity
  8
STEMPEL
100
AcDbLine
 10
161.4299187518414
 20
394.5125283710327
 30
0.0
 11
163.4299187518414
 21
394.5125283710326
 31
0.0
  0
ARC
  5
3B7
102
{ACAD_REACTORS
330
618
102
}
330
20
100
AcDbEntity
  8
STEMPEL
100
AcDbCircle
 10
163.4222790767547
 20
394.5125283710327
 30
0.0
 40
2.0
100
AcDbArc
 50
4.999999999999884
 51
89.99999999999984
  0
ARC
  5
3B8
102
{ACAD_REACTORS
330
618
102
}
330
20
100
AcDbEntity
  8
STEMPEL
100
AcDbCircle
 10
161.4375584269279
 20
394.5125283710327
 30
0.0
 40
2.0
100
AcDbArc
 50
89.99999999999984
 51
174.9999999999992
  0
ARC
  5
3B9
102
{ACAD_REACTORS
330
618
102
}
330
20
100
AcDbEntity
  8
STEMPEL
100
AcDbCircle
 10
166.3346110018543
 20
384.0125283710326
 30
0.0
 40
2.5
100
AcDbArc
 50
9.999999999999827
 51
89.99999999999984
  0
ARC
  5
3BA
102
{ACAD_REACTORS
330
618
102
}
330
20
100
AcDbEntity
  8
STEMPEL
100
AcDbCircle
 10
150.6095054640139
 20
385.4844491245537
 30
0.0
 40
8.0
100
AcDbArc
 50
346.3538000117771
 51
355.0000000000002
  0
LINE
  5
3BB
102
{ACAD_REACTORS
330
618
102
}
330
20
100
AcDbEntity
  8
STEMPEL
100
AcDbLine
 10
158.3298557336673
 20
383.3753667463107
 30
0.0
 11
158.3836741014576
 21
383.5970429688495
 31
0.0
  0
ARC
  5
3BC
102
{ACAD_REACTORS
330
618
102
}
330
20
100
AcDbEntity
  8
STEMPEL
100
AcDbCircle
 10
156.9555133911009
 20
383.7090284300709
 30
0.0
 40
1.414265531567818
100
AcDbArc
 50
187.0596372439629
 51
346.3538000117771
  0
LINE
  5
3BD
330
20
100
AcDbEntity
  8
STEMPEL
100
AcDbLine
 10
153.5462294728462
 20
385.5294550333788
 30
0.0
 11
158.6452839129202
 21
385.5441111235958
 31
0.0
  0
LINE
  5
3BE
102
{ACAD_REACTORS
330
618
102
}
330
20
100
AcDbEntity
  8
STEMPEL
100
AcDbLine
 10
151.4299187518417
 20
383.0941009893828
 30
0.0
 11
152.5037389888273
 21
388.6184272019971
 31
0.0
  0
LINE
  5
3BF
330
20
100
AcDbEntity
  8
STEMPEL
100
AcDbLine
 10
149.9299187518419
 20
383.2385345616789
 30
0.0
 11
151.031298213656
 21
388.9046406950619
 31
0.0
  0
LINE
  5
3C0
330
20
100
AcDbEntity
  8
STEMPEL
100
AcDbLine
 10
149.9299187518419
 20
383.238534561679
 30
0.0
 11
151.031298213656
 21
388.904640695062
 31
0.0
  0
ARC
  5
3C1
102
{ACAD_REACTORS
330
618
102
}
330
20
100
AcDbEntity
  8
STEMPEL
100
AcDbCircle
 10
153.5519780012642
 20
383.5294632947907
 30
0.0
 40
2.0
100
AcDbArc
 50
0.1646834351413795
 51
169.0000000000001
  0
LINE
  5
3C2
102
{ACAD_REACTORS
330
618
102
}
330
20
100
AcDbEntity
  8
STEMPEL
100
AcDbLine
 10
165.4146684729384
 20
394.686839856528
 30
0.0
 11
166.1298280600489
 21
386.5125283710327
 31
0.0
  0
LINE
  5
3C3
102
{ACAD_REACTORS
330
618
102
}
330
20
100
AcDbEntity
  8
STEMPEL
100
AcDbLine
 10
159.4451690307445
 20
394.6868398565282
 30
0.0
 11
158.579063048748
 21
384.7872031825724
 31
0.0
  0
LINE
  5
3C4
102
{ACAD_REACTORS
330
618
102
}
330
20
100
AcDbEntity
  8
STEMPEL
100
AcDbLine
 10
271.9299187518418
 20
396.5125283710359
 30
0.0
 11
281.4222790767553
 21
396.5125283710361
 31
0.0
  0
LINE
  5
3C5
102
{ACAD_REACTORS
330
618
102
}
330
20
100
AcDbEntity
  8
STEMPEL
100
AcDbLine
 10
272.4299187518418
 20
386.5125283710325
 30
0.0
 11
276.7300094436346
 21
386.5125283710326
 31
0.0
  0
LINE
  5
3C6
330
20
100
AcDbEntity
  8
TEXT
 62
     2
100
AcDbLine
 10
296.3229603188212
 20
439.3167026109314
 30
0.0
 11
269.6077149783437
 21
431.9161023777255
 31
0.0
  0
ARC
  5
3C7
330
20
100
AcDbEntity
  8
STEMPEL
100
AcDbCircle
 10
299.6815567576091
 20
390.4311126580741
 30
0.0
 40
9.5
100
AcDbArc
 50
90.0
 51
191.0000000000002
  0
ARC
  5
3C8
330
20
100
AcDbEntity
  8
STEMPEL
100
AcDbCircle
 10
299.6815567576091
 20
390.4311126580741
 30
0.0
 40
8.0
100
AcDbArc
 50
90.0
 51
191.0000000000002
  0
ARC
  5
3C9
330
20
100
AcDbEntity
  8
STEMPEL
100
AcDbCircle
 10
299.6815567576091
 20
390.4311126580743
 30
0.0
 40
6.0
100
AcDbArc
 50
90.0
 51
191.0
  0
ARC
  5
3CA
102
{ACAD_REACTORS
330
618
102
}
330
20
100
AcDbEntity
  8
STEMPEL
100
AcDbCircle
 10
281.4222790767555
 20
394.5125283710327
 30
0.0
 40
2.0
100
AcDbArc
 50
5.000000000000743
 51
90.00000000000012
  0
ARC
  5
3CB
102
{ACAD_REACTORS
330
618
102
}
330
20
100
AcDbEntity
  8
STEMPEL
100
AcDbCircle
 10
279.4375584269287
 20
394.5125283710327
 30
0.0
 40
2.0
100
AcDbArc
 50
90.00000000000012
 51
175.0
  0
LINE
  5
3CC
102
{ACAD_REACTORS
330
618
102
}
330
20
100
AcDbEntity
  8
STEMPEL
100
AcDbLine
 10
281.429918751842
 20
394.5125283710327
 30
0.0
 11
279.429918751842
 21
394.5125283710326
 31
0.0
  0
LINE
  5
3CE
102
{ACAD_REACTORS
330
618
102
}
330
20
100
AcDbEntity
  8
STEMPEL
100
AcDbLine
 10
291.4299187518418
 20
383.0941009893826
 30
0.0
 11
290.3560985148562
 21
388.6184272019971
 31
0.0
  0
LINE
  5
3CF
102
{ACAD_REACTORS
330
618
102
}
330
20
100
AcDbEntity
  8
STEMPEL
100
AcDbLine
 10
284.5299817700162
 20
383.3753667463107
 30
0.0
 11
284.476163402226
 21
383.5970429688495
 31
0.0
  0
ARC
  5
3D0
102
{ACAD_REACTORS
330
618
102
}
330
20
100
AcDbEntity
  8
STEMPEL
100
AcDbCircle
 10
292.2503320396695
 20
385.4844491245536
 30
0.0
 40
8.0
100
AcDbArc
 50
184.9999999999998
 51
193.6461999882228
  0
ARC
  5
3D1
102
{ACAD_REACTORS
330
618
102
}
330
20
100
AcDbEntity
  8
STEMPEL
100
AcDbCircle
 10
285.9043241125827
 20
383.7090284300709
 30
0.0
 40
1.414265531567818
100
AcDbArc
 50
193.6461999882228
 51
352.940362756037
  0
ARC
  5
3D2
102
{ACAD_REACTORS
330
618
102
}
330
20
100
AcDbEntity
  8
STEMPEL
100
AcDbCircle
 10
289.3078595024193
 20
383.5294632947907
 30
0.0
 40
2.0
100
AcDbArc
 50
10.9999999999998
 51
179.8353165648586
  0
LINE
  5
3D3
330
20
100
AcDbEntity
  8
STEMPEL
100
AcDbLine
 10
289.3136080308373
 20
385.5294550333788
 30
0.0
 11
284.2145535907632
 21
385.5441111235958
 31
0.0
  0
LINE
  5
3D4
330
20
100
AcDbEntity
  8
STEMPEL
100
AcDbLine
 10
292.9299187518418
 20
383.2385345616789
 30
0.0
 11
291.8285392900277
 21
388.9046406950619
 31
0.0
  0
LINE
  5
3D5
330
20
100
AcDbEntity
  8
STEMPEL
100
AcDbLine
 10
292.9299187518418
 20
383.238534561679
 30
0.0
 11
291.8285392900277
 21
388.904640695062
 31
0.0
  0
ARC
  5
3D6
102
{ACAD_REACTORS
330
618
102
}
330
20
100
AcDbEntity
  8
STEMPEL
100
AcDbCircle
 10
276.5252265018292
 20
384.0125283710326
 30
0.0
 40
2.5
100
AcDbArc
 50
90.00000000000012
 51
170.0000000000001
  0
LINE
  5
3D7
102
{ACAD_REACTORS
330
618
102
}
330
20
100
AcDbEntity
  8
STEMPEL
100
AcDbLine
 10
277.4451690307451
 20
394.686839856528
 30
0.0
 11
276.7300094436346
 21
386.5125283710327
 31
0.0
  0
LINE
  5
3D8
102
{ACAD_REACTORS
330
618
102
}
330
20
100
AcDbEntity
  8
STEMPEL
100
AcDbLine
 10
283.414668472939
 20
394.6868398565282
 30
0.0
 11
284.2807744549356
 21
384.7872031825724
 31
0.0
  0
LINE
  5
3D9
330
20
100
AcDbEntity
  8
STEMPEL
100
AcDbLine
 10
294.9299187518418
 20
383.4311126580742
 30
0.0
 11
293.7917936569231
 21
389.2862586858151
 31
0.0
  0
LINE
  5
3DA
330
20
100
AcDbEntity
  8
STEMPEL
100
AcDbLine
 10
348.2411395886259
 20
396.4311126580743
 30
0.0
 11
358.5556945360616
 21
394.4664355252292
 31
0.0
  0
LINE
  5
3DB
330
20
100
AcDbEntity
  8
STEMPEL
100
AcDbLine
 10
348.4299187518418
 20
398.4311126580743
 30
0.0
 11
358.9299187518417
 21
396.4311126580743
 31
0.0
  0
LINE
  5
3DC
330
20
100
AcDbEntity
  8
STEMPEL
100
AcDbLine
 10
358.9299187518417
 20
396.4311126580743
 30
0.0
 11
358.5556945360616
 21
394.4664355252292
 31
0.0
  0
LINE
  5
3DD
330
20
100
AcDbEntity
  8
HILF
100
AcDbLine
 10
381.4299187518417
 20
396.4311126580741
 30
0.0
 11
381.4299187518418
 21
401.9311126580741
 31
0.0
  0
TEXT
  5
3E6
330
20
100
AcDbEntity
  8
TEXT
100
AcDbText
 10
417.3022923857165
 20
10.16790107998861
 30
0.0
 40
4.0
  1
Diese Zeichnung ist urheberrechtlich geschützt und bleibt unser Eigentum. Sie darf weder ganz noch teilweise verfielfältigt und nicht an Dritte weitergegeben werden.
 50
90.0
 41
0.8
  7
GREEKS
100
AcDbText
  0
TEXT
  5
3E7
330
20
100
AcDbEntity
  8
TEXT
 62
     1
100
AcDbText
 10
370.371106150903
 20
63.08230612787474
 30
0.0
 40
7.0
  1

 41
0.8
  7
GREEKS
 72
     1
 11
370.371106150903
 21
63.08230612787474
 31
0.0
100
AcDbText
  0
TEXT
  5
432
330
20
100
AcDbEntity
  8
TEXT
 62
     1
100
AcDbText
 10
213.6193625211975
 20
198.8159909120325
 30
0.0
 40
7.0
  1
DN70
 50
90.0
 41
0.8
  7
GREEKS
100
AcDbText
  0
LINE
  5
4BE
330
20
100
AcDbEntity
  8
STEMPEL
100
AcDbLine
 10
174.5299187518418
 20
478.8311126580738
 30
0.0
 11
268.3299187518418
 21
478.8311126580739
 31
0.0
  0
LINE
  5
4BF
102
{ACAD_REACTORS
330
7D9
102
}
330
20
100
AcDbEntity
  8
STEMPEL
100
AcDbLine
 10
149.4299187518418
 20
491.931112658074
 30
0.0
 11
293.4299187518419
 21
491.931112658074
 31
0.0
  0
LINE
  5
4C0
102
{ACAD_REACTORS
330
7D9
102
}
330
20
100
AcDbEntity
  8
STEMPEL
100
AcDbLine
 10
170.4299187518418
 20
349.9311126580739
 30
0.0
 11
194.8357464578974
 21
349.9311126580739
 31
0.0
  0
LINE
  5
4C1
102
{ACAD_REACTORS
330
6A6
330
7D9
102
}
330
20
100
AcDbEntity
  8
STEMPEL
100
AcDbLine
 10
146.4299187518417
 20
499.931112658074
 30
0.0
 11
296.429918751842
 21
499.931112658074
 31
0.0
  0
LINE
  5
4C2
102
{ACAD_REACTORS
330
7D9
102
}
330
20
100
AcDbEntity
  8
STEMPEL
100
AcDbLine
 10
272.4299187518418
 20
468.9311126580739
 30
0.0
 11
272.4299187518418
 21
456.9311126580739
 31
0.0
  0
LINE
  5
4C4
102
{ACAD_REACTORS
330
7D9
102
}
330
20
100
AcDbEntity
  8
STEMPEL
100
AcDbLine
 10
268.3299187518418
 20
478.8311126580739
 30
0.0
 11
270.5798766210891
 21
349.931112658074
 31
0.0
  0
LINE
  5
4C5
102
{ACAD_REACTORS
330
7D9
102
}
330
20
100
AcDbEntity
  8
STEMPEL
100
AcDbLine
 10
271.9299187518418
 20
366.931112658074
 30
0.0
 11
271.9299187518418
 21
363.931112658074
 31
0.0
  0
LINE
  5
4C6
102
{ACAD_REACTORS
330
7D9
102
}
330
20
100
AcDbEntity
  8
STEMPEL
100
AcDbLine
 10
272.4299187518417
 20
363.931112658074
 30
0.0
 11
272.4299187518417
 21
349.931112658074
 31
0.0
  0
POINT
  5
4C7
330
20
100
AcDbEntity
  8
DEFPOINTS
  6
ByBlock
 62
     0
100
AcDbPoint
 10
270.5798766210891
 20
349.931112658074
 30
0.0
  0
LINE
  5
4C8
102
{ACAD_REACTORS
330
7D9
102
}
330
20
100
AcDbEntity
  8
STEMPEL
100
AcDbLine
 10
271.9299187518418
 20
363.931112658074
 30
0.0
 11
272.4299187518417
 21
363.931112658074
 31
0.0
  0
LINE
  5
4C9
102
{ACAD_REACTORS
330
7D9
102
}
330
20
100
AcDbEntity
  8
STEMPEL
100
AcDbLine
 10
271.9299187518418
 20
411.9311126580739
 30
0.0
 11
271.9299187518418
 21
408.931112658074
 31
0.0
  0
LINE
  5
4CA
102
{ACAD_REACTORS
330
7D9
102
}
330
20
100
AcDbEntity
  8
STEMPEL
100
AcDbLine
 10
272.4299187518418
 20
393.931112658074
 30
0.0
 11
272.4299187518417
 21
381.9311126580739
 31
0.0
  0
LINE
  5
4CB
102
{ACAD_REACTORS
330
618
330
7D9
102
}
330
20
100
AcDbEntity
  8
STEMPEL
100
AcDbLine
 10
272.4299187518417
 20
378.931112658074
 30
0.0
 11
272.4299187518417
 21
366.931112658074
 31
0.0
  0
LINE
  5
4CC
102
{ACAD_REACTORS
330
7D9
102
}
330
20
100
AcDbEntity
  8
STEMPEL
100
AcDbLine
 10
271.9299187518418
 20
366.931112658074
 30
0.0
 11
272.4299187518417
 21
366.931112658074
 31
0.0
  0
LINE
  5
4CD
102
{ACAD_REACTORS
330
7D9
102
}
330
20
100
AcDbEntity
  8
STEMPEL
100
AcDbLine
 10
271.9299187518418
 20
378.931112658074
 30
0.0
 11
272.4299187518417
 21
378.931112658074
 31
0.0
  0
LINE
  5
4CE
102
{ACAD_REACTORS
330
7D9
102
}
330
20
100
AcDbEntity
  8
STEMPEL
100
AcDbLine
 10
271.9299187518418
 20
381.9311126580739
 30
0.0
 11
272.4299187518417
 21
381.9311126580739
 31
0.0
  0
LINE
  5
4CF
102
{ACAD_REACTORS
330
7D9
102
}
330
20
100
AcDbEntity
  8
STEMPEL
100
AcDbLine
 10
271.9299187518418
 20
381.9311126580739
 30
0.0
 11
271.9299187518418
 21
378.931112658074
 31
0.0
  0
LINE
  5
4D0
102
{ACAD_REACTORS
330
7D9
102
}
330
20
100
AcDbEntity
  8
STEMPEL
100
AcDbLine
 10
272.4299187518418
 20
408.931112658074
 30
0.0
 11
272.4299187518418
 21
396.931112658074
 31
0.0
  0
LINE
  5
4D1
102
{ACAD_REACTORS
330
7D9
102
}
330
20
100
AcDbEntity
  8
STEMPEL
100
AcDbLine
 10
271.9299187518418
 20
396.931112658074
 30
0.0
 11
272.4299187518417
 21
396.931112658074
 31
0.0
  0
LINE
  5
4D2
102
{ACAD_REACTORS
330
7D9
102
}
330
20
100
AcDbEntity
  8
STEMPEL
100
AcDbLine
 10
271.9299187518418
 20
393.931112658074
 30
0.0
 11
272.4299187518417
 21
393.931112658074
 31
0.0
  0
LINE
  5
4D3
102
{ACAD_REACTORS
330
7D9
102
}
330
20
100
AcDbEntity
  8
STEMPEL
100
AcDbLine
 10
271.9299187518418
 20
396.931112658074
 30
0.0
 11
271.9299187518418
 21
393.931112658074
 31
0.0
  0
LINE
  5
4D4
102
{ACAD_REACTORS
330
7D9
102
}
330
20
100
AcDbEntity
  8
STEMPEL
100
AcDbLine
 10
271.9299187518418
 20
408.931112658074
 30
0.0
 11
272.4299187518417
 21
408.931112658074
 31
0.0
  0
LINE
  5
4D5
102
{ACAD_REACTORS
330
7D9
102
}
330
20
100
AcDbEntity
  8
STEMPEL
100
AcDbLine
 10
272.4299187518418
 20
438.931112658074
 30
0.0
 11
272.4299187518418
 21
426.9311126580739
 31
0.0
  0
LINE
  5
4D6
102
{ACAD_REACTORS
330
7D9
102
}
330
20
100
AcDbEntity
  8
STEMPEL
100
AcDbLine
 10
272.4299187518418
 20
423.9311126580739
 30
0.0
 11
272.4299187518418
 21
411.9311126580739
 31
0.0
  0
LINE
  5
4D7
102
{ACAD_REACTORS
330
7D9
102
}
330
20
100
AcDbEntity
  8
STEMPEL
100
AcDbLine
 10
271.9299187518418
 20
411.9311126580739
 30
0.0
 11
272.4299187518417
 21
411.9311126580739
 31
0.0
  0
LINE
  5
4D8
102
{ACAD_REACTORS
330
7D9
102
}
330
20
100
AcDbEntity
  8
STEMPEL
100
AcDbLine
 10
271.9299187518418
 20
423.9311126580739
 30
0.0
 11
272.4299187518417
 21
423.9311126580739
 31
0.0
  0
LINE
  5
4D9
102
{ACAD_REACTORS
330
7D9
102
}
330
20
100
AcDbEntity
  8
STEMPEL
100
AcDbLine
 10
271.9299187518418
 20
426.9311126580739
 30
0.0
 11
272.4299187518417
 21
426.9311126580739
 31
0.0
  0
LINE
  5
4DA
102
{ACAD_REACTORS
330
7D9
102
}
330
20
100
AcDbEntity
  8
STEMPEL
100
AcDbLine
 10
271.9299187518418
 20
426.931112658074
 30
0.0
 11
271.9299187518418
 21
423.9311126580739
 31
0.0
  0
LINE
  5
4DB
102
{ACAD_REACTORS
330
7D9
102
}
330
20
100
AcDbEntity
  8
STEMPEL
100
AcDbLine
 10
272.4299187518418
 20
453.931112658074
 30
0.0
 11
272.4299187518418
 21
441.931112658074
 31
0.0
  0
LINE
  5
4DC
102
{ACAD_REACTORS
330
7D9
102
}
330
20
100
AcDbEntity
  8
STEMPEL
100
AcDbLine
 10
271.9299187518418
 20
441.931112658074
 30
0.0
 11
272.4299187518417
 21
441.931112658074
 31
0.0
  0
LINE
  5
4DD
102
{ACAD_REACTORS
330
7D9
102
}
330
20
100
AcDbEntity
  8
STEMPEL
100
AcDbLine
 10
271.9299187518418
 20
438.931112658074
 30
0.0
 11
272.4299187518417
 21
438.9311126580739
 31
0.0
  0
LINE
  5
4DE
102
{ACAD_REACTORS
330
7D9
102
}
330
20
100
AcDbEntity
  8
STEMPEL
100
AcDbLine
 10
271.9299187518418
 20
441.931112658074
 30
0.0
 11
271.9299187518418
 21
438.9311126580739
 31
0.0
  0
LINE
  5
4DF
102
{ACAD_REACTORS
330
7D9
102
}
330
20
100
AcDbEntity
  8
STEMPEL
100
AcDbLine
 10
271.9299187518418
 20
456.9311126580739
 30
0.0
 11
272.4299187518417
 21
456.9311126580739
 31
0.0
  0
LINE
  5
4E0
102
{ACAD_REACTORS
330
7D9
102
}
330
20
100
AcDbEntity
  8
STEMPEL
100
AcDbLine
 10
271.9299187518418
 20
453.931112658074
 30
0.0
 11
272.4299187518417
 21
453.931112658074
 31
0.0
  0
LINE
  5
4E1
102
{ACAD_REACTORS
330
7D9
102
}
330
20
100
AcDbEntity
  8
STEMPEL
100
AcDbLine
 10
271.9299187518418
 20
456.9311126580739
 30
0.0
 11
271.9299187518418
 21
453.931112658074
 31
0.0
  0
LINE
  5
4E2
102
{ACAD_REACTORS
330
7D9
102
}
330
20
100
AcDbEntity
  8
STEMPEL
100
AcDbLine
 10
281.9299187518417
 20
488.931112658074
 30
0.0
 11
296.4299187518419
 21
488.931112658074
 31
0.0
  0
LINE
  5
4E3
102
{ACAD_REACTORS
330
7D9
102
}
330
20
100
AcDbEntity
  8
STEMPEL
100
AcDbLine
 10
281.4299187518419
 20
491.931112658074
 30
0.0
 11
268.3299187518418
 21
478.8311126580739
 31
0.0
  0
LINE
  5
4E4
102
{ACAD_REACTORS
330
7D9
102
}
330
20
100
AcDbEntity
  8
STEMPEL
100
AcDbLine
 10
281.9299187518419
 20
488.931112658074
 30
0.0
 11
272.4299187518418
 21
479.431112658074
 31
0.0
  0
LINE
  5
4E5
102
{ACAD_REACTORS
330
7D9
102
}
330
20
100
AcDbEntity
  8
STEMPEL
100
AcDbLine
 10
271.9299187518418
 20
471.9311126580739
 30
0.0
 11
271.9299187518418
 21
468.9311126580739
 31
0.0
  0
LINE
  5
4E6
102
{ACAD_REACTORS
330
7D9
102
}
330
20
100
AcDbEntity
  8
STEMPEL
100
AcDbLine
 10
271.9299187518418
 20
468.9311126580739
 30
0.0
 11
272.4299187518417
 21
468.9311126580739
 31
0.0
  0
LINE
  5
4E7
102
{ACAD_REACTORS
330
7D9
102
}
330
20
100
AcDbEntity
  8
STEMPEL
100
AcDbLine
 10
271.9299187518418
 20
471.9311126580739
 30
0.0
 11
272.4299187518417
 21
471.9311126580739
 31
0.0
  0
LINE
  5
4E8
102
{ACAD_REACTORS
330
7D9
102
}
330
20
100
AcDbEntity
  8
STEMPEL
100
AcDbLine
 10
272.4299187518418
 20
479.431112658074
 30
0.0
 11
272.4299187518418
 21
471.9311126580739
 31
0.0
  0
LINE
  5
4E9
330
20
100
AcDbEntity
  8
STEMPEL
100
AcDbLine
 10
270.7432574267228
 20
495.931112658074
 30
0.0
 11
279.2432574267228
 21
495.931112658074
 31
0.0
  0
LINE
  5
4EA
330
20
100
AcDbEntity
  8
MITTEL
100
AcDbLine
 10
274.9932574267226
 20
483.931112658074
 30
0.0
 11
274.9932574267228
 21
500.9311126580739
 31
0.0
  0
LINE
  5
4EB
330
20
100
AcDbEntity
  8
STEMPEL
100
AcDbLine
 10
270.7432574267228
 20
491.931112658074
 30
0.0
 11
270.7432574267228
 21
495.931112658074
 31
0.0
  0
LINE
  5
4EC
330
20
100
AcDbEntity
  8
STEMPEL
100
AcDbLine
 10
279.2432574267227
 20
491.931112658074
 30
0.0
 11
279.2432574267228
 21
495.931112658074
 31
0.0
  0
LINE
  5
4ED
102
{ACAD_REACTORS
330
7D9
102
}
330
20
100
AcDbEntity
  8
STEMPEL
100
AcDbLine
 10
293.429918751842
 20
499.931112658074
 30
0.0
 11
293.4299187518419
 21
491.931112658074
 31
0.0
  0
LINE
  5
4EE
102
{ACAD_REACTORS
330
7D9
102
}
330
20
100
AcDbEntity
  8
STEMPEL
100
AcDbLine
 10
296.429918751842
 20
499.931112658074
 30
0.0
 11
296.4299187518419
 21
488.931112658074
 31
0.0
  0
LINE
  5
4EF
102
{ACAD_REACTORS
330
6A6
330
7D9
102
}
330
20
100
AcDbEntity
  8
STEMPEL
100
AcDbLine
 10
146.4299187518417
 20
499.931112658074
 30
0.0
 11
146.4299187518418
 21
488.931112658074
 31
0.0
  0
LINE
  5
4F0
102
{ACAD_REACTORS
330
7D9
102
}
330
20
100
AcDbEntity
  8
STEMPEL
100
AcDbLine
 10
149.4299187518417
 20
499.931112658074
 30
0.0
 11
149.4299187518418
 21
491.931112658074
 31
0.0
  0
LINE
  5
4F1
330
20
100
AcDbEntity
  8
STEMPEL
100
AcDbLine
 10
163.616580076961
 20
491.931112658074
 30
0.0
 11
163.6165800769609
 21
495.931112658074
 31
0.0
  0
LINE
  5
4F2
330
20
100
AcDbEntity
  8
STEMPEL
100
AcDbLine
 10
172.1165800769609
 20
491.931112658074
 30
0.0
 11
172.1165800769609
 21
495.931112658074
 31
0.0
  0
LINE
  5
4F3
330
20
100
AcDbEntity
  8
MITTEL
100
AcDbLine
 10
167.866580076961
 20
483.931112658074
 30
0.0
 11
167.8665800769609
 21
500.9311126580739
 31
0.0
  0
LINE
  5
4F4
330
20
100
AcDbEntity
  8
STEMPEL
100
AcDbLine
 10
172.1165800769609
 20
495.931112658074
 30
0.0
 11
163.6165800769609
 21
495.931112658074
 31
0.0
  0
LINE
  5
4F5
102
{ACAD_REACTORS
330
7D9
102
}
330
20
100
AcDbEntity
  8
STEMPEL
100
AcDbLine
 10
170.4299187518418
 20
479.431112658074
 30
0.0
 11
170.4299187518418
 21
471.9311126580739
 31
0.0
  0
LINE
  5
4F6
102
{ACAD_REACTORS
330
7D9
102
}
330
20
100
AcDbEntity
  8
STEMPEL
100
AcDbLine
 10
170.929918751842
 20
471.9311126580739
 30
0.0
 11
170.4299187518419
 21
471.9311126580739
 31
0.0
  0
LINE
  5
4F7
102
{ACAD_REACTORS
330
7D9
102
}
330
20
100
AcDbEntity
  8
STEMPEL
100
AcDbLine
 10
170.929918751842
 20
468.9311126580739
 30
0.0
 11
170.4299187518419
 21
468.9311126580739
 31
0.0
  0
LINE
  5
4F8
102
{ACAD_REACTORS
330
7D9
102
}
330
20
100
AcDbEntity
  8
STEMPEL
100
AcDbLine
 10
170.929918751842
 20
471.9311126580739
 30
0.0
 11
170.929918751842
 21
468.9311126580739
 31
0.0
  0
LINE
  5
4F9
102
{ACAD_REACTORS
330
7D9
102
}
330
20
100
AcDbEntity
  8
STEMPEL
100
AcDbLine
 10
160.9299187518418
 20
488.931112658074
 30
0.0
 11
170.4299187518418
 21
479.431112658074
 31
0.0
  0
LINE
  5
4FA
102
{ACAD_REACTORS
330
7D9
102
}
330
20
100
AcDbEntity
  8
STEMPEL
100
AcDbLine
 10
161.4299187518418
 20
491.931112658074
 30
0.0
 11
174.5299187518418
 21
478.8311126580739
 31
0.0
  0
LINE
  5
4FB
102
{ACAD_REACTORS
330
7D9
102
}
330
20
100
AcDbEntity
  8
STEMPEL
100
AcDbLine
 10
160.9299187518419
 20
488.931112658074
 30
0.0
 11
146.4299187518418
 21
488.931112658074
 31
0.0
  0
LINE
  5
4FC
102
{ACAD_REACTORS
330
7D9
102
}
330
20
100
AcDbEntity
  8
STEMPEL
100
AcDbLine
 10
170.929918751842
 20
456.9311126580739
 30
0.0
 11
170.929918751842
 21
453.931112658074
 31
0.0
  0
LINE
  5
4FD
102
{ACAD_REACTORS
330
7D9
102
}
330
20
100
AcDbEntity
  8
STEMPEL
100
AcDbLine
 10
170.929918751842
 20
453.931112658074
 30
0.0
 11
170.4299187518419
 21
453.931112658074
 31
0.0
  0
LINE
  5
4FE
102
{ACAD_REACTORS
330
7D9
102
}
330
20
100
AcDbEntity
  8
STEMPEL
100
AcDbLine
 10
170.929918751842
 20
456.9311126580739
 30
0.0
 11
170.4299187518419
 21
456.9311126580739
 31
0.0
  0
LINE
  5
4FF
102
{ACAD_REACTORS
330
7D9
102
}
330
20
100
AcDbEntity
  8
STEMPEL
100
AcDbLine
 10
170.929918751842
 20
441.931112658074
 30
0.0
 11
170.929918751842
 21
438.9311126580739
 31
0.0
  0
LINE
  5
500
102
{ACAD_REACTORS
330
7D9
102
}
330
20
100
AcDbEntity
  8
STEMPEL
100
AcDbLine
 10
170.929918751842
 20
438.931112658074
 30
0.0
 11
170.4299187518419
 21
438.9311126580739
 31
0.0
  0
LINE
  5
501
102
{ACAD_REACTORS
330
7D9
102
}
330
20
100
AcDbEntity
  8
STEMPEL
100
AcDbLine
 10
170.929918751842
 20
441.931112658074
 30
0.0
 11
170.4299187518419
 21
441.931112658074
 31
0.0
  0
LINE
  5
502
102
{ACAD_REACTORS
330
7D9
102
}
330
20
100
AcDbEntity
  8
STEMPEL
100
AcDbLine
 10
170.4299187518418
 20
453.931112658074
 30
0.0
 11
170.4299187518418
 21
441.931112658074
 31
0.0
  0
LINE
  5
503
102
{ACAD_REACTORS
330
7D9
102
}
330
20
100
AcDbEntity
  8
STEMPEL
100
AcDbLine
 10
170.9299187518418
 20
426.931112658074
 30
0.0
 11
170.929918751842
 21
423.9311126580739
 31
0.0
  0
LINE
  5
504
102
{ACAD_REACTORS
330
7D9
102
}
330
20
100
AcDbEntity
  8
STEMPEL
100
AcDbLine
 10
170.9299187518418
 20
426.9311126580739
 30
0.0
 11
170.4299187518419
 21
426.9311126580739
 31
0.0
  0
LINE
  5
505
102
{ACAD_REACTORS
330
7D9
102
}
330
20
100
AcDbEntity
  8
STEMPEL
100
AcDbLine
 10
170.929918751842
 20
423.9311126580739
 30
0.0
 11
170.4299187518419
 21
423.9311126580739
 31
0.0
  0
LINE
  5
506
102
{ACAD_REACTORS
330
7D9
102
}
330
20
100
AcDbEntity
  8
STEMPEL
100
AcDbLine
 10
170.929918751842
 20
411.9311126580739
 30
0.0
 11
170.4299187518419
 21
411.9311126580739
 31
0.0
  0
LINE
  5
507
102
{ACAD_REACTORS
330
7D9
102
}
330
20
100
AcDbEntity
  8
STEMPEL
100
AcDbLine
 10
170.4299187518418
 20
423.9311126580739
 30
0.0
 11
170.4299187518418
 21
411.9311126580739
 31
0.0
  0
LINE
  5
508
102
{ACAD_REACTORS
330
7D9
102
}
330
20
100
AcDbEntity
  8
STEMPEL
100
AcDbLine
 10
170.4299187518418
 20
438.931112658074
 30
0.0
 11
170.4299187518418
 21
426.9311126580739
 31
0.0
  0
LINE
  5
509
102
{ACAD_REACTORS
330
7D9
102
}
330
20
100
AcDbEntity
  8
STEMPEL
100
AcDbLine
 10
170.929918751842
 20
408.931112658074
 30
0.0
 11
170.4299187518419
 21
408.931112658074
 31
0.0
  0
LINE
  5
50A
102
{ACAD_REACTORS
330
7D9
102
}
330
20
100
AcDbEntity
  8
STEMPEL
100
AcDbLine
 10
170.929918751842
 20
396.931112658074
 30
0.0
 11
170.929918751842
 21
393.931112658074
 31
0.0
  0
LINE
  5
50B
102
{ACAD_REACTORS
330
7D9
102
}
330
20
100
AcDbEntity
  8
STEMPEL
100
AcDbLine
 10
170.929918751842
 20
393.931112658074
 30
0.0
 11
170.4299187518419
 21
393.931112658074
 31
0.0
  0
LINE
  5
50C
102
{ACAD_REACTORS
330
7D9
102
}
330
20
100
AcDbEntity
  8
STEMPEL
100
AcDbLine
 10
170.929918751842
 20
396.931112658074
 30
0.0
 11
170.4299187518419
 21
396.931112658074
 31
0.0
  0
LINE
  5
50D
102
{ACAD_REACTORS
330
7D9
102
}
330
20
100
AcDbEntity
  8
STEMPEL
100
AcDbLine
 10
170.4299187518418
 20
408.931112658074
 30
0.0
 11
170.4299187518418
 21
396.931112658074
 31
0.0
  0
LINE
  5
50E
102
{ACAD_REACTORS
330
7D9
102
}
330
20
100
AcDbEntity
  8
STEMPEL
100
AcDbLine
 10
170.929918751842
 20
381.9311126580739
 30
0.0
 11
170.929918751842
 21
378.931112658074
 31
0.0
  0
LINE
  5
50F
102
{ACAD_REACTORS
330
7D9
102
}
330
20
100
AcDbEntity
  8
STEMPEL
100
AcDbLine
 10
170.929918751842
 20
381.9311126580739
 30
0.0
 11
170.4299187518419
 21
381.9311126580739
 31
0.0
  0
LINE
  5
510
102
{ACAD_REACTORS
330
7D9
102
}
330
20
100
AcDbEntity
  8
STEMPEL
100
AcDbLine
 10
170.929918751842
 20
378.931112658074
 30
0.0
 11
170.4299187518419
 21
378.931112658074
 31
0.0
  0
LINE
  5
511
102
{ACAD_REACTORS
330
7D9
102
}
330
20
100
AcDbEntity
  8
STEMPEL
100
AcDbLine
 10
170.929918751842
 20
366.931112658074
 30
0.0
 11
170.4299187518419
 21
366.931112658074
 31
0.0
  0
LINE
  5
512
102
{ACAD_REACTORS
330
618
330
7D9
102
}
330
20
100
AcDbEntity
  8
STEMPEL
100
AcDbLine
 10
170.4299187518419
 20
378.931112658074
 30
0.0
 11
170.4299187518419
 21
366.931112658074
 31
0.0
  0
LINE
  5
513
102
{ACAD_REACTORS
330
7D9
102
}
330
20
100
AcDbEntity
  8
STEMPEL
100
AcDbLine
 10
170.4299187518418
 20
393.931112658074
 30
0.0
 11
170.4299187518419
 21
381.9311126580739
 31
0.0
  0
LINE
  5
514
102
{ACAD_REACTORS
330
7D9
102
}
330
20
100
AcDbEntity
  8
STEMPEL
100
AcDbLine
 10
170.929918751842
 20
411.9311126580739
 30
0.0
 11
170.929918751842
 21
408.931112658074
 31
0.0
  0
LINE
  5
515
102
{ACAD_REACTORS
330
7D9
102
}
330
20
100
AcDbEntity
  8
STEMPEL
100
AcDbLine
 10
170.929918751842
 20
363.931112658074
 30
0.0
 11
170.4299187518419
 21
363.931112658074
 31
0.0
  0
POINT
  5
516
330
20
100
AcDbEntity
  8
DEFPOINTS
  6
ByBlock
 62
     0
100
AcDbPoint
 10
172.2799608825946
 20
349.931112658074
 30
0.0
  0
LINE
  5
517
102
{ACAD_REACTORS
330
7D9
102
}
330
20
100
AcDbEntity
  8
STEMPEL
100
AcDbLine
 10
170.4299187518419
 20
363.931112658074
 30
0.0
 11
170.4299187518419
 21
349.931112658074
 31
0.0
  0
LINE
  5
518
102
{ACAD_REACTORS
330
7D9
102
}
330
20
100
AcDbEntity
  8
STEMPEL
100
AcDbLine
 10
170.929918751842
 20
366.931112658074
 30
0.0
 11
170.929918751842
 21
363.931112658074
 31
0.0
  0
LINE
  5
519
102
{ACAD_REACTORS
330
7D9
102
}
330
20
100
AcDbEntity
  8
STEMPEL
100
AcDbLine
 10
174.5299187518418
 20
478.8311126580739
 30
0.0
 11
172.2799608825946
 21
349.931112658074
 31
0.0
  0
LINE
  5
51A
102
{ACAD_REACTORS
330
7D9
102
}
330
20
100
AcDbEntity
  8
STEMPEL
100
AcDbLine
 10
170.4299187518418
 20
468.9311126580739
 30
0.0
 11
170.4299187518418
 21
456.9311126580739
 31
0.0
  0
LINE
  5
56D
330
20
100
AcDbEntity
  8
MITTEL
100
AcDbLine
 10
221.4299187518418
 20
404.8794267704398
 30
0.0
 11
221.4299187518417
 21
292.3625397132206
 31
0.0
  0
LINE
  5
56E
102
{ACAD_REACTORS
330
7D9
102
}
330
20
100
AcDbEntity
  8
STEMPEL
100
AcDbLine
 10
248.024091045786
 20
349.9311126580739
 30
0.0
 11
272.4299187518417
 21
349.931112658074
 31
0.0
  0
LWPOLYLINE
  5
583
330
20
100
AcDbEntity
  8
BEM
 62
     1
100
AcDbPolyline
 90
        4
 70
     1
 43
0.0
 10
213.2421893999983
 20
522.1635722220105
 10
213.2421893999983
 20
515.1635722220105
 10
220.2421893999983
 20
515.1635722220105
 10
220.2421893999983
 20
522.1635722220105
  0
DIMENSION
  5
584
330
20
100
AcDbEntity
  8
BEM
100
AcDbDimension
  2
*D13
 10
296.429918751842
 20
512.203597628669
 30
0.0
 11
229.3403471979337
 21
512.203597628669
 31
0.0
 70
   160
 71
     5
 42
150.0000000000002
  3
Standard
100
AcDbAlignedDimension
 13
146.4299187518417
 23
499.931112658074
 33
0.0
 14
296.429918751842
 24
499.931112658074
 34
0.0
100
AcDbRotatedDimension
1001
ACAD
1000
DSTYLE
1002
{
1070
    40
1040
2.0
1070
    41
1040
3.5
1070
    42
1040
1.0
1070
    43
1040
7.0
1070
    44
1040
1.0
1070
    47
1040
0.16
1070
    48
1040
0.16
1070
    73
1070
     0
1070
    74
1070
     0
1070
    77
1070
     1
1070
    78
1070
     8
1070
    79
1070
     2
1070
   140
1040
3.5
1070
   141
1040
1.5
1070
   145
1040
0.2857142857142857
1070
   146
1040
0.5
1070
   147
1040
1.5
1070
   172
1070
     1
1070
   178
1070
     1
1070
   179
1070
     2
1070
   271
1070
     2
1070
   272
1070
     2
1070
   284
1070
     8
1070
   285
1070
     8
1070
   286
1070
     8
1070
   340
1005
32
1002
}
  0
HATCH
  5
618
330
20
100
AcDbEntity
  8
SCHRAFF
100
AcDbHatch
 10
0.0
 20
0.0
 30
0.0
210
0.0
220
0.0
230
1.0
  2
NET
 70
     0
 71
     1
 91
        4
 92
        7
 72
     1
 73
     1
 93
       20
 10
291.4299187518418
 20
380.3689348315831
 42
0.0
 10
291.4299187518418
 20
383.0941009893825
 42
0.0
 10
291.2711138693146
 20
383.9110812855437
 42
0.9070254633525863
 10
287.3078677638311
 20
383.5352118232088
 42
-0.8338648986533607
 10
284.5299817700162
 20
383.3753667463108
 42
0.0
 10
284.476163402226
 20
383.5970429688495
 42
-0.0377440726811219
 10
284.2807744549356
 20
384.7872031825724
 42
0.0
 10
283.414668472939
 20
394.6868398565282
 42
0.3888787318534451
 10
281.4222790767553
 20
396.5125283710361
 42
0.0
 10
279.4375584269287
 20
396.5125283710361
 42
0.3888787318529567
 10
277.4451690307454
 20
394.6868398565314
 42
0.0
 10
276.7300094436346
 20
386.5125283710327
 42
0.0
 10
276.5252265018291
 20
386.5125283710327
 42
0.3639702342662076
 10
274.0632071192986
 20
384.4466488151999
 42
0.0
 10
272.4299187518417
 20
375.1838101906488
 42
0.0
 10
272.4299187518417
 20
367.5125283710326
 42
0.0
 10
275.9299187518422
 20
367.5125283710326
 42
0.0
 10
277.6619695594111
 20
366.5125283710326
 42
0.0
 10
282.5638933480577
 20
366.5125283710326
 42
0.2679491924311243
 10
283.8629314537344
 20
367.2625283710326
 42
0.0
 97
       20
330
340
330
3CE
330
3D2
330
3D1
330
3CF
330
3D0
330
3D8
330
3CA
330
3C4
330
3CB
330
3D7
330
3C5
330
3D6
330
341
330
4CB
330
388
330
395
330
387
330
39B
330
3A3
 92
       22
 72
     0
 73
     1
 93
        4
 10
279.429918751842
 20
394.5125283710326
 10
281.429918751842
 20
394.5125283710327
 10
281.429918751842
 20
371.5125283710327
 10
279.429918751842
 20
371.5125283710327
 97
        4
330
3CC
330
343
330
393
330
344
 92
        7
 72
     1
 73
     1
 93
       20
 10
168.7966303843849
 20
384.4466488151999
 42
0.3639702342662055
 10
166.3346110018544
 20
386.5125283710326
 42
0.0
 10
166.1298280600489
 20
386.5125283710325
 42
0.0
 10
165.4146684729384
 20
394.686839856528
 42
0.38887873185299
 10
163.4222790767548
 20
396.5125283710327
 42
0.0
 10
161.4375584269285
 20
396.5125283710326
 42
0.3888787318530601
 10
159.4451690307445
 20
394.686839856528
 42
0.0
 10
158.579063048748
 20
384.7872031825724
 42
-0.0377440726811258
 10
158.3836741014576
 20
383.5970429688495
 42
0.0
 10
158.3298557336673
 20
383.3753667463107
 42
-0.8338648986533552
 10
155.5519697398525
 20
383.5352118232087
 42
0.9070254633529517
 10
151.5887236343689
 20
383.911081285544
 42
0.0
 10
151.4299187518417
 20
383.0941009893828
 42
0.0
 10
151.4299187518416
 20
380.3689348315832
 42
0.0
 10
158.9969060499492
 20
367.2625283710326
 42
0.2679491924311243
 10
160.2959441556258
 20
366.5125283710326
 42
0.0
 10
165.1978679442724
 20
366.5125283710326
 42
0.0
 10
166.9299187518412
 20
367.5125283710326
 42
0.0
 10
170.4299187518419
 20
367.5125283710326
 42
0.0
 10
170.4299187518419
 20
375.1838101906473
 42
0.0
 97
       20
330
3B9
330
3B5
330
3C2
330
3B7
330
3B4
330
3B8
330
3C3
330
3BA
330
3BB
330
3BC
330
3C1
330
3BE
330
348
330
376
330
372
330
362
330
36A
330
363
330
512
330
347
 92
       22
 72
     0
 73
     1
 93
        4
 10
163.4299187518414
 20
371.5125283710327
 10
161.4299187518414
 20
371.5125283710327
 10
161.4299187518414
 20
394.5125283710327
 10
163.4299187518414
 20
394.5125283710326
 97
        4
330
369
330
34D
330
3B6
330
34E
 75
     0
 76
     1
 52
45.0
 41
20.0
 77
     0
 78
     2
 53
45.0
 43
0.0
 44
0.0
 45
-1.767766952966368
 46
1.767766952966368
 79
     0
 53
135.0
 43
0.0
 44
0.0
 45
-1.767766952966368
 46
-1.767766952966368
 79
     0
 47
0.2033157260130157
 98
        4
 10
276.6568889477321
 20
378.7734447190548
 10
276.6568889477321
 20
378.7734447190548
 10
168.416418825182
 20
377.1469193489597
 10
168.416418825182
 20
377.1469193489597
  0
DIMENSION
  5
68F
102
{ACAD_XDICTIONARY
360
69C
102
}
102
{ACAD_REACTORS
330
6A6
102
}
330
20
100
AcDbEntity
  8
SCHRAFF
100
AcDbDimension
  2
*D14
 10
57.85654180656449
 20
499.931112658074
 30
0.0
 11
51.35654180656441
 21
449.181112658074
 31
0.0
 70
    32
  1
min.15 - max.100
 71
     5
 42
101.4999999999999
  3
Standard
100
AcDbAlignedDimension
 13
61.42991875184179
 23
398.4311126580741
 33
0.0
 14
146.4299187518417
 24
499.931112658074
 34
0.0
 50
90.0
100
AcDbRotatedDimension
1001
ACAD
1000
DSTYLE
1002
{
1070
    40
1040
2.0
1070
    41
1040
3.5
1070
    42
1040
1.0
1070
    43
1040
7.0
1070
    44
1040
1.0
1070
    47
1040
0.16
1070
    48
1040
0.16
1070
    73
1070
     0
1070
    74
1070
     0
1070
    77
1070
     1
1070
    78
1070
     8
1070
    79
1070
     2
1070
   140
1040
3.5
1070
   141
1040
1.5
1070
   145
1040
0.2857142857142857
1070
   146
1040
0.5
1070
   147
1040
1.5
1070
   172
1070
     1
1070
   178
1070
     1
1070
   179
1070
     2
1070
   271
1070
     2
1070
   272
1070
     2
1070
   284
1070
     8
1070
   285
1070
     8
1070
   286
1070
     8
1070
   340
1005
32
1002
}
  0
LINE
  5
6D7
330
20
100
AcDbEntity
  8
TEXT
 62
     1
100
AcDbLine
 10
363.1025275106059
 20
549.4646367649242
 30
0.0
 11
356.1025275106059
 21
549.4646367649242
 31
0.0
  0
LINE
  5
6D8
330
20
100
AcDbEntity
  8
TEXT
 62
     1
100
AcDbLine
 10
356.1025275106059
 20
556.4646367649242
 30
0.0
 11
363.1025275106059
 21
556.4646367649242
 31
0.0
  0
LINE
  5
6D9
330
20
100
AcDbEntity
  8
TEXT
 62
     1
100
AcDbLine
 10
356.1025275106059
 20
549.4646367649242
 30
0.0
 11
356.1025275106059
 21
556.4646367649242
 31
0.0
  0
LINE
  5
6DA
330
20
100
AcDbEntity
  8
TEXT
 62
     1
100
AcDbLine
 10
363.1025275106059
 20
556.4646367649242
 30
0.0
 11
363.1025275106059
 21
549.4646367649242
 31
0.0
  0
LINE
  5
6DB
330
20
100
AcDbEntity
  8
TEXT
 62
     1
100
AcDbLine
 10
367.4039099682013
 20
449.6500073476796
 30
0.0
 11
367.4039099682013
 21
442.6500073476796
 31
0.0
  0
LINE
  5
6DC
330
20
100
AcDbEntity
  8
TEXT
 62
     1
100
AcDbLine
 10
360.4039099682013
 20
442.6500073476796
 30
0.0
 11
360.4039099682013
 21
449.6500073476796
 31
0.0
  0
LINE
  5
6DD
330
20
100
AcDbEntity
  8
TEXT
 62
     1
100
AcDbLine
 10
367.4039099682013
 20
442.6500073476796
 30
0.0
 11
360.4039099682013
 21
442.6500073476796
 31
0.0
  0
LINE
  5
6DE
330
20
100
AcDbEntity
  8
TEXT
 62
     1
100
AcDbLine
 10
360.4039099682013
 20
449.6500073476796
 30
0.0
 11
367.4039099682013
 21
449.6500073476796
 31
0.0
  0
TEXT
  5
6DF
330
20
100
AcDbEntity
  8
TEXT
 62
     1
100
AcDbText
 10
296.3447885298208
 20
442.6966080278277
 30
0.0
 40
7.0
  1
Siebaufnahme   150
 41
0.8
  7
GREEKS
100
AcDbText
  0
LINE
  5
6E0
330
20
100
AcDbEntity
  8
TEXT
 62
     2
100
AcDbLine
 10
296.3229603188212
 20
439.3167026109314
 30
0.0
 11
399.8814451255516
 21
439.3167026109314
 31
0.0
  0
TEXT
  5
6E1
330
20
100
AcDbEntity
  8
TEXT
 62
     1
100
AcDbText
 10
296.3056674094914
 20
429.8499550729862
 30
0.0
 40
7.0
  1
EDV-Art.Nr. 16290.070X
 41
0.8
  7
GREEKS
100
AcDbText
  0
TEXT
  5
6E2
330
20
100
AcDbEntity
  8
TEXT
 62
     1
100
AcDbText
 10
295.4848143070436
 20
549.5112374450723
 30
0.0
 40
7.0
  1
Edelstahlsieb   143
 41
0.8
  7
GREEKS
100
AcDbText
  0
TEXT
  5
6E3
330
20
100
AcDbEntity
  8
TEXT
 62
     1
100
AcDbText
 10
295.4456931867142
 20
536.6645844902307
 30
0.0
 40
7.0
  1
EDV-Art.Nr. 16197.000X
 41
0.8
  7
GREEKS
100
AcDbText
  0
LINE
  5
6E4
330
20
100
AcDbEntity
  8
TEXT
 62
     2
100
AcDbLine
 10
295.4629860960441
 20
546.1313320281759
 30
0.0
 11
399.0214709027745
 21
546.1313320281759
 31
0.0
  0
LINE
  5
6E5
330
20
100
AcDbEntity
  8
TEXT
 62
     2
100
AcDbLine
 10
295.4629860960441
 20
546.1313320281759
 30
0.0
 11
282.3249312106741
 21
499.1318965466748
 31
0.0
  0
HATCH
  5
73D
330
20
100
AcDbEntity
  8
SCHRAFF
100
AcDbHatch
 10
0.0
 20
0.0
 30
0.0
210
0.0
220
0.0
230
1.0
  2
_USER
 70
     0
 71
     0
 91
        8
 92
        7
 72
     1
 73
     1
 93
       12
 10
289.9299187518419
 20
498.4311126580741
 42
-0.4142135623730951
 10
291.4299187518419
 20
496.931112658074
 42
0.0
 10
291.4299187518419
 20
491.931112658074
 42
0.0
 10
292.9299187518418
 20
491.931112658074
 42
0.0
 10
292.9299187518418
 20
496.931112658074
 42
0.4142135623730951
 10
289.9299187518419
 20
499.9311126580741
 42
0.0
 10
260.4299187518419
 20
499.9311126580741
 42
0.4142135623730951
 10
257.4299187518418
 20
496.931112658074
 42
0.0
 10
257.4299187518418
 20
495.9311126580741
 42
0.0
 10
258.9299187518419
 20
495.9311126580741
 42
0.0
 10
258.9299187518419
 20
496.931112658074
 42
-0.4142135623730951
 10
260.4299187518419
 20
498.4311126580741
 42
0.0
 97
        0
 92
        7
 72
     1
 73
     1
 93
        8
 10
244.4299187518419
 20
496.931112658074
 42
0.0
 10
244.4299187518419
 20
495.9311126580741
 42
0.0
 10
245.9299187518419
 20
495.9311126580741
 42
0.0
 10
245.9299187518419
 20
496.931112658074
 42
-1.0
 10
248.9299187518418
 20
496.931112658074
 42
0.0
 10
248.9299187518418
 20
495.9311126580741
 42
0.0
 10
250.4299187518419
 20
495.9311126580741
 42
0.0
 10
250.4299187518419
 20
496.931112658074
 42
1.0
 97
        0
 92
        7
 72
     1
 73
     1
 93
        8
 10
231.4299187518419
 20
496.931112658074
 42
0.0
 10
231.4299187518419
 20
495.9311126580741
 42
0.0
 10
232.9299187518419
 20
495.9311126580741
 42
0.0
 10
232.9299187518419
 20
496.931112658074
 42
-1.0
 10
235.9299187518419
 20
496.931112658074
 42
0.0
 10
235.9299187518419
 20
495.9311126580741
 42
0.0
 10
237.4299187518419
 20
495.9311126580741
 42
0.0
 10
237.4299187518419
 20
496.931112658074
 42
1.0
 97
        0
 92
        7
 72
     1
 73
     1
 93
        6
 10
222.9299187518419
 20
496.931112658074
 42
0.0
 10
222.9299187518418
 20
495.9311126580741
 42
0.0
 10
224.4299187518418
 20
495.9311126580741
 42
0.0
 10
224.4299187518418
 20
496.931112658074
 42
0.4142135623730951
 10
221.4299187518419
 20
499.9311126580741
 42
0.0
 10
221.4299187518419
 20
498.4311126580741
 42
-0.4142135623731063
 97
        0
 92
        7
 72
     1
 73
     1
 93
        6
 10
219.9299187518418
 20
496.931112658074
 42
-0.4142135623730951
 10
221.4299187518419
 20
498.4311126580741
 42
0.0
 10
221.4299187518419
 20
499.9311126580741
 42
0.4142135623730951
 10
218.4299187518419
 20
496.931112658074
 42
0.0
 10
218.4299187518419
 20
495.9311126580741
 42
0.0
 10
219.9299187518418
 20
495.9311126580741
 42
0.0
 97
        0
 92
        7
 72
     1
 73
     1
 93
        8
 10
205.4299187518418
 20
496.9311126580741
 42
0.0
 10
205.4299187518418
 20
495.9311126580741
 42
0.0
 10
206.9299187518419
 20
495.9311126580741
 42
0.0
 10
206.9299187518419
 20
496.931112658074
 42
-1.0
 10
209.9299187518418
 20
496.931112658074
 42
0.0
 10
209.9299187518418
 20
495.9311126580741
 42
0.0
 10
211.4299187518418
 20
495.9311126580741
 42
0.0
 10
211.4299187518418
 20
496.931112658074
 42
1.0
 97
        0
 92
        7
 72
     1
 73
     1
 93
        8
 10
196.9299187518418
 20
496.9311126580741
 42
0.0
 10
196.9299187518418
 20
495.9311126580741
 42
0.0
 10
198.4299187518418
 20
495.9311126580741
 42
0.0
 10
198.4299187518418
 20
496.931112658074
 42
1.0
 10
192.4299187518418
 20
496.931112658074
 42
0.0
 10
192.4299187518418
 20
495.9311126580741
 42
0.0
 10
193.9299187518418
 20
495.9311126580741
 42
0.0
 10
193.9299187518418
 20
496.931112658074
 42
-1.0
 97
        0
 92
        7
 72
     1
 73
     1
 93
       12
 10
182.4299187518418
 20
499.9311126580741
 42
0.0
 10
152.9299187518418
 20
499.9311126580741
 42
0.4142135623730951
 10
149.9299187518418
 20
496.931112658074
 42
0.0
 10
149.9299187518418
 20
491.931112658074
 42
0.0
 10
151.4299187518418
 20
491.931112658074
 42
0.0
 10
151.4299187518418
 20
496.931112658074
 42
-0.4142135623730951
 10
152.9299187518418
 20
498.4311126580741
 42
0.0
 10
182.4299187518418
 20
498.4311126580741
 42
-0.4142135623730951
 10
183.9299187518418
 20
496.931112658074
 42
0.0
 10
183.9299187518418
 20
495.9311126580741
 42
0.0
 10
185.4299187518418
 20
495.9311126580741
 42
0.0
 10
185.4299187518418
 20
496.931112658074
 42
0.4142135623730979
 97
        0
 75
     0
 76
     0
 52
45.0
 41
2.0
 77
     0
 78
     1
 53
45.0
 43
-10.65575434216839
 44
-4.738921139646095
 45
-1.414213562373094
 46
1.414213562373095
 79
     0
 47
0.2345433472151938
 98
        8
 10
268.2583159634067
 20
498.9333574340763
 10
247.1344841792431
 20
498.6988135992889
 10
234.9296034958054
 20
499.1678998695041
 10
223.6635604597771
 20
497.0570109538563
 10
219.4387954128777
 20
497.0570109538563
 10
206.0603676701778
 20
497.0570109538563
 10
197.3761259813043
 20
497.2915533892841
 10
173.201076209503
 20
498.6988135992889
  0
LINE
  5
73F
330
20
100
AcDbEntity
  8
STEMPEL
100
AcDbLine
 10
152.9299187518418
 20
498.4311126580741
 30
0.0
 11
182.4299187518418
 21
498.4311126580741
 31
0.0
  0
ARC
  5
741
330
20
100
AcDbEntity
  8
STEMPEL
100
AcDbCircle
 10
152.9299187518418
 20
496.931112658074
 30
0.0
 40
1.5
100
AcDbArc
 50
90.0
 51
180.0
  0
LINE
  5
742
330
20
100
AcDbEntity
  8
STEMPEL
100
AcDbLine
 10
149.9299187518418
 20
491.931112658074
 30
0.0
 11
149.9299187518418
 21
496.931112658074
 31
0.0
  0
LINE
  5
743
330
20
100
AcDbEntity
  8
STEMPEL
100
AcDbLine
 10
151.4299187518418
 20
491.931112658074
 30
0.0
 11
151.4299187518418
 21
496.931112658074
 31
0.0
  0
POINT
  5
744
330
20
100
AcDbEntity
  8
STEMPEL
100
AcDbPoint
 10
150.615737434493
 20
498.8401869967089
 30
0.0
  0
ARC
  5
745
330
20
100
AcDbEntity
  8
STEMPEL
100
AcDbCircle
 10
152.9299187518418
 20
496.931112658074
 30
0.0
 40
3.0
100
AcDbArc
 50
90.0
 51
180.0
  0
ARC
  5
746
330
20
100
AcDbEntity
  8
STEMPEL
100
AcDbCircle
 10
289.9299187518419
 20
496.931112658074
 30
0.0
 40
3.0
100
AcDbArc
 50
0.0
 51
90.0
  0
LINE
  5
747
330
20
100
AcDbEntity
  8
STEMPEL
100
AcDbLine
 10
222.9299187518419
 20
495.9311126580741
 30
0.0
 11
232.9299187518419
 21
495.9311126580741
 31
0.0
  0
ARC
  5
748
330
20
100
AcDbEntity
  8
STEMPEL
100
AcDbCircle
 10
221.4299187518419
 20
496.931112658074
 30
0.0
 40
3.0
100
AcDbArc
 50
0.0
 51
180.0
  0
LINE
  5
749
330
20
100
AcDbEntity
  8
STEMPEL
100
AcDbLine
 10
183.9299187518418
 20
495.9311126580741
 30
0.0
 11
193.9299187518418
 21
495.9311126580741
 31
0.0
  0
LINE
  5
74A
330
20
100
AcDbEntity
  8
STEMPEL
100
AcDbLine
 10
183.9299187518418
 20
495.9311126580741
 30
0.0
 11
183.9299187518418
 21
496.931112658074
 31
0.0
  0
POINT
  5
74B
330
20
100
AcDbEntity
  8
STEMPEL
100
AcDbPoint
 10
184.3273901228561
 20
499.2548171135034
 30
0.0
  0
LINE
  5
74C
330
20
100
AcDbEntity
  8
STEMPEL
100
AcDbLine
 10
185.4299187518418
 20
495.9311126580741
 30
0.0
 11
185.4299187518418
 21
496.931112658074
 31
0.0
  0
ARC
  5
74D
330
20
100
AcDbEntity
  8
STEMPEL
100
AcDbCircle
 10
182.4299187518418
 20
496.931112658074
 30
0.0
 40
1.5
100
AcDbArc
 50
0.0
 51
90.0
  0
ARC
  5
74E
330
20
100
AcDbEntity
  8
STEMPEL
100
AcDbCircle
 10
182.4299187518418
 20
496.931112658074
 30
0.0
 40
3.0
100
AcDbArc
 50
0.0
 51
90.0
  0
ARC
  5
750
330
20
100
AcDbEntity
  8
STEMPEL
100
AcDbCircle
 10
208.4299187518419
 20
496.931112658074
 30
0.0
 40
1.5
100
AcDbArc
 50
0.0
 51
180.0
  0
ARC
  5
751
330
20
100
AcDbEntity
  8
STEMPEL
100
AcDbCircle
 10
208.4299187518419
 20
496.931112658074
 30
0.0
 40
3.0
100
AcDbArc
 50
0.0
 51
180.0
  0
LINE
  5
752
330
20
100
AcDbEntity
  8
STEMPEL
100
AcDbLine
 10
196.9299187518418
 20
495.9311126580741
 30
0.0
 11
206.9299187518419
 21
495.9311126580741
 31
0.0
  0
ARC
  5
753
330
20
100
AcDbEntity
  8
STEMPEL
100
AcDbCircle
 10
195.4299187518418
 20
496.931112658074
 30
0.0
 40
3.0
100
AcDbArc
 50
0.0
 51
180.0
  0
LINE
  5
754
330
20
100
AcDbEntity
  8
STEMPEL
100
AcDbLine
 10
192.4299187518418
 20
495.9311126580741
 30
0.0
 11
192.4299187518418
 21
496.931112658074
 31
0.0
  0
ARC
  5
755
330
20
100
AcDbEntity
  8
STEMPEL
100
AcDbCircle
 10
195.4299187518418
 20
496.931112658074
 30
0.0
 40
1.5
100
AcDbArc
 50
0.0
 51
180.0
  0
LINE
  5
756
330
20
100
AcDbEntity
  8
STEMPEL
100
AcDbLine
 10
193.9299187518418
 20
495.9311126580741
 30
0.0
 11
193.9299187518418
 21
496.931112658074
 31
0.0
  0
LINE
  5
757
330
20
100
AcDbEntity
  8
STEMPEL
100
AcDbLine
 10
196.9299187518418
 20
495.9311126580741
 30
0.0
 11
196.9299187518418
 21
496.931112658074
 31
0.0
  0
LINE
  5
758
330
20
100
AcDbEntity
  8
STEMPEL
100
AcDbLine
 10
205.4299187518418
 20
495.9311126580741
 30
0.0
 11
205.4299187518418
 21
496.931112658074
 31
0.0
  0
LINE
  5
759
330
20
100
AcDbEntity
  8
STEMPEL
100
AcDbLine
 10
206.9299187518419
 20
495.9311126580741
 30
0.0
 11
206.9299187518419
 21
496.931112658074
 31
0.0
  0
LINE
  5
75A
330
20
100
AcDbEntity
  8
STEMPEL
100
AcDbLine
 10
198.4299187518418
 20
495.9311126580741
 30
0.0
 11
198.4299187518418
 21
496.931112658074
 31
0.0
  0
LINE
  5
75B
330
20
100
AcDbEntity
  8
STEMPEL
100
AcDbLine
 10
209.9299187518418
 20
495.9311126580741
 30
0.0
 11
219.9299187518418
 21
495.9311126580741
 31
0.0
  0
LINE
  5
75C
330
20
100
AcDbEntity
  8
STEMPEL
100
AcDbLine
 10
209.9299187518418
 20
495.9311126580741
 30
0.0
 11
209.9299187518418
 21
496.931112658074
 31
0.0
  0
LINE
  5
75D
330
20
100
AcDbEntity
  8
STEMPEL
100
AcDbLine
 10
211.4299187518418
 20
495.9311126580741
 30
0.0
 11
211.4299187518418
 21
496.931112658074
 31
0.0
  0
ARC
  5
75E
330
20
100
AcDbEntity
  8
STEMPEL
100
AcDbCircle
 10
221.4299187518419
 20
496.931112658074
 30
0.0
 40
1.5
100
AcDbArc
 50
0.0
 51
180.0
  0
LINE
  5
75F
330
20
100
AcDbEntity
  8
STEMPEL
100
AcDbLine
 10
218.4299187518419
 20
495.9311126580741
 30
0.0
 11
218.4299187518419
 21
496.931112658074
 31
0.0
  0
LINE
  5
760
330
20
100
AcDbEntity
  8
STEMPEL
100
AcDbLine
 10
219.9299187518418
 20
495.9311126580741
 30
0.0
 11
219.9299187518418
 21
496.931112658074
 31
0.0
  0
LINE
  5
761
330
20
100
AcDbEntity
  8
STEMPEL
100
AcDbLine
 10
222.9299187518419
 20
495.9311126580741
 30
0.0
 11
222.9299187518419
 21
496.931112658074
 31
0.0
  0
LINE
  5
762
330
20
100
AcDbEntity
  8
STEMPEL
100
AcDbLine
 10
248.9299187518418
 20
495.9311126580741
 30
0.0
 11
258.9299187518419
 21
495.9311126580741
 31
0.0
  0
ARC
  5
763
330
20
100
AcDbEntity
  8
STEMPEL
100
AcDbCircle
 10
260.4299187518419
 20
496.931112658074
 30
0.0
 40
1.5
100
AcDbArc
 50
90.0
 51
180.0
  0
ARC
  5
764
330
20
100
AcDbEntity
  8
STEMPEL
100
AcDbCircle
 10
260.4299187518419
 20
496.931112658074
 30
0.0
 40
3.0
100
AcDbArc
 50
90.0
 51
180.0
  0
LINE
  5
765
330
20
100
AcDbEntity
  8
STEMPEL
100
AcDbLine
 10
235.9299187518419
 20
495.9311126580741
 30
0.0
 11
245.9299187518419
 21
495.9311126580741
 31
0.0
  0
ARC
  5
766
330
20
100
AcDbEntity
  8
STEMPEL
100
AcDbCircle
 10
234.4299187518418
 20
496.931112658074
 30
0.0
 40
3.0
100
AcDbArc
 50
0.0
 51
180.0
  0
LINE
  5
767
330
20
100
AcDbEntity
  8
STEMPEL
100
AcDbLine
 10
231.4299187518419
 20
495.9311126580741
 30
0.0
 11
231.4299187518419
 21
496.931112658074
 31
0.0
  0
LINE
  5
768
330
20
100
AcDbEntity
  8
STEMPEL
100
AcDbLine
 10
224.4299187518418
 20
495.9311126580741
 30
0.0
 11
224.4299187518418
 21
496.931112658074
 31
0.0
  0
LINE
  5
769
330
20
100
AcDbEntity
  8
STEMPEL
100
AcDbLine
 10
235.9299187518419
 20
495.9311126580741
 30
0.0
 11
235.9299187518419
 21
496.931112658074
 31
0.0
  0
LINE
  5
76A
330
20
100
AcDbEntity
  8
STEMPEL
100
AcDbLine
 10
237.4299187518419
 20
495.9311126580741
 30
0.0
 11
237.4299187518419
 21
496.931112658074
 31
0.0
  0
LINE
  5
76B
330
20
100
AcDbEntity
  8
STEMPEL
100
AcDbLine
 10
232.9299187518419
 20
495.9311126580741
 30
0.0
 11
232.9299187518419
 21
496.931112658074
 31
0.0
  0
ARC
  5
76C
330
20
100
AcDbEntity
  8
STEMPEL
100
AcDbCircle
 10
234.4299187518418
 20
496.931112658074
 30
0.0
 40
1.5
100
AcDbArc
 50
0.0
 51
180.0
  0
ARC
  5
76D
330
20
100
AcDbEntity
  8
STEMPEL
100
AcDbCircle
 10
247.4299187518418
 20
496.931112658074
 30
0.0
 40
3.0
100
AcDbArc
 50
0.0
 51
180.0
  0
ARC
  5
76E
330
20
100
AcDbEntity
  8
STEMPEL
100
AcDbCircle
 10
247.4299187518418
 20
496.931112658074
 30
0.0
 40
1.5
100
AcDbArc
 50
0.0
 51
180.0
  0
LINE
  5
76F
330
20
100
AcDbEntity
  8
STEMPEL
100
AcDbLine
 10
244.4299187518419
 20
495.9311126580741
 30
0.0
 11
244.4299187518419
 21
496.931112658074
 31
0.0
  0
LINE
  5
770
330
20
100
AcDbEntity
  8
STEMPEL
100
AcDbLine
 10
245.9299187518419
 20
495.9311126580741
 30
0.0
 11
245.9299187518419
 21
496.931112658074
 31
0.0
  0
LINE
  5
771
330
20
100
AcDbEntity
  8
STEMPEL
100
AcDbLine
 10
248.9299187518418
 20
495.9311126580741
 30
0.0
 11
248.9299187518418
 21
496.931112658074
 31
0.0
  0
LINE
  5
772
330
20
100
AcDbEntity
  8
STEMPEL
100
AcDbLine
 10
257.4299187518418
 20
495.9311126580741
 30
0.0
 11
257.4299187518418
 21
496.931112658074
 31
0.0
  0
LINE
  5
773
330
20
100
AcDbEntity
  8
STEMPEL
100
AcDbLine
 10
250.4299187518419
 20
495.9311126580741
 30
0.0
 11
250.4299187518419
 21
496.931112658074
 31
0.0
  0
LINE
  5
774
330
20
100
AcDbEntity
  8
STEMPEL
100
AcDbLine
 10
289.9299187518419
 20
498.4311126580741
 30
0.0
 11
260.4299187518419
 21
498.4311126580741
 31
0.0
  0
LINE
  5
775
330
20
100
AcDbEntity
  8
STEMPEL
100
AcDbLine
 10
258.9299187518419
 20
495.9311126580741
 30
0.0
 11
258.9299187518419
 21
496.931112658074
 31
0.0
  0
ARC
  5
776
330
20
100
AcDbEntity
  8
STEMPEL
100
AcDbCircle
 10
289.9299187518419
 20
496.931112658074
 30
0.0
 40
1.5
100
AcDbArc
 50
0.0
 51
90.0
  0
LINE
  5
777
330
20
100
AcDbEntity
  8
STEMPEL
100
AcDbLine
 10
291.4299187518419
 20
491.931112658074
 30
0.0
 11
291.4299187518419
 21
496.931112658074
 31
0.0
  0
LINE
  5
778
330
20
100
AcDbEntity
  8
STEMPEL
100
AcDbLine
 10
292.9299187518418
 20
491.931112658074
 30
0.0
 11
292.9299187518418
 21
496.931112658074
 31
0.0
  0
HATCH
  5
7D9
330
20
100
AcDbEntity
  8
SCHRAFF
100
AcDbHatch
 10
0.0
 20
0.0
 30
0.0
210
0.0
220
0.0
230
1.0
  2
NET
 70
     0
 71
     1
 91
        2
 92
        7
 72
     0
 73
     1
 93
       42
 10
270.5798766210891
 20
349.931112658074
 10
272.4299187518417
 20
349.9311126580739
 10
272.4299187518417
 20
363.9311126580739
 10
271.9299187518418
 20
363.931112658074
 10
271.9299187518417
 20
366.931112658074
 10
272.4299187518417
 20
366.931112658074
 10
272.4299187518417
 20
378.931112658074
 10
271.9299187518417
 20
378.931112658074
 10
271.9299187518418
 20
381.9311126580739
 10
272.4299187518417
 20
381.9311126580739
 10
272.4299187518418
 20
393.931112658074
 10
271.9299187518418
 20
393.931112658074
 10
271.9299187518418
 20
396.931112658074
 10
272.4299187518418
 20
396.931112658074
 10
272.4299187518418
 20
408.931112658074
 10
271.9299187518418
 20
408.931112658074
 10
271.9299187518417
 20
411.9311126580739
 10
272.4299187518418
 20
411.931112658074
 10
272.4299187518418
 20
423.931112658074
 10
271.9299187518418
 20
423.9311126580738
 10
271.9299187518418
 20
426.9311126580738
 10
272.4299187518419
 20
426.9311126580739
 10
272.4299187518418
 20
438.9311126580739
 10
271.9299187518418
 20
438.931112658074
 10
271.9299187518418
 20
441.931112658074
 10
272.4299187518418
 20
441.931112658074
 10
272.4299187518418
 20
453.931112658074
 10
271.9299187518418
 20
453.931112658074
 10
271.9299187518417
 20
456.9311126580739
 10
272.4299187518418
 20
456.9311126580739
 10
272.4299187518418
 20
468.9311126580739
 10
271.9299187518418
 20
468.9311126580739
 10
271.9299187518417
 20
471.9311126580739
 10
272.4299187518418
 20
471.9311126580739
 10
272.4299187518418
 20
479.431112658074
 10
281.9299187518417
 20
488.931112658074
 10
296.4299187518419
 20
488.931112658074
 10
296.429918751842
 20
499.931112658074
 10
293.429918751842
 20
499.9311126580741
 10
293.4299187518419
 20
491.9311126580741
 10
281.4299187518419
 20
491.931112658074
 10
268.3299187518418
 20
478.8311126580739
 97
       42
330
4E0
330
4E1
330
4DF
330
4C2
330
4E6
330
4E5
330
4E7
330
4E8
330
4E4
330
4E2
330
4EE
330
4C1
330
4ED
330
4BF
330
4E3
330
4C4
330
56E
330
4C6
330
4C8
330
4C5
330
4CC
330
4CB
330
4CD
330
4CF
330
4CE
330
4CA
330
4D2
330
4D3
330
4D1
330
4D0
330
4D4
330
4C9
330
4D7
330
4D6
330
4D8
330
4DA
330
4D9
330
4D5
330
4DD
330
4DE
330
4DC
330
4DB
 92
        7
 72
     0
 73
     1
 93
       42
 10
174.5299187518418
 20
478.8311126580739
 10
161.4299187518417
 20
491.931112658074
 10
149.4299187518418
 20
491.931112658074
 10
149.4299187518417
 20
499.931112658074
 10
146.4299187518417
 20
499.9311126580739
 10
146.4299187518418
 20
488.9311126580739
 10
160.9299187518417
 20
488.931112658074
 10
170.4299187518418
 20
479.4311126580739
 10
170.4299187518418
 20
471.9311126580739
 10
170.929918751842
 20
471.9311126580739
 10
170.929918751842
 20
468.9311126580739
 10
170.4299187518418
 20
468.9311126580739
 10
170.4299187518418
 20
456.931112658074
 10
170.929918751842
 20
456.9311126580739
 10
170.9299187518419
 20
453.931112658074
 10
170.4299187518419
 20
453.931112658074
 10
170.4299187518418
 20
441.931112658074
 10
170.929918751842
 20
441.931112658074
 10
170.9299187518419
 20
438.9311126580739
 10
170.4299187518418
 20
438.9311126580738
 10
170.4299187518418
 20
426.9311126580738
 10
170.9299187518418
 20
426.9311126580739
 10
170.929918751842
 20
423.931112658074
 10
170.4299187518418
 20
423.9311126580739
 10
170.4299187518418
 20
411.9311126580739
 10
170.929918751842
 20
411.9311126580739
 10
170.9299187518419
 20
408.931112658074
 10
170.4299187518418
 20
408.931112658074
 10
170.4299187518418
 20
396.931112658074
 10
170.929918751842
 20
396.931112658074
 10
170.9299187518419
 20
393.931112658074
 10
170.4299187518419
 20
393.931112658074
 10
170.4299187518419
 20
381.9311126580739
 10
170.9299187518419
 20
381.9311126580739
 10
170.9299187518419
 20
378.931112658074
 10
170.429918751842
 20
378.931112658074
 10
170.4299187518419
 20
366.931112658074
 10
170.9299187518419
 20
366.931112658074
 10
170.929918751842
 20
363.931112658074
 10
170.4299187518419
 20
363.9311126580739
 10
170.4299187518419
 20
349.9311126580739
 10
172.2799608825946
 20
349.9311126580739
 97
       42
330
4FA
330
4BF
330
4F0
330
4C1
330
4EF
330
4FB
330
4F9
330
4F5
330
4F6
330
4F8
330
4F7
330
51A
330
4FE
330
4FC
330
4FD
330
502
330
501
330
4FF
330
500
330
508
330
504
330
503
330
505
330
507
330
506
330
514
330
509
330
50D
330
50C
330
50A
330
50B
330
513
330
50F
330
50E
330
510
330
512
330
511
330
518
330
515
330
517
330
4C0
330
519
 75
     0
 76
     1
 52
45.0
 41
15.0
 77
     0
 78
     2
 53
45.0
 43
0.0
 44
0.0
 45
-1.325825214724776
 46
1.325825214724776
 79
     0
 53
135.0
 43
0.0
 44
0.0
 45
-1.325825214724776
 46
-1.325825214724776
 79
     0
 47
0.3493837453344893
 98
        2
 10
270.1341832170747
 20
452.5386655785561
 10
173.2864353408126
 20
462.3214105911711
  0
ENDSEC
  0
SECTION
  2
OBJECTS
  0
DICTIONARY
  5
C
330
0
100
AcDbDictionary
281
     1
  3
ACAD_COLOR
350
1B
  3
ACAD_GROUP
350
D
  3
ACAD_LAYOUT
350
19
  3
ACAD_MATERIAL
350
1A
  3
ACAD_MLINESTYLE
350
16
  3
ACAD_PLOTSETTINGS
350
18
  3
ACAD_PLOTSTYLENAME
350
E
  3
AcDbVariableDictionary
350
43B
  0
DICTIONARY
  5
69C
330
68F
100
AcDbDictionary
280
     1
281
     1
  3
ACAD_DIMASSOC
360
6A6
  0
DICTIONARY
  5
1B
102
{ACAD_REACTORS
330
C
102
}
330
C
100
AcDbDictionary
281
     1
  0
DICTIONARY
  5
D
102
{ACAD_REACTORS
330
C
102
}
330
C
100
AcDbDictionary
281
     1
  0
DICTIONARY
  5
19
102
{ACAD_REACTORS
330
C
102
}
330
C
100
AcDbDictionary
281
     1
  3
Layout1
350
1F
  3
Model
350
23
  0
DICTIONARY
  5
1A
102
{ACAD_REACTORS
330
C
102
}
330
C
100
AcDbDictionary
281
     1
  0
DICTIONARY
  5
16
102
{ACAD_REACTORS
330
C
102
}
330
C
100
AcDbDictionary
281
     1
  3
Standard
350
17
  0
DICTIONARY
  5
18
102
{ACAD_REACTORS
330
C
102
}
330
C
100
AcDbDictionary
281
     1
  0
ACDBDICTIONARYWDFLT
  5
E
102
{ACAD_REACTORS
330
C
102
}
330
C
100
AcDbDictionary
281
     1
  3
Normal
350
F
100
AcDbDictionaryWithDefault
340
F
  0
DICTIONARY
  5
43B
102
{ACAD_REACTORS
330
C
102
}
330
C
100
AcDbDictionary
281
     1
  3
DIMASSOC
350
43D
  3
HIDETEXT
350
43C
  3
PROJECTNAME
350
43E
  0
DIMASSOC
  5
6A6
102
{ACAD_REACTORS
330
69C
102
}
330
69C
100
AcDbDimAssoc
330
68F
 90
        3
 70
     0
 71
     0
  1
AcDbOsnapPointRef
 72
     6
331
332
 73
     2
 91
        0
 40
0.3636363636363637
 10
0.0
 20
0.0
 30
0.0
332
32A
 74
     2
 92
        0
 75
     0
  1
AcDbOsnapPointRef
 72
     6
331
4EF
 73
     2
 91
        0
 40
0.0000000000000052
 10
0.0
 20
0.0
 30
0.0
332
4C1
 74
     2
 92
        0
 75
     0
  0
LAYOUT
  5
1F
102
{ACAD_REACTORS
330
19
102
}
330
19
100
AcDbPlotSettings
  1

  2
RICOH Aficio 2027 PCL 6
  4

  6

 40
0.0
 41
0.0
 42
0.0
 43
0.0
 44
0.0
 45
0.0
 46
0.0
 47
0.0
 48
0.0
 49
0.0
140
0.0
141
0.0
142
1.0
143
1.0
 70
   688
 72
     0
 73
     0
 74
     5
  7
monochrome1.ctb
 75
    16
147
1.0
 76
     0
 77
     2
 78
   300
148
0.0
149
0.0
100
AcDbLayout
  1
Layout1
 70
     0
 71
     1
 10
0.0
 20
0.0
 11
12.0
 21
9.0
 12
0.0
 22
0.0
 32
0.0
 14
1.000000000000000E+20
 24
1.000000000000000E+20
 34
1.000000000000000E+20
 15
-1.000000000000000E+20
 25
-1.000000000000000E+20
 35
-1.000000000000000E+20
146
0.0
 13
0.0
 23
0.0
 33
0.0
 16
1.0
 26
0.0
 36
0.0
 17
0.0
 27
1.0
 37
0.0
 76
     0
330
1C
  0
LAYOUT
  5
23
102
{ACAD_REACTORS
330
19
102
}
330
19
100
AcDbPlotSettings
  1

  2
RICOH Aficio 2027 PCL 6
  4
A4
  6

 40
5.027083396911621
 41
5.027085304260253
 42
5.027084350585937
 43
5.027069091796875
 44
209.9733276367187
 45
296.9259948730469
 46
0.0
 47
0.0
 48
0.0
 49
0.0
140
0.0
141
0.0
142
1.0
143
1.0
 70
 11952
 72
     0
 73
     1
 74
     0
  7
monochrome1.ctb
 75
     0
147
1.0
 76
     0
 77
     2
 78
   300
148
2299.895189643334
149
90.09517935315257
100
AcDbLayout
  1
Model
 70
     1
 71
     0
 10
0.0
 20
0.0
 11
12.0
 21
9.0
 12
0.0
 22
0.0
 32
0.0
 14
0.0
 24
0.0
 34
0.0
 15
0.0
 25
0.0
 35
0.0
146
0.0
 13
0.0
 23
0.0
 33
0.0
 16
1.0
 26
0.0
 36
0.0
 17
0.0
 27
1.0
 37
0.0
 76
     0
330
20
  0
MLINESTYLE
  5
17
102
{ACAD_REACTORS
330
16
102
}
330
16
100
AcDbMlineStyle
  2
STANDARD
 70
     0
  3

 62
   256
 51
90.0
 52
90.0
 71
     2
 49
0.5
 62
   256
  6
BYLAYER
 49
-0.5
 62
   256
  6
BYLAYER
  0
ACDBPLACEHOLDER
  5
F
102
{ACAD_REACTORS
330
E
102
}
330
E
  0
DICTIONARYVAR
  5
43D
102
{ACAD_REACTORS
330
43B
102
}
330
43B
100
DictionaryVariables
280
     0
  1
2
  0
DICTIONARYVAR
  5
43C
102
{ACAD_REACTORS
330
43B
102
}
330
43B
100
DictionaryVariables
280
     0
  1
1
  0
DICTIONARYVAR
  5
43E
102
{ACAD_REACTORS
330
43B
102
}
330
43B
100
DictionaryVariables
280
     0
  1

  0
ENDSEC
  0
EOF
