  0
SECTION
  2
HEADER
  9
$ACADVER
  1
AC1018
  9
$ACADMAINTVER
 70
     2
  9
$DWGCODEPAGE
  3
ANSI_1252
  9
$INSBASE
 10
0.0
 20
0.0
 30
0.0
  9
$EXTMIN
 10
-0.0031932949054294
 20
-0.0045162313667788
 30
-0.0000000000000053
  9
$EXTMAX
 10
210.0032106535347
 20
297.0045407814273
 30
0.0000000000000099
  9
$LIMMIN
 10
0.0
 20
0.0
  9
$LIMMAX
 10
210.0
 20
297.0000000000001
  9
$ORTHOMODE
 70
     1
  9
$REGENMODE
 70
     1
  9
$FILLMODE
 70
     1
  9
$QTEXTMODE
 70
     0
  9
$MIRRTEXT
 70
     1
  9
$LTSCALE
 40
10.0
  9
$ATTMODE
 70
     1
  9
$TEXTSIZE
 40
3.5
  9
$TRACEWID
 40
0.5
  9
$TEXTSTYLE
  7
STANDARD
  9
$CLAYER
  8
VOLL
  9
$CELTYPE
  6
ByLayer
  9
$CECOLOR
 62
   256
  9
$CELTSCALE
 40
1.0
  9
$DISPSILH
 70
     0
  9
$DIMSCALE
 40
1.0
  9
$DIMASZ
 40
3.5
  9
$DIMEXO
 40
1.0
  9
$DIMDLI
 40
7.0
  9
$DIMRND
 40
0.0
  9
$DIMDLE
 40
0.0
  9
$DIMEXE
 40
1.0
  9
$DIMTP
 40
0.0
  9
$DIMTM
 40
0.0
  9
$DIMTXT
 40
3.5
  9
$DIMCEN
 40
1.5
  9
$DIMTSZ
 40
0.0
  9
$DIMTOL
 70
     0
  9
$DIMLIM
 70
     0
  9
$DIMTIH
 70
     0
  9
$DIMTOH
 70
     0
  9
$DIMSE1
 70
     0
  9
$DIMSE2
 70
     0
  9
$DIMTAD
 70
     1
  9
$DIMZIN
 70
     8
  9
$DIMBLK
  1

  9
$DIMASO
 70
     1
  9
$DIMSHO
 70
     0
  9
$DIMPOST
  1

  9
$DIMAPOST
  1

  9
$DIMALT
 70
     0
  9
$DIMALTD
 70
     2
  9
$DIMALTF
 40
25.4
  9
$DIMLFAC
 40
1.0
  9
$DIMTOFL
 70
     1
  9
$DIMTVP
 40
0.0
  9
$DIMTIX
 70
     0
  9
$DIMSOXD
 70
     0
  9
$DIMSAH
 70
     0
  9
$DIMBLK1
  1

  9
$DIMBLK2
  1

  9
$DIMSTYLE
  2
Standard
  9
$DIMCLRD
 70
     0
  9
$DIMCLRE
 70
     0
  9
$DIMCLRT
 70
     1
  9
$DIMTFAC
 40
0.5
  9
$DIMGAP
 40
1.5
  9
$DIMJUST
 70
     0
  9
$DIMSD1
 70
     0
  9
$DIMSD2
 70
     0
  9
$DIMTOLJ
 70
     1
  9
$DIMTZIN
 70
     8
  9
$DIMALTZ
 70
     8
  9
$DIMALTTZ
 70
     8
  9
$DIMUPT
 70
     0
  9
$DIMDEC
 70
     2
  9
$DIMTDEC
 70
     2
  9
$DIMALTU
 70
     2
  9
$DIMALTTD
 70
     2
  9
$DIMTXSTY
  7
STANDARD
  9
$DIMAUNIT
 70
     0
  9
$DIMADEC
 70
     2
  9
$DIMALTRND
 40
0.0
  9
$DIMAZIN
 70
     2
  9
$DIMDSEP
 70
    46
  9
$DIMATFIT
 70
     3
  9
$DIMFRAC
 70
     0
  9
$DIMLDRBLK
  1

  9
$DIMLUNIT
 70
     2
  9
$DIMLWD
 70
    -2
  9
$DIMLWE
 70
    -2
  9
$DIMTMOVE
 70
     0
  9
$LUNITS
 70
     2
  9
$LUPREC
 70
     2
  9
$SKETCHINC
 40
1.0
  9
$FILLETRAD
 40
0.0
  9
$AUNITS
 70
     0
  9
$AUPREC
 70
     0
  9
$MENU
  1
ACAD
  9
$ELEVATION
 40
0.0
  9
$PELEVATION
 40
0.0
  9
$THICKNESS
 40
0.0
  9
$LIMCHECK
 70
     0
  9
$CHAMFERA
 40
0.0
  9
$CHAMFERB
 40
0.0
  9
$CHAMFERC
 40
0.0
  9
$CHAMFERD
 40
0.0
  9
$SKPOLY
 70
     0
  9
$TDCREATE
 40
2455397.864709028
  9
$TDUCREATE
 40
2455397.781375695
  9
$TDUPDATE
 40
2455803.532171644
  9
$TDUUPDATE
 40
2455803.448838310
  9
$TDINDWG
 40
0.0971177546
  9
$TDUSRTIMER
 40
0.0971177546
  9
$USRTIMER
 70
     1
  9
$ANGBASE
 50
0.0
  9
$ANGDIR
 70
     0
  9
$PDMODE
 70
     0
  9
$PDSIZE
 40
0.0
  9
$PLINEWID
 40
0.0
  9
$SPLFRAME
 70
     0
  9
$SPLINETYPE
 70
     6
  9
$SPLINESEGS
 70
     8
  9
$HANDSEED
  5
1A03
  9
$SURFTAB1
 70
     6
  9
$SURFTAB2
 70
     6
  9
$SURFTYPE
 70
     6
  9
$SURFU
 70
     6
  9
$SURFV
 70
     6
  9
$UCSBASE
  2

  9
$UCSNAME
  2

  9
$UCSORG
 10
0.0
 20
0.0
 30
0.0
  9
$UCSXDIR
 10
1.0
 20
0.0
 30
0.0
  9
$UCSYDIR
 10
0.0
 20
1.0
 30
0.0
  9
$UCSORTHOREF
  2

  9
$UCSORTHOVIEW
 70
     0
  9
$UCSORGTOP
 10
0.0
 20
0.0
 30
0.0
  9
$UCSORGBOTTOM
 10
0.0
 20
0.0
 30
0.0
  9
$UCSORGLEFT
 10
0.0
 20
0.0
 30
0.0
  9
$UCSORGRIGHT
 10
0.0
 20
0.0
 30
0.0
  9
$UCSORGFRONT
 10
0.0
 20
0.0
 30
0.0
  9
$UCSORGBACK
 10
0.0
 20
0.0
 30
0.0
  9
$PUCSBASE
  2

  9
$PUCSNAME
  2

  9
$PUCSORG
 10
0.0
 20
0.0
 30
0.0
  9
$PUCSXDIR
 10
1.0
 20
0.0
 30
0.0
  9
$PUCSYDIR
 10
0.0
 20
1.0
 30
0.0
  9
$PUCSORTHOREF
  2

  9
$PUCSORTHOVIEW
 70
     0
  9
$PUCSORGTOP
 10
0.0
 20
0.0
 30
0.0
  9
$PUCSORGBOTTOM
 10
0.0
 20
0.0
 30
0.0
  9
$PUCSORGLEFT
 10
0.0
 20
0.0
 30
0.0
  9
$PUCSORGRIGHT
 10
0.0
 20
0.0
 30
0.0
  9
$PUCSORGFRONT
 10
0.0
 20
0.0
 30
0.0
  9
$PUCSORGBACK
 10
0.0
 20
0.0
 30
0.0
  9
$USERI1
 70
     0
  9
$USERI2
 70
     0
  9
$USERI3
 70
     0
  9
$USERI4
 70
     0
  9
$USERI5
 70
     0
  9
$USERR1
 40
0.0
  9
$USERR2
 40
0.0
  9
$USERR3
 40
0.0
  9
$USERR4
 40
0.0
  9
$USERR5
 40
0.0
  9
$WORLDVIEW
 70
     1
  9
$SHADEDGE
 70
     3
  9
$SHADEDIF
 70
    70
  9
$TILEMODE
 70
     1
  9
$MAXACTVP
 70
    16
  9
$PINSBASE
 10
0.0
 20
0.0
 30
0.0
  9
$PLIMCHECK
 70
     0
  9
$PEXTMIN
 10
1.000000000000000E+20
 20
1.000000000000000E+20
 30
1.000000000000000E+20
  9
$PEXTMAX
 10
-1.000000000000000E+20
 20
-1.000000000000000E+20
 30
-1.000000000000000E+20
  9
$PLIMMIN
 10
0.0
 20
0.0
  9
$PLIMMAX
 10
12.0
 20
9.0
  9
$UNITMODE
 70
     0
  9
$VISRETAIN
 70
     0
  9
$PLINEGEN
 70
     0
  9
$PSLTSCALE
 70
     0
  9
$TREEDEPTH
 70
  3020
  9
$CMLSTYLE
  2
Standard
  9
$CMLJUST
 70
     0
  9
$CMLSCALE
 40
1.0
  9
$PROXYGRAPHICS
 70
     1
  9
$MEASUREMENT
 70
     0
  9
$CELWEIGHT
370
    -1
  9
$ENDCAPS
280
     0
  9
$JOINSTYLE
280
     0
  9
$LWDISPLAY
290
     0
  9
$INSUNITS
 70
     0
  9
$HYPERLINKBASE
  1

  9
$STYLESHEET
  1
monochrome 1.ctb
  9
$XEDIT
290
     1
  9
$CEPSNTYPE
380
     0
  9
$PSTYLEMODE
290
     1
  9
$FINGERPRINTGUID
  2
{D68B0D02-A558-11D7-B632-000102183313}
  9
$VERSIONGUID
  2
{6EC3D14A-67CE-4751-B135-2C56DCADF0BA}
  9
$EXTNAMES
290
     1
  9
$PSVPSCALE
 40
0.0
  9
$OLESTARTUP
290
     0
  9
$SORTENTS
280
   127
  9
$INDEXCTL
280
     0
  9
$HIDETEXT
280
     0
  9
$XCLIPFRAME
290
     0
  9
$HALOGAP
280
     0
  9
$OBSCOLOR
 70
   257
  9
$OBSLTYPE
280
     0
  9
$INTERSECTIONDISPLAY
280
     0
  9
$INTERSECTIONCOLOR
 70
   257
  9
$DIMASSOC
280
     1
  9
$PROJECTNAME
  1

  0
ENDSEC
  0
SECTION
  2
CLASSES
  0
CLASS
  1
ACDBDICTIONARYWDFLT
  2
AcDbDictionaryWithDefault
  3
ObjectDBX Classes
 90
        0
 91
        1
280
     0
281
     0
  0
CLASS
  1
DICTIONARYVAR
  2
AcDbDictionaryVar
  3
ObjectDBX Classes
 90
        0
 91
        2
280
     0
281
     0
  0
ENDSEC
  0
SECTION
  2
TABLES
  0
TABLE
  2
VPORT
  5
8
330
0
100
AcDbSymbolTable
 70
     4
  0
VPORT
  5
1A02
330
8
100
AcDbSymbolTableRecord
100
AcDbViewportTableRecord
  2
*Active
 70
     0
 10
0.0
 20
0.0
 11
1.0
 21
1.0
 12
105.0
 22
148.5
 13
0.0
 23
0.0
 14
1.0
 24
1.0
 15
10.0
 25
10.0
 16
0.0
 26
0.0
 36
1.0
 17
0.0
 27
0.0
 37
0.0
 40
297.0836029864439
 41
1.339622641509433
 42
50.0
 43
0.0
 44
0.0
 50
0.0
 51
0.0
 71
     0
 72
  1500
 73
     1
 74
     0
 75
     0
 76
     0
 77
     0
 78
     0
281
     0
 65
     1
110
0.0
120
0.0
130
0.0
111
1.0
121
0.0
131
0.0
112
0.0
122
1.0
132
0.0
 79
     0
146
0.0
  0
ENDTAB
  0
TABLE
  2
LTYPE
  5
5
330
0
100
AcDbSymbolTable
 70
     4
  0
LTYPE
  5
13
330
5
100
AcDbSymbolTableRecord
100
AcDbLinetypeTableRecord
  2
ByBlock
 70
     0
  3

 72
    65
 73
     0
 40
0.0
  0
LTYPE
  5
14
330
5
100
AcDbSymbolTableRecord
100
AcDbLinetypeTableRecord
  2
ByLayer
 70
     0
  3

 72
    65
 73
     0
 40
0.0
  0
LTYPE
  5
15
330
5
100
AcDbSymbolTableRecord
100
AcDbLinetypeTableRecord
  2
Continuous
 70
     0
  3
Solid line
 72
    65
 73
     0
 40
0.0
  0
LTYPE
  5
25
330
5
100
AcDbSymbolTableRecord
100
AcDbLinetypeTableRecord
  2
STRICHPUNKT
 70
     0
  3
__ . __ . __ . __ . __ . __ . __ . __ . __ . __
 72
    65
 73
     4
 40
1.0
 49
0.5
 74
     0
 49
-0.25
 74
     0
 49
0.0
 74
     0
 49
-0.25
 74
     0
  0
LTYPE
  5
27
330
5
100
AcDbSymbolTableRecord
100
AcDbLinetypeTableRecord
  2
RAND
 70
     0
  3
__ __ . __ __ . __ __ . __ __ . __ __ . __ __
 72
    65
 73
     6
 40
1.75
 49
0.5
 74
     0
 49
-0.25
 74
     0
 49
0.5
 74
     0
 49
-0.25
 74
     0
 49
0.0
 74
     0
 49
-0.25
 74
     0
  0
LTYPE
  5
1719
330
5
100
AcDbSymbolTableRecord
100
AcDbLinetypeTableRecord
  2
VERDECKT
 70
     0
  3
_ _ _ _ _ _ _ _ _ _ _ _ _ _ _ _ _ _ _ _ _ _ _
 72
    65
 73
     2
 40
0.375
 49
0.25
 74
     0
 49
-0.125
 74
     0
  0
ENDTAB
  0
TABLE
  2
LAYER
  5
2
330
0
100
AcDbSymbolTable
 70
    10
  0
LAYER
  5
10
330
2
100
AcDbSymbolTableRecord
100
AcDbLayerTableRecord
  2
0
 70
     0
 62
     7
  6
Continuous
370
    -3
390
F
  0
LAYER
  5
2A
330
2
100
AcDbSymbolTableRecord
100
AcDbLayerTableRecord
  2
VOLL
 70
     0
 62
     1
  6
Continuous
370
    -3
390
F
  0
LAYER
  5
2B
330
2
100
AcDbSymbolTableRecord
100
AcDbLayerTableRecord
  2
HILF
 70
     0
 62
     2
  6
Continuous
370
    -3
390
F
  0
LAYER
  5
2C
330
2
100
AcDbSymbolTableRecord
100
AcDbLayerTableRecord
  2
MITTEL
 70
     0
 62
     2
  6
STRICHPUNKT
370
    -3
390
F
  0
LAYER
  5
2F
330
2
100
AcDbSymbolTableRecord
100
AcDbLayerTableRecord
  2
BEM
 70
     0
 62
     7
  6
Continuous
370
    -3
390
F
  0
LAYER
  5
30
330
2
100
AcDbSymbolTableRecord
100
AcDbLayerTableRecord
  2
STEMPEL
 70
     0
 62
     3
  6
Continuous
370
    -3
390
F
  0
LAYER
  5
31
330
2
100
AcDbSymbolTableRecord
100
AcDbLayerTableRecord
  2
TEXT
 70
     0
 62
     7
  6
Continuous
370
    -3
390
F
  0
LAYER
  5
5D8
330
2
100
AcDbSymbolTableRecord
100
AcDbLayerTableRecord
  2
DEFPOINTS
 70
     0
 62
     4
  6
RAND
290
     0
370
    -3
390
F
  0
LAYER
  5
5D9
330
2
100
AcDbSymbolTableRecord
100
AcDbLayerTableRecord
  2
SCHRAFF
 70
     0
 62
     7
  6
Continuous
370
    -3
390
F
  0
LAYER
  5
171A
330
2
100
AcDbSymbolTableRecord
100
AcDbLayerTableRecord
  2
VERDECKT
 70
     0
 62
     6
  6
VERDECKT
370
    -3
390
F
  0
ENDTAB
  0
TABLE
  2
STYLE
  5
3
330
0
100
AcDbSymbolTable
 70
     2
  0
STYLE
  5
11
330
3
100
AcDbSymbolTableRecord
100
AcDbTextStyleTableRecord
  2
STANDARD
 70
     0
 40
0.0
 41
0.8
 50
0.0
 71
     0
 42
3.5
  3
simplex.shx
  4

  0
STYLE
  5
24
330
3
100
AcDbSymbolTableRecord
100
AcDbTextStyleTableRecord
  2
GREEKS
 70
     0
 40
0.0
 41
0.8
 50
0.0
 71
     0
 42
2.5
  3
SIMPLEX.shx
  4

  0
ENDTAB
  0
TABLE
  2
VIEW
  5
6
330
0
100
AcDbSymbolTable
 70
     0
  0
ENDTAB
  0
TABLE
  2
UCS
  5
7
330
0
100
AcDbSymbolTable
 70
     0
  0
ENDTAB
  0
TABLE
  2
APPID
  5
9
330
0
100
AcDbSymbolTable
 70
     1
  0
APPID
  5
12
330
9
100
AcDbSymbolTableRecord
100
AcDbRegAppTableRecord
  2
ACAD
 70
     0
  0
ENDTAB
  0
TABLE
  2
DIMSTYLE
  5
A
330
0
100
AcDbSymbolTable
 70
     1
100
AcDbDimStyleTable
 71
     1
340
9D
  0
DIMSTYLE
105
9D
102
{ACAD_REACTORS
330
17A0
330
179F
330
179D
330
177C
330
1776
330
1910
330
192E
330
1774
102
}
330
A
100
AcDbSymbolTableRecord
100
AcDbDimStyleTableRecord
  2
Standard
 70
     0
340
11
  0
ENDTAB
  0
TABLE
  2
BLOCK_RECORD
  5
1
330
0
100
AcDbSymbolTable
 70
    11
  0
BLOCK_RECORD
  5
1E
102
{ACAD_XDICTIONARY
360
A0
102
}
330
1
100
AcDbSymbolTableRecord
100
AcDbBlockTableRecord
  2
*Model_Space
340
21
  0
BLOCK_RECORD
  5
1A
102
{ACAD_XDICTIONARY
360
A2
102
}
330
1
100
AcDbSymbolTableRecord
100
AcDbBlockTableRecord
  2
*Paper_Space
340
1D
  0
BLOCK_RECORD
  5
22
330
1
100
AcDbSymbolTableRecord
100
AcDbBlockTableRecord
  2
LOGO
340
0
102
{BLKREFS
331
7F2
102
}
  0
BLOCK_RECORD
  5
17C7
330
1
100
AcDbSymbolTableRecord
100
AcDbBlockTableRecord
  2
*D1
340
0
  0
BLOCK_RECORD
  5
17E1
330
1
100
AcDbSymbolTableRecord
100
AcDbBlockTableRecord
  2
*D3
340
0
  0
BLOCK_RECORD
  5
17EE
330
1
100
AcDbSymbolTableRecord
100
AcDbBlockTableRecord
  2
*D4
340
0
  0
BLOCK_RECORD
  5
180A
330
1
100
AcDbSymbolTableRecord
100
AcDbBlockTableRecord
  2
*D5
340
0
  0
BLOCK_RECORD
  5
1824
330
1
100
AcDbSymbolTableRecord
100
AcDbBlockTableRecord
  2
*D7
340
0
  0
BLOCK_RECORD
  5
1831
330
1
100
AcDbSymbolTableRecord
100
AcDbBlockTableRecord
  2
*D8
340
0
  0
BLOCK_RECORD
  5
1911
330
1
100
AcDbSymbolTableRecord
100
AcDbBlockTableRecord
  2
*D9
340
0
  0
BLOCK_RECORD
  5
192F
330
1
100
AcDbSymbolTableRecord
100
AcDbBlockTableRecord
  2
*D10
340
0
  0
ENDTAB
  0
ENDSEC
  0
SECTION
  2
BLOCKS
  0
BLOCK
  5
35
330
1E
100
AcDbEntity
  8
0
100
AcDbBlockBegin
  2
*Model_Space
 70
     0
 10
0.0
 20
0.0
 30
0.0
  3
*Model_Space
  1

  0
ENDBLK
  5
36
330
1E
100
AcDbEntity
  8
0
100
AcDbBlockEnd
  0
BLOCK
  5
33
330
1A
100
AcDbEntity
 67
     1
  8
0
100
AcDbBlockBegin
  2
*Paper_Space
 70
     0
 10
0.0
 20
0.0
 30
0.0
  3
*Paper_Space
  1

  0
ENDBLK
  5
34
330
1A
100
AcDbEntity
 67
     1
  8
0
100
AcDbBlockEnd
  0
BLOCK
  5
37
330
22
100
AcDbEntity
  8
0
100
AcDbBlockBegin
  2
LOGO
 70
     0
 10
0.0
 20
0.0
 30
0.0
  3
LOGO
  1

  0
ARC
  5
38
330
22
100
AcDbEntity
  8
0
100
AcDbCircle
 10
11.59973089678112
 20
-9.271599258481501
 30
0.0
 40
4.5
100
AcDbArc
 50
270.0
 51
231.0575587310159
  0
LINE
  5
39
330
22
100
AcDbEntity
  8
0
100
AcDbLine
 10
3.599730896781125
 20
-4.771599258481529
 30
0.0
 11
3.599730896781153
 21
-11.77159925848133
 31
0.0
  0
LINE
  5
3A
330
22
100
AcDbEntity
  8
0
100
AcDbLine
 10
2.599730896781125
 20
-4.771599258481529
 30
0.0
 11
2.599730896781153
 21
-11.77159925848133
 31
0.0
  0
CIRCLE
  5
3B
330
22
100
AcDbEntity
  8
0
100
AcDbCircle
 10
11.59973089678112
 20
-9.271599258481501
 30
0.0
 40
3.5
  0
ARC
  5
3C
330
22
100
AcDbEntity
  8
0
100
AcDbCircle
 10
31.59973089678115
 20
-9.271599258481472
 30
0.0
 40
4.5
100
AcDbArc
 50
270.0
 51
231.0575587310182
  0
LINE
  5
3D
330
22
100
AcDbEntity
  8
0
100
AcDbLine
 10
17.59973089678112
 20
-4.771599258481472
 30
0.0
 11
17.59973089678115
 21
-13.77159925848147
 31
0.0
  0
ARC
  5
3E
330
22
100
AcDbEntity
  8
0
100
AcDbCircle
 10
22.59973089678116
 20
-7.271599258481472
 30
0.0
 40
2.5
100
AcDbArc
 50
293.1161887722295
 51
90.0
  0
CIRCLE
  5
3F
330
22
100
AcDbEntity
  8
0
100
AcDbCircle
 10
31.59973089678115
 20
-9.271599258481472
 30
0.0
 40
3.5
  0
ARC
  5
40
330
22
100
AcDbEntity
  8
0
100
AcDbCircle
 10
4.599730896781153
 20
-11.77159925848133
 30
0.0
 40
1.0
100
AcDbArc
 50
180.0
 51
270.0
  0
ARC
  5
41
330
22
100
AcDbEntity
  8
0
100
AcDbCircle
 10
4.599730896781153
 20
-11.77159925848133
 30
0.0
 40
2.0
100
AcDbArc
 50
179.9999999999992
 51
270.0
  0
LINE
  5
42
330
22
100
AcDbEntity
  8
0
100
AcDbLine
 10
11.59973089678115
 20
-13.77159925848144
 30
0.0
 11
4.599730896781153
 21
-13.77159925848147
 31
0.0
  0
LINE
  5
43
330
22
100
AcDbEntity
  8
0
100
AcDbLine
 10
8.771303772034769
 20
-12.77159925848136
 30
0.0
 11
4.599730896781153
 21
-12.77159925848133
 31
0.0
  0
LINE
  5
44
330
22
100
AcDbEntity
  8
0
100
AcDbLine
 10
31.59973089678115
 20
-13.77159925848147
 30
0.0
 11
23.6715276665056
 21
-13.77159925848144
 31
0.0
  0
LINE
  5
45
330
22
100
AcDbEntity
  8
0
100
AcDbLine
 10
23.56565672307022
 20
-9.51278021337896
 30
0.0
 11
24.4388546544846
 21
-12.77159925848144
 31
0.0
  0
LINE
  5
46
330
22
100
AcDbEntity
  8
0
100
AcDbLine
 10
22.59973089678116
 20
-9.771599258481472
 30
0.0
 11
18.59973089678112
 21
-9.771599258481472
 31
0.0
  0
LINE
  5
47
330
22
100
AcDbEntity
  8
0
100
AcDbLine
 10
18.59973089678115
 20
-13.77159925848144
 30
0.0
 11
17.59973089678115
 21
-13.77159925848144
 31
0.0
  0
LINE
  5
48
330
22
100
AcDbEntity
  8
0
100
AcDbLine
 10
18.59973089678115
 20
-9.771599258481472
 30
0.0
 11
18.59973089678115
 21
-13.77159925848144
 31
0.0
  0
LINE
  5
49
330
22
100
AcDbEntity
  8
0
100
AcDbLine
 10
22.59973089678116
 20
-9.771599258481472
 30
0.0
 11
23.67152766650562
 21
-13.77159925848147
 31
0.0
  0
ARC
  5
4A
330
22
100
AcDbEntity
  8
0
100
AcDbCircle
 10
22.59973089678116
 20
-7.271599258481472
 30
0.0
 40
2.5
100
AcDbArc
 50
270.0
 51
270.0000000000007
  0
LINE
  5
4B
330
22
100
AcDbEntity
  8
0
100
AcDbLine
 10
28.77130377203494
 20
-12.77159925848147
 30
0.0
 11
24.43885465448463
 21
-12.77159925848144
 31
0.0
  0
LINE
  5
4C
330
22
100
AcDbEntity
  8
0
100
AcDbLine
 10
3.599730896781125
 20
-4.771599258481472
 30
0.0
 11
2.599730896781125
 21
-4.771599258481472
 31
0.0
  0
LINE
  5
4D
330
22
100
AcDbEntity
  8
0
100
AcDbLine
 10
22.59973089678116
 20
-8.771599258481472
 30
0.0
 11
18.59973089678115
 21
-8.771599258481472
 31
0.0
  0
LINE
  5
4E
330
22
100
AcDbEntity
  8
0
100
AcDbLine
 10
22.59973089678116
 20
-5.771599258481472
 30
0.0
 11
18.59973089678115
 21
-5.771599258481472
 31
0.0
  0
LINE
  5
4F
330
22
100
AcDbEntity
  8
0
100
AcDbLine
 10
22.59973089678116
 20
-4.771599258481472
 30
0.0
 11
17.59973089678115
 21
-4.771599258481472
 31
0.0
  0
LINE
  5
50
330
22
100
AcDbEntity
  8
0
100
AcDbLine
 10
18.59973089678115
 20
-5.771599258481472
 30
0.0
 11
18.59973089678115
 21
-8.771599258481472
 31
0.0
  0
ARC
  5
51
330
22
100
AcDbEntity
  8
0
100
AcDbCircle
 10
22.59973089678116
 20
-7.271599258481472
 30
0.0
 40
1.5
100
AcDbArc
 50
270.0
 51
90.0
  0
ENDBLK
  5
52
330
22
100
AcDbEntity
  8
0
100
AcDbBlockEnd
  0
BLOCK
  5
17D2
330
17C7
100
AcDbEntity
  8
0
100
AcDbBlockBegin
  2
*D1
 70
     1
 10
0.0
 20
0.0
 30
0.0
  3
*D1
  1

  0
LINE
  5
19F9
330
17C7
100
AcDbEntity
  8
BEM
 62
     0
370
    -2
100
AcDbLine
 10
60.13674724436325
 20
196.7916859134128
 30
0.0
 11
60.13674724436325
 21
207.6453177006213
 31
0.0
  0
LINE
  5
19FA
330
17C7
100
AcDbEntity
  8
BEM
 62
     0
370
    -2
100
AcDbLine
 10
158.1367472443632
 20
196.7916859134127
 30
0.0
 11
158.1367472443632
 21
207.6453177006213
 31
0.0
  0
LINE
  5
19FB
330
17C7
100
AcDbEntity
  8
BEM
 62
     0
370
    -2
100
AcDbLine
 10
63.63674724436325
 20
206.6453177006213
 30
0.0
 11
154.6367472443632
 21
206.6453177006213
 31
0.0
  0
SOLID
  5
19FC
330
17C7
100
AcDbEntity
  8
BEM
 62
     0
100
AcDbTrace
 10
63.63674724436325
 20
207.2286510339546
 30
0.0
 11
63.63674724436325
 21
206.0619843672879
 31
0.0
 12
60.13674724436325
 22
206.6453177006213
 32
0.0
 13
60.13674724436325
 23
206.6453177006213
 33
0.0
  0
SOLID
  5
19FD
330
17C7
100
AcDbEntity
  8
BEM
 62
     0
100
AcDbTrace
 10
154.6367472443632
 20
207.2286510339546
 30
0.0
 11
154.6367472443632
 21
206.0619843672879
 31
0.0
 12
158.1367472443632
 22
206.6453177006213
 32
0.0
 13
158.1367472443632
 23
206.6453177006213
 33
0.0
  0
MTEXT
  5
19FE
330
17C7
100
AcDbEntity
  8
BEM
 62
     1
100
AcDbMText
 10
109.1367472443632
 20
209.8953177006213
 30
0.0
 40
3.5
 41
0.0
 71
     5
 72
     1
  1
\A1;%%c98
 73
     1
 44
1.0
  0
POINT
  5
19FF
330
17C7
100
AcDbEntity
  8
DEFPOINTS
 62
     0
100
AcDbPoint
 10
60.13674724436325
 20
195.7916859134128
 30
0.0
  0
POINT
  5
1A00
330
17C7
100
AcDbEntity
  8
DEFPOINTS
 62
     0
100
AcDbPoint
 10
158.1367472443632
 20
195.7916859134127
 30
0.0
  0
POINT
  5
1A01
330
17C7
100
AcDbEntity
  8
DEFPOINTS
 62
     0
100
AcDbPoint
 10
158.1367472443632
 20
206.6453177006213
 30
0.0
  0
ENDBLK
  5
17D3
330
17C7
100
AcDbEntity
  8
0
100
AcDbBlockEnd
  0
BLOCK
  5
17EC
330
17E1
100
AcDbEntity
  8
0
100
AcDbBlockBegin
  2
*D3
 70
     1
 10
0.0
 20
0.0
 30
0.0
  3
*D3
  1

  0
LINE
  5
18D9
330
17E1
100
AcDbEntity
  8
BEM
 62
     0
370
    -2
100
AcDbLine
 10
60.94907719725219
 20
95.79168591341275
 30
0.0
 11
50.83585080109789
 21
95.79168591341275
 31
0.0
  0
LINE
  5
18DA
330
17E1
100
AcDbEntity
  8
BEM
 62
     0
370
    -2
100
AcDbLine
 10
59.63674724436325
 20
165.7916859134127
 30
0.0
 11
50.83585080109791
 21
165.7916859134127
 31
0.0
  0
LINE
  5
18DB
330
17E1
100
AcDbEntity
  8
BEM
 62
     0
370
    -2
100
AcDbLine
 10
51.83585080109789
 20
99.29168591341275
 30
0.0
 11
51.8358508010979
 21
162.2916859134127
 31
0.0
  0
SOLID
  5
18DC
330
17E1
100
AcDbEntity
  8
BEM
 62
     0
100
AcDbTrace
 10
51.25251746776456
 20
99.29168591341275
 30
0.0
 11
52.41918413443123
 21
99.29168591341275
 31
0.0
 12
51.83585080109789
 22
95.79168591341275
 32
0.0
 13
51.83585080109789
 23
95.79168591341275
 33
0.0
  0
SOLID
  5
18DD
330
17E1
100
AcDbEntity
  8
BEM
 62
     0
100
AcDbTrace
 10
51.25251746776457
 20
162.2916859134127
 30
0.0
 11
52.41918413443124
 21
162.2916859134127
 31
0.0
 12
51.8358508010979
 22
165.7916859134127
 32
0.0
 13
51.8358508010979
 23
165.7916859134127
 33
0.0
  0
MTEXT
  5
18DE
330
17E1
100
AcDbEntity
  8
BEM
 62
     1
100
AcDbMText
 10
48.58585080109787
 20
130.7916859134127
 30
0.0
 40
3.5
 41
0.0
 71
     5
 72
     1
  1
\A1;70
 11
0.0000000000000001
 21
1.0
 31
0.0
 73
     1
 44
1.0
  0
POINT
  5
18DF
330
17E1
100
AcDbEntity
  8
DEFPOINTS
 62
     0
100
AcDbPoint
 10
61.94907719725219
 20
95.79168591341275
 30
0.0
  0
POINT
  5
18E0
330
17E1
100
AcDbEntity
  8
DEFPOINTS
 62
     0
100
AcDbPoint
 10
60.63674724436324
 20
165.7916859134127
 30
0.0
  0
POINT
  5
18E1
330
17E1
100
AcDbEntity
  8
DEFPOINTS
 62
     0
100
AcDbPoint
 10
51.8358508010979
 20
165.7916859134127
 30
0.0
  0
ENDBLK
  5
17ED
330
17E1
100
AcDbEntity
  8
0
100
AcDbBlockEnd
  0
BLOCK
  5
17F9
330
17EE
100
AcDbEntity
  8
0
100
AcDbBlockBegin
  2
*D4
 70
     1
 10
0.0
 20
0.0
 30
0.0
  3
*D4
  1

  0
LINE
  5
18CE
330
17EE
100
AcDbEntity
  8
BEM
 62
     0
370
    -2
100
AcDbLine
 10
161.1367472443633
 20
195.7916859134128
 30
0.0
 11
184.1935127304509
 21
195.7916859134128
 31
0.0
  0
LINE
  5
18CF
330
17EE
100
AcDbEntity
  8
BEM
 62
     0
370
    -2
100
AcDbLine
 10
161.1367472443633
 20
187.7916859134127
 30
0.0
 11
184.1935127304508
 21
187.7916859134127
 31
0.0
  0
LINE
  5
18D0
330
17EE
100
AcDbEntity
  8
BEM
 62
     0
370
    -2
100
AcDbLine
 10
183.1935127304509
 20
199.2916859134128
 30
0.0
 11
183.1935127304509
 21
202.7916859134128
 31
0.0
  0
LINE
  5
18D1
330
17EE
100
AcDbEntity
  8
BEM
 62
     0
370
    -2
100
AcDbLine
 10
183.1935127304508
 20
184.2916859134127
 30
0.0
 11
183.1935127304508
 21
180.7916859134127
 31
0.0
  0
LINE
  5
18D2
330
17EE
100
AcDbEntity
  8
BEM
 62
     0
370
    -2
100
AcDbLine
 10
183.1935127304509
 20
195.7916859134128
 30
0.0
 11
183.1935127304508
 21
187.7916859134127
 31
0.0
  0
SOLID
  5
18D3
330
17EE
100
AcDbEntity
  8
BEM
 62
     0
100
AcDbTrace
 10
182.6101793971175
 20
199.2916859134128
 30
0.0
 11
183.7768460637842
 21
199.2916859134128
 31
0.0
 12
183.1935127304509
 22
195.7916859134128
 32
0.0
 13
183.1935127304509
 23
195.7916859134128
 33
0.0
  0
SOLID
  5
18D4
330
17EE
100
AcDbEntity
  8
BEM
 62
     0
100
AcDbTrace
 10
182.6101793971175
 20
184.2916859134127
 30
0.0
 11
183.7768460637842
 21
184.2916859134127
 31
0.0
 12
183.1935127304508
 22
187.7916859134127
 32
0.0
 13
183.1935127304508
 23
187.7916859134127
 33
0.0
  0
MTEXT
  5
18D5
330
17EE
100
AcDbEntity
  8
BEM
 62
     1
100
AcDbMText
 10
179.9435127304508
 20
191.7916859134128
 30
0.0
 40
3.5
 41
0.0
 71
     5
 72
     1
  1
\A1;8
 11
0.0000000000000001
 21
1.0
 31
0.0
 73
     1
 44
1.0
  0
POINT
  5
18D6
330
17EE
100
AcDbEntity
  8
DEFPOINTS
 62
     0
100
AcDbPoint
 10
160.1367472443633
 20
195.7916859134128
 30
0.0
  0
POINT
  5
18D7
330
17EE
100
AcDbEntity
  8
DEFPOINTS
 62
     0
100
AcDbPoint
 10
160.1367472443633
 20
187.7916859134127
 30
0.0
  0
POINT
  5
18D8
330
17EE
100
AcDbEntity
  8
DEFPOINTS
 62
     0
100
AcDbPoint
 10
183.1935127304508
 20
187.7916859134127
 30
0.0
  0
ENDBLK
  5
17FA
330
17EE
100
AcDbEntity
  8
0
100
AcDbBlockEnd
  0
BLOCK
  5
1815
330
180A
100
AcDbEntity
  8
0
100
AcDbBlockBegin
  2
*D5
 70
     1
 10
0.0
 20
0.0
 30
0.0
  3
*D5
  1

  0
LINE
  5
18B9
330
180A
100
AcDbEntity
  8
BEM
 62
     0
370
    -2
100
AcDbLine
 10
60.63674724436331
 20
102.3996883282806
 30
0.0
 11
60.63674724436331
 21
82.15465196757705
 31
0.0
  0
LINE
  5
18BA
330
180A
100
AcDbEntity
  8
BEM
 62
     0
370
    -2
100
AcDbLine
 10
157.6367472443632
 20
102.3996883282805
 30
0.0
 11
157.6367472443632
 21
82.15465196757705
 31
0.0
  0
LINE
  5
18BB
330
180A
100
AcDbEntity
  8
BEM
 62
     0
370
    -2
100
AcDbLine
 10
64.1367472443633
 20
83.15465196757704
 30
0.0
 11
154.1367472443632
 21
83.15465196757704
 31
0.0
  0
SOLID
  5
18BC
330
180A
100
AcDbEntity
  8
BEM
 62
     0
100
AcDbTrace
 10
64.1367472443633
 20
83.73798530091038
 30
0.0
 11
64.1367472443633
 21
82.57131863424373
 31
0.0
 12
60.63674724436331
 22
83.15465196757704
 32
0.0
 13
60.63674724436331
 23
83.15465196757704
 33
0.0
  0
SOLID
  5
18BD
330
180A
100
AcDbEntity
  8
BEM
 62
     0
100
AcDbTrace
 10
154.1367472443632
 20
83.73798530091038
 30
0.0
 11
154.1367472443632
 21
82.57131863424373
 31
0.0
 12
157.6367472443632
 22
83.15465196757704
 32
0.0
 13
157.6367472443632
 23
83.15465196757704
 33
0.0
  0
MTEXT
  5
18BE
330
180A
100
AcDbEntity
  8
BEM
 62
     1
100
AcDbMText
 10
109.1367472443633
 20
86.40465196757705
 30
0.0
 40
3.5
 41
0.0
 71
     5
 72
     1
  1
\A1;%%c97
 73
     1
 44
1.0
  0
POINT
  5
18BF
330
180A
100
AcDbEntity
  8
DEFPOINTS
 62
     0
100
AcDbPoint
 10
60.63674724436331
 20
103.3996883282806
 30
0.0
  0
POINT
  5
18C0
330
180A
100
AcDbEntity
  8
DEFPOINTS
 62
     0
100
AcDbPoint
 10
157.6367472443632
 20
103.3996883282805
 30
0.0
  0
POINT
  5
18C1
330
180A
100
AcDbEntity
  8
DEFPOINTS
 62
     0
100
AcDbPoint
 10
157.6367472443632
 20
83.15465196757704
 30
0.0
  0
ENDBLK
  5
1816
330
180A
100
AcDbEntity
  8
0
100
AcDbBlockEnd
  0
BLOCK
  5
182F
330
1824
100
AcDbEntity
  8
0
100
AcDbBlockBegin
  2
*D7
 70
     1
 10
0.0
 20
0.0
 30
0.0
  3
*D7
  1

  0
LINE
  5
18A3
330
1824
100
AcDbEntity
  8
BEM
 62
     0
370
    -2
100
AcDbLine
 10
161.1367472443633
 20
187.7916859134127
 30
0.0
 11
172.1941031704257
 21
187.7916859134127
 31
0.0
  0
LINE
  5
18A4
330
1824
100
AcDbEntity
  8
BEM
 62
     0
370
    -2
100
AcDbLine
 10
161.1367472443633
 20
181.7916859134127
 30
0.0
 11
172.1941031704257
 21
181.7916859134127
 31
0.0
  0
LINE
  5
18A5
330
1824
100
AcDbEntity
  8
BEM
 62
     0
370
    -2
100
AcDbLine
 10
171.1941031704257
 20
191.2916859134127
 30
0.0
 11
171.1941031704257
 21
194.7916859134127
 31
0.0
  0
LINE
  5
18A6
330
1824
100
AcDbEntity
  8
BEM
 62
     0
370
    -2
100
AcDbLine
 10
171.1941031704257
 20
178.2916859134127
 30
0.0
 11
171.1941031704257
 21
174.7916859134127
 31
0.0
  0
LINE
  5
18A7
330
1824
100
AcDbEntity
  8
BEM
 62
     0
370
    -2
100
AcDbLine
 10
171.1941031704257
 20
187.7916859134127
 30
0.0
 11
171.1941031704257
 21
181.7916859134127
 31
0.0
  0
SOLID
  5
18A8
330
1824
100
AcDbEntity
  8
BEM
 62
     0
100
AcDbTrace
 10
170.6107698370923
 20
191.2916859134127
 30
0.0
 11
171.777436503759
 21
191.2916859134127
 31
0.0
 12
171.1941031704257
 22
187.7916859134127
 32
0.0
 13
171.1941031704257
 23
187.7916859134127
 33
0.0
  0
SOLID
  5
18A9
330
1824
100
AcDbEntity
  8
BEM
 62
     0
100
AcDbTrace
 10
170.6107698370923
 20
178.2916859134127
 30
0.0
 11
171.777436503759
 21
178.2916859134127
 31
0.0
 12
171.1941031704257
 22
181.7916859134127
 32
0.0
 13
171.1941031704257
 23
181.7916859134127
 33
0.0
  0
MTEXT
  5
18AA
330
1824
100
AcDbEntity
  8
BEM
 62
     1
100
AcDbMText
 10
167.9441031704256
 20
184.7916859134127
 30
0.0
 40
3.5
 41
0.0
 71
     5
 72
     1
  1
\A1;6
 11
0.0000000000000001
 21
1.0
 31
0.0
 73
     1
 44
1.0
  0
POINT
  5
18AB
330
1824
100
AcDbEntity
  8
DEFPOINTS
 62
     0
100
AcDbPoint
 10
160.1367472443633
 20
187.7916859134127
 30
0.0
  0
POINT
  5
18AC
330
1824
100
AcDbEntity
  8
DEFPOINTS
 62
     0
100
AcDbPoint
 10
160.1367472443633
 20
181.7916859134127
 30
0.0
  0
POINT
  5
18AD
330
1824
100
AcDbEntity
  8
DEFPOINTS
 62
     0
100
AcDbPoint
 10
171.1941031704257
 20
181.7916859134127
 30
0.0
  0
ENDBLK
  5
1830
330
1824
100
AcDbEntity
  8
0
100
AcDbBlockEnd
  0
BLOCK
  5
183C
330
1831
100
AcDbEntity
  8
0
100
AcDbBlockBegin
  2
*D8
 70
     1
 10
0.0
 20
0.0
 30
0.0
  3
*D8
  1

  0
LINE
  5
19EE
330
1831
100
AcDbEntity
  8
BEM
 62
     0
370
    -2
100
AcDbLine
 10
60.94907719725219
 20
95.79168591341275
 30
0.0
 11
43.12554203870403
 21
95.79168591341275
 31
0.0
  0
LINE
  5
19EF
330
1831
100
AcDbEntity
  8
BEM
 62
     0
370
    -2
100
AcDbLine
 10
57.13674724436325
 20
195.7916859134128
 30
0.0
 11
43.12554203870405
 21
195.7916859134128
 31
0.0
  0
LINE
  5
19F0
330
1831
100
AcDbEntity
  8
BEM
 62
     0
370
    -2
100
AcDbLine
 10
44.12554203870403
 20
99.29168591341275
 30
0.0
 11
44.12554203870405
 21
192.2916859134128
 31
0.0
  0
SOLID
  5
19F1
330
1831
100
AcDbEntity
  8
BEM
 62
     0
100
AcDbTrace
 10
43.54220870537069
 20
99.29168591341275
 30
0.0
 11
44.70887537203736
 21
99.29168591341275
 31
0.0
 12
44.12554203870403
 22
95.79168591341275
 32
0.0
 13
44.12554203870403
 23
95.79168591341275
 33
0.0
  0
SOLID
  5
19F2
330
1831
100
AcDbEntity
  8
BEM
 62
     0
100
AcDbTrace
 10
43.54220870537072
 20
192.2916859134128
 30
0.0
 11
44.70887537203739
 21
192.2916859134128
 31
0.0
 12
44.12554203870405
 22
195.7916859134128
 32
0.0
 13
44.12554203870405
 23
195.7916859134128
 33
0.0
  0
MTEXT
  5
19F3
330
1831
100
AcDbEntity
  8
BEM
 62
     1
100
AcDbMText
 10
40.87554203870402
 20
145.7916859134128
 30
0.0
 40
3.5
 41
0.0
 71
     5
 72
     1
  1
\A1;100
 11
0.0000000000000001
 21
1.0
 31
0.0
 73
     1
 44
1.0
  0
POINT
  5
19F4
330
1831
100
AcDbEntity
  8
DEFPOINTS
 62
     0
100
AcDbPoint
 10
61.94907719725219
 20
95.79168591341275
 30
0.0
  0
POINT
  5
19F5
330
1831
100
AcDbEntity
  8
DEFPOINTS
 62
     0
100
AcDbPoint
 10
58.13674724436324
 20
195.7916859134128
 30
0.0
  0
POINT
  5
19F6
330
1831
100
AcDbEntity
  8
DEFPOINTS
 62
     0
100
AcDbPoint
 10
44.12554203870405
 20
195.7916859134128
 30
0.0
  0
ENDBLK
  5
183D
330
1831
100
AcDbEntity
  8
0
100
AcDbBlockEnd
  0
BLOCK
  5
191D
330
1911
100
AcDbEntity
  8
0
100
AcDbBlockBegin
  2
*D9
 70
     1
 10
0.0
 20
0.0
 30
0.0
  3
*D9
  1

  0
LINE
  5
1912
330
1911
100
AcDbEntity
  8
BEM
 62
     0
370
    -2
100
AcDbLine
 10
166.1367472443633
 20
223.8057417668169
 30
0.0
 11
171.3443837395912
 21
223.8057417668169
 31
0.0
  0
LINE
  5
1913
330
1911
100
AcDbEntity
  8
BEM
 62
     0
370
    -2
100
AcDbLine
 10
133.1367472443634
 20
265.3749611484701
 30
0.0
 11
140.2405654919774
 21
277.6791352810723
 31
0.0
  0
ARC
  5
1914
330
1911
100
AcDbEntity
  8
BEM
 62
     0
370
    -2
100
AcDbCircle
 10
109.1367472443633
 20
223.8057417668169
 30
0.0
 40
61.207636495228
100
AcDbArc
 50
3.276757138823617
 51
56.72324286117617
  0
SOLID
  5
1915
330
1911
100
AcDbEntity
  8
BEM
 62
     0
100
AcDbTrace
 10
170.8274093864656
 20
227.3209891268528
 30
0.0
 11
169.6612196671635
 21
227.2876327225939
 31
0.0
 12
170.3443837395912
 22
223.8057417668169
 32
0.0
 13
170.3443837395912
 23
223.8057417668169
 33
0.0
  0
SOLID
  5
1916
330
1911
100
AcDbEntity
  8
BEM
 62
     0
100
AcDbTrace
 10
142.4143894766737
 20
274.480526957724
 30
0.0
 11
143.0263718297918
 21
275.4737986781425
 31
0.0
 12
139.7405654919774
 22
276.8131098772879
 32
0.0
 13
139.7405654919774
 23
276.8131098772879
 33
0.0
  0
MTEXT
  5
1917
330
1911
100
AcDbEntity
  8
BEM
 62
     1
100
AcDbMText
 10
164.9586979171337
 20
256.0345600144308
 30
0.0
 40
3.5
 41
0.0
 71
     5
 72
     1
  1
\A1;60°
 11
0.4999999999999992
 21
-0.866025403784439
 31
0.0
 73
     1
 44
1.0
  0
POINT
  5
1918
330
1911
100
AcDbEntity
  8
DEFPOINTS
 62
     0
100
AcDbPoint
 10
166.6531115946753
 20
244.7399863735402
 30
0.0
  0
POINT
  5
1919
330
1911
100
AcDbEntity
  8
DEFPOINTS
 62
     0
100
AcDbPoint
 10
109.1367472443633
 20
223.8057417668169
 30
0.0
  0
POINT
  5
191A
330
1911
100
AcDbEntity
  8
DEFPOINTS
 62
     0
100
AcDbPoint
 10
53.13674724436329
 20
223.8057417668169
 30
0.0
  0
POINT
  5
191B
330
1911
100
AcDbEntity
  8
DEFPOINTS
 62
     0
100
AcDbPoint
 10
165.1367472443633
 20
223.8057417668169
 30
0.0
  0
POINT
  5
191C
330
1911
100
AcDbEntity
  8
DEFPOINTS
 62
     0
100
AcDbPoint
 10
132.6367472443634
 20
264.5089357446856
 30
0.0
  0
ENDBLK
  5
191E
330
1911
100
AcDbEntity
  8
0
100
AcDbBlockEnd
  0
BLOCK
  5
193B
330
192F
100
AcDbEntity
  8
0
100
AcDbBlockBegin
  2
*D10
 70
     1
 10
0.0
 20
0.0
 30
0.0
  3
*D10
  1

  0
LINE
  5
195D
330
192F
100
AcDbEntity
  8
BEM
 62
     0
370
    -2
100
AcDbLine
 10
166.1367472443633
 20
223.8057417668169
 30
0.0
 11
179.2187818542443
 21
223.8057417668169
 31
0.0
  0
ARC
  5
195E
330
192F
100
AcDbEntity
  8
BEM
 62
     0
370
    -2
100
AcDbCircle
 10
109.1367472443633
 20
223.8057417668169
 30
0.0
 40
69.08203460988104
100
AcDbArc
 50
2.903166989064732
 51
35.72515560612083
  0
SOLID
  5
195F
330
192F
100
AcDbEntity
  8
BEM
 62
     0
100
AcDbTrace
 10
178.7132652848876
 20
227.3193956932299
 30
0.0
 11
177.5469730152054
 21
227.2898414584972
 31
0.0
 12
178.2187818542443
 22
223.8057417668169
 32
0.0
 13
178.2187818542443
 23
223.8057417668169
 33
0.0
  0
MTEXT
  5
1960
330
192F
100
AcDbEntity
  8
BEM
 62
     1
100
AcDbMText
 10
171.7781267239356
 20
259.9717590717574
 30
0.0
 40
3.5
 41
0.0
 71
     5
 72
     1
  1
\A1;6x60°
 11
0.4999999999999992
 21
-0.866025403784439
 31
0.0
 73
     1
 44
1.0
  0
POINT
  5
1961
330
192F
100
AcDbEntity
  8
DEFPOINTS
 62
     0
100
AcDbPoint
 10
174.0526253961453
 20
247.4331891453172
 30
0.0
  0
POINT
  5
1962
330
192F
100
AcDbEntity
  8
DEFPOINTS
 62
     0
100
AcDbPoint
 10
53.13674724436329
 20
223.8057417668169
 30
0.0
  0
POINT
  5
1963
330
192F
100
AcDbEntity
  8
DEFPOINTS
 62
     0
100
AcDbPoint
 10
109.1367472443633
 20
223.8057417668169
 30
0.0
  0
POINT
  5
1964
330
192F
100
AcDbEntity
  8
DEFPOINTS
 62
     0
100
AcDbPoint
 10
132.6367472443634
 20
264.5089357446856
 30
0.0
  0
POINT
  5
1965
330
192F
100
AcDbEntity
  8
DEFPOINTS
 62
     0
100
AcDbPoint
 10
165.1367472443633
 20
223.8057417668169
 30
0.0
  0
ENDBLK
  5
193C
330
192F
100
AcDbEntity
  8
0
100
AcDbBlockEnd
  0
ENDSEC
  0
SECTION
  2
ENTITIES
  0
LINE
  5
57
330
1E
100
AcDbEntity
  8
STEMPEL
100
AcDbLine
 10
205.0
 20
55.00000000000003
 30
0.0
 11
14.99999999999998
 21
55.0
 31
0.0
  0
LINE
  5
5B
330
1E
100
AcDbEntity
  8
STEMPEL
100
AcDbLine
 10
67.99999999999994
 20
14.99999999999998
 30
0.0
 11
14.99999999999998
 21
14.99999999999998
 31
0.0
  0
LINE
  5
5E
330
1E
100
AcDbEntity
  8
VOLL
100
AcDbLine
 10
22.00000000000004
 20
55.00000000000003
 30
0.0
 11
21.99999999999999
 21
4.999999999999985
 31
0.0
  0
LINE
  5
5F
330
1E
100
AcDbEntity
  8
VOLL
100
AcDbLine
 10
47.00000000000005
 20
54.99999999999997
 30
0.0
 11
47.0
 21
4.999999999999985
 31
0.0
  0
LINE
  5
60
330
1E
100
AcDbEntity
  8
VOLL
100
AcDbLine
 10
57.00000000000006
 20
54.99999999999997
 30
0.0
 11
57.0
 21
4.999999999999985
 31
0.0
  0
LINE
  5
63
330
1E
100
AcDbEntity
  8
HILF
100
AcDbLine
 10
15.00000000000004
 20
50.00000000000003
 30
0.0
 11
68.00000000000006
 21
50.00000000000003
 31
0.0
  0
LINE
  5
64
330
1E
100
AcDbEntity
  8
HILF
100
AcDbLine
 10
15.00000000000004
 20
45.00000000000002
 30
0.0
 11
68.00000000000006
 21
45.00000000000002
 31
0.0
  0
LINE
  5
65
330
1E
100
AcDbEntity
  8
HILF
100
AcDbLine
 10
15.00000000000004
 20
39.99999999999997
 30
0.0
 11
68.00000000000006
 21
39.99999999999997
 31
0.0
  0
LINE
  5
66
330
1E
100
AcDbEntity
  8
HILF
100
AcDbLine
 10
15.00000000000004
 20
34.99999999999997
 30
0.0
 11
68.00000000000006
 21
34.99999999999997
 31
0.0
  0
LINE
  5
67
330
1E
100
AcDbEntity
  8
HILF
100
AcDbLine
 10
15.00000000000004
 20
29.99999999999999
 30
0.0
 11
68.00000000000006
 21
29.99999999999999
 31
0.0
  0
LINE
  5
68
330
1E
100
AcDbEntity
  8
HILF
100
AcDbLine
 10
15.00000000000004
 20
24.99999999999999
 30
0.0
 11
68.00000000000006
 21
24.99999999999999
 31
0.0
  0
LINE
  5
69
330
1E
100
AcDbEntity
  8
HILF
100
AcDbLine
 10
15.00000000000004
 20
19.99999999999998
 30
0.0
 11
68.00000000000006
 21
19.99999999999998
 31
0.0
  0
TEXT
  5
74
330
1E
100
AcDbEntity
  8
TEXT
100
AcDbText
 10
29.670358683966
 20
9.336909474920659
 30
0.0
 40
2.0
  1
Änderung
 41
0.8
  7
GREEKS
 72
     1
 11
35.04178725539457
 21
9.336909474920659
 31
0.0
100
AcDbText
  0
TEXT
  5
7B
330
1E
100
AcDbEntity
  8
TEXT
100
AcDbText
 10
19.13320553522878
 20
6.827329230135958
 30
0.0
 40
2.0
  1
Index
 50
90.0
 41
0.8
  7
GREEKS
100
AcDbText
  0
TEXT
  5
7C
330
1E
100
AcDbEntity
  8
TEXT
100
AcDbText
 10
50.04673380377405
 20
9.33578134669905
 30
0.0
 40
2.0
  1
Tag
 41
0.8
  7
GREEKS
 72
     1
 11
51.91340047044072
 21
9.33578134669905
 31
0.0
100
AcDbText
  0
TEXT
  5
7D
330
1E
100
AcDbEntity
  8
TEXT
100
AcDbText
 10
59.50613721932963
 20
9.29662108483204
 30
0.0
 40
2.0
  1
Name
 41
0.8
  7
GREEKS
 72
     1
 11
62.66804198123439
 21
9.29662108483204
 31
0.0
100
AcDbText
  0
LINE
  5
83
330
1E
100
AcDbEntity
  8
STEMPEL
100
AcDbLine
 10
19.99999999999994
 20
5.0
 30
0.0
 11
205.0
 21
5.0
 31
0.0
  0
LINE
  5
85
330
1E
100
AcDbEntity
  8
STEMPEL
100
AcDbLine
 10
205.0
 20
5.0
 30
0.0
 11
14.99999999999994
 21
5.0
 31
0.0
  0
LINE
  5
86
330
1E
100
AcDbEntity
  8
STEMPEL
100
AcDbLine
 10
205.0
 20
5.0
 30
0.0
 11
205.0
 21
292.0
 31
0.0
  0
LINE
  5
87
330
1E
100
AcDbEntity
  8
STEMPEL
100
AcDbLine
 10
15.0
 20
5.0
 30
0.0
 11
14.99999999999994
 21
292.0
 31
0.0
  0
LINE
  5
88
330
1E
100
AcDbEntity
  8
STEMPEL
100
AcDbLine
 10
205.0
 20
292.0
 30
0.0
 11
14.99999999999994
 21
292.0
 31
0.0
  0
LINE
  5
89
330
1E
100
AcDbEntity
  8
HILF
100
AcDbLine
 10
0.0
 20
0.0
 30
0.0
 11
-0.0000000000000568
 21
297.0
 31
0.0
  0
LINE
  5
8A
330
1E
100
AcDbEntity
  8
HILF
100
AcDbLine
 10
210.0
 20
297.0000000000001
 30
0.0
 11
0.0
 21
297.0
 31
0.0
  0
LINE
  5
8B
330
1E
100
AcDbEntity
  8
HILF
100
AcDbLine
 10
210.0
 20
0.0
 30
0.0
 11
0.0
 21
0.0
 31
0.0
  0
LINE
  5
8C
330
1E
100
AcDbEntity
  8
HILF
100
AcDbLine
 10
15.54383567856928
 20
148.5
 30
0.0
 11
0.0000000000000568
 21
148.5
 31
0.0
  0
LINE
  5
8E
330
1E
100
AcDbEntity
  8
HILF
100
AcDbLine
 10
210.0
 20
-0.0000000000000568
 30
0.0
 11
210.0
 21
297.0
 31
0.0
  0
TEXT
  5
8F
330
1E
100
AcDbEntity
  8
VOLL
100
AcDbText
 10
78.07675471698113
 20
31.02594776470585
 30
0.0
 40
1.8
  1

  7
GREEKS
100
AcDbText
  0
TEXT
  5
90
330
1E
100
AcDbEntity
  8
TEXT
100
AcDbText
 10
15.92754975488837
 20
55.83599999999997
 30
0.0
 40
2.5
  1
Erstellt mit AUTOCAD 2004
 41
0.8
  7
GREEKS
100
AcDbText
  0
TEXT
  5
118
330
1E
100
AcDbEntity
  8
TEXT
100
AcDbText
 10
208.6511461928583
 20
5.083950539994247
 30
0.0
 40
2.0
  1
Diese Zeichnung ist urheberrechtlich geschützt und bleibt unser Eigentum. Sie darf weder ganz noch teilweise verfielfältigt und nicht an Dritte weitergegeben werden.
 50
90.0
 41
0.8
  7
GREEKS
100
AcDbText
  0
LINE
  5
7D0
330
1E
100
AcDbEntity
  8
STEMPEL
100
AcDbLine
 10
205.0
 20
55.00000000000003
 30
0.0
 11
205.0
 21
5.0
 31
0.0
  0
TEXT
  5
7D1
330
1E
100
AcDbEntity
  8
TEXT
 62
     1
100
AcDbText
 10
173.9034692194094
 20
44.07450714456979
 30
0.0
 40
3.5
  1
16192050W
 41
0.8
  7
GREEKS
 72
     1
 11
185.370135886076
 21
44.07450714456979
 31
0.0
100
AcDbText
  0
LINE
  5
7D2
330
1E
100
AcDbEntity
  8
STEMPEL
100
AcDbLine
 10
166.0
 20
54.99999999999989
 30
0.0
 11
166.0
 21
20.0
 31
0.0
  0
TEXT
  5
7D3
330
1E
100
AcDbEntity
  8
TEXT
100
AcDbText
 10
112.4918750788913
 20
21.31487076511314
 30
0.0
 40
2.0
  1
19192050W.DWG
 41
0.8
  7
GREEKS
100
AcDbText
  0
TEXT
  5
7D4
330
1E
100
AcDbEntity
  8
TEXT
100
AcDbText
 10
112.4389701904505
 20
51.27446640058898
 30
0.0
 40
2.5
  1
Benennung
 41
0.8
  7
GREEKS
100
AcDbText
  0
TEXT
  5
7D5
330
1E
100
AcDbEntity
  8
TEXT
100
AcDbText
 10
112.371119195568
 20
15.4228028509653
 30
0.0
 40
2.5
  1
Bauvorhaben
 41
0.8
  7
GREEKS
100
AcDbText
  0
TEXT
  5
7D6
330
1E
100
AcDbEntity
  8
TEXT
100
AcDbText
 10
112.5648195562657
 20
31.10531673026162
 30
0.0
 40
2.5
  1

 41
0.8
  7
GREEKS
100
AcDbText
  0
LINE
  5
7D7
330
1E
100
AcDbEntity
  8
STEMPEL
100
AcDbLine
 10
110.0
 20
55.00000000000003
 30
0.0
 11
110.0
 21
5.0
 31
0.0
  0
LINE
  5
7D8
330
1E
100
AcDbEntity
  8
HILF
100
AcDbLine
 10
112.3868400548474
 20
42.01879123782069
 30
0.0
 11
162.4176958278155
 21
42.01879123782069
 31
0.0
  0
LINE
  5
7D9
330
1E
100
AcDbEntity
  8
HILF
100
AcDbLine
 10
112.3868400548474
 20
35.0
 30
0.0
 11
162.4176958278155
 21
35.0
 31
0.0
  0
LINE
  5
7DA
330
1E
100
AcDbEntity
  8
HILF
100
AcDbLine
 10
112.3868400548474
 20
30.0
 30
0.0
 11
162.4176958278155
 21
30.0
 31
0.0
  0
LINE
  5
7DB
330
1E
100
AcDbEntity
  8
HILF
100
AcDbLine
 10
112.3868400548474
 20
25.0
 30
0.0
 11
162.4176958278155
 21
25.0
 31
0.0
  0
TEXT
  5
7DC
330
1E
100
AcDbEntity
  8
TEXT
 62
     1
100
AcDbText
 10
113.4467865528701
 20
43.70874394626889
 30
0.0
 40
3.5
  1
Aufsatzstück DN50
 41
0.8
  7
GREEKS
100
AcDbText
  0
TEXT
  5
7DD
330
1E
100
AcDbEntity
  8
TEXT
100
AcDbText
 10
112.5648195562657
 20
25.82005971521079
 30
0.0
 40
2.5
  1
EDV-Art.Nr. 16192.050X
 41
0.8
  7
GREEKS
100
AcDbText
  0
TEXT
  5
7DE
330
1E
100
AcDbEntity
  8
TEXT
100
AcDbText
 10
112.5648195562657
 20
36.10531673026162
 30
0.0
 40
2.5
  1
für Höhenausgleich
 41
0.8
  7
GREEKS
100
AcDbText
  0
LINE
  5
7DF
330
1E
100
AcDbEntity
  8
HILF
100
AcDbLine
 10
111.7454849644942
 20
7.446991290141568
 30
0.0
 11
202.4294419663364
 21
7.446991290141568
 31
0.0
  0
LINE
  5
7E0
330
1E
100
AcDbEntity
  8
VOLL
100
AcDbLine
 10
166.0
 20
30.0
 30
0.0
 11
205.0
 21
30.0
 31
0.0
  0
LINE
  5
7E1
330
1E
100
AcDbEntity
  8
HILF
100
AcDbLine
 10
168.3619308148496
 20
41.88991818477913
 30
0.0
 11
202.4294419663364
 21
41.88991818477913
 31
0.0
  0
TEXT
  5
7E2
330
1E
100
AcDbEntity
  8
TEXT
100
AcDbText
 10
168.089377478817
 20
51.15660172685682
 30
0.0
 40
2.5
  1
Zeichnungs Nr.
 41
0.8
  7
GREEKS
100
AcDbText
  0
TEXT
  5
7E3
330
1E
100
AcDbEntity
  8
TEXT
100
AcDbText
 10
168.6200430748503
 20
26.037080889393
 30
0.0
 40
2.5
  1
ersetzt durch:
 41
0.8
  7
GREEKS
100
AcDbText
  0
TEXT
  5
7E4
330
1E
100
AcDbEntity
  8
TEXT
100
AcDbText
 10
168.3619308148496
 20
36.59059118549985
 30
0.0
 40
2.5
  1
Ersatz für:
 41
0.8
  7
GREEKS
100
AcDbText
  0
TEXT
  5
7E5
330
1E
100
AcDbEntity
  8
TEXT
100
AcDbText
 10
96.23132921131475
 20
36.65480545957612
 30
0.0
 40
2.0
  1
Name
 41
0.8
  7
GREEKS
100
AcDbText
  0
TEXT
  5
7E6
330
1E
100
AcDbEntity
  8
TEXT
100
AcDbText
 10
97.21080242906285
 20
31.54481959861755
 30
0.0
 40
2.0
  1
Koeh
 41
0.8
  7
GREEKS
 72
     1
 11
99.83937385763429
 21
31.54481959861755
 31
0.0
100
AcDbText
  0
LINE
  5
7E7
330
1E
100
AcDbEntity
  8
VOLL
100
AcDbLine
 10
90.00000000000005
 20
54.99999999999992
 30
0.0
 11
90.0
 21
20.0
 31
0.0
  0
TEXT
  5
7E8
330
1E
100
AcDbEntity
  8
TEXT
100
AcDbText
 10
81.16558365768254
 20
36.65940250614963
 30
0.0
 40
2.0
  1
Tag
 41
0.8
  7
GREEKS
100
AcDbText
  0
TEXT
  5
7E9
330
1E
100
AcDbEntity
  8
TEXT
 62
     1
100
AcDbText
 10
75.25031532409435
 20
44.07450714456979
 30
0.0
 40
3.5
  1
1:1
 41
0.8
  7
GREEKS
100
AcDbText
  0
TEXT
  5
7EA
330
1E
100
AcDbEntity
  8
TEXT
100
AcDbText
 10
80.19949855411802
 20
31.55382520412866
 30
0.0
 40
2.0
  1
29.08.
 41
0.8
  7
GREEKS
 72
     1
 11
83.70426045887993
 21
31.55382520412866
 31
0.0
100
AcDbText
  0
LINE
  5
7EB
330
1E
100
AcDbEntity
  8
VOLL
100
AcDbLine
 10
77.00000000000006
 20
39.99999999999997
 30
0.0
 11
77.00000000000006
 21
20.0
 31
0.0
  0
LINE
  5
7EC
330
1E
100
AcDbEntity
  8
STEMPEL
100
AcDbLine
 10
68.00000000000006
 20
54.99999999999997
 30
0.0
 11
68.0
 21
5.0
 31
0.0
  0
TEXT
  5
7ED
330
1E
100
AcDbEntity
  8
TEXT
100
AcDbText
 10
71.75817860751886
 20
51.23104475435443
 30
0.0
 40
2.5
  1
Maßstab
 41
0.8
  7
GREEKS
100
AcDbText
  0
TEXT
  5
7EE
330
1E
100
AcDbEntity
  8
TEXT
100
AcDbText
 10
68.79180635838077
 20
31.81495184808984
 30
0.0
 40
2.0
  1
Gez.
 41
0.8
  7
GREEKS
100
AcDbText
  0
TEXT
  5
7EF
330
1E
100
AcDbEntity
  8
TEXT
100
AcDbText
 10
68.80033886936519
 20
21.76473194824905
 30
0.0
 40
2.0
  1
Norm.
 41
0.8
  7
GREEKS
100
AcDbText
  0
TEXT
  5
7F0
330
1E
100
AcDbEntity
  8
TEXT
100
AcDbText
 10
68.77575432858361
 20
26.84463145714187
 30
0.0
 40
2.0
  1
Gepr.
 41
0.8
  7
GREEKS
100
AcDbText
  0
TEXT
  5
7F1
330
1E
100
AcDbEntity
  8
TEXT
100
AcDbText
 10
69.31105491105199
 20
36.57012735575833
 30
0.0
 40
2.0
  1
2011
 41
0.8
  7
GREEKS
100
AcDbText
  0
INSERT
  5
7F2
330
1E
100
AcDbEntity
  8
STEMPEL
100
AcDbBlockReference
  2
LOGO
 10
70.4977742728897
 20
22.51052638224161
 30
0.0
  0
LINE
  5
7F3
330
1E
100
AcDbEntity
  8
HILF
100
AcDbLine
 10
68.00000000000006
 20
35.0
 30
0.0
 11
110.0
 21
35.0
 31
0.0
  0
LINE
  5
7F4
330
1E
100
AcDbEntity
  8
HILF
100
AcDbLine
 10
68.00000000000006
 20
30.0
 30
0.0
 11
110.0
 21
30.0
 31
0.0
  0
LINE
  5
7F5
330
1E
100
AcDbEntity
  8
HILF
100
AcDbLine
 10
68.00000000000006
 20
25.0
 30
0.0
 11
110.0
 21
25.0
 31
0.0
  0
LINE
  5
7F6
330
1E
100
AcDbEntity
  8
STEMPEL
100
AcDbLine
 10
205.0
 20
20.0
 30
0.0
 11
68.00000000000006
 21
20.0
 31
0.0
  0
LINE
  5
7F7
330
1E
100
AcDbEntity
  8
STEMPEL
100
AcDbLine
 10
205.0
 20
40.0
 30
0.0
 11
68.00000000000006
 21
39.99999999999997
 31
0.0
  0
TEXT
  5
7F8
330
1E
100
AcDbEntity
  8
TEXT
100
AcDbText
 10
92.14294773670257
 20
51.20920842174095
 30
0.0
 40
2.5
  1
Zul. Abw.
 41
0.8
  7
GREEKS
100
AcDbText
  0
TEXT
  5
7F9
330
1E
100
AcDbEntity
  8
TEXT
100
AcDbText
 10
91.13285742667503
 20
43.75274617161923
 30
0.0
 40
2.0
  1
DIN EN1123-2
 41
0.8
  7
GREEKS
 72
     1
 11
99.62809552191313
 21
43.75274617161923
 31
0.0
100
AcDbText
  0
TEXT
  5
87B
330
1E
100
AcDbEntity
  8
TEXT
 62
     1
100
AcDbText
 10
185.370135886076
 20
31.20347547425183
 30
0.0
 40
3.5
  1

 41
0.8
  7
GREEKS
 72
     1
 11
185.370135886076
 21
31.20347547425183
 31
0.0
100
AcDbText
  0
DIMENSION
  5
1774
330
1E
100
AcDbEntity
  8
BEM
100
AcDbDimension
  2
*D1
 10
158.1367472443632
 20
206.6453177006213
 30
0.0
 11
109.1367472443632
 21
209.8953177006213
 31
0.0
 70
    32
  1
%%c<>
 71
     5
 42
98.0
  3
Standard
100
AcDbAlignedDimension
 13
60.13674724436325
 23
195.7916859134128
 33
0.0
 14
158.1367472443632
 24
195.7916859134127
 34
0.0
100
AcDbRotatedDimension
1001
ACAD
1000
DSTYLE
1002
{
1070
    41
1040
3.5
1070
    42
1040
1.0
1070
    43
1040
7.0
1070
    44
1040
1.0
1070
    73
1070
     0
1070
    74
1070
     0
1070
    77
1070
     1
1070
    78
1070
     8
1070
    79
1070
     2
1070
   140
1040
3.5
1070
   141
1040
1.5
1070
   146
1040
0.5
1070
   147
1040
1.5
1070
   172
1070
     1
1070
   178
1070
     1
1070
   179
1070
     2
1070
   271
1070
     2
1070
   272
1070
     2
1070
   284
1070
     8
1070
   285
1070
     8
1070
   286
1070
     8
1002
}
  0
DIMENSION
  5
1776
330
1E
100
AcDbEntity
  8
BEM
100
AcDbDimension
  2
*D3
 10
51.8358508010979
 20
165.7916859134127
 30
0.0
 11
48.58585080109787
 21
130.7916859134127
 31
0.0
 70
    32
 71
     5
 42
69.99999999999992
  3
Standard
100
AcDbAlignedDimension
 13
61.94907719725219
 23
95.79168591341275
 33
0.0
 14
60.63674724436324
 24
165.7916859134127
 34
0.0
 50
90.0
100
AcDbRotatedDimension
1001
ACAD
1000
DSTYLE
1002
{
1070
    41
1040
3.5
1070
    42
1040
1.0
1070
    43
1040
7.0
1070
    44
1040
1.0
1070
    73
1070
     0
1070
    74
1070
     0
1070
    77
1070
     1
1070
    78
1070
     8
1070
    79
1070
     2
1070
   140
1040
3.5
1070
   141
1040
1.5
1070
   146
1040
0.5
1070
   147
1040
1.5
1070
   172
1070
     1
1070
   178
1070
     1
1070
   179
1070
     2
1070
   271
1070
     2
1070
   272
1070
     2
1070
   284
1070
     8
1070
   285
1070
     8
1070
   286
1070
     8
1002
}
  0
LINE
  5
1777
102
{ACAD_REACTORS
330
199F
102
}
330
1E
100
AcDbEntity
  8
STEMPEL
100
AcDbLine
 10
58.34574974334592
 20
174.9556759174819
 30
0.0
 11
60.54717474479926
 21
166.1499759116686
 31
0.0
  0
LINE
  5
1778
102
{ACAD_REACTORS
330
199F
102
}
330
1E
100
AcDbEntity
  8
BEM
100
AcDbLine
 10
60.54717474479926
 20
166.1499759116686
 30
0.0
 11
60.63674724436324
 21
165.7916859134127
 31
0.0
  0
LINE
  5
1779
102
{ACAD_REACTORS
330
199F
102
}
330
1E
100
AcDbEntity
  8
STEMPEL
100
AcDbLine
 10
60.63674724436324
 20
165.4223690365596
 30
0.0
 11
60.63674724436331
 21
103.3996883282806
 31
0.0
  0
LINE
  5
177A
102
{ACAD_REACTORS
330
199F
102
}
330
1E
100
AcDbEntity
  8
STEMPEL
100
AcDbLine
 10
160.1367472443633
 20
181.7916859134127
 30
0.0
 11
156.1367472443633
 21
181.7916859134127
 31
0.0
  0
LINE
  5
177B
102
{ACAD_REACTORS
330
199F
102
}
330
1E
100
AcDbEntity
  8
STEMPEL
100
AcDbLine
 10
160.1367472443633
 20
187.7916859134127
 30
0.0
 11
156.1367472443633
 21
187.7916859134127
 31
0.0
  0
DIMENSION
  5
177C
330
1E
100
AcDbEntity
  8
BEM
100
AcDbDimension
  2
*D4
 10
183.1935127304508
 20
187.7916859134127
 30
0.0
 11
179.9435127304508
 21
191.7916859134128
 31
0.0
 70
    32
 71
     5
 42
8.000000000000028
  3
Standard
100
AcDbAlignedDimension
 13
160.1367472443633
 23
195.7916859134128
 33
0.0
 14
160.1367472443633
 24
187.7916859134127
 34
0.0
 50
90.0
100
AcDbRotatedDimension
1001
ACAD
1000
DSTYLE
1002
{
1070
    41
1040
3.5
1070
    42
1040
1.0
1070
    43
1040
7.0
1070
    44
1040
1.0
1070
    73
1070
     0
1070
    74
1070
     0
1070
    77
1070
     1
1070
    78
1070
     8
1070
    79
1070
     2
1070
   140
1040
3.5
1070
   141
1040
1.5
1070
   146
1040
0.5
1070
   147
1040
1.5
1070
   172
1070
     1
1070
   178
1070
     1
1070
   179
1070
     2
1070
   271
1070
     2
1070
   272
1070
     2
1070
   284
1070
     8
1070
   285
1070
     8
1070
   286
1070
     8
1002
}
  0
LINE
  5
177E
330
1E
100
AcDbEntity
  8
VERDECKT
100
AcDbLine
 10
158.1367472443633
 20
237.9478773905476
 30
0.0
 11
158.1367472443633
 21
223.805741766817
 31
0.0
  0
LINE
  5
177F
330
1E
100
AcDbEntity
  8
VERDECKT
100
AcDbLine
 10
60.13674724436325
 20
223.805741766817
 30
0.0
 11
60.13674724436325
 21
237.9478773905476
 31
0.0
  0
LINE
  5
1780
330
1E
100
AcDbEntity
  8
VERDECKT
100
AcDbLine
 10
72.38929853044751
 20
259.169918740389
 30
0.0
 11
96.88419595827907
 21
273.3120543641199
 31
0.0
  0
LINE
  5
1781
330
1E
100
AcDbEntity
  8
VERDECKT
100
AcDbLine
 10
121.389298530448
 20
273.3120543641198
 30
0.0
 11
145.8841959582788
 21
259.1699187403893
 31
0.0
  0
LINE
  5
1787
330
1E
100
AcDbEntity
  8
BEM
100
AcDbLine
 10
109.1367472443633
 20
223.805741766817
 30
0.0
 11
132.6367472443634
 21
264.5089357446856
 31
0.0
  0
LINE
  5
1788
102
{ACAD_REACTORS
330
199F
102
}
330
1E
100
AcDbEntity
  8
STEMPEL
100
AcDbLine
 10
158.1367472443632
 20
195.7916859134127
 30
0.0
 11
158.1367472443633
 21
176.6534252927362
 31
0.0
  0
LINE
  5
1789
102
{ACAD_REACTORS
330
199F
102
}
330
1E
100
AcDbEntity
  8
STEMPEL
100
AcDbLine
 10
58.13674724436324
 20
195.7916859134128
 30
0.0
 11
160.1367472443633
 21
195.7916859134128
 31
0.0
  0
LINE
  5
178A
102
{ACAD_REACTORS
330
199F
102
}
330
1E
100
AcDbEntity
  8
STEMPEL
100
AcDbLine
 10
61.94907719725219
 20
95.79168591341275
 30
0.0
 11
156.3244172914743
 21
95.79168591341275
 31
0.0
  0
ARC
  5
178B
330
1E
100
AcDbEntity
  8
STEMPEL
100
AcDbCircle
 10
109.1367472443633
 20
223.805741766817
 30
0.0
 40
45.18003037202436
100
AcDbArc
 50
0.0
 51
180.0
  0
ARC
  5
178C
330
1E
100
AcDbEntity
  8
STEMPEL
100
AcDbCircle
 10
109.1367472443633
 20
223.805741766817
 30
0.0
 40
46.5
100
AcDbArc
 50
0.0
 51
180.0
  0
LINE
  5
178D
330
1E
100
AcDbEntity
  8
STEMPEL
100
AcDbLine
 10
120.6367472443636
 20
181.7916859134127
 30
0.0
 11
144.6367472443631
 21
181.7916859134127
 31
0.0
  0
LINE
  5
178E
330
1E
100
AcDbEntity
  8
STEMPEL
100
AcDbLine
 10
120.6367472443636
 20
187.7916859134128
 30
0.0
 11
144.6367472443631
 21
187.7916859134127
 31
0.0
  0
LINE
  5
178F
330
1E
100
AcDbEntity
  8
HILF
100
AcDbLine
 10
144.6367472443631
 20
186.7916859134127
 30
0.0
 11
144.6367472443631
 21
182.7916859134127
 31
0.0
  0
LINE
  5
1790
330
1E
100
AcDbEntity
  8
HILF
100
AcDbLine
 10
120.6367472443636
 20
186.7916859134128
 30
0.0
 11
120.6367472443636
 21
182.7916859134127
 31
0.0
  0
LINE
  5
1791
330
1E
100
AcDbEntity
  8
HILF
100
AcDbLine
 10
97.63674724436299
 20
186.7916859134128
 30
0.0
 11
97.63674724436299
 21
182.7916859134127
 31
0.0
  0
LINE
  5
1792
330
1E
100
AcDbEntity
  8
HILF
100
AcDbLine
 10
73.6367472443635
 20
186.7916859134128
 30
0.0
 11
73.6367472443635
 21
182.7916859134128
 31
0.0
  0
LINE
  5
1793
330
1E
100
AcDbEntity
  8
STEMPEL
100
AcDbLine
 10
73.6367472443635
 20
181.7916859134128
 30
0.0
 11
97.63674724436294
 21
181.7916859134127
 31
0.0
  0
LINE
  5
1794
330
1E
100
AcDbEntity
  8
STEMPEL
100
AcDbLine
 10
73.6367472443635
 20
187.7916859134128
 30
0.0
 11
97.63674724436294
 21
187.7916859134128
 31
0.0
  0
LINE
  5
1795
330
1E
100
AcDbEntity
  8
STEMPEL
100
AcDbLine
 10
73.63674724436354
 20
257.5807325144102
 30
0.0
 11
97.63674724436302
 21
271.4371389749609
 31
0.0
  0
LINE
  5
1796
330
1E
100
AcDbEntity
  8
STEMPEL
100
AcDbLine
 10
120.6367472443636
 20
271.4371389749611
 30
0.0
 11
144.6367472443631
 21
257.5807325144103
 31
0.0
  0
LINE
  5
1797
330
1E
100
AcDbEntity
  8
STEMPEL
100
AcDbLine
 10
156.1367472443633
 20
237.6621482273677
 30
0.0
 11
156.1367472443633
 21
223.805741766817
 31
0.0
  0
LINE
  5
1798
330
1E
100
AcDbEntity
  8
STEMPEL
100
AcDbLine
 10
62.13674724436325
 20
223.805741766817
 30
0.0
 11
62.13674724436325
 21
237.6621482273677
 31
0.0
  0
ARC
  5
1799
330
1E
100
AcDbEntity
  8
STEMPEL
100
AcDbCircle
 10
109.1367472443633
 20
223.805741766817
 30
0.0
 40
49.0
100
AcDbArc
 50
0.0
 51
180.0
  0
ARC
  5
179A
330
1E
100
AcDbEntity
  8
STEMPEL
100
AcDbCircle
 10
109.1367472443633
 20
223.805741766817
 30
0.0
 40
51.0
100
AcDbArc
 50
0.0
 51
180.0
  0
LINE
  5
179B
330
1E
100
AcDbEntity
  8
MITTEL
100
AcDbLine
 10
53.13674724436331
 20
223.805741766817
 30
0.0
 11
165.1367472443633
 21
223.805741766817
 31
0.0
  0
LINE
  5
179C
330
1E
100
AcDbEntity
  8
MITTEL
100
AcDbLine
 10
109.1367472443633
 20
218.8057417668169
 30
0.0
 11
109.1367472443633
 21
279.8057417668171
 31
0.0
  0
DIMENSION
  5
179D
330
1E
100
AcDbEntity
  8
BEM
100
AcDbDimension
  2
*D5
 10
157.6367472443632
 20
83.15465196757704
 30
0.0
 11
109.1367472443633
 21
86.40465196757705
 31
0.0
 70
    32
  1
%%c<>
 71
     5
 42
96.99999999999995
  3
Standard
100
AcDbAlignedDimension
 13
60.63674724436331
 23
103.3996883282806
 33
0.0
 14
157.6367472443632
 24
103.3996883282805
 34
0.0
100
AcDbRotatedDimension
1001
ACAD
1000
DSTYLE
1002
{
1070
    41
1040
3.5
1070
    42
1040
1.0
1070
    43
1040
7.0
1070
    44
1040
1.0
1070
    73
1070
     0
1070
    74
1070
     0
1070
    77
1070
     1
1070
    78
1070
     8
1070
    79
1070
     2
1070
   140
1040
3.5
1070
   141
1040
1.5
1070
   146
1040
0.5
1070
   147
1040
1.5
1070
   172
1070
     1
1070
   178
1070
     1
1070
   179
1070
     2
1070
   271
1070
     2
1070
   272
1070
     2
1070
   284
1070
     8
1070
   285
1070
     8
1070
   286
1070
     8
1002
}
  0
DIMENSION
  5
179F
330
1E
100
AcDbEntity
  8
BEM
100
AcDbDimension
  2
*D7
 10
171.1941031704257
 20
181.7916859134127
 30
0.0
 11
167.9441031704256
 21
184.7916859134127
 31
0.0
 70
    32
 71
     5
 42
6.0
  3
Standard
100
AcDbAlignedDimension
 13
160.1367472443633
 23
187.7916859134127
 33
0.0
 14
160.1367472443633
 24
181.7916859134127
 34
0.0
 50
90.0
100
AcDbRotatedDimension
1001
ACAD
1000
DSTYLE
1002
{
1070
    41
1040
3.5
1070
    42
1040
1.0
1070
    43
1040
7.0
1070
    44
1040
1.0
1070
    73
1070
     0
1070
    74
1070
     0
1070
    77
1070
     1
1070
    78
1070
     8
1070
    79
1070
     2
1070
   140
1040
3.5
1070
   141
1040
1.5
1070
   146
1040
0.5
1070
   147
1040
1.5
1070
   172
1070
     1
1070
   178
1070
     1
1070
   179
1070
     2
1070
   271
1070
     2
1070
   272
1070
     2
1070
   284
1070
     8
1070
   285
1070
     8
1070
   286
1070
     8
1002
}
  0
DIMENSION
  5
17A0
330
1E
100
AcDbEntity
  8
BEM
100
AcDbDimension
  2
*D8
 10
44.12554203870405
 20
195.7916859134128
 30
0.0
 11
40.87554203870402
 21
145.7916859134128
 31
0.0
 70
    32
 71
     5
 42
100.0
  3
Standard
100
AcDbAlignedDimension
 13
61.94907719725219
 23
95.79168591341275
 33
0.0
 14
58.13674724436324
 24
195.7916859134128
 34
0.0
 50
90.0
100
AcDbRotatedDimension
1001
ACAD
1000
DSTYLE
1002
{
1070
    41
1040
3.5
1070
    42
1040
1.0
1070
    43
1040
7.0
1070
    44
1040
1.0
1070
    73
1070
     0
1070
    74
1070
     0
1070
    77
1070
     1
1070
    78
1070
     8
1070
    79
1070
     2
1070
   140
1040
3.5
1070
   141
1040
1.5
1070
   146
1040
0.5
1070
   147
1040
1.5
1070
   172
1070
     1
1070
   178
1070
     1
1070
   179
1070
     2
1070
   271
1070
     2
1070
   272
1070
     2
1070
   284
1070
     8
1070
   285
1070
     8
1070
   286
1070
     8
1002
}
  0
LINE
  5
17A1
102
{ACAD_REACTORS
330
199F
102
}
330
1E
100
AcDbEntity
  8
STEMPEL
100
AcDbLine
 10
160.1367472443633
 20
181.7916859134127
 30
0.0
 11
160.1367472443634
 21
176.6534252927362
 31
0.0
  0
LINE
  5
17A2
102
{ACAD_REACTORS
330
199F
102
}
330
1E
100
AcDbEntity
  8
STEMPEL
100
AcDbLine
 10
156.1367472443633
 20
187.7916859134127
 30
0.0
 11
156.1367472443633
 21
181.7916859134127
 31
0.0
  0
LINE
  5
17A3
102
{ACAD_REACTORS
330
199F
102
}
330
1E
100
AcDbEntity
  8
STEMPEL
100
AcDbLine
 10
58.13674724436322
 20
181.7916859134128
 30
0.0
 11
58.13674724436324
 21
176.6534252927362
 31
0.0
  0
LINE
  5
17A4
102
{ACAD_REACTORS
330
199F
102
}
330
1E
100
AcDbEntity
  8
STEMPEL
100
AcDbLine
 10
62.13674724436322
 20
187.7916859134128
 30
0.0
 11
62.13674724436322
 21
181.7916859134128
 31
0.0
  0
LINE
  5
17A5
102
{ACAD_REACTORS
330
199F
102
}
330
1E
100
AcDbEntity
  8
STEMPEL
100
AcDbLine
 10
58.13674724436322
 20
181.7916859134128
 30
0.0
 11
62.13674724436322
 21
181.7916859134128
 31
0.0
  0
LINE
  5
17A6
102
{ACAD_REACTORS
330
199F
102
}
330
1E
100
AcDbEntity
  8
STEMPEL
100
AcDbLine
 10
58.13674724436322
 20
187.7916859134128
 30
0.0
 11
62.13674724436322
 21
187.7916859134128
 31
0.0
  0
ARC
  5
17A7
102
{ACAD_REACTORS
330
199F
102
}
330
1E
100
AcDbEntity
  8
STEMPEL
100
AcDbCircle
 10
150.6367472443632
 20
103.3996883282805
 30
0.0
 40
7.0
100
AcDbArc
 50
355.0000000000003
 51
0.0
  0
ARC
  5
17A8
102
{ACAD_REACTORS
330
199F
102
}
330
1E
100
AcDbEntity
  8
STEMPEL
100
AcDbCircle
 10
67.63674724436331
 20
103.3996883282806
 30
0.0
 40
7.0
100
AcDbArc
 50
180.0
 51
184.9999999999997
  0
ARC
  5
17A9
102
{ACAD_REACTORS
330
199F
102
}
330
1E
100
AcDbEntity
  8
STEMPEL
100
AcDbCircle
 10
150.6367472443632
 20
103.3996883282791
 30
0.0
 40
5.0
100
AcDbArc
 50
355.0000000000003
 51
0.0
  0
ARC
  5
17AA
102
{ACAD_REACTORS
330
199F
102
}
330
1E
100
AcDbEntity
  8
STEMPEL
100
AcDbCircle
 10
67.63674724436331
 20
103.3996883282806
 30
0.0
 40
5.0
100
AcDbArc
 50
180.0
 51
184.9999999999997
  0
ARC
  5
17AB
102
{ACAD_REACTORS
330
199F
102
}
330
1E
100
AcDbEntity
  8
STEMPEL
100
AcDbCircle
 10
153.1367472443633
 20
176.6534252927362
 30
0.0
 40
5.0
100
AcDbArc
 50
345.9637565320731
 51
0.0
  0
ARC
  5
17AC
102
{ACAD_REACTORS
330
199F
102
}
330
1E
100
AcDbEntity
  8
STEMPEL
100
AcDbCircle
 10
160.6367472443632
 20
165.4223690365596
 30
0.0
 40
3.0
100
AcDbArc
 50
165.9637565320731
 51
180.0
  0
ARC
  5
17AD
102
{ACAD_REACTORS
330
199F
102
}
330
1E
100
AcDbEntity
  8
STEMPEL
100
AcDbCircle
 10
160.6367472443632
 20
165.4223690365596
 30
0.0
 40
5.0
100
AcDbArc
 50
165.9637565320731
 51
180.0
  0
LINE
  5
17AE
102
{ACAD_REACTORS
330
199F
102
}
330
1E
100
AcDbEntity
  8
STEMPEL
100
AcDbLine
 10
157.98745974509
 20
175.4407471675545
 30
0.0
 11
155.7860347436365
 21
166.6350471617414
 31
0.0
  0
ARC
  5
17AF
102
{ACAD_REACTORS
330
199F
102
}
330
1E
100
AcDbEntity
  8
STEMPEL
100
AcDbCircle
 10
153.1367472443633
 20
176.6534252927362
 30
0.0
 40
7.0
100
AcDbArc
 50
345.9637565320731
 51
0.0
  0
LINE
  5
17B0
102
{ACAD_REACTORS
330
199F
102
}
330
1E
100
AcDbEntity
  8
STEMPEL
100
AcDbLine
 10
159.9277447453807
 20
174.9556759174818
 30
0.0
 11
157.7263197439273
 21
166.1499759116686
 31
0.0
  0
ARC
  5
17B1
330
1E
100
AcDbEntity
  8
STEMPEL
100
AcDbCircle
 10
57.63674724436336
 20
165.4223690365596
 30
0.0
 40
3.0
100
AcDbArc
 50
0.0
 51
14.03624346792687
  0
ARC
  5
17B2
102
{ACAD_REACTORS
330
199F
102
}
330
1E
100
AcDbEntity
  8
STEMPEL
100
AcDbCircle
 10
65.13674724436325
 20
176.6534252927362
 30
0.0
 40
7.0
100
AcDbArc
 50
180.0
 51
194.0362434679268
  0
ARC
  5
17B3
102
{ACAD_REACTORS
330
199F
102
}
330
1E
100
AcDbEntity
  8
STEMPEL
100
AcDbCircle
 10
57.63674724436336
 20
165.4223690365596
 30
0.0
 40
5.0
100
AcDbArc
 50
0.0
 51
14.03624346792687
  0
ARC
  5
17B4
102
{ACAD_REACTORS
330
199F
102
}
330
1E
100
AcDbEntity
  8
STEMPEL
100
AcDbCircle
 10
65.13674724436325
 20
176.6534252927362
 30
0.0
 40
5.0
100
AcDbArc
 50
180.0
 51
194.0362434679268
  0
LINE
  5
17B5
102
{ACAD_REACTORS
330
199F
102
}
330
1E
100
AcDbEntity
  8
STEMPEL
100
AcDbLine
 10
60.2860347436366
 20
175.4407471675545
 30
0.0
 11
62.48745974509001
 21
166.6350471617414
 31
0.0
  0
LINE
  5
17B6
102
{ACAD_REACTORS
330
199F
102
}
330
1E
100
AcDbEntity
  8
STEMPEL
100
AcDbLine
 10
62.65577375390458
 20
102.9639096145423
 30
0.0
 11
63.95671687233894
 21
95.79168591341275
 31
0.0
  0
LINE
  5
17B7
102
{ACAD_REACTORS
330
199F
102
}
330
1E
100
AcDbEntity
  8
STEMPEL
100
AcDbLine
 10
60.66338435772101
 20
102.789598129047
 30
0.0
 11
61.94907719725219
 21
95.79168591341275
 31
0.0
  0
LINE
  5
17B8
102
{ACAD_REACTORS
330
199F
102
}
330
1E
100
AcDbEntity
  8
STEMPEL
100
AcDbLine
 10
155.6177207348219
 20
102.9639096145409
 30
0.0
 11
154.3167776163876
 21
95.79168591341275
 31
0.0
  0
LINE
  5
17B9
102
{ACAD_REACTORS
330
199F
102
}
330
1E
100
AcDbEntity
  8
STEMPEL
100
AcDbLine
 10
157.6101101310056
 20
102.7895981290469
 30
0.0
 11
156.3244172914743
 21
95.79168591341275
 31
0.0
  0
LINE
  5
17BA
330
1E
100
AcDbEntity
  8
HILF
100
AcDbLine
 10
65.65584643208009
 20
103.0940617279195
 30
0.0
 11
152.6176480566464
 21
103.0940617279194
 31
0.0
  0
LINE
  5
17BB
330
1E
100
AcDbEntity
  8
HILF
100
AcDbLine
 10
63.29062927638526
 20
175.7916859134127
 30
0.0
 11
154.9828652123413
 21
175.7916859134127
 31
0.0
  0
LINE
  5
17BC
330
1E
100
AcDbEntity
  8
HILF
100
AcDbLine
 10
65.79062927638537
 20
165.7916859134127
 30
0.0
 11
152.4828652123412
 21
165.7916859134127
 31
0.0
  0
LINE
  5
17BD
102
{ACAD_REACTORS
330
199F
102
}
330
1E
100
AcDbEntity
  8
STEMPEL
100
AcDbLine
 10
155.6367472443632
 20
165.4223690365596
 30
0.0
 11
155.6367472443632
 21
103.3996883282791
 31
0.0
  0
LINE
  5
17BE
102
{ACAD_REACTORS
330
199F
102
}
330
1E
100
AcDbEntity
  8
STEMPEL
100
AcDbLine
 10
62.63674724436336
 20
165.4223690365596
 30
0.0
 11
62.63674724436331
 21
103.3996883282806
 31
0.0
  0
LINE
  5
17BF
102
{ACAD_REACTORS
330
199F
102
}
330
1E
100
AcDbEntity
  8
STEMPEL
100
AcDbLine
 10
157.6367472443632
 20
165.4223690365596
 30
0.0
 11
157.6367472443632
 21
103.3996883282805
 31
0.0
  0
LINE
  5
17C0
102
{ACAD_REACTORS
330
199F
102
}
330
1E
100
AcDbEntity
  8
BEM
100
AcDbLine
 10
60.63674724436324
 20
165.7916859134127
 30
0.0
 11
60.63674724436324
 21
165.4223690365596
 31
0.0
  0
LINE
  5
17C1
102
{ACAD_REACTORS
330
199F
102
}
330
1E
100
AcDbEntity
  8
STEMPEL
100
AcDbLine
 10
160.1367472443633
 20
195.7916859134128
 30
0.0
 11
160.1367472443633
 21
187.7916859134127
 31
0.0
  0
LINE
  5
17C2
330
1E
100
AcDbEntity
  8
MITTEL
100
AcDbLine
 10
109.1367472443633
 20
200.7916859134128
 30
0.0
 11
109.1367472443632
 21
90.79168591341275
 31
0.0
  0
LINE
  5
17C3
102
{ACAD_REACTORS
330
199F
102
}
330
1E
100
AcDbEntity
  8
STEMPEL
100
AcDbLine
 10
60.13674724436325
 20
195.7916859134128
 30
0.0
 11
60.13674724436325
 21
176.6534252927362
 31
0.0
  0
LINE
  5
17C4
102
{ACAD_REACTORS
330
199F
102
}
330
1E
100
AcDbEntity
  8
STEMPEL
100
AcDbLine
 10
58.13674724436324
 20
195.7916859134128
 30
0.0
 11
58.13674724436322
 21
187.7916859134128
 31
0.0
  0
TEXT
  5
17C5
330
1E
100
AcDbEntity
  8
TEXT
 62
     1
100
AcDbText
 10
26.19452243710708
 20
73.06845383225596
 30
0.0
 40
3.5
  1
Rohrende leicht eingezogen
 41
0.8
  7
GREEKS
100
AcDbText
  0
DIMENSION
  5
1910
330
1E
100
AcDbEntity
  8
BEM
100
AcDbDimension
  2
*D9
 10
132.6367472443634
 20
264.5089357446856
 30
0.0
 11
164.9586979171337
 21
256.0345600144308
 31
0.0
 70
    34
 71
     5
 42
1.047197551196595
  3
Standard
100
AcDb2LineAngularDimension
 13
53.13674724436331
 23
223.805741766817
 33
0.0
 14
165.1367472443633
 24
223.805741766817
 34
0.0
 15
109.1367472443633
 25
223.805741766817
 35
0.0
 16
166.6531115946753
 26
244.7399863735402
 36
0.0
1001
ACAD
1000
DSTYLE
1002
{
1070
    41
1040
3.5
1070
    42
1040
1.0
1070
    43
1040
7.0
1070
    44
1040
1.0
1070
    73
1070
     0
1070
    74
1070
     0
1070
    77
1070
     1
1070
    78
1070
     8
1070
    79
1070
     2
1070
   140
1040
3.5
1070
   141
1040
1.5
1070
   146
1040
0.5
1070
   147
1040
1.5
1070
   172
1070
     1
1070
   178
1070
     1
1070
   179
1070
     2
1070
   271
1070
     2
1070
   272
1070
     2
1070
   284
1070
     8
1070
   285
1070
     8
1070
   286
1070
     8
1002
}
  0
DIMENSION
  5
192E
330
1E
100
AcDbEntity
  8
BEM
100
AcDbDimension
  2
*D10
 10
165.1367472443633
 20
223.805741766817
 30
0.0
 11
171.7781267239356
 21
259.9717590717574
 31
0.0
 70
    34
  1
6x<>
 71
     5
 42
1.047197551196595
  3
Standard
100
AcDb2LineAngularDimension
 13
109.1367472443633
 23
223.805741766817
 33
0.0
 14
132.6367472443634
 24
264.5089357446856
 34
0.0
 15
53.13674724436331
 25
223.805741766817
 35
0.0
 16
174.0526253961453
 26
247.4331891453172
 36
0.0
1001
ACAD
1000
DSTYLE
1002
{
1070
    76
1070
     1
1070
   282
1070
     1
1070
    41
1040
3.5
1070
    42
1040
1.0
1070
    43
1040
7.0
1070
    44
1040
1.0
1070
    73
1070
     0
1070
    74
1070
     0
1070
    77
1070
     1
1070
    78
1070
     8
1070
    79
1070
     2
1070
   140
1040
3.5
1070
   141
1040
1.5
1070
   146
1040
0.5
1070
   147
1040
1.5
1070
   172
1070
     1
1070
   178
1070
     1
1070
   179
1070
     2
1070
   271
1070
     2
1070
   272
1070
     2
1070
   284
1070
     8
1070
   285
1070
     8
1070
   286
1070
     8
1002
}
  0
HATCH
  5
199F
330
1E
100
AcDbEntity
  8
SCHRAFF
100
AcDbHatch
 10
0.0
 20
0.0
 30
0.0
210
0.0
220
0.0
230
1.0
  2
_USER
 70
     0
 71
     1
 91
        6
 92
        7
 72
     0
 73
     1
 93
        4
 10
160.1367472443633
 20
195.7916859134128
 10
158.1367472443632
 20
195.7916859134128
 10
158.1367472443633
 20
187.7916859134127
 10
160.1367472443633
 20
187.7916859134127
 97
        4
330
1789
330
1788
330
177B
330
17C1
 92
        7
 72
     0
 73
     1
 93
        4
 10
158.1367472443632
 20
187.7916859134127
 10
156.1367472443633
 20
187.7916859134127
 10
156.1367472443633
 20
181.7916859134127
 10
158.1367472443633
 20
181.7916859134127
 97
        4
330
177B
330
17A2
330
177A
330
1788
 92
        7
 72
     1
 73
     1
 93
       16
 10
160.1367472443633
 20
181.7916859134127
 42
0.0
 10
158.1367472443633
 20
181.7916859134127
 42
0.0
 10
158.1367472443633
 20
176.6534252927362
 42
-0.0613213552369756
 10
157.98745974509
 20
175.4407471675545
 42
0.0
 10
155.7860347436365
 20
166.6350471617414
 42
0.0613213552369698
 10
155.6367472443632
 20
165.4223690365597
 42
0.0
 10
155.6367472443632
 20
103.3996883282791
 42
-0.0218200776221484
 10
155.6177207348219
 20
102.9639096145409
 42
0.0
 10
154.3167776163875
 20
95.79168591341275
 42
0.0
 10
156.3244172914743
 20
95.79168591341275
 42
0.0
 10
157.6101101310056
 20
102.7895981290469
 42
0.0218200776221492
 10
157.6367472443632
 20
103.3996883282805
 42
0.0
 10
157.6367472443632
 20
165.4223690365596
 42
-0.0613213552369704
 10
157.7263197439273
 20
166.1499759116686
 42
0.0
 10
159.9277447453807
 20
174.9556759174818
 42
0.0613213552369742
 10
160.1367472443634
 20
176.6534252927362
 42
0.0
 97
       16
330
177A
330
1788
330
17AB
330
17AE
330
17AD
330
17BD
330
17A9
330
17B8
330
178A
330
17B9
330
17A7
330
17BF
330
17AC
330
17B0
330
17AF
330
17A1
 92
        7
 72
     0
 73
     1
 93
        4
 10
58.13674724436324
 20
187.7916859134128
 10
60.13674724436325
 20
187.7916859134128
 10
60.13674724436326
 20
195.7916859134128
 10
58.13674724436324
 20
195.7916859134127
 97
        4
330
1789
330
17C4
330
17A6
330
17C3
 92
        7
 72
     0
 73
     1
 93
        4
 10
62.13674724436322
 20
187.7916859134128
 10
60.13674724436325
 20
187.7916859134128
 10
60.13674724436325
 20
181.7916859134128
 10
62.13674724436323
 20
181.7916859134128
 97
        4
330
17A6
330
17C3
330
17A5
330
17A4
 92
        7
 72
     1
 73
     1
 93
       17
 10
58.13674724436324
 20
176.6534252927362
 42
0.0613213552369732
 10
58.34574974334593
 20
174.9556759174819
 42
0.0
 10
60.54717474479926
 20
166.1499759116686
 42
0.0
 10
60.63674724436324
 20
165.7916859134127
 42
0.0
 10
60.63674724436324
 20
165.4223690365596
 42
0.0
 10
60.63674724436331
 20
103.3996883282806
 42
0.0218200776221759
 10
60.66338435772116
 20
102.7895981290462
 42
0.0
 10
61.94907719725219
 20
95.79168591341273
 42
0.0
 10
63.95671687233895
 20
95.79168591341273
 42
0.0
 10
62.65577375390458
 20
102.9639096145423
 42
-0.0218200776221484
 10
62.63674724436331
 20
103.3996883282806
 42
0.0
 10
62.63674724436336
 20
165.4223690365596
 42
0.0613213552369772
 10
62.48745974509001
 20
166.6350471617414
 42
0.0
 10
60.2860347436366
 20
175.4407471675545
 42
-0.0613213552369771
 10
60.13674724436325
 20
176.6534252927362
 42
0.0
 10
60.13674724436325
 20
181.7916859134128
 42
0.0
 10
58.13674724436324
 20
181.7916859134128
 42
0.0
 97
       17
330
17A5
330
17A3
330
17B2
330
1777
330
1778
330
17C0
330
1779
330
17A8
330
17B7
330
178A
330
17B6
330
17AA
330
17BE
330
17B3
330
17B5
330
17B4
330
17C3
 75
     0
 76
     0
 52
45.0
 41
2.0
 77
     0
 78
     1
 53
45.0
 43
0.0
 44
0.0
 45
-1.414213562373094
 46
1.414213562373095
 79
     0
 47
0.2200149226774148
 98
        6
 10
159.6750048246567
 20
190.8922640094972
 10
157.4735276811136
 20
185.6119062145502
 10
159.6750048246567
 20
178.1313987561903
 10
58.84738163368433
 20
192.8723987065689
 10
61.70930072530381
 20
184.731846349185
 10
59.06752967394414
 20
180.1115327546399
  0
TEXT
  5
19B7
330
1E
100
AcDbEntity
  8
TEXT
 62
     1
100
AcDbText
 10
130.6765253689978
 20
62.62619101937115
 30
0.0
 40
3.5
  1
innen und außen beschichtet
 41
0.8
  7
GREEKS
100
AcDbText
  0
TEXT
  5
19B8
330
1E
100
AcDbEntity
  8
TEXT
 62
     1
100
AcDbText
 10
106.7016666502989
 20
67.98724692687288
 30
0.0
 40
3.5
  1
Werkstoff: E195 EN10305 feuerverzinkt
 41
0.8
  7
GREEKS
100
AcDbText
  0
ENDSEC
  0
SECTION
  2
OBJECTS
  0
DICTIONARY
  5
C
330
0
100
AcDbDictionary
281
     1
  3
ACAD_COLOR
350
DF
  3
ACAD_GROUP
350
D
  3
ACAD_LAYOUT
350
19
  3
ACAD_MATERIAL
350
DE
  3
ACAD_MLINESTYLE
350
16
  3
ACAD_PLOTSETTINGS
350
18
  3
ACAD_PLOTSTYLENAME
350
E
  3
AcDbVariableDictionary
350
EA
  0
DICTIONARY
  5
A0
330
1E
100
AcDbDictionary
280
     1
281
     1
  3
ACAD_LAYOUTSELFREF
360
D4
  0
DICTIONARY
  5
A2
330
1A
100
AcDbDictionary
280
     1
281
     1
  3
ACAD_LAYOUTSELFREF
360
D3
  0
DICTIONARY
  5
DF
102
{ACAD_REACTORS
330
C
102
}
330
C
100
AcDbDictionary
281
     1
  0
DICTIONARY
  5
D
102
{ACAD_REACTORS
330
C
102
}
330
C
100
AcDbDictionary
281
     1
  0
DICTIONARY
  5
19
102
{ACAD_REACTORS
330
C
102
}
330
C
100
AcDbDictionary
281
     1
  3
Layout1
350
1D
  3
Model
350
21
  0
DICTIONARY
  5
DE
102
{ACAD_REACTORS
330
C
102
}
330
C
100
AcDbDictionary
281
     1
  0
DICTIONARY
  5
16
102
{ACAD_REACTORS
330
C
102
}
330
C
100
AcDbDictionary
281
     1
  3
Standard
350
17
  0
DICTIONARY
  5
18
102
{ACAD_REACTORS
330
C
102
}
330
C
100
AcDbDictionary
281
     1
  0
ACDBDICTIONARYWDFLT
  5
E
102
{ACAD_REACTORS
330
C
102
}
330
C
100
AcDbDictionary
281
     1
  3
Normal
350
F
100
AcDbDictionaryWithDefault
340
F
  0
DICTIONARY
  5
EA
102
{ACAD_REACTORS
330
C
102
}
330
C
100
AcDbDictionary
281
     1
  3
DIMASSOC
350
EB
  3
PROJECTNAME
350
EC
  0
XRECORD
  5
D4
102
{ACAD_REACTORS
330
A0
102
}
330
A0
100
AcDbXrecord
280
     1
340
1E
  0
XRECORD
  5
D3
102
{ACAD_REACTORS
330
A2
102
}
330
A2
100
AcDbXrecord
280
     1
340
1A
  0
LAYOUT
  5
1D
102
{ACAD_REACTORS
330
19
102
}
330
19
100
AcDbPlotSettings
  1

  2
\\NT_WORK01\HP LaserJet 5000 PCL 6
  4

  6

 40
0.0
 41
0.0
 42
0.0
 43
0.0
 44
0.0
 45
0.0
 46
0.0
 47
0.0
 48
0.0
 49
0.0
140
0.0
141
0.0
142
1.0
143
1.0
 70
   688
 72
     0
 73
     0
 74
     5
  7

 75
    16
147
1.0
 76
     0
 77
     2
 78
   300
148
0.0
149
0.0
100
AcDbLayout
  1
Layout1
 70
     0
 71
     1
 10
0.0
 20
0.0
 11
12.0
 21
9.0
 12
0.0
 22
0.0
 32
0.0
 14
1.000000000000000E+20
 24
1.000000000000000E+20
 34
1.000000000000000E+20
 15
-1.000000000000000E+20
 25
-1.000000000000000E+20
 35
-1.000000000000000E+20
146
0.0
 13
0.0
 23
0.0
 33
0.0
 16
1.0
 26
0.0
 36
0.0
 17
0.0
 27
1.0
 37
0.0
 76
     0
330
1A
  0
LAYOUT
  5
21
102
{ACAD_REACTORS
330
19
102
}
330
19
100
AcDbPlotSettings
  1

  2
none_device
  4
Letter_(8.50_x_11.00_Inches)
  6

 40
6.349999904632568
 41
6.349999904632568
 42
6.350006103515625
 43
6.350006103515625
 44
215.8999938964844
 45
279.3999938964844
 46
0.0
 47
0.0
 48
0.0
 49
0.0
140
0.0
141
0.0
142
1.0
143
1.0
 70
 11952
 72
     0
 73
     1
 74
     0
  7

 75
     0
147
1.0
 76
     0
 77
     2
 78
   300
148
1104.900000000001
149
0.0
100
AcDbLayout
  1
Model
 70
     1
 71
     0
 10
0.0
 20
0.0
 11
12.0
 21
9.0
 12
0.0
 22
0.0
 32
0.0
 14
0.0
 24
0.0
 34
0.0
 15
0.0
 25
0.0
 35
0.0
146
0.0
 13
0.0
 23
0.0
 33
0.0
 16
1.0
 26
0.0
 36
0.0
 17
0.0
 27
1.0
 37
0.0
 76
     0
330
1E
  0
MLINESTYLE
  5
17
102
{ACAD_REACTORS
330
16
102
}
330
16
100
AcDbMlineStyle
  2
STANDARD
 70
     0
  3

 62
   256
 51
90.0
 52
90.0
 71
     2
 49
0.5
 62
   256
  6
BYLAYER
 49
-0.5
 62
   256
  6
BYLAYER
  0
ACDBPLACEHOLDER
  5
F
102
{ACAD_REACTORS
330
E
102
}
330
E
  0
DICTIONARYVAR
  5
EB
102
{ACAD_REACTORS
330
EA
102
}
330
EA
100
DictionaryVariables
280
     0
  1
1
  0
DICTIONARYVAR
  5
EC
102
{ACAD_REACTORS
330
EA
102
}
330
EA
100
DictionaryVariables
280
     0
  1

  0
ENDSEC
  0
EOF
