  0
SECTION
  2
HEADER
  9
$ACADVER
  1
AC1018
  9
$ACADMAINTVER
 70
     2
  9
$DWGCODEPAGE
  3
ANSI_1252
  9
$INSBASE
 10
0.0
 20
0.0
 30
0.0
  9
$EXTMIN
 10
-0.0180990876133365
 20
-0.0255946693530405
 30
-0.0000000000000053
  9
$EXTMAX
 10
594.0181412725178
 20
840.0256543247733
 30
0.0000000000000099
  9
$LIMMIN
 10
0.0
 20
0.0
  9
$LIMMAX
 10
594.0
 20
840.0000000000002
  9
$ORTHOMODE
 70
     1
  9
$REGENMODE
 70
     1
  9
$FILLMODE
 70
     1
  9
$QTEXTMODE
 70
     0
  9
$MIRRTEXT
 70
     1
  9
$LTSCALE
 40
20.0
  9
$ATTMODE
 70
     1
  9
$TEXTSIZE
 40
3.5
  9
$TRACEWID
 40
1.0
  9
$TEXTSTYLE
  7
STANDARD
  9
$CLAYER
  8
VOLL
  9
$CELTYPE
  6
ByLayer
  9
$CECOLOR
 62
   256
  9
$CELTSCALE
 40
1.0
  9
$DISPSILH
 70
     0
  9
$DIMSCALE
 40
2.0
  9
$DIMASZ
 40
3.5
  9
$DIMEXO
 40
1.0
  9
$DIMDLI
 40
7.0
  9
$DIMRND
 40
0.0
  9
$DIMDLE
 40
0.0
  9
$DIMEXE
 40
1.0
  9
$DIMTP
 40
1.0
  9
$DIMTM
 40
1.0
  9
$DIMTXT
 40
3.5
  9
$DIMCEN
 40
1.5
  9
$DIMTSZ
 40
0.0
  9
$DIMTOL
 70
     0
  9
$DIMLIM
 70
     0
  9
$DIMTIH
 70
     0
  9
$DIMTOH
 70
     0
  9
$DIMSE1
 70
     0
  9
$DIMSE2
 70
     0
  9
$DIMTAD
 70
     1
  9
$DIMZIN
 70
     8
  9
$DIMBLK
  1

  9
$DIMASO
 70
     1
  9
$DIMSHO
 70
     0
  9
$DIMPOST
  1

  9
$DIMAPOST
  1

  9
$DIMALT
 70
     0
  9
$DIMALTD
 70
     2
  9
$DIMALTF
 40
25.4
  9
$DIMLFAC
 40
1.0
  9
$DIMTOFL
 70
     1
  9
$DIMTVP
 40
0.2857142857142857
  9
$DIMTIX
 70
     0
  9
$DIMSOXD
 70
     0
  9
$DIMSAH
 70
     0
  9
$DIMBLK1
  1

  9
$DIMBLK2
  1

  9
$DIMSTYLE
  2
Standard
  9
$DIMCLRD
 70
     0
  9
$DIMCLRE
 70
     0
  9
$DIMCLRT
 70
     1
  9
$DIMTFAC
 40
0.5142857142857144
  9
$DIMGAP
 40
1.5
  9
$DIMJUST
 70
     0
  9
$DIMSD1
 70
     0
  9
$DIMSD2
 70
     0
  9
$DIMTOLJ
 70
     1
  9
$DIMTZIN
 70
     8
  9
$DIMALTZ
 70
     8
  9
$DIMALTTZ
 70
     8
  9
$DIMUPT
 70
     0
  9
$DIMDEC
 70
     2
  9
$DIMTDEC
 70
     2
  9
$DIMALTU
 70
     2
  9
$DIMALTTD
 70
     2
  9
$DIMTXSTY
  7
STANDARD
  9
$DIMAUNIT
 70
     0
  9
$DIMADEC
 70
     2
  9
$DIMALTRND
 40
0.0
  9
$DIMAZIN
 70
     2
  9
$DIMDSEP
 70
    46
  9
$DIMATFIT
 70
     3
  9
$DIMFRAC
 70
     0
  9
$DIMLDRBLK
  1

  9
$DIMLUNIT
 70
     2
  9
$DIMLWD
 70
    -2
  9
$DIMLWE
 70
    -2
  9
$DIMTMOVE
 70
     0
  9
$LUNITS
 70
     2
  9
$LUPREC
 70
     2
  9
$SKETCHINC
 40
1.0
  9
$FILLETRAD
 40
12.0
  9
$AUNITS
 70
     0
  9
$AUPREC
 70
     0
  9
$MENU
  1
ACAD
  9
$ELEVATION
 40
0.0
  9
$PELEVATION
 40
0.0
  9
$THICKNESS
 40
0.0
  9
$LIMCHECK
 70
     0
  9
$CHAMFERA
 40
0.0
  9
$CHAMFERB
 40
0.0
  9
$CHAMFERC
 40
0.0
  9
$CHAMFERD
 40
0.0
  9
$SKPOLY
 70
     0
  9
$TDCREATE
 40
2452535.582627778
  9
$TDUCREATE
 40
2452535.499294445
  9
$TDUPDATE
 40
2455461.583071968
  9
$TDUUPDATE
 40
2455461.499738634
  9
$TDINDWG
 40
0.1690454398
  9
$TDUSRTIMER
 40
0.1690454398
  9
$USRTIMER
 70
     1
  9
$ANGBASE
 50
0.0
  9
$ANGDIR
 70
     0
  9
$PDMODE
 70
     0
  9
$PDSIZE
 40
0.0
  9
$PLINEWID
 40
0.0
  9
$SPLFRAME
 70
     0
  9
$SPLINETYPE
 70
     6
  9
$SPLINESEGS
 70
     8
  9
$HANDSEED
  5
ABF
  9
$SURFTAB1
 70
     6
  9
$SURFTAB2
 70
     6
  9
$SURFTYPE
 70
     6
  9
$SURFU
 70
     6
  9
$SURFV
 70
     6
  9
$UCSBASE
  2

  9
$UCSNAME
  2

  9
$UCSORG
 10
0.0
 20
0.0
 30
0.0
  9
$UCSXDIR
 10
1.0
 20
0.0
 30
0.0
  9
$UCSYDIR
 10
0.0
 20
1.0
 30
0.0
  9
$UCSORTHOREF
  2

  9
$UCSORTHOVIEW
 70
     0
  9
$UCSORGTOP
 10
0.0
 20
0.0
 30
0.0
  9
$UCSORGBOTTOM
 10
0.0
 20
0.0
 30
0.0
  9
$UCSORGLEFT
 10
0.0
 20
0.0
 30
0.0
  9
$UCSORGRIGHT
 10
0.0
 20
0.0
 30
0.0
  9
$UCSORGFRONT
 10
0.0
 20
0.0
 30
0.0
  9
$UCSORGBACK
 10
0.0
 20
0.0
 30
0.0
  9
$PUCSBASE
  2

  9
$PUCSNAME
  2

  9
$PUCSORG
 10
0.0
 20
0.0
 30
0.0
  9
$PUCSXDIR
 10
1.0
 20
0.0
 30
0.0
  9
$PUCSYDIR
 10
0.0
 20
1.0
 30
0.0
  9
$PUCSORTHOREF
  2

  9
$PUCSORTHOVIEW
 70
     0
  9
$PUCSORGTOP
 10
0.0
 20
0.0
 30
0.0
  9
$PUCSORGBOTTOM
 10
0.0
 20
0.0
 30
0.0
  9
$PUCSORGLEFT
 10
0.0
 20
0.0
 30
0.0
  9
$PUCSORGRIGHT
 10
0.0
 20
0.0
 30
0.0
  9
$PUCSORGFRONT
 10
0.0
 20
0.0
 30
0.0
  9
$PUCSORGBACK
 10
0.0
 20
0.0
 30
0.0
  9
$USERI1
 70
     0
  9
$USERI2
 70
     0
  9
$USERI3
 70
     0
  9
$USERI4
 70
     0
  9
$USERI5
 70
     0
  9
$USERR1
 40
0.0
  9
$USERR2
 40
0.0
  9
$USERR3
 40
0.0
  9
$USERR4
 40
0.0
  9
$USERR5
 40
0.0
  9
$WORLDVIEW
 70
     1
  9
$SHADEDGE
 70
     3
  9
$SHADEDIF
 70
    70
  9
$TILEMODE
 70
     1
  9
$MAXACTVP
 70
    16
  9
$PINSBASE
 10
3.174945865668594
 20
50.00000000000001
 30
-1.45999203468817
  9
$PLIMCHECK
 70
     0
  9
$PEXTMIN
 10
1.000000000000000E+20
 20
1.000000000000000E+20
 30
1.000000000000000E+20
  9
$PEXTMAX
 10
-1.000000000000000E+20
 20
-1.000000000000000E+20
 30
-1.000000000000000E+20
  9
$PLIMMIN
 10
0.0
 20
0.0
  9
$PLIMMAX
 10
12.0
 20
9.0
  9
$UNITMODE
 70
     0
  9
$VISRETAIN
 70
     0
  9
$PLINEGEN
 70
     0
  9
$PSLTSCALE
 70
     0
  9
$TREEDEPTH
 70
  3020
  9
$CMLSTYLE
  2
Standard
  9
$CMLJUST
 70
     0
  9
$CMLSCALE
 40
1.0
  9
$PROXYGRAPHICS
 70
     1
  9
$MEASUREMENT
 70
     0
  9
$CELWEIGHT
370
    -1
  9
$ENDCAPS
280
     0
  9
$JOINSTYLE
280
     0
  9
$LWDISPLAY
290
     0
  9
$INSUNITS
 70
     0
  9
$HYPERLINKBASE
  1

  9
$STYLESHEET
  1
monochrome 1.ctb
  9
$XEDIT
290
     1
  9
$CEPSNTYPE
380
     0
  9
$PSTYLEMODE
290
     1
  9
$FINGERPRINTGUID
  2
{2F496D37-B4B8-4BB7-A815-5C50E6A3BE86}
  9
$VERSIONGUID
  2
{39132956-617C-410B-84FB-DB86952E78E2}
  9
$EXTNAMES
290
     1
  9
$PSVPSCALE
 40
0.0
  9
$OLESTARTUP
290
     0
  9
$SORTENTS
280
   127
  9
$INDEXCTL
280
     0
  9
$HIDETEXT
280
     1
  9
$XCLIPFRAME
290
     0
  9
$HALOGAP
280
     0
  9
$OBSCOLOR
 70
   257
  9
$OBSLTYPE
280
     0
  9
$INTERSECTIONDISPLAY
280
     0
  9
$INTERSECTIONCOLOR
 70
   257
  9
$DIMASSOC
280
     2
  9
$PROJECTNAME
  1

  0
ENDSEC
  0
SECTION
  2
CLASSES
  0
CLASS
  1
ACDBDICTIONARYWDFLT
  2
AcDbDictionaryWithDefault
  3
ObjectDBX Classes
 90
        0
 91
        1
280
     0
281
     0
  0
CLASS
  1
DICTIONARYVAR
  2
AcDbDictionaryVar
  3
ObjectDBX Classes
 90
        0
 91
        3
280
     0
281
     0
  0
CLASS
  1
DIMASSOC
  2
AcDbDimAssoc
  3
"AcDbDimAssoc|Product Desc:     AcDim ARX App For Dimension|Company:          Autodesk, Inc.|WEB Address:      www.autodesk.com"
 90
        0
 91
        0
280
     0
281
     0
  0
ENDSEC
  0
SECTION
  2
TABLES
  0
TABLE
  2
VPORT
  5
8
330
0
100
AcDbSymbolTable
 70
     3
  0
VPORT
  5
ABE
330
8
100
AcDbSymbolTableRecord
100
AcDbViewportTableRecord
  2
*Active
 70
     0
 10
0.0
 20
0.0
 11
1.0
 21
1.0
 12
297.0000210924522
 22
420.00002982771
 13
0.0
 23
0.0
 14
2.5
 24
2.5
 15
10.0
 25
10.0
 16
0.0
 26
0.0
 36
1.0
 17
0.0
 27
0.0
 37
0.0
 40
846.8349737504718
 41
1.336927223719676
 42
50.0
 43
0.0
 44
0.0
 50
0.0
 51
0.0
 71
     0
 72
   500
 73
     1
 74
     0
 75
     0
 76
     0
 77
     0
 78
     0
281
     0
 65
     1
110
0.0
120
0.0
130
0.0
111
1.0
121
0.0
131
0.0
112
0.0
122
1.0
132
0.0
 79
     0
146
0.0
  0
ENDTAB
  0
TABLE
  2
LTYPE
  5
5
330
0
100
AcDbSymbolTable
 70
     3
  0
LTYPE
  5
13
330
5
100
AcDbSymbolTableRecord
100
AcDbLinetypeTableRecord
  2
ByBlock
 70
     0
  3

 72
    65
 73
     0
 40
0.0
  0
LTYPE
  5
14
330
5
100
AcDbSymbolTableRecord
100
AcDbLinetypeTableRecord
  2
ByLayer
 70
     0
  3

 72
    65
 73
     0
 40
0.0
  0
LTYPE
  5
15
330
5
100
AcDbSymbolTableRecord
100
AcDbLinetypeTableRecord
  2
Continuous
 70
     0
  3
Solid line
 72
    65
 73
     0
 40
0.0
  0
LTYPE
  5
41
330
5
100
AcDbSymbolTableRecord
100
AcDbLinetypeTableRecord
  2
STRICHPUNKT
 70
     0
  3
__ . __ . __ . __ . __ . __ . __ . __ . __ . __
 72
    65
 73
     4
 40
1.0
 49
0.5
 74
     0
 49
-0.25
 74
     0
 49
0.0
 74
     0
 49
-0.25
 74
     0
  0
LTYPE
  5
42
330
5
100
AcDbSymbolTableRecord
100
AcDbLinetypeTableRecord
  2
VERDECKT
 70
     0
  3
_ _ _ _ _ _ _ _ _ _ _ _ _ _ _ _ _ _ _ _ _ _ _
 72
    65
 73
     2
 40
0.375
 49
0.25
 74
     0
 49
-0.125
 74
     0
  0
ENDTAB
  0
TABLE
  2
LAYER
  5
2
330
0
100
AcDbSymbolTable
 70
    10
  0
LAYER
  5
10
330
2
100
AcDbSymbolTableRecord
100
AcDbLayerTableRecord
  2
0
 70
     0
 62
     7
  6
Continuous
370
    -3
390
F
  0
LAYER
  5
45
330
2
100
AcDbSymbolTableRecord
100
AcDbLayerTableRecord
  2
VOLL
 70
     0
 62
     1
  6
Continuous
370
    -3
390
F
  0
LAYER
  5
46
330
2
100
AcDbSymbolTableRecord
100
AcDbLayerTableRecord
  2
MITTEL
 70
     0
 62
     2
  6
STRICHPUNKT
370
    -3
390
F
  0
LAYER
  5
47
330
2
100
AcDbSymbolTableRecord
100
AcDbLayerTableRecord
  2
BEM
 70
     0
 62
     7
  6
Continuous
370
    -3
390
F
  0
LAYER
  5
48
330
2
100
AcDbSymbolTableRecord
100
AcDbLayerTableRecord
  2
HILF
 70
     0
 62
     2
  6
Continuous
370
    -3
390
F
  0
LAYER
  5
49
330
2
100
AcDbSymbolTableRecord
100
AcDbLayerTableRecord
  2
SCHRAFF
 70
     0
 62
     7
  6
Continuous
370
    -3
390
F
  0
LAYER
  5
4A
330
2
100
AcDbSymbolTableRecord
100
AcDbLayerTableRecord
  2
STEMPEL
 70
     0
 62
     3
  6
Continuous
370
    -3
390
F
  0
LAYER
  5
4B
330
2
100
AcDbSymbolTableRecord
100
AcDbLayerTableRecord
  2
VERDECKT
 70
     0
 62
     6
  6
VERDECKT
370
    -3
390
F
  0
LAYER
  5
4C
330
2
100
AcDbSymbolTableRecord
100
AcDbLayerTableRecord
  2
DEFPOINTS
 70
     0
 62
     7
  6
Continuous
290
     0
370
    -3
390
F
  0
LAYER
  5
53D
330
2
100
AcDbSymbolTableRecord
100
AcDbLayerTableRecord
  2
TEXT
 70
     0
 62
     7
  6
Continuous
370
    -3
390
F
  0
ENDTAB
  0
TABLE
  2
STYLE
  5
3
330
0
100
AcDbSymbolTable
 70
     2
  0
STYLE
  5
11
330
3
100
AcDbSymbolTableRecord
100
AcDbTextStyleTableRecord
  2
STANDARD
 70
     0
 40
0.0
 41
0.8
 50
0.0
 71
     0
 42
3.5
  3
simplex.shx
  4

  0
STYLE
  5
40
330
3
100
AcDbSymbolTableRecord
100
AcDbTextStyleTableRecord
  2
GREEKS
 70
     0
 40
0.0
 41
0.8
 50
0.0
 71
     0
 42
1.8
  3
SIMPLEX.shx
  4

  0
ENDTAB
  0
TABLE
  2
VIEW
  5
6
330
0
100
AcDbSymbolTable
 70
     0
  0
ENDTAB
  0
TABLE
  2
UCS
  5
7
330
0
100
AcDbSymbolTable
 70
     0
  0
ENDTAB
  0
TABLE
  2
APPID
  5
9
330
0
100
AcDbSymbolTable
 70
     1
  0
APPID
  5
12
330
9
100
AcDbSymbolTableRecord
100
AcDbRegAppTableRecord
  2
ACAD
 70
     0
  0
ENDTAB
  0
TABLE
  2
DIMSTYLE
  5
A
330
0
100
AcDbSymbolTable
 70
     1
100
AcDbDimStyleTable
 71
     1
340
40A
  0
DIMSTYLE
105
40A
102
{ACAD_REACTORS
330
377
330
371
330
367
330
362
330
338
330
337
102
}
330
A
100
AcDbSymbolTableRecord
100
AcDbDimStyleTableRecord
  2
Standard
 70
     0
340
11
  0
ENDTAB
  0
TABLE
  2
BLOCK_RECORD
  5
1
330
0
100
AcDbSymbolTable
 70
     9
  0
BLOCK_RECORD
  5
20
330
1
100
AcDbSymbolTableRecord
100
AcDbBlockTableRecord
  2
*Model_Space
340
23
  0
BLOCK_RECORD
  5
1C
330
1
100
AcDbSymbolTableRecord
100
AcDbBlockTableRecord
  2
*Paper_Space
340
1F
  0
BLOCK_RECORD
  5
24
330
1
100
AcDbSymbolTableRecord
100
AcDbBlockTableRecord
  2
LOGO
340
0
102
{BLKREFS
331
403
102
}
  0
BLOCK_RECORD
  5
2D
330
1
100
AcDbSymbolTableRecord
100
AcDbBlockTableRecord
  2
*X1
340
0
102
{BLKREFS
331
360
102
}
  0
BLOCK_RECORD
  5
31
330
1
100
AcDbSymbolTableRecord
100
AcDbBlockTableRecord
  2
*X2
340
0
102
{BLKREFS
331
35A
331
AA9
102
}
  0
BLOCK_RECORD
  5
456
330
1
100
AcDbSymbolTableRecord
100
AcDbBlockTableRecord
  2
*D3
340
0
  0
BLOCK_RECORD
  5
669
330
1
100
AcDbSymbolTableRecord
100
AcDbBlockTableRecord
  2
*D4
340
0
  0
BLOCK_RECORD
  5
7E9
330
1
100
AcDbSymbolTableRecord
100
AcDbBlockTableRecord
  2
*D5
340
0
  0
BLOCK_RECORD
  5
8C9
330
1
100
AcDbSymbolTableRecord
100
AcDbBlockTableRecord
  2
*D6
340
0
  0
BLOCK_RECORD
  5
9A2
330
1
100
AcDbSymbolTableRecord
100
AcDbBlockTableRecord
  2
*D7
340
0
  0
BLOCK_RECORD
  5
9D6
330
1
100
AcDbSymbolTableRecord
100
AcDbBlockTableRecord
  2
*D8
340
0
  0
ENDTAB
  0
ENDSEC
  0
SECTION
  2
BLOCKS
  0
BLOCK
  5
50
330
20
100
AcDbEntity
  8
0
100
AcDbBlockBegin
  2
*Model_Space
 70
     0
 10
0.0
 20
0.0
 30
0.0
  3
*Model_Space
  1

  0
ENDBLK
  5
51
330
20
100
AcDbEntity
  8
0
100
AcDbBlockEnd
  0
BLOCK
  5
4E
330
1C
100
AcDbEntity
 67
     1
  8
0
100
AcDbBlockBegin
  2
*Paper_Space
 70
     0
 10
0.0
 20
0.0
 30
0.0
  3
*Paper_Space
  1

  0
ENDBLK
  5
4F
330
1C
100
AcDbEntity
 67
     1
  8
0
100
AcDbBlockEnd
  0
BLOCK
  5
52
330
24
100
AcDbEntity
  8
0
100
AcDbBlockBegin
  2
LOGO
 70
     0
 10
0.0
 20
0.0
 30
0.0
  3
LOGO
  1

  0
ARC
  5
53
330
24
100
AcDbEntity
  8
0
100
AcDbCircle
 10
11.59973089678112
 20
-9.271599258481501
 30
0.0
 40
4.5
100
AcDbArc
 50
270.0
 51
231.0575587310159
  0
LINE
  5
54
330
24
100
AcDbEntity
  8
0
100
AcDbLine
 10
3.599730896781125
 20
-4.771599258481529
 30
0.0
 11
3.599730896781153
 21
-11.77159925848133
 31
0.0
  0
LINE
  5
55
330
24
100
AcDbEntity
  8
0
100
AcDbLine
 10
2.599730896781125
 20
-4.771599258481529
 30
0.0
 11
2.599730896781153
 21
-11.77159925848133
 31
0.0
  0
CIRCLE
  5
56
330
24
100
AcDbEntity
  8
0
100
AcDbCircle
 10
11.59973089678112
 20
-9.271599258481501
 30
0.0
 40
3.5
  0
ARC
  5
57
330
24
100
AcDbEntity
  8
0
100
AcDbCircle
 10
31.59973089678115
 20
-9.271599258481472
 30
0.0
 40
4.5
100
AcDbArc
 50
270.0
 51
231.0575587310182
  0
LINE
  5
58
330
24
100
AcDbEntity
  8
0
100
AcDbLine
 10
17.59973089678112
 20
-4.771599258481472
 30
0.0
 11
17.59973089678115
 21
-13.77159925848147
 31
0.0
  0
ARC
  5
59
330
24
100
AcDbEntity
  8
0
100
AcDbCircle
 10
22.59973089678116
 20
-7.271599258481472
 30
0.0
 40
2.5
100
AcDbArc
 50
293.1161887722295
 51
90.0
  0
CIRCLE
  5
5A
330
24
100
AcDbEntity
  8
0
100
AcDbCircle
 10
31.59973089678115
 20
-9.271599258481472
 30
0.0
 40
3.5
  0
ARC
  5
5B
330
24
100
AcDbEntity
  8
0
100
AcDbCircle
 10
4.599730896781153
 20
-11.77159925848133
 30
0.0
 40
1.0
100
AcDbArc
 50
180.0
 51
270.0
  0
ARC
  5
5C
330
24
100
AcDbEntity
  8
0
100
AcDbCircle
 10
4.599730896781153
 20
-11.77159925848133
 30
0.0
 40
2.0
100
AcDbArc
 50
179.9999999999992
 51
270.0
  0
LINE
  5
5D
330
24
100
AcDbEntity
  8
0
100
AcDbLine
 10
11.59973089678115
 20
-13.77159925848144
 30
0.0
 11
4.599730896781153
 21
-13.77159925848147
 31
0.0
  0
LINE
  5
5E
330
24
100
AcDbEntity
  8
0
100
AcDbLine
 10
8.771303772034769
 20
-12.77159925848136
 30
0.0
 11
4.599730896781153
 21
-12.77159925848133
 31
0.0
  0
LINE
  5
5F
330
24
100
AcDbEntity
  8
0
100
AcDbLine
 10
31.59973089678115
 20
-13.77159925848147
 30
0.0
 11
23.6715276665056
 21
-13.77159925848144
 31
0.0
  0
LINE
  5
60
330
24
100
AcDbEntity
  8
0
100
AcDbLine
 10
23.56565672307022
 20
-9.51278021337896
 30
0.0
 11
24.4388546544846
 21
-12.77159925848144
 31
0.0
  0
LINE
  5
61
330
24
100
AcDbEntity
  8
0
100
AcDbLine
 10
22.59973089678116
 20
-9.771599258481472
 30
0.0
 11
18.59973089678112
 21
-9.771599258481472
 31
0.0
  0
LINE
  5
62
330
24
100
AcDbEntity
  8
0
100
AcDbLine
 10
18.59973089678115
 20
-13.77159925848144
 30
0.0
 11
17.59973089678115
 21
-13.77159925848144
 31
0.0
  0
LINE
  5
63
330
24
100
AcDbEntity
  8
0
100
AcDbLine
 10
18.59973089678115
 20
-9.771599258481472
 30
0.0
 11
18.59973089678115
 21
-13.77159925848144
 31
0.0
  0
LINE
  5
64
330
24
100
AcDbEntity
  8
0
100
AcDbLine
 10
22.59973089678116
 20
-9.771599258481472
 30
0.0
 11
23.67152766650562
 21
-13.77159925848147
 31
0.0
  0
ARC
  5
65
330
24
100
AcDbEntity
  8
0
100
AcDbCircle
 10
22.59973089678116
 20
-7.271599258481472
 30
0.0
 40
2.5
100
AcDbArc
 50
270.0
 51
270.0000000000007
  0
LINE
  5
66
330
24
100
AcDbEntity
  8
0
100
AcDbLine
 10
28.77130377203494
 20
-12.77159925848147
 30
0.0
 11
24.43885465448463
 21
-12.77159925848144
 31
0.0
  0
LINE
  5
67
330
24
100
AcDbEntity
  8
0
100
AcDbLine
 10
3.599730896781125
 20
-4.771599258481472
 30
0.0
 11
2.599730896781125
 21
-4.771599258481472
 31
0.0
  0
LINE
  5
68
330
24
100
AcDbEntity
  8
0
100
AcDbLine
 10
22.59973089678116
 20
-8.771599258481472
 30
0.0
 11
18.59973089678115
 21
-8.771599258481472
 31
0.0
  0
LINE
  5
69
330
24
100
AcDbEntity
  8
0
100
AcDbLine
 10
22.59973089678116
 20
-5.771599258481472
 30
0.0
 11
18.59973089678115
 21
-5.771599258481472
 31
0.0
  0
LINE
  5
6A
330
24
100
AcDbEntity
  8
0
100
AcDbLine
 10
22.59973089678116
 20
-4.771599258481472
 30
0.0
 11
17.59973089678115
 21
-4.771599258481472
 31
0.0
  0
LINE
  5
6B
330
24
100
AcDbEntity
  8
0
100
AcDbLine
 10
18.59973089678115
 20
-5.771599258481472
 30
0.0
 11
18.59973089678115
 21
-8.771599258481472
 31
0.0
  0
ARC
  5
6C
330
24
100
AcDbEntity
  8
0
100
AcDbCircle
 10
22.59973089678116
 20
-7.271599258481472
 30
0.0
 40
1.5
100
AcDbArc
 50
270.0
 51
90.0
  0
ENDBLK
  5
6D
330
24
100
AcDbEntity
  8
0
100
AcDbBlockEnd
  0
BLOCK
  5
10E
330
2D
100
AcDbEntity
  8
0
100
AcDbBlockBegin
  2
*X1
 70
     1
 10
0.0
 20
0.0
 30
0.0
  3
*X1
  1

  0
LINE
  5
10F
330
2D
100
AcDbEntity
  8
0
 62
     0
100
AcDbLine
 10
191.4164939058073
 20
642.9695078943186
 30
0.0
 11
184.7247379758523
 21
649.6612638242736
 31
0.0
  0
LINE
  5
110
330
2D
100
AcDbEntity
  8
0
 62
     0
100
AcDbLine
 10
191.5093550796783
 20
640.0482195957014
 30
0.0
 11
189.5017658524709
 21
642.0558088229088
 31
0.0
  0
LINE
  5
111
330
2D
100
AcDbEntity
  8
0
 62
     0
100
AcDbLine
 10
183.8053163877727
 20
647.7522582876071
 30
0.0
 11
181.5931299454977
 21
649.9644447298821
 31
0.0
  0
LINE
  5
112
330
2D
100
AcDbEntity
  8
0
 62
     0
100
AcDbLine
 10
191.5093550796783
 20
637.2197924709552
 30
0.0
 11
189.5093550796783
 21
639.2197924709551
 31
0.0
  0
LINE
  5
113
330
2D
100
AcDbEntity
  8
0
 62
     0
100
AcDbLine
 10
180.6899946996812
 20
648.0391528509523
 30
0.0
 11
178.4778082574062
 21
650.2513392932273
 31
0.0
  0
LINE
  5
114
330
2D
100
AcDbEntity
  8
0
 62
     0
100
AcDbLine
 10
191.5093550796784
 20
634.391365346209
 30
0.0
 11
189.5093550796783
 21
636.3913653462091
 31
0.0
  0
LINE
  5
115
330
2D
100
AcDbEntity
  8
0
 62
     0
100
AcDbLine
 10
177.5746730115898
 20
648.3260474142976
 30
0.0
 11
175.3624865693148
 21
650.5382338565726
 31
0.0
  0
LINE
  5
116
330
2D
100
AcDbEntity
  8
0
 62
     0
100
AcDbLine
 10
190.8453283391237
 20
632.2269649620174
 30
0.0
 11
189.5093550796783
 21
633.5629382214628
 31
0.0
  0
LINE
  5
117
330
2D
100
AcDbEntity
  8
0
 62
     0
100
AcDbLine
 10
174.4593513234983
 20
648.6129419776428
 30
0.0
 11
172.2471648812233
 21
650.8251284199178
 31
0.0
  0
LINE
  5
118
330
2D
100
AcDbEntity
  8
0
 62
     0
100
AcDbLine
 10
171.3440296354069
 20
648.899836540988
 30
0.0
 11
169.1318431931319
 21
651.1120229832632
 31
0.0
  0
LINE
  5
119
330
2D
100
AcDbEntity
  8
0
 62
     0
100
AcDbLine
 10
168.2287079473154
 20
649.1867311043334
 30
0.0
 11
166.0165215050405
 21
651.3989175466084
 31
0.0
  0
LINE
  5
11A
330
2D
100
AcDbEntity
  8
0
 62
     0
100
AcDbLine
 10
165.113386259224
 20
649.4736256676786
 30
0.0
 11
162.901199816949
 21
651.6858121099536
 31
0.0
  0
LINE
  5
11B
330
2D
100
AcDbEntity
  8
0
 62
     0
100
AcDbLine
 10
161.9980645711325
 20
649.7605202310238
 30
0.0
 11
159.7858781288576
 21
651.9727066732989
 31
0.0
  0
LINE
  5
11C
330
2D
100
AcDbEntity
  8
0
 62
     0
100
AcDbLine
 10
158.8827428830411
 20
650.0474147943691
 30
0.0
 11
156.703324775379
 21
652.2268329020313
 31
0.0
  0
LINE
  5
11D
330
2D
100
AcDbEntity
  8
0
 62
     0
100
AcDbLine
 10
155.9202189281845
 20
650.1815116244795
 30
0.0
 11
154.215366959298
 21
651.8863635933661
 31
0.0
  0
LINE
  5
11E
330
2D
100
AcDbEntity
  8
0
 62
     0
100
AcDbLine
 10
153.5693072053843
 20
649.7039962225336
 30
0.0
 11
151.8834076856998
 21
651.389895742218
 31
0.0
  0
LINE
  5
11F
330
2D
100
AcDbEntity
  8
0
 62
     0
100
AcDbLine
 10
151.2373479317861
 20
649.2075283713855
 30
0.0
 11
149.5514484121017
 21
650.8934278910701
 31
0.0
  0
LINE
  5
120
330
2D
100
AcDbEntity
  8
0
 62
     0
100
AcDbLine
 10
148.9053886581879
 20
648.7110605202376
 30
0.0
 11
147.2194891385035
 21
650.396960039922
 31
0.0
  0
LINE
  5
121
330
2D
100
AcDbEntity
  8
0
 62
     0
100
AcDbLine
 10
146.5734293845897
 20
648.2145926690896
 30
0.0
 11
144.8875298649053
 21
649.900492188774
 31
0.0
  0
LINE
  5
122
330
2D
100
AcDbEntity
  8
0
 62
     0
100
AcDbLine
 10
144.2414701109916
 20
647.7181248179416
 30
0.0
 11
142.5555705913071
 21
649.4040243376261
 31
0.0
  0
LINE
  5
123
330
2D
100
AcDbEntity
  8
0
 62
     0
100
AcDbLine
 10
337.9235388259256
 20
632.2269649620174
 30
0.0
 11
336.5093550796784
 21
633.6411487082648
 31
0.0
  0
LINE
  5
124
330
2D
100
AcDbEntity
  8
0
 62
     0
100
AcDbLine
 10
338.5093550796784
 20
634.4695758330109
 30
0.0
 11
336.5093550796784
 21
636.4695758330109
 31
0.0
  0
LINE
  5
125
330
2D
100
AcDbEntity
  8
0
 62
     0
100
AcDbLine
 10
338.5093550796784
 20
637.2980029577571
 30
0.0
 11
336.5093550796784
 21
639.2980029577572
 31
0.0
  0
LINE
  5
126
330
2D
100
AcDbEntity
  8
0
 62
     0
100
AcDbLine
 10
338.5093550796784
 20
640.1264300825033
 30
0.0
 11
336.517641232361
 21
642.1181439298207
 31
0.0
  0
LINE
  5
127
330
2D
100
AcDbEntity
  8
0
 62
     0
100
AcDbLine
 10
338.6108989298407
 20
642.8533133570872
 30
0.0
 11
336.9870502824618
 21
644.4771620044661
 31
0.0
  0
LINE
  5
128
330
2D
100
AcDbEntity
  8
0
 62
     0
100
AcDbLine
 10
339.3973203028789
 20
644.8953191087952
 30
0.0
 11
337.9535714938909
 21
646.3390679177831
 31
0.0
  0
LINE
  5
129
330
2D
100
AcDbEntity
  8
0
 62
     0
100
AcDbLine
 10
340.7172317774042
 20
646.403834759016
 30
0.0
 11
339.2975688736246
 21
647.8234976627955
 31
0.0
  0
LINE
  5
12A
330
2D
100
AcDbEntity
  8
0
 62
     0
100
AcDbLine
 10
342.5309320387025
 20
647.4185616224639
 30
0.0
 11
341.0041541373644
 21
648.9453395238021
 31
0.0
  0
LINE
  5
12B
330
2D
100
AcDbEntity
  8
0
 62
     0
100
AcDbLine
 10
344.957167298574
 20
647.8207534873387
 30
0.0
 11
343.1415872645266
 21
649.636333521386
 31
0.0
  0
LINE
  5
12C
330
2D
100
AcDbEntity
  8
0
 62
     0
100
AcDbLine
 10
347.5470850797224
 20
648.0592628309365
 30
0.0
 11
345.707987363437
 21
649.8983605472218
 31
0.0
  0
LINE
  5
12D
330
2D
100
AcDbEntity
  8
0
 62
     0
100
AcDbLine
 10
350.1370028608708
 20
648.2977721745343
 30
0.0
 11
348.2979051445854
 21
650.1368698908196
 31
0.0
  0
LINE
  5
12E
330
2D
100
AcDbEntity
  8
0
 62
     0
100
AcDbLine
 10
352.7269206420192
 20
648.536281518132
 30
0.0
 11
350.8878229257338
 21
650.3753792344174
 31
0.0
  0
LINE
  5
12F
330
2D
100
AcDbEntity
  8
0
 62
     0
100
AcDbLine
 10
355.3168384231676
 20
648.7747908617299
 30
0.0
 11
353.4777407068821
 21
650.6138885780152
 31
0.0
  0
LINE
  5
130
330
2D
100
AcDbEntity
  8
0
 62
     0
100
AcDbLine
 10
357.906756204316
 20
649.0133002053276
 30
0.0
 11
356.0676584880305
 21
650.852397921613
 31
0.0
  0
LINE
  5
131
330
2D
100
AcDbEntity
  8
0
 62
     0
100
AcDbLine
 10
360.4966739854643
 20
649.2518095489255
 30
0.0
 11
358.657576269179
 21
651.0909072652108
 31
0.0
  0
LINE
  5
132
330
2D
100
AcDbEntity
  8
0
 62
     0
100
AcDbLine
 10
363.0865917666127
 20
649.4903188925233
 30
0.0
 11
361.2474940503273
 21
651.3294166088086
 31
0.0
  0
LINE
  5
133
330
2D
100
AcDbEntity
  8
0
 62
     0
100
AcDbLine
 10
365.6765095477612
 20
649.7288282361211
 30
0.0
 11
363.8374118314757
 21
651.5679259524064
 31
0.0
  0
LINE
  5
134
330
2D
100
AcDbEntity
  8
0
 62
     0
100
AcDbLine
 10
368.2664273289095
 20
649.9673375797189
 30
0.0
 11
366.4273296126241
 21
651.8064352960042
 31
0.0
  0
LINE
  5
135
330
2D
100
AcDbEntity
  8
0
 62
     0
100
AcDbLine
 10
370.8565040929424
 20
650.2056879404321
 30
0.0
 11
369.0172473937725
 21
652.044944639602
 31
0.0
  0
LINE
  5
136
330
2D
100
AcDbEntity
  8
0
 62
     0
100
AcDbLine
 10
374.1155456047662
 20
649.7750735533545
 30
0.0
 11
371.6695947458693
 21
652.2210244122513
 31
0.0
  0
LINE
  5
137
330
2D
100
AcDbEntity
  8
0
 62
     0
100
AcDbLine
 10
377.709012064252
 20
649.0100342186149
 30
0.0
 11
375.1111007513751
 21
651.6079455314918
 31
0.0
  0
LINE
  5
138
330
2D
100
AcDbEntity
  8
0
 62
     0
100
AcDbLine
 10
381.3024785237378
 20
648.2449948838754
 30
0.0
 11
378.7045672108609
 21
650.8429061967522
 31
0.0
  0
LINE
  5
139
330
2D
100
AcDbEntity
  8
0
 62
     0
100
AcDbLine
 10
384.8959449832235
 20
647.4799555491357
 30
0.0
 11
382.2980336703467
 21
650.0778668620126
 31
0.0
  0
LINE
  5
13A
330
2D
100
AcDbEntity
  8
0
 62
     0
100
AcDbLine
 10
386.4219759914596
 20
648.7823516656459
 30
0.0
 11
385.8915001298324
 21
649.312827527273
 31
0.0
  0
ENDBLK
  5
13B
330
2D
100
AcDbEntity
  8
0
100
AcDbBlockEnd
  0
BLOCK
  5
1E3
330
31
100
AcDbEntity
  8
0
100
AcDbBlockBegin
  2
*X2
 70
     1
 10
0.0
 20
0.0
 30
0.0
  3
*X2
  1

  0
LINE
  5
1E4
330
31
100
AcDbEntity
  8
0
 62
     0
100
AcDbLine
 10
296.5043243892674
 20
181.7827024053134
 30
0.0
 11
294.3691019170504
 21
183.9179248775303
 31
0.0
  0
LINE
  5
1E5
330
31
100
AcDbEntity
  8
0
 62
     0
100
AcDbLine
 10
296.4525605802469
 20
181.6930448580965
 30
0.0
 11
294.3386038216072
 21
183.8070016167361
 31
0.0
  0
LINE
  5
1E6
330
31
100
AcDbEntity
  8
0
 62
     0
100
AcDbLine
 10
296.4007967712263
 20
181.6033873108797
 30
0.0
 11
294.3118200893272
 21
183.6923639927788
 31
0.0
  0
LINE
  5
1E7
330
31
100
AcDbEntity
  8
0
 62
     0
100
AcDbLine
 10
296.3490329622059
 20
181.5137297636629
 30
0.0
 11
294.2890333576011
 21
183.5737293682678
 31
0.0
  0
LINE
  5
1E8
330
31
100
AcDbEntity
  8
0
 62
     0
100
AcDbLine
 10
296.2972691531853
 20
181.4240722164461
 30
0.0
 11
294.2705857643601
 21
183.4507556052714
 31
0.0
  0
LINE
  5
1E9
330
31
100
AcDbEntity
  8
0
 62
     0
100
AcDbLine
 10
296.2455053441648
 20
181.3344146692293
 30
0.0
 11
294.2568965882923
 21
183.3230234251018
 31
0.0
  0
LINE
  5
1EA
330
31
100
AcDbEntity
  8
0
 62
     0
100
AcDbLine
 10
296.1937415351443
 20
181.2447571220125
 30
0.0
 11
294.2484874980472
 21
183.1900111591096
 31
0.0
  0
LINE
  5
1EB
330
31
100
AcDbEntity
  8
0
 62
     0
100
AcDbLine
 10
296.1419777261238
 20
181.1550995747957
 30
0.0
 11
294.2460198493945
 21
183.0510574515251
 31
0.0
  0
LINE
  5
1EC
330
31
100
AcDbEntity
  8
0
 62
     0
100
AcDbLine
 10
296.0902139171033
 20
181.0654420275789
 30
0.0
 11
294.2503519125503
 21
182.9053040321319
 31
0.0
  0
LINE
  5
1ED
330
31
100
AcDbEntity
  8
0
 62
     0
100
AcDbLine
 10
296.0384501080828
 20
180.9757844803621
 30
0.0
 11
294.2626308684406
 21
182.7516037200043
 31
0.0
  0
LINE
  5
1EE
330
31
100
AcDbEntity
  8
0
 62
     0
100
AcDbLine
 10
295.9866862990623
 20
180.8861269331453
 30
0.0
 11
294.2844496060203
 21
182.5883636261874
 31
0.0
  0
LINE
  5
1EF
330
31
100
AcDbEntity
  8
0
 62
     0
100
AcDbLine
 10
295.9349224900418
 20
180.7964693859285
 30
0.0
 11
294.3181349826028
 21
182.4132568933675
 31
0.0
  0
LINE
  5
1F0
330
31
100
AcDbEntity
  8
0
 62
     0
100
AcDbLine
 10
295.8831586810213
 20
180.7068118387116
 30
0.0
 11
294.3673348295403
 21
182.2226356901927
 31
0.0
  0
LINE
  5
1F1
330
31
100
AcDbEntity
  8
0
 62
     0
100
AcDbLine
 10
295.8313948720008
 20
180.6171542914949
 30
0.0
 11
294.4384028223686
 21
182.0101463411271
 31
0.0
  0
LINE
  5
1F2
330
31
100
AcDbEntity
  8
0
 62
     0
100
AcDbLine
 10
295.7796310629803
 20
180.5274967442781
 30
0.0
 11
294.5445327631734
 21
181.762595044085
 31
0.0
  0
LINE
  5
1F3
330
31
100
AcDbEntity
  8
0
 62
     0
100
AcDbLine
 10
295.618806842263
 20
180.5468996087581
 30
0.0
 11
294.7255949440584
 21
181.4401115069627
 31
0.0
  0
LINE
  5
1F4
330
31
100
AcDbEntity
  8
0
 62
     0
100
AcDbLine
 10
296.5560881982879
 20
181.8723599525301
 30
0.0
 11
294.4030785841181
 21
184.0253695666999
 31
0.0
  0
LINE
  5
1F5
330
31
100
AcDbEntity
  8
0
 62
     0
100
AcDbLine
 10
296.6078520073084
 20
181.962017499747
 30
0.0
 11
294.44033559331
 21
184.1295339137453
 31
0.0
  0
LINE
  5
1F6
330
31
100
AcDbEntity
  8
0
 62
     0
100
AcDbLine
 10
296.6596158163289
 20
182.0516750469638
 30
0.0
 11
294.4807053355363
 21
184.2305855277563
 31
0.0
  0
LINE
  5
1F7
330
31
100
AcDbEntity
  8
0
 62
     0
100
AcDbLine
 10
296.7113796253494
 20
182.1413325941806
 30
0.0
 11
294.5240455475233
 21
184.3286666720067
 31
0.0
  0
LINE
  5
1F8
330
31
100
AcDbEntity
  8
0
 62
     0
100
AcDbLine
 10
296.7631434343699
 20
182.2309901413974
 30
0.0
 11
294.5702352495766
 21
184.4238983261907
 31
0.0
  0
LINE
  5
1F9
330
31
100
AcDbEntity
  8
0
 62
     0
100
AcDbLine
 10
296.8149072433904
 20
182.3206476886142
 30
0.0
 11
294.8197502534102
 21
184.3158046785943
 31
0.0
  0
LINE
  5
1FA
330
31
100
AcDbEntity
  8
0
 62
     0
100
AcDbLine
 10
296.8666710524109
 20
182.410305235831
 30
0.0
 11
295.0986558268474
 21
184.1783204613945
 31
0.0
  0
LINE
  5
1FB
330
31
100
AcDbEntity
  8
0
 62
     0
100
AcDbLine
 10
296.9184348614314
 20
182.4999627830478
 30
0.0
 11
295.3806596043378
 21
184.0377380401414
 31
0.0
  0
LINE
  5
1FC
330
31
100
AcDbEntity
  8
0
 62
     0
100
AcDbLine
 10
296.9701986704519
 20
182.5896203302646
 30
0.0
 11
295.6658892085441
 21
183.8939297921724
 31
0.0
  0
LINE
  5
1FD
330
31
100
AcDbEntity
  8
0
 62
     0
100
AcDbLine
 10
297.0219624794724
 20
182.6792778774814
 30
0.0
 11
295.9544814854636
 21
183.7467588714902
 31
0.0
  0
LINE
  5
1FE
330
31
100
AcDbEntity
  8
0
 62
     0
100
AcDbLine
 10
297.0737262884929
 20
182.7689354246982
 30
0.0
 11
296.2465834681951
 21
183.596078244996
 31
0.0
  0
LINE
  5
1FF
330
31
100
AcDbEntity
  8
0
 62
     0
100
AcDbLine
 10
297.1254900975134
 20
182.858592971915
 30
0.0
 11
296.5423534743258
 21
183.4417295951026
 31
0.0
  0
LINE
  5
200
330
31
100
AcDbEntity
  8
0
 62
     0
100
AcDbLine
 10
297.1772539065339
 20
182.9482505191318
 30
0.0
 11
296.841962360311
 21
183.2835420653547
 31
0.0
  0
LINE
  5
201
330
31
100
AcDbEntity
  8
0
 62
     0
100
AcDbLine
 10
297.2290177155544
 20
183.0379080663486
 30
0.0
 11
297.1455949612204
 21
183.1213308206827
 31
0.0
  0
ENDBLK
  5
202
330
31
100
AcDbEntity
  8
0
100
AcDbBlockEnd
  0
BLOCK
  5
460
330
456
100
AcDbEntity
  8
0
100
AcDbBlockBegin
  2
*D3
 70
     1
 10
0.0
 20
0.0
 30
0.0
  3
*D3
  1

  0
LINE
  5
A8C
330
456
100
AcDbEntity
  8
BEM
 62
     0
370
    -2
100
AcDbLine
 10
284.8762464072708
 20
370.9009291284484
 30
0.0
 11
375.2140808923369
 21
370.9009291284484
 31
0.0
  0
LINE
  5
A8D
330
456
100
AcDbEntity
  8
BEM
 62
     0
370
    -2
100
AcDbLine
 10
307.2511330425301
 20
722.3760084808263
 30
0.0
 11
375.2140808923371
 21
722.3760084808263
 31
0.0
  0
LINE
  5
A8E
330
456
100
AcDbEntity
  8
BEM
 62
     0
370
    -2
100
AcDbLine
 10
373.2140808923369
 20
377.9009291284483
 30
0.0
 11
373.2140808923371
 21
715.3760084808263
 31
0.0
  0
SOLID
  5
A8F
330
456
100
AcDbEntity
  8
BEM
 62
     0
100
AcDbTrace
 10
372.0474142256703
 20
377.9009291284483
 30
0.0
 11
374.3807475590036
 21
377.9009291284483
 31
0.0
 12
373.2140808923369
 22
370.9009291284484
 32
0.0
 13
373.2140808923369
 23
370.9009291284484
 33
0.0
  0
SOLID
  5
A90
330
456
100
AcDbEntity
  8
BEM
 62
     0
100
AcDbTrace
 10
372.0474142256704
 20
715.3760084808263
 30
0.0
 11
374.3807475590037
 21
715.3760084808263
 31
0.0
 12
373.2140808923371
 22
722.3760084808263
 32
0.0
 13
373.2140808923371
 23
722.3760084808263
 33
0.0
  0
MTEXT
  5
A91
330
456
100
AcDbEntity
  8
BEM
 62
     1
100
AcDbMText
 10
366.7140808923369
 20
546.6384688046374
 30
0.0
 40
7.0
 41
0.0
 71
     5
 72
     1
  1
\A1;3012
 11
0.0000000000000001
 21
1.0
 31
0.0
 73
     1
 44
1.0
  0
POINT
  5
A92
330
456
100
AcDbEntity
  8
DEFPOINTS
 62
     0
100
AcDbPoint
 10
282.8762464072708
 20
370.9009291284484
 30
0.0
  0
POINT
  5
A93
330
456
100
AcDbEntity
  8
DEFPOINTS
 62
     0
100
AcDbPoint
 10
305.2511330425301
 20
722.3760084808263
 30
0.0
  0
POINT
  5
A94
330
456
100
AcDbEntity
  8
DEFPOINTS
 62
     0
100
AcDbPoint
 10
373.2140808923371
 20
722.3760084808263
 30
0.0
  0
ENDBLK
  5
461
330
456
100
AcDbEntity
  8
0
100
AcDbBlockEnd
  0
BLOCK
  5
673
330
669
100
AcDbEntity
  8
0
100
AcDbBlockBegin
  2
*D4
 70
     1
 10
0.0
 20
0.0
 30
0.0
  3
*D4
  1

  0
LINE
  5
A95
330
669
100
AcDbEntity
  8
BEM
 62
     0
370
    -2
100
AcDbLine
 10
181.7511330425301
 20
378.9009291284484
 30
0.0
 11
181.7511330425301
 21
349.1037320494
 31
0.0
  0
LINE
  5
A96
330
669
100
AcDbEntity
  8
BEM
 62
     0
370
    -2
100
AcDbLine
 10
283.7511330425301
 20
378.9009291284483
 30
0.0
 11
283.7511330425301
 21
349.1037320494
 31
0.0
  0
LINE
  5
A97
330
669
100
AcDbEntity
  8
BEM
 62
     0
370
    -2
100
AcDbLine
 10
188.7511330425301
 20
351.1037320494
 30
0.0
 11
276.7511330425301
 21
351.1037320494
 31
0.0
  0
SOLID
  5
A98
330
669
100
AcDbEntity
  8
BEM
 62
     0
100
AcDbTrace
 10
188.7511330425301
 20
352.2703987160667
 30
0.0
 11
188.7511330425301
 21
349.9370653827333
 31
0.0
 12
181.7511330425301
 22
351.1037320494
 32
0.0
 13
181.7511330425301
 23
351.1037320494
 33
0.0
  0
SOLID
  5
A99
330
669
100
AcDbEntity
  8
BEM
 62
     0
100
AcDbTrace
 10
276.7511330425301
 20
352.2703987160667
 30
0.0
 11
276.7511330425301
 21
349.9370653827333
 31
0.0
 12
283.7511330425301
 22
351.1037320494
 32
0.0
 13
283.7511330425301
 23
351.1037320494
 33
0.0
  0
MTEXT
  5
A9A
330
669
100
AcDbEntity
  8
BEM
 62
     1
100
AcDbMText
 10
232.7511330425301
 20
357.6037320494
 30
0.0
 40
7.0
 41
0.0
 71
     5
 72
     1
  1
\A1;%%c102
 73
     1
 44
1.0
  0
POINT
  5
A9B
330
669
100
AcDbEntity
  8
DEFPOINTS
 62
     0
100
AcDbPoint
 10
181.7511330425301
 20
380.9009291284484
 30
0.0
  0
POINT
  5
A9C
330
669
100
AcDbEntity
  8
DEFPOINTS
 62
     0
100
AcDbPoint
 10
283.7511330425301
 20
380.9009291284483
 30
0.0
  0
POINT
  5
A9D
330
669
100
AcDbEntity
  8
DEFPOINTS
 62
     0
100
AcDbPoint
 10
283.7511330425301
 20
351.1037320494
 30
0.0
  0
ENDBLK
  5
674
330
669
100
AcDbEntity
  8
0
100
AcDbBlockEnd
  0
BLOCK
  5
7F3
330
7E9
100
AcDbEntity
  8
0
100
AcDbBlockBegin
  2
*D5
 70
     1
 10
0.0
 20
0.0
 30
0.0
  3
*D5
  1

  0
LINE
  5
A7A
330
7E9
100
AcDbEntity
  8
BEM
 62
     0
370
    -2
100
AcDbLine
 10
160.2511330425301
 20
724.3760084808265
 30
0.0
 11
160.2511330425301
 21
737.7701495212199
 31
0.0
  0
LINE
  5
A7B
330
7E9
100
AcDbEntity
  8
BEM
 62
     0
370
    -2
100
AcDbLine
 10
305.2511330425301
 20
724.3760084808264
 30
0.0
 11
305.2511330425301
 21
737.7701495212199
 31
0.0
  0
LINE
  5
A7C
330
7E9
100
AcDbEntity
  8
BEM
 62
     0
370
    -2
100
AcDbLine
 10
167.2511330425301
 20
735.7701495212198
 30
0.0
 11
298.2511330425301
 21
735.7701495212198
 31
0.0
  0
SOLID
  5
A7D
330
7E9
100
AcDbEntity
  8
BEM
 62
     0
100
AcDbTrace
 10
167.2511330425301
 20
736.9368161878865
 30
0.0
 11
167.2511330425301
 21
734.6034828545533
 31
0.0
 12
160.2511330425301
 22
735.7701495212198
 32
0.0
 13
160.2511330425301
 23
735.7701495212198
 33
0.0
  0
SOLID
  5
A7E
330
7E9
100
AcDbEntity
  8
BEM
 62
     0
100
AcDbTrace
 10
298.2511330425301
 20
736.9368161878865
 30
0.0
 11
298.2511330425301
 21
734.6034828545533
 31
0.0
 12
305.2511330425301
 22
735.7701495212198
 32
0.0
 13
305.2511330425301
 23
735.7701495212198
 33
0.0
  0
MTEXT
  5
A7F
330
7E9
100
AcDbEntity
  8
BEM
 62
     1
100
AcDbMText
 10
232.7511330425301
 20
742.2701495212199
 30
0.0
 40
7.0
 41
0.0
 71
     5
 72
     1
  1
\A1;%%C145
 73
     1
 44
1.0
  0
POINT
  5
A80
330
7E9
100
AcDbEntity
  8
DEFPOINTS
 62
     0
100
AcDbPoint
 10
160.2511330425301
 20
722.3760084808264
 30
0.0
  0
POINT
  5
A81
330
7E9
100
AcDbEntity
  8
DEFPOINTS
 62
     0
100
AcDbPoint
 10
305.2511330425301
 20
722.3760084808263
 30
0.0
  0
POINT
  5
A82
330
7E9
100
AcDbEntity
  8
DEFPOINTS
 62
     0
100
AcDbPoint
 10
305.2511330425301
 20
735.7701495212198
 30
0.0
  0
ENDBLK
  5
7F4
330
7E9
100
AcDbEntity
  8
0
100
AcDbBlockEnd
  0
BLOCK
  5
8D3
330
8C9
100
AcDbEntity
  8
0
100
AcDbBlockBegin
  2
*D6
 70
     1
 10
0.0
 20
0.0
 30
0.0
  3
*D6
  1

  0
LINE
  5
A71
330
8C9
100
AcDbEntity
  8
BEM
 62
     0
370
    -2
100
AcDbLine
 10
108.6761444875664
 20
697.3760084808266
 30
0.0
 11
83.48139413360611
 21
697.3760084808266
 31
0.0
  0
LINE
  5
A72
330
8C9
100
AcDbEntity
  8
BEM
 62
     0
370
    -2
100
AcDbLine
 10
158.2511330425301
 20
722.3760084808264
 30
0.0
 11
83.48139413360611
 21
722.3760084808264
 31
0.0
  0
LINE
  5
A73
330
8C9
100
AcDbEntity
  8
BEM
 62
     0
370
    -2
100
AcDbLine
 10
85.4813941336061
 20
704.3760084808265
 30
0.0
 11
85.4813941336061
 21
715.3760084808265
 31
0.0
  0
SOLID
  5
A74
330
8C9
100
AcDbEntity
  8
BEM
 62
     0
100
AcDbTrace
 10
84.31472746693943
 20
704.3760084808265
 30
0.0
 11
86.64806080027277
 21
704.3760084808265
 31
0.0
 12
85.4813941336061
 22
697.3760084808266
 32
0.0
 13
85.4813941336061
 23
697.3760084808266
 33
0.0
  0
SOLID
  5
A75
330
8C9
100
AcDbEntity
  8
BEM
 62
     0
100
AcDbTrace
 10
84.31472746693943
 20
715.3760084808265
 30
0.0
 11
86.64806080027277
 21
715.3760084808265
 31
0.0
 12
85.4813941336061
 22
722.3760084808264
 32
0.0
 13
85.4813941336061
 23
722.3760084808264
 33
0.0
  0
MTEXT
  5
A76
330
8C9
100
AcDbEntity
  8
BEM
 62
     1
100
AcDbMText
 10
78.98139413360599
 20
709.0046556393765
 30
0.0
 40
7.0
 41
0.0
 71
     5
 72
     1
  1
\A1;25
 11
0.0000000000000001
 21
1.0
 31
0.0
 73
     1
 44
1.0
  0
POINT
  5
A77
330
8C9
100
AcDbEntity
  8
DEFPOINTS
 62
     0
100
AcDbPoint
 10
110.6761444875664
 20
697.3760084808266
 30
0.0
  0
POINT
  5
A78
330
8C9
100
AcDbEntity
  8
DEFPOINTS
 62
     0
100
AcDbPoint
 10
160.2511330425301
 20
722.3760084808264
 30
0.0
  0
POINT
  5
A79
330
8C9
100
AcDbEntity
  8
DEFPOINTS
 62
     0
100
AcDbPoint
 10
85.4813941336061
 20
722.3760084808264
 30
0.0
  0
ENDBLK
  5
8D4
330
8C9
100
AcDbEntity
  8
0
100
AcDbBlockEnd
  0
BLOCK
  5
9AE
330
9A2
100
AcDbEntity
  8
0
100
AcDbBlockBegin
  2
*D7
 70
     1
 10
0.0
 20
0.0
 30
0.0
  3
*D7
  1

  0
LINE
  5
A66
330
9A2
100
AcDbEntity
  8
BEM
 62
     0
370
    -2
100
AcDbLine
 10
108.6761444875664
 20
697.3760084808266
 30
0.0
 11
98.23358784235564
 21
697.3760084808266
 31
0.0
  0
LINE
  5
A67
330
9A2
100
AcDbEntity
  8
BEM
 62
     0
370
    -2
100
AcDbLine
 10
123.3991359854708
 20
702.3760084808266
 30
0.0
 11
98.23358784235564
 21
702.3760084808266
 31
0.0
  0
LINE
  5
A68
330
9A2
100
AcDbEntity
  8
BEM
 62
     0
370
    -2
100
AcDbLine
 10
100.2335878423556
 20
709.3760084808266
 30
0.0
 11
100.2335878423556
 21
716.3760084808266
 31
0.0
  0
LINE
  5
A69
330
9A2
100
AcDbEntity
  8
BEM
 62
     0
370
    -2
100
AcDbLine
 10
100.2335878423556
 20
690.3760084808266
 30
0.0
 11
100.2335878423556
 21
673.6426751474932
 31
0.0
  0
LINE
  5
A6A
330
9A2
100
AcDbEntity
  8
BEM
 62
     0
370
    -2
100
AcDbLine
 10
100.2335878423556
 20
702.3760084808266
 30
0.0
 11
100.2335878423556
 21
697.3760084808266
 31
0.0
  0
SOLID
  5
A6B
330
9A2
100
AcDbEntity
  8
BEM
 62
     0
100
AcDbTrace
 10
99.06692117568896
 20
709.3760084808266
 30
0.0
 11
101.4002545090223
 21
709.3760084808266
 31
0.0
 12
100.2335878423556
 22
702.3760084808266
 32
0.0
 13
100.2335878423556
 23
702.3760084808266
 33
0.0
  0
SOLID
  5
A6C
330
9A2
100
AcDbEntity
  8
BEM
 62
     0
100
AcDbTrace
 10
99.06692117568896
 20
690.3760084808266
 30
0.0
 11
101.4002545090223
 21
690.3760084808266
 31
0.0
 12
100.2335878423556
 22
697.3760084808266
 32
0.0
 13
100.2335878423556
 23
697.3760084808266
 33
0.0
  0
MTEXT
  5
A6D
330
9A2
100
AcDbEntity
  8
BEM
 62
     1
100
AcDbMText
 10
93.73358784235552
 20
678.5093418141599
 30
0.0
 40
7.0
 41
0.0
 71
     5
 72
     1
  1
\A1;5
 11
0.0000000000000001
 21
1.0
 31
0.0
 73
     1
 44
1.0
  0
POINT
  5
A6E
330
9A2
100
AcDbEntity
  8
DEFPOINTS
 62
     0
100
AcDbPoint
 10
110.6761444875664
 20
697.3760084808266
 30
0.0
  0
POINT
  5
A6F
330
9A2
100
AcDbEntity
  8
DEFPOINTS
 62
     0
100
AcDbPoint
 10
125.3991359854708
 20
702.3760084808266
 30
0.0
  0
POINT
  5
A70
330
9A2
100
AcDbEntity
  8
DEFPOINTS
 62
     0
100
AcDbPoint
 10
100.2335878423556
 20
702.3760084808266
 30
0.0
  0
ENDBLK
  5
9AF
330
9A2
100
AcDbEntity
  8
0
100
AcDbBlockEnd
  0
BLOCK
  5
9E0
330
9D6
100
AcDbEntity
  8
0
100
AcDbBlockBegin
  2
*D8
 70
     1
 10
0.0
 20
0.0
 30
0.0
  3
*D8
  1

  0
LINE
  5
A83
330
9D6
100
AcDbEntity
  8
BEM
 62
     0
370
    -2
100
AcDbLine
 10
110.2518793858927
 20
701.330490285168
 30
0.0
 11
110.2518793858927
 21
752.9964249037547
 31
0.0
  0
LINE
  5
A84
330
9D6
100
AcDbEntity
  8
BEM
 62
     0
370
    -2
100
AcDbLine
 10
355.2503866991675
 20
701.330490285168
 30
0.0
 11
355.2503866991675
 21
752.9964249037547
 31
0.0
  0
LINE
  5
A85
330
9D6
100
AcDbEntity
  8
BEM
 62
     0
370
    -2
100
AcDbLine
 10
117.2518793858927
 20
750.9964249037547
 30
0.0
 11
348.2503866991675
 21
750.9964249037547
 31
0.0
  0
SOLID
  5
A86
330
9D6
100
AcDbEntity
  8
BEM
 62
     0
100
AcDbTrace
 10
117.2518793858927
 20
752.1630915704213
 30
0.0
 11
117.2518793858927
 21
749.8297582370881
 31
0.0
 12
110.2518793858927
 22
750.9964249037547
 32
0.0
 13
110.2518793858927
 23
750.9964249037547
 33
0.0
  0
SOLID
  5
A87
330
9D6
100
AcDbEntity
  8
BEM
 62
     0
100
AcDbTrace
 10
348.2503866991675
 20
752.1630915704213
 30
0.0
 11
348.2503866991675
 21
749.8297582370881
 31
0.0
 12
355.2503866991675
 22
750.9964249037547
 32
0.0
 13
355.2503866991675
 23
750.9964249037547
 33
0.0
  0
MTEXT
  5
A88
330
9D6
100
AcDbEntity
  8
BEM
 62
     1
100
AcDbMText
 10
232.7511330425301
 20
757.4964249037547
 30
0.0
 40
7.0
 41
0.0
 71
     5
 72
     1
  1
\A1;%%C245
 73
     1
 44
1.0
  0
POINT
  5
A89
330
9D6
100
AcDbEntity
  8
DEFPOINTS
 62
     0
100
AcDbPoint
 10
110.2518793858927
 20
699.330490285168
 30
0.0
  0
POINT
  5
A8A
330
9D6
100
AcDbEntity
  8
DEFPOINTS
 62
     0
100
AcDbPoint
 10
355.2503866991675
 20
699.330490285168
 30
0.0
  0
POINT
  5
A8B
330
9D6
100
AcDbEntity
  8
DEFPOINTS
 62
     0
100
AcDbPoint
 10
355.2503866991675
 20
750.9964249037547
 30
0.0
  0
ENDBLK
  5
9E1
330
9D6
100
AcDbEntity
  8
0
100
AcDbBlockEnd
  0
ENDSEC
  0
SECTION
  2
ENTITIES
  0
TEXT
  5
324
330
20
100
AcDbEntity
  8
BEM
100
AcDbText
 10
583.4462193823216
 20
836.4132055378062
 30
0.0
 40
3.6
  1
Diese Zeichnung ist urheberrechtlich geschützt und bleibt unser Eigentum. Sie darf weder ganz noch teilweise vervielfältigt und nicht an Dritte weitegegeben werden.
 50
180.0
  7
GREEKS
100
AcDbText
  0
TEXT
  5
325
330
20
100
AcDbEntity
  8
TEXT
100
AcDbText
 10
530.594467646405
 20
590.4500884820464
 30
0.0
 40
3.6
  1
30.05.
 50
90.0
 41
0.8
  7
GREEKS
 72
     1
 11
530.594467646405
 21
596.7586599106178
 31
0.0
100
AcDbText
  0
LINE
  5
326
330
20
100
AcDbEntity
  8
STEMPEL
100
AcDbLine
 10
10.0
 20
40.0
 30
0.0
 11
584.0
 21
40.0
 31
0.0
  0
LINE
  5
327
330
20
100
AcDbEntity
  8
STEMPEL
100
AcDbLine
 10
584.0
 20
830.0
 30
0.0
 11
10.0
 21
830.0
 31
0.0
  0
LINE
  5
328
330
20
100
AcDbEntity
  8
HILF
100
AcDbLine
 10
0.0
 20
0.0
 30
0.0
 11
594.0
 21
0.0
 31
0.0
  0
LINE
  5
329
330
20
100
AcDbEntity
  8
HILF
100
AcDbLine
 10
594.0
 20
840.0000000000002
 30
0.0
 11
0.0
 21
840.0000000000002
 31
0.0
  0
TEXT
  5
32A
330
20
100
AcDbEntity
  8
TEXT
100
AcDbText
 10
530.497467412491
 20
625.1121860477743
 30
0.0
 40
3.6
  1
Koeh
 50
90.0
 41
0.8
  7
GREEKS
 72
     1
 11
530.497467412491
 21
629.8436146192028
 31
0.0
100
AcDbText
  0
LINE
  5
32B
330
20
100
AcDbEntity
  8
VOLL
100
AcDbLine
 10
484.0000000000001
 20
610.0000000000001
 30
0.0
 11
554.0
 21
609.9999999999998
 31
0.0
  0
LINE
  5
32C
330
20
100
AcDbEntity
  8
VOLL
100
AcDbLine
 10
514.0
 20
584.0000000000001
 30
0.0
 11
554.0
 21
584.0000000000001
 31
0.0
  0
LINE
  5
32D
330
20
100
AcDbEntity
  8
VOLL
100
AcDbLine
 10
484.0000000000001
 20
544.0000000000001
 30
0.0
 11
584.0000000000001
 21
543.9999999999998
 31
0.0
  0
LINE
  5
32E
330
20
100
AcDbEntity
  8
VOLL
100
AcDbLine
 10
484.0
 20
524.0000000000001
 30
0.0
 11
584.0
 21
523.9999999999999
 31
0.0
  0
LINE
  5
32F
330
20
100
AcDbEntity
  8
VOLL
100
AcDbLine
 10
484.0
 20
484.0
 30
0.0
 11
584.0
 21
483.9999999999998
 31
0.0
  0
LINE
  5
330
330
20
100
AcDbEntity
  8
STEMPEL
100
AcDbLine
 10
484.0000000000003
 20
752.0000000000001
 30
0.0
 11
554.0
 21
752.0000000000001
 31
0.0
  0
LINE
  5
331
330
20
100
AcDbEntity
  8
STEMPEL
100
AcDbLine
 10
484.0
 20
649.9999999999999
 30
0.0
 11
584.0
 21
649.9999999999999
 31
0.0
  0
LINE
  5
332
330
20
100
AcDbEntity
  8
STEMPEL
100
AcDbLine
 10
484.0000000000001
 20
566.0000000000001
 30
0.0
 11
584.0000000000001
 21
565.9999999999999
 31
0.0
  0
LINE
  5
333
330
20
100
AcDbEntity
  8
STEMPEL
100
AcDbLine
 10
484.0
 20
470.0
 30
0.0
 11
584.0
 21
469.9999999999999
 31
0.0
  0
DIMENSION
  5
337
330
20
100
AcDbEntity
  8
BEM
100
AcDbDimension
  2
*D4
 10
283.7511330425301
 20
351.1037320494
 30
0.0
 11
232.7511330425301
 21
357.6037320494
 31
0.0
 70
    32
  1
%%c<>
 71
     5
 42
102.0
  3
Standard
100
AcDbAlignedDimension
 13
181.7511330425301
 23
380.9009291284484
 33
0.0
 14
283.7511330425301
 24
380.9009291284483
 34
0.0
100
AcDbRotatedDimension
1001
ACAD
1000
DSTYLE
1002
{
1070
    40
1040
2.0
1070
    41
1040
3.5
1070
    42
1040
1.0
1070
    43
1040
7.0
1070
    44
1040
1.0
1070
    47
1040
1.0
1070
    48
1040
1.0
1070
    73
1070
     0
1070
    74
1070
     0
1070
    77
1070
     1
1070
    78
1070
     8
1070
    79
1070
     2
1070
   140
1040
3.5
1070
   141
1040
1.5
1070
   145
1040
0.2857142857142857
1070
   146
1040
0.5142857142857144
1070
   147
1040
1.5
1070
   172
1070
     1
1070
   178
1070
     1
1070
   179
1070
     2
1070
   271
1070
     2
1070
   272
1070
     2
1070
   284
1070
     8
1070
   285
1070
     8
1070
   286
1070
     8
1002
}
  0
DIMENSION
  5
338
330
20
100
AcDbEntity
  8
BEM
100
AcDbDimension
  2
*D3
 10
373.2140808923371
 20
722.3760084808263
 30
0.0
 11
366.7140808923369
 21
546.6384688046374
 31
0.0
 70
    32
  1
3012
 71
     5
 42
351.4750793523781
  3
Standard
100
AcDbAlignedDimension
 13
282.8762464072708
 23
370.9009291284484
 33
0.0
 14
305.2511330425301
 24
722.3760084808263
 34
0.0
 50
90.0
100
AcDbRotatedDimension
1001
ACAD
1000
DSTYLE
1002
{
1070
    40
1040
2.0
1070
    41
1040
3.5
1070
    42
1040
1.0
1070
    43
1040
7.0
1070
    44
1040
1.0
1070
    47
1040
1.0
1070
    48
1040
1.0
1070
    73
1070
     0
1070
    74
1070
     0
1070
    77
1070
     1
1070
    78
1070
     8
1070
    79
1070
     2
1070
   140
1040
3.5
1070
   141
1040
1.5
1070
   145
1040
0.2857142857142857
1070
   146
1040
0.5142857142857144
1070
   147
1040
1.5
1070
   172
1070
     1
1070
   178
1070
     1
1070
   179
1070
     2
1070
   271
1070
     2
1070
   272
1070
     2
1070
   284
1070
     8
1070
   285
1070
     8
1070
   286
1070
     8
1002
}
  0
LINE
  5
33A
330
20
100
AcDbEntity
  8
MITTEL
100
AcDbLine
 10
232.7511330425302
 20
727.3760084808263
 30
0.0
 11
232.7511330425301
 21
365.9009291284484
 31
0.0
  0
LINE
  5
33B
102
{ACAD_REACTORS
330
6B4
102
}
330
20
100
AcDbEntity
  8
STEMPEL
100
AcDbLine
 10
283.7511330425301
 20
380.9009291284484
 30
0.0
 11
282.8762464072708
 21
370.9009291284484
 31
0.0
  0
LINE
  5
33C
102
{ACAD_REACTORS
330
6B4
102
}
330
20
100
AcDbEntity
  8
STEMPEL
100
AcDbLine
 10
281.7511330425301
 20
380.9009291284484
 30
0.0
 11
280.876246407271
 21
370.9009291284484
 31
0.0
  0
LINE
  5
33D
102
{ACAD_REACTORS
330
6B4
102
}
330
20
100
AcDbEntity
  8
STEMPEL
100
AcDbLine
 10
183.7511330425301
 20
380.9009291284484
 30
0.0
 11
184.6260196777894
 21
370.9009291284484
 31
0.0
  0
LINE
  5
33E
102
{ACAD_REACTORS
330
6B4
102
}
330
20
100
AcDbEntity
  8
STEMPEL
100
AcDbLine
 10
181.7511330425301
 20
380.9009291284484
 30
0.0
 11
182.6260196777893
 21
370.9009291284484
 31
0.0
  0
LINE
  5
33F
330
20
100
AcDbEntity
  8
STEMPEL
100
AcDbLine
 10
10.0
 20
830.0
 30
0.0
 11
10.0
 21
40.0
 31
0.0
  0
LINE
  5
340
330
20
100
AcDbEntity
  8
HILF
100
AcDbLine
 10
0.0
 20
840.0000000000002
 30
0.0
 11
0.0
 21
0.0
 31
0.0
  0
LINE
  5
344
330
20
100
AcDbEntity
  8
STEMPEL
100
AcDbLine
 10
215.6573729797473
 20
257.573076732304
 30
0.0
 11
183.5442915330844
 21
239.0325805145649
 31
0.0
  0
LINE
  5
345
330
20
100
AcDbEntity
  8
VERDECKT
100
AcDbLine
 10
214.6967032946935
 20
259.905185176984
 30
0.0
 11
182.0049612181383
 21
241.0305990888071
 31
0.0
  0
ARC
  5
347
330
20
100
AcDbEntity
  8
STEMPEL
100
AcDbCircle
 10
233.3508322564158
 20
189.8461138679848
 30
0.0
 40
49.0
100
AcDbArc
 50
62.36190367810073
 51
297.6380963219007
  0
LINE
  5
348
330
20
100
AcDbEntity
  8
MITTEL
100
AcDbLine
 10
105.2511330425301
 20
189.8461138679848
 30
0.0
 11
360.2511330425301
 21
189.8461138679848
 31
0.0
  0
LINE
  5
34B
102
{ACAD_REACTORS
330
6B4
102
}
330
20
100
AcDbEntity
  8
STEMPEL
100
AcDbLine
 10
182.6260196777893
 20
370.9009291284484
 30
0.0
 11
282.8762464072708
 21
370.9009291284484
 31
0.0
  0
LINE
  5
34D
330
20
100
AcDbEntity
  8
STEMPEL
100
AcDbLine
 10
165.8508322564158
 20
171.3056176502456
 30
0.0
 11
165.8508322564158
 21
208.386610085724
 31
0.0
  0
LINE
  5
34E
330
20
100
AcDbEntity
  8
VERDECKT
100
AcDbLine
 10
163.3508322564158
 20
170.9715277798078
 30
0.0
 11
163.3508322564158
 21
208.7206999561616
 31
0.0
  0
LINE
  5
34F
330
20
100
AcDbEntity
  8
MITTEL
100
AcDbLine
 10
232.7511330425301
 20
317.3461138679848
 30
0.0
 11
232.7511330425302
 21
62.3461138679848
 31
0.0
  0
ARC
  5
350
330
20
100
AcDbEntity
  8
STEMPEL
100
AcDbCircle
 10
233.3508322564158
 20
189.8461138679848
 30
0.0
 40
49.0
100
AcDbArc
 50
301.1467466367941
 51
58.85325336320438
  0
LINE
  5
352
330
20
100
AcDbEntity
  8
STEMPEL
100
AcDbLine
 10
300.8508322564158
 20
171.3056176502458
 30
0.0
 11
300.8508322564158
 21
208.386610085724
 31
0.0
  0
LINE
  5
353
330
20
100
AcDbEntity
  8
VERDECKT
100
AcDbLine
 10
303.3508322564159
 20
170.971527779808
 30
0.0
 11
303.3508322564159
 21
208.7206999561616
 31
0.0
  0
LINE
  5
355
330
20
100
AcDbEntity
  8
STEMPEL
100
AcDbLine
 10
253.0782985519469
 20
228.0537973041563
 30
0.0
 11
255.6945041483535
 21
226.5851983201788
 31
0.0
  0
LINE
  5
356
330
20
100
AcDbEntity
  8
STEMPEL
100
AcDbLine
 10
253.0782985519469
 20
228.0537973041563
 30
0.0
 11
266.5874531604574
 21
251.4523394533997
 31
0.0
  0
POINT
  5
357
330
20
100
AcDbEntity
  8
DEFPOINTS
  6
ByBlock
 62
     0
100
AcDbPoint
 10
253.0782985519469
 20
228.0537973041563
 30
0.0
  0
LINE
  5
358
330
20
100
AcDbEntity
  8
STEMPEL
100
AcDbLine
 10
255.6945041483535
 20
226.5851983201788
 30
0.0
 11
269.1966612649386
 21
249.9716204578818
 31
0.0
  0
LINE
  5
359
330
20
100
AcDbEntity
  8
STEMPEL
100
AcDbLine
 10
256.0812058296237
 20
233.254985279511
 30
0.0
 11
258.6951890057024
 21
231.7825369506095
 31
0.0
  0
INSERT
  5
35A
330
20
100
AcDbEntity
  8
BEM
100
AcDbBlockReference
  2
*X2
 10
-30.6585228232625
 20
68.38505880498018
 30
0.0
1001
ACAD
1000
HATCH
1002
{
1070
    16
1000
_U,I
1040
0.1
1040
2.356194490192344
1070
     0
1002
}
  0
ARC
  5
35B
330
20
100
AcDbEntity
  8
BEM
100
AcDbCircle
 10
266.5874531604574
 20
251.4523394533997
 30
0.0
 40
3.0
100
AcDbArc
 50
152.8809543773229
 51
240.0
  0
LINE
  5
35C
330
20
100
AcDbEntity
  8
STEMPEL
100
AcDbLine
 10
263.0858338611478
 20
245.3873569182317
 30
0.0
 11
265.6962795891494
 21
243.9087815495316
 31
0.0
  0
LINE
  5
35D
330
20
100
AcDbEntity
  8
VERDECKT
100
AcDbLine
 10
265.5859188624482
 20
249.7176311637252
 30
0.0
 11
268.1963645904499
 21
248.2390557950251
 31
0.0
  0
INSERT
  5
360
330
20
100
AcDbEntity
  8
SCHRAFF
100
AcDbBlockReference
  2
*X1
 10
-31.25822203714823
 20
50.14904351880886
 30
0.0
1001
ACAD
1000
HATCH
1002
{
1070
    16
1000
_U,I
1040
2.0
1040
2.356194490192344
1070
     0
1002
}
  0
DIMENSION
  5
362
330
20
100
AcDbEntity
  8
BEM
100
AcDbDimension
  2
*D8
 10
355.2503866991675
 20
750.9964249037547
 30
0.0
 11
232.7511330425301
 21
757.4964249037547
 31
0.0
 70
    32
  1
%%C<>
 71
     5
 42
244.9985073132748
  3
Standard
100
AcDbAlignedDimension
 13
110.2518793858927
 23
699.330490285168
 33
0.0
 14
355.2503866991675
 24
699.330490285168
 34
0.0
100
AcDbRotatedDimension
1001
ACAD
1000
DSTYLE
1002
{
1070
    40
1040
2.0
1070
    41
1040
3.5
1070
    42
1040
1.0
1070
    43
1040
7.0
1070
    44
1040
1.0
1070
    47
1040
1.0
1070
    48
1040
1.0
1070
    73
1070
     0
1070
    74
1070
     0
1070
    77
1070
     1
1070
    78
1070
     8
1070
    79
1070
     2
1070
   140
1040
3.5
1070
   141
1040
1.5
1070
   145
1040
0.2857142857142857
1070
   146
1040
0.5142857142857144
1070
   147
1040
1.5
1070
   172
1070
     1
1070
   178
1070
     1
1070
   179
1070
     2
1070
   271
1070
     2
1070
   272
1070
     2
1070
   284
1070
     8
1070
   285
1070
     8
1070
   286
1070
     8
1002
}
  0
LINE
  5
363
330
20
100
AcDbEntity
  8
STEMPEL
100
AcDbLine
 10
215.0576737658614
 20
692.3760084808264
 30
0.0
 11
200.5581309308532
 21
687.6246131514776
 31
0.0
  0
LINE
  5
364
330
20
100
AcDbEntity
  8
STEMPEL
100
AcDbLine
 10
174.1329393385415
 20
650.3760084808265
 30
0.0
 11
291.3693267465185
 21
650.3760084808264
 31
0.0
  0
LINE
  5
366
330
20
100
AcDbEntity
  8
STEMPEL
100
AcDbLine
 10
182.9445923191987
 20
712.3760084808265
 30
0.0
 11
215.0576737658615
 21
712.3760084808265
 31
0.0
  0
DIMENSION
  5
367
330
20
100
AcDbEntity
  8
BEM
100
AcDbDimension
  2
*D5
 10
305.2511330425301
 20
735.7701495212198
 30
0.0
 11
232.7511330425301
 21
742.2701495212199
 31
0.0
 70
    32
  1
%%C145
 71
     5
 42
145.0
  3
Standard
100
AcDbAlignedDimension
 13
160.2511330425301
 23
722.3760084808264
 33
0.0
 14
305.2511330425301
 24
722.3760084808263
 34
0.0
100
AcDbRotatedDimension
1001
ACAD
1000
DSTYLE
1002
{
1070
    40
1040
2.0
1070
    41
1040
3.5
1070
    42
1040
1.0
1070
    43
1040
7.0
1070
    44
1040
1.0
1070
    47
1040
1.0
1070
    48
1040
1.0
1070
    73
1070
     0
1070
    74
1070
     0
1070
    77
1070
     1
1070
    78
1070
     8
1070
    79
1070
     2
1070
   140
1040
3.5
1070
   141
1040
1.5
1070
   145
1040
0.2857142857142857
1070
   146
1040
0.5142857142857144
1070
   147
1040
1.5
1070
   172
1070
     1
1070
   178
1070
     1
1070
   179
1070
     2
1070
   271
1070
     2
1070
   272
1070
     2
1070
   284
1070
     8
1070
   285
1070
     8
1070
   286
1070
     8
1002
}
  0
LINE
  5
368
330
20
100
AcDbEntity
  8
HILF
100
AcDbLine
 10
185.8365149025129
 20
380.9009291284484
 30
0.0
 11
280.5200418732765
 21
380.9009291284484
 31
0.0
  0
LINE
  5
369
330
20
100
AcDbEntity
  8
HILF
100
AcDbLine
 10
185.7035225638545
 20
607.3760084808266
 30
0.0
 11
279.8258333927429
 21
607.3760084808265
 31
0.0
  0
LINE
  5
36B
102
{ACAD_REACTORS
330
5FA
330
6B4
102
}
330
20
100
AcDbEntity
  8
STEMPEL
100
AcDbLine
 10
174.0223441055655
 20
650.3760084808265
 30
0.0
 11
291.4799219794947
 21
650.3760084808265
 31
0.0
  0
LINE
  5
36C
102
{ACAD_REACTORS
330
5FA
102
}
330
20
100
AcDbEntity
  8
STEMPEL
100
AcDbLine
 10
160.2511330425301
 20
722.3760084808264
 30
0.0
 11
305.2511330425301
 21
722.3760084808263
 31
0.0
  0
LINE
  5
36E
330
20
100
AcDbEntity
  8
BEM
100
AcDbLine
 10
10.0
 20
460.0
 30
0.0
 11
0.0
 21
460.0
 31
0.0
  0
LINE
  5
36F
102
{ACAD_REACTORS
330
6B4
102
}
330
20
100
AcDbEntity
  8
STEMPEL
100
AcDbLine
 10
183.7511330425301
 20
607.3760084808266
 30
0.0
 11
183.7511330425301
 21
534.783283796012
 31
0.0
  0
LINE
  5
370
102
{ACAD_REACTORS
330
6B4
102
}
330
20
100
AcDbEntity
  8
STEMPEL
100
AcDbLine
 10
181.7511330425301
 20
607.1457674518269
 30
0.0
 11
181.7511330425301
 21
534.1962546744825
 31
0.0
  0
DIMENSION
  5
371
330
20
100
AcDbEntity
  8
BEM
100
AcDbDimension
  2
*D6
 10
85.4813941336061
 20
722.3760084808264
 30
0.0
 11
85.48139413360599
 21
709.0046556393765
 31
0.0
 70
   160
 71
     5
 42
24.99999999999989
  3
Standard
100
AcDbAlignedDimension
 13
110.6761444875664
 23
697.3760084808266
 33
0.0
 14
160.2511330425301
 24
722.3760084808264
 34
0.0
 50
90.0
100
AcDbRotatedDimension
1001
ACAD
1000
DSTYLE
1002
{
1070
    40
1040
2.0
1070
    41
1040
3.5
1070
    42
1040
1.0
1070
    43
1040
7.0
1070
    44
1040
1.0
1070
    47
1040
1.0
1070
    48
1040
1.0
1070
    73
1070
     0
1070
    74
1070
     0
1070
    77
1070
     1
1070
    78
1070
     8
1070
    79
1070
     2
1070
   140
1040
3.5
1070
   141
1040
1.5
1070
   145
1040
0.2857142857142857
1070
   146
1040
0.5142857142857144
1070
   147
1040
1.5
1070
   172
1070
     1
1070
   178
1070
     1
1070
   179
1070
     2
1070
   271
1070
     2
1070
   272
1070
     2
1070
   284
1070
     8
1070
   285
1070
     8
1070
   286
1070
     8
1002
}
  0
LINE
  5
373
330
20
100
AcDbEntity
  8
STEMPEL
100
AcDbLine
 10
152.9847605066542
 20
699.8694594194931
 30
0.0
 11
126.1327634495949
 21
702.3422993833661
 31
0.0
  0
LINE
  5
374
330
20
100
AcDbEntity
  8
STEMPEL
100
AcDbLine
 10
152.8013536406231
 20
697.8778866938581
 30
0.0
 11
125.9493565835639
 21
700.3507266577312
 31
0.0
  0
LINE
  5
375
330
20
100
AcDbEntity
  8
STEMPEL
100
AcDbLine
 10
110.6761444875664
 20
697.3760084808266
 30
0.0
 11
154.710405847616
 21
697.3760084808264
 31
0.0
  0
LINE
  5
376
330
20
100
AcDbEntity
  8
STEMPEL
100
AcDbLine
 10
125.3991359854708
 20
702.3760084808266
 30
0.0
 11
161.3761330425301
 21
702.3760084808265
 31
0.0
  0
DIMENSION
  5
377
330
20
100
AcDbEntity
  8
BEM
100
AcDbDimension
  2
*D7
 10
100.2335878423556
 20
702.3760084808266
 30
0.0
 11
100.2335878423555
 21
678.5093418141599
 31
0.0
 70
   160
 71
     5
 42
5.0
  3
Standard
100
AcDbAlignedDimension
 13
110.6761444875664
 23
697.3760084808266
 33
0.0
 14
125.3991359854708
 24
702.3760084808266
 34
0.0
 50
90.0
100
AcDbRotatedDimension
1001
ACAD
1000
DSTYLE
1002
{
1070
    40
1040
2.0
1070
    41
1040
3.5
1070
    42
1040
1.0
1070
    43
1040
7.0
1070
    44
1040
1.0
1070
    47
1040
1.0
1070
    48
1040
1.0
1070
    73
1070
     0
1070
    74
1070
     0
1070
    77
1070
     1
1070
    78
1070
     8
1070
    79
1070
     2
1070
   140
1040
3.5
1070
   141
1040
1.5
1070
   145
1040
0.2857142857142857
1070
   146
1040
0.5142857142857144
1070
   147
1040
1.5
1070
   172
1070
     1
1070
   178
1070
     1
1070
   179
1070
     2
1070
   271
1070
     2
1070
   272
1070
     2
1070
   284
1070
     8
1070
   285
1070
     8
1070
   286
1070
     8
1002
}
  0
LINE
  5
378
330
20
100
AcDbEntity
  8
STEMPEL
100
AcDbLine
 10
110.6761478667187
 20
697.375992913928
 30
0.0
 11
124.1497526856158
 21
700.2444871056528
 31
0.0
  0
LINE
  5
379
330
20
100
AcDbEntity
  8
STEMPEL
100
AcDbLine
 10
110.2518793858927
 20
699.330490285168
 30
0.0
 11
123.7332915856641
 21
702.2006466472617
 31
0.0
  0
LINE
  5
37A
330
20
100
AcDbEntity
  8
STEMPEL
100
AcDbLine
 10
110.2518793858927
 20
699.330490285168
 30
0.0
 11
110.6761444875664
 21
697.3760084808266
 31
0.0
  0
ARC
  5
37B
330
20
100
AcDbEntity
  8
STEMPEL
100
AcDbCircle
 10
125.3991359854708
 20
694.3760084808266
 30
0.0
 40
6.0
100
AcDbArc
 50
84.7383880687394
 51
102.0186780781423
  0
ARC
  5
37C
330
20
100
AcDbEntity
  8
STEMPEL
100
AcDbCircle
 10
125.3991359854708
 20
694.3760084808266
 30
0.0
 40
8.0
100
AcDbArc
 50
84.73838806873949
 51
102.0186780781424
  0
LINE
  5
37E
102
{ACAD_REACTORS
330
5FA
102
}
330
20
100
AcDbEntity
  8
STEMPEL
100
AcDbLine
 10
163.7572450237038
 20
680.0763239524298
 30
0.0
 11
176.7511330425301
 21
650.3760084808265
 31
0.0
  0
LINE
  5
37F
102
{ACAD_REACTORS
330
6B4
102
}
330
20
100
AcDbEntity
  8
STEMPEL
100
AcDbLine
 10
174.6974101357636
 20
650.3760084808265
 30
0.0
 11
181.7511330425301
 21
607.1457674518269
 31
0.0
  0
LINE
  5
380
102
{ACAD_REACTORS
330
6B4
102
}
330
20
100
AcDbEntity
  8
STEMPEL
100
AcDbLine
 10
176.7511330425301
 20
650.3760084808265
 30
0.0
 11
183.7511330425301
 21
607.3760084808266
 31
0.0
  0
ARC
  5
381
330
20
100
AcDbEntity
  8
BEM
100
AcDbCircle
 10
175.9501556633544
 20
650.3400510264177
 30
0.0
 40
2.984610030358279
100
AcDbArc
 50
149.5690467096663
 51
254.9166290865231
  0
ARC
  5
382
330
20
100
AcDbEntity
  8
STEMPEL
100
AcDbCircle
 10
152.2511330425301
 20
691.9031685169536
 30
0.0
 40
8.0
100
AcDbArc
 50
0.0
 51
84.73838806873946
  0
LINE
  5
383
330
20
100
AcDbEntity
  8
STEMPEL
100
AcDbLine
 10
160.2511330425301
 20
693.3760084808264
 30
0.0
 11
162.7511330425301
 21
712.3760084808266
 31
0.0
  0
LINE
  5
384
102
{ACAD_REACTORS
330
5FA
102
}
330
20
100
AcDbEntity
  8
STEMPEL
100
AcDbLine
 10
163.7511330425301
 20
688.3760084808264
 30
0.0
 11
162.7511330425301
 21
712.3760084808266
 31
0.0
  0
LINE
  5
385
102
{ACAD_REACTORS
330
5FA
102
}
330
20
100
AcDbEntity
  8
STEMPEL
100
AcDbLine
 10
166.2511330425301
 20
688.3760084808264
 30
0.0
 11
165.2511330425301
 21
712.3760084808266
 31
0.0
  0
LINE
  5
388
330
20
100
AcDbEntity
  8
STEMPEL
100
AcDbLine
 10
158.2511330425301
 20
691.9031685169535
 30
0.0
 11
158.2511330425301
 21
682.3760084808263
 31
0.0
  0
LINE
  5
389
102
{ACAD_REACTORS
330
5FA
102
}
330
20
100
AcDbEntity
  8
STEMPEL
100
AcDbLine
 10
160.2511330425301
 20
691.9031685169536
 30
0.0
 11
160.2511330425302
 21
682.3760084808265
 31
0.0
  0
ARC
  5
38A
330
20
100
AcDbEntity
  8
BEM
100
AcDbCircle
 10
161.6184414561402
 20
682.8660895723637
 30
0.0
 40
3.402784951866976
100
AcDbArc
 50
188.2807379150035
 51
264.5835331598784
  0
LINE
  5
38B
330
20
100
AcDbEntity
  8
STEMPEL
100
AcDbLine
 10
158.2511330425301
 20
682.3760084808263
 30
0.0
 11
160.2511330425302
 21
682.3760084808265
 31
0.0
  0
ARC
  5
38C
330
20
100
AcDbEntity
  8
STEMPEL
100
AcDbCircle
 10
152.2511330425301
 20
691.9031685169535
 30
0.0
 40
6.0
100
AcDbArc
 50
359.9999999999998
 51
84.73838806873953
  0
LINE
  5
38D
102
{ACAD_REACTORS
330
5FA
102
}
330
20
100
AcDbEntity
  8
STEMPEL
100
AcDbLine
 10
163.7511330425301
 20
688.3760084808264
 30
0.0
 11
166.2511330425301
 21
688.3760084808264
 31
0.0
  0
LINE
  5
38E
330
20
100
AcDbEntity
  8
STEMPEL
100
AcDbLine
 10
163.7511330425301
 20
688.3760084808264
 30
0.0
 11
160.2511330425301
 21
693.3760084808264
 31
0.0
  0
LINE
  5
38F
102
{ACAD_REACTORS
330
5FA
102
}
330
20
100
AcDbEntity
  8
STEMPEL
100
AcDbLine
 10
160.2511330425301
 20
688.3760084808264
 30
0.0
 11
162.7511330425301
 21
688.3760084808264
 31
0.0
  0
LINE
  5
390
102
{ACAD_REACTORS
330
5FA
102
}
330
20
100
AcDbEntity
  8
STEMPEL
100
AcDbLine
 10
162.7511330425301
 20
689.8045799093979
 30
0.0
 11
162.7511330425301
 21
684.8861499606662
 31
0.0
  0
LINE
  5
391
102
{ACAD_REACTORS
330
5FA
102
}
330
20
100
AcDbEntity
  8
STEMPEL
100
AcDbLine
 10
162.7511330425301
 20
722.3760084808263
 30
0.0
 11
162.7511330425301
 21
712.3760084808266
 31
0.0
  0
LINE
  5
392
102
{ACAD_REACTORS
330
5FA
102
}
330
20
100
AcDbEntity
  8
STEMPEL
100
AcDbLine
 10
160.2511330425301
 20
722.3760084808263
 30
0.0
 11
160.2511330425301
 21
712.3760084808266
 31
0.0
  0
LINE
  5
393
102
{ACAD_REACTORS
330
5FA
102
}
330
20
100
AcDbEntity
  8
STEMPEL
100
AcDbLine
 10
160.2511330425301
 20
712.3760084808266
 30
0.0
 11
165.2511330425301
 21
712.3760084808266
 31
0.0
  0
POINT
  5
394
330
20
100
AcDbEntity
  8
DEFPOINTS
  6
ByBlock
 62
     0
100
AcDbPoint
 10
162.7511330425301
 20
722.3760084808264
 30
0.0
  0
LINE
  5
395
330
20
100
AcDbEntity
  8
STEMPEL
100
AcDbLine
 10
182.9445923191987
 20
692.3760084808264
 30
0.0
 11
197.4441351542071
 21
687.6246131514776
 31
0.0
  0
ARC
  5
396
330
20
100
AcDbEntity
  8
STEMPEL
100
AcDbCircle
 10
199.0011330425302
 20
692.3760084808264
 30
0.0
 40
5.0
100
AcDbArc
 50
251.8564042069558
 51
288.1435957930441
  0
LINE
  5
397
330
20
100
AcDbEntity
  8
HILF
100
AcDbLine
 10
182.9445923191986
 20
705.3760084808264
 30
0.0
 11
182.9445923191987
 21
712.3760084808265
 31
0.0
  0
TEXT
  5
39C
330
20
100
AcDbEntity
  8
TEXT
100
AcDbText
 10
521.703488726959
 20
654.862987254257
 30
0.0
 40
5.0
  1
Fallrohrlänge 3000mm
 50
90.0
 41
0.8
  7
GREEKS
100
AcDbText
  0
TEXT
  5
39D
330
20
100
AcDbEntity
  8
TEXT
100
AcDbText
 10
491.4510671988221
 20
654.8779403809009
 30
0.0
 40
5.0
  1
Benennung
 50
90.0
 41
0.8
  7
GREEKS
100
AcDbText
  0
LINE
  5
39E
330
20
100
AcDbEntity
  8
HILF
100
AcDbLine
 10
524.0
 20
654.7736801096947
 30
0.0
 11
524.0
 21
746.629784251481
 31
0.0
  0
LINE
  5
39F
330
20
100
AcDbEntity
  8
HILF
100
AcDbLine
 10
509.9624175243587
 20
654.7736801096947
 30
0.0
 11
509.9624175243587
 21
746.629784251481
 31
0.0
  0
LINE
  5
3A0
330
20
100
AcDbEntity
  8
STEMPEL
100
AcDbLine
 10
514.0
 20
830.0
 30
0.0
 11
514.0
 21
566.0000000000001
 31
0.0
  0
LINE
  5
3A1
330
20
100
AcDbEntity
  8
STEMPEL
100
AcDbLine
 10
484.0
 20
830.0
 30
0.0
 11
484.0
 21
470.0
 31
0.0
  0
TEXT
  5
3A2
330
20
100
AcDbEntity
  8
TEXT
 62
     1
100
AcDbText
 10
507.0058791601468
 20
654.979117340995
 30
0.0
 40
7.0
  1
Ablaufeinheit
 50
90.0
 41
0.8
  7
GREEKS
100
AcDbText
  0
LINE
  5
3A4
102
{ACAD_REACTORS
330
6B4
102
}
330
20
100
AcDbEntity
  8
STEMPEL
100
AcDbLine
 10
281.7511330425301
 20
607.3760084808263
 30
0.0
 11
281.7511330425301
 21
533.609225552953
 31
0.0
  0
LINE
  5
3A5
102
{ACAD_REACTORS
330
6B4
102
}
330
20
100
AcDbEntity
  8
STEMPEL
100
AcDbLine
 10
283.7511330425301
 20
607.1457674518267
 30
0.0
 11
283.7511330425301
 21
534.1962546744825
 31
0.0
  0
LINE
  5
3A8
102
{ACAD_REACTORS
330
5FA
102
}
330
20
100
AcDbEntity
  8
STEMPEL
100
AcDbLine
 10
301.7450210613564
 20
680.0763239524293
 30
0.0
 11
288.7511330425301
 21
650.3760084808265
 31
0.0
  0
LINE
  5
3AA
102
{ACAD_REACTORS
330
6B4
102
}
330
20
100
AcDbEntity
  8
STEMPEL
100
AcDbLine
 10
290.8048559492968
 20
650.3760084808264
 30
0.0
 11
283.7511330425301
 21
607.1457674518267
 31
0.0
  0
LINE
  5
3AB
102
{ACAD_REACTORS
330
6B4
102
}
330
20
100
AcDbEntity
  8
STEMPEL
100
AcDbLine
 10
288.7511330425301
 20
650.3760084808265
 30
0.0
 11
281.7511330425301
 21
607.3760084808263
 31
0.0
  0
ARC
  5
3AC
330
20
100
AcDbEntity
  8
BEM
100
AcDbCircle
 10
289.5521104217058
 20
650.3400510264177
 30
0.0
 40
2.984610030358279
100
AcDbArc
 50
285.0833709134795
 51
30.43095329033311
  0
LINE
  5
3AD
330
20
100
AcDbEntity
  8
STEMPEL
100
AcDbLine
 10
252.4785993380612
 20
700.3760084808264
 30
0.0
 11
258.0954897918165
 21
700.3760084808265
 31
0.0
  0
LINE
  5
3AE
330
20
100
AcDbEntity
  8
STEMPEL
100
AcDbLine
 10
252.4785993380612
 20
707.3760084808265
 30
0.0
 11
258.0954897918165
 21
707.3760084808265
 31
0.0
  0
LINE
  5
3AF
330
20
100
AcDbEntity
  8
HILF
100
AcDbLine
 10
215.0576737658614
 20
705.3760084808264
 30
0.0
 11
215.0576737658614
 21
712.3760084808265
 31
0.0
  0
LINE
  5
3B0
330
20
100
AcDbEntity
  8
STEMPEL
100
AcDbLine
 10
252.4785993380612
 20
700.3760084808264
 30
0.0
 11
252.4785993380612
 21
707.3760084808265
 31
0.0
  0
LINE
  5
3B1
330
20
100
AcDbEntity
  8
STEMPEL
100
AcDbLine
 10
255.4815066157386
 20
700.3760084808264
 30
0.0
 11
262.486134647262
 21
695.3760084808265
 31
0.0
  0
LINE
  5
3B2
330
20
100
AcDbEntity
  8
STEMPEL
100
AcDbLine
 10
258.0954897918165
 20
700.3760084808265
 30
0.0
 11
265.0965803752637
 21
695.3760084808265
 31
0.0
  0
LINE
  5
3B3
330
20
100
AcDbEntity
  8
STEMPEL
100
AcDbLine
 10
268.5969620510529
 20
695.3760084808265
 30
0.0
 11
268.5969620510529
 21
698.3760084808263
 31
0.0
  0
LINE
  5
3B4
330
20
100
AcDbEntity
  8
STEMPEL
100
AcDbLine
 10
262.486134647262
 20
695.3760084808265
 30
0.0
 11
268.5969620510529
 21
695.3760084808265
 31
0.0
  0
LINE
  5
3B5
330
20
100
AcDbEntity
  8
STEMPEL
100
AcDbLine
 10
262.486134647262
 20
712.3760084808265
 30
0.0
 11
268.5969620510529
 21
712.3760084808265
 31
0.0
  0
LINE
  5
3B6
330
20
100
AcDbEntity
  8
STEMPEL
100
AcDbLine
 10
265.0965803752637
 20
712.3760084808265
 30
0.0
 11
258.0954897918165
 21
707.3760084808265
 31
0.0
  0
LINE
  5
3B7
330
20
100
AcDbEntity
  8
STEMPEL
100
AcDbLine
 10
255.4815066157386
 20
707.3760084808265
 30
0.0
 11
262.486134647262
 21
712.3760084808265
 31
0.0
  0
LINE
  5
3B8
330
20
100
AcDbEntity
  8
STEMPEL
100
AcDbLine
 10
255.0948049344678
 20
700.3760084808264
 30
0.0
 11
255.0948049344678
 21
707.3760084808265
 31
0.0
  0
LINE
  5
3B9
330
20
100
AcDbEntity
  8
STEMPEL
100
AcDbLine
 10
268.5969620510529
 20
709.3760084808264
 30
0.0
 11
268.5969620510529
 21
712.3760084808265
 31
0.0
  0
LINE
  5
3BA
330
20
100
AcDbEntity
  8
STEMPEL
100
AcDbLine
 10
267.5966653765641
 20
698.3760084808265
 30
0.0
 11
268.5969620510529
 21
698.3760084808263
 31
0.0
  0
LINE
  5
3BB
330
20
100
AcDbEntity
  8
STEMPEL
100
AcDbLine
 10
267.5966653765641
 20
709.3760084808264
 30
0.0
 11
268.5969620510529
 21
709.3760084808264
 31
0.0
  0
LINE
  5
3BC
330
20
100
AcDbEntity
  8
STEMPEL
100
AcDbLine
 10
267.5966653765641
 20
698.3760084808265
 30
0.0
 11
267.5966653765641
 21
709.3760084808264
 31
0.0
  0
LINE
  5
3BD
330
20
100
AcDbEntity
  8
STEMPEL
100
AcDbLine
 10
340.1031300995894
 20
702.3760084808266
 30
0.0
 11
304.1261330425301
 21
702.3760084808265
 31
0.0
  0
LINE
  5
3BE
330
20
100
AcDbEntity
  8
STEMPEL
100
AcDbLine
 10
312.700912444437
 20
697.8778866938581
 30
0.0
 11
339.5529095014964
 21
700.3507266577312
 31
0.0
  0
LINE
  5
3BF
330
20
100
AcDbEntity
  8
STEMPEL
100
AcDbLine
 10
312.517505578406
 20
699.8694594194931
 30
0.0
 11
339.3695026354653
 21
702.3422993833661
 31
0.0
  0
LINE
  5
3C0
330
20
100
AcDbEntity
  8
STEMPEL
100
AcDbLine
 10
354.8261215974938
 20
697.3760084808266
 30
0.0
 11
310.7918602374442
 21
697.3760084808264
 31
0.0
  0
ARC
  5
3C1
330
20
100
AcDbEntity
  8
STEMPEL
100
AcDbCircle
 10
313.2511330425301
 20
691.9031685169536
 30
0.0
 40
8.0
100
AcDbArc
 50
95.26161193126053
 51
180.0
  0
LINE
  5
3C2
102
{ACAD_REACTORS
330
5FA
102
}
330
20
100
AcDbEntity
  8
STEMPEL
100
AcDbLine
 10
299.2511330425301
 20
688.3760084808264
 30
0.0
 11
300.2511330425301
 21
712.3760084808265
 31
0.0
  0
LINE
  5
3C3
102
{ACAD_REACTORS
330
5FA
102
}
330
20
100
AcDbEntity
  8
STEMPEL
100
AcDbLine
 10
301.7511330425301
 20
688.3760084808264
 30
0.0
 11
302.7511330425301
 21
712.3760084808265
 31
0.0
  0
LINE
  5
3C4
330
20
100
AcDbEntity
  8
STEMPEL
100
AcDbLine
 10
305.2511330425301
 20
693.3760084808264
 30
0.0
 11
302.7511330425301
 21
712.3760084808265
 31
0.0
  0
LINE
  5
3C7
330
20
100
AcDbEntity
  8
STEMPEL
100
AcDbLine
 10
307.2511330425301
 20
691.9031685169535
 30
0.0
 11
307.2511330425301
 21
682.3760084808263
 31
0.0
  0
LINE
  5
3C8
102
{ACAD_REACTORS
330
5FA
102
}
330
20
100
AcDbEntity
  8
STEMPEL
100
AcDbLine
 10
305.2511330425301
 20
691.9031685169536
 30
0.0
 11
305.2511330425301
 21
682.3760084808265
 31
0.0
  0
ARC
  5
3C9
330
20
100
AcDbEntity
  8
BEM
100
AcDbCircle
 10
303.88382462892
 20
682.8660895723637
 30
0.0
 40
3.402784951866976
100
AcDbArc
 50
275.4164668401239
 51
351.7192620849964
  0
LINE
  5
3CA
330
20
100
AcDbEntity
  8
STEMPEL
100
AcDbLine
 10
307.2511330425301
 20
682.3760084808263
 30
0.0
 11
305.2511330425301
 21
682.3760084808265
 31
0.0
  0
LINE
  5
3CB
330
20
100
AcDbEntity
  8
STEMPEL
100
AcDbLine
 10
301.7511330425301
 20
688.3760084808264
 30
0.0
 11
305.2511330425301
 21
693.3760084808264
 31
0.0
  0
LINE
  5
3CC
102
{ACAD_REACTORS
330
5FA
102
}
330
20
100
AcDbEntity
  8
STEMPEL
100
AcDbLine
 10
305.2511330425301
 20
688.3760084808264
 30
0.0
 11
302.7511330425301
 21
688.3760084808264
 31
0.0
  0
LINE
  5
3CD
102
{ACAD_REACTORS
330
5FA
102
}
330
20
100
AcDbEntity
  8
STEMPEL
100
AcDbLine
 10
301.7511330425301
 20
688.3760084808264
 30
0.0
 11
299.2511330425301
 21
688.3760084808264
 31
0.0
  0
LINE
  5
3CE
102
{ACAD_REACTORS
330
5FA
102
}
330
20
100
AcDbEntity
  8
STEMPEL
100
AcDbLine
 10
302.7511330425301
 20
689.8045799093979
 30
0.0
 11
302.7511330425302
 21
684.8861499606658
 31
0.0
  0
ARC
  5
3CF
330
20
100
AcDbEntity
  8
STEMPEL
100
AcDbCircle
 10
313.2511330425301
 20
691.9031685169535
 30
0.0
 40
6.0
100
AcDbArc
 50
95.26161193126048
 51
180.0000000000002
  0
LINE
  5
3D0
102
{ACAD_REACTORS
330
5FA
102
}
330
20
100
AcDbEntity
  8
STEMPEL
100
AcDbLine
 10
302.7511330425301
 20
722.3760084808263
 30
0.0
 11
302.7511330425301
 21
712.3760084808265
 31
0.0
  0
LINE
  5
3D1
102
{ACAD_REACTORS
330
5FA
102
}
330
20
100
AcDbEntity
  8
STEMPEL
100
AcDbLine
 10
305.2511330425301
 20
722.3760084808263
 30
0.0
 11
305.2511330425301
 21
712.3760084808265
 31
0.0
  0
LINE
  5
3D2
102
{ACAD_REACTORS
330
5FA
102
}
330
20
100
AcDbEntity
  8
STEMPEL
100
AcDbLine
 10
305.2511330425301
 20
712.3760084808265
 30
0.0
 11
300.2511330425301
 21
712.3760084808265
 31
0.0
  0
POINT
  5
3D3
330
20
100
AcDbEntity
  8
DEFPOINTS
  6
ByBlock
 62
     0
100
AcDbPoint
 10
302.7511330425301
 20
722.3760084808264
 30
0.0
  0
LINE
  5
3D5
330
20
100
AcDbEntity
  8
STEMPEL
100
AcDbLine
 10
355.2503866991675
 20
699.330490285168
 30
0.0
 11
341.7689744993961
 21
702.2006466472617
 31
0.0
  0
LINE
  5
3D6
330
20
100
AcDbEntity
  8
STEMPEL
100
AcDbLine
 10
354.8261182183414
 20
697.375992913928
 30
0.0
 11
341.3525133994444
 21
700.2444871056528
 31
0.0
  0
LINE
  5
3D7
330
20
100
AcDbEntity
  8
STEMPEL
100
AcDbLine
 10
355.2503866991675
 20
699.330490285168
 30
0.0
 11
354.8261215974938
 21
697.3760084808266
 31
0.0
  0
ARC
  5
3D8
330
20
100
AcDbEntity
  8
STEMPEL
100
AcDbCircle
 10
340.1031300995894
 20
694.3760084808266
 30
0.0
 40
8.0
100
AcDbArc
 50
77.98132192185753
 51
95.26161193126052
  0
ARC
  5
3D9
330
20
100
AcDbEntity
  8
STEMPEL
100
AcDbCircle
 10
340.1031300995894
 20
694.3760084808266
 30
0.0
 40
6.0
100
AcDbArc
 50
77.98132192185772
 51
95.26161193126062
  0
TEXT
  5
3DA
330
20
100
AcDbEntity
  8
TEXT
100
AcDbText
 10
480.4045780774092
 20
470.2031266103855
 30
0.0
 40
5.0
  1
Erstellt mit AUTOCAD 2004
 50
90.0
 41
0.8
  7
GREEKS
100
AcDbText
  0
LINE
  5
3DB
330
20
100
AcDbEntity
  8
HILF
100
AcDbLine
 10
524.0
 20
470.0
 30
0.0
 11
524.0
 21
566.0000000000001
 31
0.0
  0
LINE
  5
3DC
330
20
100
AcDbEntity
  8
HILF
100
AcDbLine
 10
514.0
 20
470.0
 30
0.0
 11
514.0
 21
566.0000000000001
 31
0.0
  0
LINE
  5
3DD
330
20
100
AcDbEntity
  8
HILF
100
AcDbLine
 10
504.0
 20
470.0
 30
0.0
 11
504.0
 21
566.0000000000001
 31
0.0
  0
LINE
  5
3DE
330
20
100
AcDbEntity
  8
HILF
100
AcDbLine
 10
494.0
 20
470.0
 30
0.0
 11
494.0
 21
566.0000000000001
 31
0.0
  0
LINE
  5
3DF
330
20
100
AcDbEntity
  8
HILF
100
AcDbLine
 10
524.0
 20
566.0000000000001
 30
0.0
 11
524.0
 21
649.9999999999999
 31
0.0
  0
TEXT
  5
3E0
330
20
100
AcDbEntity
  8
TEXT
100
AcDbText
 10
491.5379104912911
 20
573.5163572150375
 30
0.0
 40
5.0
  1
Maßstab
 50
90.0
 41
0.8
  7
GREEKS
100
AcDbText
  0
TEXT
  5
3E1
330
20
100
AcDbEntity
  8
TEXT
 62
     1
100
AcDbText
 10
507.7758949562678
 20
578.8064310364449
 30
0.0
 40
7.0
  1
1:2
 50
90.0
 41
0.8
  7
GREEKS
100
AcDbText
  0
TEXT
  5
3E2
330
20
100
AcDbEntity
  8
TEXT
100
AcDbText
 10
520.8541631609584
 20
568.5426010951829
 30
0.0
 40
3.6
  1
2008
 50
90.0
 41
0.8
  7
GREEKS
100
AcDbText
  0
TEXT
  5
3E3
330
20
100
AcDbEntity
  8
TEXT
100
AcDbText
 10
530.3700963038204
 20
567.5836127167614
 30
0.0
 40
3.6
  1
Gez.
 50
90.0
 41
0.8
  7
GREEKS
100
AcDbText
  0
TEXT
  5
3E4
330
20
100
AcDbEntity
  8
TEXT
100
AcDbText
 10
520.6811949877008
 20
592.3311673153649
 30
0.0
 40
3.6
  1
Tag
 50
90.0
 41
0.8
  7
GREEKS
100
AcDbText
  0
TEXT
  5
3E5
330
20
100
AcDbEntity
  8
TEXT
100
AcDbText
 10
491.5815831565181
 20
617.9646614905597
 30
0.0
 40
5.0
  1
zul.Abw
 50
90.0
 41
0.8
  7
GREEKS
100
AcDbText
  0
TEXT
  5
3E6
330
20
100
AcDbEntity
  8
TEXT
100
AcDbText
 10
520.6903890808478
 20
622.4626584226294
 30
0.0
 40
3.6
  1
Name
 50
90.0
 41
0.8
  7
GREEKS
100
AcDbText
  0
TEXT
  5
3E8
330
20
100
AcDbEntity
  8
TEXT
 62
     1
100
AcDbText
 10
506.9813625823642
 20
768.5044394842364
 30
0.0
 40
7.0
  1
16131100W
 50
90.0
 41
0.8
  7
GREEKS
 72
     1
 11
506.9813625823642
 21
790.3711061509031
 31
0.0
100
AcDbText
  0
LINE
  5
3E9
330
20
100
AcDbEntity
  8
HILF
100
AcDbLine
 10
510.2201636304418
 20
756.7238616296994
 30
0.0
 11
510.2201636304418
 21
824.8588839326728
 31
0.0
  0
TEXT
  5
3EB
330
20
100
AcDbEntity
  8
TEXT
100
AcDbText
 10
491.6867965462863
 20
756.1787549576341
 30
0.0
 40
5.0
  1
Zeichnungs Nr.
 50
90.0
 41
0.8
  7
GREEKS
100
AcDbText
  0
TEXT
  5
3EC
330
20
100
AcDbEntity
  8
TEXT
100
AcDbText
 10
520.8188176290003
 20
756.7238616296994
 30
0.0
 40
5.0
  1
Ersatz für:
 50
90.0
 41
0.8
  7
GREEKS
100
AcDbText
  0
LINE
  5
3ED
330
20
100
AcDbEntity
  8
STEMPEL
100
AcDbLine
 10
584.0
 20
40.0
 30
0.0
 11
584.0
 21
830.0
 31
0.0
  0
LINE
  5
3EE
330
20
100
AcDbEntity
  8
HILF
100
AcDbLine
 10
594.0
 20
0.0
 30
0.0
 11
594.0
 21
840.0000000000002
 31
0.0
  0
TEXT
  5
3EF
330
20
100
AcDbEntity
  8
TEXT
100
AcDbText
 10
551.8049542698645
 20
654.9713400534564
 30
0.0
 40
3.6
  1
16131100W.DWG
 50
90.0
 41
0.8
  7
GREEKS
100
AcDbText
  0
TEXT
  5
3F0
330
20
100
AcDbEntity
  8
TEXT
100
AcDbText
 10
541.2486885465454
 20
655.162303158329
 30
0.0
 40
5.0
  1
EDV-Art.Nr. 16131.100X
 50
90.0
 41
0.8
  7
GREEKS
100
AcDbText
  0
TEXT
  5
3F1
330
20
100
AcDbEntity
  8
TEXT
100
AcDbText
 10
563.1543942980694
 20
654.7422383911358
 30
0.0
 40
5.0
  1
Bauvorhaben
 50
90.0
 41
0.8
  7
GREEKS
100
AcDbText
  0
LINE
  5
3F2
330
20
100
AcDbEntity
  8
HILF
100
AcDbLine
 10
579.1060174197169
 20
654.7736801096947
 30
0.0
 11
579.1060174197169
 21
824.8588839326728
 31
0.0
  0
LINE
  5
3F3
330
20
100
AcDbEntity
  8
HILF
100
AcDbLine
 10
544.0
 20
654.7736801096947
 30
0.0
 11
544.0
 21
746.629784251481
 31
0.0
  0
LINE
  5
3F4
330
20
100
AcDbEntity
  8
HILF
100
AcDbLine
 10
534.0
 20
654.7736801096947
 30
0.0
 11
534.0
 21
746.629784251481
 31
0.0
  0
LINE
  5
3F5
330
20
100
AcDbEntity
  8
STEMPEL
100
AcDbLine
 10
554.0
 20
830.0
 30
0.0
 11
554.0
 21
565.9999999999999
 31
0.0
  0
LINE
  5
3F8
330
20
100
AcDbEntity
  8
HILF
100
AcDbLine
 10
554.0
 20
470.0
 30
0.0
 11
554.0
 21
566.0000000000001
 31
0.0
  0
LINE
  5
3F9
330
20
100
AcDbEntity
  8
HILF
100
AcDbLine
 10
544.0
 20
470.0
 30
0.0
 11
544.0
 21
566.0000000000001
 31
0.0
  0
LINE
  5
3FA
330
20
100
AcDbEntity
  8
HILF
100
AcDbLine
 10
534.0
 20
470.0
 30
0.0
 11
534.0
 21
566.0000000000001
 31
0.0
  0
LINE
  5
3FB
330
20
100
AcDbEntity
  8
STEMPEL
100
AcDbLine
 10
564.0
 20
565.9999999999999
 30
0.0
 11
564.0
 21
469.9999999999999
 31
0.0
  0
TEXT
  5
3FC
330
20
100
AcDbEntity
  8
TEXT
100
AcDbText
 10
580.3453415397281
 20
478.2664110704574
 30
0.0
 40
3.6
  1
Index
 50
180.0
 41
0.8
  7
GREEKS
100
AcDbText
  0
LINE
  5
3FE
330
20
100
AcDbEntity
  8
BEM
100
AcDbLine
 10
594.0
 20
460.0
 30
0.0
 11
584.0
 21
460.0
 31
0.0
  0
TEXT
  5
400
330
20
100
AcDbEntity
  8
TEXT
100
AcDbText
 10
575.7344248114842
 20
492.8541541453389
 30
0.0
 40
4.0
  1
Änderung
 50
90.0
 41
0.8
  7
GREEKS
 72
     4
 11
574.0201390971986
 21
503.5970112881961
 31
0.0
100
AcDbText
  0
INSERT
  5
403
330
20
100
AcDbEntity
  8
STEMPEL
100
AcDbBlockReference
  2
LOGO
 10
549.6760802813285
 20
568.9705276546529
 30
0.0
 41
2.0
 42
2.0
 43
2.0
 50
90.0
  0
LINE
  5
404
330
20
100
AcDbEntity
  8
HILF
100
AcDbLine
 10
544.0
 20
566.0000000000001
 30
0.0
 11
544.0
 21
649.9999999999999
 31
0.0
  0
LINE
  5
405
330
20
100
AcDbEntity
  8
HILF
100
AcDbLine
 10
534.0
 20
566.0000000000001
 30
0.0
 11
534.0
 21
649.9999999999999
 31
0.0
  0
TEXT
  5
406
330
20
100
AcDbEntity
  8
TEXT
100
AcDbText
 10
540.3107370857163
 20
567.5515086571671
 30
0.0
 40
3.6
  1
Gepr.
 50
90.0
 41
0.8
  7
GREEKS
100
AcDbText
  0
TEXT
  5
407
330
20
100
AcDbEntity
  8
TEXT
100
AcDbText
 10
550.470536103502
 20
567.6006777387303
 30
0.0
 40
3.6
  1
Norm.
 50
90.0
 41
0.8
  7
GREEKS
100
AcDbText
  0
LINE
  5
408
330
20
100
AcDbEntity
  8
VOLL
100
AcDbLine
 10
534.0
 20
752.0000000000001
 30
0.0
 11
534.0
 21
830.0
 31
0.0
  0
TEXT
  5
409
330
20
100
AcDbEntity
  8
TEXT
100
AcDbText
 10
541.925838221214
 20
757.2400861497007
 30
0.0
 40
5.0
  1
ersetzt durch:
 50
90.0
 41
0.8
  7
GREEKS
100
AcDbText
  0
TEXT
  5
54A
330
20
100
AcDbEntity
  8
TEXT
100
AcDbText
 10
576.0201390971985
 20
548.6060590681177
 30
0.0
 40
4.0
  1
Name
 50
90.0
 41
0.8
  7
GREEKS
 72
     4
 11
574.0201390971986
 21
554.9298685919271
 31
0.0
100
AcDbText
  0
TEXT
  5
54B
330
20
100
AcDbEntity
  8
TEXT
100
AcDbText
 10
575.3534724305319
 20
530.3153726668427
 30
0.0
 40
4.0
  1
Tag
 50
90.0
 41
0.8
  7
GREEKS
 72
     4
 11
574.0201390971986
 21
534.0487060001761
 31
0.0
100
AcDbText
  0
LINE
  5
5AD
102
{ACAD_REACTORS
330
5FA
102
}
330
20
100
AcDbEntity
  8
STEMPEL
100
AcDbLine
 10
161.4668516864483
 20
679.0742768673805
 30
0.0
 11
174.0223441055655
 21
650.3760084808265
 31
0.0
  0
LINE
  5
5AE
102
{ACAD_REACTORS
330
5FA
102
}
330
20
100
AcDbEntity
  8
STEMPEL
100
AcDbLine
 10
304.0354143986119
 20
679.0742768673801
 30
0.0
 11
291.4799219794947
 21
650.3760084808265
 31
0.0
  0
ARC
  5
5C2
102
{ACAD_REACTORS
330
5FA
102
}
330
20
100
AcDbEntity
  8
STEMPEL
100
AcDbCircle
 10
174.7511330425301
 20
684.8861499606662
 30
0.0
 40
12.0
100
AcDbArc
 50
180.0
 51
203.6293777306567
  0
ARC
  5
5C4
102
{ACAD_REACTORS
330
5FA
102
}
330
20
100
AcDbEntity
  8
STEMPEL
100
AcDbCircle
 10
174.7511330425301
 20
684.8861499606662
 30
0.0
 40
14.5
100
AcDbArc
 50
180.0
 51
203.6293777306567
  0
ARC
  5
5C5
102
{ACAD_REACTORS
330
5FA
102
}
330
20
100
AcDbEntity
  8
STEMPEL
100
AcDbCircle
 10
290.7511330425302
 20
684.8861499606658
 30
0.0
 40
12.0
100
AcDbArc
 50
336.3706222693432
 51
0.0
  0
ARC
  5
5C7
102
{ACAD_REACTORS
330
5FA
102
}
330
20
100
AcDbEntity
  8
STEMPEL
100
AcDbCircle
 10
290.7511330425302
 20
684.8861499606658
 30
0.0
 40
14.5
100
AcDbArc
 50
336.3706222693432
 51
0.0
  0
HATCH
  5
5FA
330
20
100
AcDbEntity
  8
SCHRAFF
100
AcDbHatch
 10
0.0
 20
0.0
 30
0.0
210
0.0
220
0.0
230
1.0
  2
_USER
 70
     0
 71
     1
 91
        6
 92
        7
 72
     0
 73
     1
 93
        4
 10
302.7511330425301
 20
712.3760084808265
 10
305.25113304253
 20
712.3760084808265
 10
305.25113304253
 20
722.3760084808263
 10
302.7511330425301
 20
722.3760084808263
 97
        4
330
36C
330
3D0
330
3D2
330
3D1
 92
        7
 72
     0
 73
     1
 93
        4
 10
299.2511330425301
 20
688.3760084808264
 10
301.7511330425302
 20
688.3760084808264
 10
302.7511330425301
 20
712.3760084808264
 10
300.2511330425301
 20
712.3760084808266
 97
        4
330
3D2
330
3C2
330
3CD
330
3C3
 92
        7
 72
     1
 73
     1
 93
        8
 10
301.7450210613564
 20
680.0763239524292
 42
0.0
 10
288.7511330425302
 20
650.3760084808265
 42
0.0
 10
291.4799219794947
 20
650.3760084808265
 42
0.0
 10
304.0354143986119
 20
679.0742768673801
 42
0.1034695025373801
 10
305.2511330425301
 20
684.8861499606658
 42
0.0
 10
305.2511330425301
 20
688.3760084808264
 42
0.0
 10
302.7511330425301
 20
688.3760084808264
 42
0.0
 10
302.7511330425302
 20
684.8861499606658
 42
-0.103469502537383
 97
        8
330
3C8
330
3CC
330
3CE
330
5C5
330
3A8
330
36B
330
5AE
330
5C7
 92
        7
 72
     0
 73
     1
 93
        4
 10
162.7511330425301
 20
722.3760084808263
 10
160.2511330425301
 20
722.3760084808263
 10
160.2511330425301
 20
712.3760084808266
 10
162.7511330425301
 20
712.3760084808266
 97
        4
330
36C
330
392
330
393
330
391
 92
        7
 72
     0
 73
     1
 93
        4
 10
165.2511330425301
 20
712.3760084808266
 10
162.7511330425301
 20
712.3760084808265
 10
163.7511330425301
 20
688.3760084808264
 10
166.2511330425301
 20
688.3760084808264
 97
        4
330
393
330
384
330
38D
330
385
 92
        7
 72
     1
 73
     1
 93
        8
 10
162.7511330425301
 20
688.3760084808264
 42
0.0
 10
160.2511330425301
 20
688.3760084808264
 42
0.0
 10
160.2511330425302
 20
684.886149960666
 42
0.1034695025373795
 10
161.4668516864484
 20
679.0742768673802
 42
0.0
 10
174.0223441055655
 20
650.3760084808265
 42
0.0
 10
176.75113304253
 20
650.3760084808265
 42
0.0
 10
163.7572450237038
 20
680.0763239524298
 42
-0.1034695025373797
 10
162.7511330425301
 20
684.8861499606662
 42
0.0
 97
        8
330
38F
330
389
330
5C4
330
5AD
330
36B
330
37E
330
5C2
330
390
 75
     0
 76
     0
 52
45.0
 41
2.0
 77
     0
 78
     1
 53
45.0
 43
12.54151500429134
 44
50.14904351880886
 45
-1.414213562373094
 46
1.414213562373095
 79
     0
 47
0.4282532414348583
 98
        6
 10
303.9484963493787
 20
717.5748494911674
 10
300.9484944157339
 20
705.5837595992877
 10
303.5199240981533
 20
684.1710966748935
 10
160.8056092357896
 20
719.2878620501375
 10
164.6627518469527
 20
707.2967721582578
 10
161.6627537382405
 20
685.8841092338637
  0
HATCH
  5
62F
330
20
100
AcDbEntity
  8
SCHRAFF
100
AcDbHatch
 10
0.0
 20
0.0
 30
0.0
210
0.0
220
0.0
230
1.0
  2
_USER
 70
     0
 71
     0
 91
        2
 92
        7
 72
     1
 73
     1
 93
        4
 10
292.1255610675747
 20
651.8517549678668
 42
0.0
 10
291.4799219794947
 20
650.3760084808267
 42
0.0
 10
290.8048559492968
 20
650.3760084808268
 42
0.0
 10
290.3287784368041
 20
647.4582661927358
 42
0.4950322819736291
 97
        0
 92
        7
 72
     1
 73
     1
 93
        4
 10
174.6974101357636
 20
650.3760084808265
 42
0.0
 10
174.0223441055656
 20
650.3760084808265
 42
0.0
 10
173.3767050174855
 20
651.8517549678667
 42
0.4950322819736338
 10
175.1734876482563
 20
647.4582661927358
 42
0.0
 97
        0
 75
     0
 76
     0
 52
0.0
 41
0.1
 77
     0
 78
     1
 53
0.0
 43
12.54151500429134
 44
50.14904351880886
 45
0.0
 46
0.1
 79
     0
 47
0.1740735806194899
 98
        2
 10
291.7909052062446
 20
650.3529285107849
 10
174.3781157144622
 20
649.1344131663184
  0
TEXT
  5
630
330
20
100
AcDbEntity
  8
TEXT
100
AcDbText
 10
506.3722848492374
 20
613.0181688640374
 30
0.0
 40
4.0
  1
DIN EN1123-2
 50
90.0
 41
0.8
  7
GREEKS
100
AcDbText
  0
SPLINE
  5
647
102
{ACAD_REACTORS
330
6B4
102
}
330
20
100
AcDbEntity
  8
HILF
100
AcDbSpline
210
0.0
220
0.0
230
1.0
 70
     8
 71
     3
 72
    11
 73
     7
 74
     5
 42
0.0000000001
 43
0.0000000001
 44
0.0000000001
 40
0.0
 40
0.0
 40
0.0
 40
0.0
 40
25.98557292037257
 40
51.97114584074513
 40
77.9567187611177
 40
103.9422916814902
 40
103.9422916814902
 40
103.9422916814902
 40
103.9422916814902
 10
181.7511330425301
 20
534.1962546744825
 30
0.0
 10
190.2511330425301
 20
536.6962546744826
 30
0.0
 10
207.2511330425301
 20
541.6962546744825
 30
0.0
 10
232.7511330425302
 20
534.1962546744828
 30
0.0
 10
258.25113304253
 20
526.6962546744824
 30
0.0
 10
275.2511330425302
 20
531.6962546744825
 30
0.0
 10
283.7511330425301
 20
534.1962546744825
 30
0.0
 11
181.7511330425301
 21
534.1962546744825
 31
0.0
 11
207.2511330425301
 21
539.1962546744825
 31
0.0
 11
232.7511330425301
 21
534.1962546744825
 31
0.0
 11
258.2511330425301
 21
529.1962546744826
 31
0.0
 11
283.7511330425301
 21
534.1962546744825
 31
0.0
  0
SPLINE
  5
648
102
{ACAD_REACTORS
330
6B4
102
}
330
20
100
AcDbEntity
  8
HILF
100
AcDbSpline
210
0.0
220
0.0
230
1.0
 70
     8
 71
     3
 72
    11
 73
     7
 74
     5
 42
0.0000000001
 43
0.0000000001
 44
0.0000000001
 40
0.0
 40
0.0
 40
0.0
 40
0.0
 40
25.98557292037257
 40
51.97114584074513
 40
77.9567187611177
 40
103.9422916814902
 40
103.9422916814902
 40
103.9422916814902
 40
103.9422916814902
 10
181.7511330425301
 20
529.1962546744826
 30
0.0
 10
190.2511330425301
 20
531.6962546744825
 30
0.0
 10
207.2511330425301
 20
536.6962546744824
 30
0.0
 10
232.7511330425302
 20
529.1962546744826
 30
0.0
 10
258.25113304253
 20
521.6962546744825
 30
0.0
 10
275.2511330425302
 20
526.6962546744827
 30
0.0
 10
283.7511330425301
 20
529.1962546744825
 30
0.0
 11
181.7511330425301
 21
529.1962546744826
 31
0.0
 11
207.2511330425301
 21
534.1962546744825
 31
0.0
 11
232.7511330425301
 21
529.1962546744826
 31
0.0
 11
258.2511330425301
 21
524.1962546744826
 31
0.0
 11
283.7511330425301
 21
529.1962546744825
 31
0.0
  0
LINE
  5
675
102
{ACAD_REACTORS
330
6B4
102
}
330
20
100
AcDbEntity
  8
STEMPEL
100
AcDbLine
 10
183.7511330425301
 20
529.783283796012
 30
0.0
 11
183.7511330425301
 21
380.9009291284484
 31
0.0
  0
LINE
  5
676
102
{ACAD_REACTORS
330
6B4
102
}
330
20
100
AcDbEntity
  8
STEMPEL
100
AcDbLine
 10
181.7511330425301
 20
529.1962546744826
 30
0.0
 11
181.7511330425301
 21
380.9009291284484
 31
0.0
  0
LINE
  5
677
102
{ACAD_REACTORS
330
6B4
102
}
330
20
100
AcDbEntity
  8
STEMPEL
100
AcDbLine
 10
281.7511330425301
 20
528.609225552953
 30
0.0
 11
281.7511330425301
 21
380.9009291284484
 31
0.0
  0
LINE
  5
678
102
{ACAD_REACTORS
330
6B4
102
}
330
20
100
AcDbEntity
  8
STEMPEL
100
AcDbLine
 10
283.7511330425301
 20
529.1962546744825
 30
0.0
 11
283.7511330425301
 21
380.9009291284483
 31
0.0
  0
HATCH
  5
6B4
330
20
100
AcDbEntity
  8
SCHRAFF
100
AcDbHatch
 10
0.0
 20
0.0
 30
0.0
210
0.0
220
0.0
230
1.0
  2
_USER
 70
     0
 71
     1
 91
        4
 92
        5
 93
        6
 72
     4
 94
        3
 73
     0
 74
     0
 95
        8
 96
        4
 40
101.9042075308728
 40
101.9042075308728
 40
101.9042075308728
 40
101.9042075308728
 40
103.9422916814902
 40
103.9422916814902
 40
103.9422916814902
 40
103.9422916814902
 10
281.7511330425301
 20
533.6092255529531
 10
282.4177997091968
 20
533.8040978117374
 10
283.0844663758634
 20
534.0001762431099
 10
283.7511330425301
 20
534.1962546744825
 72
     1
 10
283.7511330425301
 20
534.1962546744825
 11
283.7511330425301
 21
607.1457674518271
 72
     1
 10
283.7511330425301
 20
607.1457674518271
 11
290.8048559492968
 21
650.3760084808267
 72
     1
 10
290.8048559492968
 20
650.3760084808267
 11
288.7511330425302
 21
650.3760084808265
 72
     1
 10
288.7511330425302
 20
650.3760084808265
 11
281.7511330425301
 21
607.3760084808263
 72
     1
 10
281.7511330425301
 20
607.3760084808263
 11
281.7511330425301
 21
533.6092255529531
 97
        6
330
3AA
330
36B
330
3AB
330
3A4
330
647
330
3A5
 92
        5
 93
        6
 72
     1
 10
183.7511330425301
 20
607.3760084808265
 11
176.7511330425301
 21
650.3760084808265
 72
     1
 10
176.7511330425301
 20
650.3760084808265
 11
174.6974101357636
 21
650.3760084808265
 72
     1
 10
174.6974101357636
 20
650.3760084808265
 11
181.7511330425301
 21
607.1457674518269
 72
     1
 10
181.7511330425301
 20
607.1457674518269
 11
181.7511330425301
 21
534.1962546744826
 72
     4
 94
        3
 73
     0
 74
     0
 95
        8
 96
        4
 40
0.0
 40
0.0
 40
0.0
 40
0.0
 40
2.038084150617452
 40
2.038084150617452
 40
2.038084150617452
 40
2.038084150617452
 10
181.7511330425301
 20
534.1962546744825
 10
182.4177997091967
 20
534.3923331058552
 10
183.0844663758634
 20
534.5884115372277
 10
183.75113304253
 20
534.7832837960121
 72
     1
 10
183.7511330425301
 20
534.7832837960121
 11
183.7511330425301
 21
607.3760084808265
 97
        6
330
380
330
36B
330
37F
330
370
330
647
330
36F
 92
        5
 93
        6
 72
     1
 10
181.7511330425301
 20
380.9009291284482
 11
182.6260196777893
 21
370.9009291284484
 72
     1
 10
182.6260196777893
 20
370.9009291284484
 11
184.6260196777894
 21
370.9009291284484
 72
     1
 10
184.6260196777894
 20
370.9009291284484
 11
183.7511330425301
 21
380.9009291284479
 72
     1
 10
183.7511330425301
 20
380.9009291284479
 11
183.7511330425301
 21
529.7832837960121
 72
     4
 94
        3
 73
     0
 74
     0
 95
        8
 96
        4
 40
0.0
 40
0.0
 40
0.0
 40
0.0
 40
2.038084150617336
 40
2.038084150617336
 40
2.038084150617336
 40
2.038084150617336
 10
183.75113304253
 20
529.783283796012
 10
183.0844663758633
 20
529.5884115372277
 10
182.4177997091967
 20
529.3923331058551
 10
181.7511330425301
 20
529.1962546744826
 72
     1
 10
181.7511330425301
 20
529.1962546744827
 11
181.7511330425301
 21
380.9009291284482
 97
        6
330
648
330
676
330
33E
330
34B
330
33D
330
675
 92
        5
 93
        6
 72
     1
 10
281.7511330425301
 20
380.9009291284493
 11
280.8762464072709
 21
370.9009291284484
 72
     1
 10
280.8762464072709
 20
370.9009291284484
 11
282.8762464072708
 21
370.9009291284484
 72
     1
 10
282.8762464072708
 20
370.9009291284484
 11
283.7511330425301
 21
380.900929128448
 72
     1
 10
283.7511330425301
 20
380.900929128448
 11
283.7511330425301
 21
529.1962546744823
 72
     4
 94
        3
 73
     0
 74
     0
 95
        8
 96
        4
 40
101.9042075308728
 40
101.9042075308728
 40
101.9042075308728
 40
101.9042075308728
 40
103.9422916814902
 40
103.9422916814902
 40
103.9422916814902
 40
103.9422916814902
 10
283.7511330425301
 20
529.1962546744825
 10
283.0844663758634
 20
529.0001762431098
 10
282.4177997091967
 20
528.8040978117374
 10
281.75113304253
 20
528.609225552953
 72
     1
 10
281.7511330425301
 20
528.609225552953
 11
281.7511330425301
 21
380.9009291284493
 97
        6
330
648
330
677
330
33C
330
34B
330
33B
330
678
 75
     0
 76
     0
 52
135.0
 41
2.0
 77
     0
 78
     1
 53
135.0
 43
12.54151500429134
 44
50.14904351880886
 45
-1.414213562373095
 46
-1.414213562373094
 79
     0
 47
0.6739561447955368
 98
        4
 10
282.4115272653539
 20
547.5953896892653
 10
183.266345502675
 20
565.792204793029
 10
182.5918874430831
 20
515.919449061236
 10
282.4115272653539
 20
513.2236247480184
  0
LINE
  5
717
330
20
100
AcDbEntity
  8
HILF
100
AcDbLine
 10
165.5887539982434
 20
682.3760084808265
 30
0.0
 11
299.9135120868171
 21
682.3760084808263
 31
0.0
  0
TEXT
  5
796
330
20
100
AcDbEntity
  8
TEXT
 62
     1
100
AcDbText
 10
458.0833303654947
 20
665.5421703459327
 30
0.0
 40
7.0
  1
innen und außen beschichtet
 50
90.0
 41
0.8
  7
GREEKS
100
AcDbText
  0
TEXT
  5
797
330
20
100
AcDbEntity
  8
TEXT
 62
     1
100
AcDbText
 10
445.9473217175687
 20
617.5924529085349
 30
0.0
 40
7.0
  1
Werkstoff: E195 EN10305, St37 feuerverzinkt
 50
90.0
 41
0.8
  7
GREEKS
100
AcDbText
  0
TEXT
  5
798
330
20
100
AcDbEntity
  8
TEXT
 62
     1
100
AcDbText
 10
212.6400701379628
 20
465.5723596653664
 30
0.0
 40
7.0
  1
DN100
 50
90.0
 41
0.8
  7
GREEKS
100
AcDbText
  0
LINE
  5
AA6
330
20
100
AcDbEntity
  8
VERDECKT
100
AcDbLine
 10
265.5859188624482
 20
129.9745965722444
 30
0.0
 11
268.1963645904499
 21
131.4531719409444
 31
0.0
  0
LINE
  5
AA7
330
20
100
AcDbEntity
  8
STEMPEL
100
AcDbLine
 10
263.0858338611478
 20
134.3048708177379
 30
0.0
 11
265.6962795891494
 21
135.783446186438
 31
0.0
  0
ARC
  5
AA8
330
20
100
AcDbEntity
  8
BEM
100
AcDbCircle
 10
266.5874531604574
 20
128.2398882825698
 30
0.0
 40
3.0
100
AcDbArc
 50
119.9999999999999
 51
207.1190456226771
  0
INSERT
  5
AA9
330
20
100
AcDbEntity
  8
BEM
100
AcDbBlockReference
  2
*X2
 10
-30.6585228232625
 20
311.3071689309895
 30
0.0
 41
-1.0
 50
180.0
1001
ACAD
1000
HATCH
1002
{
1070
    16
1000
_U,I
1040
0.1
1040
2.356194490192344
1070
     0
1002
}
  0
LINE
  5
AAA
330
20
100
AcDbEntity
  8
STEMPEL
100
AcDbLine
 10
256.0812058296237
 20
146.4372424564586
 30
0.0
 11
258.6951890057024
 21
147.9096907853601
 31
0.0
  0
LINE
  5
AAB
330
20
100
AcDbEntity
  8
STEMPEL
100
AcDbLine
 10
255.6945041483535
 20
153.1070294157909
 30
0.0
 11
269.1966612649386
 21
129.7206072780878
 31
0.0
  0
POINT
  5
AAC
330
20
100
AcDbEntity
  8
DEFPOINTS
  6
ByBlock
 62
     0
100
AcDbPoint
 10
253.0782985519469
 20
151.6384304318133
 30
0.0
  0
LINE
  5
AAD
330
20
100
AcDbEntity
  8
STEMPEL
100
AcDbLine
 10
253.0782985519469
 20
151.6384304318133
 30
0.0
 11
266.5874531604574
 21
128.2398882825698
 31
0.0
  0
LINE
  5
AAE
330
20
100
AcDbEntity
  8
STEMPEL
100
AcDbLine
 10
253.0782985519469
 20
151.6384304318133
 30
0.0
 11
255.6945041483535
 21
153.1070294157909
 31
0.0
  0
LINE
  5
AAF
330
20
100
AcDbEntity
  8
VERDECKT
100
AcDbLine
 10
214.6967032946935
 20
119.7870425589856
 30
0.0
 11
182.0049612181383
 21
138.6616286471625
 31
0.0
  0
LINE
  5
AB0
330
20
100
AcDbEntity
  8
STEMPEL
100
AcDbLine
 10
215.6573729797473
 20
122.1191510036656
 30
0.0
 11
183.5442915330844
 21
140.6596472214047
 31
0.0
  0
CIRCLE
  5
AB1
330
20
100
AcDbEntity
  8
STEMPEL
100
AcDbCircle
 10
232.7511330425301
 20
189.8461138679848
 30
0.0
 40
122.5
  0
CIRCLE
  5
ABB
330
20
100
AcDbEntity
  8
STEMPEL
100
AcDbCircle
 10
233.3508322564158
 20
189.8461138679848
 30
0.0
 40
72.5
  0
CIRCLE
  5
ABD
330
20
100
AcDbEntity
  8
STEMPEL
100
AcDbCircle
 10
233.3508322564158
 20
189.8461138679848
 30
0.0
 40
70.0
  0
ENDSEC
  0
SECTION
  2
OBJECTS
  0
DICTIONARY
  5
C
330
0
100
AcDbDictionary
281
     1
  3
ACAD_COLOR
350
1B
  3
ACAD_GROUP
350
D
  3
ACAD_LAYOUT
350
19
  3
ACAD_MATERIAL
350
1A
  3
ACAD_MLINESTYLE
350
16
  3
ACAD_PLOTSETTINGS
350
18
  3
ACAD_PLOTSTYLENAME
350
E
  3
AcDbVariableDictionary
350
574
  0
DICTIONARY
  5
1B
102
{ACAD_REACTORS
330
C
102
}
330
C
100
AcDbDictionary
281
     1
  0
DICTIONARY
  5
D
102
{ACAD_REACTORS
330
C
102
}
330
C
100
AcDbDictionary
281
     1
  0
DICTIONARY
  5
19
102
{ACAD_REACTORS
330
C
102
}
330
C
100
AcDbDictionary
281
     1
  3
Layout1
350
1F
  3
Model
350
23
  0
DICTIONARY
  5
1A
102
{ACAD_REACTORS
330
C
102
}
330
C
100
AcDbDictionary
281
     1
  0
DICTIONARY
  5
16
102
{ACAD_REACTORS
330
C
102
}
330
C
100
AcDbDictionary
281
     1
  3
Standard
350
17
  0
DICTIONARY
  5
18
102
{ACAD_REACTORS
330
C
102
}
330
C
100
AcDbDictionary
281
     1
  0
ACDBDICTIONARYWDFLT
  5
E
102
{ACAD_REACTORS
330
C
102
}
330
C
100
AcDbDictionary
281
     1
  3
Normal
350
F
100
AcDbDictionaryWithDefault
340
F
  0
DICTIONARY
  5
574
102
{ACAD_REACTORS
330
C
102
}
330
C
100
AcDbDictionary
281
     1
  3
DIMASSOC
350
576
  3
HIDETEXT
350
575
  3
PROJECTNAME
350
577
  0
LAYOUT
  5
1F
102
{ACAD_REACTORS
330
19
102
}
330
19
100
AcDbPlotSettings
  1

  2
RICOH Aficio 2027 PCL 6
  4

  6

 40
0.0
 41
0.0
 42
0.0
 43
0.0
 44
0.0
 45
0.0
 46
0.0
 47
0.0
 48
0.0
 49
0.0
140
0.0
141
0.0
142
1.0
143
1.0
 70
   688
 72
     0
 73
     0
 74
     5
  7
monochrome1.ctb
 75
    16
147
1.0
 76
     0
 77
     2
 78
   300
148
0.0
149
0.0
100
AcDbLayout
  1
Layout1
 70
     0
 71
     1
 10
0.0
 20
0.0
 11
12.0
 21
9.0
 12
3.174945865668594
 22
50.00000000000001
 32
-1.45999203468817
 14
1.000000000000000E+20
 24
1.000000000000000E+20
 34
1.000000000000000E+20
 15
-1.000000000000000E+20
 25
-1.000000000000000E+20
 35
-1.000000000000000E+20
146
0.0
 13
0.0
 23
0.0
 33
0.0
 16
1.0
 26
0.0
 36
0.0
 17
0.0
 27
1.0
 37
0.0
 76
     0
330
1C
  0
LAYOUT
  5
23
102
{ACAD_REACTORS
330
19
102
}
330
19
100
AcDbPlotSettings
  1

  2
RICOH Aficio 2027 PCL 6
  4
A4
  6

 40
5.027083396911621
 41
5.027085304260253
 42
5.027084350585937
 43
5.027069091796875
 44
209.9733276367187
 45
296.9259948730469
 46
0.0
 47
0.0
 48
0.0
 49
0.0
140
0.0
141
0.0
142
1.0
143
1.0
 70
 11952
 72
     0
 73
     1
 74
     0
  7

 75
     0
147
1.0
 76
     0
 77
     2
 78
   300
148
3251.356832461147
149
127.1568179129461
100
AcDbLayout
  1
Model
 70
     1
 71
     0
 10
0.0
 20
0.0
 11
12.0
 21
9.0
 12
0.0
 22
0.0
 32
0.0
 14
0.0
 24
0.0
 34
0.0
 15
0.0
 25
0.0
 35
0.0
146
0.0
 13
0.0
 23
0.0
 33
0.0
 16
1.0
 26
0.0
 36
0.0
 17
0.0
 27
1.0
 37
0.0
 76
     0
330
20
  0
MLINESTYLE
  5
17
102
{ACAD_REACTORS
330
16
102
}
330
16
100
AcDbMlineStyle
  2
STANDARD
 70
     0
  3

 62
   256
 51
90.0
 52
90.0
 71
     2
 49
0.5
 62
   256
  6
BYLAYER
 49
-0.5
 62
   256
  6
BYLAYER
  0
ACDBPLACEHOLDER
  5
F
102
{ACAD_REACTORS
330
E
102
}
330
E
  0
DICTIONARYVAR
  5
576
102
{ACAD_REACTORS
330
574
102
}
330
574
100
DictionaryVariables
280
     0
  1
2
  0
DICTIONARYVAR
  5
575
102
{ACAD_REACTORS
330
574
102
}
330
574
100
DictionaryVariables
280
     0
  1
1
  0
DICTIONARYVAR
  5
577
102
{ACAD_REACTORS
330
574
102
}
330
574
100
DictionaryVariables
280
     0
  1

  0
ENDSEC
  0
EOF
