  0
SECTION
  2
HEADER
  9
$ACADVER
  1
AC1018
  9
$ACADMAINTVER
 70
     2
  9
$DWGCODEPAGE
  3
ANSI_1252
  9
$LASTSAVEDBY
  1
Wolfgang Köhlhoff
  9
$INSBASE
 10
214.18963059078
 20
83.98788932831553
 30
0.0
  9
$EXTMIN
 10
-0.0090483683015918
 20
-0.0127956723458738
 30
-0.0000000000000053
  9
$EXTMAX
 10
594.0090698065177
 20
840.0128259890159
 30
0.0000000000000099
  9
$LIMMIN
 10
0.0
 20
0.0
  9
$LIMMAX
 10
594.0
 20
840.0000000000002
  9
$ORTHOMODE
 70
     1
  9
$REGENMODE
 70
     1
  9
$FILLMODE
 70
     1
  9
$QTEXTMODE
 70
     0
  9
$MIRRTEXT
 70
     1
  9
$LTSCALE
 40
20.0
  9
$ATTMODE
 70
     1
  9
$TEXTSIZE
 40
3.5
  9
$TRACEWID
 40
1.0
  9
$TEXTSTYLE
  7
STANDARD
  9
$CLAYER
  8
BEM
  9
$CELTYPE
  6
ByLayer
  9
$CECOLOR
 62
   256
  9
$CELTSCALE
 40
1.0
  9
$DISPSILH
 70
     0
  9
$DIMSCALE
 40
2.0
  9
$DIMASZ
 40
3.5
  9
$DIMEXO
 40
1.0
  9
$DIMDLI
 40
7.0
  9
$DIMRND
 40
0.0
  9
$DIMDLE
 40
0.0
  9
$DIMEXE
 40
1.0
  9
$DIMTP
 40
5.0
  9
$DIMTM
 40
5.0
  9
$DIMTXT
 40
3.5
  9
$DIMCEN
 40
1.5
  9
$DIMTSZ
 40
0.0
  9
$DIMTOL
 70
     0
  9
$DIMLIM
 70
     0
  9
$DIMTIH
 70
     0
  9
$DIMTOH
 70
     0
  9
$DIMSE1
 70
     0
  9
$DIMSE2
 70
     0
  9
$DIMTAD
 70
     1
  9
$DIMZIN
 70
     8
  9
$DIMBLK
  1

  9
$DIMASO
 70
     1
  9
$DIMSHO
 70
     0
  9
$DIMPOST
  1

  9
$DIMAPOST
  1

  9
$DIMALT
 70
     0
  9
$DIMALTD
 70
     2
  9
$DIMALTF
 40
25.4
  9
$DIMLFAC
 40
1.0
  9
$DIMTOFL
 70
     1
  9
$DIMTVP
 40
0.2857142857142857
  9
$DIMTIX
 70
     0
  9
$DIMSOXD
 70
     0
  9
$DIMSAH
 70
     0
  9
$DIMBLK1
  1

  9
$DIMBLK2
  1

  9
$DIMSTYLE
  2
Standard
  9
$DIMCLRD
 70
     0
  9
$DIMCLRE
 70
     0
  9
$DIMCLRT
 70
     1
  9
$DIMTFAC
 40
0.5142857142857144
  9
$DIMGAP
 40
1.5
  9
$DIMJUST
 70
     0
  9
$DIMSD1
 70
     0
  9
$DIMSD2
 70
     0
  9
$DIMTOLJ
 70
     1
  9
$DIMTZIN
 70
     8
  9
$DIMALTZ
 70
     8
  9
$DIMALTTZ
 70
     8
  9
$DIMUPT
 70
     0
  9
$DIMDEC
 70
     2
  9
$DIMTDEC
 70
     2
  9
$DIMALTU
 70
     2
  9
$DIMALTTD
 70
     2
  9
$DIMTXSTY
  7
STANDARD
  9
$DIMAUNIT
 70
     0
  9
$DIMADEC
 70
     2
  9
$DIMALTRND
 40
0.0
  9
$DIMAZIN
 70
     2
  9
$DIMDSEP
 70
    46
  9
$DIMATFIT
 70
     3
  9
$DIMFRAC
 70
     0
  9
$DIMLDRBLK
  1

  9
$DIMLUNIT
 70
     2
  9
$DIMLWD
 70
    -2
  9
$DIMLWE
 70
    -2
  9
$DIMTMOVE
 70
     0
  9
$LUNITS
 70
     2
  9
$LUPREC
 70
     2
  9
$SKETCHINC
 40
1.0
  9
$FILLETRAD
 40
12.0
  9
$AUNITS
 70
     0
  9
$AUPREC
 70
     0
  9
$MENU
  1
ACAD
  9
$ELEVATION
 40
0.0
  9
$PELEVATION
 40
0.0
  9
$THICKNESS
 40
0.0
  9
$LIMCHECK
 70
     0
  9
$CHAMFERA
 40
0.0
  9
$CHAMFERB
 40
0.0
  9
$CHAMFERC
 40
0.0
  9
$CHAMFERD
 40
0.0
  9
$SKPOLY
 70
     0
  9
$TDCREATE
 40
2450568.943332523
  9
$TDUCREATE
 40
2450568.859999190
  9
$TDUPDATE
 40
2455461.551788808
  9
$TDUUPDATE
 40
2455461.468455474
  9
$TDINDWG
 40
0.3157773495
  9
$TDUSRTIMER
 40
0.3157773495
  9
$USRTIMER
 70
     1
  9
$ANGBASE
 50
0.0
  9
$ANGDIR
 70
     0
  9
$PDMODE
 70
     0
  9
$PDSIZE
 40
0.0
  9
$PLINEWID
 40
0.0
  9
$SPLFRAME
 70
     0
  9
$SPLINETYPE
 70
     6
  9
$SPLINESEGS
 70
     8
  9
$HANDSEED
  5
EC2
  9
$SURFTAB1
 70
     6
  9
$SURFTAB2
 70
     6
  9
$SURFTYPE
 70
     6
  9
$SURFU
 70
     6
  9
$SURFV
 70
     6
  9
$UCSBASE
  2

  9
$UCSNAME
  2

  9
$UCSORG
 10
0.0
 20
0.0
 30
0.0
  9
$UCSXDIR
 10
1.0
 20
0.0
 30
0.0
  9
$UCSYDIR
 10
0.0
 20
1.0
 30
0.0
  9
$UCSORTHOREF
  2

  9
$UCSORTHOVIEW
 70
     0
  9
$UCSORGTOP
 10
0.0
 20
0.0
 30
0.0
  9
$UCSORGBOTTOM
 10
0.0
 20
0.0
 30
0.0
  9
$UCSORGLEFT
 10
0.0
 20
0.0
 30
0.0
  9
$UCSORGRIGHT
 10
0.0
 20
0.0
 30
0.0
  9
$UCSORGFRONT
 10
0.0
 20
0.0
 30
0.0
  9
$UCSORGBACK
 10
0.0
 20
0.0
 30
0.0
  9
$PUCSBASE
  2

  9
$PUCSNAME
  2

  9
$PUCSORG
 10
0.0
 20
0.0
 30
0.0
  9
$PUCSXDIR
 10
1.0
 20
0.0
 30
0.0
  9
$PUCSYDIR
 10
0.0
 20
1.0
 30
0.0
  9
$PUCSORTHOREF
  2

  9
$PUCSORTHOVIEW
 70
     0
  9
$PUCSORGTOP
 10
0.0
 20
0.0
 30
0.0
  9
$PUCSORGBOTTOM
 10
0.0
 20
0.0
 30
0.0
  9
$PUCSORGLEFT
 10
0.0
 20
0.0
 30
0.0
  9
$PUCSORGRIGHT
 10
0.0
 20
0.0
 30
0.0
  9
$PUCSORGFRONT
 10
0.0
 20
0.0
 30
0.0
  9
$PUCSORGBACK
 10
0.0
 20
0.0
 30
0.0
  9
$USERI1
 70
     0
  9
$USERI2
 70
     0
  9
$USERI3
 70
     0
  9
$USERI4
 70
     0
  9
$USERI5
 70
     0
  9
$USERR1
 40
0.0
  9
$USERR2
 40
0.0
  9
$USERR3
 40
0.0
  9
$USERR4
 40
0.0
  9
$USERR5
 40
0.0
  9
$WORLDVIEW
 70
     1
  9
$SHADEDGE
 70
     3
  9
$SHADEDIF
 70
    70
  9
$TILEMODE
 70
     1
  9
$MAXACTVP
 70
    16
  9
$PINSBASE
 10
0.0
 20
0.0
 30
0.0
  9
$PLIMCHECK
 70
     0
  9
$PEXTMIN
 10
1.000000000000000E+20
 20
1.000000000000000E+20
 30
1.000000000000000E+20
  9
$PEXTMAX
 10
-1.000000000000000E+20
 20
-1.000000000000000E+20
 30
-1.000000000000000E+20
  9
$PLIMMIN
 10
0.0
 20
0.0
  9
$PLIMMAX
 10
12.0
 20
9.0
  9
$UNITMODE
 70
     0
  9
$VISRETAIN
 70
     0
  9
$PLINEGEN
 70
     0
  9
$PSLTSCALE
 70
     0
  9
$TREEDEPTH
 70
  3020
  9
$CMLSTYLE
  2
Standard
  9
$CMLJUST
 70
     0
  9
$CMLSCALE
 40
1.0
  9
$PROXYGRAPHICS
 70
     1
  9
$MEASUREMENT
 70
     0
  9
$CELWEIGHT
370
    -1
  9
$ENDCAPS
280
     0
  9
$JOINSTYLE
280
     0
  9
$LWDISPLAY
290
     0
  9
$INSUNITS
 70
     0
  9
$HYPERLINKBASE
  1

  9
$STYLESHEET
  1
monochrome 1.ctb
  9
$XEDIT
290
     1
  9
$CEPSNTYPE
380
     0
  9
$PSTYLEMODE
290
     1
  9
$FINGERPRINTGUID
  2
{DED464E2-CFDE-11D8-B79C-000094846F21}
  9
$VERSIONGUID
  2
{751D337C-9922-4B9D-B73C-655C0B2D5875}
  9
$EXTNAMES
290
     1
  9
$PSVPSCALE
 40
0.0
  9
$OLESTARTUP
290
     0
  9
$SORTENTS
280
   127
  9
$INDEXCTL
280
     1
  9
$HIDETEXT
280
     0
  9
$XCLIPFRAME
290
     0
  9
$HALOGAP
280
     0
  9
$OBSCOLOR
 70
   257
  9
$OBSLTYPE
280
     0
  9
$INTERSECTIONDISPLAY
280
     0
  9
$INTERSECTIONCOLOR
 70
   257
  9
$DIMASSOC
280
     1
  9
$PROJECTNAME
  1

  0
ENDSEC
  0
SECTION
  2
CLASSES
  0
CLASS
  1
ACDBDICTIONARYWDFLT
  2
AcDbDictionaryWithDefault
  3
ObjectDBX Classes
 90
        0
 91
        1
280
     0
281
     0
  0
CLASS
  1
ACME_DOCUMENT
  2
AcMeDbDoc
  3
AcMeServices
 90
        0
 91
        0
280
     0
281
     0
  0
CLASS
  1
AMGSETTINGSOBJ
  2
AmgSettingsObj
  3
"AcadM|Product Description: AutoCAD Mechanical 2000|Company: Autodesk"
 90
        0
 91
        0
280
     0
281
     0
  0
CLASS
  1
ACMESCOPE
  2
AcMeScope
  3
AcMeServices
 90
        0
 91
        0
280
     0
281
     0
  0
CLASS
  1
ACMECOMMANDHISTORY
  2
AcMeCommandHistory
  3
AcMeServices
 90
        0
 91
        0
280
     0
281
     0
  0
CLASS
  1
ACIMSYSVARMAN
  2
AcImSysVarManager
  3
AcMeServices
 90
        0
 91
        0
280
     0
281
     0
  0
CLASS
  1
ACIMINTSYSVAR
  2
AcImIntSysVar
  3
AcMeServices
 90
        0
 91
        0
280
     0
281
     0
  0
CLASS
  1
ACMEDRAWINGMAN
  2
AcMeDrawingMan
  3
AcMeServices
 90
        0
 91
        0
280
     0
281
     0
  0
CLASS
  1
ACMEVIEW
  2
AcMeView
  3
AcMeServices
 90
        0
 91
        0
280
     0
281
     0
  0
CLASS
  1
ACDBENTITYCACHE
  2
AcMeEntityCache
  3
AcMeServices
 90
        0
 91
        0
280
     0
281
     0
  0
CLASS
  1
GSMANAGER
  2
AcMeGSManager
  3
AcMeServices
 90
        0
 91
        0
280
     0
281
     0
  0
CLASS
  1
AMDTINTERNALREACTOR
  2
AmdtInternalReactor
  3
AcMeServices
 90
        0
 91
        0
280
     0
281
     0
  0
CLASS
  1
ACMESTATEMGR
  2
AcMeStateMgr
  3
AcMeServices
 90
        0
 91
        0
280
     0
281
     0
  0
CLASS
  1
ACGREFMASTER
  2
AcGrefMaster
  3
AcAttribServices
 90
        0
 91
        0
280
     0
281
     0
  0
CLASS
  1
AM_DRAWING_MGR
  2
AcDmDwgMgr
  3
AcMechDwgViewMgmt
 90
        0
 91
        0
280
     0
281
     0
  0
CLASS
  1
AM_DWG_DOCUMENT
  2
AcDmDwgDocument
  3
AcMechDwgViewMgmt
 90
        0
 91
        0
280
     0
281
     0
  0
CLASS
  1
AM_DWG_SHEET
  2
AcDmSheet
  3
AcMechDwgViewMgmt
 90
        0
 91
        0
280
     0
281
     0
  0
CLASS
  1
AM_VIEWDIMPARMAP
  2
AcDmViewDimParMap
  3
AcMechDwgViewMgmt
 90
        0
 91
        0
280
     0
281
     0
  0
CLASS
  1
ACIMREALSYSVAR
  2
AcImRealSysVar
  3
AcMeServices
 90
        0
 91
        0
280
     0
281
     0
  0
CLASS
  1
AM_DWGMGR_NAME
  2
AcDmDwgMgrName
  3
AcMechDwgViewMgmt
 90
        0
 91
        0
280
     0
281
     0
  0
CLASS
  1
ACME_DATABASE
  2
AcMeDbDatabase
  3
AcMeServices
 90
        0
 91
        0
280
     0
281
     0
  0
CLASS
  1
ACRFINSADJUSTERMGR
  2
AcRfInsAdjusterMgr
  3
AcMeServices
 90
        0
 91
        0
280
     0
281
     0
  0
CLASS
  1
ACGREFACADMASTER
  2
AcGrefacadMaster
  3
AcGrefServices
 90
        0
 91
        0
280
     0
281
     0
  0
CLASS
  1
AMDTMENUSTATEMGR
  2
AmdtMenuStateMgr
  3
McadcomServices
 90
        0
 91
        0
280
     0
281
     0
  0
CLASS
  1
AMDTMCOMMENUSTATE
  2
AmdtMcomMenuState
  3
McadcomServices
 90
        0
 91
        0
280
     0
281
     0
  0
CLASS
  1
AMIMASTER
  2
AmiMaster
  3
AmiServices
 90
        0
 91
        0
280
     0
281
     0
  0
CLASS
  1
MAPIAMMOUDLE
  2
MApiAmModule
  3
MApiAmServices
 90
        0
 91
        0
280
     0
281
     0
  0
CLASS
  1
AMDTADMENUSTATE
  2
AmdtAdMenuState
  3
DesignerServices
 90
        0
 91
        0
280
     0
281
     0
  0
CLASS
  1
ADAPPL
  2
AcAdAppl
  3
DesignerServices
 90
        0
 91
        0
280
     0
281
     0
  0
CLASS
  1
DEPMGR
  2
AcAdDepMgr
  3
DesignerServices
 90
        0
 91
        0
280
     0
281
     0
  0
CLASS
  1
PARAMMGR
  2
AcAdParamMgr
  3
DesignerServices
 90
        0
 91
        0
280
     0
281
     0
  0
CLASS
  1
PARAMSCOPE
  2
AcAdParamScope
  3
DesignerServices
 90
        0
 91
        0
280
     0
281
     0
  0
CLASS
  1
NAMEDAPPL
  2
AcAdNamedAppl
  3
DesignerServices
 90
        0
 91
        0
280
     0
281
     0
  0
CLASS
  1
AMDTDMMENUSTATE
  2
AmdtDmMenuState
  3
AcMechDwgViewMgmt
 90
        0
 91
        0
280
     0
281
     0
  0
CLASS
  1
AMDTAMMENUSTATE
  2
AmdtAmMenuState
  3
DesignerAssemblies
 90
        0
 91
        0
280
     0
281
     0
  0
CLASS
  1
ACIMSTRSYSVAR
  2
AcImStrSysVar
  3
AcMeServices
 90
        0
 91
        0
280
     0
281
     0
  0
CLASS
  1
ACAMPROJECT
  2
AcAmProject
  3
DesignerAssemblies
 90
        0
 91
        0
280
     0
281
     0
  0
CLASS
  1
ACAMGRCOMPDEF
  2
AcAmGrCompDef
  3
DesignerAssemblies
 90
        0
 91
        0
280
     0
281
     0
  0
CLASS
  1
ACCMCONTEXT
  2
AcCmContext
  3
DesignerAssemblies
 90
        0
 91
        0
280
     0
281
     0
  0
CLASS
  1
ACAMCOMPDEF
  2
AcAmCompDef
  3
DesignerAssemblies
 90
        0
 91
        0
280
     0
281
     0
  0
CLASS
  1
ACAMCOMPDEFMGR
  2
AcAmCompDefMgr
  3
DesignerAssemblies
 90
        0
 91
        0
280
     0
281
     0
  0
CLASS
  1
AMCONTEXTMGR
  2
AcAmContextMgr
  3
DesignerAssemblies
 90
        0
 91
        0
280
     0
281
     0
  0
CLASS
  1
ACAMCONTEXTMODELER
  2
AcAmContextModeler
  3
DesignerAssemblies
 90
        0
 91
        0
280
     0
281
     0
  0
CLASS
  1
ACMDATADICTIONARY
  2
AcmDataDictionary
  3
"AcmSymBB|Product Description: AutoCAD Mechanical 2004 DX|Company: Autodesk"
 90
        0
 91
        0
280
     0
281
     0
  0
CLASS
  1
CATALOGSTATE
  2
AcAmCatalogState
  3
DesignerAssemblies
 90
        0
 91
        0
280
     0
281
     0
  0
CLASS
  1
ACAMGRCOMPDEFSET
  2
AcAmGrCompDefSet
  3
DesignerAssemblies
 90
        0
 91
        0
280
     0
281
     0
  0
CLASS
  1
AMDTBROWSERDBTAB
  2
AmdtBrowserDbTab
  3
McadcomServices
 90
        0
 91
        0
280
     0
281
     0
  0
CLASS
  1
CBROWSERAPPOBJECT
  2
CBrowserAppObject
  3
McadcomServices
 90
        0
 91
        0
280
     0
281
     0
  0
CLASS
  1
DM_PLACEHOLDER
  2
AcDmSelsetPlaceholder
  3
AcMechDwgViewMgmt
 90
        0
 91
        0
280
     0
281
     0
  0
CLASS
  1
ACMSTANDARDANSI
  2
AcmStandardANSI
  3
"Amdt_StdImp|Product Description: AutoCAD Mechanical 2004 DX|Company: Autodesk"
 90
        0
 91
        0
280
     0
281
     0
  0
CLASS
  1
AMGOBJPROPCFG
  2
AmgObjPropCfg
  3
"AmgLay|Product Description: AutoCAD Mechanical 2000|Company: Autodesk"
 90
        1
 91
        0
280
     0
281
     0
  0
CLASS
  1
ACMSURFSTANDARDANSI
  2
AcmSurfTextStdANSI
  3
"Amdt_StdImp|Product Description: AutoCAD Mechanical 2004 DX|Company: Autodesk"
 90
        0
 91
        0
280
     0
281
     0
  0
CLASS
  1
ACMFCFSTANDARDANSI
  2
AcmFCFStdANSI
  3
"Amdt_StdImp|Product Description: AutoCAD Mechanical 2004 DX|Company: Autodesk"
 90
        0
 91
        0
280
     0
281
     0
  0
CLASS
  1
ACMWELDSTANDARDANSI
  2
AcmWeldingStdANSI
  3
"Amdt_StdImp|Product Description: AutoCAD Mechanical 2004 DX|Company: Autodesk"
 90
        0
 91
        0
280
     0
281
     0
  0
CLASS
  1
ACMIDSTANDARDANSI
  2
AcmIdStdANSI
  3
"Amdt_StdImp|Product Description: AutoCAD Mechanical 2004 DX|Company: Autodesk"
 90
        0
 91
        0
280
     0
281
     0
  0
CLASS
  1
ACMDATUMSTANDARDANSI
  2
AcmDatumStdANSI
  3
"Amdt_StdImp|Product Description: AutoCAD Mechanical 2004 DX|Company: Autodesk"
 90
        0
 91
        0
280
     0
281
     0
  0
CLASS
  1
ACMBOMSTANDARDANSI
  2
AcmBOMStdANSI
  3
"Amdt_StdImp|Product Description: AutoCAD Mechanical 2004 DX|Company: Autodesk"
 90
        0
 91
        0
280
     0
281
     0
  0
CLASS
  1
ACMDETAILSTANDARDANSI
  2
AmdtDetailSymStdANSI
  3
"Amdt_StdImp|Product Description: AutoCAD Mechanical 2004 DX|Company: Autodesk"
 90
        0
 91
        0
280
     0
281
     0
  0
CLASS
  1
ACMSECTIONSTANDARDANSI
  2
AmdtSectionSymStdANSI
  3
"Amdt_StdImp|Product Description: AutoCAD Mechanical 2004 DX|Company: Autodesk"
 90
        0
 91
        0
280
     0
281
     0
  0
CLASS
  1
ACMCENTERLINESTANDARDANSI
  2
AmdtCenterLineStdANSI
  3
"Amdt_StdImp|Product Description: AutoCAD Mechanical 2004 DX|Company: Autodesk"
 90
        0
 91
        0
280
     0
281
     0
  0
CLASS
  1
ACMTHREADLINESTANDARDANSI
  2
AmdtThreadLineStdANSI
  3
"Amdt_StdImp|Product Description: AutoCAD Mechanical 2004 DX|Company: Autodesk"
 90
        0
 91
        0
280
     0
281
     0
  0
CLASS
  1
ACMNOTESTANDARDANSI
  2
AmdtNoteStdANSI
  3
"Amdt_StdImp|Product Description: AutoCAD Mechanical 2004 DX|Company: Autodesk"
 90
        0
 91
        0
280
     0
281
     0
  0
CLASS
  1
AMDTNOTETEMPLATEDB
  2
AmdtNoteTemplateDB
  3
AMDT_STDIMP_MODULE_NAME
 90
        0
 91
        0
280
     0
281
     0
  0
CLASS
  1
ACAMGLAYSTD
  2
AcAmgLayStd
  3
"AcAmgLayStd|Product Description: AutoCAD Mechanical 2000|Company: Autodesk"
 90
        0
 91
        0
280
     0
281
     0
  0
CLASS
  1
ACAMGDIMSTD
  2
AcAmgDimStd
  3
"AcAmgDimStd|Product Description: AutoCAD Mechanical 2000|Company: Autodesk"
 90
        0
 91
        0
280
     0
281
     0
  0
CLASS
  1
ACAMGHOLECHARTSTDANSI
  2
AcAmgHoleChartStdANSI
  3
ACMSYMBB_MODULE_NAME
 90
        0
 91
        0
280
     0
281
     0
  0
CLASS
  1
ACAMGTITLESTD
  2
AcAmgTitleStd
  3
"TITLEAPP"
 90
        0
 91
        0
280
     0
281
     0
  0
CLASS
  1
ACAMGFILTERDAT
  2
AcAmgFilterDat
  3
"AcadM|Product Description: AutoCAD Mechanical 2000|Company: Autodesk"
 90
        0
 91
        0
280
     0
281
     0
  0
CLASS
  1
ACRFATTGENMGR
  2
AcRfAttGeneralMgr
  3
AcAttribServices
 90
        0
 91
        0
280
     0
281
     0
  0
CLASS
  1
LAYER_INDEX
  2
AcDbLayerIndex
  3
ObjectDBX Classes
 90
        0
 91
        1
280
     0
281
     0
  0
CLASS
  1
IDBUFFER
  2
AcDbIdBuffer
  3
ObjectDBX Classes
 90
        0
 91
       10
280
     0
281
     0
  0
CLASS
  1
DICTIONARYVAR
  2
AcDbDictionaryVar
  3
ObjectDBX Classes
 90
        0
 91
        3
280
     0
281
     0
  0
ENDSEC
  0
SECTION
  2
TABLES
  0
TABLE
  2
VPORT
  5
8
330
0
100
AcDbSymbolTable
 70
     2
  0
VPORT
  5
EC1
330
8
100
AcDbSymbolTableRecord
100
AcDbViewportTableRecord
  2
*Active
 70
     0
 10
0.0
 20
0.0
 11
1.0
 21
1.0
 12
297.0000107191081
 22
420.0000151583349
 13
0.0
 23
0.0
 14
2.5
 24
2.5
 15
10.0
 25
10.0
 16
0.0
 26
0.0
 36
1.0
 17
0.0
 27
0.0
 37
0.0
 40
846.80913946751
 41
1.336927223719676
 42
50.0
 43
0.0
 44
0.0
 50
0.0
 51
0.0
 71
     0
 72
   500
 73
     1
 74
     0
 75
     0
 76
     0
 77
     0
 78
     1
281
     0
 65
     1
110
0.0
120
0.0
130
0.0
111
1.0
121
0.0
131
0.0
112
0.0
122
1.0
132
0.0
 79
     0
146
0.0
  0
ENDTAB
  0
TABLE
  2
LTYPE
  5
5
330
0
100
AcDbSymbolTable
 70
     3
  0
LTYPE
  5
13
330
5
100
AcDbSymbolTableRecord
100
AcDbLinetypeTableRecord
  2
ByBlock
 70
     0
  3

 72
    65
 73
     0
 40
0.0
  0
LTYPE
  5
14
330
5
100
AcDbSymbolTableRecord
100
AcDbLinetypeTableRecord
  2
ByLayer
 70
     0
  3

 72
    65
 73
     0
 40
0.0
  0
LTYPE
  5
15
330
5
100
AcDbSymbolTableRecord
100
AcDbLinetypeTableRecord
  2
Continuous
 70
     0
  3
Solid line
 72
    65
 73
     0
 40
0.0
  0
LTYPE
  5
3A
330
5
100
AcDbSymbolTableRecord
100
AcDbLinetypeTableRecord
  2
STRICHPUNKT
 70
     0
  3
__ . __ . __ . __ . __ . __ . __ . __ . __ . __
 72
    65
 73
     4
 40
1.0
 49
0.5
 74
     0
 49
-0.25
 74
     0
 49
0.0
 74
     0
 49
-0.25
 74
     0
  0
LTYPE
  5
3B
330
5
100
AcDbSymbolTableRecord
100
AcDbLinetypeTableRecord
  2
VERDECKT
 70
     0
  3
_ _ _ _ _ _ _ _ _ _ _ _ _ _ _ _ _ _ _ _ _ _ _
 72
    65
 73
     2
 40
0.375
 49
0.25
 74
     0
 49
-0.125
 74
     0
  0
ENDTAB
  0
TABLE
  2
LAYER
  5
2
330
0
100
AcDbSymbolTable
 70
    10
  0
LAYER
  5
10
330
2
100
AcDbSymbolTableRecord
100
AcDbLayerTableRecord
  2
0
 70
     0
 62
     7
  6
Continuous
370
    -3
390
F
  0
LAYER
  5
3E
330
2
100
AcDbSymbolTableRecord
100
AcDbLayerTableRecord
  2
VOLL
 70
     0
 62
     1
  6
Continuous
370
    -3
390
F
  0
LAYER
  5
3F
330
2
100
AcDbSymbolTableRecord
100
AcDbLayerTableRecord
  2
MITTEL
 70
     0
 62
     2
  6
STRICHPUNKT
370
    -3
390
F
  0
LAYER
  5
40
330
2
100
AcDbSymbolTableRecord
100
AcDbLayerTableRecord
  2
BEM
 70
     0
 62
     7
  6
Continuous
370
    -3
390
F
  0
LAYER
  5
41
330
2
100
AcDbSymbolTableRecord
100
AcDbLayerTableRecord
  2
HILF
 70
     0
 62
     2
  6
Continuous
370
    -3
390
F
  0
LAYER
  5
42
330
2
100
AcDbSymbolTableRecord
100
AcDbLayerTableRecord
  2
STEMPEL
 70
     0
 62
     3
  6
Continuous
370
    -3
390
F
  0
LAYER
  5
43
330
2
100
AcDbSymbolTableRecord
100
AcDbLayerTableRecord
  2
VERDECKT
 70
     0
 62
     6
  6
VERDECKT
370
    -3
390
F
  0
LAYER
  5
44
330
2
100
AcDbSymbolTableRecord
100
AcDbLayerTableRecord
  2
DEFPOINTS
 70
     0
 62
     7
  6
Continuous
290
     0
370
    -3
390
F
  0
LAYER
  5
45
330
2
100
AcDbSymbolTableRecord
100
AcDbLayerTableRecord
  2
SCHRAFF
 70
     0
 62
     7
  6
Continuous
370
    -3
390
F
  0
LAYER
  5
492
330
2
100
AcDbSymbolTableRecord
100
AcDbLayerTableRecord
  2
TEXT
 70
     0
 62
     7
  6
Continuous
370
    -3
390
F
  0
ENDTAB
  0
TABLE
  2
STYLE
  5
3
330
0
100
AcDbSymbolTable
 70
     2
  0
STYLE
  5
11
330
3
100
AcDbSymbolTableRecord
100
AcDbTextStyleTableRecord
  2
STANDARD
 70
     0
 40
0.0
 41
0.8
 50
0.0
 71
     0
 42
3.5
  3
simplex.shx
  4

  0
STYLE
  5
39
330
3
100
AcDbSymbolTableRecord
100
AcDbTextStyleTableRecord
  2
GREEKS
 70
     0
 40
0.0
 41
0.8
 50
0.0
 71
     0
 42
1.8
  3
SIMPLEX.shx
  4

  0
ENDTAB
  0
TABLE
  2
VIEW
  5
6
330
0
100
AcDbSymbolTable
 70
     0
  0
ENDTAB
  0
TABLE
  2
UCS
  5
7
330
0
100
AcDbSymbolTable
 70
     0
  0
ENDTAB
  0
TABLE
  2
APPID
  5
9
330
0
100
AcDbSymbolTable
 70
     8
  0
APPID
  5
12
330
9
100
AcDbSymbolTableRecord
100
AcDbRegAppTableRecord
  2
ACAD
 70
     0
  0
APPID
  5
3DF
330
9
100
AcDbSymbolTableRecord
100
AcDbRegAppTableRecord
  2
MCAD_NO_VIS
 70
     0
  0
APPID
  5
3E0
330
9
100
AcDbSymbolTableRecord
100
AcDbRegAppTableRecord
  2
ACAD_TEMP_GRAPHIC
 70
     0
  0
APPID
  5
410
330
9
100
AcDbSymbolTableRecord
100
AcDbRegAppTableRecord
  2
AD_DRAW
 70
     0
  0
APPID
  5
413
330
9
100
AcDbSymbolTableRecord
100
AcDbRegAppTableRecord
  2
ACATTRIBSERVICES
 70
     0
  0
APPID
  5
431
330
9
100
AcDbSymbolTableRecord
100
AcDbRegAppTableRecord
  2
DESIGNERASSEMBLIES
 70
     0
  0
APPID
  5
437
330
9
100
AcDbSymbolTableRecord
100
AcDbRegAppTableRecord
  2
ACADM_DIM_EDIT
 70
     0
  0
APPID
  5
438
330
9
100
AcDbSymbolTableRecord
100
AcDbRegAppTableRecord
  2
AMDT_DM_ADJ
 70
     0
  0
ENDTAB
  0
TABLE
  2
DIMSTYLE
  5
A
330
0
100
AcDbSymbolTable
 70
     1
100
AcDbDimStyleTable
 71
     1
340
3CF
  0
DIMSTYLE
105
3CF
102
{ACAD_REACTORS
330
3BA
330
A26
330
3AE
330
3C3
330
373
102
}
330
A
100
AcDbSymbolTableRecord
100
AcDbDimStyleTableRecord
  2
Standard
 70
     0
340
11
  0
ENDTAB
  0
TABLE
  2
BLOCK_RECORD
  5
1
330
0
100
AcDbSymbolTable
 70
     7
  0
BLOCK_RECORD
  5
1E
102
{ACAD_XDICTIONARY
360
4B1
102
}
330
1
100
AcDbSymbolTableRecord
100
AcDbBlockTableRecord
  2
*Model_Space
340
21
  0
BLOCK_RECORD
  5
1A
330
1
100
AcDbSymbolTableRecord
100
AcDbBlockTableRecord
  2
*Paper_Space
340
1D
  0
BLOCK_RECORD
  5
22
330
1
100
AcDbSymbolTableRecord
100
AcDbBlockTableRecord
  2
LOGO
340
0
102
{BLKREFS
331
337
102
}
  0
BLOCK_RECORD
  5
2B
330
1
100
AcDbSymbolTableRecord
100
AcDbBlockTableRecord
  2
*D1
340
0
  0
BLOCK_RECORD
  5
860
330
1
100
AcDbSymbolTableRecord
100
AcDbBlockTableRecord
  2
*D2
340
0
  0
BLOCK_RECORD
  5
A27
330
1
100
AcDbSymbolTableRecord
100
AcDbBlockTableRecord
  2
*D3
340
0
  0
BLOCK_RECORD
  5
CF2
330
1
100
AcDbSymbolTableRecord
100
AcDbBlockTableRecord
  2
*D4
340
0
  0
BLOCK_RECORD
  5
DC0
330
1
100
AcDbSymbolTableRecord
100
AcDbBlockTableRecord
  2
*D5
340
0
  0
BLOCK_RECORD
  5
DCC
330
1
100
AcDbSymbolTableRecord
100
AcDbBlockTableRecord
  2
*D6
340
0
  0
ENDTAB
  0
ENDSEC
  0
SECTION
  2
BLOCKS
  0
BLOCK
  5
49
330
1E
100
AcDbEntity
  8
0
100
AcDbBlockBegin
  2
*Model_Space
 70
     0
 10
0.0
 20
0.0
 30
0.0
  3
*Model_Space
  1

  0
ENDBLK
  5
4A
330
1E
100
AcDbEntity
  8
0
100
AcDbBlockEnd
  0
BLOCK
  5
47
330
1A
100
AcDbEntity
 67
     1
  8
0
100
AcDbBlockBegin
  2
*Paper_Space
 70
     0
 10
0.0
 20
0.0
 30
0.0
  3
*Paper_Space
  1

  0
ENDBLK
  5
48
330
1A
100
AcDbEntity
 67
     1
  8
0
100
AcDbBlockEnd
  0
BLOCK
  5
4B
330
22
100
AcDbEntity
  8
0
100
AcDbBlockBegin
  2
LOGO
 70
     0
 10
0.0
 20
0.0
 30
0.0
  3
LOGO
  1

  0
ARC
  5
4C
330
22
100
AcDbEntity
  8
0
100
AcDbCircle
 10
11.59973089678112
 20
-9.271599258481501
 30
0.0
 40
4.5
100
AcDbArc
 50
270.0
 51
231.0575587310159
  0
LINE
  5
4D
330
22
100
AcDbEntity
  8
0
100
AcDbLine
 10
3.599730896781125
 20
-4.771599258481529
 30
0.0
 11
3.599730896781153
 21
-11.77159925848133
 31
0.0
  0
LINE
  5
4E
330
22
100
AcDbEntity
  8
0
100
AcDbLine
 10
2.599730896781125
 20
-4.771599258481529
 30
0.0
 11
2.599730896781153
 21
-11.77159925848133
 31
0.0
  0
CIRCLE
  5
4F
330
22
100
AcDbEntity
  8
0
100
AcDbCircle
 10
11.59973089678112
 20
-9.271599258481501
 30
0.0
 40
3.5
  0
ARC
  5
50
330
22
100
AcDbEntity
  8
0
100
AcDbCircle
 10
31.59973089678115
 20
-9.271599258481472
 30
0.0
 40
4.5
100
AcDbArc
 50
270.0
 51
231.0575587310182
  0
LINE
  5
51
330
22
100
AcDbEntity
  8
0
100
AcDbLine
 10
17.59973089678112
 20
-4.771599258481472
 30
0.0
 11
17.59973089678115
 21
-13.77159925848147
 31
0.0
  0
ARC
  5
52
330
22
100
AcDbEntity
  8
0
100
AcDbCircle
 10
22.59973089678116
 20
-7.271599258481472
 30
0.0
 40
2.5
100
AcDbArc
 50
293.1161887722295
 51
90.0
  0
CIRCLE
  5
53
330
22
100
AcDbEntity
  8
0
100
AcDbCircle
 10
31.59973089678115
 20
-9.271599258481472
 30
0.0
 40
3.5
  0
ARC
  5
54
330
22
100
AcDbEntity
  8
0
100
AcDbCircle
 10
4.599730896781153
 20
-11.77159925848133
 30
0.0
 40
1.0
100
AcDbArc
 50
180.0
 51
270.0
  0
ARC
  5
55
330
22
100
AcDbEntity
  8
0
100
AcDbCircle
 10
4.599730896781153
 20
-11.77159925848133
 30
0.0
 40
2.0
100
AcDbArc
 50
179.9999999999992
 51
270.0
  0
LINE
  5
56
330
22
100
AcDbEntity
  8
0
100
AcDbLine
 10
11.59973089678115
 20
-13.77159925848144
 30
0.0
 11
4.599730896781153
 21
-13.77159925848147
 31
0.0
  0
LINE
  5
57
330
22
100
AcDbEntity
  8
0
100
AcDbLine
 10
8.771303772034769
 20
-12.77159925848136
 30
0.0
 11
4.599730896781153
 21
-12.77159925848133
 31
0.0
  0
LINE
  5
58
330
22
100
AcDbEntity
  8
0
100
AcDbLine
 10
31.59973089678115
 20
-13.77159925848147
 30
0.0
 11
23.6715276665056
 21
-13.77159925848144
 31
0.0
  0
LINE
  5
59
330
22
100
AcDbEntity
  8
0
100
AcDbLine
 10
23.56565672307022
 20
-9.51278021337896
 30
0.0
 11
24.4388546544846
 21
-12.77159925848144
 31
0.0
  0
LINE
  5
5A
330
22
100
AcDbEntity
  8
0
100
AcDbLine
 10
22.59973089678116
 20
-9.771599258481472
 30
0.0
 11
18.59973089678112
 21
-9.771599258481472
 31
0.0
  0
LINE
  5
5B
330
22
100
AcDbEntity
  8
0
100
AcDbLine
 10
18.59973089678115
 20
-13.77159925848144
 30
0.0
 11
17.59973089678115
 21
-13.77159925848144
 31
0.0
  0
LINE
  5
5C
330
22
100
AcDbEntity
  8
0
100
AcDbLine
 10
18.59973089678115
 20
-9.771599258481472
 30
0.0
 11
18.59973089678115
 21
-13.77159925848144
 31
0.0
  0
LINE
  5
5D
330
22
100
AcDbEntity
  8
0
100
AcDbLine
 10
22.59973089678116
 20
-9.771599258481472
 30
0.0
 11
23.67152766650562
 21
-13.77159925848147
 31
0.0
  0
ARC
  5
5E
330
22
100
AcDbEntity
  8
0
100
AcDbCircle
 10
22.59973089678116
 20
-7.271599258481472
 30
0.0
 40
2.5
100
AcDbArc
 50
270.0
 51
270.0000000000007
  0
LINE
  5
5F
330
22
100
AcDbEntity
  8
0
100
AcDbLine
 10
28.77130377203494
 20
-12.77159925848147
 30
0.0
 11
24.43885465448463
 21
-12.77159925848144
 31
0.0
  0
LINE
  5
60
330
22
100
AcDbEntity
  8
0
100
AcDbLine
 10
3.599730896781125
 20
-4.771599258481472
 30
0.0
 11
2.599730896781125
 21
-4.771599258481472
 31
0.0
  0
LINE
  5
61
330
22
100
AcDbEntity
  8
0
100
AcDbLine
 10
22.59973089678116
 20
-8.771599258481472
 30
0.0
 11
18.59973089678115
 21
-8.771599258481472
 31
0.0
  0
LINE
  5
62
330
22
100
AcDbEntity
  8
0
100
AcDbLine
 10
22.59973089678116
 20
-5.771599258481472
 30
0.0
 11
18.59973089678115
 21
-5.771599258481472
 31
0.0
  0
LINE
  5
63
330
22
100
AcDbEntity
  8
0
100
AcDbLine
 10
22.59973089678116
 20
-4.771599258481472
 30
0.0
 11
17.59973089678115
 21
-4.771599258481472
 31
0.0
  0
LINE
  5
64
330
22
100
AcDbEntity
  8
0
100
AcDbLine
 10
18.59973089678115
 20
-5.771599258481472
 30
0.0
 11
18.59973089678115
 21
-8.771599258481472
 31
0.0
  0
ARC
  5
65
330
22
100
AcDbEntity
  8
0
100
AcDbCircle
 10
22.59973089678116
 20
-7.271599258481472
 30
0.0
 40
1.5
100
AcDbArc
 50
270.0
 51
90.0
  0
ENDBLK
  5
66
330
22
100
AcDbEntity
  8
0
100
AcDbBlockEnd
  0
BLOCK
  5
13E
330
2B
100
AcDbEntity
  8
0
100
AcDbBlockBegin
  2
*D1
 70
     1
 10
0.0
 20
0.0
 30
0.0
  3
*D1
  1

  0
LINE
  5
13F
330
2B
100
AcDbEntity
  8
0
  6
ByBlock
 62
     0
100
AcDbLine
 10
116.1761680821237
 20
659.1556906693488
 30
0.0
 11
99.07677154985192
 21
659.1556906693488
 31
0.0
  0
LINE
  5
140
330
2B
100
AcDbEntity
  8
0
  6
ByBlock
 62
     0
100
AcDbLine
 10
116.1761680821237
 20
661.1556906693488
 30
0.0
 11
99.07677154985192
 21
661.1556906693488
 31
0.0
  0
LINE
  5
141
330
2B
100
AcDbEntity
  8
0
  6
ByBlock
 62
     0
100
AcDbLine
 10
100.0767715498519
 20
652.1556906693488
 30
0.0
 11
100.0767715498519
 21
645.1556906693488
 31
0.0
  0
LINE
  5
142
330
2B
100
AcDbEntity
  8
0
  6
ByBlock
 62
     0
100
AcDbLine
 10
100.0767715498519
 20
668.1556906693487
 30
0.0
 11
100.0767715498519
 21
675.1556906693488
 31
0.0
  0
LINE
  5
143
330
2B
100
AcDbEntity
  8
0
  6
ByBlock
 62
     0
100
AcDbLine
 10
100.0767715498519
 20
675.1556906693488
 30
0.0
 11
100.0767715498519
 21
678.9790240026822
 31
0.0
  0
SOLID
  5
144
330
2B
100
AcDbEntity
  8
0
  6
ByBlock
 62
     0
100
AcDbTrace
 10
98.91010488318524
 20
652.1556906693488
 30
0.0
 11
101.2434382165185
 21
652.1556906693488
 31
0.0
 12
100.0767715498519
 22
659.1556906693488
 32
0.0
 13
100.0767715498519
 23
659.1556906693488
 33
0.0
  0
SOLID
  5
145
330
2B
100
AcDbEntity
  8
0
  6
ByBlock
 62
     0
100
AcDbTrace
 10
98.91010488318524
 20
668.1556906693487
 30
0.0
 11
101.2434382165185
 21
668.1556906693487
 31
0.0
 12
100.0767715498519
 22
661.1556906693488
 32
0.0
 13
100.0767715498519
 23
661.1556906693488
 33
0.0
  0
LINE
  5
146
330
2B
100
AcDbEntity
  8
0
  6
ByBlock
 62
     0
100
AcDbLine
 10
100.0767715498519
 20
659.1556906693488
 30
0.0
 11
100.0767715498519
 21
661.1556906693488
 31
0.0
  0
TEXT
  5
147
330
2B
100
AcDbEntity
  8
0
  6
ByBlock
 62
     1
100
AcDbText
 10
96.57677154985192
 20
675.2456906693488
 30
0.0
 40
7.0
  1
2
 50
90.0
 41
0.8
  7
GREEKS
 72
     1
 11
93.0767715498519
 21
677.1123573360155
 31
0.0
100
AcDbText
 73
     2
  0
POINT
  5
148
330
2B
100
AcDbEntity
  8
DEFPOINTS
  6
ByBlock
 62
     0
100
AcDbPoint
 10
117.1761680821237
 20
659.1556906693488
 30
0.0
  0
POINT
  5
149
330
2B
100
AcDbEntity
  8
DEFPOINTS
  6
ByBlock
 62
     0
100
AcDbPoint
 10
117.1761680821237
 20
661.1556906693488
 30
0.0
  0
POINT
  5
14A
330
2B
100
AcDbEntity
  8
DEFPOINTS
  6
ByBlock
 62
     0
100
AcDbPoint
 10
100.0767715498519
 20
661.1556906693488
 30
0.0
  0
ENDBLK
  5
14B
330
2B
100
AcDbEntity
  8
0
100
AcDbBlockEnd
  0
BLOCK
  5
86A
330
860
100
AcDbEntity
  8
0
100
AcDbBlockBegin
  2
*D2
 70
     1
 10
0.0
 20
0.0
 30
0.0
  3
*D2
  1

  0
LINE
  5
E8A
330
860
100
AcDbEntity
  8
BEM
 62
     0
370
    -2
100
AcDbLine
 10
287.8963261247647
 20
663.1556906693487
 30
0.0
 11
377.8515300065991
 21
663.1556906693487
 31
0.0
  0
LINE
  5
E8B
330
860
100
AcDbEntity
  8
BEM
 62
     0
370
    -2
100
AcDbLine
 10
265.5214394895054
 20
413.1556906693487
 30
0.0
 11
377.851530006599
 21
413.1556906693487
 31
0.0
  0
LINE
  5
E8C
330
860
100
AcDbEntity
  8
BEM
 62
     0
370
    -2
100
AcDbLine
 10
375.8515300065991
 20
656.1556906693486
 30
0.0
 11
375.851530006599
 21
420.1556906693487
 31
0.0
  0
SOLID
  5
E8D
330
860
100
AcDbEntity
  8
BEM
 62
     0
100
AcDbTrace
 10
374.6848633399324
 20
656.1556906693486
 30
0.0
 11
377.0181966732658
 21
656.1556906693486
 31
0.0
 12
375.8515300065991
 22
663.1556906693487
 32
0.0
 13
375.8515300065991
 23
663.1556906693487
 33
0.0
  0
SOLID
  5
E8E
330
860
100
AcDbEntity
  8
BEM
 62
     0
100
AcDbTrace
 10
374.6848633399324
 20
420.1556906693487
 30
0.0
 11
377.0181966732657
 21
420.1556906693487
 31
0.0
 12
375.851530006599
 22
413.1556906693487
 32
0.0
 13
375.851530006599
 23
413.1556906693487
 33
0.0
  0
MTEXT
  5
E8F
330
860
100
AcDbEntity
  8
BEM
 62
     1
100
AcDbMText
 10
369.351530006599
 20
538.1556906693488
 30
0.0
 40
7.0
 41
0.0
 71
     5
 72
     1
  1
\A1;250
 11
0.0000000000000001
 21
1.0
 31
0.0
 73
     1
 44
1.0
  0
POINT
  5
E90
330
860
100
AcDbEntity
  8
DEFPOINTS
 62
     0
100
AcDbPoint
 10
285.8963261247647
 20
663.1556906693487
 30
0.0
  0
POINT
  5
E91
330
860
100
AcDbEntity
  8
DEFPOINTS
 62
     0
100
AcDbPoint
 10
263.5214394895054
 20
413.1556906693487
 30
0.0
  0
POINT
  5
E92
330
860
100
AcDbEntity
  8
DEFPOINTS
 62
     0
100
AcDbPoint
 10
375.851530006599
 20
413.1556906693487
 30
0.0
  0
ENDBLK
  5
86B
330
860
100
AcDbEntity
  8
0
100
AcDbBlockEnd
  0
BLOCK
  5
A31
330
A27
100
AcDbEntity
  8
0
100
AcDbBlockBegin
  2
*D3
 70
     1
 10
0.0
 20
0.0
 30
0.0
  3
*D3
  1

  0
LINE
  5
C0D
330
A27
100
AcDbEntity
  8
BEM
 62
     0
370
    -2
100
AcDbLine
 10
162.3963261247647
 20
423.1556906693486
 30
0.0
 11
162.3963261247647
 21
388.9236006265537
 31
0.0
  0
LINE
  5
C0E
330
A27
100
AcDbEntity
  8
BEM
 62
     0
370
    -2
100
AcDbLine
 10
264.3963261247647
 20
423.1556906693486
 30
0.0
 11
264.3963261247647
 21
388.9236006265537
 31
0.0
  0
LINE
  5
C0F
330
A27
100
AcDbEntity
  8
BEM
 62
     0
370
    -2
100
AcDbLine
 10
169.3963261247647
 20
390.9236006265537
 30
0.0
 11
257.3963261247647
 21
390.9236006265537
 31
0.0
  0
SOLID
  5
C10
330
A27
100
AcDbEntity
  8
BEM
 62
     0
100
AcDbTrace
 10
169.3963261247647
 20
392.0902672932204
 30
0.0
 11
169.3963261247647
 21
389.756933959887
 31
0.0
 12
162.3963261247647
 22
390.9236006265537
 32
0.0
 13
162.3963261247647
 23
390.9236006265537
 33
0.0
  0
SOLID
  5
C11
330
A27
100
AcDbEntity
  8
BEM
 62
     0
100
AcDbTrace
 10
257.3963261247647
 20
392.0902672932204
 30
0.0
 11
257.3963261247647
 21
389.756933959887
 31
0.0
 12
264.3963261247647
 22
390.9236006265537
 32
0.0
 13
264.3963261247647
 23
390.9236006265537
 33
0.0
  0
MTEXT
  5
C12
330
A27
100
AcDbEntity
  8
BEM
 62
     1
100
AcDbMText
 10
213.3963261247647
 20
397.4236006265537
 30
0.0
 40
7.0
 41
0.0
 71
     5
 72
     1
  1
\A1;%%c102
 73
     1
 44
1.0
  0
POINT
  5
C13
330
A27
100
AcDbEntity
  8
DEFPOINTS
 62
     0
100
AcDbPoint
 10
162.3963261247647
 20
425.1556906693487
 30
0.0
  0
POINT
  5
C14
330
A27
100
AcDbEntity
  8
DEFPOINTS
 62
     0
100
AcDbPoint
 10
264.3963261247647
 20
425.1556906693487
 30
0.0
  0
POINT
  5
C15
330
A27
100
AcDbEntity
  8
DEFPOINTS
 62
     0
100
AcDbPoint
 10
264.3963261247647
 20
390.9236006265537
 30
0.0
  0
ENDBLK
  5
A32
330
A27
100
AcDbEntity
  8
0
100
AcDbBlockEnd
  0
BLOCK
  5
CFE
330
CF2
100
AcDbEntity
  8
0
100
AcDbBlockBegin
  2
*D4
 70
     1
 10
0.0
 20
0.0
 30
0.0
  3
*D4
  1

  0
LINE
  5
E49
330
CF2
100
AcDbEntity
  8
BEM
 62
     0
370
    -2
100
AcDbLine
 10
287.8963261247647
 20
663.1556906693487
 30
0.0
 11
357.8963261247648
 21
663.1556906693487
 31
0.0
  0
LINE
  5
E4A
330
CF2
100
AcDbEntity
  8
BEM
 62
     0
370
    -2
100
AcDbLine
 10
337.8963261247648
 20
661.1556906693488
 30
0.0
 11
357.8963261247648
 21
661.1556906693488
 31
0.0
  0
LINE
  5
E4B
330
CF2
100
AcDbEntity
  8
BEM
 62
     0
370
    -2
100
AcDbLine
 10
355.8963261247648
 20
670.1556906693487
 30
0.0
 11
355.8963261247648
 21
677.1556906693486
 31
0.0
  0
LINE
  5
E4C
330
CF2
100
AcDbEntity
  8
BEM
 62
     0
370
    -2
100
AcDbLine
 10
355.8963261247648
 20
654.1556906693488
 30
0.0
 11
355.8963261247648
 21
637.4223573360154
 31
0.0
  0
LINE
  5
E4D
330
CF2
100
AcDbEntity
  8
BEM
 62
     0
370
    -2
100
AcDbLine
 10
355.8963261247648
 20
663.1556906693487
 30
0.0
 11
355.8963261247648
 21
661.1556906693488
 31
0.0
  0
SOLID
  5
E4E
330
CF2
100
AcDbEntity
  8
BEM
 62
     0
100
AcDbTrace
 10
354.7296594580981
 20
670.1556906693487
 30
0.0
 11
357.0629927914315
 21
670.1556906693487
 31
0.0
 12
355.8963261247648
 22
663.1556906693487
 32
0.0
 13
355.8963261247648
 23
663.1556906693487
 33
0.0
  0
SOLID
  5
E4F
330
CF2
100
AcDbEntity
  8
BEM
 62
     0
100
AcDbTrace
 10
354.7296594580981
 20
654.1556906693488
 30
0.0
 11
357.0629927914315
 21
654.1556906693488
 31
0.0
 12
355.8963261247648
 22
661.1556906693488
 32
0.0
 13
355.8963261247648
 23
661.1556906693488
 33
0.0
  0
MTEXT
  5
E50
330
CF2
100
AcDbEntity
  8
BEM
 62
     1
100
AcDbMText
 10
349.3963261247647
 20
642.2890240026823
 30
0.0
 40
7.0
 41
0.0
 71
     5
 72
     1
  1
\A1;2
 11
0.0000000000000001
 21
1.0
 31
0.0
 73
     1
 44
1.0
  0
POINT
  5
E51
330
CF2
100
AcDbEntity
  8
DEFPOINTS
 62
     0
100
AcDbPoint
 10
285.8963261247647
 20
663.1556906693487
 30
0.0
  0
POINT
  5
E52
330
CF2
100
AcDbEntity
  8
DEFPOINTS
 62
     0
100
AcDbPoint
 10
335.8963261247648
 20
661.1556906693488
 30
0.0
  0
POINT
  5
E53
330
CF2
100
AcDbEntity
  8
DEFPOINTS
 62
     0
100
AcDbPoint
 10
355.8963261247648
 20
661.1556906693488
 30
0.0
  0
ENDBLK
  5
CFF
330
CF2
100
AcDbEntity
  8
0
100
AcDbBlockEnd
  0
BLOCK
  5
DCA
330
DC0
100
AcDbEntity
  8
0
100
AcDbBlockBegin
  2
*D5
 70
     1
 10
0.0
 20
0.0
 30
0.0
  3
*D5
  1

  0
LINE
  5
E81
330
DC0
100
AcDbEntity
  8
BEM
 62
     0
370
    -2
100
AcDbLine
 10
90.89632612476469
 20
663.1556906693488
 30
0.0
 11
90.89632612476469
 21
698.1120420450017
 31
0.0
  0
LINE
  5
E82
330
DC0
100
AcDbEntity
  8
BEM
 62
     0
370
    -2
100
AcDbLine
 10
335.8963261247648
 20
663.1556906693488
 30
0.0
 11
335.8963261247648
 21
698.1120420450017
 31
0.0
  0
LINE
  5
E83
330
DC0
100
AcDbEntity
  8
BEM
 62
     0
370
    -2
100
AcDbLine
 10
97.8963261247647
 20
696.1120420450018
 30
0.0
 11
328.8963261247648
 21
696.1120420450018
 31
0.0
  0
SOLID
  5
E84
330
DC0
100
AcDbEntity
  8
BEM
 62
     0
100
AcDbTrace
 10
97.8963261247647
 20
697.2787087116683
 30
0.0
 11
97.8963261247647
 21
694.9453753783351
 31
0.0
 12
90.89632612476469
 22
696.1120420450018
 32
0.0
 13
90.89632612476469
 23
696.1120420450018
 33
0.0
  0
SOLID
  5
E85
330
DC0
100
AcDbEntity
  8
BEM
 62
     0
100
AcDbTrace
 10
328.8963261247648
 20
697.2787087116683
 30
0.0
 11
328.8963261247648
 21
694.9453753783351
 31
0.0
 12
335.8963261247648
 22
696.1120420450018
 32
0.0
 13
335.8963261247648
 23
696.1120420450018
 33
0.0
  0
MTEXT
  5
E86
330
DC0
100
AcDbEntity
  8
BEM
 62
     1
100
AcDbMText
 10
213.3963261247648
 20
702.6120420450017
 30
0.0
 40
7.0
 41
0.0
 71
     5
 72
     1
  1
\A1;%%c245
 73
     1
 44
1.0
  0
POINT
  5
E87
330
DC0
100
AcDbEntity
  8
DEFPOINTS
 62
     0
100
AcDbPoint
 10
90.89632612476469
 20
661.1556906693488
 30
0.0
  0
POINT
  5
E88
330
DC0
100
AcDbEntity
  8
DEFPOINTS
 62
     0
100
AcDbPoint
 10
335.8963261247648
 20
661.1556906693488
 30
0.0
  0
POINT
  5
E89
330
DC0
100
AcDbEntity
  8
DEFPOINTS
 62
     0
100
AcDbPoint
 10
335.8963261247648
 20
696.1120420450018
 30
0.0
  0
ENDBLK
  5
DCB
330
DC0
100
AcDbEntity
  8
0
100
AcDbBlockEnd
  0
BLOCK
  5
DD6
330
DCC
100
AcDbEntity
  8
0
100
AcDbBlockBegin
  2
*D6
 70
     1
 10
0.0
 20
0.0
 30
0.0
  3
*D6
  1

  0
LINE
  5
E78
330
DCC
100
AcDbEntity
  8
BEM
 62
     0
370
    -2
100
AcDbLine
 10
140.8963261247647
 20
665.1556906693488
 30
0.0
 11
140.8963261247647
 21
682.1120420450017
 31
0.0
  0
LINE
  5
E79
330
DCC
100
AcDbEntity
  8
BEM
 62
     0
370
    -2
100
AcDbLine
 10
285.8963261247647
 20
665.1556906693486
 30
0.0
 11
285.8963261247647
 21
682.1120420450017
 31
0.0
  0
LINE
  5
E7A
330
DCC
100
AcDbEntity
  8
BEM
 62
     0
370
    -2
100
AcDbLine
 10
147.8963261247647
 20
680.1120420450017
 30
0.0
 11
278.8963261247647
 21
680.1120420450017
 31
0.0
  0
SOLID
  5
E7B
330
DCC
100
AcDbEntity
  8
BEM
 62
     0
100
AcDbTrace
 10
147.8963261247647
 20
681.2787087116683
 30
0.0
 11
147.8963261247647
 21
678.9453753783351
 31
0.0
 12
140.8963261247647
 22
680.1120420450017
 32
0.0
 13
140.8963261247647
 23
680.1120420450017
 33
0.0
  0
SOLID
  5
E7C
330
DCC
100
AcDbEntity
  8
BEM
 62
     0
100
AcDbTrace
 10
278.8963261247647
 20
681.2787087116683
 30
0.0
 11
278.8963261247647
 21
678.9453753783351
 31
0.0
 12
285.8963261247647
 22
680.1120420450017
 32
0.0
 13
285.8963261247647
 23
680.1120420450017
 33
0.0
  0
MTEXT
  5
E7D
330
DCC
100
AcDbEntity
  8
BEM
 62
     1
100
AcDbMText
 10
213.3963261247647
 20
686.6120420450017
 30
0.0
 40
7.0
 41
0.0
 71
     5
 72
     1
  1
\A1;%%C145
 73
     1
 44
1.0
  0
POINT
  5
E7E
330
DCC
100
AcDbEntity
  8
DEFPOINTS
 62
     0
100
AcDbPoint
 10
140.8963261247647
 20
663.1556906693488
 30
0.0
  0
POINT
  5
E7F
330
DCC
100
AcDbEntity
  8
DEFPOINTS
 62
     0
100
AcDbPoint
 10
285.8963261247647
 20
663.1556906693487
 30
0.0
  0
POINT
  5
E80
330
DCC
100
AcDbEntity
  8
DEFPOINTS
 62
     0
100
AcDbPoint
 10
285.8963261247647
 20
680.1120420450017
 30
0.0
  0
ENDBLK
  5
DD7
330
DCC
100
AcDbEntity
  8
0
100
AcDbBlockEnd
  0
ENDSEC
  0
SECTION
  2
ENTITIES
  0
TEXT
  5
2F6
330
1E
100
AcDbEntity
  8
TEXT
 62
     1
100
AcDbText
 10
507.0058791601468
 20
654.979117340995
 30
0.0
 40
7.0
  1
Direktablauf DN100
 50
90.0
 41
0.8
  7
GREEKS
100
AcDbText
  0
LINE
  5
2F7
330
1E
100
AcDbEntity
  8
STEMPEL
100
AcDbLine
 10
484.0
 20
830.0
 30
0.0
 11
484.0
 21
470.0
 31
0.0
  0
LINE
  5
2F8
330
1E
100
AcDbEntity
  8
STEMPEL
100
AcDbLine
 10
484.0
 20
470.0
 30
0.0
 11
584.0
 21
469.9999999999999
 31
0.0
  0
LINE
  5
2F9
330
1E
100
AcDbEntity
  8
STEMPEL
100
AcDbLine
 10
484.0000000000001
 20
566.0000000000001
 30
0.0
 11
584.0000000000001
 21
565.9999999999999
 31
0.0
  0
LINE
  5
2FA
330
1E
100
AcDbEntity
  8
STEMPEL
100
AcDbLine
 10
484.0
 20
649.9999999999999
 30
0.0
 11
584.0
 21
649.9999999999999
 31
0.0
  0
LINE
  5
2FB
330
1E
100
AcDbEntity
  8
STEMPEL
100
AcDbLine
 10
484.0000000000003
 20
752.0000000000001
 30
0.0
 11
554.0
 21
752.0000000000001
 31
0.0
  0
LINE
  5
2FC
330
1E
100
AcDbEntity
  8
STEMPEL
100
AcDbLine
 10
564.0
 20
565.9999999999999
 30
0.0
 11
564.0
 21
469.9999999999999
 31
0.0
  0
LINE
  5
2FD
330
1E
100
AcDbEntity
  8
STEMPEL
100
AcDbLine
 10
554.0
 20
830.0
 30
0.0
 11
554.0
 21
565.9999999999999
 31
0.0
  0
LINE
  5
2FE
330
1E
100
AcDbEntity
  8
STEMPEL
100
AcDbLine
 10
514.0
 20
830.0
 30
0.0
 11
514.0
 21
566.0000000000001
 31
0.0
  0
LINE
  5
2FF
330
1E
100
AcDbEntity
  8
VOLL
100
AcDbLine
 10
484.0
 20
484.0
 30
0.0
 11
584.0
 21
483.9999999999998
 31
0.0
  0
LINE
  5
300
330
1E
100
AcDbEntity
  8
VOLL
100
AcDbLine
 10
484.0
 20
524.0000000000001
 30
0.0
 11
584.0
 21
523.9999999999999
 31
0.0
  0
LINE
  5
301
330
1E
100
AcDbEntity
  8
VOLL
100
AcDbLine
 10
484.0000000000001
 20
544.0000000000001
 30
0.0
 11
584.0000000000001
 21
543.9999999999998
 31
0.0
  0
LINE
  5
302
330
1E
100
AcDbEntity
  8
VOLL
100
AcDbLine
 10
514.0
 20
584.0000000000001
 30
0.0
 11
554.0
 21
584.0000000000001
 31
0.0
  0
LINE
  5
303
330
1E
100
AcDbEntity
  8
VOLL
100
AcDbLine
 10
484.0000000000001
 20
610.0000000000001
 30
0.0
 11
554.0
 21
609.9999999999998
 31
0.0
  0
LINE
  5
304
330
1E
100
AcDbEntity
  8
HILF
100
AcDbLine
 10
494.0
 20
470.0
 30
0.0
 11
494.0
 21
566.0000000000001
 31
0.0
  0
LINE
  5
305
330
1E
100
AcDbEntity
  8
HILF
100
AcDbLine
 10
504.0
 20
470.0
 30
0.0
 11
504.0
 21
566.0000000000001
 31
0.0
  0
LINE
  5
306
330
1E
100
AcDbEntity
  8
HILF
100
AcDbLine
 10
514.0
 20
470.0
 30
0.0
 11
514.0
 21
566.0000000000001
 31
0.0
  0
LINE
  5
307
330
1E
100
AcDbEntity
  8
HILF
100
AcDbLine
 10
524.0
 20
470.0
 30
0.0
 11
524.0
 21
566.0000000000001
 31
0.0
  0
LINE
  5
308
330
1E
100
AcDbEntity
  8
HILF
100
AcDbLine
 10
534.0
 20
470.0
 30
0.0
 11
534.0
 21
566.0000000000001
 31
0.0
  0
LINE
  5
309
330
1E
100
AcDbEntity
  8
HILF
100
AcDbLine
 10
544.0
 20
470.0
 30
0.0
 11
544.0
 21
566.0000000000001
 31
0.0
  0
LINE
  5
30A
330
1E
100
AcDbEntity
  8
HILF
100
AcDbLine
 10
554.0
 20
470.0
 30
0.0
 11
554.0
 21
566.0000000000001
 31
0.0
  0
LINE
  5
30B
330
1E
100
AcDbEntity
  8
HILF
100
AcDbLine
 10
524.0
 20
566.0000000000001
 30
0.0
 11
524.0
 21
649.9999999999999
 31
0.0
  0
LINE
  5
30C
330
1E
100
AcDbEntity
  8
HILF
100
AcDbLine
 10
534.0
 20
566.0000000000001
 30
0.0
 11
534.0
 21
649.9999999999999
 31
0.0
  0
LINE
  5
30D
330
1E
100
AcDbEntity
  8
HILF
100
AcDbLine
 10
544.0
 20
566.0000000000001
 30
0.0
 11
544.0
 21
649.9999999999999
 31
0.0
  0
LINE
  5
30E
330
1E
100
AcDbEntity
  8
HILF
100
AcDbLine
 10
509.9624175243587
 20
654.7736801096947
 30
0.0
 11
509.9624175243587
 21
746.629784251481
 31
0.0
  0
LINE
  5
30F
330
1E
100
AcDbEntity
  8
HILF
100
AcDbLine
 10
524.0
 20
654.7736801096947
 30
0.0
 11
524.0
 21
746.629784251481
 31
0.0
  0
LINE
  5
310
330
1E
100
AcDbEntity
  8
HILF
100
AcDbLine
 10
534.0
 20
654.7736801096947
 30
0.0
 11
534.0
 21
746.629784251481
 31
0.0
  0
LINE
  5
311
330
1E
100
AcDbEntity
  8
HILF
100
AcDbLine
 10
544.0
 20
654.7736801096947
 30
0.0
 11
544.0
 21
746.629784251481
 31
0.0
  0
LINE
  5
312
330
1E
100
AcDbEntity
  8
VOLL
100
AcDbLine
 10
534.0
 20
752.0000000000001
 30
0.0
 11
534.0
 21
830.0
 31
0.0
  0
LINE
  5
313
330
1E
100
AcDbEntity
  8
HILF
100
AcDbLine
 10
510.2201636304418
 20
756.7238616296994
 30
0.0
 11
510.2201636304418
 21
824.8588839326728
 31
0.0
  0
LINE
  5
314
330
1E
100
AcDbEntity
  8
HILF
100
AcDbLine
 10
579.1060174197169
 20
654.7736801096947
 30
0.0
 11
579.1060174197169
 21
824.8588839326728
 31
0.0
  0
TEXT
  5
315
330
1E
100
AcDbEntity
  8
TEXT
100
AcDbText
 10
577.0404667644444
 20
493.3691645891424
 30
0.0
 40
4.0
  1
Änderung
 50
90.0
 41
0.8
  7
GREEKS
 72
     4
 11
575.3261810501587
 21
504.1120217319996
 31
0.0
100
AcDbText
  0
TEXT
  5
316
330
1E
100
AcDbEntity
  8
TEXT
100
AcDbText
 10
491.5379104912911
 20
573.5163572150375
 30
0.0
 40
5.0
  1
Maßstab
 50
90.0
 41
0.8
  7
GREEKS
100
AcDbText
  0
TEXT
  5
317
330
1E
100
AcDbEntity
  8
TEXT
100
AcDbText
 10
491.5815831565181
 20
617.9646614905597
 30
0.0
 40
5.0
  1
zul.Abw
 50
90.0
 41
0.8
  7
GREEKS
100
AcDbText
  0
TEXT
  5
318
330
1E
100
AcDbEntity
  8
TEXT
100
AcDbText
 10
491.4510671988221
 20
654.8779403809009
 30
0.0
 40
5.0
  1
Benennung
 50
90.0
 41
0.8
  7
GREEKS
100
AcDbText
  0
TEXT
  5
319
330
1E
100
AcDbEntity
  8
TEXT
100
AcDbText
 10
491.6867965462863
 20
756.1787549576341
 30
0.0
 40
5.0
  1
Zeichnungs Nr.
 50
90.0
 41
0.8
  7
GREEKS
100
AcDbText
  0
TEXT
  5
31A
330
1E
100
AcDbEntity
  8
TEXT
100
AcDbText
 10
563.1543942980694
 20
654.7422383911358
 30
0.0
 40
5.0
  1
Bauvorhaben
 50
90.0
 41
0.8
  7
GREEKS
100
AcDbText
  0
TEXT
  5
31B
330
1E
100
AcDbEntity
  8
TEXT
100
AcDbText
 10
520.8188176290003
 20
756.7238616296994
 30
0.0
 40
5.0
  1
Ersatz für:
 50
90.0
 41
0.8
  7
GREEKS
100
AcDbText
  0
TEXT
  5
31C
330
1E
100
AcDbEntity
  8
TEXT
100
AcDbText
 10
580.3453415397281
 20
478.2664110704574
 30
0.0
 40
3.6
  1
Index
 50
180.0
  7
GREEKS
100
AcDbText
  0
TEXT
  5
31D
330
1E
100
AcDbEntity
  8
TEXT
100
AcDbText
 10
576.528437306602
 20
529.788689595101
 30
0.0
 40
3.6
  1
Tag
 50
90.0
 41
0.8
  7
GREEKS
 72
     4
 11
575.3284373066019
 21
533.148689595101
 31
0.0
100
AcDbText
  0
TEXT
  5
31E
330
1E
100
AcDbEntity
  8
TEXT
100
AcDbText
 10
577.2067578303359
 20
549.1461284912212
 30
0.0
 40
3.6
  1
Name
 50
90.0
 41
0.8
  7
GREEKS
 72
     4
 11
575.4067578303359
 21
554.8375570626498
 31
0.0
100
AcDbText
  0
TEXT
  5
31F
330
1E
100
AcDbEntity
  8
TEXT
100
AcDbText
 10
520.6811949877008
 20
592.3311673153649
 30
0.0
 40
3.6
  1
Tag
 50
90.0
 41
0.8
  7
GREEKS
100
AcDbText
  0
TEXT
  5
320
330
1E
100
AcDbEntity
  8
TEXT
100
AcDbText
 10
520.6903890808478
 20
622.4626584226294
 30
0.0
 40
3.6
  1
Name
 50
90.0
 41
0.8
  7
GREEKS
100
AcDbText
  0
TEXT
  5
321
330
1E
100
AcDbEntity
  8
TEXT
100
AcDbText
 10
530.3700963038204
 20
567.5836127167614
 30
0.0
 40
3.6
  1
Gez.
 50
90.0
 41
0.8
  7
GREEKS
100
AcDbText
  0
TEXT
  5
322
330
1E
100
AcDbEntity
  8
TEXT
100
AcDbText
 10
540.3107370857163
 20
567.5515086571671
 30
0.0
 40
3.6
  1
Gepr.
 50
90.0
 41
0.8
  7
GREEKS
100
AcDbText
  0
TEXT
  5
323
330
1E
100
AcDbEntity
  8
TEXT
100
AcDbText
 10
550.470536103502
 20
567.6006777387303
 30
0.0
 40
3.6
  1
Norm.
 50
90.0
 41
0.8
  7
GREEKS
100
AcDbText
  0
TEXT
  5
324
330
1E
100
AcDbEntity
  8
TEXT
100
AcDbText
 10
530.497467412491
 20
625.1121860477743
 30
0.0
 40
3.6
  1
Koeh
 50
90.0
 41
0.8
  7
GREEKS
 72
     1
 11
530.497467412491
 21
629.8436146192028
 31
0.0
100
AcDbText
  0
TEXT
  5
325
330
1E
100
AcDbEntity
  8
TEXT
100
AcDbText
 10
541.925838221214
 20
757.2400861497007
 30
0.0
 40
5.0
  1
ersetzt durch:
 50
90.0
 41
0.8
  7
GREEKS
100
AcDbText
  0
LINE
  5
326
330
1E
100
AcDbEntity
  8
HILF
100
AcDbLine
 10
594.0
 20
0.0
 30
0.0
 11
594.0
 21
840.0000000000002
 31
0.0
  0
LINE
  5
327
330
1E
100
AcDbEntity
  8
HILF
100
AcDbLine
 10
594.0
 20
840.0000000000002
 30
0.0
 11
0.0
 21
840.0000000000002
 31
0.0
  0
LINE
  5
328
330
1E
100
AcDbEntity
  8
HILF
100
AcDbLine
 10
0.0
 20
840.0000000000002
 30
0.0
 11
0.0
 21
0.0
 31
0.0
  0
LINE
  5
329
330
1E
100
AcDbEntity
  8
HILF
100
AcDbLine
 10
0.0
 20
0.0
 30
0.0
 11
594.0
 21
0.0
 31
0.0
  0
LINE
  5
32A
330
1E
100
AcDbEntity
  8
STEMPEL
100
AcDbLine
 10
10.0
 20
830.0
 30
0.0
 11
10.0
 21
40.0
 31
0.0
  0
LINE
  5
32B
330
1E
100
AcDbEntity
  8
STEMPEL
100
AcDbLine
 10
584.0
 20
40.0
 30
0.0
 11
584.0
 21
830.0
 31
0.0
  0
LINE
  5
32C
330
1E
100
AcDbEntity
  8
STEMPEL
100
AcDbLine
 10
584.0
 20
830.0
 30
0.0
 11
10.0
 21
830.0
 31
0.0
  0
LINE
  5
32D
330
1E
100
AcDbEntity
  8
STEMPEL
100
AcDbLine
 10
10.0
 20
40.0
 30
0.0
 11
584.0
 21
40.0
 31
0.0
  0
TEXT
  5
32E
330
1E
100
AcDbEntity
  8
TEXT
100
AcDbText
 10
520.8541631609584
 20
568.5426010951829
 30
0.0
 40
3.6
  1
2010
 50
90.0
 41
0.8
  7
GREEKS
100
AcDbText
  0
TEXT
  5
32F
330
1E
100
AcDbEntity
  8
TEXT
100
AcDbText
 10
530.594467646405
 20
590.4500884820464
 30
0.0
 40
3.6
  1
23.04.
 50
90.0
 41
0.8
  7
GREEKS
 72
     1
 11
530.594467646405
 21
596.7586599106178
 31
0.0
100
AcDbText
  0
TEXT
  5
330
330
1E
100
AcDbEntity
  8
TEXT
 62
     1
100
AcDbText
 10
507.7758949562678
 20
578.8064310364449
 30
0.0
 40
7.0
  1
1:2
 50
90.0
  7
GREEKS
100
AcDbText
  0
TEXT
  5
331
330
1E
100
AcDbEntity
  8
TEXT
100
AcDbText
 10
521.703488726959
 20
654.862987254257
 30
0.0
 40
5.0
  1
senkrecht mit Stützflansch
 50
90.0
 41
0.8
  7
GREEKS
100
AcDbText
  0
TEXT
  5
332
330
1E
100
AcDbEntity
  8
TEXT
100
AcDbText
 10
541.2486885465454
 20
655.162303158329
 30
0.0
 40
5.0
  1
EDV-Art.Nr. 16110.100X
 50
90.0
 41
0.8
  7
GREEKS
100
AcDbText
  0
TEXT
  5
333
330
1E
100
AcDbEntity
  8
TEXT
100
AcDbText
 10
583.4462193823216
 20
836.4132055378062
 30
0.0
 40
3.6
  1
Diese Zeichnung ist urheberrechtlich geschuetzt und bleibt unser Eigentum. Sie darf weder ganz noch teilweise vervielfaeltigt und nicht an Dritte weitegegeben werden.
 50
180.0
  7
GREEKS
100
AcDbText
  0
TEXT
  5
334
330
1E
100
AcDbEntity
  8
TEXT
 62
     1
100
AcDbText
 10
506.9813625823642
 20
768.5044394842364
 30
0.0
 40
7.0
  1
16110100W
 50
90.0
 41
0.8
  7
GREEKS
 72
     1
 11
506.9813625823642
 21
790.3711061509031
 31
0.0
100
AcDbText
  0
TEXT
  5
335
330
1E
100
AcDbEntity
  8
TEXT
100
AcDbText
 10
551.8049542698645
 20
654.9713400534564
 30
0.0
 40
3.6
  1
16110100W.DWG
 50
90.0
 41
0.8
  7
GREEKS
100
AcDbText
  0
TEXT
  5
336
330
1E
100
AcDbEntity
  8
TEXT
100
AcDbText
 10
480.4045780774092
 20
470.2031266103855
 30
0.0
 40
5.0
  1
Erstellt mit AUTOCAD 2004
 50
90.0
 41
0.8
  7
GREEKS
100
AcDbText
  0
INSERT
  5
337
330
1E
100
AcDbEntity
  8
STEMPEL
100
AcDbBlockReference
  2
LOGO
 10
549.6760802813285
 20
568.9705276546529
 30
0.0
 41
2.0
 42
2.0
 43
2.0
 50
90.0
  0
LINE
  5
338
330
1E
100
AcDbEntity
  8
BEM
100
AcDbLine
 10
594.0
 20
460.0
 30
0.0
 11
584.0
 21
460.0
 31
0.0
  0
LINE
  5
339
330
1E
100
AcDbEntity
  8
BEM
100
AcDbLine
 10
10.0
 20
460.0
 30
0.0
 11
0.0
 21
460.0
 31
0.0
  0
LINE
  5
33C
102
{ACAD_REACTORS
330
9FB
102
}
330
1E
100
AcDbEntity
  8
STEMPEL
100
AcDbLine
 10
140.8963261247647
 20
663.1556906693488
 30
0.0
 11
285.8963261247647
 21
663.1556906693487
 31
0.0
  0
LINE
  5
33D
330
1E
100
AcDbEntity
  8
STEMPEL
100
AcDbLine
 10
163.438550411989
 20
413.1556906693487
 30
0.0
 11
263.3541018375403
 21
413.1556906693488
 31
0.0
  0
LINE
  5
33E
102
{ACAD_REACTORS
330
9FB
330
E44
102
}
330
1E
100
AcDbEntity
  8
STEMPEL
100
AcDbLine
 10
140.8963261247647
 20
663.1556906693487
 30
0.0
 11
140.8963261247647
 21
651.1556906693489
 31
0.0
  0
LINE
  5
33F
102
{ACAD_REACTORS
330
9FB
330
E44
102
}
330
1E
100
AcDbEntity
  8
STEMPEL
100
AcDbLine
 10
285.8963261247647
 20
663.1556906693487
 30
0.0
 11
285.8963261247647
 21
651.1556906693487
 31
0.0
  0
LINE
  5
340
102
{ACAD_REACTORS
330
9FB
102
}
330
1E
100
AcDbEntity
  8
STEMPEL
100
AcDbLine
 10
154.5802323607377
 20
591.1556906693488
 30
0.0
 11
272.2124198887916
 21
591.1556906693487
 31
0.0
  0
LINE
  5
345
330
1E
100
AcDbEntity
  8
STEMPEL
100
AcDbLine
 10
269.3963261247647
 20
591.1556906693487
 30
0.0
 11
262.3963261247647
 21
572.1556906693487
 31
0.0
  0
LINE
  5
346
330
1E
100
AcDbEntity
  8
STEMPEL
100
AcDbLine
 10
157.3963261247647
 20
591.1556906693488
 30
0.0
 11
164.3963261247646
 21
572.1556906693489
 31
0.0
  0
LINE
  5
348
330
1E
100
AcDbEntity
  8
STEMPEL
100
AcDbLine
 10
271.5152881348064
 20
591.1556906693487
 30
0.0
 11
264.3963261247647
 21
571.8157992120868
 31
0.0
  0
LINE
  5
349
330
1E
100
AcDbEntity
  8
STEMPEL
100
AcDbLine
 10
155.2773641147229
 20
591.1556906693487
 30
0.0
 11
162.3963261247647
 21
571.8157992120866
 31
0.0
  0
LINE
  5
34A
330
1E
100
AcDbEntity
  8
HILF
100
AcDbLine
 10
146.3581962449465
 20
619.1556906693486
 30
0.0
 11
280.4344560045826
 21
619.1556906693486
 31
0.0
  0
LINE
  5
34B
330
1E
100
AcDbEntity
  8
HILF
100
AcDbLine
 10
166.3487156460891
 20
572.1556906693487
 30
0.0
 11
260.4710264749775
 21
572.1556906693487
 31
0.0
  0
LINE
  5
34E
330
1E
100
AcDbEntity
  8
HILF
100
AcDbLine
 10
166.4039657998513
 20
425.1556906693486
 30
0.0
 11
260.388686449678
 21
425.1556906693486
 31
0.0
  0
LINE
  5
351
102
{ACAD_REACTORS
330
E44
102
}
330
1E
100
AcDbEntity
  8
STEMPEL
100
AcDbLine
 10
90.89632612476469
 20
661.1556906693488
 30
0.0
 11
90.89632612476469
 21
659.1556906693488
 31
0.0
  0
LINE
  5
352
102
{ACAD_REACTORS
330
E44
102
}
330
1E
100
AcDbEntity
  8
STEMPEL
100
AcDbLine
 10
335.8963261247648
 20
661.1556906693488
 30
0.0
 11
335.8963261247648
 21
659.1556906693487
 31
0.0
  0
LINE
  5
353
102
{ACAD_REACTORS
330
E44
102
}
330
1E
100
AcDbEntity
  8
STEMPEL
100
AcDbLine
 10
90.89632612476469
 20
661.1556906693488
 30
0.0
 11
140.8963261247647
 21
661.1556906693488
 31
0.0
  0
LINE
  5
354
102
{ACAD_REACTORS
330
E44
102
}
330
1E
100
AcDbEntity
  8
STEMPEL
100
AcDbLine
 10
90.89632612476469
 20
659.1556906693488
 30
0.0
 11
132.8963261247647
 21
659.1556906693488
 31
0.0
  0
LINE
  5
355
102
{ACAD_REACTORS
330
E44
102
}
330
1E
100
AcDbEntity
  8
STEMPEL
100
AcDbLine
 10
293.8963261247647
 20
659.1556906693487
 30
0.0
 11
335.8963261247647
 21
659.1556906693487
 31
0.0
  0
LINE
  5
356
102
{ACAD_REACTORS
330
E44
102
}
330
1E
100
AcDbEntity
  8
STEMPEL
100
AcDbLine
 10
285.8963261247647
 20
661.1556906693488
 30
0.0
 11
335.8963261247648
 21
661.1556906693488
 31
0.0
  0
LINE
  5
357
102
{ACAD_REACTORS
330
9FB
102
}
330
1E
100
AcDbEntity
  8
STEMPEL
100
AcDbLine
 10
140.8963261247647
 20
653.1556906693488
 30
0.0
 11
145.8963261247647
 21
653.1556906693488
 31
0.0
  0
LINE
  5
358
102
{ACAD_REACTORS
330
8D9
330
9FB
102
}
330
1E
100
AcDbEntity
  8
STEMPEL
100
AcDbLine
 10
140.8963261247647
 20
646.1556906693487
 30
0.0
 11
145.8963261247647
 21
646.1556906693488
 31
0.0
  0
LINE
  5
359
330
1E
100
AcDbEntity
  8
STEMPEL
100
AcDbLine
 10
285.8963261247647
 20
663.1556906693487
 30
0.0
 11
285.8963261247647
 21
654.1556906693487
 31
0.0
  0
LINE
  5
35B
102
{ACAD_REACTORS
330
9FB
102
}
330
1E
100
AcDbEntity
  8
STEMPEL
100
AcDbLine
 10
140.8963261247647
 20
646.1556906693487
 30
0.0
 11
140.8963261247647
 21
622.0818157991986
 31
0.0
  0
LINE
  5
35C
102
{ACAD_REACTORS
330
9FB
102
}
330
1E
100
AcDbEntity
  8
STEMPEL
100
AcDbLine
 10
285.8963261247647
 20
646.1556906693487
 30
0.0
 11
285.8963261247647
 21
622.0818157991981
 31
0.0
  0
LINE
  5
35D
102
{ACAD_REACTORS
330
E44
102
}
330
1E
100
AcDbEntity
  8
STEMPEL
100
AcDbLine
 10
287.8963261247647
 20
653.1556906693487
 30
0.0
 11
287.8963261247647
 21
651.1556906693487
 31
0.0
  0
LINE
  5
35E
102
{ACAD_REACTORS
330
8D9
330
E44
102
}
330
1E
100
AcDbEntity
  8
STEMPEL
100
AcDbLine
 10
283.3963261247647
 20
651.1556906693487
 30
0.0
 11
287.8963261247647
 21
651.1556906693487
 31
0.0
  0
ARC
  5
35F
102
{ACAD_REACTORS
330
E44
102
}
330
1E
100
AcDbEntity
  8
STEMPEL
100
AcDbCircle
 10
293.8963261247647
 20
653.1556906693487
 30
0.0
 40
6.0
100
AcDbArc
 50
90.0
 51
180.0
  0
ARC
  5
360
102
{ACAD_REACTORS
330
E44
102
}
330
1E
100
AcDbEntity
  8
STEMPEL
100
AcDbCircle
 10
293.8963261247647
 20
653.1556906693487
 30
0.0
 40
8.0
100
AcDbArc
 50
90.0
 51
180.0
  0
LINE
  5
361
102
{ACAD_REACTORS
330
8D9
330
E44
102
}
330
1E
100
AcDbEntity
  8
STEMPEL
100
AcDbLine
 10
138.8963261247647
 20
651.1556906693489
 30
0.0
 11
143.3963261247647
 21
651.1556906693489
 31
0.0
  0
LINE
  5
362
102
{ACAD_REACTORS
330
E44
102
}
330
1E
100
AcDbEntity
  8
STEMPEL
100
AcDbLine
 10
138.8963261247647
 20
653.1556906693488
 30
0.0
 11
138.8963261247647
 21
651.1556906693489
 31
0.0
  0
ARC
  5
363
102
{ACAD_REACTORS
330
E44
102
}
330
1E
100
AcDbEntity
  8
STEMPEL
100
AcDbCircle
 10
132.8963261247647
 20
653.1556906693488
 30
0.0
 40
6.0
100
AcDbArc
 50
0.0
 51
90.0
  0
ARC
  5
364
102
{ACAD_REACTORS
330
E44
102
}
330
1E
100
AcDbEntity
  8
STEMPEL
100
AcDbCircle
 10
132.8963261247647
 20
653.1556906693488
 30
0.0
 40
8.0
100
AcDbArc
 50
0.0
 51
90.0
  0
LINE
  5
366
102
{ACAD_REACTORS
330
9FB
102
}
330
1E
100
AcDbEntity
  8
STEMPEL
100
AcDbLine
 10
283.3963261247647
 20
663.1556906693487
 30
0.0
 11
283.3963261247647
 21
654.1556906693487
 31
0.0
  0
LINE
  5
367
102
{ACAD_REACTORS
330
8D9
330
9FB
102
}
330
1E
100
AcDbEntity
  8
STEMPEL
100
AcDbLine
 10
283.3963261247647
 20
647.1556906693487
 30
0.0
 11
283.3963261247646
 21
622.0818157991981
 31
0.0
  0
LINE
  5
368
102
{ACAD_REACTORS
330
9FB
102
}
330
1E
100
AcDbEntity
  8
STEMPEL
100
AcDbLine
 10
143.3963261247647
 20
663.1556906693487
 30
0.0
 11
143.3963261247647
 21
654.1556906693488
 31
0.0
  0
LINE
  5
369
102
{ACAD_REACTORS
330
8D9
330
9FB
102
}
330
1E
100
AcDbEntity
  8
STEMPEL
100
AcDbLine
 10
143.3963261247647
 20
647.1556906693487
 30
0.0
 11
143.3963261247647
 21
622.0818157991986
 31
0.0
  0
LINE
  5
36A
102
{ACAD_REACTORS
330
9FB
102
}
330
1E
100
AcDbEntity
  8
STEMPEL
100
AcDbLine
 10
280.8963261247647
 20
646.1556906693487
 30
0.0
 11
280.8963261247647
 21
653.1556906693487
 31
0.0
  0
LINE
  5
36B
102
{ACAD_REACTORS
330
9FB
102
}
330
1E
100
AcDbEntity
  8
STEMPEL
100
AcDbLine
 10
145.8963261247647
 20
646.1556906693488
 30
0.0
 11
145.8963261247647
 21
653.1556906693488
 31
0.0
  0
LINE
  5
36C
102
{ACAD_REACTORS
330
8D9
330
9FB
102
}
330
1E
100
AcDbEntity
  8
STEMPEL
100
AcDbLine
 10
143.3963261247647
 20
647.1556906693487
 30
0.0
 11
143.3963261247647
 21
654.1556906693488
 31
0.0
  0
LINE
  5
36D
102
{ACAD_REACTORS
330
8D9
330
9FB
102
}
330
1E
100
AcDbEntity
  8
STEMPEL
100
AcDbLine
 10
283.3963261247647
 20
647.1556906693487
 30
0.0
 11
283.3963261247647
 21
654.1556906693487
 31
0.0
  0
ARC
  5
36E
330
1E
100
AcDbEntity
  8
STEMPEL
100
AcDbCircle
 10
213.3963261247647
 20
209.0567923316292
 30
0.0
 40
49.0
100
AcDbArc
 50
301.1467466367956
 51
58.85325336320438
  0
LINE
  5
371
330
1E
100
AcDbEntity
  8
MITTEL
100
AcDbLine
 10
85.89632612476469
 20
209.0567923316292
 30
0.0
 11
340.8963261247647
 21
209.0567923316292
 31
0.0
  0
LINE
  5
372
330
1E
100
AcDbEntity
  8
MITTEL
100
AcDbLine
 10
212.796626910879
 20
336.5553819742321
 30
0.0
 11
212.796626910879
 21
81.55820268902623
 31
0.0
  0
DIMENSION
  5
373
330
1E
100
AcDbEntity
  8
BEM
100
AcDbDimension
  2
*D6
 10
285.8963261247647
 20
680.1120420450017
 30
0.0
 11
213.3963261247647
 21
686.6120420450017
 31
0.0
 70
    32
  1
%%C145
 71
     5
 42
145.0
  3
Standard
100
AcDbAlignedDimension
 13
140.8963261247647
 23
663.1556906693488
 33
0.0
 14
285.8963261247647
 24
663.1556906693487
 34
0.0
100
AcDbRotatedDimension
1001
ACAD
1000
DSTYLE
1002
{
1070
    40
1040
2.0
1070
    41
1040
3.5
1070
    42
1040
1.0
1070
    43
1040
7.0
1070
    44
1040
1.0
1070
    47
1040
5.0
1070
    48
1040
5.0
1070
    73
1070
     0
1070
    74
1070
     0
1070
    77
1070
     1
1070
    78
1070
     8
1070
    79
1070
     2
1070
   140
1040
3.5
1070
   141
1040
1.5
1070
   145
1040
0.2857142857142857
1070
   146
1040
0.5142857142857144
1070
   147
1040
1.5
1070
   172
1070
     1
1070
   178
1070
     1
1070
   179
1070
     2
1070
   271
1070
     2
1070
   272
1070
     2
1070
   284
1070
     8
1070
   285
1070
     8
1070
   286
1070
     8
1002
}
  0
POINT
  5
374
330
1E
100
AcDbEntity
  8
DEFPOINTS
  6
ByBlock
 62
     0
100
AcDbPoint
 10
335.8963261247648
 20
661.1556906693488
 30
0.0
  0
POINT
  5
375
330
1E
100
AcDbEntity
  8
DEFPOINTS
  6
ByBlock
 62
     0
100
AcDbPoint
 10
335.8963261247648
 20
659.1556906693487
 30
0.0
  0
POINT
  5
376
330
1E
100
AcDbEntity
  8
DEFPOINTS
  6
ByBlock
 62
     0
100
AcDbPoint
 10
285.8963261247647
 20
663.1556906693487
 30
0.0
  0
LINE
  5
378
330
1E
100
AcDbEntity
  8
VERDECKT
100
AcDbLine
 10
194.5122153660572
 20
279.0542234334409
 30
0.0
 11
232.2804368834723
 21
279.0542234334409
 31
0.0
  0
LINE
  5
379
330
1E
100
AcDbEntity
  8
STEMPEL
100
AcDbLine
 10
194.8464799082541
 20
276.5542234334408
 30
0.0
 11
231.9461723412753
 21
276.5542234334408
 31
0.0
  0
LINE
  5
37A
330
1E
100
AcDbEntity
  8
VERDECKT
100
AcDbLine
 10
283.3963261247647
 20
190.1822062434522
 30
0.0
 11
283.3963261247647
 21
227.9313784198061
 31
0.0
  0
LINE
  5
37B
330
1E
100
AcDbEntity
  8
STEMPEL
100
AcDbLine
 10
280.8963261247647
 20
190.5162961138901
 30
0.0
 11
280.8963261247647
 21
227.5972885493683
 31
0.0
  0
LINE
  5
37C
330
1E
100
AcDbEntity
  8
VERDECKT
100
AcDbLine
 10
143.3963261247647
 20
190.1822062434523
 30
0.0
 11
143.3963261247647
 21
227.9313784198061
 31
0.0
  0
LINE
  5
37D
330
1E
100
AcDbEntity
  8
STEMPEL
100
AcDbLine
 10
145.8963261247647
 20
190.51629611389
 30
0.0
 11
145.8963261247647
 21
227.5972885493683
 31
0.0
  0
LINE
  5
37E
330
1E
100
AcDbEntity
  8
STEMPEL
100
AcDbLine
 10
233.1237924202957
 20
247.2644757678007
 30
0.0
 11
246.6329470288062
 21
270.6630179170441
 31
0.0
  0
LINE
  5
37F
330
1E
100
AcDbEntity
  8
STEMPEL
100
AcDbLine
 10
235.7399980167024
 20
245.7958767838231
 30
0.0
 11
249.2421551332874
 21
269.1822989215262
 31
0.0
  0
LINE
  5
380
330
1E
100
AcDbEntity
  8
STEMPEL
100
AcDbLine
 10
246.6329470288062
 20
270.6630179170441
 30
0.0
 11
249.2421551332874
 21
269.1822989215262
 31
0.0
  0
LINE
  5
381
330
1E
100
AcDbEntity
  8
STEMPEL
100
AcDbLine
 10
243.1313277294966
 20
264.5980353818761
 30
0.0
 11
245.7417734574983
 21
263.119460013176
 31
0.0
  0
LINE
  5
382
330
1E
100
AcDbEntity
  8
STEMPEL
100
AcDbLine
 10
233.1237924202957
 20
247.2644757678007
 30
0.0
 11
235.7399980167024
 21
245.7958767838231
 31
0.0
  0
ARC
  5
383
330
1E
100
AcDbEntity
  8
STEMPEL
100
AcDbCircle
 10
213.3963261247647
 20
209.0567923316292
 30
0.0
 40
49.0
100
AcDbArc
 50
62.36190367810073
 51
297.6380963219011
  0
LINE
  5
384
330
1E
100
AcDbEntity
  8
STEMPEL
100
AcDbLine
 10
236.1266996979726
 20
252.4656637431554
 30
0.0
 11
238.7406828740513
 21
250.9932154142538
 31
0.0
  0
LINE
  5
385
330
1E
100
AcDbEntity
  8
STEMPEL
100
AcDbLine
 10
249.2421551332874
 20
636.1556906693488
 30
0.0
 11
249.2421551332874
 21
639.1556906693486
 31
0.0
  0
LINE
  5
386
330
1E
100
AcDbEntity
  8
STEMPEL
100
AcDbLine
 10
235.7399980167024
 20
641.1556906693487
 30
0.0
 11
235.7399980167024
 21
648.1556906693486
 31
0.0
  0
LINE
  5
387
330
1E
100
AcDbEntity
  8
STEMPEL
100
AcDbLine
 10
243.1313277294966
 20
636.1556906693486
 30
0.0
 11
249.2421551332874
 21
636.1556906693488
 31
0.0
  0
LINE
  5
388
330
1E
100
AcDbEntity
  8
STEMPEL
100
AcDbLine
 10
233.1237924202957
 20
648.1556906693486
 30
0.0
 11
238.7406828740511
 21
648.1556906693486
 31
0.0
  0
LINE
  5
389
330
1E
100
AcDbEntity
  8
STEMPEL
100
AcDbLine
 10
233.1237924202957
 20
641.1556906693487
 30
0.0
 11
238.7406828740511
 21
641.1556906693487
 31
0.0
  0
LINE
  5
38A
330
1E
100
AcDbEntity
  8
STEMPEL
100
AcDbLine
 10
245.7417734574983
 20
653.1556906693487
 30
0.0
 11
238.7406828740511
 21
648.1556906693486
 31
0.0
  0
LINE
  5
38B
330
1E
100
AcDbEntity
  8
STEMPEL
100
AcDbLine
 10
238.7406828740511
 20
641.1556906693487
 30
0.0
 11
245.7417734574983
 21
636.1556906693486
 31
0.0
  0
LINE
  5
38C
330
1E
100
AcDbEntity
  8
VERDECKT
100
AcDbLine
 10
245.6314127307971
 20
268.9283096273696
 30
0.0
 11
248.2418584587987
 21
267.4497342586695
 31
0.0
  0
LINE
  5
38D
330
1E
100
AcDbEntity
  8
STEMPEL
100
AcDbLine
 10
248.2418584587987
 20
639.1556906693486
 30
0.0
 11
248.2418584587987
 21
650.1556906693487
 31
0.0
  0
LINE
  5
38E
330
1E
100
AcDbEntity
  8
STEMPEL
100
AcDbLine
 10
248.2418584587987
 20
650.1556906693487
 30
0.0
 11
249.2421551332874
 21
650.1556906693488
 31
0.0
  0
LINE
  5
38F
330
1E
100
AcDbEntity
  8
STEMPEL
100
AcDbLine
 10
248.2418584587987
 20
639.1556906693486
 30
0.0
 11
249.2421551332874
 21
639.1556906693486
 31
0.0
  0
LINE
  5
390
330
1E
100
AcDbEntity
  8
STEMPEL
100
AcDbLine
 10
249.2421551332874
 20
650.1556906693488
 30
0.0
 11
249.2421551332874
 21
653.1556906693488
 31
0.0
  0
LINE
  5
391
330
1E
100
AcDbEntity
  8
STEMPEL
100
AcDbLine
 10
233.1237924202957
 20
641.1556906693487
 30
0.0
 11
233.1237924202957
 21
648.1556906693486
 31
0.0
  0
LINE
  5
392
330
1E
100
AcDbEntity
  8
STEMPEL
100
AcDbLine
 10
236.1266996979732
 20
648.1556906693486
 30
0.0
 11
243.1313277294966
 21
653.1556906693487
 31
0.0
  0
LINE
  5
393
330
1E
100
AcDbEntity
  8
STEMPEL
100
AcDbLine
 10
236.1266996979732
 20
641.1556906693487
 30
0.0
 11
243.1313277294966
 21
636.1556906693486
 31
0.0
  0
LINE
  5
394
330
1E
100
AcDbEntity
  8
HILF
100
AcDbLine
 10
194.8464799082541
 20
646.1556906693488
 30
0.0
 11
194.8464799082541
 21
653.1556906693487
 31
0.0
  0
LINE
  5
395
330
1E
100
AcDbEntity
  8
HILF
100
AcDbLine
 10
231.9461723412753
 20
646.1556906693488
 30
0.0
 11
231.9461723412753
 21
653.1556906693487
 31
0.0
  0
LINE
  5
396
330
1E
100
AcDbEntity
  8
STEMPEL
100
AcDbLine
 10
194.8464799082541
 20
653.1556906693487
 30
0.0
 11
231.9461723412753
 21
653.1556906693488
 31
0.0
  0
LINE
  5
397
330
1E
100
AcDbEntity
  8
STEMPEL
100
AcDbLine
 10
194.8464799082541
 20
646.1556906693488
 30
0.0
 11
231.9461723412753
 21
646.1556906693488
 31
0.0
  0
LINE
  5
398
102
{ACAD_REACTORS
330
9FB
102
}
330
1E
100
AcDbEntity
  8
STEMPEL
100
AcDbLine
 10
280.8963261247647
 20
653.1556906693487
 30
0.0
 11
285.8963261247647
 21
653.1556906693487
 31
0.0
  0
LINE
  5
399
102
{ACAD_REACTORS
330
8D9
330
9FB
102
}
330
1E
100
AcDbEntity
  8
STEMPEL
100
AcDbLine
 10
280.8963261247647
 20
646.1556906693487
 30
0.0
 11
285.8963261247647
 21
646.1556906693487
 31
0.0
  0
LINE
  5
39A
330
1E
100
AcDbEntity
  8
STEMPEL
100
AcDbLine
 10
243.1313277294966
 20
653.1556906693488
 30
0.0
 11
249.2421551332874
 21
653.1556906693488
 31
0.0
  0
LINE
  5
39B
330
1E
100
AcDbEntity
  8
MITTEL
100
AcDbLine
 10
213.3963261247647
 20
670.9503518559127
 30
0.0
 11
213.3963261247647
 21
408.1556906693487
 31
0.0
  0
POINT
  5
39F
330
1E
100
AcDbEntity
  8
DEFPOINTS
  6
ByBlock
 62
     0
100
AcDbPoint
 10
233.1237924202957
 20
247.2644757678007
 30
0.0
  0
POINT
  5
3A0
330
1E
100
AcDbEntity
  8
DEFPOINTS
  6
ByBlock
 62
     0
100
AcDbPoint
 10
246.6329470288062
 20
270.6630179170441
 30
0.0
  0
ARC
  5
3A7
330
1E
100
AcDbEntity
  8
SCHRAFF
100
AcDbCircle
 10
156.6026634914657
 20
591.5064285104707
 30
0.0
 40
3.320469343858686
100
AcDbArc
 50
152.7628168478452
 51
264.9835999649169
  0
ARC
  5
3A8
330
1E
100
AcDbEntity
  8
SCHRAFF
100
AcDbCircle
 10
270.1531767646928
 20
591.4587157375405
 30
0.0
 40
3.482623823412241
100
AcDbArc
 50
274.157071527326
 51
28.941142137709
  0
POINT
  5
3A9
330
1E
100
AcDbEntity
  8
DEFPOINTS
  6
ByBlock
 62
     0
100
AcDbPoint
 10
143.3963261247647
 20
663.1556906693488
 30
0.0
  0
POINT
  5
3AA
330
1E
100
AcDbEntity
  8
DEFPOINTS
  6
ByBlock
 62
     0
100
AcDbPoint
 10
283.3963261247647
 20
663.1556906693487
 30
0.0
  0
DIMENSION
  5
3AD
330
1E
100
AcDbEntity
  8
BEM
100
AcDbDimension
  2
*D1
 10
73.79692959249291
 20
661.1556906693488
 30
0.0
 11
66.79692959249291
 21
677.1123573360155
 31
0.0
 12
-26.279841957359
 22
0.0
 32
0.0
 71
     5
 42
-1.0
100
AcDbAlignedDimension
 13
90.89632612476469
 23
659.1556906693488
 33
0.0
 14
90.89632612476469
 24
661.1556906693488
 34
0.0
 50
90.0
100
AcDbRotatedDimension
  0
DIMENSION
  5
3AE
330
1E
100
AcDbEntity
  8
BEM
100
AcDbDimension
  2
*D4
 10
355.8963261247648
 20
661.1556906693488
 30
0.0
 11
349.3963261247647
 21
642.2890240026823
 31
0.0
 70
    32
 71
     5
 42
1.999999999999886
  3
Standard
100
AcDbAlignedDimension
 13
285.8963261247647
 23
663.1556906693487
 33
0.0
 14
335.8963261247648
 24
661.1556906693488
 34
0.0
 50
90.0
100
AcDbRotatedDimension
1001
ACAD
1000
DSTYLE
1002
{
1070
    40
1040
2.0
1070
    41
1040
3.5
1070
    42
1040
1.0
1070
    43
1040
7.0
1070
    44
1040
1.0
1070
    47
1040
5.0
1070
    48
1040
5.0
1070
    73
1070
     0
1070
    74
1070
     0
1070
    77
1070
     1
1070
    78
1070
     8
1070
    79
1070
     2
1070
   140
1040
3.5
1070
   141
1040
1.5
1070
   145
1040
0.2857142857142857
1070
   146
1040
0.5142857142857144
1070
   147
1040
1.5
1070
   172
1070
     1
1070
   178
1070
     1
1070
   179
1070
     2
1070
   271
1070
     2
1070
   272
1070
     2
1070
   284
1070
     8
1070
   285
1070
     8
1070
   286
1070
     8
1002
}
  0
POINT
  5
3B5
330
1E
100
AcDbEntity
  8
DEFPOINTS
  6
ByBlock
 62
     0
100
AcDbPoint
 10
285.8963261247647
 20
663.1556906693487
 30
0.0
  0
DIMENSION
  5
3BA
330
1E
100
AcDbEntity
  8
BEM
100
AcDbDimension
  2
*D2
 10
375.851530006599
 20
413.1556906693487
 30
0.0
 11
369.351530006599
 21
538.1556906693488
 31
0.0
 70
    32
 71
     5
 42
250.0
  3
Standard
100
AcDbAlignedDimension
 13
285.8963261247647
 23
663.1556906693487
 33
0.0
 14
263.5214394895054
 24
413.1556906693487
 34
0.0
 50
90.0
100
AcDbRotatedDimension
1001
ACAD
1000
DSTYLE
1002
{
1070
    40
1040
2.0
1070
    41
1040
3.5
1070
    42
1040
1.0
1070
    43
1040
7.0
1070
    44
1040
1.0
1070
    47
1040
5.0
1070
    48
1040
5.0
1070
    73
1070
     0
1070
    74
1070
     0
1070
    77
1070
     1
1070
    78
1070
     8
1070
    79
1070
     2
1070
   140
1040
3.5
1070
   141
1040
1.5
1070
   145
1040
0.2857142857142857
1070
   146
1040
0.5142857142857144
1070
   147
1040
1.5
1070
   172
1070
     1
1070
   178
1070
     1
1070
   179
1070
     2
1070
   271
1070
     2
1070
   272
1070
     2
1070
   284
1070
     8
1070
   285
1070
     8
1070
   286
1070
     8
1002
}
  0
LINE
  5
3BB
102
{ACAD_REACTORS
330
9FB
102
}
330
1E
100
AcDbEntity
  8
STEMPEL
100
AcDbLine
 10
282.0493805021518
 20
616.5580098257382
 30
0.0
 11
269.3963261247647
 21
591.1556906693487
 31
0.0
  0
LINE
  5
3BC
102
{ACAD_REACTORS
330
9FB
102
}
330
1E
100
AcDbEntity
  8
STEMPEL
100
AcDbLine
 10
284.2687668307742
 20
615.4072169146005
 30
0.0
 11
272.2124198887916
 21
591.1556906693487
 31
0.0
  0
LINE
  5
3BD
102
{ACAD_REACTORS
330
9FB
102
}
330
1E
100
AcDbEntity
  8
STEMPEL
100
AcDbLine
 10
144.7432717473775
 20
616.5580098257385
 30
0.0
 11
157.3963261247647
 21
591.1556906693488
 31
0.0
  0
LINE
  5
3BE
102
{ACAD_REACTORS
330
9FB
102
}
330
1E
100
AcDbEntity
  8
STEMPEL
100
AcDbLine
 10
142.523885418755
 20
615.4072169146009
 30
0.0
 11
154.5802323607377
 21
591.1556906693488
 31
0.0
  0
DIMENSION
  5
3C3
330
1E
100
AcDbEntity
  8
BEM
100
AcDbDimension
  2
*D5
 10
335.8963261247648
 20
696.1120420450018
 30
0.0
 11
213.3963261247648
 21
702.6120420450017
 31
0.0
 70
    32
  1
%%c<>
 71
     5
 42
245.0000000000001
  3
Standard
100
AcDbAlignedDimension
 13
90.89632612476469
 23
661.1556906693488
 33
0.0
 14
335.8963261247648
 24
661.1556906693488
 34
0.0
100
AcDbRotatedDimension
1001
ACAD
1000
DSTYLE
1002
{
1070
    40
1040
2.0
1070
    41
1040
3.5
1070
    42
1040
1.0
1070
    43
1040
7.0
1070
    44
1040
1.0
1070
    47
1040
5.0
1070
    48
1040
5.0
1070
    73
1070
     0
1070
    74
1070
     0
1070
    77
1070
     1
1070
    78
1070
     8
1070
    79
1070
     2
1070
   140
1040
3.5
1070
   141
1040
1.5
1070
   145
1040
0.2857142857142857
1070
   146
1040
0.5142857142857144
1070
   147
1040
1.5
1070
   172
1070
     1
1070
   178
1070
     1
1070
   179
1070
     2
1070
   271
1070
     2
1070
   272
1070
     2
1070
   284
1070
     8
1070
   285
1070
     8
1070
   286
1070
     8
1002
}
  0
ARC
  5
8C0
102
{ACAD_REACTORS
330
8D9
102
}
330
1E
100
AcDbEntity
  8
SCHRAFF
100
AcDbCircle
 10
145.7145459767445
 20
650.9829786101406
 30
0.0
 40
6.820406982382157
100
AcDbArc
 50
178.5489531653984
 51
225.0538658073053
  0
ARC
  5
8C1
102
{ACAD_REACTORS
330
8D9
102
}
330
1E
100
AcDbEntity
  8
SCHRAFF
100
AcDbCircle
 10
280.8707884423188
 20
651.0659057423273
 30
0.0
 40
7.026111375475567
100
AcDbArc
 50
315.6649926053936
 51
0.7321884219015207
  0
HATCH
  5
8D9
330
1E
100
AcDbEntity
  8
SCHRAFF
100
AcDbHatch
 10
0.0
 20
0.0
 30
0.0
210
0.0
220
0.0
230
1.0
  2
_USER
 70
     0
 71
     1
 91
        2
 92
        7
 72
     1
 73
     1
 93
        5
 10
283.3963261247647
 20
647.1556906693487
 42
0.0
 10
283.3963261247647
 20
646.1556906693486
 42
0.0
 10
285.8963261247647
 20
646.1556906693487
 42
0.1992171828987897
 10
287.8963261247647
 20
651.1556906693487
 42
0.0
 10
283.3963261247646
 20
651.1556906693487
 42
0.0
 97
        5
330
35E
330
36D
330
367
330
399
330
8C1
 92
        7
 72
     1
 73
     1
 93
        5
 10
143.3963261247647
 20
651.1556906693489
 42
0.0
 10
138.8963261247647
 20
651.1556906693489
 42
0.2057476214052506
 10
140.8963261247647
 20
646.1556906693487
 42
0.0
 10
143.3963261247647
 20
646.1556906693488
 42
0.0
 10
143.3963261247647
 20
647.1556906693487
 42
0.0
 97
        5
330
361
330
8C0
330
358
330
369
330
36C
 75
     0
 76
     0
 52
0.0
 41
0.1
 77
     0
 78
     1
 53
0.0
 43
0.0
 44
0.0
 45
0.0
 46
0.1
 79
     0
 47
0.2523273349368666
 98
        2
 10
284.8626771534737
 20
648.3197217964889
 10
141.9392662945106
 20
648.5720489633454
  0
ARC
  5
8DA
102
{ACAD_REACTORS
330
9FB
102
}
330
1E
100
AcDbEntity
  8
STEMPEL
100
AcDbCircle
 10
155.3963261247647
 20
622.0818157991986
 30
0.0
 40
12.0
100
AcDbArc
 50
180.0
 51
207.4075754378185
  0
ARC
  5
8DB
102
{ACAD_REACTORS
330
9FB
102
}
330
1E
100
AcDbEntity
  8
STEMPEL
100
AcDbCircle
 10
271.3963261247646
 20
622.0818157991981
 30
0.0
 40
12.0
100
AcDbArc
 50
332.5924245621816
 51
0.0
  0
ARC
  5
8DD
102
{ACAD_REACTORS
330
9FB
102
}
330
1E
100
AcDbEntity
  8
STEMPEL
100
AcDbCircle
 10
155.3963261247647
 20
622.0818157991986
 30
0.0
 40
14.5
100
AcDbArc
 50
180.0
 51
207.4075754378185
  0
ARC
  5
8DF
102
{ACAD_REACTORS
330
9FB
102
}
330
1E
100
AcDbEntity
  8
STEMPEL
100
AcDbCircle
 10
271.3963261247646
 20
622.0818157991981
 30
0.0
 40
14.5
100
AcDbArc
 50
332.5924245621816
 51
0.0
  0
TEXT
  5
94C
330
1E
100
AcDbEntity
  8
TEXT
100
AcDbText
 10
507.8223824587625
 20
614.3582756096868
 30
0.0
 40
4.0
  1
DIN EN 1123-2
 50
90.0
 41
0.7
  7
GREEKS
100
AcDbText
  0
LINE
  5
98C
330
1E
100
AcDbEntity
  8
STEMPEL
100
AcDbLine
 10
264.3963261247647
 20
571.8157992120868
 30
0.0
 11
264.3963261247647
 21
425.1556906693487
 31
0.0
  0
LINE
  5
98D
330
1E
100
AcDbEntity
  8
STEMPEL
100
AcDbLine
 10
262.3963261247647
 20
572.1556906693487
 30
0.0
 11
262.3963261247647
 21
425.1556906693487
 31
0.0
  0
LINE
  5
98E
330
1E
100
AcDbEntity
  8
STEMPEL
100
AcDbLine
 10
262.3963261247647
 20
425.1556906693487
 30
0.0
 11
261.3464621624536
 21
413.1556906693486
 31
0.0
  0
LINE
  5
98F
330
1E
100
AcDbEntity
  8
STEMPEL
100
AcDbLine
 10
264.3887155209482
 20
424.9813791838533
 30
0.0
 11
263.3541018375403
 21
413.1556906693488
 31
0.0
  0
LINE
  5
992
330
1E
100
AcDbEntity
  8
STEMPEL
100
AcDbLine
 10
162.4039367285812
 20
424.9813791838533
 30
0.0
 11
163.438550411989
 21
413.1556906693487
 31
0.0
  0
LINE
  5
993
330
1E
100
AcDbEntity
  8
STEMPEL
100
AcDbLine
 10
164.3963261247647
 20
425.1556906693487
 30
0.0
 11
165.4461900870758
 21
413.1556906693486
 31
0.0
  0
LINE
  5
994
330
1E
100
AcDbEntity
  8
STEMPEL
100
AcDbLine
 10
164.3963261247646
 20
572.1556906693489
 30
0.0
 11
164.3963261247647
 21
425.1556906693487
 31
0.0
  0
LINE
  5
995
330
1E
100
AcDbEntity
  8
STEMPEL
100
AcDbLine
 10
162.3963261247647
 20
571.8157992120866
 30
0.0
 11
162.3963261247647
 21
425.1556906693487
 31
0.0
  0
HATCH
  5
9FB
330
1E
100
AcDbEntity
  8
SCHRAFF
100
AcDbHatch
 10
0.0
 20
0.0
 30
0.0
210
0.0
220
0.0
230
1.0
  2
_USER
 70
     0
 71
     1
 91
        6
 92
        7
 72
     0
 73
     1
 93
        5
 10
283.3963261247647
 20
654.1556906693487
 10
283.3963261247647
 20
653.1556906693487
 10
285.8963261247647
 20
653.1556906693487
 10
285.8963261247647
 20
663.1556906693487
 10
283.3963261247647
 20
663.1556906693487
 97
        5
330
33C
330
366
330
36D
330
398
330
33F
 92
        7
 72
     0
 73
     1
 93
        5
 10
283.3963261247646
 20
653.1556906693485
 10
280.8963261247647
 20
653.1556906693487
 10
280.8963261247647
 20
646.1556906693487
 10
283.3963261247647
 20
646.1556906693486
 10
283.3963261247647
 20
647.1556906693487
 97
        5
330
398
330
36A
330
399
330
367
330
36D
 92
        7
 72
     1
 73
     1
 93
        8
 10
283.3963261247646
 20
622.0818157991981
 42
-0.1201614771304715
 10
282.0493805021523
 20
616.5580098257391
 42
0.0
 10
269.3963261247646
 20
591.1556906693485
 42
0.0
 10
272.2124198887915
 20
591.1556906693485
 42
0.0
 10
284.2687668307742
 20
615.4072169146005
 42
0.1201614771304978
 10
285.8963261247647
 20
622.0818157991981
 42
0.0
 10
285.8963261247647
 20
646.1556906693486
 42
0.0
 10
283.3963261247647
 20
646.1556906693484
 42
0.0
 97
        8
330
399
330
367
330
8DB
330
3BB
330
340
330
3BC
330
8DF
330
35C
 92
        7
 72
     1
 73
     1
 93
        8
 10
140.8963261247647
 20
622.0818157991986
 42
0.1201614771302432
 10
142.5238854187486
 20
615.4072169146139
 42
0.0
 10
154.5802323607378
 20
591.1556906693487
 42
0.0
 10
157.3963261247648
 20
591.1556906693487
 42
0.0
 10
144.7432717473775
 20
616.5580098257385
 42
-0.1201614771304962
 10
143.3963261247647
 20
622.0818157991986
 42
0.0
 10
143.3963261247647
 20
646.1556906693488
 42
0.0
 10
140.8963261247647
 20
646.1556906693486
 42
0.0
 97
        8
330
358
330
35B
330
8DD
330
3BE
330
340
330
3BD
330
8DA
330
369
 92
        7
 72
     0
 73
     1
 93
        5
 10
145.8963261247647
 20
653.1556906693487
 10
143.3963261247646
 20
653.1556906693487
 10
143.3963261247647
 20
647.1556906693487
 10
143.3963261247647
 20
646.1556906693488
 10
145.8963261247646
 20
646.1556906693489
 97
        5
330
357
330
36C
330
369
330
358
330
36B
 92
        7
 72
     0
 73
     1
 93
        5
 10
143.3963261247647
 20
663.1556906693488
 10
140.8963261247647
 20
663.1556906693487
 10
140.8963261247647
 20
653.1556906693488
 10
143.3963261247646
 20
653.1556906693488
 10
143.3963261247647
 20
654.1556906693488
 97
        5
330
33C
330
33E
330
357
330
36C
330
368
 75
     0
 76
     0
 52
135.0
 41
2.0
 77
     0
 78
     1
 53
135.0
 43
0.0
 44
0.0
 45
-1.414213562373095
 46
-1.414213562373094
 79
     0
 47
0.5942428683384388
 98
        6
 10
284.6295712602346
 20
658.3328938196155
 10
282.2508303895693
 20
651.2019802053195
 10
284.6295712602346
 20
638.1286369297686
 10
141.9052873276387
 20
636.3459070417875
 10
145.4733948084704
 20
649.4192503173381
 10
143.0946577629711
 20
657.7386518430948
  0
DIMENSION
  5
A26
330
1E
100
AcDbEntity
  8
BEM
100
AcDbDimension
  2
*D3
 10
264.3963261247647
 20
390.9236006265537
 30
0.0
 11
213.3963261247647
 21
397.4236006265537
 31
0.0
 70
    32
  1
%%c<>
 71
     5
 42
102.0
  3
Standard
100
AcDbAlignedDimension
 13
162.3963261247647
 23
425.1556906693487
 33
0.0
 14
264.3963261247647
 24
425.1556906693487
 34
0.0
100
AcDbRotatedDimension
1001
ACAD
1000
DSTYLE
1002
{
1070
    40
1040
2.0
1070
    41
1040
3.5
1070
    42
1040
1.0
1070
    43
1040
7.0
1070
    44
1040
1.0
1070
    47
1040
5.0
1070
    48
1040
5.0
1070
    73
1070
     0
1070
    74
1070
     0
1070
    77
1070
     1
1070
    78
1070
     8
1070
    79
1070
     2
1070
   140
1040
3.5
1070
   141
1040
1.5
1070
   145
1040
0.2857142857142857
1070
   146
1040
0.5142857142857144
1070
   147
1040
1.5
1070
   172
1070
     1
1070
   178
1070
     1
1070
   179
1070
     2
1070
   271
1070
     2
1070
   272
1070
     2
1070
   284
1070
     8
1070
   285
1070
     8
1070
   286
1070
     8
1002
}
  0
HATCH
  5
AF3
330
1E
100
AcDbEntity
  8
SCHRAFF
100
AcDbHatch
 10
0.0
 20
0.0
 30
0.0
210
0.0
220
0.0
230
1.0
  2
_USER
 70
     0
 71
     0
 91
        4
 92
        7
 72
     0
 73
     1
 93
        6
 10
264.3963261247647
 20
571.8157992120868
 10
271.5152881348064
 20
591.1556906693485
 10
269.3963261247648
 20
591.1556906693487
 10
262.3963261247647
 20
572.1556906693487
 10
262.3963261247647
 20
543.1556906693487
 10
264.3963261247647
 20
543.1556906693489
 97
        0
 92
        7
 72
     0
 73
     1
 93
        6
 10
264.3963261247647
 20
543.1556906693487
 10
262.3963261247646
 20
543.1556906693487
 10
262.3963261247647
 20
425.1556906693487
 10
261.3464621624536
 20
413.1556906693487
 10
263.3541018375403
 20
413.1556906693488
 10
264.3963261247647
 20
425.0683687835314
 97
        0
 92
        7
 72
     0
 73
     1
 93
        6
 10
164.3963261247646
 20
572.1556906693489
 10
157.3963261247647
 20
591.1556906693488
 10
155.2773641147229
 20
591.1556906693488
 10
162.3963261247647
 20
571.8157992120864
 10
162.3963261247647
 20
543.1556906693486
 10
164.3963261247646
 20
543.1556906693486
 97
        0
 92
        7
 72
     0
 73
     1
 93
        6
 10
164.3963261247646
 20
543.1556906693486
 10
162.3963261247647
 20
543.1556906693485
 10
162.3963261247647
 20
425.0683687835316
 10
163.438550411989
 20
413.1556906693487
 10
165.4461900870758
 20
413.1556906693488
 10
164.3963261247647
 20
425.1556906693489
 97
        0
 75
     0
 76
     0
 52
45.0
 41
2.0
 77
     0
 78
     1
 53
45.0
 43
0.0
 44
0.0
 45
-1.414213562373094
 46
1.414213562373095
 79
     0
 47
0.5578600163179888
 98
        4
 10
263.2652359806621
 20
558.179944077628
 10
263.2652359806621
 20
535.865544950293
 10
163.3340810554591
 20
549.2541844266939
 10
163.3340810554591
 20
515.782582767058
  0
TEXT
  5
B4A
330
1E
100
AcDbEntity
  8
TEXT
 62
     1
100
AcDbText
 10
445.9473217175687
 20
617.5924529085349
 30
0.0
 40
7.0
  1
Werkstoff: E195 EN10305, St37 feuerverzinkt
 50
90.0
 41
0.8
  7
GREEKS
100
AcDbText
  0
TEXT
  5
B4B
330
1E
100
AcDbEntity
  8
TEXT
 62
     1
100
AcDbText
 10
456.1490607398807
 20
666.059102624159
 30
0.0
 40
7.0
  1
und innenbeschichtet
 50
90.0
 41
0.8
  7
GREEKS
100
AcDbText
  0
TEXT
  5
C55
330
1E
100
AcDbEntity
  8
TEXT
 62
     1
100
AcDbText
 10
208.0057204024663
 20
460.0907142257796
 30
0.0
 40
7.0
  1
DN100
 50
90.0
 41
0.8
  7
GREEKS
100
AcDbText
  0
TEXT
  5
D44
330
1E
100
AcDbEntity
  8
TEXT
100
AcDbText
 10
559.0
 20
503.9999999999999
 30
0.0
 40
4.0
  1

 50
90.0
 41
0.7
  7
GREEKS
 72
     4
 11
559.0
 21
503.9999999999999
 31
0.0
100
AcDbText
  0
HATCH
  5
D56
330
1E
100
AcDbEntity
  8
SCHRAFF
100
AcDbHatch
 10
0.0
 20
0.0
 30
0.0
210
0.0
220
0.0
230
1.0
  2
_USER
 70
     0
 71
     0
 91
        2
 92
        7
 72
     1
 73
     1
 93
        4
 10
155.2773641147229
 20
591.1556906693488
 42
0.0
 10
154.5802323607377
 20
591.1556906693489
 42
0.0
 10
153.6503693029398
 20
593.0261244300222
 42
0.5383037449716133
 10
156.3674436647852
 20
588.1943010526814
 42
0.0
 97
        0
 92
        7
 72
     1
 73
     1
 93
        4
 10
273.2008810272016
 20
593.1439953652832
 42
0.0
 10
272.2124198887916
 20
591.1556906693487
 42
0.0
 10
271.5152881348064
 20
591.1556906693485
 42
0.0
 10
270.346870627211
 20
587.9814824432359
 42
0.5529002365186343
 97
        0
 75
     0
 76
     0
 52
0.0
 41
0.1
 77
     0
 78
     1
 53
0.0
 43
0.0
 44
0.0
 45
0.0
 46
0.1
 79
     0
 47
0.1908733208340474
 98
        2
 10
155.1139642227463
 20
590.0191962022811
 10
272.013786258171
 20
589.8283218780268
  0
HATCH
  5
E44
330
1E
100
AcDbEntity
  8
SCHRAFF
100
AcDbHatch
 10
0.0
 20
0.0
 30
0.0
210
0.0
220
0.0
230
1.0
  2
_USER
 70
     0
 71
     1
 91
        2
 92
        7
 72
     1
 73
     1
 93
        8
 10
335.8963261247648
 20
659.1556906693488
 42
0.0
 10
335.8963261247648
 20
661.1556906693488
 42
0.0
 10
293.8963261247647
 20
661.1556906693488
 42
0.4142135623730951
 10
285.8963261247647
 20
653.1556906693488
 42
0.0
 10
285.8963261247646
 20
651.1556906693487
 42
0.0
 10
287.8963261247647
 20
651.1556906693487
 42
0.0
 10
287.8963261247647
 20
653.1556906693487
 42
-0.4142135623730951
 10
293.8963261247647
 20
659.1556906693487
 42
0.0
 97
        8
330
356
330
360
330
33F
330
35E
330
35D
330
35F
330
355
330
352
 92
        7
 72
     1
 73
     1
 93
        8
 10
132.8963261247647
 20
659.1556906693488
 42
-0.4142135623730951
 10
138.8963261247647
 20
653.1556906693488
 42
0.0
 10
138.8963261247647
 20
651.1556906693489
 42
0.0
 10
140.8963261247647
 20
651.1556906693487
 42
0.0
 10
140.8963261247647
 20
653.1556906693488
 42
0.4142135623730951
 10
132.8963261247647
 20
661.1556906693488
 42
0.0
 10
90.89632612476469
 20
661.1556906693488
 42
0.0
 10
90.89632612476469
 20
659.1556906693488
 42
0.0
 97
        8
330
353
330
351
330
354
330
363
330
362
330
361
330
33E
330
364
 75
     0
 76
     0
 52
45.0
 41
2.0
 77
     0
 78
     1
 53
45.0
 43
0.0
 44
0.0
 45
-1.414213562373094
 46
1.414213562373095
 79
     0
 47
0.3133655590192834
 98
        2
 10
308.8940381333336
 20
659.812537949125
 10
128.9183618493371
 20
659.812537949125
  0
POINT
  5
EAC
330
1E
100
AcDbEntity
  8
DEFPOINTS
  6
ByBlock
 62
     0
100
AcDbPoint
 10
246.6329470288062
 20
147.4505667462143
 30
0.0
  0
POINT
  5
EAD
330
1E
100
AcDbEntity
  8
DEFPOINTS
  6
ByBlock
 62
     0
100
AcDbPoint
 10
233.1237924202957
 20
170.8491088954577
 30
0.0
  0
LINE
  5
EAE
330
1E
100
AcDbEntity
  8
VERDECKT
100
AcDbLine
 10
245.6314127307971
 20
149.1852750358888
 30
0.0
 11
248.2418584587987
 21
150.6638504045889
 31
0.0
  0
LINE
  5
EAF
330
1E
100
AcDbEntity
  8
STEMPEL
100
AcDbLine
 10
236.1266996979726
 20
165.647920920103
 30
0.0
 11
238.7406828740513
 21
167.1203692490045
 31
0.0
  0
LINE
  5
EB0
330
1E
100
AcDbEntity
  8
STEMPEL
100
AcDbLine
 10
233.1237924202957
 20
170.8491088954577
 30
0.0
 11
235.7399980167024
 21
172.3177078794353
 31
0.0
  0
LINE
  5
EB1
330
1E
100
AcDbEntity
  8
STEMPEL
100
AcDbLine
 10
243.1313277294966
 20
153.5155492813823
 30
0.0
 11
245.7417734574983
 21
154.9941246500823
 31
0.0
  0
LINE
  5
EB2
330
1E
100
AcDbEntity
  8
STEMPEL
100
AcDbLine
 10
246.6329470288062
 20
147.4505667462143
 30
0.0
 11
249.2421551332874
 21
148.9312857417322
 31
0.0
  0
LINE
  5
EB3
330
1E
100
AcDbEntity
  8
STEMPEL
100
AcDbLine
 10
235.7399980167024
 20
172.3177078794353
 30
0.0
 11
249.2421551332874
 21
148.9312857417322
 31
0.0
  0
LINE
  5
EB4
330
1E
100
AcDbEntity
  8
STEMPEL
100
AcDbLine
 10
233.1237924202957
 20
170.8491088954577
 30
0.0
 11
246.6329470288062
 21
147.4505667462143
 31
0.0
  0
LINE
  5
EB5
330
1E
100
AcDbEntity
  8
STEMPEL
100
AcDbLine
 10
194.8464799082541
 20
141.5593612298176
 30
0.0
 11
231.9461723412753
 21
141.5593612298176
 31
0.0
  0
LINE
  5
EB6
330
1E
100
AcDbEntity
  8
VERDECKT
100
AcDbLine
 10
194.5122153660572
 20
139.0593612298175
 30
0.0
 11
232.2804368834723
 21
139.0593612298175
 31
0.0
  0
CIRCLE
  5
EB7
330
1E
100
AcDbEntity
  8
STEMPEL
100
AcDbCircle
 10
213.3963261247647
 20
209.0567923316292
 30
0.0
 40
122.5
  0
CIRCLE
  5
EB9
330
1E
100
AcDbEntity
  8
STEMPEL
100
AcDbCircle
 10
213.3963261247647
 20
209.0567923316292
 30
0.0
 40
70.0
  0
CIRCLE
  5
EBA
330
1E
100
AcDbEntity
  8
STEMPEL
100
AcDbCircle
 10
213.3963261247647
 20
209.0567923316292
 30
0.0
 40
72.5
  0
ENDSEC
  0
SECTION
  2
OBJECTS
  0
DICTIONARY
  5
C
330
0
100
AcDbDictionary
281
     1
  3
ACAD_COLOR
350
3D6
  3
ACAD_GROUP
350
D
  3
ACAD_LAYOUT
350
19
  3
ACAD_MATERIAL
350
3D5
  3
ACAD_MLINESTYLE
350
16
  3
ACAD_PLOTSETTINGS
350
18
  3
ACAD_PLOTSTYLENAME
350
E
  3
AcDbVariableDictionary
350
4C8
  3
AcmDictionary
350
432
  3
AMG
350
3DA
  3
AMGSNAPSETTINGS
350
471
  0
DICTIONARY
  5
4B1
330
1E
100
AcDbDictionary
280
     1
281
     1
  3
ACAD_INDEX
360
B56
  0
DICTIONARY
  5
3D6
102
{ACAD_REACTORS
330
C
102
}
330
C
100
AcDbDictionary
281
     1
  0
DICTIONARY
  5
D
102
{ACAD_REACTORS
330
C
102
}
330
C
100
AcDbDictionary
281
     1
  0
DICTIONARY
  5
19
102
{ACAD_REACTORS
330
C
102
}
330
C
100
AcDbDictionary
281
     1
  3
Layout1
350
1D
  3
Model
350
21
  0
DICTIONARY
  5
3D5
102
{ACAD_REACTORS
330
C
102
}
330
C
100
AcDbDictionary
281
     1
  0
DICTIONARY
  5
16
102
{ACAD_REACTORS
330
C
102
}
330
C
100
AcDbDictionary
281
     1
  3
Standard
350
17
  0
DICTIONARY
  5
18
102
{ACAD_REACTORS
330
C
102
}
330
C
100
AcDbDictionary
281
     1
  0
ACDBDICTIONARYWDFLT
  5
E
102
{ACAD_REACTORS
330
C
102
}
330
C
100
AcDbDictionary
281
     1
  3
Normal
350
F
100
AcDbDictionaryWithDefault
340
F
  0
DICTIONARY
  5
4C8
102
{ACAD_REACTORS
330
C
102
}
330
C
100
AcDbDictionary
281
     1
  3
DIMASSOC
350
4CA
  3
INDEXCTL
350
4C9
  3
PROJECTNAME
350
4CB
  0
DICTIONARY
  5
432
102
{ACAD_REACTORS
330
C
102
}
330
C
100
AcDbDictionary
281
     1
  3
AcmStdDictionary
350
43F
  0
DICTIONARY
  5
3DA
102
{ACAD_REACTORS
330
C
102
}
330
C
100
AcDbDictionary
281
     1
  0
DICTIONARY
  5
471
102
{ACAD_REACTORS
330
C
102
}
330
C
100
AcDbDictionary
281
     1
  0
DICTIONARY
  5
B56
102
{ACAD_REACTORS
330
4B1
102
}
330
4B1
100
AcDbDictionary
281
     1
  3
*A1
350
B57
  0
LAYOUT
  5
1D
102
{ACAD_REACTORS
330
19
102
}
330
19
100
AcDbPlotSettings
  1

  2
Tektronix Phaser 740
  4

  6

 40
0.0
 41
0.0
 42
0.0
 43
0.0
 44
0.0
 45
0.0
 46
0.0
 47
0.0
 48
0.0
 49
0.0
140
0.0
141
0.0
142
1.0
143
1.0
 70
   688
 72
     0
 73
     0
 74
     5
  7
monochrome1.ctb
 75
    16
147
1.0
 76
     0
 77
     2
 78
   300
148
0.0
149
0.0
100
AcDbLayout
  1
Layout1
 70
     0
 71
     1
 10
0.0
 20
0.0
 11
12.0
 21
9.0
 12
0.0
 22
0.0
 32
0.0
 14
1.000000000000000E+20
 24
1.000000000000000E+20
 34
1.000000000000000E+20
 15
-1.000000000000000E+20
 25
-1.000000000000000E+20
 35
-1.000000000000000E+20
146
0.0
 13
0.0
 23
0.0
 33
0.0
 16
1.0
 26
0.0
 36
0.0
 17
0.0
 27
1.0
 37
0.0
 76
     0
330
1A
  0
LAYOUT
  5
21
102
{ACAD_REACTORS
330
19
102
}
330
19
100
AcDbPlotSettings
  1

  2
RICOH Aficio 2027 PCL 6
  4
A4
  6

 40
5.027083396911621
 41
5.027085304260253
 42
5.027084350585937
 43
5.027069091796875
 44
209.9733276367187
 45
296.9259948730469
 46
0.0
 47
2.08
 48
0.0
 49
0.0
140
0.0
141
0.0
142
1.0
143
2.971200961074196
 70
 11956
 72
     1
 73
     0
 74
     2
  7
monochrome1.ctb
 75
     0
147
0.3365642422377461
 76
     0
 77
     2
 78
   300
148
0.0
149
0.0
100
AcDbLayout
  1
Model
 70
     1
 71
     0
 10
0.0
 20
0.0
 11
12.0
 21
9.0
 12
0.0
 22
0.0
 32
0.0
 14
0.0
 24
0.0
 34
0.0
 15
0.0
 25
0.0
 35
0.0
146
0.0
 13
0.0
 23
0.0
 33
0.0
 16
1.0
 26
0.0
 36
0.0
 17
0.0
 27
1.0
 37
0.0
 76
     0
330
1E
  0
MLINESTYLE
  5
17
102
{ACAD_REACTORS
330
16
102
}
330
16
100
AcDbMlineStyle
  2
STANDARD
 70
     0
  3

 62
   256
 51
90.0
 52
90.0
 71
     2
 49
0.5
 62
   256
  6
BYLAYER
 49
-0.5
 62
   256
  6
BYLAYER
  0
ACDBPLACEHOLDER
  5
F
102
{ACAD_REACTORS
330
E
102
}
330
E
  0
DICTIONARYVAR
  5
4CA
102
{ACAD_REACTORS
330
4C8
102
}
330
4C8
100
DictionaryVariables
280
     0
  1
1
  0
DICTIONARYVAR
  5
4C9
102
{ACAD_REACTORS
330
4C8
102
}
330
4C8
100
DictionaryVariables
280
     0
  1
1
  0
DICTIONARYVAR
  5
4CB
102
{ACAD_REACTORS
330
4C8
102
}
330
4C8
100
DictionaryVariables
280
     0
  1

  0
DICTIONARY
  5
43F
102
{ACAD_REACTORS
330
432
102
}
330
432
100
AcDbDictionary
281
     1
  0
LAYER_INDEX
  5
B57
102
{ACAD_REACTORS
330
B56
102
}
330
B56
100
AcDbIndex
 40
2455461.551788808
100
AcDbLayerIndex
  8
0
360
B58
 90
        0
  8
VOLL
360
B59
 90
        6
  8
MITTEL
360
B5A
 90
        3
  8
BEM
360
B5B
 90
        8
  8
HILF
360
B5C
 90
       25
  8
STEMPEL
360
B5D
 90
      105
  8
VERDECKT
360
B5E
 90
        6
  8
DEFPOINTS
360
B5F
 90
       10
  8
SCHRAFF
360
B60
 90
        9
  8
TEXT
360
B61
 90
       32
  0
IDBUFFER
  5
B58
330
0
100
AcDbIdBuffer
  0
IDBUFFER
  5
B59
330
0
100
AcDbIdBuffer
330
2FF
330
300
330
301
330
302
330
303
330
312
  0
IDBUFFER
  5
B5A
330
0
100
AcDbIdBuffer
330
39B
330
371
330
372
  0
IDBUFFER
  5
B5B
330
0
100
AcDbIdBuffer
330
338
330
339
330
373
330
3AD
330
3AE
330
3BA
330
3C3
330
A26
  0
IDBUFFER
  5
B5C
330
0
100
AcDbIdBuffer
330
304
330
305
330
306
330
307
330
308
330
309
330
30A
330
30B
330
30C
330
30D
330
30E
330
30F
330
310
330
311
330
313
330
314
330
326
330
327
330
328
330
329
330
34A
330
34B
330
34E
330
394
330
395
  0
IDBUFFER
  5
B5D
330
0
100
AcDbIdBuffer
330
EB2
330
EB3
330
EB4
330
EB5
330
EB7
330
EB9
330
EBA
330
2F7
330
2F8
330
2F9
330
2FA
330
2FB
330
2FC
330
2FD
330
2FE
330
32A
330
32B
330
32C
330
32D
330
337
330
33C
330
33D
330
33E
330
33F
330
340
330
345
330
346
330
348
330
349
330
351
330
352
330
353
330
354
330
355
330
356
330
357
330
358
330
359
330
35B
330
35C
330
35D
330
35E
330
35F
330
360
330
361
330
362
330
363
330
364
330
366
330
367
330
368
330
369
330
36A
330
36B
330
36C
330
36D
330
36E
330
379
330
37B
330
37D
330
37E
330
37F
330
380
330
381
330
382
330
383
330
384
330
385
330
386
330
387
330
388
330
389
330
38A
330
38B
330
38D
330
38E
330
38F
330
390
330
391
330
392
330
393
330
396
330
397
330
398
330
399
330
39A
330
3BB
330
3BC
330
3BD
330
3BE
330
8DA
330
8DB
330
8DD
330
8DF
330
98C
330
98D
330
98E
330
98F
330
992
330
993
330
994
330
995
330
EAF
330
EB0
330
EB1
  0
IDBUFFER
  5
B5E
330
0
100
AcDbIdBuffer
330
EAE
330
EB6
330
378
330
37A
330
37C
330
38C
  0
IDBUFFER
  5
B5F
330
0
100
AcDbIdBuffer
330
374
330
375
330
376
330
EAD
330
39F
330
3A0
330
3A9
330
3AA
330
3B5
330
EAC
  0
IDBUFFER
  5
B60
330
0
100
AcDbIdBuffer
330
3A7
330
3A8
330
8C0
330
8C1
330
8D9
330
9FB
330
AF3
330
D56
330
E44
  0
IDBUFFER
  5
B61
330
0
100
AcDbIdBuffer
330
2F6
330
315
330
316
330
317
330
318
330
319
330
31A
330
31B
330
31C
330
31D
330
31E
330
31F
330
320
330
321
330
322
330
323
330
324
330
325
330
32E
330
32F
330
330
330
331
330
332
330
333
330
334
330
335
330
336
330
94C
330
B4A
330
B4B
330
C55
330
D44
  0
ENDSEC
  0
EOF
