  0
SECTION
  2
HEADER
  9
$ACADVER
  1
AC1018
  9
$ACADMAINTVER
 70
     2
  9
$DWGCODEPAGE
  3
ANSI_1252
  9
$INSBASE
 10
214.18963059078
 20
83.98788932831553
 30
0.0
  9
$EXTMIN
 10
-0.0453026972500084
 20
-0.0640644203540433
 30
-0.0000000000000053
  9
$EXTMAX
 10
594.000006915872
 20
840.0000097800218
 30
0.0000000000000099
  9
$LIMMIN
 10
0.0
 20
0.0
  9
$LIMMAX
 10
594.0
 20
840.0000000000002
  9
$ORTHOMODE
 70
     1
  9
$REGENMODE
 70
     1
  9
$FILLMODE
 70
     1
  9
$QTEXTMODE
 70
     0
  9
$MIRRTEXT
 70
     1
  9
$LTSCALE
 40
20.0
  9
$ATTMODE
 70
     1
  9
$TEXTSIZE
 40
3.5
  9
$TRACEWID
 40
1.0
  9
$TEXTSTYLE
  7
STANDARD
  9
$CLAYER
  8
VOLL
  9
$CELTYPE
  6
ByLayer
  9
$CECOLOR
 62
   256
  9
$CELTSCALE
 40
1.0
  9
$DISPSILH
 70
     0
  9
$DIMSCALE
 40
2.0
  9
$DIMASZ
 40
3.5
  9
$DIMEXO
 40
1.0
  9
$DIMDLI
 40
3.5
  9
$DIMRND
 40
0.0
  9
$DIMDLE
 40
0.0
  9
$DIMEXE
 40
1.0
  9
$DIMTP
 40
2.0
  9
$DIMTM
 40
0.0
  9
$DIMTXT
 40
3.5
  9
$DIMCEN
 40
1.5
  9
$DIMTSZ
 40
0.0
  9
$DIMTOL
 70
     0
  9
$DIMLIM
 70
     0
  9
$DIMTIH
 70
     0
  9
$DIMTOH
 70
     0
  9
$DIMSE1
 70
     0
  9
$DIMSE2
 70
     0
  9
$DIMTAD
 70
     1
  9
$DIMZIN
 70
     8
  9
$DIMBLK
  1

  9
$DIMASO
 70
     1
  9
$DIMSHO
 70
     0
  9
$DIMPOST
  1

  9
$DIMAPOST
  1

  9
$DIMALT
 70
     0
  9
$DIMALTD
 70
     2
  9
$DIMALTF
 40
25.4
  9
$DIMLFAC
 40
1.0
  9
$DIMTOFL
 70
     1
  9
$DIMTVP
 40
0.2857142857142857
  9
$DIMTIX
 70
     0
  9
$DIMSOXD
 70
     0
  9
$DIMSAH
 70
     0
  9
$DIMBLK1
  1

  9
$DIMBLK2
  1

  9
$DIMSTYLE
  2
Standard
  9
$DIMCLRD
 70
     0
  9
$DIMCLRE
 70
     0
  9
$DIMCLRT
 70
     1
  9
$DIMTFAC
 40
0.5
  9
$DIMGAP
 40
1.5
  9
$DIMJUST
 70
     0
  9
$DIMSD1
 70
     0
  9
$DIMSD2
 70
     0
  9
$DIMTOLJ
 70
     1
  9
$DIMTZIN
 70
     8
  9
$DIMALTZ
 70
     8
  9
$DIMALTTZ
 70
     8
  9
$DIMUPT
 70
     0
  9
$DIMDEC
 70
     2
  9
$DIMTDEC
 70
     2
  9
$DIMALTU
 70
     2
  9
$DIMALTTD
 70
     2
  9
$DIMTXSTY
  7
STANDARD
  9
$DIMAUNIT
 70
     0
  9
$DIMADEC
 70
     2
  9
$DIMALTRND
 40
0.0
  9
$DIMAZIN
 70
     2
  9
$DIMDSEP
 70
    46
  9
$DIMATFIT
 70
     3
  9
$DIMFRAC
 70
     0
  9
$DIMLDRBLK
  1

  9
$DIMLUNIT
 70
     2
  9
$DIMLWD
 70
    -2
  9
$DIMLWE
 70
    -2
  9
$DIMTMOVE
 70
     0
  9
$LUNITS
 70
     2
  9
$LUPREC
 70
     2
  9
$SKETCHINC
 40
1.0
  9
$FILLETRAD
 40
14.0
  9
$AUNITS
 70
     0
  9
$AUPREC
 70
     0
  9
$MENU
  1
ACAD
  9
$ELEVATION
 40
0.0
  9
$PELEVATION
 40
0.0
  9
$THICKNESS
 40
0.0
  9
$LIMCHECK
 70
     0
  9
$CHAMFERA
 40
0.0
  9
$CHAMFERB
 40
0.0
  9
$CHAMFERC
 40
0.0
  9
$CHAMFERD
 40
0.0
  9
$SKPOLY
 70
     0
  9
$TDCREATE
 40
2450568.930915856
  9
$TDUCREATE
 40
2450568.847582523
  9
$TDUPDATE
 40
2455461.550572801
  9
$TDUUPDATE
 40
2455461.467239468
  9
$TDINDWG
 40
0.4380139583
  9
$TDUSRTIMER
 40
0.4380139583
  9
$USRTIMER
 70
     1
  9
$ANGBASE
 50
0.0
  9
$ANGDIR
 70
     0
  9
$PDMODE
 70
     0
  9
$PDSIZE
 40
0.0
  9
$PLINEWID
 40
0.0
  9
$SPLFRAME
 70
     0
  9
$SPLINETYPE
 70
     6
  9
$SPLINESEGS
 70
     8
  9
$HANDSEED
  5
11B9
  9
$SURFTAB1
 70
     6
  9
$SURFTAB2
 70
     6
  9
$SURFTYPE
 70
     6
  9
$SURFU
 70
     6
  9
$SURFV
 70
     6
  9
$UCSBASE
  2

  9
$UCSNAME
  2

  9
$UCSORG
 10
0.0
 20
0.0
 30
0.0
  9
$UCSXDIR
 10
1.0
 20
0.0
 30
0.0
  9
$UCSYDIR
 10
0.0
 20
1.0
 30
0.0
  9
$UCSORTHOREF
  2

  9
$UCSORTHOVIEW
 70
     0
  9
$UCSORGTOP
 10
0.0
 20
0.0
 30
0.0
  9
$UCSORGBOTTOM
 10
0.0
 20
0.0
 30
0.0
  9
$UCSORGLEFT
 10
0.0
 20
0.0
 30
0.0
  9
$UCSORGRIGHT
 10
0.0
 20
0.0
 30
0.0
  9
$UCSORGFRONT
 10
0.0
 20
0.0
 30
0.0
  9
$UCSORGBACK
 10
0.0
 20
0.0
 30
0.0
  9
$PUCSBASE
  2

  9
$PUCSNAME
  2

  9
$PUCSORG
 10
0.0
 20
0.0
 30
0.0
  9
$PUCSXDIR
 10
1.0
 20
0.0
 30
0.0
  9
$PUCSYDIR
 10
0.0
 20
1.0
 30
0.0
  9
$PUCSORTHOREF
  2

  9
$PUCSORTHOVIEW
 70
     0
  9
$PUCSORGTOP
 10
0.0
 20
0.0
 30
0.0
  9
$PUCSORGBOTTOM
 10
0.0
 20
0.0
 30
0.0
  9
$PUCSORGLEFT
 10
0.0
 20
0.0
 30
0.0
  9
$PUCSORGRIGHT
 10
0.0
 20
0.0
 30
0.0
  9
$PUCSORGFRONT
 10
0.0
 20
0.0
 30
0.0
  9
$PUCSORGBACK
 10
0.0
 20
0.0
 30
0.0
  9
$USERI1
 70
     0
  9
$USERI2
 70
     0
  9
$USERI3
 70
     0
  9
$USERI4
 70
     0
  9
$USERI5
 70
     0
  9
$USERR1
 40
0.0
  9
$USERR2
 40
0.0
  9
$USERR3
 40
0.0
  9
$USERR4
 40
0.0
  9
$USERR5
 40
0.0
  9
$WORLDVIEW
 70
     1
  9
$SHADEDGE
 70
     3
  9
$SHADEDIF
 70
    70
  9
$TILEMODE
 70
     1
  9
$MAXACTVP
 70
    16
  9
$PINSBASE
 10
0.0
 20
0.0
 30
0.0
  9
$PLIMCHECK
 70
     0
  9
$PEXTMIN
 10
1.000000000000000E+20
 20
1.000000000000000E+20
 30
1.000000000000000E+20
  9
$PEXTMAX
 10
-1.000000000000000E+20
 20
-1.000000000000000E+20
 30
-1.000000000000000E+20
  9
$PLIMMIN
 10
0.0
 20
0.0
  9
$PLIMMAX
 10
12.0
 20
9.0
  9
$UNITMODE
 70
     0
  9
$VISRETAIN
 70
     0
  9
$PLINEGEN
 70
     0
  9
$PSLTSCALE
 70
     0
  9
$TREEDEPTH
 70
  3020
  9
$CMLSTYLE
  2
Standard
  9
$CMLJUST
 70
     0
  9
$CMLSCALE
 40
1.0
  9
$PROXYGRAPHICS
 70
     1
  9
$MEASUREMENT
 70
     0
  9
$CELWEIGHT
370
    -1
  9
$ENDCAPS
280
     0
  9
$JOINSTYLE
280
     0
  9
$LWDISPLAY
290
     0
  9
$INSUNITS
 70
     0
  9
$HYPERLINKBASE
  1

  9
$STYLESHEET
  1
monochrome 1.ctb
  9
$XEDIT
290
     1
  9
$CEPSNTYPE
380
     0
  9
$PSTYLEMODE
290
     1
  9
$FINGERPRINTGUID
  2
{F777820D-5DE5-47A4-8267-1FFDE9C38310}
  9
$VERSIONGUID
  2
{B550F741-D951-4D9B-9C25-3F986CDB0EF5}
  9
$EXTNAMES
290
     1
  9
$PSVPSCALE
 40
0.0
  9
$OLESTARTUP
290
     0
  9
$SORTENTS
280
   127
  9
$INDEXCTL
280
     1
  9
$HIDETEXT
280
     1
  9
$XCLIPFRAME
290
     0
  9
$HALOGAP
280
     0
  9
$OBSCOLOR
 70
   257
  9
$OBSLTYPE
280
     0
  9
$INTERSECTIONDISPLAY
280
     0
  9
$INTERSECTIONCOLOR
 70
   257
  9
$DIMASSOC
280
     2
  9
$PROJECTNAME
  1

  0
ENDSEC
  0
SECTION
  2
CLASSES
  0
CLASS
  1
ACDBDICTIONARYWDFLT
  2
AcDbDictionaryWithDefault
  3
ObjectDBX Classes
 90
        0
 91
        1
280
     0
281
     0
  0
CLASS
  1
ACME_DOCUMENT
  2
AcMeDbDoc
  3
AcMeServices
 90
        0
 91
        0
280
     0
281
     0
  0
CLASS
  1
AMGSETTINGSOBJ
  2
AmgSettingsObj
  3
"AcadM|Product Description: AutoCAD Mechanical 2000|Company: Autodesk"
 90
        0
 91
        0
280
     0
281
     0
  0
CLASS
  1
ACMESCOPE
  2
AcMeScope
  3
AcMeServices
 90
        0
 91
        0
280
     0
281
     0
  0
CLASS
  1
ACMECOMMANDHISTORY
  2
AcMeCommandHistory
  3
AcMeServices
 90
        0
 91
        0
280
     0
281
     0
  0
CLASS
  1
ACIMSYSVARMAN
  2
AcImSysVarManager
  3
AcMeServices
 90
        0
 91
        0
280
     0
281
     0
  0
CLASS
  1
ACIMINTSYSVAR
  2
AcImIntSysVar
  3
AcMeServices
 90
        0
 91
        0
280
     0
281
     0
  0
CLASS
  1
ACMEDRAWINGMAN
  2
AcMeDrawingMan
  3
AcMeServices
 90
        0
 91
        0
280
     0
281
     0
  0
CLASS
  1
ACMEVIEW
  2
AcMeView
  3
AcMeServices
 90
        0
 91
        0
280
     0
281
     0
  0
CLASS
  1
ACDBENTITYCACHE
  2
AcMeEntityCache
  3
AcMeServices
 90
        0
 91
        0
280
     0
281
     0
  0
CLASS
  1
GSMANAGER
  2
AcMeGSManager
  3
AcMeServices
 90
        0
 91
        0
280
     0
281
     0
  0
CLASS
  1
AMDTINTERNALREACTOR
  2
AmdtInternalReactor
  3
AcMeServices
 90
        0
 91
        0
280
     0
281
     0
  0
CLASS
  1
ACMESTATEMGR
  2
AcMeStateMgr
  3
AcMeServices
 90
        0
 91
        0
280
     0
281
     0
  0
CLASS
  1
ACGREFMASTER
  2
AcGrefMaster
  3
AcAttribServices
 90
        0
 91
        0
280
     0
281
     0
  0
CLASS
  1
AM_DRAWING_MGR
  2
AcDmDwgMgr
  3
AcMechDwgViewMgmt
 90
        0
 91
        0
280
     0
281
     0
  0
CLASS
  1
AM_DWG_DOCUMENT
  2
AcDmDwgDocument
  3
AcMechDwgViewMgmt
 90
        0
 91
        0
280
     0
281
     0
  0
CLASS
  1
AM_DWG_SHEET
  2
AcDmSheet
  3
AcMechDwgViewMgmt
 90
        0
 91
        0
280
     0
281
     0
  0
CLASS
  1
AM_VIEWDIMPARMAP
  2
AcDmViewDimParMap
  3
AcMechDwgViewMgmt
 90
        0
 91
        0
280
     0
281
     0
  0
CLASS
  1
ACIMREALSYSVAR
  2
AcImRealSysVar
  3
AcMeServices
 90
        0
 91
        0
280
     0
281
     0
  0
CLASS
  1
AM_DWGMGR_NAME
  2
AcDmDwgMgrName
  3
AcMechDwgViewMgmt
 90
        0
 91
        0
280
     0
281
     0
  0
CLASS
  1
ACME_DATABASE
  2
AcMeDbDatabase
  3
AcMeServices
 90
        0
 91
        0
280
     0
281
     0
  0
CLASS
  1
ACRFINSADJUSTERMGR
  2
AcRfInsAdjusterMgr
  3
AcMeServices
 90
        0
 91
        0
280
     0
281
     0
  0
CLASS
  1
ACGREFACADMASTER
  2
AcGrefacadMaster
  3
AcGrefServices
 90
        0
 91
        0
280
     0
281
     0
  0
CLASS
  1
AMDTMENUSTATEMGR
  2
AmdtMenuStateMgr
  3
McadcomServices
 90
        0
 91
        0
280
     0
281
     0
  0
CLASS
  1
AMDTMCOMMENUSTATE
  2
AmdtMcomMenuState
  3
McadcomServices
 90
        0
 91
        0
280
     0
281
     0
  0
CLASS
  1
AMIMASTER
  2
AmiMaster
  3
AmiServices
 90
        0
 91
        0
280
     0
281
     0
  0
CLASS
  1
MAPIAMMOUDLE
  2
MApiAmModule
  3
MApiAmServices
 90
        0
 91
        0
280
     0
281
     0
  0
CLASS
  1
AMDTADMENUSTATE
  2
AmdtAdMenuState
  3
DesignerServices
 90
        0
 91
        0
280
     0
281
     0
  0
CLASS
  1
ADAPPL
  2
AcAdAppl
  3
DesignerServices
 90
        0
 91
        0
280
     0
281
     0
  0
CLASS
  1
DEPMGR
  2
AcAdDepMgr
  3
DesignerServices
 90
        0
 91
        0
280
     0
281
     0
  0
CLASS
  1
PARAMMGR
  2
AcAdParamMgr
  3
DesignerServices
 90
        0
 91
        0
280
     0
281
     0
  0
CLASS
  1
PARAMSCOPE
  2
AcAdParamScope
  3
DesignerServices
 90
        0
 91
        0
280
     0
281
     0
  0
CLASS
  1
NAMEDAPPL
  2
AcAdNamedAppl
  3
DesignerServices
 90
        0
 91
        0
280
     0
281
     0
  0
CLASS
  1
AMDTDMMENUSTATE
  2
AmdtDmMenuState
  3
AcMechDwgViewMgmt
 90
        0
 91
        0
280
     0
281
     0
  0
CLASS
  1
AMDTAMMENUSTATE
  2
AmdtAmMenuState
  3
DesignerAssemblies
 90
        0
 91
        0
280
     0
281
     0
  0
CLASS
  1
ACIMSTRSYSVAR
  2
AcImStrSysVar
  3
AcMeServices
 90
        0
 91
        0
280
     0
281
     0
  0
CLASS
  1
ACAMPROJECT
  2
AcAmProject
  3
DesignerAssemblies
 90
        0
 91
        0
280
     0
281
     0
  0
CLASS
  1
ACAMGRCOMPDEF
  2
AcAmGrCompDef
  3
DesignerAssemblies
 90
        0
 91
        0
280
     0
281
     0
  0
CLASS
  1
ACCMCONTEXT
  2
AcCmContext
  3
DesignerAssemblies
 90
        0
 91
        0
280
     0
281
     0
  0
CLASS
  1
ACAMCOMPDEF
  2
AcAmCompDef
  3
DesignerAssemblies
 90
        0
 91
        0
280
     0
281
     0
  0
CLASS
  1
ACAMCOMPDEFMGR
  2
AcAmCompDefMgr
  3
DesignerAssemblies
 90
        0
 91
        0
280
     0
281
     0
  0
CLASS
  1
AMCONTEXTMGR
  2
AcAmContextMgr
  3
DesignerAssemblies
 90
        0
 91
        0
280
     0
281
     0
  0
CLASS
  1
ACAMCONTEXTMODELER
  2
AcAmContextModeler
  3
DesignerAssemblies
 90
        0
 91
        0
280
     0
281
     0
  0
CLASS
  1
ACMDATADICTIONARY
  2
AcmDataDictionary
  3
"AcmSymBB|Product Description: AutoCAD Mechanical 2004 DX|Company: Autodesk"
 90
        0
 91
        0
280
     0
281
     0
  0
CLASS
  1
CATALOGSTATE
  2
AcAmCatalogState
  3
DesignerAssemblies
 90
        0
 91
        0
280
     0
281
     0
  0
CLASS
  1
ACAMGRCOMPDEFSET
  2
AcAmGrCompDefSet
  3
DesignerAssemblies
 90
        0
 91
        0
280
     0
281
     0
  0
CLASS
  1
AMDTBROWSERDBTAB
  2
AmdtBrowserDbTab
  3
McadcomServices
 90
        0
 91
        0
280
     0
281
     0
  0
CLASS
  1
CBROWSERAPPOBJECT
  2
CBrowserAppObject
  3
McadcomServices
 90
        0
 91
        0
280
     0
281
     0
  0
CLASS
  1
DM_PLACEHOLDER
  2
AcDmSelsetPlaceholder
  3
AcMechDwgViewMgmt
 90
        0
 91
        0
280
     0
281
     0
  0
CLASS
  1
ACMSTANDARDANSI
  2
AcmStandardANSI
  3
"Amdt_StdImp|Product Description: AutoCAD Mechanical 2004 DX|Company: Autodesk"
 90
        0
 91
        0
280
     0
281
     0
  0
CLASS
  1
AMGOBJPROPCFG
  2
AmgObjPropCfg
  3
"AmgLay|Product Description: AutoCAD Mechanical 2000|Company: Autodesk"
 90
        1
 91
        0
280
     0
281
     0
  0
CLASS
  1
ACMSURFSTANDARDANSI
  2
AcmSurfTextStdANSI
  3
"Amdt_StdImp|Product Description: AutoCAD Mechanical 2004 DX|Company: Autodesk"
 90
        0
 91
        0
280
     0
281
     0
  0
CLASS
  1
ACMFCFSTANDARDANSI
  2
AcmFCFStdANSI
  3
"Amdt_StdImp|Product Description: AutoCAD Mechanical 2004 DX|Company: Autodesk"
 90
        0
 91
        0
280
     0
281
     0
  0
CLASS
  1
ACMWELDSTANDARDANSI
  2
AcmWeldingStdANSI
  3
"Amdt_StdImp|Product Description: AutoCAD Mechanical 2004 DX|Company: Autodesk"
 90
        0
 91
        0
280
     0
281
     0
  0
CLASS
  1
ACMIDSTANDARDANSI
  2
AcmIdStdANSI
  3
"Amdt_StdImp|Product Description: AutoCAD Mechanical 2004 DX|Company: Autodesk"
 90
        0
 91
        0
280
     0
281
     0
  0
CLASS
  1
ACMDATUMSTANDARDANSI
  2
AcmDatumStdANSI
  3
"Amdt_StdImp|Product Description: AutoCAD Mechanical 2004 DX|Company: Autodesk"
 90
        0
 91
        0
280
     0
281
     0
  0
CLASS
  1
ACMBOMSTANDARDANSI
  2
AcmBOMStdANSI
  3
"Amdt_StdImp|Product Description: AutoCAD Mechanical 2004 DX|Company: Autodesk"
 90
        0
 91
        0
280
     0
281
     0
  0
CLASS
  1
ACMDETAILSTANDARDANSI
  2
AmdtDetailSymStdANSI
  3
"Amdt_StdImp|Product Description: AutoCAD Mechanical 2004 DX|Company: Autodesk"
 90
        0
 91
        0
280
     0
281
     0
  0
CLASS
  1
ACMSECTIONSTANDARDANSI
  2
AmdtSectionSymStdANSI
  3
"Amdt_StdImp|Product Description: AutoCAD Mechanical 2004 DX|Company: Autodesk"
 90
        0
 91
        0
280
     0
281
     0
  0
CLASS
  1
ACMCENTERLINESTANDARDANSI
  2
AmdtCenterLineStdANSI
  3
"Amdt_StdImp|Product Description: AutoCAD Mechanical 2004 DX|Company: Autodesk"
 90
        0
 91
        0
280
     0
281
     0
  0
CLASS
  1
ACMTHREADLINESTANDARDANSI
  2
AmdtThreadLineStdANSI
  3
"Amdt_StdImp|Product Description: AutoCAD Mechanical 2004 DX|Company: Autodesk"
 90
        0
 91
        0
280
     0
281
     0
  0
CLASS
  1
ACMNOTESTANDARDANSI
  2
AmdtNoteStdANSI
  3
"Amdt_StdImp|Product Description: AutoCAD Mechanical 2004 DX|Company: Autodesk"
 90
        0
 91
        0
280
     0
281
     0
  0
CLASS
  1
AMDTNOTETEMPLATEDB
  2
AmdtNoteTemplateDB
  3
AMDT_STDIMP_MODULE_NAME
 90
        0
 91
        0
280
     0
281
     0
  0
CLASS
  1
ACAMGLAYSTD
  2
AcAmgLayStd
  3
"AcAmgLayStd|Product Description: AutoCAD Mechanical 2000|Company: Autodesk"
 90
        0
 91
        0
280
     0
281
     0
  0
CLASS
  1
ACAMGDIMSTD
  2
AcAmgDimStd
  3
"AcAmgDimStd|Product Description: AutoCAD Mechanical 2000|Company: Autodesk"
 90
        0
 91
        0
280
     0
281
     0
  0
CLASS
  1
ACAMGHOLECHARTSTDANSI
  2
AcAmgHoleChartStdANSI
  3
ACMSYMBB_MODULE_NAME
 90
        0
 91
        0
280
     0
281
     0
  0
CLASS
  1
ACAMGTITLESTD
  2
AcAmgTitleStd
  3
"TITLEAPP"
 90
        0
 91
        0
280
     0
281
     0
  0
CLASS
  1
ACAMGFILTERDAT
  2
AcAmgFilterDat
  3
"AcadM|Product Description: AutoCAD Mechanical 2000|Company: Autodesk"
 90
        0
 91
        0
280
     0
281
     0
  0
CLASS
  1
LAYER_INDEX
  2
AcDbLayerIndex
  3
ObjectDBX Classes
 90
        0
 91
        1
280
     0
281
     0
  0
CLASS
  1
IDBUFFER
  2
AcDbIdBuffer
  3
ObjectDBX Classes
 90
        0
 91
       10
280
     0
281
     0
  0
CLASS
  1
DICTIONARYVAR
  2
AcDbDictionaryVar
  3
ObjectDBX Classes
 90
        0
 91
        4
280
     0
281
     0
  0
CLASS
  1
ACRFATTGENMGR
  2
AcRfAttGeneralMgr
  3
AcAttribServices
 90
        0
 91
        0
280
     0
281
     0
  0
CLASS
  1
DIMASSOC
  2
AcDbDimAssoc
  3
"AcDbDimAssoc|Product Desc:     AcDim ARX App For Dimension|Company:          Autodesk, Inc.|WEB Address:      www.autodesk.com"
 90
        0
 91
        0
280
     0
281
     0
  0
ENDSEC
  0
SECTION
  2
TABLES
  0
TABLE
  2
VPORT
  5
8
330
0
100
AcDbSymbolTable
 70
     2
  0
VPORT
  5
11B8
330
8
100
AcDbSymbolTableRecord
100
AcDbViewportTableRecord
  2
*Active
 70
     0
 10
0.0
 20
0.0
 11
1.0
 21
1.0
 12
296.9773521093111
 22
419.9679726798338
 13
0.0
 23
0.0
 14
2.5
 24
2.5
 15
10.0
 25
10.0
 16
0.0
 26
0.0
 36
1.0
 17
0.0
 27
0.0
 37
0.0
 40
846.8479025250086
 41
1.336927223719676
 42
50.0
 43
0.0
 44
0.0
 50
0.0
 51
0.0
 71
     0
 72
   500
 73
     1
 74
     0
 75
     0
 76
     0
 77
     0
 78
     0
281
     0
 65
     1
110
0.0
120
0.0
130
0.0
111
1.0
121
0.0
131
0.0
112
0.0
122
1.0
132
0.0
 79
     0
146
0.0
  0
ENDTAB
  0
TABLE
  2
LTYPE
  5
5
330
0
100
AcDbSymbolTable
 70
     3
  0
LTYPE
  5
13
330
5
100
AcDbSymbolTableRecord
100
AcDbLinetypeTableRecord
  2
ByBlock
 70
     0
  3

 72
    65
 73
     0
 40
0.0
  0
LTYPE
  5
14
330
5
100
AcDbSymbolTableRecord
100
AcDbLinetypeTableRecord
  2
ByLayer
 70
     0
  3

 72
    65
 73
     0
 40
0.0
  0
LTYPE
  5
15
330
5
100
AcDbSymbolTableRecord
100
AcDbLinetypeTableRecord
  2
Continuous
 70
     0
  3
Solid line
 72
    65
 73
     0
 40
0.0
  0
LTYPE
  5
3F
330
5
100
AcDbSymbolTableRecord
100
AcDbLinetypeTableRecord
  2
STRICHPUNKT
 70
     0
  3
__ . __ . __ . __ . __ . __ . __ . __ . __ . __
 72
    65
 73
     4
 40
1.0
 49
0.5
 74
     0
 49
-0.25
 74
     0
 49
0.0
 74
     0
 49
-0.25
 74
     0
  0
LTYPE
  5
40
330
5
100
AcDbSymbolTableRecord
100
AcDbLinetypeTableRecord
  2
VERDECKT
 70
     0
  3
_ _ _ _ _ _ _ _ _ _ _ _ _ _ _ _ _ _ _ _ _ _ _
 72
    65
 73
     2
 40
0.375
 49
0.25
 74
     0
 49
-0.125
 74
     0
  0
ENDTAB
  0
TABLE
  2
LAYER
  5
2
330
0
100
AcDbSymbolTable
 70
    10
  0
LAYER
  5
10
330
2
100
AcDbSymbolTableRecord
100
AcDbLayerTableRecord
  2
0
 70
     0
 62
     7
  6
Continuous
370
    -3
390
F
  0
LAYER
  5
43
330
2
100
AcDbSymbolTableRecord
100
AcDbLayerTableRecord
  2
VOLL
 70
     0
 62
     1
  6
Continuous
370
    -3
390
F
  0
LAYER
  5
44
330
2
100
AcDbSymbolTableRecord
100
AcDbLayerTableRecord
  2
MITTEL
 70
     0
 62
     2
  6
STRICHPUNKT
370
    -3
390
F
  0
LAYER
  5
45
330
2
100
AcDbSymbolTableRecord
100
AcDbLayerTableRecord
  2
BEM
 70
     0
 62
     7
  6
Continuous
370
    -3
390
F
  0
LAYER
  5
46
330
2
100
AcDbSymbolTableRecord
100
AcDbLayerTableRecord
  2
HILF
 70
     0
 62
     2
  6
Continuous
370
    -3
390
F
  0
LAYER
  5
47
330
2
100
AcDbSymbolTableRecord
100
AcDbLayerTableRecord
  2
STEMPEL
 70
     0
 62
     3
  6
Continuous
370
    -3
390
F
  0
LAYER
  5
48
330
2
100
AcDbSymbolTableRecord
100
AcDbLayerTableRecord
  2
VERDECKT
 70
     0
 62
     6
  6
VERDECKT
370
    -3
390
F
  0
LAYER
  5
49
330
2
100
AcDbSymbolTableRecord
100
AcDbLayerTableRecord
  2
DEFPOINTS
 70
     0
 62
     7
  6
Continuous
290
     0
370
    -3
390
F
  0
LAYER
  5
4A
330
2
100
AcDbSymbolTableRecord
100
AcDbLayerTableRecord
  2
SCHRAFF
 70
     0
 62
     7
  6
Continuous
370
    -3
390
F
  0
LAYER
  5
4BD
330
2
100
AcDbSymbolTableRecord
100
AcDbLayerTableRecord
  2
TEXT
 70
     0
 62
     7
  6
Continuous
370
    -3
390
F
  0
ENDTAB
  0
TABLE
  2
STYLE
  5
3
330
0
100
AcDbSymbolTable
 70
     2
  0
STYLE
  5
11
330
3
100
AcDbSymbolTableRecord
100
AcDbTextStyleTableRecord
  2
STANDARD
 70
     0
 40
0.0
 41
0.8
 50
0.0
 71
     0
 42
3.5
  3
simplex.shx
  4

  0
STYLE
  5
3E
330
3
100
AcDbSymbolTableRecord
100
AcDbTextStyleTableRecord
  2
GREEKS
 70
     0
 40
0.0
 41
0.8
 50
0.0
 71
     0
 42
1.8
  3
SIMPLEX.shx
  4

  0
ENDTAB
  0
TABLE
  2
VIEW
  5
6
330
0
100
AcDbSymbolTable
 70
     0
  0
ENDTAB
  0
TABLE
  2
UCS
  5
7
330
0
100
AcDbSymbolTable
 70
     0
  0
ENDTAB
  0
TABLE
  2
APPID
  5
9
330
0
100
AcDbSymbolTable
 70
     8
  0
APPID
  5
12
330
9
100
AcDbSymbolTableRecord
100
AcDbRegAppTableRecord
  2
ACAD
 70
     0
  0
APPID
  5
3E7
330
9
100
AcDbSymbolTableRecord
100
AcDbRegAppTableRecord
  2
MCAD_NO_VIS
 70
     0
  0
APPID
  5
3E8
330
9
100
AcDbSymbolTableRecord
100
AcDbRegAppTableRecord
  2
ACAD_TEMP_GRAPHIC
 70
     0
  0
APPID
  5
418
330
9
100
AcDbSymbolTableRecord
100
AcDbRegAppTableRecord
  2
AD_DRAW
 70
     0
  0
APPID
  5
41B
330
9
100
AcDbSymbolTableRecord
100
AcDbRegAppTableRecord
  2
ACATTRIBSERVICES
 70
     0
  0
APPID
  5
439
330
9
100
AcDbSymbolTableRecord
100
AcDbRegAppTableRecord
  2
DESIGNERASSEMBLIES
 70
     0
  0
APPID
  5
43F
330
9
100
AcDbSymbolTableRecord
100
AcDbRegAppTableRecord
  2
ACADM_DIM_EDIT
 70
     0
  0
APPID
  5
440
330
9
100
AcDbSymbolTableRecord
100
AcDbRegAppTableRecord
  2
AMDT_DM_ADJ
 70
     0
  0
ENDTAB
  0
TABLE
  2
DIMSTYLE
  5
A
330
0
100
AcDbSymbolTable
 70
     1
100
AcDbDimStyleTable
 71
     1
340
3DF
  0
DIMSTYLE
105
3DF
102
{ACAD_REACTORS
330
3D4
330
3D1
330
3CD
330
3CB
330
3CA
330
3CC
102
}
330
A
100
AcDbSymbolTableRecord
100
AcDbDimStyleTableRecord
  2
Standard
 70
     0
340
11
  0
ENDTAB
  0
TABLE
  2
BLOCK_RECORD
  5
1
330
0
100
AcDbSymbolTable
 70
     8
  0
BLOCK_RECORD
  5
20
102
{ACAD_XDICTIONARY
360
4FD
102
}
330
1
100
AcDbSymbolTableRecord
100
AcDbBlockTableRecord
  2
*Model_Space
340
23
  0
BLOCK_RECORD
  5
1C
330
1
100
AcDbSymbolTableRecord
100
AcDbBlockTableRecord
  2
*Paper_Space
340
1F
  0
BLOCK_RECORD
  5
24
330
1
100
AcDbSymbolTableRecord
100
AcDbBlockTableRecord
  2
LOGO
340
0
102
{BLKREFS
331
346
102
}
  0
BLOCK_RECORD
  5
29
330
1
100
AcDbSymbolTableRecord
100
AcDbBlockTableRecord
  2
*X1
340
0
102
{BLKREFS
331
3BD
331
113E
102
}
  0
BLOCK_RECORD
  5
A26
330
1
100
AcDbSymbolTableRecord
100
AcDbBlockTableRecord
  2
*D2
340
0
  0
BLOCK_RECORD
  5
E21
330
1
100
AcDbSymbolTableRecord
100
AcDbBlockTableRecord
  2
*D3
340
0
  0
BLOCK_RECORD
  5
EF6
330
1
100
AcDbSymbolTableRecord
100
AcDbBlockTableRecord
  2
*D4
340
0
  0
BLOCK_RECORD
  5
FC3
330
1
100
AcDbSymbolTableRecord
100
AcDbBlockTableRecord
  2
*D5
340
0
  0
BLOCK_RECORD
  5
FE0
330
1
100
AcDbSymbolTableRecord
100
AcDbBlockTableRecord
  2
*D6
340
0
  0
BLOCK_RECORD
  5
109F
330
1
100
AcDbSymbolTableRecord
100
AcDbBlockTableRecord
  2
*D7
340
0
  0
ENDTAB
  0
ENDSEC
  0
SECTION
  2
BLOCKS
  0
BLOCK
  5
4E
330
20
100
AcDbEntity
  8
0
100
AcDbBlockBegin
  2
*Model_Space
 70
     0
 10
0.0
 20
0.0
 30
0.0
  3
*Model_Space
  1

  0
ENDBLK
  5
4F
330
20
100
AcDbEntity
  8
0
100
AcDbBlockEnd
  0
BLOCK
  5
4C
330
1C
100
AcDbEntity
 67
     1
  8
0
100
AcDbBlockBegin
  2
*Paper_Space
 70
     0
 10
0.0
 20
0.0
 30
0.0
  3
*Paper_Space
  1

  0
ENDBLK
  5
4D
330
1C
100
AcDbEntity
 67
     1
  8
0
100
AcDbBlockEnd
  0
BLOCK
  5
50
330
24
100
AcDbEntity
  8
0
100
AcDbBlockBegin
  2
LOGO
 70
     0
 10
0.0
 20
0.0
 30
0.0
  3
LOGO
  1

  0
ARC
  5
51
330
24
100
AcDbEntity
  8
0
100
AcDbCircle
 10
11.59973089678112
 20
-9.271599258481501
 30
0.0
 40
4.5
100
AcDbArc
 50
270.0
 51
231.0575587310159
  0
LINE
  5
52
330
24
100
AcDbEntity
  8
0
100
AcDbLine
 10
3.599730896781125
 20
-4.771599258481529
 30
0.0
 11
3.599730896781153
 21
-11.77159925848133
 31
0.0
  0
LINE
  5
53
330
24
100
AcDbEntity
  8
0
100
AcDbLine
 10
2.599730896781125
 20
-4.771599258481529
 30
0.0
 11
2.599730896781153
 21
-11.77159925848133
 31
0.0
  0
CIRCLE
  5
54
330
24
100
AcDbEntity
  8
0
100
AcDbCircle
 10
11.59973089678112
 20
-9.271599258481501
 30
0.0
 40
3.5
  0
ARC
  5
55
330
24
100
AcDbEntity
  8
0
100
AcDbCircle
 10
31.59973089678115
 20
-9.271599258481472
 30
0.0
 40
4.5
100
AcDbArc
 50
270.0
 51
231.0575587310182
  0
LINE
  5
56
330
24
100
AcDbEntity
  8
0
100
AcDbLine
 10
17.59973089678112
 20
-4.771599258481472
 30
0.0
 11
17.59973089678115
 21
-13.77159925848147
 31
0.0
  0
ARC
  5
57
330
24
100
AcDbEntity
  8
0
100
AcDbCircle
 10
22.59973089678116
 20
-7.271599258481472
 30
0.0
 40
2.5
100
AcDbArc
 50
293.1161887722295
 51
90.0
  0
CIRCLE
  5
58
330
24
100
AcDbEntity
  8
0
100
AcDbCircle
 10
31.59973089678115
 20
-9.271599258481472
 30
0.0
 40
3.5
  0
ARC
  5
59
330
24
100
AcDbEntity
  8
0
100
AcDbCircle
 10
4.599730896781153
 20
-11.77159925848133
 30
0.0
 40
1.0
100
AcDbArc
 50
180.0
 51
270.0
  0
ARC
  5
5A
330
24
100
AcDbEntity
  8
0
100
AcDbCircle
 10
4.599730896781153
 20
-11.77159925848133
 30
0.0
 40
2.0
100
AcDbArc
 50
179.9999999999992
 51
270.0
  0
LINE
  5
5B
330
24
100
AcDbEntity
  8
0
100
AcDbLine
 10
11.59973089678115
 20
-13.77159925848144
 30
0.0
 11
4.599730896781153
 21
-13.77159925848147
 31
0.0
  0
LINE
  5
5C
330
24
100
AcDbEntity
  8
0
100
AcDbLine
 10
8.771303772034769
 20
-12.77159925848136
 30
0.0
 11
4.599730896781153
 21
-12.77159925848133
 31
0.0
  0
LINE
  5
5D
330
24
100
AcDbEntity
  8
0
100
AcDbLine
 10
31.59973089678115
 20
-13.77159925848147
 30
0.0
 11
23.6715276665056
 21
-13.77159925848144
 31
0.0
  0
LINE
  5
5E
330
24
100
AcDbEntity
  8
0
100
AcDbLine
 10
23.56565672307022
 20
-9.51278021337896
 30
0.0
 11
24.4388546544846
 21
-12.77159925848144
 31
0.0
  0
LINE
  5
5F
330
24
100
AcDbEntity
  8
0
100
AcDbLine
 10
22.59973089678116
 20
-9.771599258481472
 30
0.0
 11
18.59973089678112
 21
-9.771599258481472
 31
0.0
  0
LINE
  5
60
330
24
100
AcDbEntity
  8
0
100
AcDbLine
 10
18.59973089678115
 20
-13.77159925848144
 30
0.0
 11
17.59973089678115
 21
-13.77159925848144
 31
0.0
  0
LINE
  5
61
330
24
100
AcDbEntity
  8
0
100
AcDbLine
 10
18.59973089678115
 20
-9.771599258481472
 30
0.0
 11
18.59973089678115
 21
-13.77159925848144
 31
0.0
  0
LINE
  5
62
330
24
100
AcDbEntity
  8
0
100
AcDbLine
 10
22.59973089678116
 20
-9.771599258481472
 30
0.0
 11
23.67152766650562
 21
-13.77159925848147
 31
0.0
  0
ARC
  5
63
330
24
100
AcDbEntity
  8
0
100
AcDbCircle
 10
22.59973089678116
 20
-7.271599258481472
 30
0.0
 40
2.5
100
AcDbArc
 50
270.0
 51
270.0000000000007
  0
LINE
  5
64
330
24
100
AcDbEntity
  8
0
100
AcDbLine
 10
28.77130377203494
 20
-12.77159925848147
 30
0.0
 11
24.43885465448463
 21
-12.77159925848144
 31
0.0
  0
LINE
  5
65
330
24
100
AcDbEntity
  8
0
100
AcDbLine
 10
3.599730896781125
 20
-4.771599258481472
 30
0.0
 11
2.599730896781125
 21
-4.771599258481472
 31
0.0
  0
LINE
  5
66
330
24
100
AcDbEntity
  8
0
100
AcDbLine
 10
22.59973089678116
 20
-8.771599258481472
 30
0.0
 11
18.59973089678115
 21
-8.771599258481472
 31
0.0
  0
LINE
  5
67
330
24
100
AcDbEntity
  8
0
100
AcDbLine
 10
22.59973089678116
 20
-5.771599258481472
 30
0.0
 11
18.59973089678115
 21
-5.771599258481472
 31
0.0
  0
LINE
  5
68
330
24
100
AcDbEntity
  8
0
100
AcDbLine
 10
22.59973089678116
 20
-4.771599258481472
 30
0.0
 11
17.59973089678115
 21
-4.771599258481472
 31
0.0
  0
LINE
  5
69
330
24
100
AcDbEntity
  8
0
100
AcDbLine
 10
18.59973089678115
 20
-5.771599258481472
 30
0.0
 11
18.59973089678115
 21
-8.771599258481472
 31
0.0
  0
ARC
  5
6A
330
24
100
AcDbEntity
  8
0
100
AcDbCircle
 10
22.59973089678116
 20
-7.271599258481472
 30
0.0
 40
1.5
100
AcDbArc
 50
270.0
 51
90.0
  0
ENDBLK
  5
6B
330
24
100
AcDbEntity
  8
0
100
AcDbBlockEnd
  0
BLOCK
  5
12E
330
29
100
AcDbEntity
  8
0
100
AcDbBlockBegin
  2
*X1
 70
     1
 10
0.0
 20
0.0
 30
0.0
  3
*X1
  1

  0
LINE
  5
12F
330
29
100
AcDbEntity
  8
0
 62
     0
100
AcDbLine
 10
206.361127543592
 20
124.423424695475
 30
0.0
 11
204.1919696189955
 21
126.5925826200714
 31
0.0
  0
LINE
  5
130
330
29
100
AcDbEntity
  8
0
 62
     0
100
AcDbLine
 10
206.3093637345715
 20
124.3337671482581
 30
0.0
 11
204.1755709205511
 21
126.4675599622785
 31
0.0
  0
LINE
  5
131
330
29
100
AcDbEntity
  8
0
 62
     0
100
AcDbLine
 10
206.257599925551
 20
124.2441096010414
 30
0.0
 11
204.162777300281
 21
126.3389322263113
 31
0.0
  0
LINE
  5
132
330
29
100
AcDbEntity
  8
0
 62
     0
100
AcDbLine
 10
206.2058361165304
 20
124.1544520538245
 30
0.0
 11
204.1538812306975
 21
126.2064069396575
 31
0.0
  0
LINE
  5
133
330
29
100
AcDbEntity
  8
0
 62
     0
100
AcDbLine
 10
206.15407230751
 20
124.0647945066077
 30
0.0
 11
204.1492309269521
 21
126.0696358871655
 31
0.0
  0
LINE
  5
134
330
29
100
AcDbEntity
  8
0
 62
     0
100
AcDbLine
 10
206.1023084984894
 20
123.9751369593909
 30
0.0
 11
204.1492460612284
 21
125.928199396652
 31
0.0
  0
LINE
  5
135
330
29
100
AcDbEntity
  8
0
 62
     0
100
AcDbLine
 10
206.050544689469
 20
123.8854794121741
 30
0.0
 11
204.1544397711193
 21
125.7815843305237
 31
0.0
  0
LINE
  5
136
330
29
100
AcDbEntity
  8
0
 62
     0
100
AcDbLine
 10
205.9987808804484
 20
123.7958218649573
 30
0.0
 11
204.1654503562987
 21
125.629152389107
 31
0.0
  0
LINE
  5
137
330
29
100
AcDbEntity
  8
0
 62
     0
100
AcDbLine
 10
205.9470170714279
 20
123.7061643177405
 30
0.0
 11
204.1830884656249
 21
125.4700929235435
 31
0.0
  0
LINE
  5
138
330
29
100
AcDbEntity
  8
0
 62
     0
100
AcDbLine
 10
205.8952532624074
 20
123.6165067705237
 30
0.0
 11
204.2084102041783
 21
125.3033498287528
 31
0.0
  0
LINE
  5
139
330
29
100
AcDbEntity
  8
0
 62
     0
100
AcDbLine
 10
205.8434894533869
 20
123.5268492233069
 30
0.0
 11
204.2428360894343
 21
125.1275025872595
 31
0.0
  0
LINE
  5
13A
330
29
100
AcDbEntity
  8
0
 62
     0
100
AcDbLine
 10
205.7917256443664
 20
123.4371916760901
 30
0.0
 11
204.2883569507582
 21
124.9405603696983
 31
0.0
  0
LINE
  5
13B
330
29
100
AcDbEntity
  8
0
 62
     0
100
AcDbLine
 10
205.7399618353459
 20
123.3475341288733
 30
0.0
 11
204.3479202201067
 21
124.7395757441125
 31
0.0
  0
LINE
  5
13C
330
29
100
AcDbEntity
  8
0
 62
     0
100
AcDbLine
 10
205.6881980263254
 20
123.2578765816565
 30
0.0
 11
204.426238962805
 21
124.5198356451769
 31
0.0
  0
LINE
  5
13D
330
29
100
AcDbEntity
  8
0
 62
     0
100
AcDbLine
 10
205.6364342173049
 20
123.1682190344397
 30
0.0
 11
204.5317826890526
 21
124.272870562692
 31
0.0
  0
LINE
  5
13E
330
29
100
AcDbEntity
  8
0
 62
     0
100
AcDbLine
 10
205.5846704082844
 20
123.0785614872229
 30
0.0
 11
204.6831734663053
 21
123.980058429202
 31
0.0
  0
LINE
  5
13F
330
29
100
AcDbEntity
  8
0
 62
     0
100
AcDbLine
 10
205.5329065992639
 20
122.9889039400061
 30
0.0
 11
204.9464222253075
 21
123.5753883139625
 31
0.0
  0
LINE
  5
140
330
29
100
AcDbEntity
  8
0
 62
     0
100
AcDbLine
 10
206.4128913526125
 20
124.5130822426917
 30
0.0
 11
204.2117251741453
 21
126.7142484211589
 31
0.0
  0
LINE
  5
141
330
29
100
AcDbEntity
  8
0
 62
     0
100
AcDbLine
 10
206.464655161633
 20
124.6027397899086
 30
0.0
 11
204.2346250367801
 21
126.8327699147614
 31
0.0
  0
LINE
  5
142
330
29
100
AcDbEntity
  8
0
 62
     0
100
AcDbLine
 10
206.5164189706535
 20
124.6923973371254
 30
0.0
 11
204.260485809356
 21
126.9483304984229
 31
0.0
  0
LINE
  5
143
330
29
100
AcDbEntity
  8
0
 62
     0
100
AcDbLine
 10
206.568182779674
 20
124.7820548843422
 30
0.0
 11
204.2891482109407
 21
127.0610894530754
 31
0.0
  0
LINE
  5
144
330
29
100
AcDbEntity
  8
0
 62
     0
100
AcDbLine
 10
206.6199465886945
 20
124.871712431559
 30
0.0
 11
204.3204731346402
 21
127.1711858856133
 31
0.0
  0
LINE
  5
145
330
29
100
AcDbEntity
  8
0
 62
     0
100
AcDbLine
 10
206.671710397715
 20
124.9613699787758
 30
0.0
 11
204.3543385220878
 21
127.278741854403
 31
0.0
  0
LINE
  5
146
330
29
100
AcDbEntity
  8
0
 62
     0
100
AcDbLine
 10
206.7234742067355
 20
125.0510275259926
 30
0.0
 11
204.5303535365744
 21
127.2441481961537
 31
0.0
  0
LINE
  5
147
330
29
100
AcDbEntity
  8
0
 62
     0
100
AcDbLine
 10
206.775238015756
 20
125.1406850732094
 30
0.0
 11
204.8038582746441
 21
127.1120648143213
 31
0.0
  0
LINE
  5
148
330
29
100
AcDbEntity
  8
0
 62
     0
100
AcDbLine
 10
206.8270018247765
 20
125.2303426204262
 30
0.0
 11
205.0807975766669
 21
126.9765468685357
 31
0.0
  0
LINE
  5
149
330
29
100
AcDbEntity
  8
0
 62
     0
100
AcDbLine
 10
206.878765633797
 20
125.320000167643
 30
0.0
 11
205.3613321980706
 21
126.8374336033694
 31
0.0
  0
LINE
  5
14A
330
29
100
AcDbEntity
  8
0
 62
     0
100
AcDbLine
 10
206.9305294428175
 20
125.4096577148598
 30
0.0
 11
205.6456361641685
 21
126.6945509935088
 31
0.0
  0
LINE
  5
14B
330
29
100
AcDbEntity
  8
0
 62
     0
100
AcDbLine
 10
206.982293251838
 20
125.4993152620766
 30
0.0
 11
205.9338983609392
 21
126.5477101529755
 31
0.0
  0
LINE
  5
14C
330
29
100
AcDbEntity
  8
0
 62
     0
100
AcDbLine
 10
207.0340570608585
 20
125.5889728092934
 30
0.0
 11
206.2263243800068
 21
126.3967054901451
 31
0.0
  0
LINE
  5
14D
330
29
100
AcDbEntity
  8
0
 62
     0
100
AcDbLine
 10
207.085820869879
 20
125.6786303565103
 30
0.0
 11
206.5231386693345
 21
126.2413125570548
 31
0.0
  0
LINE
  5
14E
330
29
100
AcDbEntity
  8
0
 62
     0
100
AcDbLine
 10
207.1375846788995
 20
125.768287903727
 30
0.0
 11
206.8245870539551
 21
126.0812855286714
 31
0.0
  0
LINE
  5
14F
330
29
100
AcDbEntity
  8
0
 62
     0
100
AcDbLine
 10
207.18934848792
 20
125.8579454509438
 30
0.0
 11
207.1309397077029
 21
125.916354231161
 31
0.0
  0
ENDBLK
  5
150
330
29
100
AcDbEntity
  8
0
100
AcDbBlockEnd
  0
BLOCK
  5
A30
330
A26
100
AcDbEntity
  8
0
100
AcDbBlockBegin
  2
*D2
 70
     1
 10
0.0
 20
0.0
 30
0.0
  3
*D2
  1

  0
LINE
  5
117C
330
A26
100
AcDbEntity
  8
BEM
 62
     0
370
    -2
100
AcDbLine
 10
284.3493988078293
 20
648.0110874246368
 30
0.0
 11
366.9366820879667
 21
648.0110874246368
 31
0.0
  0
LINE
  5
117D
330
A26
100
AcDbEntity
  8
BEM
 62
     0
370
    -2
100
AcDbLine
 10
259.4119554901997
 20
398.0110874246368
 30
0.0
 11
366.9366820879667
 21
398.0110874246368
 31
0.0
  0
LINE
  5
117E
330
A26
100
AcDbEntity
  8
BEM
 62
     0
370
    -2
100
AcDbLine
 10
364.9366820879667
 20
641.0110874246368
 30
0.0
 11
364.9366820879667
 21
405.0110874246368
 31
0.0
  0
SOLID
  5
117F
330
A26
100
AcDbEntity
  8
BEM
 62
     0
100
AcDbTrace
 10
363.7700154213001
 20
641.0110874246368
 30
0.0
 11
366.1033487546334
 21
641.0110874246368
 31
0.0
 12
364.9366820879667
 22
648.0110874246368
 32
0.0
 13
364.9366820879667
 23
648.0110874246368
 33
0.0
  0
SOLID
  5
1180
330
A26
100
AcDbEntity
  8
BEM
 62
     0
100
AcDbTrace
 10
363.7700154213
 20
405.0110874246368
 30
0.0
 11
366.1033487546334
 21
405.0110874246368
 31
0.0
 12
364.9366820879667
 22
398.0110874246368
 32
0.0
 13
364.9366820879667
 23
398.0110874246368
 33
0.0
  0
MTEXT
  5
1181
330
A26
100
AcDbEntity
  8
BEM
 62
     1
100
AcDbMText
 10
358.4366820879666
 20
523.0110874246369
 30
0.0
 40
7.0
 41
0.0
 71
     5
 72
     1
  1
\A1;250
 11
0.0000000000000001
 21
1.0
 31
0.0
 73
     1
 44
1.0
  0
POINT
  5
1182
330
A26
100
AcDbEntity
  8
DEFPOINTS
 62
     0
100
AcDbPoint
 10
282.3493988078292
 20
648.0110874246368
 30
0.0
  0
POINT
  5
1183
330
A26
100
AcDbEntity
  8
DEFPOINTS
 62
     0
100
AcDbPoint
 10
257.4119554901997
 20
398.0110874246368
 30
0.0
  0
POINT
  5
1184
330
A26
100
AcDbEntity
  8
DEFPOINTS
 62
     0
100
AcDbPoint
 10
364.9366820879667
 20
398.0110874246368
 30
0.0
  0
ENDBLK
  5
A31
330
A26
100
AcDbEntity
  8
0
100
AcDbBlockEnd
  0
BLOCK
  5
E2B
330
E21
100
AcDbEntity
  8
0
100
AcDbBlockBegin
  2
*D3
 70
     1
 10
0.0
 20
0.0
 30
0.0
  3
*D3
  1

  0
LINE
  5
E22
330
E21
100
AcDbEntity
  8
BEM
 62
     0
370
    -2
100
AcDbLine
 10
184.8493988078292
 20
405.3393388257829
 30
0.0
 11
184.8493988078292
 21
371.6640101337934
 31
0.0
  0
LINE
  5
E23
330
E21
100
AcDbEntity
  8
BEM
 62
     0
370
    -2
100
AcDbLine
 10
257.8493988078292
 20
405.3393388257829
 30
0.0
 11
257.8493988078292
 21
371.6640101337934
 31
0.0
  0
LINE
  5
E24
330
E21
100
AcDbEntity
  8
BEM
 62
     0
370
    -2
100
AcDbLine
 10
191.8493988078292
 20
373.6640101337934
 30
0.0
 11
250.8493988078292
 21
373.6640101337934
 31
0.0
  0
SOLID
  5
E25
330
E21
100
AcDbEntity
  8
BEM
 62
     0
100
AcDbTrace
 10
191.8493988078292
 20
374.8306768004602
 30
0.0
 11
191.8493988078292
 21
372.4973434671268
 31
0.0
 12
184.8493988078292
 22
373.6640101337934
 32
0.0
 13
184.8493988078292
 23
373.6640101337934
 33
0.0
  0
SOLID
  5
E26
330
E21
100
AcDbEntity
  8
BEM
 62
     0
100
AcDbTrace
 10
250.8493988078292
 20
374.8306768004602
 30
0.0
 11
250.8493988078292
 21
372.4973434671268
 31
0.0
 12
257.8493988078292
 22
373.6640101337934
 32
0.0
 13
257.8493988078292
 23
373.6640101337934
 33
0.0
  0
MTEXT
  5
E27
330
E21
100
AcDbEntity
  8
BEM
 62
     1
100
AcDbMText
 10
221.3493988078292
 20
380.1640101337934
 30
0.0
 40
7.0
 41
0.0
 71
     5
 72
     1
  1
\A1;%%c73
 73
     1
 44
1.0
  0
POINT
  5
E28
330
E21
100
AcDbEntity
  8
DEFPOINTS
 62
     0
100
AcDbPoint
 10
184.8493988078292
 20
407.3393388257829
 30
0.0
  0
POINT
  5
E29
330
E21
100
AcDbEntity
  8
DEFPOINTS
 62
     0
100
AcDbPoint
 10
257.8493988078292
 20
407.3393388257829
 30
0.0
  0
POINT
  5
E2A
330
E21
100
AcDbEntity
  8
DEFPOINTS
 62
     0
100
AcDbPoint
 10
257.8493988078292
 20
373.6640101337934
 30
0.0
  0
ENDBLK
  5
E2C
330
E21
100
AcDbEntity
  8
0
100
AcDbBlockEnd
  0
BLOCK
  5
F02
330
EF6
100
AcDbEntity
  8
0
100
AcDbBlockBegin
  2
*D4
 70
     1
 10
0.0
 20
0.0
 30
0.0
  3
*D4
  1

  0
LINE
  5
1185
330
EF6
100
AcDbEntity
  8
BEM
 62
     0
370
    -2
100
AcDbLine
 10
333.8493988078292
 20
646.0110874246367
 30
0.0
 11
353.3777350997115
 21
646.0110874246367
 31
0.0
  0
LINE
  5
1186
330
EF6
100
AcDbEntity
  8
BEM
 62
     0
370
    -2
100
AcDbLine
 10
284.3493988078293
 20
648.0110874246368
 30
0.0
 11
353.3777350997115
 21
648.0110874246368
 31
0.0
  0
LINE
  5
1187
330
EF6
100
AcDbEntity
  8
BEM
 62
     0
370
    -2
100
AcDbLine
 10
351.3777350997115
 20
639.0110874246367
 30
0.0
 11
351.3777350997115
 21
632.0110874246368
 31
0.0
  0
LINE
  5
1188
330
EF6
100
AcDbEntity
  8
BEM
 62
     0
370
    -2
100
AcDbLine
 10
351.3777350997115
 20
655.0110874246367
 30
0.0
 11
351.3777350997115
 21
671.7444207579701
 31
0.0
  0
LINE
  5
1189
330
EF6
100
AcDbEntity
  8
BEM
 62
     0
370
    -2
100
AcDbLine
 10
351.3777350997115
 20
646.0110874246367
 30
0.0
 11
351.3777350997115
 21
648.0110874246368
 31
0.0
  0
SOLID
  5
118A
330
EF6
100
AcDbEntity
  8
BEM
 62
     0
100
AcDbTrace
 10
350.2110684330448
 20
639.0110874246367
 30
0.0
 11
352.5444017663781
 21
639.0110874246367
 31
0.0
 12
351.3777350997115
 22
646.0110874246367
 32
0.0
 13
351.3777350997115
 23
646.0110874246367
 33
0.0
  0
SOLID
  5
118B
330
EF6
100
AcDbEntity
  8
BEM
 62
     0
100
AcDbTrace
 10
350.2110684330448
 20
655.0110874246367
 30
0.0
 11
352.5444017663782
 21
655.0110874246367
 31
0.0
 12
351.3777350997115
 22
648.0110874246368
 32
0.0
 13
351.3777350997115
 23
648.0110874246368
 33
0.0
  0
MTEXT
  5
118C
330
EF6
100
AcDbEntity
  8
BEM
 62
     1
100
AcDbMText
 10
344.8777350997114
 20
666.8777540913035
 30
0.0
 40
7.0
 41
0.0
 71
     5
 72
     1
  1
\A1;2
 11
0.0000000000000001
 21
1.0
 31
0.0
 73
     1
 44
1.0
  0
POINT
  5
118D
330
EF6
100
AcDbEntity
  8
DEFPOINTS
 62
     0
100
AcDbPoint
 10
331.8493988078292
 20
646.0110874246367
 30
0.0
  0
POINT
  5
118E
330
EF6
100
AcDbEntity
  8
DEFPOINTS
 62
     0
100
AcDbPoint
 10
282.3493988078292
 20
648.0110874246368
 30
0.0
  0
POINT
  5
118F
330
EF6
100
AcDbEntity
  8
DEFPOINTS
 62
     0
100
AcDbPoint
 10
351.3777350997115
 20
648.0110874246368
 30
0.0
  0
ENDBLK
  5
F03
330
EF6
100
AcDbEntity
  8
0
100
AcDbBlockEnd
  0
BLOCK
  5
FCD
330
FC3
100
AcDbEntity
  8
0
100
AcDbBlockBegin
  2
*D5
 70
     1
 10
0.0
 20
0.0
 30
0.0
  3
*D5
  1

  0
LINE
  5
1199
330
FC3
100
AcDbEntity
  8
BEM
 62
     0
370
    -2
100
AcDbLine
 10
110.8493988078292
 20
648.0110874246368
 30
0.0
 11
110.8493988078292
 21
681.6074598573465
 31
0.0
  0
LINE
  5
119A
330
FC3
100
AcDbEntity
  8
BEM
 62
     0
370
    -2
100
AcDbLine
 10
331.8493988078292
 20
648.0110874246368
 30
0.0
 11
331.8493988078292
 21
681.6074598573465
 31
0.0
  0
LINE
  5
119B
330
FC3
100
AcDbEntity
  8
BEM
 62
     0
370
    -2
100
AcDbLine
 10
117.8493988078292
 20
679.6074598573466
 30
0.0
 11
324.8493988078292
 21
679.6074598573466
 31
0.0
  0
SOLID
  5
119C
330
FC3
100
AcDbEntity
  8
BEM
 62
     0
100
AcDbTrace
 10
117.8493988078292
 20
680.7741265240132
 30
0.0
 11
117.8493988078292
 21
678.4407931906799
 31
0.0
 12
110.8493988078292
 22
679.6074598573466
 32
0.0
 13
110.8493988078292
 23
679.6074598573466
 33
0.0
  0
SOLID
  5
119D
330
FC3
100
AcDbEntity
  8
BEM
 62
     0
100
AcDbTrace
 10
324.8493988078292
 20
680.7741265240132
 30
0.0
 11
324.8493988078292
 21
678.4407931906799
 31
0.0
 12
331.8493988078292
 22
679.6074598573466
 32
0.0
 13
331.8493988078292
 23
679.6074598573466
 33
0.0
  0
MTEXT
  5
119E
330
FC3
100
AcDbEntity
  8
BEM
 62
     1
100
AcDbMText
 10
221.3493988078292
 20
686.1074598573466
 30
0.0
 40
7.0
 41
0.0
 71
     5
 72
     1
  1
\A1;%%C221
 73
     1
 44
1.0
  0
POINT
  5
119F
330
FC3
100
AcDbEntity
  8
DEFPOINTS
 62
     0
100
AcDbPoint
 10
110.8493988078292
 20
646.0110874246367
 30
0.0
  0
POINT
  5
11A0
330
FC3
100
AcDbEntity
  8
DEFPOINTS
 62
     0
100
AcDbPoint
 10
331.8493988078292
 20
646.0110874246367
 30
0.0
  0
POINT
  5
11A1
330
FC3
100
AcDbEntity
  8
DEFPOINTS
 62
     0
100
AcDbPoint
 10
331.8493988078292
 20
679.6074598573466
 30
0.0
  0
ENDBLK
  5
FCE
330
FC3
100
AcDbEntity
  8
0
100
AcDbBlockEnd
  0
BLOCK
  5
FEA
330
FE0
100
AcDbEntity
  8
0
100
AcDbBlockBegin
  2
*D6
 70
     1
 10
0.0
 20
0.0
 30
0.0
  3
*D6
  1

  0
LINE
  5
1190
330
FE0
100
AcDbEntity
  8
BEM
 62
     0
370
    -2
100
AcDbLine
 10
160.3493988078292
 20
650.0110874246367
 30
0.0
 11
160.3493988078292
 21
665.6074598573466
 31
0.0
  0
LINE
  5
1191
330
FE0
100
AcDbEntity
  8
BEM
 62
     0
370
    -2
100
AcDbLine
 10
282.3493988078292
 20
650.0110874246368
 30
0.0
 11
282.3493988078292
 21
665.6074598573466
 31
0.0
  0
LINE
  5
1192
330
FE0
100
AcDbEntity
  8
BEM
 62
     0
370
    -2
100
AcDbLine
 10
167.3493988078292
 20
663.6074598573466
 30
0.0
 11
275.3493988078292
 21
663.6074598573466
 31
0.0
  0
SOLID
  5
1193
330
FE0
100
AcDbEntity
  8
BEM
 62
     0
100
AcDbTrace
 10
167.3493988078292
 20
664.7741265240132
 30
0.0
 11
167.3493988078292
 21
662.44079319068
 31
0.0
 12
160.3493988078292
 22
663.6074598573466
 32
0.0
 13
160.3493988078292
 23
663.6074598573466
 33
0.0
  0
SOLID
  5
1194
330
FE0
100
AcDbEntity
  8
BEM
 62
     0
100
AcDbTrace
 10
275.3493988078292
 20
664.7741265240132
 30
0.0
 11
275.3493988078292
 21
662.44079319068
 31
0.0
 12
282.3493988078292
 22
663.6074598573466
 32
0.0
 13
282.3493988078292
 23
663.6074598573466
 33
0.0
  0
MTEXT
  5
1195
330
FE0
100
AcDbEntity
  8
BEM
 62
     1
100
AcDbMText
 10
221.3493988078292
 20
670.1074598573466
 30
0.0
 40
7.0
 41
0.0
 71
     5
 72
     1
  1
\A1;%%C122
 73
     1
 44
1.0
  0
POINT
  5
1196
330
FE0
100
AcDbEntity
  8
DEFPOINTS
 62
     0
100
AcDbPoint
 10
160.3493988078292
 20
648.0110874246366
 30
0.0
  0
POINT
  5
1197
330
FE0
100
AcDbEntity
  8
DEFPOINTS
 62
     0
100
AcDbPoint
 10
282.3493988078292
 20
648.0110874246368
 30
0.0
  0
POINT
  5
1198
330
FE0
100
AcDbEntity
  8
DEFPOINTS
 62
     0
100
AcDbPoint
 10
282.3493988078292
 20
663.6074598573466
 30
0.0
  0
ENDBLK
  5
FEB
330
FE0
100
AcDbEntity
  8
0
100
AcDbBlockEnd
  0
BLOCK
  5
10AB
330
109F
100
AcDbEntity
  8
0
100
AcDbBlockBegin
  2
*D7
 70
     1
 10
0.0
 20
0.0
 30
0.0
  3
*D7
  1

  0
LINE
  5
10A0
330
109F
100
AcDbEntity
  8
BEM
 62
     0
370
    -2
100
AcDbLine
 10
108.8493988078292
 20
644.0110874246368
 30
0.0
 11
96.84117882846415
 21
644.0110874246368
 31
0.0
  0
LINE
  5
10A1
330
109F
100
AcDbEntity
  8
BEM
 62
     0
370
    -2
100
AcDbLine
 10
108.8493988078292
 20
646.0110874246367
 30
0.0
 11
96.84117882846415
 21
646.0110874246367
 31
0.0
  0
LINE
  5
10A2
330
109F
100
AcDbEntity
  8
BEM
 62
     0
370
    -2
100
AcDbLine
 10
98.84117882846414
 20
637.0110874246368
 30
0.0
 11
98.84117882846414
 21
630.0110874246367
 31
0.0
  0
LINE
  5
10A3
330
109F
100
AcDbEntity
  8
BEM
 62
     0
370
    -2
100
AcDbLine
 10
98.84117882846414
 20
653.0110874246368
 30
0.0
 11
98.84117882846414
 21
669.7444207579701
 31
0.0
  0
LINE
  5
10A4
330
109F
100
AcDbEntity
  8
BEM
 62
     0
370
    -2
100
AcDbLine
 10
98.84117882846414
 20
644.0110874246368
 30
0.0
 11
98.84117882846414
 21
646.0110874246367
 31
0.0
  0
SOLID
  5
10A5
330
109F
100
AcDbEntity
  8
BEM
 62
     0
100
AcDbTrace
 10
97.67451216179747
 20
637.0110874246368
 30
0.0
 11
100.0078454951308
 21
637.0110874246368
 31
0.0
 12
98.84117882846414
 22
644.0110874246368
 32
0.0
 13
98.84117882846414
 23
644.0110874246368
 33
0.0
  0
SOLID
  5
10A6
330
109F
100
AcDbEntity
  8
BEM
 62
     0
100
AcDbTrace
 10
97.67451216179747
 20
653.0110874246368
 30
0.0
 11
100.0078454951308
 21
653.0110874246368
 31
0.0
 12
98.84117882846414
 22
646.0110874246367
 32
0.0
 13
98.84117882846414
 23
646.0110874246367
 33
0.0
  0
MTEXT
  5
10A7
330
109F
100
AcDbEntity
  8
BEM
 62
     1
100
AcDbMText
 10
92.34117882846403
 20
664.8777540913035
 30
0.0
 40
7.0
 41
0.0
 71
     5
 72
     1
  1
\A1;2
 11
0.0000000000000001
 21
1.0
 31
0.0
 73
     1
 44
1.0
  0
POINT
  5
10A8
330
109F
100
AcDbEntity
  8
DEFPOINTS
 62
     0
100
AcDbPoint
 10
110.8493988078292
 20
644.0110874246368
 30
0.0
  0
POINT
  5
10A9
330
109F
100
AcDbEntity
  8
DEFPOINTS
 62
     0
100
AcDbPoint
 10
110.8493988078292
 20
646.0110874246367
 30
0.0
  0
POINT
  5
10AA
330
109F
100
AcDbEntity
  8
DEFPOINTS
 62
     0
100
AcDbPoint
 10
98.84117882846414
 20
646.0110874246367
 30
0.0
  0
ENDBLK
  5
10AC
330
109F
100
AcDbEntity
  8
0
100
AcDbBlockEnd
  0
ENDSEC
  0
SECTION
  2
ENTITIES
  0
TEXT
  5
305
330
20
100
AcDbEntity
  8
TEXT
 62
     1
100
AcDbText
 10
507.0058791601468
 20
654.979117340995
 30
0.0
 40
7.0
  1
Direktablauf DN70
 50
90.0
 41
0.8
  7
GREEKS
100
AcDbText
  0
LINE
  5
306
330
20
100
AcDbEntity
  8
STEMPEL
100
AcDbLine
 10
484.0
 20
830.0
 30
0.0
 11
484.0
 21
470.0
 31
0.0
  0
LINE
  5
307
330
20
100
AcDbEntity
  8
STEMPEL
100
AcDbLine
 10
484.0
 20
470.0
 30
0.0
 11
584.0
 21
469.9999999999999
 31
0.0
  0
LINE
  5
308
330
20
100
AcDbEntity
  8
STEMPEL
100
AcDbLine
 10
484.0000000000001
 20
566.0000000000001
 30
0.0
 11
584.0000000000001
 21
565.9999999999999
 31
0.0
  0
LINE
  5
309
330
20
100
AcDbEntity
  8
STEMPEL
100
AcDbLine
 10
484.0
 20
649.9999999999999
 30
0.0
 11
584.0
 21
649.9999999999999
 31
0.0
  0
LINE
  5
30A
330
20
100
AcDbEntity
  8
STEMPEL
100
AcDbLine
 10
484.0000000000003
 20
752.0000000000001
 30
0.0
 11
554.0
 21
752.0000000000001
 31
0.0
  0
LINE
  5
30B
330
20
100
AcDbEntity
  8
STEMPEL
100
AcDbLine
 10
564.0
 20
565.9999999999999
 30
0.0
 11
564.0
 21
469.9999999999999
 31
0.0
  0
LINE
  5
30C
330
20
100
AcDbEntity
  8
STEMPEL
100
AcDbLine
 10
554.0
 20
830.0
 30
0.0
 11
554.0
 21
565.9999999999999
 31
0.0
  0
LINE
  5
30D
330
20
100
AcDbEntity
  8
STEMPEL
100
AcDbLine
 10
514.0
 20
830.0
 30
0.0
 11
514.0
 21
566.0000000000001
 31
0.0
  0
LINE
  5
30E
330
20
100
AcDbEntity
  8
VOLL
100
AcDbLine
 10
484.0
 20
484.0
 30
0.0
 11
584.0
 21
483.9999999999998
 31
0.0
  0
LINE
  5
30F
330
20
100
AcDbEntity
  8
VOLL
100
AcDbLine
 10
484.0
 20
524.0000000000001
 30
0.0
 11
584.0
 21
523.9999999999999
 31
0.0
  0
LINE
  5
310
330
20
100
AcDbEntity
  8
VOLL
100
AcDbLine
 10
484.0000000000001
 20
544.0000000000001
 30
0.0
 11
584.0000000000001
 21
543.9999999999998
 31
0.0
  0
LINE
  5
311
330
20
100
AcDbEntity
  8
VOLL
100
AcDbLine
 10
514.0
 20
584.0000000000001
 30
0.0
 11
554.0
 21
584.0000000000001
 31
0.0
  0
LINE
  5
312
330
20
100
AcDbEntity
  8
VOLL
100
AcDbLine
 10
484.0000000000001
 20
610.0000000000001
 30
0.0
 11
554.0
 21
609.9999999999998
 31
0.0
  0
LINE
  5
313
330
20
100
AcDbEntity
  8
HILF
100
AcDbLine
 10
494.0
 20
470.0
 30
0.0
 11
494.0
 21
566.0000000000001
 31
0.0
  0
LINE
  5
314
330
20
100
AcDbEntity
  8
HILF
100
AcDbLine
 10
504.0
 20
470.0
 30
0.0
 11
504.0
 21
566.0000000000001
 31
0.0
  0
LINE
  5
315
330
20
100
AcDbEntity
  8
HILF
100
AcDbLine
 10
514.0
 20
470.0
 30
0.0
 11
514.0
 21
566.0000000000001
 31
0.0
  0
LINE
  5
316
330
20
100
AcDbEntity
  8
HILF
100
AcDbLine
 10
524.0
 20
470.0
 30
0.0
 11
524.0
 21
566.0000000000001
 31
0.0
  0
LINE
  5
317
330
20
100
AcDbEntity
  8
HILF
100
AcDbLine
 10
534.0
 20
470.0
 30
0.0
 11
534.0
 21
566.0000000000001
 31
0.0
  0
LINE
  5
318
330
20
100
AcDbEntity
  8
HILF
100
AcDbLine
 10
544.0
 20
470.0
 30
0.0
 11
544.0
 21
566.0000000000001
 31
0.0
  0
LINE
  5
319
330
20
100
AcDbEntity
  8
HILF
100
AcDbLine
 10
554.0
 20
470.0
 30
0.0
 11
554.0
 21
566.0000000000001
 31
0.0
  0
LINE
  5
31A
330
20
100
AcDbEntity
  8
HILF
100
AcDbLine
 10
524.0
 20
566.0000000000001
 30
0.0
 11
524.0
 21
649.9999999999999
 31
0.0
  0
LINE
  5
31B
330
20
100
AcDbEntity
  8
HILF
100
AcDbLine
 10
534.0
 20
566.0000000000001
 30
0.0
 11
534.0
 21
649.9999999999999
 31
0.0
  0
LINE
  5
31C
330
20
100
AcDbEntity
  8
HILF
100
AcDbLine
 10
544.0
 20
566.0000000000001
 30
0.0
 11
544.0
 21
649.9999999999999
 31
0.0
  0
LINE
  5
31D
330
20
100
AcDbEntity
  8
HILF
100
AcDbLine
 10
509.9624175243587
 20
654.7736801096947
 30
0.0
 11
509.9624175243587
 21
746.629784251481
 31
0.0
  0
LINE
  5
31E
330
20
100
AcDbEntity
  8
HILF
100
AcDbLine
 10
524.0
 20
654.7736801096947
 30
0.0
 11
524.0
 21
746.629784251481
 31
0.0
  0
LINE
  5
31F
330
20
100
AcDbEntity
  8
HILF
100
AcDbLine
 10
534.0
 20
654.7736801096947
 30
0.0
 11
534.0
 21
746.629784251481
 31
0.0
  0
LINE
  5
320
330
20
100
AcDbEntity
  8
HILF
100
AcDbLine
 10
544.0
 20
654.7736801096947
 30
0.0
 11
544.0
 21
746.629784251481
 31
0.0
  0
LINE
  5
321
330
20
100
AcDbEntity
  8
VOLL
100
AcDbLine
 10
534.0
 20
752.0000000000001
 30
0.0
 11
534.0
 21
830.0
 31
0.0
  0
LINE
  5
322
330
20
100
AcDbEntity
  8
HILF
100
AcDbLine
 10
510.2201636304418
 20
756.7238616296994
 30
0.0
 11
510.2201636304418
 21
824.8588839326728
 31
0.0
  0
LINE
  5
323
330
20
100
AcDbEntity
  8
HILF
100
AcDbLine
 10
579.1060174197169
 20
654.7736801096947
 30
0.0
 11
579.1060174197169
 21
824.8588839326728
 31
0.0
  0
TEXT
  5
324
330
20
100
AcDbEntity
  8
BEM
100
AcDbText
 10
574.9516696789483
 20
493.6591995635328
 30
0.0
 40
4.0
  1
Änderung
 50
90.0
 41
0.8
  7
GREEKS
 72
     4
 11
573.2373839646627
 21
504.40205670639
 31
0.0
100
AcDbText
  0
TEXT
  5
325
330
20
100
AcDbEntity
  8
BEM
100
AcDbText
 10
491.5379104912911
 20
573.5163572150375
 30
0.0
 40
5.0
  1
Maßstab
 50
90.0
 41
0.8
  7
GREEKS
100
AcDbText
  0
TEXT
  5
326
330
20
100
AcDbEntity
  8
BEM
100
AcDbText
 10
491.5815831565181
 20
617.9646614905597
 30
0.0
 40
5.0
  1
zul.Abw
 50
90.0
 41
0.8
  7
GREEKS
100
AcDbText
  0
TEXT
  5
327
330
20
100
AcDbEntity
  8
BEM
100
AcDbText
 10
491.4510671988221
 20
654.8779403809009
 30
0.0
 40
5.0
  1
Benennung
 50
90.0
 41
0.8
  7
GREEKS
100
AcDbText
  0
TEXT
  5
328
330
20
100
AcDbEntity
  8
BEM
100
AcDbText
 10
491.6867965462863
 20
756.1787549576341
 30
0.0
 40
5.0
  1
Zeichnungs Nr.
 50
90.0
 41
0.8
  7
GREEKS
100
AcDbText
  0
TEXT
  5
329
330
20
100
AcDbEntity
  8
BEM
100
AcDbText
 10
563.1543942980694
 20
654.7422383911358
 30
0.0
 40
5.0
  1
Bauvorhaben
 50
90.0
 41
0.8
  7
GREEKS
100
AcDbText
  0
TEXT
  5
32A
330
20
100
AcDbEntity
  8
BEM
100
AcDbText
 10
520.8188176290003
 20
756.7238616296994
 30
0.0
 40
5.0
  1
Ersatz für:
 50
90.0
 41
0.8
  7
GREEKS
100
AcDbText
  0
TEXT
  5
32B
330
20
100
AcDbEntity
  8
BEM
100
AcDbText
 10
580.3453415397281
 20
478.2664110704574
 30
0.0
 40
3.6
  1
Index
 50
180.0
 41
0.8
  7
GREEKS
100
AcDbText
  0
TEXT
  5
32E
330
20
100
AcDbEntity
  8
BEM
100
AcDbText
 10
520.6811949877008
 20
592.3311673153649
 30
0.0
 40
3.6
  1
Tag
 50
90.0
 41
0.8
  7
GREEKS
100
AcDbText
  0
TEXT
  5
32F
330
20
100
AcDbEntity
  8
BEM
100
AcDbText
 10
520.6903890808478
 20
622.4626584226294
 30
0.0
 40
3.6
  1
Name
 50
90.0
 41
0.8
  7
GREEKS
100
AcDbText
  0
TEXT
  5
330
330
20
100
AcDbEntity
  8
BEM
100
AcDbText
 10
530.3700963038204
 20
567.5836127167614
 30
0.0
 40
3.6
  1
Gez.
 50
90.0
 41
0.8
  7
GREEKS
100
AcDbText
  0
TEXT
  5
331
330
20
100
AcDbEntity
  8
BEM
100
AcDbText
 10
540.3107370857163
 20
567.5515086571671
 30
0.0
 40
3.6
  1
Gepr.
 50
90.0
 41
0.8
  7
GREEKS
100
AcDbText
  0
TEXT
  5
332
330
20
100
AcDbEntity
  8
BEM
100
AcDbText
 10
550.470536103502
 20
567.6006777387303
 30
0.0
 40
3.6
  1
Norm.
 50
90.0
 41
0.8
  7
GREEKS
100
AcDbText
  0
TEXT
  5
333
330
20
100
AcDbEntity
  8
BEM
100
AcDbText
 10
530.497467412491
 20
625.1121860477743
 30
0.0
 40
3.6
  1
Koeh
 50
90.0
 41
0.8
  7
GREEKS
 72
     1
 11
530.497467412491
 21
629.8436146192028
 31
0.0
100
AcDbText
  0
TEXT
  5
334
330
20
100
AcDbEntity
  8
BEM
100
AcDbText
 10
541.925838221214
 20
757.2400861497007
 30
0.0
 40
5.0
  1
ersetzt durch:
 50
90.0
 41
0.8
  7
GREEKS
100
AcDbText
  0
LINE
  5
335
330
20
100
AcDbEntity
  8
HILF
100
AcDbLine
 10
594.0
 20
0.0
 30
0.0
 11
594.0
 21
840.0000000000002
 31
0.0
  0
LINE
  5
336
330
20
100
AcDbEntity
  8
HILF
100
AcDbLine
 10
594.0
 20
840.0000000000002
 30
0.0
 11
0.0
 21
840.0000000000002
 31
0.0
  0
LINE
  5
337
330
20
100
AcDbEntity
  8
HILF
100
AcDbLine
 10
0.0
 20
840.0000000000002
 30
0.0
 11
0.0
 21
0.0
 31
0.0
  0
LINE
  5
338
330
20
100
AcDbEntity
  8
HILF
100
AcDbLine
 10
0.0
 20
0.0
 30
0.0
 11
594.0
 21
0.0
 31
0.0
  0
LINE
  5
339
330
20
100
AcDbEntity
  8
STEMPEL
100
AcDbLine
 10
10.0
 20
830.0
 30
0.0
 11
10.0
 21
40.0
 31
0.0
  0
LINE
  5
33A
330
20
100
AcDbEntity
  8
STEMPEL
100
AcDbLine
 10
584.0
 20
40.0
 30
0.0
 11
584.0
 21
830.0
 31
0.0
  0
LINE
  5
33B
330
20
100
AcDbEntity
  8
STEMPEL
100
AcDbLine
 10
584.0
 20
830.0
 30
0.0
 11
10.0
 21
830.0
 31
0.0
  0
LINE
  5
33C
330
20
100
AcDbEntity
  8
STEMPEL
100
AcDbLine
 10
10.0
 20
40.0
 30
0.0
 11
584.0
 21
40.0
 31
0.0
  0
TEXT
  5
33D
330
20
100
AcDbEntity
  8
BEM
100
AcDbText
 10
520.8541631609584
 20
568.5426010951829
 30
0.0
 40
3.6
  1
2010
 50
90.0
 41
0.8
  7
GREEKS
100
AcDbText
  0
TEXT
  5
33E
330
20
100
AcDbEntity
  8
BEM
100
AcDbText
 10
530.594467646405
 20
590.4500884820464
 30
0.0
 40
3.6
  1
23.04.
 50
90.0
 41
0.8
  7
GREEKS
 72
     1
 11
530.594467646405
 21
596.7586599106178
 31
0.0
100
AcDbText
  0
TEXT
  5
33F
330
20
100
AcDbEntity
  8
TEXT
 62
     1
100
AcDbText
 10
507.7758949562678
 20
578.8064310364449
 30
0.0
 40
7.0
  1
1:2
 50
90.0
 41
0.8
  7
GREEKS
100
AcDbText
  0
TEXT
  5
340
330
20
100
AcDbEntity
  8
BEM
100
AcDbText
 10
521.703488726959
 20
654.862987254257
 30
0.0
 40
5.0
  1
senkrecht mit Stützflansch
 50
90.0
 41
0.8
  7
GREEKS
100
AcDbText
  0
TEXT
  5
341
330
20
100
AcDbEntity
  8
BEM
100
AcDbText
 10
541.2486885465454
 20
655.162303158329
 30
0.0
 40
5.0
  1
EDV-Art.Nr. 16110.070X
 50
90.0
 41
0.8
  7
GREEKS
100
AcDbText
  0
TEXT
  5
342
330
20
100
AcDbEntity
  8
BEM
100
AcDbText
 10
583.4462193823216
 20
836.4132055378062
 30
0.0
 40
3.6
  1
Diese Zeichnung ist urheberrechtlich geschuetzt und bleibt unser Eigentum. Sie darf weder ganz noch teilweise vervielfaeltigt und nicht an Dritte weitegegeben werden.
 50
180.0
  7
GREEKS
100
AcDbText
  0
TEXT
  5
343
330
20
100
AcDbEntity
  8
TEXT
 62
     1
100
AcDbText
 10
506.9813625823642
 20
767.971106150903
 30
0.0
 40
7.0
  1
16110070W
 50
90.0
 41
0.8
  7
GREEKS
 72
     1
 11
506.9813625823642
 21
790.3711061509031
 31
0.0
100
AcDbText
  0
TEXT
  5
344
330
20
100
AcDbEntity
  8
BEM
100
AcDbText
 10
551.8049542698645
 20
654.9713400534564
 30
0.0
 40
3.6
  1
16110070W.DWG
 50
90.0
 41
0.8
  7
GREEKS
100
AcDbText
  0
TEXT
  5
345
330
20
100
AcDbEntity
  8
BEM
100
AcDbText
 10
480.4045780774092
 20
470.2031266103855
 30
0.0
 40
5.0
  1
Erstellt mit AUTOCAD 2004
 50
90.0
 41
0.8
  7
GREEKS
100
AcDbText
  0
INSERT
  5
346
330
20
100
AcDbEntity
  8
STEMPEL
100
AcDbBlockReference
  2
LOGO
 10
549.6760802813285
 20
568.9705276546529
 30
0.0
 41
2.0
 42
2.0
 43
2.0
 50
90.0
  0
LINE
  5
347
330
20
100
AcDbEntity
  8
BEM
100
AcDbLine
 10
594.0
 20
460.0
 30
0.0
 11
584.0
 21
460.0
 31
0.0
  0
LINE
  5
348
330
20
100
AcDbEntity
  8
BEM
100
AcDbLine
 10
10.0
 20
460.0
 30
0.0
 11
0.0
 21
460.0
 31
0.0
  0
LINE
  5
34B
102
{ACAD_REACTORS
330
C32
102
}
330
20
100
AcDbEntity
  8
STEMPEL
100
AcDbLine
 10
282.3493988078292
 20
648.0110874246368
 30
0.0
 11
160.3493988078292
 21
648.0110874246366
 31
0.0
  0
LINE
  5
34C
330
20
100
AcDbEntity
  8
STEMPEL
100
AcDbLine
 10
257.4119554901997
 20
398.0110874246368
 30
0.0
 11
185.2868421254588
 21
398.0110874246368
 31
0.0
  0
LINE
  5
34D
102
{ACAD_REACTORS
330
C32
330
1015
102
}
330
20
100
AcDbEntity
  8
STEMPEL
100
AcDbLine
 10
267.9506623900518
 20
568.0110874246367
 30
0.0
 11
174.7481352256066
 21
568.0110874246367
 31
0.0
  0
LINE
  5
34E
102
{ACAD_REACTORS
330
C32
330
1116
102
}
330
20
100
AcDbEntity
  8
STEMPEL
100
AcDbLine
 10
160.3493988078292
 20
648.0110874246366
 30
0.0
 11
160.3493988078292
 21
636.0110874246368
 31
0.0
  0
LINE
  5
34F
102
{ACAD_REACTORS
330
C32
330
1116
102
}
330
20
100
AcDbEntity
  8
STEMPEL
100
AcDbLine
 10
282.3493988078292
 20
648.0110874246368
 30
0.0
 11
282.3493988078293
 21
636.0110874246368
 31
0.0
  0
LINE
  5
350
330
20
100
AcDbEntity
  8
STEMPEL
100
AcDbLine
 10
184.8493988078292
 20
542.2379377117241
 30
0.0
 11
184.8493988078292
 21
407.3393388257829
 31
0.0
  0
LINE
  5
351
330
20
100
AcDbEntity
  8
STEMPEL
100
AcDbLine
 10
257.8493988078292
 20
542.2379377117241
 30
0.0
 11
257.8493988078292
 21
407.3393388257829
 31
0.0
  0
LINE
  5
352
102
{ACAD_REACTORS
330
C32
330
11B0
102
}
330
20
100
AcDbEntity
  8
STEMPEL
100
AcDbLine
 10
280.3493988078292
 20
648.0110874246366
 30
0.0
 11
280.3493988078294
 21
611.8966851625765
 31
0.0
  0
LINE
  5
353
102
{ACAD_REACTORS
330
C32
330
11B0
102
}
330
20
100
AcDbEntity
  8
STEMPEL
100
AcDbLine
 10
162.3493988078292
 20
648.0110874246366
 30
0.0
 11
162.3493988078292
 21
611.8966851625765
 31
0.0
  0
LINE
  5
354
330
20
100
AcDbEntity
  8
STEMPEL
100
AcDbLine
 10
256.2493988078291
 20
542.2065933204904
 30
0.0
 11
256.2493988078293
 21
407.3393388257829
 31
0.0
  0
LINE
  5
355
330
20
100
AcDbEntity
  8
STEMPEL
100
AcDbLine
 10
186.4493988078291
 20
542.2065933204903
 30
0.0
 11
186.4493988078291
 21
407.3393388257829
 31
0.0
  0
LINE
  5
356
102
{ACAD_REACTORS
330
C32
102
}
330
20
100
AcDbEntity
  8
STEMPEL
100
AcDbLine
 10
265.8493988078292
 20
568.0110874246369
 30
0.0
 11
279.7710977336791
 21
608.216359953136
 31
0.0
  0
LINE
  5
357
102
{ACAD_REACTORS
330
C32
102
}
330
20
100
AcDbEntity
  8
STEMPEL
100
AcDbLine
 10
176.8493988078291
 20
568.011087424637
 30
0.0
 11
162.9276998819795
 21
608.2163599531361
 31
0.0
  0
LINE
  5
358
102
{ACAD_REACTORS
330
C32
330
1015
102
}
330
20
100
AcDbEntity
  8
STEMPEL
100
AcDbLine
 10
267.9506623900518
 20
568.0110874246367
 30
0.0
 11
281.6747142213207
 21
607.6029724182293
 31
0.0
  0
LINE
  5
359
102
{ACAD_REACTORS
330
C32
330
1015
102
}
330
20
100
AcDbEntity
  8
STEMPEL
100
AcDbLine
 10
174.7481352256066
 20
568.0110874246367
 30
0.0
 11
161.0240833943378
 21
607.6029724182292
 31
0.0
  0
LINE
  5
35B
330
20
100
AcDbEntity
  8
STEMPEL
100
AcDbLine
 10
257.3296481828767
 20
547.599184885688
 30
0.0
 11
265.8493988078292
 21
568.0110874246369
 31
0.0
  0
LINE
  5
35C
330
20
100
AcDbEntity
  8
STEMPEL
100
AcDbLine
 10
185.3691494327816
 20
547.5991848856879
 30
0.0
 11
176.8493988078291
 21
568.011087424637
 31
0.0
  0
LINE
  5
35D
102
{ACAD_REACTORS
330
1015
102
}
330
20
100
AcDbEntity
  8
STEMPEL
100
AcDbLine
 10
183.919627457522
 20
546.8693562464197
 30
0.0
 11
175.0746244559749
 21
568.0110874246369
 31
0.0
  0
LINE
  5
35E
102
{ACAD_REACTORS
330
1015
102
}
330
20
100
AcDbEntity
  8
STEMPEL
100
AcDbLine
 10
258.7791701581365
 20
546.8693562464197
 30
0.0
 11
267.6241731596835
 21
568.0110874246367
 31
0.0
  0
LINE
  5
35F
330
20
100
AcDbEntity
  8
HILF
100
AcDbLine
 10
254.9035585630003
 20
545.0110874246368
 30
0.0
 11
187.7952390526579
 21
545.0110874246369
 31
0.0
  0
LINE
  5
361
330
20
100
AcDbEntity
  8
STEMPEL
100
AcDbLine
 10
184.8493988078292
 20
407.3393388257829
 30
0.0
 11
185.2868421254588
 21
398.0110874246368
 31
0.0
  0
LINE
  5
362
330
20
100
AcDbEntity
  8
STEMPEL
100
AcDbLine
 10
186.4493988078291
 20
407.3393388257829
 30
0.0
 11
186.8868421254588
 21
398.0110874246368
 31
0.0
  0
LINE
  5
363
330
20
100
AcDbEntity
  8
STEMPEL
100
AcDbLine
 10
256.2493988078293
 20
407.3393388257829
 30
0.0
 11
255.8119554901996
 21
398.0110874246368
 31
0.0
  0
LINE
  5
364
330
20
100
AcDbEntity
  8
STEMPEL
100
AcDbLine
 10
257.8493988078292
 20
407.3393388257829
 30
0.0
 11
257.4119554901997
 21
398.0110874246368
 31
0.0
  0
LINE
  5
365
330
20
100
AcDbEntity
  8
HILF
100
AcDbLine
 10
254.8908894872771
 20
407.3393388257829
 30
0.0
 11
187.931666064668
 21
407.3393388257829
 31
0.0
  0
LINE
  5
366
102
{ACAD_REACTORS
330
1116
102
}
330
20
100
AcDbEntity
  8
STEMPEL
100
AcDbLine
 10
331.8493988078292
 20
646.0110874246367
 30
0.0
 11
282.3493988078292
 21
646.0110874246367
 31
0.0
  0
LINE
  5
367
102
{ACAD_REACTORS
330
1116
102
}
330
20
100
AcDbEntity
  8
STEMPEL
100
AcDbLine
 10
331.8493988078292
 20
644.0110874246368
 30
0.0
 11
290.3493988078293
 21
644.0110874246369
 31
0.0
  0
LINE
  5
368
102
{ACAD_REACTORS
330
1116
102
}
330
20
100
AcDbEntity
  8
STEMPEL
100
AcDbLine
 10
152.3493988078292
 20
644.0110874246366
 30
0.0
 11
110.8493988078292
 21
644.0110874246368
 31
0.0
  0
LINE
  5
369
102
{ACAD_REACTORS
330
1116
102
}
330
20
100
AcDbEntity
  8
STEMPEL
100
AcDbLine
 10
160.3493988078292
 20
646.0110874246367
 30
0.0
 11
110.8493988078292
 21
646.0110874246367
 31
0.0
  0
LINE
  5
36A
102
{ACAD_REACTORS
330
1116
102
}
330
20
100
AcDbEntity
  8
STEMPEL
100
AcDbLine
 10
110.8493988078292
 20
646.0110874246367
 30
0.0
 11
110.8493988078292
 21
644.0110874246368
 31
0.0
  0
LINE
  5
36B
102
{ACAD_REACTORS
330
1116
102
}
330
20
100
AcDbEntity
  8
STEMPEL
100
AcDbLine
 10
331.8493988078292
 20
646.0110874246367
 30
0.0
 11
331.8493988078292
 21
644.0110874246368
 31
0.0
  0
LINE
  5
36C
102
{ACAD_REACTORS
330
1116
102
}
330
20
100
AcDbEntity
  8
STEMPEL
100
AcDbLine
 10
284.3493988078293
 20
638.0110874246369
 30
0.0
 11
284.3493988078293
 21
636.0110874246368
 31
0.0
  0
LINE
  5
36D
102
{ACAD_REACTORS
330
1116
330
11B0
102
}
330
20
100
AcDbEntity
  8
STEMPEL
100
AcDbLine
 10
284.3493988078293
 20
636.0110874246368
 30
0.0
 11
280.3493988078292
 21
636.0110874246368
 31
0.0
  0
ARC
  5
36E
102
{ACAD_REACTORS
330
1116
102
}
330
20
100
AcDbEntity
  8
STEMPEL
100
AcDbCircle
 10
290.3493988078293
 20
638.0110874246369
 30
0.0
 40
6.0
100
AcDbArc
 50
89.99999999999991
 51
180.0
  0
ARC
  5
36F
102
{ACAD_REACTORS
330
1116
102
}
330
20
100
AcDbEntity
  8
STEMPEL
100
AcDbCircle
 10
290.3493988078293
 20
638.0110874246369
 30
0.0
 40
8.0
100
AcDbArc
 50
89.99999999999991
 51
180.0
  0
LINE
  5
370
102
{ACAD_REACTORS
330
1116
102
}
330
20
100
AcDbEntity
  8
STEMPEL
100
AcDbLine
 10
158.3493988078292
 20
638.0110874246367
 30
0.0
 11
158.3493988078292
 21
636.0110874246368
 31
0.0
  0
LINE
  5
371
102
{ACAD_REACTORS
330
1116
330
11B0
102
}
330
20
100
AcDbEntity
  8
STEMPEL
100
AcDbLine
 10
162.3493988078292
 20
636.0110874246368
 30
0.0
 11
158.3493988078292
 21
636.0110874246368
 31
0.0
  0
ARC
  5
372
102
{ACAD_REACTORS
330
1116
102
}
330
20
100
AcDbEntity
  8
STEMPEL
100
AcDbCircle
 10
152.3493988078292
 20
638.0110874246367
 30
0.0
 40
6.0
100
AcDbArc
 50
0.0
 51
90.0
  0
ARC
  5
373
102
{ACAD_REACTORS
330
1116
102
}
330
20
100
AcDbEntity
  8
STEMPEL
100
AcDbCircle
 10
152.3493988078292
 20
638.0110874246367
 30
0.0
 40
8.0
100
AcDbArc
 50
0.0
 51
90.0
  0
LINE
  5
374
102
{ACAD_REACTORS
330
C32
102
}
330
20
100
AcDbEntity
  8
STEMPEL
100
AcDbLine
 10
282.3493988078292
 20
640.0110874246368
 30
0.0
 11
278.3493988078293
 21
640.0110874246368
 31
0.0
  0
LINE
  5
375
102
{ACAD_REACTORS
330
C32
330
11B0
102
}
330
20
100
AcDbEntity
  8
STEMPEL
100
AcDbLine
 10
282.3493988078292
 20
633.0110874246368
 30
0.0
 11
278.3493988078293
 21
633.0110874246368
 31
0.0
  0
LINE
  5
376
102
{ACAD_REACTORS
330
C32
102
}
330
20
100
AcDbEntity
  8
STEMPEL
100
AcDbLine
 10
164.3493988078292
 20
640.0110874246366
 30
0.0
 11
164.3493988078292
 21
633.0110874246367
 31
0.0
  0
LINE
  5
377
102
{ACAD_REACTORS
330
C32
330
11B0
102
}
330
20
100
AcDbEntity
  8
STEMPEL
100
AcDbLine
 10
160.3493988078292
 20
633.0110874246367
 30
0.0
 11
160.3493988078292
 21
611.8966851625765
 31
0.0
  0
LINE
  5
378
102
{ACAD_REACTORS
330
C32
102
}
330
20
100
AcDbEntity
  8
STEMPEL
100
AcDbLine
 10
278.3493988078293
 20
640.0110874246368
 30
0.0
 11
278.3493988078293
 21
633.0110874246368
 31
0.0
  0
LINE
  5
379
102
{ACAD_REACTORS
330
C32
330
11B0
102
}
330
20
100
AcDbEntity
  8
STEMPEL
100
AcDbLine
 10
282.3493988078293
 20
633.0110874246368
 30
0.0
 11
282.3493988078293
 21
611.8966851625765
 31
0.0
  0
ARC
  5
37A
330
20
100
AcDbEntity
  8
STEMPEL
100
AcDbCircle
 10
221.3493988078292
 20
191.5222837483721
 30
0.0
 40
35.2
100
AcDbArc
 50
302.4423210714412
 51
57.5576789285588
  0
LINE
  5
37E
330
20
100
AcDbEntity
  8
MITTEL
100
AcDbLine
 10
221.3493988078292
 20
307.0222837483722
 30
0.0
 11
221.3493988078292
 21
76.02228374837216
 31
0.0
  0
LINE
  5
37F
330
20
100
AcDbEntity
  8
MITTEL
100
AcDbLine
 10
336.8493988078292
 20
191.5222837483721
 30
0.0
 11
105.8493988078292
 21
191.5222837483721
 31
0.0
  0
LINE
  5
380
330
20
100
AcDbEntity
  8
VERDECKT
100
AcDbLine
 10
280.3493988078292
 20
176.0303503635426
 30
0.0
 11
280.3493988078292
 21
207.0142171332018
 31
0.0
  0
LINE
  5
381
330
20
100
AcDbEntity
  8
STEMPEL
100
AcDbLine
 10
278.3493988078292
 20
176.2907375366442
 30
0.0
 11
278.3493988078292
 21
206.7538299600998
 31
0.0
  0
LINE
  5
382
330
20
100
AcDbEntity
  8
VERDECKT
100
AcDbLine
 10
162.3493988078292
 20
176.0303503635425
 30
0.0
 11
162.3493988078292
 21
207.0142171332018
 31
0.0
  0
LINE
  5
383
330
20
100
AcDbEntity
  8
STEMPEL
100
AcDbLine
 10
164.3493988078292
 20
176.2907375366443
 30
0.0
 11
164.3493988078292
 21
206.7538299600999
 31
0.0
  0
LINE
  5
384
330
20
100
AcDbEntity
  8
VERDECKT
100
AcDbLine
 10
205.8574654229995
 20
250.5222837483722
 30
0.0
 11
236.841332192659
 21
250.5222837483722
 31
0.0
  0
LINE
  5
385
330
20
100
AcDbEntity
  8
STEMPEL
100
AcDbLine
 10
206.1178525961014
 20
248.5222837483722
 30
0.0
 11
236.5809450195571
 21
248.5222837483722
 31
0.0
  0
LINE
  5
386
330
20
100
AcDbEntity
  8
HILF
100
AcDbLine
 10
236.5809450195571
 20
635.0110874246368
 30
0.0
 11
236.5809450195571
 21
640.0110874246368
 31
0.0
  0
LINE
  5
387
330
20
100
AcDbEntity
  8
HILF
100
AcDbLine
 10
206.1178525961014
 20
633.0110874246367
 30
0.0
 11
206.1178525961014
 21
640.0110874246368
 31
0.0
  0
LINE
  5
388
330
20
100
AcDbEntity
  8
STEMPEL
100
AcDbLine
 10
252.1389014741058
 20
640.0110874246368
 30
0.0
 11
246.0408252627526
 21
640.0110874246366
 31
0.0
  0
LINE
  5
389
330
20
100
AcDbEntity
  8
STEMPEL
100
AcDbLine
 10
236.0408252627526
 20
633.0110874246367
 30
0.0
 11
206.1178525961014
 21
633.0110874246368
 31
0.0
  0
LINE
  5
38A
102
{ACAD_REACTORS
330
C32
102
}
330
20
100
AcDbEntity
  8
STEMPEL
100
AcDbLine
 10
164.3493988078292
 20
640.0110874246366
 30
0.0
 11
160.3493988078292
 21
640.0110874246366
 31
0.0
  0
LINE
  5
38B
102
{ACAD_REACTORS
330
C32
330
11B0
102
}
330
20
100
AcDbEntity
  8
STEMPEL
100
AcDbLine
 10
164.3493988078292
 20
633.0110874246367
 30
0.0
 11
160.3493988078292
 21
633.0110874246367
 31
0.0
  0
LINE
  5
38C
330
20
100
AcDbEntity
  8
STEMPEL
100
AcDbLine
 10
236.0408252627526
 20
219.9685808039608
 30
0.0
 11
249.5408252627525
 21
243.3512667061407
 31
0.0
  0
LINE
  5
38D
330
20
100
AcDbEntity
  8
STEMPEL
100
AcDbLine
 10
238.6389014741058
 20
218.4685808039608
 30
0.0
 11
252.1389014741058
 21
241.8512667061406
 31
0.0
  0
LINE
  5
38E
330
20
100
AcDbEntity
  8
STEMPEL
100
AcDbLine
 10
249.5408252627525
 20
243.3512667061407
 30
0.0
 11
252.1389014741058
 21
241.8512667061406
 31
0.0
  0
LINE
  5
38F
330
20
100
AcDbEntity
  8
STEMPEL
100
AcDbLine
 10
236.0408252627523
 20
219.9685808039609
 30
0.0
 11
238.6389014741056
 21
218.4685808039609
 31
0.0
  0
LINE
  5
390
330
20
100
AcDbEntity
  8
STEMPEL
100
AcDbLine
 10
246.0408252627524
 20
237.2890888796496
 30
0.0
 11
248.6389014741058
 21
235.7890888796495
 31
0.0
  0
LINE
  5
391
330
20
100
AcDbEntity
  8
STEMPEL
100
AcDbLine
 10
239.0408252627524
 20
225.1647332266675
 30
0.0
 11
241.6389014741057
 21
223.6647332266675
 31
0.0
  0
LINE
  5
392
330
20
100
AcDbEntity
  8
VERDECKT
100
AcDbLine
 10
248.5408252627524
 20
241.6192158985717
 30
0.0
 11
251.1389014741058
 21
240.1192158985717
 31
0.0
  0
ARC
  5
393
330
20
100
AcDbEntity
  8
STEMPEL
100
AcDbCircle
 10
221.3493988078292
 20
191.5222837483721
 30
0.0
 40
35.2
100
AcDbArc
 50
62.44232107144114
 51
297.5576789285589
  0
POINT
  5
395
330
20
100
AcDbEntity
  8
DEFPOINTS
  6
ByBlock
 62
     0
100
AcDbPoint
 10
326.2964318341507
 20
191.5222837483721
 30
0.0
  0
POINT
  5
396
330
20
100
AcDbEntity
  8
DEFPOINTS
  6
ByBlock
 62
     0
100
AcDbPoint
 10
236.0408252627526
 20
219.9685808039608
 30
0.0
  0
POINT
  5
397
330
20
100
AcDbEntity
  8
DEFPOINTS
  6
ByBlock
 62
     0
100
AcDbPoint
 10
249.5408252627525
 20
243.3512667061407
 30
0.0
  0
POINT
  5
398
330
20
100
AcDbEntity
  8
DEFPOINTS
  6
ByBlock
 62
     0
100
AcDbPoint
 10
115.2029711500887
 20
191.5222837483721
 30
0.0
  0
POINT
  5
399
330
20
100
AcDbEntity
  8
DEFPOINTS
  6
ByBlock
 62
     0
100
AcDbPoint
 10
280.3493988078292
 20
191.5222837483721
 30
0.0
  0
POINT
  5
39A
330
20
100
AcDbEntity
  8
DEFPOINTS
  6
ByBlock
 62
     0
100
AcDbPoint
 10
282.3493988078292
 20
191.5222837483721
 30
0.0
  0
LINE
  5
39B
330
20
100
AcDbEntity
  8
STEMPEL
100
AcDbLine
 10
252.1389014741058
 20
623.0110874246368
 30
0.0
 11
252.1389014741058
 21
626.0110874246367
 31
0.0
  0
LINE
  5
39C
330
20
100
AcDbEntity
  8
STEMPEL
100
AcDbLine
 10
251.1389014741058
 20
626.0110874246367
 30
0.0
 11
251.1389014741058
 21
637.0110874246368
 31
0.0
  0
LINE
  5
39D
330
20
100
AcDbEntity
  8
STEMPEL
100
AcDbLine
 10
238.6389014741057
 20
628.0110874246367
 30
0.0
 11
238.6389014741058
 21
635.0110874246368
 31
0.0
  0
LINE
  5
39E
330
20
100
AcDbEntity
  8
STEMPEL
100
AcDbLine
 10
236.5809450195571
 20
640.0110874246366
 30
0.0
 11
206.1178525961014
 21
640.0110874246368
 31
0.0
  0
LINE
  5
39F
330
20
100
AcDbEntity
  8
STEMPEL
100
AcDbLine
 10
252.1389014741058
 20
623.0110874246368
 30
0.0
 11
246.0408252627526
 21
623.0110874246368
 31
0.0
  0
LINE
  5
3A0
330
20
100
AcDbEntity
  8
STEMPEL
100
AcDbLine
 10
252.1389014741058
 20
637.0110874246368
 30
0.0
 11
251.1389014741058
 21
637.0110874246368
 31
0.0
  0
LINE
  5
3A1
330
20
100
AcDbEntity
  8
STEMPEL
100
AcDbLine
 10
252.1389014741058
 20
626.0110874246367
 30
0.0
 11
251.1389014741058
 21
626.0110874246367
 31
0.0
  0
LINE
  5
3A2
330
20
100
AcDbEntity
  8
STEMPEL
100
AcDbLine
 10
252.1389014741058
 20
637.0110874246368
 30
0.0
 11
252.1389014741058
 21
640.0110874246368
 31
0.0
  0
LINE
  5
3A3
330
20
100
AcDbEntity
  8
STEMPEL
100
AcDbLine
 10
241.6389014741058
 20
635.0110874246366
 30
0.0
 11
236.0408252627526
 21
635.0110874246369
 31
0.0
  0
LINE
  5
3A4
330
20
100
AcDbEntity
  8
STEMPEL
100
AcDbLine
 10
241.6389014741058
 20
628.0110874246367
 30
0.0
 11
236.0408252627526
 21
628.0110874246365
 31
0.0
  0
LINE
  5
3A5
330
20
100
AcDbEntity
  8
STEMPEL
100
AcDbLine
 10
248.6389014741058
 20
640.0110874246368
 30
0.0
 11
241.6389014741058
 21
635.0110874246366
 31
0.0
  0
LINE
  5
3A6
330
20
100
AcDbEntity
  8
STEMPEL
100
AcDbLine
 10
241.6389014741058
 20
628.0110874246367
 30
0.0
 11
248.6389014741058
 21
623.0110874246368
 31
0.0
  0
LINE
  5
3A7
330
20
100
AcDbEntity
  8
STEMPEL
100
AcDbLine
 10
236.0408252627526
 20
628.0110874246365
 30
0.0
 11
236.0408252627526
 21
635.0110874246369
 31
0.0
  0
LINE
  5
3A8
330
20
100
AcDbEntity
  8
STEMPEL
100
AcDbLine
 10
246.0408252627526
 20
640.0110874246366
 30
0.0
 11
239.0408252627525
 21
635.0110874246368
 31
0.0
  0
LINE
  5
3A9
330
20
100
AcDbEntity
  8
STEMPEL
100
AcDbLine
 10
239.0408252627525
 20
628.0110874246367
 30
0.0
 11
246.0408252627526
 21
623.0110874246368
 31
0.0
  0
POINT
  5
3AA
330
20
100
AcDbEntity
  8
DEFPOINTS
  6
ByBlock
 62
     0
100
AcDbPoint
 10
331.8493988078292
 20
646.0110874246367
 30
0.0
  0
POINT
  5
3AB
330
20
100
AcDbEntity
  8
DEFPOINTS
  6
ByBlock
 62
     0
100
AcDbPoint
 10
331.8493988078292
 20
644.0110874246368
 30
0.0
  0
POINT
  5
3AC
330
20
100
AcDbEntity
  8
DEFPOINTS
  6
ByBlock
 62
     0
100
AcDbPoint
 10
282.3493988078292
 20
648.0110874246368
 30
0.0
  0
POINT
  5
3AE
330
20
100
AcDbEntity
  8
DEFPOINTS
  6
ByBlock
 62
     0
100
AcDbPoint
 10
282.3493988078292
 20
648.0110874246368
 30
0.0
  0
POINT
  5
3AF
330
20
100
AcDbEntity
  8
SCHRAFF
100
AcDbPoint
 10
267.9506623900518
 20
568.0110874246367
 30
0.0
  0
POINT
  5
3B0
330
20
100
AcDbEntity
  8
DEFPOINTS
  6
ByBlock
 62
     0
100
AcDbPoint
 10
282.3493988078292
 20
648.0110874246368
 30
0.0
  0
POINT
  5
3B1
330
20
100
AcDbEntity
  8
DEFPOINTS
  6
ByBlock
 62
     0
100
AcDbPoint
 10
257.4119554901997
 20
398.0110874246368
 30
0.0
  0
ARC
  5
3B4
102
{ACAD_REACTORS
330
1015
102
}
330
20
100
AcDbEntity
  8
SCHRAFF
100
AcDbCircle
 10
266.5988325650482
 20
568.7393791070308
 30
0.0
 40
2.794704798007347
100
AcDbArc
 50
273.3396902375382
 51
38.03577849856388
  0
ARC
  5
3B6
102
{ACAD_REACTORS
330
11B0
102
}
330
20
100
AcDbEntity
  8
SCHRAFF
100
AcDbCircle
 10
280.5346772724723
 20
635.1826372684382
 30
0.0
 40
3.903643177036389
100
AcDbArc
 50
297.7023880846286
 51
12.25276711504062
  0
ARC
  5
3B8
102
{ACAD_REACTORS
330
11B0
102
}
330
20
100
AcDbEntity
  8
SCHRAFF
100
AcDbCircle
 10
162.0346597675512
 20
634.7192361945814
 30
0.0
 40
3.938615654448626
100
AcDbArc
 50
159.3373372166038
 51
244.6668072588433
  0
ARC
  5
3BA
102
{ACAD_REACTORS
330
1015
102
}
330
20
100
AcDbEntity
  8
SCHRAFF
100
AcDbCircle
 10
176.3349514602128
 20
568.4841348202076
 30
0.0
 40
2.970591039617164
100
AcDbArc
 50
142.9577266510474
 51
265.7757759487813
  0
ARC
  5
3BC
330
20
100
AcDbEntity
  8
BEM
100
AcDbCircle
 10
250.5696693339599
 20
243.4723566312162
 30
0.0
 40
4.081297947193405
100
AcDbArc
 50
161.0992488315166
 51
228.2594997851085
  0
INSERT
  5
3BD
330
20
100
AcDbEntity
  8
BEM
100
AcDbBlockReference
  2
*X1
 10
42.3397456433824
 20
117.4730023394949
 30
0.0
1001
ACAD
1000
HATCH
1002
{
1070
    16
1000
_U,I
1040
0.1
1040
2.356194490192344
1070
     0
1002
}
  0
POINT
  5
3BE
330
20
100
AcDbEntity
  8
SCHRAFF
100
AcDbPoint
 10
176.8493988078292
 20
568.0110874246367
 30
0.0
  0
POINT
  5
3BF
330
20
100
AcDbEntity
  8
SCHRAFF
100
AcDbPoint
 10
265.8493988078292
 20
568.0110874246367
 30
0.0
  0
LINE
  5
3C1
330
20
100
AcDbEntity
  8
MITTEL
100
AcDbLine
 10
221.3493988078293
 20
653.0110874246368
 30
0.0
 11
221.3493988078292
 21
393.0110874246368
 31
0.0
  0
POINT
  5
3C2
330
20
100
AcDbEntity
  8
DEFPOINTS
  6
ByBlock
 62
     0
100
AcDbPoint
 10
160.3493988078292
 20
648.0110874246366
 30
0.0
  0
POINT
  5
3C3
330
20
100
AcDbEntity
  8
DEFPOINTS
  6
ByBlock
 62
     0
100
AcDbPoint
 10
282.3493988078292
 20
648.0110874246368
 30
0.0
  0
POINT
  5
3C4
330
20
100
AcDbEntity
  8
DEFPOINTS
  6
ByBlock
 62
     0
100
AcDbPoint
 10
162.3493988078292
 20
648.0110874246366
 30
0.0
  0
POINT
  5
3C5
330
20
100
AcDbEntity
  8
DEFPOINTS
  6
ByBlock
 62
     0
100
AcDbPoint
 10
280.3493988078292
 20
648.0110874246368
 30
0.0
  0
DIMENSION
  5
3CA
330
20
100
AcDbEntity
  8
BEM
100
AcDbDimension
  2
*D5
 10
331.8493988078292
 20
679.6074598573466
 30
0.0
 11
221.3493988078292
 21
686.1074598573466
 31
0.0
 70
    32
  1
%%C<>
 71
     5
 42
221.0
  3
Standard
100
AcDbAlignedDimension
 13
110.8493988078292
 23
646.0110874246367
 33
0.0
 14
331.8493988078292
 24
646.0110874246367
 34
0.0
100
AcDbRotatedDimension
1001
ACAD
1000
DSTYLE
1002
{
1070
    40
1040
2.0
1070
    41
1040
3.5
1070
    42
1040
1.0
1070
    43
1040
3.5
1070
    44
1040
1.0
1070
    47
1040
2.0
1070
    73
1070
     0
1070
    74
1070
     0
1070
    77
1070
     1
1070
    78
1070
     8
1070
    79
1070
     2
1070
   140
1040
3.5
1070
   141
1040
1.5
1070
   145
1040
0.2857142857142857
1070
   146
1040
0.5
1070
   147
1040
1.5
1070
   172
1070
     1
1070
   178
1070
     1
1070
   179
1070
     2
1070
   271
1070
     2
1070
   272
1070
     2
1070
   284
1070
     8
1070
   285
1070
     8
1070
   286
1070
     8
1002
}
  0
DIMENSION
  5
3CB
330
20
100
AcDbEntity
  8
BEM
100
AcDbDimension
  2
*D6
 10
282.3493988078292
 20
663.6074598573466
 30
0.0
 11
221.3493988078292
 21
670.1074598573466
 31
0.0
 70
    32
  1
%%C<>
 71
     5
 42
122.0
  3
Standard
100
AcDbAlignedDimension
 13
160.3493988078292
 23
648.0110874246366
 33
0.0
 14
282.3493988078292
 24
648.0110874246368
 34
0.0
100
AcDbRotatedDimension
1001
ACAD
1000
DSTYLE
1002
{
1070
    40
1040
2.0
1070
    41
1040
3.5
1070
    42
1040
1.0
1070
    43
1040
3.5
1070
    44
1040
1.0
1070
    47
1040
2.0
1070
    73
1070
     0
1070
    74
1070
     0
1070
    77
1070
     1
1070
    78
1070
     8
1070
    79
1070
     2
1070
   140
1040
3.5
1070
   141
1040
1.5
1070
   145
1040
0.2857142857142857
1070
   146
1040
0.5
1070
   147
1040
1.5
1070
   172
1070
     1
1070
   178
1070
     1
1070
   179
1070
     2
1070
   271
1070
     2
1070
   272
1070
     2
1070
   284
1070
     8
1070
   285
1070
     8
1070
   286
1070
     8
1002
}
  0
DIMENSION
  5
3CC
330
20
100
AcDbEntity
  8
BEM
100
AcDbDimension
  2
*D4
 10
351.3777350997115
 20
648.0110874246368
 30
0.0
 11
344.8777350997114
 21
666.8777540913035
 31
0.0
 70
    32
 71
     5
 42
2.0
  3
Standard
100
AcDbAlignedDimension
 13
331.8493988078292
 23
646.0110874246367
 33
0.0
 14
282.3493988078292
 24
648.0110874246368
 34
0.0
 50
90.0
100
AcDbRotatedDimension
1001
ACAD
1000
DSTYLE
1002
{
1070
    40
1040
2.0
1070
    41
1040
3.5
1070
    42
1040
1.0
1070
    43
1040
3.5
1070
    44
1040
1.0
1070
    47
1040
2.0
1070
    73
1070
     0
1070
    74
1070
     0
1070
    77
1070
     1
1070
    78
1070
     8
1070
    79
1070
     2
1070
   140
1040
3.5
1070
   141
1040
1.5
1070
   145
1040
0.2857142857142857
1070
   146
1040
0.5
1070
   147
1040
1.5
1070
   172
1070
     1
1070
   178
1070
     1
1070
   179
1070
     2
1070
   271
1070
     2
1070
   272
1070
     2
1070
   284
1070
     8
1070
   285
1070
     8
1070
   286
1070
     8
1002
}
  0
DIMENSION
  5
3CD
330
20
100
AcDbEntity
  8
BEM
100
AcDbDimension
  2
*D7
 10
98.84117882846414
 20
646.0110874246367
 30
0.0
 11
92.34117882846403
 21
664.8777540913035
 31
0.0
 70
    32
 71
     5
 42
2.0
  3
Standard
100
AcDbAlignedDimension
 13
110.8493988078292
 23
644.0110874246368
 33
0.0
 14
110.8493988078292
 24
646.0110874246367
 34
0.0
 50
90.0
100
AcDbRotatedDimension
  0
DIMENSION
  5
3D1
330
20
100
AcDbEntity
  8
BEM
100
AcDbDimension
  2
*D2
 10
364.9366820879667
 20
398.0110874246368
 30
0.0
 11
358.4366820879666
 21
523.0110874246369
 31
0.0
 70
    32
 71
     5
 42
250.0
  3
Standard
100
AcDbAlignedDimension
 13
282.3493988078292
 23
648.0110874246368
 33
0.0
 14
257.4119554901997
 24
398.0110874246368
 34
0.0
 50
90.0
100
AcDbRotatedDimension
1001
ACAD
1000
DSTYLE
1002
{
1070
    40
1040
2.0
1070
    41
1040
3.5
1070
    42
1040
1.0
1070
    43
1040
3.5
1070
    44
1040
1.0
1070
    47
1040
1.0
1070
    48
1040
1.0
1070
    73
1070
     0
1070
    74
1070
     0
1070
    77
1070
     1
1070
    78
1070
     8
1070
    79
1070
     2
1070
   140
1040
3.5
1070
   141
1040
1.5
1070
   145
1040
0.2857142857142857
1070
   146
1040
0.5142857142857144
1070
   147
1040
1.5
1070
   172
1070
     1
1070
   178
1070
     1
1070
   179
1070
     2
1070
   271
1070
     2
1070
   272
1070
     2
1070
   284
1070
     8
1070
   285
1070
     8
1070
   286
1070
     8
1002
}
  0
DIMENSION
  5
3D4
330
20
100
AcDbEntity
  8
BEM
100
AcDbDimension
  2
*D3
 10
257.8493988078292
 20
373.6640101337934
 30
0.0
 11
221.3493988078292
 21
380.1640101337934
 31
0.0
 70
    32
  1
%%c<>
 71
     5
 42
73.0
  3
Standard
100
AcDbAlignedDimension
 13
184.8493988078292
 23
407.3393388257829
 33
0.0
 14
257.8493988078292
 24
407.3393388257829
 34
0.0
100
AcDbRotatedDimension
1001
ACAD
1000
DSTYLE
1002
{
1070
    40
1040
2.0
1070
    41
1040
3.5
1070
    42
1040
1.0
1070
    43
1040
3.5
1070
    44
1040
1.0
1070
    47
1040
1.0
1070
    48
1040
1.0
1070
    73
1070
     0
1070
    74
1070
     0
1070
    77
1070
     1
1070
    78
1070
     8
1070
    79
1070
     2
1070
   140
1040
3.5
1070
   141
1040
1.5
1070
   145
1040
0.2857142857142857
1070
   146
1040
0.5142857142857144
1070
   147
1040
1.5
1070
   172
1070
     1
1070
   178
1070
     1
1070
   179
1070
     2
1070
   271
1070
     2
1070
   272
1070
     2
1070
   284
1070
     8
1070
   285
1070
     8
1070
   286
1070
     8
1002
}
  0
TEXT
  5
3D9
330
20
100
AcDbEntity
  8
TEXT
 62
     1
100
AcDbText
 10
531.7476079389361
 20
790.3711061509031
 30
0.0
 40
7.0
  1

 50
90.0
 41
0.8
  7
GREEKS
 72
     1
 11
531.7476079389361
 21
790.3711061509031
 31
0.0
100
AcDbText
  0
TEXT
  5
499
330
20
100
AcDbEntity
  8
BEM
100
AcDbText
 10
575.2373839646627
 20
548.1717382321512
 30
0.0
 40
4.0
  1
Name
 50
90.0
 41
0.8
  7
GREEKS
 72
     4
 11
573.2373839646627
 21
554.4955477559607
 31
0.0
100
AcDbText
  0
TEXT
  5
49A
330
20
100
AcDbEntity
  8
BEM
100
AcDbText
 10
574.5707172979961
 20
530.5856695252049
 30
0.0
 40
4.0
  1
Tag
 50
90.0
 41
0.8
  7
GREEKS
 72
     4
 11
573.2373839646627
 21
534.3190028585382
 31
0.0
100
AcDbText
  0
ARC
  5
A3E
102
{ACAD_REACTORS
330
C32
102
}
330
20
100
AcDbEntity
  8
STEMPEL
100
AcDbCircle
 10
174.3493988078292
 20
611.8966851625765
 30
0.0
 40
12.0
100
AcDbArc
 50
180.0
 51
197.860094070679
  0
ARC
  5
A3F
102
{ACAD_REACTORS
330
C32
102
}
330
20
100
AcDbEntity
  8
STEMPEL
100
AcDbCircle
 10
174.3493988078292
 20
611.8966851625765
 30
0.0
 40
14.0
100
AcDbArc
 50
180.0
 51
197.860094070679
  0
ARC
  5
A41
102
{ACAD_REACTORS
330
C32
102
}
330
20
100
AcDbEntity
  8
STEMPEL
100
AcDbCircle
 10
268.3493988078294
 20
611.8966851625765
 30
0.0
 40
12.0
100
AcDbArc
 50
342.1399059293208
 51
0.0000000000001654
  0
ARC
  5
A43
102
{ACAD_REACTORS
330
C32
102
}
330
20
100
AcDbEntity
  8
STEMPEL
100
AcDbCircle
 10
268.3493988078294
 20
611.8966851625765
 30
0.0
 40
14.0
100
AcDbArc
 50
342.1399059293208
 51
0.0000000000001654
  0
ARC
  5
BFB
330
20
100
AcDbEntity
  8
STEMPEL
100
AcDbCircle
 10
269.8493988078292
 20
542.2379377117241
 30
0.0
 40
12.0
100
AcDbArc
 50
157.2971739781018
 51
180.0
  0
ARC
  5
BFC
330
20
100
AcDbEntity
  8
STEMPEL
100
AcDbCircle
 10
172.8493988078292
 20
542.2379377117241
 30
0.0
 40
12.0
100
AcDbArc
 50
0.0
 51
22.70282602189805
  0
ARC
  5
BFD
330
20
100
AcDbEntity
  8
STEMPEL
100
AcDbCircle
 10
172.4493988078291
 20
542.2065933204903
 30
0.0
 40
14.0
100
AcDbArc
 50
0.0
 51
22.65523270867963
  0
ARC
  5
BFE
330
20
100
AcDbEntity
  8
STEMPEL
100
AcDbCircle
 10
270.2493988078292
 20
542.2065933204904
 30
0.0
 40
14.0
100
AcDbArc
 50
157.3447672913203
 51
180.0
  0
HATCH
  5
C32
330
20
100
AcDbEntity
  8
SCHRAFF
100
AcDbHatch
 10
0.0
 20
0.0
 30
0.0
210
0.0
220
0.0
230
1.0
  2
_USER
 70
     0
 71
     1
 91
        6
 92
        7
 72
     0
 73
     1
 93
        4
 10
282.3493988078292
 20
648.0110874246368
 10
280.3493988078292
 20
648.0110874246368
 10
280.3493988078292
 20
640.0110874246366
 10
282.3493988078293
 20
640.0110874246368
 97
        4
330
34B
330
352
330
374
330
34F
 92
        7
 72
     0
 73
     1
 93
        4
 10
278.3493988078293
 20
633.0110874246368
 10
280.3493988078293
 20
633.0110874246368
 10
280.3493988078293
 20
640.0110874246368
 10
278.3493988078293
 20
640.0110874246368
 97
        4
330
374
330
378
330
375
330
352
 92
        7
 72
     1
 73
     1
 93
        8
 10
280.3493988078294
 20
611.8966851625765
 42
-0.0780875003480758
 10
279.7710977336791
 20
608.216359953136
 42
0.0
 10
265.8493988078292
 20
568.0110874246367
 42
0.0
 10
267.9506623900518
 20
568.0110874246367
 42
0.0
 10
281.6747142213207
 20
607.6029724182293
 42
0.0780875003480757
 10
282.3493988078293
 20
611.8966851625765
 42
0.0
 10
282.3493988078293
 20
633.0110874246368
 42
0.0
 10
280.3493988078293
 20
633.0110874246368
 42
0.0
 97
        8
330
375
330
352
330
A41
330
356
330
34D
330
358
330
A43
330
379
 92
        7
 72
     0
 73
     1
 93
        4
 10
162.3493988078292
 20
648.0110874246368
 10
160.3493988078292
 20
648.0110874246365
 10
160.3493988078292
 20
640.0110874246366
 10
162.3493988078292
 20
640.0110874246366
 97
        4
330
34B
330
34E
330
38A
330
353
 92
        7
 72
     0
 73
     1
 93
        4
 10
164.3493988078292
 20
640.0110874246366
 10
162.3493988078292
 20
640.0110874246366
 10
162.3493988078292
 20
633.0110874246367
 10
164.3493988078292
 20
633.0110874246367
 97
        4
330
38A
330
353
330
38B
330
376
 92
        7
 72
     1
 73
     1
 93
        8
 10
162.3493988078292
 20
633.0110874246367
 42
0.0
 10
160.3493988078292
 20
633.0110874246367
 42
0.0
 10
160.3493988078292
 20
611.8966851625765
 42
0.0780875003480762
 10
161.0240833943378
 20
607.6029724182292
 42
0.0
 10
174.7481352256066
 20
568.0110874246369
 42
0.0
 10
176.8493988078291
 20
568.0110874246367
 42
0.0
 10
162.9276998819795
 20
608.2163599531361
 42
-0.0780875003480743
 10
162.3493988078292
 20
611.8966851625765
 42
0.0
 97
        8
330
38B
330
377
330
A3F
330
359
330
34D
330
357
330
A3E
330
353
 75
     0
 76
     0
 52
135.0
 41
2.0
 77
     0
 78
     1
 53
135.0
 43
0.0
 44
0.0
 45
-1.414213562373095
 46
-1.414213562373094
 79
     0
 47
0.194688105390934
 98
        6
 10
281.6154147600191
 20
643.8883045354345
 10
278.6929239012202
 20
638.0476598596755
 10
281.2257493121792
 20
626.1716855189379
 10
161.9880763725837
 20
645.0564322830964
 10
163.5467381639432
 20
637.6582839437879
 10
161.4035782008236
 20
624.8088688237576
  0
TEXT
  5
C51
330
20
100
AcDbEntity
  8
BEM
100
AcDbText
 10
505.085583991284
 20
613.4250300311228
 30
0.0
 40
4.0
  1
DIN EN 1123-2
 50
90.0
 41
0.7
  7
GREEKS
100
AcDbText
  0
HATCH
  5
CFC
330
20
100
AcDbEntity
  8
SCHRAFF
100
AcDbHatch
 10
0.0
 20
0.0
 30
0.0
210
0.0
220
0.0
230
1.0
  2
_USER
 70
     0
 71
     0
 91
        4
 92
        7
 72
     1
 73
     1
 93
        8
 10
257.8493988078292
 20
542.2379377117241
 42
-0.0993850619070513
 10
258.7791701581364
 20
546.8693562464195
 42
0.0
 10
267.6241731596836
 20
568.0110874246367
 42
0.0
 10
265.8493988078292
 20
568.0110874246369
 42
0.0
 10
257.3296481828767
 20
547.599184885688
 42
0.0991753500394943
 10
256.2493988078291
 20
542.2065933204904
 42
0.0
 10
256.2493988078292
 20
528.011087424637
 42
0.0
 10
257.8493988078292
 20
528.011087424637
 42
0.0
 97
        0
 92
        7
 72
     0
 73
     1
 93
        6
 10
257.8493988078293
 20
528.0110874246371
 10
256.2493988078291
 20
528.0110874246371
 10
256.2493988078293
 20
407.3393388257826
 10
255.8119554901996
 20
398.0110874246368
 10
257.4119554901997
 20
398.0110874246368
 10
257.8493988078292
 20
407.3393388257833
 97
        0
 92
        7
 72
     1
 73
     1
 93
        8
 10
186.4493988078291
 20
542.2065933204903
 42
0.0991753500394936
 10
185.3691494327816
 20
547.5991848856879
 42
0.0
 10
176.8493988078292
 20
568.0110874246369
 42
0.0
 10
175.074624455975
 20
568.0110874246367
 42
0.0
 10
183.919627457522
 20
546.8693562464197
 42
-0.0993850619070535
 10
184.8493988078292
 20
542.2379377117241
 42
0.0
 10
184.8493988078292
 20
528.0110874246369
 42
0.0
 10
186.4493988078291
 20
528.0110874246368
 42
0.0
 97
        0
 92
        7
 72
     0
 73
     1
 93
        6
 10
186.4493988078292
 20
528.0110874246369
 10
184.8493988078292
 20
528.0110874246369
 10
184.8493988078292
 20
407.3393388257837
 10
185.2868421254588
 20
398.0110874246368
 10
186.8868421254588
 20
398.0110874246368
 10
186.4493988078292
 20
407.3393388257827
 97
        0
 75
     0
 76
     0
 52
45.0
 41
2.0
 77
     0
 78
     1
 53
45.0
 43
0.0
 44
0.0
 45
-1.414213562373094
 46
1.414213562373095
 79
     0
 47
0.5145678434217911
 98
        4
 10
256.802330404234
 20
533.5186620796576
 10
256.802330404234
 20
521.169033501178
 10
185.7391926658392
 20
534.5477986191262
 10
185.7391926658392
 20
517.567058581581
  0
TEXT
  5
D45
330
20
100
AcDbEntity
  8
TEXT
 62
     1
100
AcDbText
 10
458.3232206761725
 20
665.5421703459327
 30
0.0
 40
7.0
  1
und innenbeschichtet
 50
90.0
 41
0.8
  7
GREEKS
100
AcDbText
  0
TEXT
  5
D46
330
20
100
AcDbEntity
  8
TEXT
 62
     1
100
AcDbText
 10
445.9473217175687
 20
617.5924529085349
 30
0.0
 40
7.0
  1
Werkstoff: E195 EN10305, St37 feuerverzinkt
 50
90.0
 41
0.8
  7
GREEKS
100
AcDbText
  0
LINE
  5
E38
330
20
100
AcDbEntity
  8
HILF
100
AcDbLine
 10
278.1700159559866
 20
610.0110874246366
 30
0.0
 11
164.5287816596721
 21
610.0110874246368
 31
0.0
  0
TEXT
  5
E47
330
20
100
AcDbEntity
  8
TEXT
 62
     1
100
AcDbText
 10
210.7328631864523
 20
460.1878907400426
 30
0.0
 40
7.0
  1
DN70
 50
90.0
 41
0.8
  7
GREEKS
100
AcDbText
  0
HATCH
  5
1015
330
20
100
AcDbEntity
  8
SCHRAFF
100
AcDbHatch
 10
0.0
 20
0.0
 30
0.0
210
0.0
220
0.0
230
1.0
  2
_USER
 70
     0
 71
     1
 91
        2
 92
        7
 72
     1
 73
     1
 93
        4
 10
176.116138185833
 20
565.5216136176489
 42
0.0
 10
175.074624455975
 20
568.0110874246367
 42
0.0
 10
174.7481352256066
 20
568.0110874246367
 42
0.0
 10
173.9638516312991
 20
570.2736310414888
 42
0.5938630742537566
 97
        4
330
3BA
330
35D
330
34D
330
359
 92
        7
 72
     1
 73
     1
 93
        4
 10
268.8000151415292
 20
570.4613460559011
 42
0.0
 10
267.9506623900518
 20
568.0110874246367
 42
0.0
 10
267.6241731596835
 20
568.0110874246367
 42
0.0
 10
266.7616397412416
 20
565.9494205533269
 42
0.6050019995015024
 97
        4
330
358
330
34D
330
35E
330
3B4
 75
     0
 76
     0
 52
0.0
 41
0.1
 77
     0
 78
     1
 53
0.0
 43
0.0
 44
0.0
 45
0.0
 46
0.1
 79
     0
 47
0.1693841575588038
 98
        2
 10
174.0065528043942
 20
568.0575252547853
 10
268.76147779045
 20
567.7187555528478
  0
HATCH
  5
1116
330
20
100
AcDbEntity
  8
SCHRAFF
100
AcDbHatch
 10
0.0
 20
0.0
 30
0.0
210
0.0
220
0.0
230
1.0
  2
_USER
 70
     0
 71
     1
 91
        2
 92
        7
 72
     1
 73
     1
 93
        8
 10
331.8493988078292
 20
646.0110874246367
 42
0.0
 10
290.3493988078293
 20
646.0110874246367
 42
0.4142135623730998
 10
282.3493988078293
 20
638.0110874246367
 42
0.0
 10
282.3493988078293
 20
636.0110874246368
 42
0.0
 10
284.3493988078293
 20
636.0110874246368
 42
0.0
 10
284.3493988078293
 20
638.0110874246369
 42
-0.4142135623730958
 10
290.3493988078293
 20
644.0110874246369
 42
0.0
 10
331.8493988078292
 20
644.0110874246368
 42
0.0
 97
        8
330
366
330
36F
330
34F
330
36D
330
36C
330
36E
330
367
330
36B
 92
        7
 72
     1
 73
     1
 93
        8
 10
152.3493988078292
 20
646.0110874246367
 42
0.0
 10
110.8493988078292
 20
646.0110874246367
 42
0.0
 10
110.8493988078292
 20
644.0110874246369
 42
0.0
 10
152.3493988078292
 20
644.0110874246366
 42
-0.4142135623730951
 10
158.3493988078292
 20
638.0110874246367
 42
0.0
 10
158.3493988078292
 20
636.0110874246368
 42
0.0
 10
160.3493988078292
 20
636.0110874246366
 42
0.0
 10
160.3493988078292
 20
638.0110874246367
 42
0.4142135623730992
 97
        8
330
369
330
36A
330
368
330
372
330
370
330
371
330
34E
330
373
 75
     0
 76
     0
 52
45.0
 41
2.0
 77
     0
 78
     1
 53
45.0
 43
0.0
 44
0.0
 45
-1.414213562373094
 46
1.414213562373095
 79
     0
 47
0.3067522050675749
 98
        2
 10
296.6043183574047
 20
644.4215846509981
 10
144.6743182984078
 20
644.7283362563641
  0
CIRCLE
  5
113C
330
20
100
AcDbEntity
  8
STEMPEL
100
AcDbCircle
 10
221.3493988078292
 20
191.5222837483721
 30
0.0
 40
110.5
  0
INSERT
  5
113E
330
20
100
AcDbEntity
  8
BEM
100
AcDbBlockReference
  2
*X1
 10
42.3397456433824
 20
265.5715651572495
 30
0.0
 41
-1.0
 50
180.0
1001
ACAD
1000
HATCH
1002
{
1070
    16
1000
_U,I
1040
0.1
1040
2.356194490192344
1070
     0
1002
}
  0
ARC
  5
113F
330
20
100
AcDbEntity
  8
BEM
100
AcDbCircle
 10
250.5696693339599
 20
139.5722108655282
 30
0.0
 40
4.081297947193405
100
AcDbArc
 50
131.7405002148914
 51
198.9007511684834
  0
POINT
  5
1140
330
20
100
AcDbEntity
  8
DEFPOINTS
  6
ByBlock
 62
     0
100
AcDbPoint
 10
249.5408252627525
 20
139.6933007906036
 30
0.0
  0
POINT
  5
1141
330
20
100
AcDbEntity
  8
DEFPOINTS
  6
ByBlock
 62
     0
100
AcDbPoint
 10
236.0408252627526
 20
163.0759866927836
 30
0.0
  0
LINE
  5
1142
330
20
100
AcDbEntity
  8
VERDECKT
100
AcDbLine
 10
248.5408252627524
 20
141.4253515981726
 30
0.0
 11
251.1389014741058
 21
142.9253515981726
 31
0.0
  0
LINE
  5
1143
330
20
100
AcDbEntity
  8
STEMPEL
100
AcDbLine
 10
239.0408252627524
 20
157.8798342700768
 30
0.0
 11
241.6389014741057
 21
159.3798342700769
 31
0.0
  0
LINE
  5
1144
330
20
100
AcDbEntity
  8
STEMPEL
100
AcDbLine
 10
246.0408252627524
 20
145.7554786170947
 30
0.0
 11
248.6389014741058
 21
147.2554786170948
 31
0.0
  0
LINE
  5
1145
330
20
100
AcDbEntity
  8
STEMPEL
100
AcDbLine
 10
236.0408252627523
 20
163.0759866927834
 30
0.0
 11
238.6389014741056
 21
164.5759866927834
 31
0.0
  0
LINE
  5
1146
330
20
100
AcDbEntity
  8
STEMPEL
100
AcDbLine
 10
249.5408252627525
 20
139.6933007906036
 30
0.0
 11
252.1389014741058
 21
141.1933007906037
 31
0.0
  0
LINE
  5
1147
330
20
100
AcDbEntity
  8
STEMPEL
100
AcDbLine
 10
238.6389014741058
 20
164.5759866927835
 30
0.0
 11
252.1389014741058
 21
141.1933007906037
 31
0.0
  0
LINE
  5
1148
330
20
100
AcDbEntity
  8
STEMPEL
100
AcDbLine
 10
236.0408252627526
 20
163.0759866927836
 30
0.0
 11
249.5408252627525
 21
139.6933007906036
 31
0.0
  0
LINE
  5
1149
330
20
100
AcDbEntity
  8
STEMPEL
100
AcDbLine
 10
206.1178525961014
 20
134.5222837483721
 30
0.0
 11
236.5809450195571
 21
134.5222837483721
 31
0.0
  0
LINE
  5
114A
330
20
100
AcDbEntity
  8
VERDECKT
100
AcDbLine
 10
205.8574654229995
 20
132.5222837483721
 30
0.0
 11
236.841332192659
 21
132.5222837483721
 31
0.0
  0
CIRCLE
  5
114B
330
20
100
AcDbEntity
  8
STEMPEL
100
AcDbCircle
 10
221.3493988078292
 20
191.5222837483721
 30
0.0
 40
59.0
  0
CIRCLE
  5
114C
330
20
100
AcDbEntity
  8
STEMPEL
100
AcDbCircle
 10
221.3493988078292
 20
191.5222837483721
 30
0.0
 40
61.0
  0
HATCH
  5
11B0
330
20
100
AcDbEntity
  8
SCHRAFF
100
AcDbHatch
 10
0.0
 20
0.0
 30
0.0
210
0.0
220
0.0
230
1.0
  2
_USER
 70
     0
 71
     1
 91
        2
 92
        7
 72
     1
 73
     1
 93
        5
 10
280.3493988078293
 20
633.0110874246368
 42
0.0
 10
282.3493988078293
 20
633.0110874246368
 42
0.0
 10
282.3493988078293
 20
631.7264521167524
 42
0.3372678091367852
 10
284.3493988078293
 20
636.0110874246368
 42
0.0
 10
280.3493988078293
 20
636.0110874246369
 42
0.0
 97
        5
330
36D
330
352
330
375
330
379
330
3B6
 92
        7
 72
     1
 73
     1
 93
        5
 10
158.3139321944988
 20
636.0110874246368
 42
0.3829332060713299
 10
160.3493988078292
 20
631.1593782239449
 42
0.0
 10
160.3493988078292
 20
633.0110874246368
 42
0.0
 10
162.3493988078292
 20
633.0110874246367
 42
0.0
 10
162.3493988078291
 20
636.0110874246368
 42
0.0
 97
        5
330
371
330
3B8
330
377
330
38B
330
353
 75
     0
 76
     0
 52
0.0
 41
0.1
 77
     0
 78
     1
 53
0.0
 43
0.0
 44
0.0
 45
0.0
 46
0.1
 79
     0
 47
0.1469049408599734
 98
        2
 10
281.7601123089153
 20
634.5148620527099
 10
160.9617034407529
 20
634.6617669303935
  0
ENDSEC
  0
SECTION
  2
OBJECTS
  0
DICTIONARY
  5
C
330
0
100
AcDbDictionary
281
     1
  3
ACAD_COLOR
350
1B
  3
ACAD_GROUP
350
D
  3
ACAD_LAYOUT
350
19
  3
ACAD_MATERIAL
350
1A
  3
ACAD_MLINESTYLE
350
16
  3
ACAD_PLOTSETTINGS
350
18
  3
ACAD_PLOTSTYLENAME
350
E
  3
AcDbVariableDictionary
350
513
  3
AcmDictionary
350
43A
  3
AMG
350
3E2
  3
AMGSNAPSETTINGS
350
479
  0
DICTIONARY
  5
4FD
330
20
100
AcDbDictionary
280
     1
281
     1
  3
ACAD_INDEX
360
5AC
  0
DICTIONARY
  5
1B
102
{ACAD_REACTORS
330
C
102
}
330
C
100
AcDbDictionary
281
     1
  0
DICTIONARY
  5
D
102
{ACAD_REACTORS
330
C
102
}
330
C
100
AcDbDictionary
281
     1
  0
DICTIONARY
  5
19
102
{ACAD_REACTORS
330
C
102
}
330
C
100
AcDbDictionary
281
     1
  3
Layout1
350
1F
  3
Model
350
23
  0
DICTIONARY
  5
1A
102
{ACAD_REACTORS
330
C
102
}
330
C
100
AcDbDictionary
281
     1
  0
DICTIONARY
  5
16
102
{ACAD_REACTORS
330
C
102
}
330
C
100
AcDbDictionary
281
     1
  3
Standard
350
17
  0
DICTIONARY
  5
18
102
{ACAD_REACTORS
330
C
102
}
330
C
100
AcDbDictionary
281
     1
  0
ACDBDICTIONARYWDFLT
  5
E
102
{ACAD_REACTORS
330
C
102
}
330
C
100
AcDbDictionary
281
     1
  3
Normal
350
F
100
AcDbDictionaryWithDefault
340
F
  0
DICTIONARY
  5
513
102
{ACAD_REACTORS
330
C
102
}
330
C
100
AcDbDictionary
281
     1
  3
DIMASSOC
350
516
  3
HIDETEXT
350
515
  3
INDEXCTL
350
514
  3
PROJECTNAME
350
517
  0
DICTIONARY
  5
43A
102
{ACAD_REACTORS
330
C
102
}
330
C
100
AcDbDictionary
281
     1
  3
AcmStdDictionary
350
447
  0
DICTIONARY
  5
3E2
102
{ACAD_REACTORS
330
C
102
}
330
C
100
AcDbDictionary
281
     1
  0
DICTIONARY
  5
479
102
{ACAD_REACTORS
330
C
102
}
330
C
100
AcDbDictionary
281
     1
  0
DICTIONARY
  5
5AC
102
{ACAD_REACTORS
330
4FD
102
}
330
4FD
100
AcDbDictionary
281
     1
  3
*A1
350
5AD
  0
LAYOUT
  5
1F
102
{ACAD_REACTORS
330
19
102
}
330
19
100
AcDbPlotSettings
  1

  2
Microsoft Office Document Image Writer
  4

  6

 40
0.0
 41
0.0
 42
0.0
 43
0.0
 44
0.0
 45
0.0
 46
0.0
 47
0.0
 48
0.0
 49
0.0
140
0.0
141
0.0
142
1.0
143
1.0
 70
   688
 72
     0
 73
     0
 74
     5
  7

 75
    16
147
1.0
 76
     0
 77
     2
 78
   300
148
0.0
149
0.0
100
AcDbLayout
  1
Layout1
 70
     0
 71
     1
 10
0.0
 20
0.0
 11
12.0
 21
9.0
 12
0.0
 22
0.0
 32
0.0
 14
1.000000000000000E+20
 24
1.000000000000000E+20
 34
1.000000000000000E+20
 15
-1.000000000000000E+20
 25
-1.000000000000000E+20
 35
-1.000000000000000E+20
146
0.0
 13
0.0
 23
0.0
 33
0.0
 16
1.0
 26
0.0
 36
0.0
 17
0.0
 27
1.0
 37
0.0
 76
     0
330
1C
  0
LAYOUT
  5
23
102
{ACAD_REACTORS
330
19
102
}
330
19
100
AcDbPlotSettings
  1

  2
RICOH Aficio 2027 PCL 6
  4
A4
  6

 40
5.027083
 41
5.027084999999999
 42
5.027084
 43
5.027069
 44
209.973328
 45
296.925995
 46
0.0
 47
2.08
 48
0.0
 49
0.0
140
0.0
141
0.0
142
1.0
143
2.971200944565788
 70
 11956
 72
     1
 73
     0
 74
     2
  7
monochrome1.ctb
 75
     0
147
0.3365642441077441
 76
     1
 77
     2
 78
   300
148
0.0
149
0.0
100
AcDbLayout
  1
Model
 70
     1
 71
     0
 10
0.0
 20
0.0
 11
12.0
 21
9.0
 12
0.0
 22
0.0
 32
0.0
 14
0.0
 24
0.0
 34
0.0
 15
0.0
 25
0.0
 35
0.0
146
0.0
 13
0.0
 23
0.0
 33
0.0
 16
1.0
 26
0.0
 36
0.0
 17
0.0
 27
1.0
 37
0.0
 76
     0
330
20
  0
MLINESTYLE
  5
17
102
{ACAD_REACTORS
330
16
102
}
330
16
100
AcDbMlineStyle
  2
STANDARD
 70
     0
  3

 62
   256
 51
90.0
 52
90.0
 71
     2
 49
0.5
 62
   256
  6
BYLAYER
 49
-0.5
 62
   256
  6
BYLAYER
  0
ACDBPLACEHOLDER
  5
F
102
{ACAD_REACTORS
330
E
102
}
330
E
  0
DICTIONARYVAR
  5
516
102
{ACAD_REACTORS
330
513
102
}
330
513
100
DictionaryVariables
280
     0
  1
2
  0
DICTIONARYVAR
  5
515
102
{ACAD_REACTORS
330
513
102
}
330
513
100
DictionaryVariables
280
     0
  1
1
  0
DICTIONARYVAR
  5
514
102
{ACAD_REACTORS
330
513
102
}
330
513
100
DictionaryVariables
280
     0
  1
1
  0
DICTIONARYVAR
  5
517
102
{ACAD_REACTORS
330
513
102
}
330
513
100
DictionaryVariables
280
     0
  1

  0
DICTIONARY
  5
447
102
{ACAD_REACTORS
330
43A
102
}
330
43A
100
AcDbDictionary
281
     1
  0
LAYER_INDEX
  5
5AD
102
{ACAD_REACTORS
330
5AC
102
}
330
5AC
100
AcDbIndex
 40
2455461.550572801
100
AcDbLayerIndex
  8
0
360
5AE
 90
        0
  8
VOLL
360
5AF
 90
        6
  8
MITTEL
360
5B0
 90
        3
  8
BEM
360
5B1
 90
       37
  8
HILF
360
5B2
 90
       25
  8
STEMPEL
360
5B3
 90
      104
  8
VERDECKT
360
5B4
 90
        6
  8
DEFPOINTS
360
5B5
 90
       18
  8
SCHRAFF
360
5B6
 90
       12
  8
TEXT
360
5B7
 90
        7
  0
IDBUFFER
  5
5AE
330
0
100
AcDbIdBuffer
  0
IDBUFFER
  5
5AF
330
0
100
AcDbIdBuffer
330
30E
330
30F
330
310
330
311
330
312
330
321
  0
IDBUFFER
  5
5B0
330
0
100
AcDbIdBuffer
330
37E
330
37F
330
3C1
  0
IDBUFFER
  5
5B1
330
0
100
AcDbIdBuffer
330
324
330
325
330
326
330
327
330
328
330
329
330
32A
330
32B
330
32E
330
32F
330
330
330
331
330
332
330
333
330
334
330
33D
330
33E
330
340
330
341
330
342
330
344
330
345
330
347
330
348
330
3BC
330
3BD
330
3CA
330
3CB
330
3CC
330
3CD
330
3D1
330
3D4
330
499
330
49A
330
C51
330
113E
330
113F
  0
IDBUFFER
  5
5B2
330
0
100
AcDbIdBuffer
330
E38
330
313
330
314
330
315
330
316
330
317
330
318
330
319
330
31A
330
31B
330
31C
330
31D
330
31E
330
31F
330
320
330
322
330
323
330
335
330
336
330
337
330
338
330
35F
330
365
330
386
330
387
  0
IDBUFFER
  5
5B3
330
0
100
AcDbIdBuffer
330
1145
330
1146
330
1147
330
1148
330
1149
330
114B
330
114C
330
306
330
307
330
308
330
309
330
30A
330
30B
330
30C
330
30D
330
339
330
33A
330
33B
330
33C
330
346
330
34B
330
34C
330
34D
330
34E
330
34F
330
350
330
351
330
352
330
353
330
354
330
355
330
356
330
357
330
358
330
359
330
35B
330
35C
330
35D
330
35E
330
361
330
362
330
363
330
364
330
366
330
367
330
368
330
369
330
36A
330
36B
330
36C
330
36D
330
36E
330
36F
330
370
330
371
330
372
330
373
330
374
330
375
330
376
330
377
330
378
330
379
330
37A
330
381
330
383
330
385
330
388
330
389
330
38A
330
38B
330
38C
330
38D
330
38E
330
38F
330
390
330
391
330
393
330
39B
330
39C
330
39D
330
39E
330
39F
330
3A0
330
3A1
330
3A2
330
3A3
330
3A4
330
3A5
330
3A6
330
3A7
330
3A8
330
3A9
330
A3E
330
A3F
330
A41
330
A43
330
BFB
330
BFC
330
BFD
330
BFE
330
113C
330
1143
330
1144
  0
IDBUFFER
  5
5B4
330
0
100
AcDbIdBuffer
330
1142
330
114A
330
380
330
382
330
384
330
392
  0
IDBUFFER
  5
5B5
330
0
100
AcDbIdBuffer
330
395
330
396
330
397
330
398
330
399
330
39A
330
3AA
330
3AB
330
3AC
330
3AE
330
3B0
330
3B1
330
3C2
330
3C3
330
3C4
330
3C5
330
1140
330
1141
  0
IDBUFFER
  5
5B6
330
0
100
AcDbIdBuffer
330
3AF
330
3B4
330
3B6
330
3B8
330
3BA
330
3BE
330
3BF
330
C32
330
CFC
330
1015
330
1116
330
11B0
  0
IDBUFFER
  5
5B7
330
0
100
AcDbIdBuffer
330
305
330
33F
330
343
330
3D9
330
D45
330
D46
330
E47
  0
ENDSEC
  0
EOF
