  0
SECTION
  2
HEADER
  9
$ACADVER
  1
AC1018
  9
$ACADMAINTVER
 70
     2
  9
$DWGCODEPAGE
  3
ANSI_1252
  9
$INSBASE
 10
0.0
 20
0.0
 30
0.0
  9
$EXTMIN
 10
-0.025627235270008
 20
-0.0362442327398185
 30
-0.000000000000013
  9
$EXTMAX
 10
420.0256404375887
 20
594.0362629045889
 30
0.0000000000000023
  9
$LIMMIN
 10
0.0
 20
0.0
  9
$LIMMAX
 10
419.9999999999999
 20
594.0
  9
$ORTHOMODE
 70
     1
  9
$REGENMODE
 70
     1
  9
$FILLMODE
 70
     1
  9
$QTEXTMODE
 70
     0
  9
$MIRRTEXT
 70
     1
  9
$LTSCALE
 40
20.0
  9
$ATTMODE
 70
     1
  9
$TEXTSIZE
 40
3.5
  9
$TRACEWID
 40
0.5
  9
$TEXTSTYLE
  7
STANDARD
  9
$CLAYER
  8
SCHRAFF
  9
$CELTYPE
  6
ByLayer
  9
$CECOLOR
 62
   256
  9
$CELTSCALE
 40
1.0
  9
$DISPSILH
 70
     0
  9
$DIMSCALE
 40
2.0
  9
$DIMASZ
 40
3.5
  9
$DIMEXO
 40
1.0
  9
$DIMDLI
 40
7.0
  9
$DIMRND
 40
0.0
  9
$DIMDLE
 40
0.0
  9
$DIMEXE
 40
1.0
  9
$DIMTP
 40
0.0
  9
$DIMTM
 40
0.0
  9
$DIMTXT
 40
3.5
  9
$DIMCEN
 40
1.5
  9
$DIMTSZ
 40
0.0
  9
$DIMTOL
 70
     0
  9
$DIMLIM
 70
     0
  9
$DIMTIH
 70
     0
  9
$DIMTOH
 70
     0
  9
$DIMSE1
 70
     0
  9
$DIMSE2
 70
     0
  9
$DIMTAD
 70
     1
  9
$DIMZIN
 70
     8
  9
$DIMBLK
  1

  9
$DIMASO
 70
     1
  9
$DIMSHO
 70
     0
  9
$DIMPOST
  1

  9
$DIMAPOST
  1

  9
$DIMALT
 70
     0
  9
$DIMALTD
 70
     2
  9
$DIMALTF
 40
25.4
  9
$DIMLFAC
 40
1.0
  9
$DIMTOFL
 70
     1
  9
$DIMTVP
 40
0.0
  9
$DIMTIX
 70
     0
  9
$DIMSOXD
 70
     0
  9
$DIMSAH
 70
     0
  9
$DIMBLK1
  1

  9
$DIMBLK2
  1

  9
$DIMSTYLE
  2
Standard
  9
$DIMCLRD
 70
     0
  9
$DIMCLRE
 70
     0
  9
$DIMCLRT
 70
     1
  9
$DIMTFAC
 40
0.5142857142857144
  9
$DIMGAP
 40
1.5
  9
$DIMJUST
 70
     0
  9
$DIMSD1
 70
     0
  9
$DIMSD2
 70
     0
  9
$DIMTOLJ
 70
     1
  9
$DIMTZIN
 70
     8
  9
$DIMALTZ
 70
     8
  9
$DIMALTTZ
 70
     8
  9
$DIMUPT
 70
     0
  9
$DIMDEC
 70
     2
  9
$DIMTDEC
 70
     2
  9
$DIMALTU
 70
     2
  9
$DIMALTTD
 70
     2
  9
$DIMTXSTY
  7
STANDARD
  9
$DIMAUNIT
 70
     0
  9
$DIMADEC
 70
     2
  9
$DIMALTRND
 40
0.0
  9
$DIMAZIN
 70
     2
  9
$DIMDSEP
 70
    46
  9
$DIMATFIT
 70
     3
  9
$DIMFRAC
 70
     0
  9
$DIMLDRBLK
  1

  9
$DIMLUNIT
 70
     2
  9
$DIMLWD
 70
    -2
  9
$DIMLWE
 70
    -2
  9
$DIMTMOVE
 70
     0
  9
$LUNITS
 70
     2
  9
$LUPREC
 70
     2
  9
$SKETCHINC
 40
1.0
  9
$FILLETRAD
 40
0.0
  9
$AUNITS
 70
     0
  9
$AUPREC
 70
     0
  9
$MENU
  1
ACAD
  9
$ELEVATION
 40
0.0
  9
$PELEVATION
 40
0.0
  9
$THICKNESS
 40
0.0
  9
$LIMCHECK
 70
     0
  9
$CHAMFERA
 40
0.0
  9
$CHAMFERB
 40
0.0
  9
$CHAMFERC
 40
0.0
  9
$CHAMFERD
 40
0.0
  9
$SKPOLY
 70
     0
  9
$TDCREATE
 40
2455397.864709028
  9
$TDUCREATE
 40
2455397.781375695
  9
$TDUPDATE
 40
2455461.540505579
  9
$TDUUPDATE
 40
2455461.457172245
  9
$TDINDWG
 40
0.0506816204
  9
$TDUSRTIMER
 40
0.0506816204
  9
$USRTIMER
 70
     1
  9
$ANGBASE
 50
0.0
  9
$ANGDIR
 70
     0
  9
$PDMODE
 70
     0
  9
$PDSIZE
 40
0.0
  9
$PLINEWID
 40
0.0
  9
$SPLFRAME
 70
     0
  9
$SPLINETYPE
 70
     6
  9
$SPLINESEGS
 70
     8
  9
$HANDSEED
  5
1665
  9
$SURFTAB1
 70
     6
  9
$SURFTAB2
 70
     6
  9
$SURFTYPE
 70
     6
  9
$SURFU
 70
     6
  9
$SURFV
 70
     6
  9
$UCSBASE
  2

  9
$UCSNAME
  2

  9
$UCSORG
 10
0.0
 20
0.0
 30
0.0
  9
$UCSXDIR
 10
1.0
 20
0.0
 30
0.0
  9
$UCSYDIR
 10
0.0
 20
1.0
 30
0.0
  9
$UCSORTHOREF
  2

  9
$UCSORTHOVIEW
 70
     0
  9
$UCSORGTOP
 10
0.0
 20
0.0
 30
0.0
  9
$UCSORGBOTTOM
 10
0.0
 20
0.0
 30
0.0
  9
$UCSORGLEFT
 10
0.0
 20
0.0
 30
0.0
  9
$UCSORGRIGHT
 10
0.0
 20
0.0
 30
0.0
  9
$UCSORGFRONT
 10
0.0
 20
0.0
 30
0.0
  9
$UCSORGBACK
 10
0.0
 20
0.0
 30
0.0
  9
$PUCSBASE
  2

  9
$PUCSNAME
  2

  9
$PUCSORG
 10
0.0
 20
0.0
 30
0.0
  9
$PUCSXDIR
 10
1.0
 20
0.0
 30
0.0
  9
$PUCSYDIR
 10
0.0
 20
1.0
 30
0.0
  9
$PUCSORTHOREF
  2

  9
$PUCSORTHOVIEW
 70
     0
  9
$PUCSORGTOP
 10
0.0
 20
0.0
 30
0.0
  9
$PUCSORGBOTTOM
 10
0.0
 20
0.0
 30
0.0
  9
$PUCSORGLEFT
 10
0.0
 20
0.0
 30
0.0
  9
$PUCSORGRIGHT
 10
0.0
 20
0.0
 30
0.0
  9
$PUCSORGFRONT
 10
0.0
 20
0.0
 30
0.0
  9
$PUCSORGBACK
 10
0.0
 20
0.0
 30
0.0
  9
$USERI1
 70
     0
  9
$USERI2
 70
     0
  9
$USERI3
 70
     0
  9
$USERI4
 70
     0
  9
$USERI5
 70
     0
  9
$USERR1
 40
0.0
  9
$USERR2
 40
0.0
  9
$USERR3
 40
0.0
  9
$USERR4
 40
0.0
  9
$USERR5
 40
0.0
  9
$WORLDVIEW
 70
     1
  9
$SHADEDGE
 70
     3
  9
$SHADEDIF
 70
    70
  9
$TILEMODE
 70
     1
  9
$MAXACTVP
 70
    16
  9
$PINSBASE
 10
0.0
 20
0.0
 30
0.0
  9
$PLIMCHECK
 70
     0
  9
$PEXTMIN
 10
1.000000000000000E+20
 20
1.000000000000000E+20
 30
1.000000000000000E+20
  9
$PEXTMAX
 10
-1.000000000000000E+20
 20
-1.000000000000000E+20
 30
-1.000000000000000E+20
  9
$PLIMMIN
 10
0.0
 20
0.0
  9
$PLIMMAX
 10
12.0
 20
9.0
  9
$UNITMODE
 70
     0
  9
$VISRETAIN
 70
     0
  9
$PLINEGEN
 70
     0
  9
$PSLTSCALE
 70
     0
  9
$TREEDEPTH
 70
  3020
  9
$CMLSTYLE
  2
Standard
  9
$CMLJUST
 70
     0
  9
$CMLSCALE
 40
1.0
  9
$PROXYGRAPHICS
 70
     1
  9
$MEASUREMENT
 70
     0
  9
$CELWEIGHT
370
    -1
  9
$ENDCAPS
280
     0
  9
$JOINSTYLE
280
     0
  9
$LWDISPLAY
290
     0
  9
$INSUNITS
 70
     0
  9
$HYPERLINKBASE
  1

  9
$STYLESHEET
  1
monochrome 1.ctb
  9
$XEDIT
290
     1
  9
$CEPSNTYPE
380
     0
  9
$PSTYLEMODE
290
     1
  9
$FINGERPRINTGUID
  2
{D68B0D02-A558-11D7-B632-000102183313}
  9
$VERSIONGUID
  2
{F17AE5E0-719A-486E-9AF9-CFAE45320E40}
  9
$EXTNAMES
290
     1
  9
$PSVPSCALE
 40
0.0
  9
$OLESTARTUP
290
     0
  9
$SORTENTS
280
   127
  9
$INDEXCTL
280
     0
  9
$HIDETEXT
280
     0
  9
$XCLIPFRAME
290
     0
  9
$HALOGAP
280
     0
  9
$OBSCOLOR
 70
   257
  9
$OBSLTYPE
280
     0
  9
$INTERSECTIONDISPLAY
280
     0
  9
$INTERSECTIONCOLOR
 70
   257
  9
$DIMASSOC
280
     1
  9
$PROJECTNAME
  1

  0
ENDSEC
  0
SECTION
  2
CLASSES
  0
CLASS
  1
ACDBDICTIONARYWDFLT
  2
AcDbDictionaryWithDefault
  3
ObjectDBX Classes
 90
        0
 91
        1
280
     0
281
     0
  0
CLASS
  1
DICTIONARYVAR
  2
AcDbDictionaryVar
  3
ObjectDBX Classes
 90
        0
 91
        2
280
     0
281
     0
  0
ENDSEC
  0
SECTION
  2
TABLES
  0
TABLE
  2
VPORT
  5
8
330
0
100
AcDbSymbolTable
 70
     2
  0
VPORT
  5
1664
330
8
100
AcDbSymbolTableRecord
100
AcDbViewportTableRecord
  2
*Active
 70
     0
 10
0.0
 20
0.0
 11
1.0
 21
1.0
 12
210.0000066011594
 22
297.0000093359246
 13
0.0
 23
0.0
 14
1.0
 24
1.0
 15
10.0
 25
10.0
 16
0.0
 26
0.0
 36
1.0
 17
0.0
 27
0.0
 37
0.0
 40
598.8698625112506
 41
1.336927223719676
 42
50.0
 43
0.0
 44
0.0
 50
0.0
 51
0.0
 71
     0
 72
  1500
 73
     1
 74
     0
 75
     0
 76
     0
 77
     0
 78
     0
281
     0
 65
     1
110
0.0
120
0.0
130
0.0
111
1.0
121
0.0
131
0.0
112
0.0
122
1.0
132
0.0
 79
     0
146
0.0
  0
ENDTAB
  0
TABLE
  2
LTYPE
  5
5
330
0
100
AcDbSymbolTable
 70
     3
  0
LTYPE
  5
13
330
5
100
AcDbSymbolTableRecord
100
AcDbLinetypeTableRecord
  2
ByBlock
 70
     0
  3

 72
    65
 73
     0
 40
0.0
  0
LTYPE
  5
14
330
5
100
AcDbSymbolTableRecord
100
AcDbLinetypeTableRecord
  2
ByLayer
 70
     0
  3

 72
    65
 73
     0
 40
0.0
  0
LTYPE
  5
15
330
5
100
AcDbSymbolTableRecord
100
AcDbLinetypeTableRecord
  2
Continuous
 70
     0
  3
Solid line
 72
    65
 73
     0
 40
0.0
  0
LTYPE
  5
25
330
5
100
AcDbSymbolTableRecord
100
AcDbLinetypeTableRecord
  2
STRICHPUNKT
 70
     0
  3
__ . __ . __ . __ . __ . __ . __ . __ . __ . __
 72
    65
 73
     4
 40
1.0
 49
0.5
 74
     0
 49
-0.25
 74
     0
 49
0.0
 74
     0
 49
-0.25
 74
     0
  0
LTYPE
  5
27
330
5
100
AcDbSymbolTableRecord
100
AcDbLinetypeTableRecord
  2
RAND
 70
     0
  3
__ __ . __ __ . __ __ . __ __ . __ __ . __ __
 72
    65
 73
     6
 40
1.75
 49
0.5
 74
     0
 49
-0.25
 74
     0
 49
0.5
 74
     0
 49
-0.25
 74
     0
 49
0.0
 74
     0
 49
-0.25
 74
     0
  0
ENDTAB
  0
TABLE
  2
LAYER
  5
2
330
0
100
AcDbSymbolTable
 70
     9
  0
LAYER
  5
10
330
2
100
AcDbSymbolTableRecord
100
AcDbLayerTableRecord
  2
0
 70
     0
 62
     7
  6
Continuous
370
    -3
390
F
  0
LAYER
  5
2A
330
2
100
AcDbSymbolTableRecord
100
AcDbLayerTableRecord
  2
VOLL
 70
     0
 62
     1
  6
Continuous
370
    -3
390
F
  0
LAYER
  5
2B
330
2
100
AcDbSymbolTableRecord
100
AcDbLayerTableRecord
  2
HILF
 70
     0
 62
     2
  6
Continuous
370
    -3
390
F
  0
LAYER
  5
2C
330
2
100
AcDbSymbolTableRecord
100
AcDbLayerTableRecord
  2
MITTEL
 70
     0
 62
     2
  6
STRICHPUNKT
370
    -3
390
F
  0
LAYER
  5
2F
330
2
100
AcDbSymbolTableRecord
100
AcDbLayerTableRecord
  2
BEM
 70
     0
 62
     7
  6
Continuous
370
    -3
390
F
  0
LAYER
  5
30
330
2
100
AcDbSymbolTableRecord
100
AcDbLayerTableRecord
  2
STEMPEL
 70
     0
 62
     3
  6
Continuous
370
    -3
390
F
  0
LAYER
  5
31
330
2
100
AcDbSymbolTableRecord
100
AcDbLayerTableRecord
  2
TEXT
 70
     0
 62
     7
  6
Continuous
370
    -3
390
F
  0
LAYER
  5
5D8
330
2
100
AcDbSymbolTableRecord
100
AcDbLayerTableRecord
  2
DEFPOINTS
 70
     0
 62
     4
  6
RAND
290
     0
370
    -3
390
F
  0
LAYER
  5
5D9
330
2
100
AcDbSymbolTableRecord
100
AcDbLayerTableRecord
  2
SCHRAFF
 70
     0
 62
     7
  6
Continuous
370
    -3
390
F
  0
ENDTAB
  0
TABLE
  2
STYLE
  5
3
330
0
100
AcDbSymbolTable
 70
     2
  0
STYLE
  5
11
330
3
100
AcDbSymbolTableRecord
100
AcDbTextStyleTableRecord
  2
STANDARD
 70
     0
 40
0.0
 41
0.8
 50
0.0
 71
     0
 42
3.5
  3
simplex.shx
  4

  0
STYLE
  5
24
330
3
100
AcDbSymbolTableRecord
100
AcDbTextStyleTableRecord
  2
GREEKS
 70
     0
 40
0.0
 41
0.8
 50
0.0
 71
     0
 42
2.5
  3
SIMPLEX.shx
  4

  0
ENDTAB
  0
TABLE
  2
VIEW
  5
6
330
0
100
AcDbSymbolTable
 70
     0
  0
ENDTAB
  0
TABLE
  2
UCS
  5
7
330
0
100
AcDbSymbolTable
 70
     0
  0
ENDTAB
  0
TABLE
  2
APPID
  5
9
330
0
100
AcDbSymbolTable
 70
     1
  0
APPID
  5
12
330
9
100
AcDbSymbolTableRecord
100
AcDbRegAppTableRecord
  2
ACAD
 70
     0
  0
ENDTAB
  0
TABLE
  2
DIMSTYLE
  5
A
330
0
100
AcDbSymbolTable
 70
     1
100
AcDbDimStyleTable
 71
     1
340
9D
  0
DIMSTYLE
105
9D
102
{ACAD_REACTORS
330
14C0
330
14BE
330
14BA
330
14B1
102
}
330
A
100
AcDbSymbolTableRecord
100
AcDbDimStyleTableRecord
  2
Standard
 70
     0
340
11
  0
ENDTAB
  0
TABLE
  2
BLOCK_RECORD
  5
1
330
0
100
AcDbSymbolTable
 70
     5
  0
BLOCK_RECORD
  5
1E
102
{ACAD_XDICTIONARY
360
A0
102
}
330
1
100
AcDbSymbolTableRecord
100
AcDbBlockTableRecord
  2
*Model_Space
340
21
  0
BLOCK_RECORD
  5
1A
102
{ACAD_XDICTIONARY
360
A2
102
}
330
1
100
AcDbSymbolTableRecord
100
AcDbBlockTableRecord
  2
*Paper_Space
340
1D
  0
BLOCK_RECORD
  5
22
330
1
100
AcDbSymbolTableRecord
100
AcDbBlockTableRecord
  2
LOGO
340
0
102
{BLKREFS
331
7F2
102
}
  0
BLOCK_RECORD
  5
1518
330
1
100
AcDbSymbolTableRecord
100
AcDbBlockTableRecord
  2
*D1
340
0
  0
BLOCK_RECORD
  5
1525
330
1
100
AcDbSymbolTableRecord
100
AcDbBlockTableRecord
  2
*D2
340
0
  0
BLOCK_RECORD
  5
1532
330
1
100
AcDbSymbolTableRecord
100
AcDbBlockTableRecord
  2
*D3
340
0
  0
BLOCK_RECORD
  5
153F
330
1
100
AcDbSymbolTableRecord
100
AcDbBlockTableRecord
  2
*D4
340
0
  0
ENDTAB
  0
ENDSEC
  0
SECTION
  2
BLOCKS
  0
BLOCK
  5
35
330
1E
100
AcDbEntity
  8
0
100
AcDbBlockBegin
  2
*Model_Space
 70
     0
 10
0.0
 20
0.0
 30
0.0
  3
*Model_Space
  1

  0
ENDBLK
  5
36
330
1E
100
AcDbEntity
  8
0
100
AcDbBlockEnd
  0
BLOCK
  5
33
330
1A
100
AcDbEntity
 67
     1
  8
0
100
AcDbBlockBegin
  2
*Paper_Space
 70
     0
 10
0.0
 20
0.0
 30
0.0
  3
*Paper_Space
  1

  0
ENDBLK
  5
34
330
1A
100
AcDbEntity
 67
     1
  8
0
100
AcDbBlockEnd
  0
BLOCK
  5
37
330
22
100
AcDbEntity
  8
0
100
AcDbBlockBegin
  2
LOGO
 70
     0
 10
0.0
 20
0.0
 30
0.0
  3
LOGO
  1

  0
ARC
  5
38
330
22
100
AcDbEntity
  8
0
100
AcDbCircle
 10
11.59973089678112
 20
-9.271599258481501
 30
0.0
 40
4.5
100
AcDbArc
 50
270.0
 51
231.0575587310159
  0
LINE
  5
39
330
22
100
AcDbEntity
  8
0
100
AcDbLine
 10
3.599730896781125
 20
-4.771599258481529
 30
0.0
 11
3.599730896781153
 21
-11.77159925848133
 31
0.0
  0
LINE
  5
3A
330
22
100
AcDbEntity
  8
0
100
AcDbLine
 10
2.599730896781125
 20
-4.771599258481529
 30
0.0
 11
2.599730896781153
 21
-11.77159925848133
 31
0.0
  0
CIRCLE
  5
3B
330
22
100
AcDbEntity
  8
0
100
AcDbCircle
 10
11.59973089678112
 20
-9.271599258481501
 30
0.0
 40
3.5
  0
ARC
  5
3C
330
22
100
AcDbEntity
  8
0
100
AcDbCircle
 10
31.59973089678115
 20
-9.271599258481472
 30
0.0
 40
4.5
100
AcDbArc
 50
270.0
 51
231.0575587310182
  0
LINE
  5
3D
330
22
100
AcDbEntity
  8
0
100
AcDbLine
 10
17.59973089678112
 20
-4.771599258481472
 30
0.0
 11
17.59973089678115
 21
-13.77159925848147
 31
0.0
  0
ARC
  5
3E
330
22
100
AcDbEntity
  8
0
100
AcDbCircle
 10
22.59973089678116
 20
-7.271599258481472
 30
0.0
 40
2.5
100
AcDbArc
 50
293.1161887722295
 51
90.0
  0
CIRCLE
  5
3F
330
22
100
AcDbEntity
  8
0
100
AcDbCircle
 10
31.59973089678115
 20
-9.271599258481472
 30
0.0
 40
3.5
  0
ARC
  5
40
330
22
100
AcDbEntity
  8
0
100
AcDbCircle
 10
4.599730896781153
 20
-11.77159925848133
 30
0.0
 40
1.0
100
AcDbArc
 50
180.0
 51
270.0
  0
ARC
  5
41
330
22
100
AcDbEntity
  8
0
100
AcDbCircle
 10
4.599730896781153
 20
-11.77159925848133
 30
0.0
 40
2.0
100
AcDbArc
 50
179.9999999999992
 51
270.0
  0
LINE
  5
42
330
22
100
AcDbEntity
  8
0
100
AcDbLine
 10
11.59973089678115
 20
-13.77159925848144
 30
0.0
 11
4.599730896781153
 21
-13.77159925848147
 31
0.0
  0
LINE
  5
43
330
22
100
AcDbEntity
  8
0
100
AcDbLine
 10
8.771303772034769
 20
-12.77159925848136
 30
0.0
 11
4.599730896781153
 21
-12.77159925848133
 31
0.0
  0
LINE
  5
44
330
22
100
AcDbEntity
  8
0
100
AcDbLine
 10
31.59973089678115
 20
-13.77159925848147
 30
0.0
 11
23.6715276665056
 21
-13.77159925848144
 31
0.0
  0
LINE
  5
45
330
22
100
AcDbEntity
  8
0
100
AcDbLine
 10
23.56565672307022
 20
-9.51278021337896
 30
0.0
 11
24.4388546544846
 21
-12.77159925848144
 31
0.0
  0
LINE
  5
46
330
22
100
AcDbEntity
  8
0
100
AcDbLine
 10
22.59973089678116
 20
-9.771599258481472
 30
0.0
 11
18.59973089678112
 21
-9.771599258481472
 31
0.0
  0
LINE
  5
47
330
22
100
AcDbEntity
  8
0
100
AcDbLine
 10
18.59973089678115
 20
-13.77159925848144
 30
0.0
 11
17.59973089678115
 21
-13.77159925848144
 31
0.0
  0
LINE
  5
48
330
22
100
AcDbEntity
  8
0
100
AcDbLine
 10
18.59973089678115
 20
-9.771599258481472
 30
0.0
 11
18.59973089678115
 21
-13.77159925848144
 31
0.0
  0
LINE
  5
49
330
22
100
AcDbEntity
  8
0
100
AcDbLine
 10
22.59973089678116
 20
-9.771599258481472
 30
0.0
 11
23.67152766650562
 21
-13.77159925848147
 31
0.0
  0
ARC
  5
4A
330
22
100
AcDbEntity
  8
0
100
AcDbCircle
 10
22.59973089678116
 20
-7.271599258481472
 30
0.0
 40
2.5
100
AcDbArc
 50
270.0
 51
270.0000000000007
  0
LINE
  5
4B
330
22
100
AcDbEntity
  8
0
100
AcDbLine
 10
28.77130377203494
 20
-12.77159925848147
 30
0.0
 11
24.43885465448463
 21
-12.77159925848144
 31
0.0
  0
LINE
  5
4C
330
22
100
AcDbEntity
  8
0
100
AcDbLine
 10
3.599730896781125
 20
-4.771599258481472
 30
0.0
 11
2.599730896781125
 21
-4.771599258481472
 31
0.0
  0
LINE
  5
4D
330
22
100
AcDbEntity
  8
0
100
AcDbLine
 10
22.59973089678116
 20
-8.771599258481472
 30
0.0
 11
18.59973089678115
 21
-8.771599258481472
 31
0.0
  0
LINE
  5
4E
330
22
100
AcDbEntity
  8
0
100
AcDbLine
 10
22.59973089678116
 20
-5.771599258481472
 30
0.0
 11
18.59973089678115
 21
-5.771599258481472
 31
0.0
  0
LINE
  5
4F
330
22
100
AcDbEntity
  8
0
100
AcDbLine
 10
22.59973089678116
 20
-4.771599258481472
 30
0.0
 11
17.59973089678115
 21
-4.771599258481472
 31
0.0
  0
LINE
  5
50
330
22
100
AcDbEntity
  8
0
100
AcDbLine
 10
18.59973089678115
 20
-5.771599258481472
 30
0.0
 11
18.59973089678115
 21
-8.771599258481472
 31
0.0
  0
ARC
  5
51
330
22
100
AcDbEntity
  8
0
100
AcDbCircle
 10
22.59973089678116
 20
-7.271599258481472
 30
0.0
 40
1.5
100
AcDbArc
 50
270.0
 51
90.0
  0
ENDBLK
  5
52
330
22
100
AcDbEntity
  8
0
100
AcDbBlockEnd
  0
BLOCK
  5
1523
330
1518
100
AcDbEntity
  8
0
100
AcDbBlockBegin
  2
*D1
 70
     1
 10
0.0
 20
0.0
 30
0.0
  3
*D1
  1

  0
LINE
  5
1591
330
1518
100
AcDbEntity
  8
BEM
 62
     0
370
    -2
100
AcDbLine
 10
127.5954037518787
 20
373.3628507975545
 30
0.0
 11
127.5954037518787
 21
352.034226949075
 31
0.0
  0
LINE
  5
1592
330
1518
100
AcDbEntity
  8
BEM
 62
     0
370
    -2
100
AcDbLine
 10
260.5954037518787
 20
373.3628507975546
 30
0.0
 11
260.5954037518787
 21
352.034226949075
 31
0.0
  0
LINE
  5
1593
330
1518
100
AcDbEntity
  8
BEM
 62
     0
370
    -2
100
AcDbLine
 10
134.5954037518787
 20
354.034226949075
 30
0.0
 11
253.5954037518787
 21
354.034226949075
 31
0.0
  0
SOLID
  5
1594
330
1518
100
AcDbEntity
  8
BEM
 62
     0
100
AcDbTrace
 10
134.5954037518787
 20
355.2008936157417
 30
0.0
 11
134.5954037518787
 21
352.8675602824083
 31
0.0
 12
127.5954037518787
 22
354.034226949075
 32
0.0
 13
127.5954037518787
 23
354.034226949075
 33
0.0
  0
SOLID
  5
1595
330
1518
100
AcDbEntity
  8
BEM
 62
     0
100
AcDbTrace
 10
253.5954037518787
 20
355.2008936157417
 30
0.0
 11
253.5954037518787
 21
352.8675602824083
 31
0.0
 12
260.5954037518787
 22
354.034226949075
 32
0.0
 13
260.5954037518787
 23
354.034226949075
 33
0.0
  0
MTEXT
  5
1596
330
1518
100
AcDbEntity
  8
BEM
 62
     1
100
AcDbMText
 10
194.0954037518787
 20
360.534226949075
 30
0.0
 40
7.0
 41
0.0
 71
     5
 72
     1
  1
\A1;%%c133
 73
     1
 44
1.0
  0
POINT
  5
1597
330
1518
100
AcDbEntity
  8
DEFPOINTS
 62
     0
100
AcDbPoint
 10
127.5954037518787
 20
375.3628507975545
 30
0.0
  0
POINT
  5
1598
330
1518
100
AcDbEntity
  8
DEFPOINTS
 62
     0
100
AcDbPoint
 10
260.5954037518787
 20
375.3628507975545
 30
0.0
  0
POINT
  5
1599
330
1518
100
AcDbEntity
  8
DEFPOINTS
 62
     0
100
AcDbPoint
 10
260.5954037518787
 20
354.034226949075
 30
0.0
  0
ENDBLK
  5
1524
330
1518
100
AcDbEntity
  8
0
100
AcDbBlockEnd
  0
BLOCK
  5
1530
330
1525
100
AcDbEntity
  8
0
100
AcDbBlockBegin
  2
*D2
 70
     1
 10
0.0
 20
0.0
 30
0.0
  3
*D2
  1

  0
LINE
  5
1586
330
1525
100
AcDbEntity
  8
BEM
 62
     0
370
    -2
100
AcDbLine
 10
117.0954037518785
 20
525.3628507975547
 30
0.0
 11
103.463384412711
 21
525.3628507975547
 31
0.0
  0
LINE
  5
1587
330
1525
100
AcDbEntity
  8
BEM
 62
     0
370
    -2
100
AcDbLine
 10
117.0954037518785
 20
514.3628507975546
 30
0.0
 11
103.463384412711
 21
514.3628507975546
 31
0.0
  0
LINE
  5
1588
330
1525
100
AcDbEntity
  8
BEM
 62
     0
370
    -2
100
AcDbLine
 10
105.463384412711
 20
532.3628507975548
 30
0.0
 11
105.463384412711
 21
539.3628507975547
 31
0.0
  0
LINE
  5
1589
330
1525
100
AcDbEntity
  8
BEM
 62
     0
370
    -2
100
AcDbLine
 10
105.463384412711
 20
507.3628507975546
 30
0.0
 11
105.463384412711
 21
488.7628507975546
 31
0.0
  0
LINE
  5
158A
330
1525
100
AcDbEntity
  8
BEM
 62
     0
370
    -2
100
AcDbLine
 10
105.463384412711
 20
525.3628507975547
 30
0.0
 11
105.463384412711
 21
514.3628507975546
 31
0.0
  0
SOLID
  5
158B
330
1525
100
AcDbEntity
  8
BEM
 62
     0
100
AcDbTrace
 10
104.2967177460443
 20
532.3628507975548
 30
0.0
 11
106.6300510793776
 21
532.3628507975548
 31
0.0
 12
105.463384412711
 22
525.3628507975547
 32
0.0
 13
105.463384412711
 23
525.3628507975547
 33
0.0
  0
SOLID
  5
158C
330
1525
100
AcDbEntity
  8
BEM
 62
     0
100
AcDbTrace
 10
104.2967177460443
 20
507.3628507975546
 30
0.0
 11
106.6300510793776
 21
507.3628507975546
 31
0.0
 12
105.463384412711
 22
514.3628507975546
 32
0.0
 13
105.463384412711
 23
514.3628507975546
 33
0.0
  0
MTEXT
  5
158D
330
1525
100
AcDbEntity
  8
BEM
 62
     1
100
AcDbMText
 10
98.9633844127109
 20
494.5628507975546
 30
0.0
 40
7.0
 41
0.0
 71
     5
 72
     1
  1
\A1;11
 11
0.0000000000000001
 21
1.0
 31
0.0
 73
     1
 44
1.0
  0
POINT
  5
158E
330
1525
100
AcDbEntity
  8
DEFPOINTS
 62
     0
100
AcDbPoint
 10
119.0954037518785
 20
525.3628507975547
 30
0.0
  0
POINT
  5
158F
330
1525
100
AcDbEntity
  8
DEFPOINTS
 62
     0
100
AcDbPoint
 10
119.0954037518785
 20
514.3628507975546
 30
0.0
  0
POINT
  5
1590
330
1525
100
AcDbEntity
  8
DEFPOINTS
 62
     0
100
AcDbPoint
 10
105.463384412711
 20
514.3628507975546
 30
0.0
  0
ENDBLK
  5
1531
330
1525
100
AcDbEntity
  8
0
100
AcDbBlockEnd
  0
BLOCK
  5
153D
330
1532
100
AcDbEntity
  8
0
100
AcDbBlockBegin
  2
*D3
 70
     1
 10
0.0
 20
0.0
 30
0.0
  3
*D3
  1

  0
LINE
  5
165B
330
1532
100
AcDbEntity
  8
BEM
 62
     0
370
    -2
100
AcDbLine
 10
119.0954037518787
 20
322.7084230705546
 30
0.0
 11
119.0954037518787
 21
336.9751346339501
 31
0.0
  0
LINE
  5
165C
330
1532
100
AcDbEntity
  8
BEM
 62
     0
370
    -2
100
AcDbLine
 10
269.0954037518787
 20
322.7084230705546
 30
0.0
 11
269.0954037518787
 21
336.9751346339501
 31
0.0
  0
LINE
  5
165D
330
1532
100
AcDbEntity
  8
BEM
 62
     0
370
    -2
100
AcDbLine
 10
126.0954037518787
 20
334.9751346339501
 30
0.0
 11
262.0954037518787
 21
334.9751346339501
 31
0.0
  0
SOLID
  5
165E
330
1532
100
AcDbEntity
  8
BEM
 62
     0
100
AcDbTrace
 10
126.0954037518787
 20
336.1418013006168
 30
0.0
 11
126.0954037518787
 21
333.8084679672834
 31
0.0
 12
119.0954037518787
 22
334.9751346339501
 32
0.0
 13
119.0954037518787
 23
334.9751346339501
 33
0.0
  0
SOLID
  5
165F
330
1532
100
AcDbEntity
  8
BEM
 62
     0
100
AcDbTrace
 10
262.0954037518787
 20
336.1418013006168
 30
0.0
 11
262.0954037518787
 21
333.8084679672834
 31
0.0
 12
269.0954037518787
 22
334.9751346339501
 32
0.0
 13
269.0954037518787
 23
334.9751346339501
 33
0.0
  0
MTEXT
  5
1660
330
1532
100
AcDbEntity
  8
BEM
 62
     1
100
AcDbMText
 10
196.6955550757949
 20
341.47513463395
 30
0.0
 40
7.0
 41
0.0
 71
     5
 72
     1
  1
\A1;150
 73
     1
 44
1.0
  0
POINT
  5
1661
330
1532
100
AcDbEntity
  8
DEFPOINTS
 62
     0
100
AcDbPoint
 10
119.0954037518787
 20
320.7084230705546
 30
0.0
  0
POINT
  5
1662
330
1532
100
AcDbEntity
  8
DEFPOINTS
 62
     0
100
AcDbPoint
 10
269.0954037518787
 20
320.7084230705546
 30
0.0
  0
POINT
  5
1663
330
1532
100
AcDbEntity
  8
DEFPOINTS
 62
     0
100
AcDbPoint
 10
269.0954037518787
 20
334.9751346339501
 30
0.0
  0
ENDBLK
  5
153E
330
1532
100
AcDbEntity
  8
0
100
AcDbBlockEnd
  0
BLOCK
  5
154A
330
153F
100
AcDbEntity
  8
0
100
AcDbBlockBegin
  2
*D4
 70
     1
 10
0.0
 20
0.0
 30
0.0
  3
*D4
  1

  0
LINE
  5
1574
330
153F
100
AcDbEntity
  8
BEM
 62
     0
370
    -2
100
AcDbLine
 10
117.0954037518785
 20
525.3628507975545
 30
0.0
 11
88.54929091924217
 21
525.3628507975545
 31
0.0
  0
LINE
  5
1575
330
153F
100
AcDbEntity
  8
BEM
 62
     0
370
    -2
100
AcDbLine
 10
125.5954037518786
 20
375.3628507975545
 30
0.0
 11
88.54929091924214
 21
375.3628507975545
 31
0.0
  0
LINE
  5
1576
330
153F
100
AcDbEntity
  8
BEM
 62
     0
370
    -2
100
AcDbLine
 10
90.54929091924217
 20
518.3628507975545
 30
0.0
 11
90.54929091924213
 21
382.3628507975545
 31
0.0
  0
SOLID
  5
1577
330
153F
100
AcDbEntity
  8
BEM
 62
     0
100
AcDbTrace
 10
89.38262425257549
 20
518.3628507975545
 30
0.0
 11
91.71595758590884
 21
518.3628507975545
 31
0.0
 12
90.54929091924217
 22
525.3628507975545
 32
0.0
 13
90.54929091924217
 23
525.3628507975545
 33
0.0
  0
SOLID
  5
1578
330
153F
100
AcDbEntity
  8
BEM
 62
     0
100
AcDbTrace
 10
89.38262425257546
 20
382.3628507975545
 30
0.0
 11
91.7159575859088
 21
382.3628507975545
 31
0.0
 12
90.54929091924213
 22
375.3628507975545
 32
0.0
 13
90.54929091924213
 23
375.3628507975545
 33
0.0
  0
MTEXT
  5
1579
330
153F
100
AcDbEntity
  8
BEM
 62
     1
100
AcDbMText
 10
84.04929091924207
 20
450.3628507975545
 30
0.0
 40
7.0
 41
0.0
 71
     5
 72
     1
  1
\A1;150
 11
0.0000000000000001
 21
1.0
 31
0.0
 73
     1
 44
1.0
  0
POINT
  5
157A
330
153F
100
AcDbEntity
  8
DEFPOINTS
 62
     0
100
AcDbPoint
 10
119.0954037518785
 20
525.3628507975545
 30
0.0
  0
POINT
  5
157B
330
153F
100
AcDbEntity
  8
DEFPOINTS
 62
     0
100
AcDbPoint
 10
127.5954037518786
 20
375.3628507975545
 30
0.0
  0
POINT
  5
157C
330
153F
100
AcDbEntity
  8
DEFPOINTS
 62
     0
100
AcDbPoint
 10
90.54929091924213
 20
375.3628507975545
 30
0.0
  0
ENDBLK
  5
154B
330
153F
100
AcDbEntity
  8
0
100
AcDbBlockEnd
  0
ENDSEC
  0
SECTION
  2
ENTITIES
  0
LINE
  5
57
330
1E
100
AcDbEntity
  8
STEMPEL
100
AcDbLine
 10
410.0
 20
110.0
 30
0.0
 11
29.99999999999997
 21
110.0
 31
0.0
  0
LINE
  5
5B
330
1E
100
AcDbEntity
  8
STEMPEL
100
AcDbLine
 10
135.9999999999999
 20
29.99999999999997
 30
0.0
 11
29.99999999999997
 21
29.99999999999997
 31
0.0
  0
LINE
  5
5E
330
1E
100
AcDbEntity
  8
VOLL
100
AcDbLine
 10
44.00000000000008
 20
110.0
 30
0.0
 11
43.99999999999997
 21
9.999999999999971
 31
0.0
  0
LINE
  5
5F
330
1E
100
AcDbEntity
  8
VOLL
100
AcDbLine
 10
94.00000000000011
 20
109.9999999999999
 30
0.0
 11
94.0
 21
9.999999999999971
 31
0.0
  0
LINE
  5
60
330
1E
100
AcDbEntity
  8
VOLL
100
AcDbLine
 10
114.0000000000001
 20
109.9999999999999
 30
0.0
 11
114.0
 21
9.999999999999971
 31
0.0
  0
LINE
  5
63
330
1E
100
AcDbEntity
  8
HILF
100
AcDbLine
 10
30.00000000000009
 20
100.0
 30
0.0
 11
136.0000000000001
 21
100.0
 31
0.0
  0
LINE
  5
64
330
1E
100
AcDbEntity
  8
HILF
100
AcDbLine
 10
30.00000000000009
 20
90.00000000000005
 30
0.0
 11
136.0000000000001
 21
90.00000000000005
 31
0.0
  0
LINE
  5
65
330
1E
100
AcDbEntity
  8
HILF
100
AcDbLine
 10
30.00000000000009
 20
79.99999999999994
 30
0.0
 11
136.0000000000001
 21
79.99999999999994
 31
0.0
  0
LINE
  5
66
330
1E
100
AcDbEntity
  8
HILF
100
AcDbLine
 10
30.00000000000009
 20
69.99999999999994
 30
0.0
 11
136.0000000000001
 21
69.99999999999994
 31
0.0
  0
LINE
  5
67
330
1E
100
AcDbEntity
  8
HILF
100
AcDbLine
 10
30.00000000000009
 20
59.99999999999997
 30
0.0
 11
136.0000000000001
 21
59.99999999999997
 31
0.0
  0
LINE
  5
68
330
1E
100
AcDbEntity
  8
HILF
100
AcDbLine
 10
30.00000000000009
 20
49.99999999999997
 30
0.0
 11
136.0000000000001
 21
49.99999999999997
 31
0.0
  0
LINE
  5
69
330
1E
100
AcDbEntity
  8
HILF
100
AcDbLine
 10
30.00000000000009
 20
39.99999999999997
 30
0.0
 11
136.0000000000001
 21
39.99999999999997
 31
0.0
  0
TEXT
  5
74
330
1E
100
AcDbEntity
  8
TEXT
100
AcDbText
 10
59.34071736793199
 20
18.67381894984132
 30
0.0
 40
4.0
  1
Änderung
 41
0.8
  7
GREEKS
 72
     1
 11
70.08357451078913
 21
18.67381894984132
 31
0.0
100
AcDbText
  0
TEXT
  5
7B
330
1E
100
AcDbEntity
  8
TEXT
100
AcDbText
 10
38.26641107045757
 20
13.65465846027192
 30
0.0
 40
4.0
  1
Index
 50
90.0
 41
0.8
  7
GREEKS
100
AcDbText
  0
TEXT
  5
7C
330
1E
100
AcDbEntity
  8
TEXT
100
AcDbText
 10
100.0934676075481
 20
18.6715626933981
 30
0.0
 40
4.0
  1
Tag
 41
0.8
  7
GREEKS
 72
     1
 11
103.8268009408814
 21
18.6715626933981
 31
0.0
100
AcDbText
  0
TEXT
  5
7D
330
1E
100
AcDbEntity
  8
TEXT
100
AcDbText
 10
119.0122744386592
 20
18.59324216966408
 30
0.0
 40
4.0
  1
Name
 41
0.8
  7
GREEKS
 72
     1
 11
125.3360839624688
 21
18.59324216966408
 31
0.0
100
AcDbText
  0
LINE
  5
83
330
1E
100
AcDbEntity
  8
STEMPEL
100
AcDbLine
 10
39.99999999999989
 20
10.0
 30
0.0
 11
410.0
 21
10.0
 31
0.0
  0
LINE
  5
85
330
1E
100
AcDbEntity
  8
STEMPEL
100
AcDbLine
 10
410.0
 20
10.0
 30
0.0
 11
29.99999999999989
 21
10.0
 31
0.0
  0
LINE
  5
86
330
1E
100
AcDbEntity
  8
STEMPEL
100
AcDbLine
 10
410.0
 20
10.0
 30
0.0
 11
410.0
 21
584.0
 31
0.0
  0
LINE
  5
87
330
1E
100
AcDbEntity
  8
STEMPEL
100
AcDbLine
 10
30.0
 20
10.0
 30
0.0
 11
29.99999999999989
 21
584.0
 31
0.0
  0
LINE
  5
88
330
1E
100
AcDbEntity
  8
STEMPEL
100
AcDbLine
 10
410.0
 20
584.0
 30
0.0
 11
29.99999999999989
 21
584.0
 31
0.0
  0
LINE
  5
89
330
1E
100
AcDbEntity
  8
HILF
100
AcDbLine
 10
0.0
 20
0.0
 30
0.0
 11
-0.0000000000001137
 21
594.0
 31
0.0
  0
LINE
  5
8A
330
1E
100
AcDbEntity
  8
HILF
100
AcDbLine
 10
419.9999999999999
 20
594.0000000000002
 30
0.0
 11
0.0
 21
594.0
 31
0.0
  0
LINE
  5
8B
330
1E
100
AcDbEntity
  8
HILF
100
AcDbLine
 10
420.0
 20
0.0
 30
0.0
 11
0.0
 21
0.0
 31
0.0
  0
LINE
  5
8C
330
1E
100
AcDbEntity
  8
HILF
100
AcDbLine
 10
31.08767135713856
 20
297.0
 30
0.0
 11
0.0000000000001137
 21
297.0
 31
0.0
  0
LINE
  5
8E
330
1E
100
AcDbEntity
  8
HILF
100
AcDbLine
 10
420.0
 20
-0.0000000000001137
 30
0.0
 11
419.9999999999999
 21
594.0
 31
0.0
  0
TEXT
  5
8F
330
1E
100
AcDbEntity
  8
VOLL
100
AcDbText
 10
78.07675471698113
 20
31.02594776470585
 30
0.0
 40
1.8
  1

  7
GREEKS
100
AcDbText
  0
TEXT
  5
90
330
1E
100
AcDbEntity
  8
TEXT
100
AcDbText
 10
31.85509950977675
 20
111.6719999999999
 30
0.0
 40
5.0
  1
Erstellt mit AUTOCAD 2004
 41
0.8
  7
GREEKS
100
AcDbText
  0
TEXT
  5
118
330
1E
100
AcDbEntity
  8
TEXT
100
AcDbText
 10
417.3022923857165
 20
10.16790107998849
 30
0.0
 40
4.0
  1
Diese Zeichnung ist urheberrechtlich geschützt und bleibt unser Eigentum. Sie darf weder ganz noch teilweise verfielfältigt und nicht an Dritte weitergegeben werden.
 50
90.0
 41
0.8
  7
GREEKS
100
AcDbText
  0
LINE
  5
7D0
330
1E
100
AcDbEntity
  8
STEMPEL
100
AcDbLine
 10
410.0
 20
110.0
 30
0.0
 11
410.0
 21
10.0
 31
0.0
  0
TEXT
  5
7D1
330
1E
100
AcDbEntity
  8
TEXT
 62
     1
100
AcDbText
 10
348.3402717721522
 20
88.14901428913959
 30
0.0
 40
7.0
  1
16091100W
 41
0.8
  7
GREEKS
 72
     1
 11
370.7402717721521
 21
88.14901428913959
 31
0.0
100
AcDbText
  0
LINE
  5
7D2
330
1E
100
AcDbEntity
  8
STEMPEL
100
AcDbLine
 10
332.0
 20
109.9999999999997
 30
0.0
 11
332.0
 21
40.0
 31
0.0
  0
TEXT
  5
7D3
330
1E
100
AcDbEntity
  8
TEXT
100
AcDbText
 10
224.9837501577827
 20
42.62974153022628
 30
0.0
 40
4.0
  1
19091100W.DWG
 41
0.8
  7
GREEKS
100
AcDbText
  0
TEXT
  5
7D4
330
1E
100
AcDbEntity
  8
TEXT
100
AcDbText
 10
224.877940380901
 20
102.5489328011779
 30
0.0
 40
5.0
  1
Benennung
 41
0.8
  7
GREEKS
100
AcDbText
  0
TEXT
  5
7D5
330
1E
100
AcDbEntity
  8
TEXT
100
AcDbText
 10
224.742238391136
 20
30.8456057019306
 30
0.0
 40
5.0
  1
Bauvorhaben
 41
0.8
  7
GREEKS
100
AcDbText
  0
TEXT
  5
7D6
330
1E
100
AcDbEntity
  8
TEXT
100
AcDbText
 10
225.1296391125315
 20
62.21063346052324
 30
0.0
 40
5.0
  1
obere Balkone
 41
0.8
  7
GREEKS
100
AcDbText
  0
LINE
  5
7D7
330
1E
100
AcDbEntity
  8
STEMPEL
100
AcDbLine
 10
220.0
 20
110.0
 30
0.0
 11
220.0
 21
10.0
 31
0.0
  0
LINE
  5
7D8
330
1E
100
AcDbEntity
  8
HILF
100
AcDbLine
 10
224.7736801096948
 20
84.03758247564139
 30
0.0
 11
324.8353916556311
 21
84.03758247564139
 31
0.0
  0
LINE
  5
7D9
330
1E
100
AcDbEntity
  8
HILF
100
AcDbLine
 10
224.7736801096948
 20
70.0
 30
0.0
 11
324.835391655631
 21
70.0
 31
0.0
  0
LINE
  5
7DA
330
1E
100
AcDbEntity
  8
HILF
100
AcDbLine
 10
224.7736801096948
 20
60.0
 30
0.0
 11
324.835391655631
 21
60.0
 31
0.0
  0
LINE
  5
7DB
330
1E
100
AcDbEntity
  8
HILF
100
AcDbLine
 10
224.7736801096948
 20
50.0
 30
0.0
 11
324.835391655631
 21
50.0
 31
0.0
  0
TEXT
  5
7DC
330
1E
100
AcDbEntity
  8
TEXT
 62
     1
100
AcDbText
 10
226.8935731057402
 20
87.41748789253779
 30
0.0
 40
7.0
  1
Siebeinheit DN100
 41
0.8
  7
GREEKS
100
AcDbText
  0
TEXT
  5
7DD
330
1E
100
AcDbEntity
  8
TEXT
100
AcDbText
 10
225.1296391125315
 20
51.64011943042158
 30
0.0
 40
5.0
  1
EDV-Art.Nr. 16091.100X
 41
0.8
  7
GREEKS
100
AcDbText
  0
TEXT
  5
7DE
330
1E
100
AcDbEntity
  8
TEXT
100
AcDbText
 10
225.1296391125315
 20
72.21063346052324
 30
0.0
 40
5.0
  1
für Balkondirektablauf
 41
0.8
  7
GREEKS
100
AcDbText
  0
LINE
  5
7DF
330
1E
100
AcDbEntity
  8
HILF
100
AcDbLine
 10
223.4909699289885
 20
14.89398258028314
 30
0.0
 11
404.8588839326728
 21
14.89398258028314
 31
0.0
  0
LINE
  5
7E0
330
1E
100
AcDbEntity
  8
VOLL
100
AcDbLine
 10
332.0
 20
60.0
 30
0.0
 11
410.0
 21
60.0
 31
0.0
  0
LINE
  5
7E1
330
1E
100
AcDbEntity
  8
HILF
100
AcDbLine
 10
336.7238616296993
 20
83.77983636955827
 30
0.0
 11
404.8588839326728
 21
83.77983636955827
 31
0.0
  0
TEXT
  5
7E2
330
1E
100
AcDbEntity
  8
TEXT
100
AcDbText
 10
336.178754957634
 20
102.3132034537136
 30
0.0
 40
5.0
  1
Zeichnungs Nr.
 41
0.8
  7
GREEKS
100
AcDbText
  0
TEXT
  5
7E3
330
1E
100
AcDbEntity
  8
TEXT
100
AcDbText
 10
337.2400861497006
 20
52.07416177878599
 30
0.0
 40
5.0
  1
ersetzt durch:
 41
0.8
  7
GREEKS
100
AcDbText
  0
TEXT
  5
7E4
330
1E
100
AcDbEntity
  8
TEXT
100
AcDbText
 10
336.7238616296993
 20
73.1811823709997
 30
0.0
 40
5.0
  1
Ersatz für:
 41
0.8
  7
GREEKS
100
AcDbText
  0
TEXT
  5
7E5
330
1E
100
AcDbEntity
  8
TEXT
100
AcDbText
 10
192.4626584226295
 20
73.30961091915225
 30
0.0
 40
4.0
  1
Name
 41
0.8
  7
GREEKS
100
AcDbText
  0
TEXT
  5
7E6
330
1E
100
AcDbEntity
  8
TEXT
100
AcDbText
 10
194.4216048581257
 20
63.0896391972351
 30
0.0
 40
4.0
  1
Koeh
 41
0.8
  7
GREEKS
 72
     1
 11
199.6787477152685
 21
63.0896391972351
 31
0.0
100
AcDbText
  0
LINE
  5
7E7
330
1E
100
AcDbEntity
  8
VOLL
100
AcDbLine
 10
180.0000000000001
 20
109.9999999999998
 30
0.0
 11
180.0
 21
40.0
 31
0.0
  0
TEXT
  5
7E8
330
1E
100
AcDbEntity
  8
TEXT
100
AcDbText
 10
162.3311673153651
 20
73.31880501229926
 30
0.0
 40
4.0
  1
Tag
 41
0.8
  7
GREEKS
100
AcDbText
  0
TEXT
  5
7E9
330
1E
100
AcDbEntity
  8
TEXT
 62
     1
100
AcDbText
 10
150.5006306481887
 20
88.14901428913959
 30
0.0
 40
7.0
  1
1:2
 41
0.8
  7
GREEKS
100
AcDbText
  0
TEXT
  5
7EA
330
1E
100
AcDbEntity
  8
TEXT
100
AcDbText
 10
160.398997108236
 20
63.10765040825732
 30
0.0
 40
4.0
  1
29.05.
 41
0.8
  7
GREEKS
 72
     1
 11
167.4085209177598
 21
63.10765040825732
 31
0.0
100
AcDbText
  0
LINE
  5
7EB
330
1E
100
AcDbEntity
  8
VOLL
100
AcDbLine
 10
154.0000000000001
 20
79.99999999999994
 30
0.0
 11
154.0000000000001
 21
40.0
 31
0.0
  0
LINE
  5
7EC
330
1E
100
AcDbEntity
  8
STEMPEL
100
AcDbLine
 10
136.0000000000001
 20
109.9999999999999
 30
0.0
 11
136.0
 21
10.0
 31
0.0
  0
TEXT
  5
7ED
330
1E
100
AcDbEntity
  8
TEXT
100
AcDbText
 10
143.5163572150377
 20
102.4620895087088
 30
0.0
 40
5.0
  1
Maßstab
 41
0.8
  7
GREEKS
100
AcDbText
  0
TEXT
  5
7EE
330
1E
100
AcDbEntity
  8
TEXT
100
AcDbText
 10
137.5836127167615
 20
63.62990369617967
 30
0.0
 40
4.0
  1
Gez.
 41
0.8
  7
GREEKS
100
AcDbText
  0
TEXT
  5
7EF
330
1E
100
AcDbEntity
  8
TEXT
100
AcDbText
 10
137.6006777387304
 20
43.5294638964981
 30
0.0
 40
4.0
  1
Norm.
 41
0.8
  7
GREEKS
100
AcDbText
  0
TEXT
  5
7F0
330
1E
100
AcDbEntity
  8
TEXT
100
AcDbText
 10
137.5515086571672
 20
53.68926291428374
 30
0.0
 40
4.0
  1
Gepr.
 41
0.8
  7
GREEKS
100
AcDbText
  0
TEXT
  5
7F1
330
1E
100
AcDbEntity
  8
TEXT
100
AcDbText
 10
138.622109822104
 20
73.14025471151666
 30
0.0
 40
4.0
  1
2008
 41
0.8
  7
GREEKS
100
AcDbText
  0
INSERT
  5
7F2
330
1E
100
AcDbEntity
  8
STEMPEL
100
AcDbBlockReference
  2
LOGO
 10
140.9955485457794
 20
45.02105276448321
 30
0.0
 41
2.0
 42
2.0
 43
2.0
  0
LINE
  5
7F3
330
1E
100
AcDbEntity
  8
HILF
100
AcDbLine
 10
136.0000000000001
 20
70.0
 30
0.0
 11
220.0
 21
70.0
 31
0.0
  0
LINE
  5
7F4
330
1E
100
AcDbEntity
  8
HILF
100
AcDbLine
 10
136.0000000000001
 20
60.0
 30
0.0
 11
220.0
 21
60.0
 31
0.0
  0
LINE
  5
7F5
330
1E
100
AcDbEntity
  8
HILF
100
AcDbLine
 10
136.0000000000001
 20
50.0
 30
0.0
 11
220.0
 21
50.0
 31
0.0
  0
LINE
  5
7F6
330
1E
100
AcDbEntity
  8
STEMPEL
100
AcDbLine
 10
410.0
 20
40.0
 30
0.0
 11
136.0000000000001
 21
40.0
 31
0.0
  0
LINE
  5
7F7
330
1E
100
AcDbEntity
  8
STEMPEL
100
AcDbLine
 10
410.0
 20
80.0
 30
0.0
 11
136.0000000000001
 21
79.99999999999994
 31
0.0
  0
TEXT
  5
7F8
330
1E
100
AcDbEntity
  8
TEXT
100
AcDbText
 10
184.2858954734051
 20
102.4184168434819
 30
0.0
 40
5.0
  1
Zul. Abw.
 41
0.8
  7
GREEKS
100
AcDbText
  0
TEXT
  5
7F9
330
1E
100
AcDbEntity
  8
TEXT
100
AcDbText
 10
182.26571485335
 20
87.50549234323846
 30
0.0
 40
4.0
  1
DIN EN1123-2
 41
0.8
  7
GREEKS
 72
     1
 11
199.2561910438262
 21
87.50549234323846
 31
0.0
100
AcDbText
  0
LINE
  5
1411
330
1E
100
AcDbEntity
  8
TEXT
 62
     1
100
AcDbLine
 10
354.5709169223047
 20
556.5490768793796
 30
0.0
 11
354.5709169223047
 21
549.5490768793796
 31
0.0
  0
LINE
  5
1412
330
1E
100
AcDbEntity
  8
TEXT
 62
     1
100
AcDbLine
 10
347.5709169223047
 20
549.5490768793796
 30
0.0
 11
347.5709169223047
 21
556.5490768793796
 31
0.0
  0
LINE
  5
1413
330
1E
100
AcDbEntity
  8
TEXT
 62
     1
100
AcDbLine
 10
354.5709169223047
 20
549.5490768793796
 30
0.0
 11
347.5709169223047
 21
549.5490768793796
 31
0.0
  0
LINE
  5
1414
330
1E
100
AcDbEntity
  8
TEXT
 62
     1
100
AcDbLine
 10
347.5709169223047
 20
556.5490768793796
 30
0.0
 11
354.5709169223047
 21
556.5490768793796
 31
0.0
  0
LINE
  5
1415
330
1E
100
AcDbEntity
  8
TEXT
 62
     1
100
AcDbLine
 10
351.012325157123
 20
465.4605245424462
 30
0.0
 11
358.012325157123
 21
465.4605245424462
 31
0.0
  0
LINE
  5
1416
330
1E
100
AcDbEntity
  8
TEXT
 62
     1
100
AcDbLine
 10
358.012325157123
 20
458.4605245424461
 30
0.0
 11
351.012325157123
 21
458.4605245424461
 31
0.0
  0
LINE
  5
1417
330
1E
100
AcDbEntity
  8
TEXT
 62
     1
100
AcDbLine
 10
351.012325157123
 20
458.4605245424461
 30
0.0
 11
351.012325157123
 21
465.4605245424462
 31
0.0
  0
LINE
  5
1418
330
1E
100
AcDbEntity
  8
TEXT
 62
     1
100
AcDbLine
 10
358.012325157123
 20
465.4605245424462
 30
0.0
 11
358.012325157123
 21
458.4605245424461
 31
0.0
  0
ARC
  5
1419
102
{ACAD_REACTORS
330
15F1
102
}
330
1E
100
AcDbEntity
  8
STEMPEL
100
AcDbCircle
 10
262.5954037518787
 20
522.3628507975545
 30
0.0
 40
1.5
100
AcDbArc
 50
0.0
 51
90.0
  0
ARC
  5
141A
102
{ACAD_REACTORS
330
15F1
102
}
330
1E
100
AcDbEntity
  8
STEMPEL
100
AcDbCircle
 10
262.5954037518787
 20
522.3628507975545
 30
0.0
 40
3.0
100
AcDbArc
 50
0.0
 51
90.0
  0
LINE
  5
141B
102
{ACAD_REACTORS
330
1645
102
}
330
1E
100
AcDbEntity
  8
STEMPEL
100
AcDbLine
 10
260.5954037518789
 20
514.3628507975545
 30
0.0
 11
269.0954037518789
 21
514.3628507975546
 31
0.0
  0
LINE
  5
141C
102
{ACAD_REACTORS
330
1645
102
}
330
1E
100
AcDbEntity
  8
STEMPEL
100
AcDbLine
 10
269.0954037518789
 20
525.3628507975547
 30
0.0
 11
269.0954037518789
 21
514.3628507975546
 31
0.0
  0
LINE
  5
141D
102
{ACAD_REACTORS
330
1645
102
}
330
1E
100
AcDbEntity
  8
STEMPEL
100
AcDbLine
 10
266.0954037518788
 20
525.3628507975547
 30
0.0
 11
266.0954037518788
 21
517.3628507975546
 31
0.0
  0
LINE
  5
141E
102
{ACAD_REACTORS
330
15F1
102
}
330
1E
100
AcDbEntity
  8
STEMPEL
100
AcDbLine
 10
264.0954037518787
 20
517.3628507975545
 30
0.0
 11
264.0954037518787
 21
522.3628507975545
 31
0.0
  0
LINE
  5
141F
102
{ACAD_REACTORS
330
15F1
102
}
330
1E
100
AcDbEntity
  8
STEMPEL
100
AcDbLine
 10
265.5954037518788
 20
517.3628507975545
 30
0.0
 11
265.5954037518788
 21
522.3628507975545
 31
0.0
  0
POINT
  5
1420
330
1E
100
AcDbEntity
  8
DEFPOINTS
  6
ByBlock
 62
     0
100
AcDbPoint
 10
256.0954037518789
 20
517.3628507975546
 30
0.0
  0
LINE
  5
1421
102
{ACAD_REACTORS
330
15F1
102
}
330
1E
100
AcDbEntity
  8
MITTEL
100
AcDbLine
 10
247.6587424267596
 20
509.3628507975546
 30
0.0
 11
247.6587424267597
 21
526.3628507975546
 31
0.0
  0
LINE
  5
1422
330
1E
100
AcDbEntity
  8
STEMPEL
100
AcDbLine
 10
251.9087424267596
 20
517.3628507975545
 30
0.0
 11
251.9087424267597
 21
521.3628507975546
 31
0.0
  0
LINE
  5
1423
102
{ACAD_REACTORS
330
1645
102
}
330
1E
100
AcDbEntity
  8
STEMPEL
100
AcDbLine
 10
260.0954037518787
 20
494.3628507975545
 30
0.0
 11
260.5954037518787
 21
494.3628507975545
 31
0.0
  0
LINE
  5
1424
102
{ACAD_REACTORS
330
1645
102
}
330
1E
100
AcDbEntity
  8
STEMPEL
100
AcDbLine
 10
260.0954037518787
 20
497.3628507975545
 30
0.0
 11
260.0954037518787
 21
494.3628507975545
 31
0.0
  0
LINE
  5
1425
102
{ACAD_REACTORS
330
1645
102
}
330
1E
100
AcDbEntity
  8
STEMPEL
100
AcDbLine
 10
260.0954037518787
 20
497.3628507975545
 30
0.0
 11
260.5954037518787
 21
497.3628507975545
 31
0.0
  0
LINE
  5
1426
102
{ACAD_REACTORS
330
1645
102
}
330
1E
100
AcDbEntity
  8
STEMPEL
100
AcDbLine
 10
260.5954037518789
 20
514.3628507975545
 30
0.0
 11
260.5954037518789
 21
497.3628507975545
 31
0.0
  0
LINE
  5
1427
330
1E
100
AcDbEntity
  8
STEMPEL
100
AcDbLine
 10
243.4087424267597
 20
517.3628507975545
 30
0.0
 11
243.4087424267597
 21
521.3628507975545
 31
0.0
  0
ARC
  5
1428
102
{ACAD_REACTORS
330
15F1
102
}
330
1E
100
AcDbEntity
  8
STEMPEL
100
AcDbCircle
 10
233.0954037518787
 20
522.3628507975545
 30
0.0
 40
1.5
100
AcDbArc
 50
90.0
 51
180.0
  0
ARC
  5
1429
102
{ACAD_REACTORS
330
15F1
102
}
330
1E
100
AcDbEntity
  8
STEMPEL
100
AcDbCircle
 10
233.0954037518787
 20
522.3628507975545
 30
0.0
 40
3.0
100
AcDbArc
 50
90.0
 51
180.0
  0
LINE
  5
142A
102
{ACAD_REACTORS
330
15F1
102
}
330
1E
100
AcDbEntity
  8
STEMPEL
100
AcDbLine
 10
230.0954037518788
 20
521.3628507975545
 30
0.0
 11
230.0954037518788
 21
522.3628507975545
 31
0.0
  0
LINE
  5
142B
102
{ACAD_REACTORS
330
15F1
102
}
330
1E
100
AcDbEntity
  8
STEMPEL
100
AcDbLine
 10
231.5954037518787
 20
521.3628507975545
 30
0.0
 11
231.5954037518787
 21
522.3628507975545
 31
0.0
  0
LINE
  5
142C
102
{ACAD_REACTORS
330
15F1
102
}
330
1E
100
AcDbEntity
  8
STEMPEL
100
AcDbLine
 10
223.0954037518787
 20
521.3628507975545
 30
0.0
 11
223.0954037518787
 21
522.3628507975545
 31
0.0
  0
LINE
  5
142D
330
1E
100
AcDbEntity
  8
STEMPEL
100
AcDbLine
 10
243.4087424267597
 20
521.3628507975545
 30
0.0
 11
251.9087424267597
 21
521.3628507975546
 31
0.0
  0
LINE
  5
142E
102
{ACAD_REACTORS
330
15F1
102
}
330
1E
100
AcDbEntity
  8
STEMPEL
100
AcDbLine
 10
262.5954037518787
 20
523.8628507975545
 30
0.0
 11
233.0954037518787
 21
523.8628507975545
 31
0.0
  0
LINE
  5
142F
330
1E
100
AcDbEntity
  8
TEXT
 62
     2
100
AcDbLine
 10
286.931375507743
 20
546.2157721426314
 30
0.0
 11
262.1405743360889
 21
525.3370531889363
 31
0.0
  0
ARC
  5
1430
102
{ACAD_REACTORS
330
15F1
102
}
330
1E
100
AcDbEntity
  8
STEMPEL
100
AcDbCircle
 10
220.0954037518787
 20
522.3628507975545
 30
0.0
 40
1.5
100
AcDbArc
 50
0.0
 51
180.0
  0
LINE
  5
1431
102
{ACAD_REACTORS
330
15F1
102
}
330
1E
100
AcDbEntity
  8
STEMPEL
100
AcDbLine
 10
217.0954037518787
 20
521.3628507975545
 30
0.0
 11
217.0954037518787
 21
522.3628507975545
 31
0.0
  0
LINE
  5
1432
102
{ACAD_REACTORS
330
15F1
102
}
330
1E
100
AcDbEntity
  8
STEMPEL
100
AcDbLine
 10
218.5954037518787
 20
521.3628507975545
 30
0.0
 11
218.5954037518787
 21
522.3628507975545
 31
0.0
  0
LINE
  5
1433
102
{ACAD_REACTORS
330
15F1
102
}
330
1E
100
AcDbEntity
  8
STEMPEL
100
AcDbLine
 10
221.5954037518788
 20
521.3628507975545
 30
0.0
 11
221.5954037518788
 21
522.3628507975545
 31
0.0
  0
LINE
  5
1434
102
{ACAD_REACTORS
330
15F1
102
}
330
1E
100
AcDbEntity
  8
STEMPEL
100
AcDbLine
 10
210.0954037518787
 20
521.3628507975545
 30
0.0
 11
210.0954037518787
 21
522.3628507975545
 31
0.0
  0
LINE
  5
1435
102
{ACAD_REACTORS
330
15F1
102
}
330
1E
100
AcDbEntity
  8
STEMPEL
100
AcDbLine
 10
204.0954037518787
 20
521.3628507975545
 30
0.0
 11
204.0954037518787
 21
522.3628507975545
 31
0.0
  0
LINE
  5
1436
102
{ACAD_REACTORS
330
15F1
102
}
330
1E
100
AcDbEntity
  8
STEMPEL
100
AcDbLine
 10
208.5954037518787
 20
521.3628507975545
 30
0.0
 11
208.5954037518787
 21
522.3628507975545
 31
0.0
  0
LINE
  5
1437
102
{ACAD_REACTORS
330
15F1
102
}
330
1E
100
AcDbEntity
  8
STEMPEL
100
AcDbLine
 10
205.5954037518787
 20
521.3628507975545
 30
0.0
 11
205.5954037518787
 21
522.3628507975545
 31
0.0
  0
ARC
  5
1438
102
{ACAD_REACTORS
330
15F1
102
}
330
1E
100
AcDbEntity
  8
STEMPEL
100
AcDbCircle
 10
207.0954037518788
 20
522.3628507975545
 30
0.0
 40
1.5
100
AcDbArc
 50
0.0
 51
180.0
  0
LINE
  5
1439
102
{ACAD_REACTORS
330
15F1
102
}
330
1E
100
AcDbEntity
  8
STEMPEL
100
AcDbLine
 10
197.0954037518787
 20
521.3628507975545
 30
0.0
 11
197.0954037518787
 21
522.3628507975545
 31
0.0
  0
LINE
  5
143A
102
{ACAD_REACTORS
330
15F1
102
}
330
1E
100
AcDbEntity
  8
STEMPEL
100
AcDbLine
 10
208.5954037518787
 20
521.3628507975545
 30
0.0
 11
218.5954037518787
 21
521.3628507975545
 31
0.0
  0
ARC
  5
143B
102
{ACAD_REACTORS
330
15F1
102
}
330
1E
100
AcDbEntity
  8
STEMPEL
100
AcDbCircle
 10
207.0954037518788
 20
522.3628507975545
 30
0.0
 40
3.0
100
AcDbArc
 50
0.0
 51
180.0
  0
ARC
  5
143C
102
{ACAD_REACTORS
330
15F1
102
}
330
1E
100
AcDbEntity
  8
STEMPEL
100
AcDbCircle
 10
194.0954037518787
 20
522.3628507975545
 30
0.0
 40
1.5
100
AcDbArc
 50
0.0
 51
180.0
  0
LINE
  5
143D
102
{ACAD_REACTORS
330
15F1
102
}
330
1E
100
AcDbEntity
  8
STEMPEL
100
AcDbLine
 10
191.0954037518787
 20
521.3628507975545
 30
0.0
 11
191.0954037518787
 21
522.3628507975545
 31
0.0
  0
LINE
  5
143E
102
{ACAD_REACTORS
330
15F1
102
}
330
1E
100
AcDbEntity
  8
STEMPEL
100
AcDbLine
 10
192.5954037518787
 20
521.3628507975545
 30
0.0
 11
192.5954037518787
 21
522.3628507975545
 31
0.0
  0
LINE
  5
143F
102
{ACAD_REACTORS
330
15F1
102
}
330
1E
100
AcDbEntity
  8
STEMPEL
100
AcDbLine
 10
195.5954037518787
 20
521.3628507975545
 30
0.0
 11
195.5954037518787
 21
522.3628507975545
 31
0.0
  0
LINE
  5
1440
102
{ACAD_REACTORS
330
15F1
102
}
330
1E
100
AcDbEntity
  8
STEMPEL
100
AcDbLine
 10
184.0954037518787
 20
521.3628507975545
 30
0.0
 11
184.0954037518787
 21
522.3628507975545
 31
0.0
  0
ARC
  5
1441
102
{ACAD_REACTORS
330
15F1
102
}
330
1E
100
AcDbEntity
  8
STEMPEL
100
AcDbCircle
 10
181.0954037518787
 20
522.3628507975545
 30
0.0
 40
1.5
100
AcDbArc
 50
0.0
 51
180.0
  0
LINE
  5
1442
102
{ACAD_REACTORS
330
15F1
102
}
330
1E
100
AcDbEntity
  8
STEMPEL
100
AcDbLine
 10
178.0954037518787
 20
521.3628507975545
 30
0.0
 11
178.0954037518787
 21
522.3628507975545
 31
0.0
  0
LINE
  5
1443
102
{ACAD_REACTORS
330
15F1
102
}
330
1E
100
AcDbEntity
  8
STEMPEL
100
AcDbLine
 10
179.5954037518787
 20
521.3628507975545
 30
0.0
 11
179.5954037518787
 21
522.3628507975545
 31
0.0
  0
LINE
  5
1444
102
{ACAD_REACTORS
330
15F1
102
}
330
1E
100
AcDbEntity
  8
STEMPEL
100
AcDbLine
 10
182.5954037518787
 20
521.3628507975545
 30
0.0
 11
182.5954037518787
 21
522.3628507975545
 31
0.0
  0
ARC
  5
1445
102
{ACAD_REACTORS
330
15F1
102
}
330
1E
100
AcDbEntity
  8
STEMPEL
100
AcDbCircle
 10
181.0954037518787
 20
522.3628507975545
 30
0.0
 40
3.0
100
AcDbArc
 50
0.0
 51
180.0
  0
LINE
  5
1446
102
{ACAD_REACTORS
330
15F1
102
}
330
1E
100
AcDbEntity
  8
STEMPEL
100
AcDbLine
 10
182.5954037518787
 20
521.3628507975545
 30
0.0
 11
192.5954037518787
 21
521.3628507975545
 31
0.0
  0
LINE
  5
1447
102
{ACAD_REACTORS
330
15F1
102
}
330
1E
100
AcDbEntity
  8
STEMPEL
100
AcDbLine
 10
195.5954037518787
 20
521.3628507975545
 30
0.0
 11
205.5954037518787
 21
521.3628507975545
 31
0.0
  0
ARC
  5
1448
102
{ACAD_REACTORS
330
15F1
102
}
330
1E
100
AcDbEntity
  8
STEMPEL
100
AcDbCircle
 10
194.0954037518787
 20
522.3628507975545
 30
0.0
 40
3.0
100
AcDbArc
 50
0.0
 51
180.0
  0
ARC
  5
1449
102
{ACAD_REACTORS
330
15F1
102
}
330
1E
100
AcDbEntity
  8
STEMPEL
100
AcDbCircle
 10
168.0954037518787
 20
522.3628507975545
 30
0.0
 40
1.5
100
AcDbArc
 50
0.0
 51
180.0
  0
LINE
  5
144A
102
{ACAD_REACTORS
330
15F1
102
}
330
1E
100
AcDbEntity
  8
STEMPEL
100
AcDbLine
 10
166.5954037518787
 20
521.3628507975545
 30
0.0
 11
166.5954037518787
 21
522.3628507975545
 31
0.0
  0
LINE
  5
144B
102
{ACAD_REACTORS
330
15F1
102
}
330
1E
100
AcDbEntity
  8
STEMPEL
100
AcDbLine
 10
169.5954037518787
 20
521.3628507975545
 30
0.0
 11
169.5954037518787
 21
522.3628507975545
 31
0.0
  0
LINE
  5
144C
102
{ACAD_REACTORS
330
15F1
102
}
330
1E
100
AcDbEntity
  8
STEMPEL
100
AcDbLine
 10
171.0954037518787
 20
521.3628507975545
 30
0.0
 11
171.0954037518787
 21
522.3628507975545
 31
0.0
  0
LINE
  5
144D
102
{ACAD_REACTORS
330
15F1
102
}
330
1E
100
AcDbEntity
  8
STEMPEL
100
AcDbLine
 10
165.0954037518787
 20
521.3628507975545
 30
0.0
 11
165.0954037518787
 21
522.3628507975545
 31
0.0
  0
ARC
  5
144E
102
{ACAD_REACTORS
330
15F1
102
}
330
1E
100
AcDbEntity
  8
STEMPEL
100
AcDbCircle
 10
168.0954037518787
 20
522.3628507975545
 30
0.0
 40
3.0
100
AcDbArc
 50
0.0
 51
180.0
  0
LINE
  5
144F
102
{ACAD_REACTORS
330
15F1
102
}
330
1E
100
AcDbEntity
  8
STEMPEL
100
AcDbLine
 10
156.5954037518787
 20
521.3628507975545
 30
0.0
 11
156.5954037518787
 21
522.3628507975545
 31
0.0
  0
POINT
  5
1450
330
1E
100
AcDbEntity
  8
DEFPOINTS
  6
ByBlock
 62
     0
100
AcDbPoint
 10
156.992875122893
 20
524.6865552529838
 30
0.0
  0
LINE
  5
1451
102
{ACAD_REACTORS
330
15F1
102
}
330
1E
100
AcDbEntity
  8
STEMPEL
100
AcDbLine
 10
158.0954037518787
 20
521.3628507975545
 30
0.0
 11
158.0954037518787
 21
522.3628507975545
 31
0.0
  0
ARC
  5
1452
102
{ACAD_REACTORS
330
15F1
102
}
330
1E
100
AcDbEntity
  8
STEMPEL
100
AcDbCircle
 10
155.0954037518787
 20
522.3628507975545
 30
0.0
 40
1.5
100
AcDbArc
 50
0.0
 51
90.0
  0
ARC
  5
1453
102
{ACAD_REACTORS
330
15F1
102
}
330
1E
100
AcDbEntity
  8
STEMPEL
100
AcDbCircle
 10
155.0954037518787
 20
522.3628507975545
 30
0.0
 40
3.0
100
AcDbArc
 50
0.0
 51
90.0
  0
LINE
  5
1454
102
{ACAD_REACTORS
330
15F1
102
}
330
1E
100
AcDbEntity
  8
STEMPEL
100
AcDbLine
 10
156.5954037518787
 20
521.3628507975545
 30
0.0
 11
166.5954037518787
 21
521.3628507975545
 31
0.0
  0
LINE
  5
1455
330
1E
100
AcDbEntity
  8
STEMPEL
100
AcDbLine
 10
144.7820650769975
 20
521.3628507975545
 30
0.0
 11
136.2820650769976
 21
521.3628507975546
 31
0.0
  0
LINE
  5
1456
102
{ACAD_REACTORS
330
15F1
102
}
330
1E
100
AcDbEntity
  8
MITTEL
100
AcDbLine
 10
140.5320650769977
 20
509.3628507975546
 30
0.0
 11
140.5320650769976
 21
526.3628507975546
 31
0.0
  0
LINE
  5
1457
330
1E
100
AcDbEntity
  8
STEMPEL
100
AcDbLine
 10
136.2820650769977
 20
517.3628507975545
 30
0.0
 11
136.2820650769976
 21
521.3628507975546
 31
0.0
  0
LINE
  5
1458
330
1E
100
AcDbEntity
  8
STEMPEL
100
AcDbLine
 10
144.7820650769975
 20
517.3628507975545
 30
0.0
 11
144.7820650769975
 21
521.3628507975545
 31
0.0
  0
ARC
  5
1459
102
{ACAD_REACTORS
330
15F1
102
}
330
1E
100
AcDbEntity
  8
STEMPEL
100
AcDbCircle
 10
125.5954037518787
 20
522.3628507975545
 30
0.0
 40
1.5
100
AcDbArc
 50
90.0
 51
180.0
  0
POINT
  5
145A
330
1E
100
AcDbEntity
  8
DEFPOINTS
  6
ByBlock
 62
     0
100
AcDbPoint
 10
123.2812224345299
 20
524.2719251361893
 30
0.0
  0
ARC
  5
145B
102
{ACAD_REACTORS
330
15F1
102
}
330
1E
100
AcDbEntity
  8
STEMPEL
100
AcDbCircle
 10
125.5954037518787
 20
522.3628507975545
 30
0.0
 40
3.0
100
AcDbArc
 50
90.0
 51
180.0
  0
POINT
  5
145C
330
1E
100
AcDbEntity
  8
DEFPOINTS
  6
ByBlock
 62
     0
100
AcDbPoint
 10
132.0954037518785
 20
517.3628507975546
 30
0.0
  0
LINE
  5
145D
102
{ACAD_REACTORS
330
1645
102
}
330
1E
100
AcDbEntity
  8
STEMPEL
100
AcDbLine
 10
122.0954037518785
 20
525.3628507975547
 30
0.0
 11
122.0954037518785
 21
517.3628507975544
 31
0.0
  0
LINE
  5
145E
102
{ACAD_REACTORS
330
15F1
102
}
330
1E
100
AcDbEntity
  8
STEMPEL
100
AcDbLine
 10
122.5954037518787
 20
517.3628507975545
 30
0.0
 11
122.5954037518787
 21
522.3628507975545
 31
0.0
  0
LINE
  5
145F
102
{ACAD_REACTORS
330
15F1
102
}
330
1E
100
AcDbEntity
  8
STEMPEL
100
AcDbLine
 10
124.0954037518787
 20
517.3628507975545
 30
0.0
 11
124.0954037518787
 21
522.3628507975545
 31
0.0
  0
LINE
  5
1460
102
{ACAD_REACTORS
330
1645
102
}
330
1E
100
AcDbEntity
  8
STEMPEL
100
AcDbLine
 10
128.0954037518786
 20
497.3628507975545
 30
0.0
 11
127.5954037518786
 21
497.3628507975545
 31
0.0
  0
LINE
  5
1461
102
{ACAD_REACTORS
330
1645
102
}
330
1E
100
AcDbEntity
  8
STEMPEL
100
AcDbLine
 10
128.0954037518786
 20
497.3628507975545
 30
0.0
 11
128.0954037518786
 21
494.3628507975545
 31
0.0
  0
LINE
  5
1462
102
{ACAD_REACTORS
330
1645
102
}
330
1E
100
AcDbEntity
  8
STEMPEL
100
AcDbLine
 10
128.0954037518786
 20
494.3628507975545
 30
0.0
 11
127.5954037518786
 21
494.3628507975545
 31
0.0
  0
LINE
  5
1463
102
{ACAD_REACTORS
330
1645
102
}
330
1E
100
AcDbEntity
  8
STEMPEL
100
AcDbLine
 10
127.5954037518785
 20
514.3628507975545
 30
0.0
 11
127.5954037518785
 21
497.3628507975545
 31
0.0
  0
LINE
  5
1464
102
{ACAD_REACTORS
330
15F1
102
}
330
1E
100
AcDbEntity
  8
STEMPEL
100
AcDbLine
 10
125.5954037518787
 20
523.8628507975545
 30
0.0
 11
155.0954037518787
 21
523.8628507975545
 31
0.0
  0
LINE
  5
1465
102
{ACAD_REACTORS
330
15F1
102
}
330
1E
100
AcDbEntity
  8
STEMPEL
100
AcDbLine
 10
169.5954037518787
 20
521.3628507975545
 30
0.0
 11
179.5954037518787
 21
521.3628507975545
 31
0.0
  0
LINE
  5
1466
102
{ACAD_REACTORS
330
15F1
330
1645
102
}
330
1E
100
AcDbEntity
  8
STEMPEL
100
AcDbLine
 10
122.0954037518785
 20
517.3628507975544
 30
0.0
 11
266.0954037518788
 21
517.3628507975546
 31
0.0
  0
LINE
  5
1468
102
{ACAD_REACTORS
330
15F1
102
}
330
1E
100
AcDbEntity
  8
STEMPEL
100
AcDbLine
 10
221.5954037518788
 20
521.3628507975545
 30
0.0
 11
231.5954037518787
 21
521.3628507975545
 31
0.0
  0
ARC
  5
1469
102
{ACAD_REACTORS
330
15F1
102
}
330
1E
100
AcDbEntity
  8
STEMPEL
100
AcDbCircle
 10
220.0954037518787
 20
522.3628507975545
 30
0.0
 40
3.0
100
AcDbArc
 50
0.0
 51
180.0
  0
LINE
  5
146A
102
{ACAD_REACTORS
330
1645
102
}
330
1E
100
AcDbEntity
  8
STEMPEL
100
AcDbLine
 10
260.0954037518787
 20
482.3628507975545
 30
0.0
 11
260.0954037518787
 21
479.3628507975545
 31
0.0
  0
LINE
  5
146B
102
{ACAD_REACTORS
330
1645
102
}
330
1E
100
AcDbEntity
  8
STEMPEL
100
AcDbLine
 10
260.0954037518787
 20
479.3628507975545
 30
0.0
 11
260.5954037518787
 21
479.3628507975545
 31
0.0
  0
LINE
  5
146C
102
{ACAD_REACTORS
330
1645
102
}
330
1E
100
AcDbEntity
  8
STEMPEL
100
AcDbLine
 10
260.0954037518787
 20
482.3628507975545
 30
0.0
 11
260.5954037518787
 21
482.3628507975545
 31
0.0
  0
LINE
  5
146D
102
{ACAD_REACTORS
330
1645
102
}
330
1E
100
AcDbEntity
  8
STEMPEL
100
AcDbLine
 10
260.0954037518787
 20
464.3628507975545
 30
0.0
 11
260.5954037518787
 21
464.3628507975545
 31
0.0
  0
LINE
  5
146E
102
{ACAD_REACTORS
330
1645
102
}
330
1E
100
AcDbEntity
  8
STEMPEL
100
AcDbLine
 10
260.0954037518787
 20
467.3628507975545
 30
0.0
 11
260.0954037518787
 21
464.3628507975545
 31
0.0
  0
LINE
  5
146F
102
{ACAD_REACTORS
330
1645
102
}
330
1E
100
AcDbEntity
  8
STEMPEL
100
AcDbLine
 10
260.0954037518787
 20
467.3628507975545
 30
0.0
 11
260.5954037518787
 21
467.3628507975545
 31
0.0
  0
LINE
  5
1470
102
{ACAD_REACTORS
330
1645
102
}
330
1E
100
AcDbEntity
  8
STEMPEL
100
AcDbLine
 10
260.5954037518789
 20
479.3628507975545
 30
0.0
 11
260.5954037518789
 21
467.3628507975545
 31
0.0
  0
POINT
  5
1471
330
1E
100
AcDbEntity
  8
DEFPOINTS
  6
ByBlock
 62
     0
100
AcDbPoint
 10
256.7129685364155
 20
459.8274002296413
 30
0.0
  0
LINE
  5
1472
102
{ACAD_REACTORS
330
1645
102
}
330
1E
100
AcDbEntity
  8
STEMPEL
100
AcDbLine
 10
260.0954037518787
 20
449.3628507975544
 30
0.0
 11
260.5954037518787
 21
449.3628507975545
 31
0.0
  0
LINE
  5
1473
102
{ACAD_REACTORS
330
1645
102
}
330
1E
100
AcDbEntity
  8
STEMPEL
100
AcDbLine
 10
260.0954037518789
 20
452.3628507975545
 30
0.0
 11
260.0954037518787
 21
449.3628507975544
 31
0.0
  0
LINE
  5
1474
102
{ACAD_REACTORS
330
1645
102
}
330
1E
100
AcDbEntity
  8
STEMPEL
100
AcDbLine
 10
260.0954037518789
 20
452.3628507975545
 30
0.0
 11
260.5954037518787
 21
452.3628507975545
 31
0.0
  0
LINE
  5
1475
102
{ACAD_REACTORS
330
1645
102
}
330
1E
100
AcDbEntity
  8
STEMPEL
100
AcDbLine
 10
260.0954037518787
 20
437.3628507975545
 30
0.0
 11
260.5954037518787
 21
437.3628507975545
 31
0.0
  0
LINE
  5
1476
102
{ACAD_REACTORS
330
1645
102
}
330
1E
100
AcDbEntity
  8
STEMPEL
100
AcDbLine
 10
260.5954037518789
 20
449.3628507975545
 30
0.0
 11
260.5954037518789
 21
437.3628507975545
 31
0.0
  0
LINE
  5
1477
102
{ACAD_REACTORS
330
1645
102
}
330
1E
100
AcDbEntity
  8
STEMPEL
100
AcDbLine
 10
260.5954037518789
 20
464.3628507975545
 30
0.0
 11
260.5954037518789
 21
452.3628507975545
 31
0.0
  0
LINE
  5
1478
102
{ACAD_REACTORS
330
1645
102
}
330
1E
100
AcDbEntity
  8
STEMPEL
100
AcDbLine
 10
260.0954037518787
 20
434.3628507975545
 30
0.0
 11
260.5954037518787
 21
434.3628507975545
 31
0.0
  0
LINE
  5
1479
102
{ACAD_REACTORS
330
1645
102
}
330
1E
100
AcDbEntity
  8
STEMPEL
100
AcDbLine
 10
260.0954037518787
 20
422.3628507975545
 30
0.0
 11
260.0954037518787
 21
419.3628507975545
 31
0.0
  0
LINE
  5
147A
102
{ACAD_REACTORS
330
1645
102
}
330
1E
100
AcDbEntity
  8
STEMPEL
100
AcDbLine
 10
260.0954037518787
 20
419.3628507975545
 30
0.0
 11
260.5954037518787
 21
419.3628507975545
 31
0.0
  0
LINE
  5
147B
102
{ACAD_REACTORS
330
1645
102
}
330
1E
100
AcDbEntity
  8
STEMPEL
100
AcDbLine
 10
260.0954037518787
 20
422.3628507975545
 30
0.0
 11
260.5954037518787
 21
422.3628507975545
 31
0.0
  0
LINE
  5
147C
102
{ACAD_REACTORS
330
1645
102
}
330
1E
100
AcDbEntity
  8
STEMPEL
100
AcDbLine
 10
260.5954037518789
 20
434.3628507975545
 30
0.0
 11
260.5954037518789
 21
422.3628507975545
 31
0.0
  0
LINE
  5
147D
102
{ACAD_REACTORS
330
1645
102
}
330
1E
100
AcDbEntity
  8
STEMPEL
100
AcDbLine
 10
260.0954037518787
 20
404.3628507975545
 30
0.0
 11
260.5954037518787
 21
404.3628507975545
 31
0.0
  0
LINE
  5
147E
102
{ACAD_REACTORS
330
1645
102
}
330
1E
100
AcDbEntity
  8
STEMPEL
100
AcDbLine
 10
260.0954037518787
 20
407.3628507975545
 30
0.0
 11
260.0954037518787
 21
404.3628507975545
 31
0.0
  0
LINE
  5
147F
102
{ACAD_REACTORS
330
1645
102
}
330
1E
100
AcDbEntity
  8
STEMPEL
100
AcDbLine
 10
260.0954037518787
 20
407.3628507975545
 30
0.0
 11
260.5954037518787
 21
407.3628507975545
 31
0.0
  0
LINE
  5
1480
102
{ACAD_REACTORS
330
1645
102
}
330
1E
100
AcDbEntity
  8
STEMPEL
100
AcDbLine
 10
260.0954037518787
 20
392.3628507975545
 30
0.0
 11
260.5954037518787
 21
392.3628507975545
 31
0.0
  0
LINE
  5
1481
102
{ACAD_REACTORS
330
1645
102
}
330
1E
100
AcDbEntity
  8
STEMPEL
100
AcDbLine
 10
260.5954037518787
 20
404.3628507975545
 30
0.0
 11
260.5954037518787
 21
392.3628507975545
 31
0.0
  0
LINE
  5
1482
102
{ACAD_REACTORS
330
1645
102
}
330
1E
100
AcDbEntity
  8
STEMPEL
100
AcDbLine
 10
260.5954037518789
 20
419.3628507975545
 30
0.0
 11
260.5954037518787
 21
407.3628507975545
 31
0.0
  0
LINE
  5
1483
102
{ACAD_REACTORS
330
1645
102
}
330
1E
100
AcDbEntity
  8
STEMPEL
100
AcDbLine
 10
260.0954037518787
 20
437.3628507975545
 30
0.0
 11
260.0954037518787
 21
434.3628507975545
 31
0.0
  0
LINE
  5
1484
330
1E
100
AcDbEntity
  8
TEXT
 62
     2
100
AcDbLine
 10
286.931375507743
 20
455.1272198056979
 30
0.0
 11
258.9437153110635
 21
444.7471854742112
 31
0.0
  0
LINE
  5
1485
102
{ACAD_REACTORS
330
1645
102
}
330
1E
100
AcDbEntity
  8
STEMPEL
100
AcDbLine
 10
260.0954037518787
 20
389.3628507975545
 30
0.0
 11
260.5954037518787
 21
389.3628507975545
 31
0.0
  0
LINE
  5
1486
102
{ACAD_REACTORS
330
1645
102
}
330
1E
100
AcDbEntity
  8
STEMPEL
100
AcDbLine
 10
260.5954037518787
 20
389.3628507975545
 30
0.0
 11
260.5954037518787
 21
375.3628507975545
 31
0.0
  0
POINT
  5
1487
330
1E
100
AcDbEntity
  8
DEFPOINTS
  6
ByBlock
 62
     0
100
AcDbPoint
 10
258.745361621126
 20
375.3628507975546
 30
0.0
  0
POINT
  5
1488
330
1E
100
AcDbEntity
  8
DEFPOINTS
  6
ByBlock
 62
     0
100
AcDbPoint
 10
269.0954037518787
 20
320.7084230705546
 30
0.0
  0
POINT
  5
1489
330
1E
100
AcDbEntity
  8
DEFPOINTS
  6
ByBlock
 62
     0
100
AcDbPoint
 10
266.0954037518787
 20
317.7084230705546
 30
0.0
  0
ARC
  5
148A
330
1E
100
AcDbEntity
  8
STEMPEL
100
AcDbCircle
 10
262.5954037518787
 20
314.2084230705546
 30
0.0
 40
3.0
100
AcDbArc
 50
0.0
 51
90.0
  0
LINE
  5
148B
102
{ACAD_REACTORS
330
1645
102
}
330
1E
100
AcDbEntity
  8
STEMPEL
100
AcDbLine
 10
260.0954037518787
 20
392.3628507975545
 30
0.0
 11
260.0954037518787
 21
389.3628507975545
 31
0.0
  0
LINE
  5
148C
102
{ACAD_REACTORS
330
1645
102
}
330
1E
100
AcDbEntity
  8
STEMPEL
100
AcDbLine
 10
128.0954037518786
 20
482.3628507975545
 30
0.0
 11
128.0954037518786
 21
479.3628507975545
 31
0.0
  0
LINE
  5
148D
102
{ACAD_REACTORS
330
1645
102
}
330
1E
100
AcDbEntity
  8
STEMPEL
100
AcDbLine
 10
128.0954037518786
 20
479.3628507975545
 30
0.0
 11
127.5954037518786
 21
479.3628507975545
 31
0.0
  0
LINE
  5
148E
102
{ACAD_REACTORS
330
1645
102
}
330
1E
100
AcDbEntity
  8
STEMPEL
100
AcDbLine
 10
128.0954037518786
 20
482.3628507975545
 30
0.0
 11
127.5954037518786
 21
482.3628507975545
 31
0.0
  0
LINE
  5
148F
102
{ACAD_REACTORS
330
1645
102
}
330
1E
100
AcDbEntity
  8
STEMPEL
100
AcDbLine
 10
128.0954037518786
 20
467.3628507975545
 30
0.0
 11
127.5954037518786
 21
467.3628507975545
 31
0.0
  0
LINE
  5
1490
102
{ACAD_REACTORS
330
1645
102
}
330
1E
100
AcDbEntity
  8
STEMPEL
100
AcDbLine
 10
128.0954037518786
 20
467.3628507975545
 30
0.0
 11
128.0954037518786
 21
464.3628507975545
 31
0.0
  0
LINE
  5
1491
102
{ACAD_REACTORS
330
1645
102
}
330
1E
100
AcDbEntity
  8
STEMPEL
100
AcDbLine
 10
128.0954037518786
 20
464.3628507975545
 30
0.0
 11
127.5954037518786
 21
464.3628507975545
 31
0.0
  0
POINT
  5
1492
330
1E
100
AcDbEntity
  8
DEFPOINTS
  6
ByBlock
 62
     0
100
AcDbPoint
 10
131.4778389673419
 20
459.8274002296413
 30
0.0
  0
LINE
  5
1493
102
{ACAD_REACTORS
330
1645
102
}
330
1E
100
AcDbEntity
  8
STEMPEL
100
AcDbLine
 10
127.5954037518785
 20
479.3628507975545
 30
0.0
 11
127.5954037518785
 21
467.3628507975545
 31
0.0
  0
LINE
  5
1494
102
{ACAD_REACTORS
330
1645
102
}
330
1E
100
AcDbEntity
  8
STEMPEL
100
AcDbLine
 10
128.0954037518785
 20
452.3628507975545
 30
0.0
 11
127.5954037518786
 21
452.3628507975545
 31
0.0
  0
LINE
  5
1495
102
{ACAD_REACTORS
330
1645
102
}
330
1E
100
AcDbEntity
  8
STEMPEL
100
AcDbLine
 10
128.0954037518785
 20
452.3628507975545
 30
0.0
 11
128.0954037518786
 21
449.3628507975544
 31
0.0
  0
LINE
  5
1496
102
{ACAD_REACTORS
330
1645
102
}
330
1E
100
AcDbEntity
  8
STEMPEL
100
AcDbLine
 10
128.0954037518786
 20
449.3628507975544
 30
0.0
 11
127.5954037518786
 21
449.3628507975545
 31
0.0
  0
LINE
  5
1497
102
{ACAD_REACTORS
330
1645
102
}
330
1E
100
AcDbEntity
  8
STEMPEL
100
AcDbLine
 10
128.0954037518786
 20
437.3628507975545
 30
0.0
 11
127.5954037518786
 21
437.3628507975545
 31
0.0
  0
LINE
  5
1498
102
{ACAD_REACTORS
330
1645
102
}
330
1E
100
AcDbEntity
  8
STEMPEL
100
AcDbLine
 10
127.5954037518785
 20
449.3628507975545
 30
0.0
 11
127.5954037518785
 21
437.3628507975545
 31
0.0
  0
LINE
  5
1499
102
{ACAD_REACTORS
330
1645
102
}
330
1E
100
AcDbEntity
  8
STEMPEL
100
AcDbLine
 10
127.5954037518785
 20
464.3628507975545
 30
0.0
 11
127.5954037518785
 21
452.3628507975545
 31
0.0
  0
LINE
  5
149A
102
{ACAD_REACTORS
330
1645
102
}
330
1E
100
AcDbEntity
  8
STEMPEL
100
AcDbLine
 10
128.0954037518786
 20
434.3628507975545
 30
0.0
 11
127.5954037518786
 21
434.3628507975545
 31
0.0
  0
LINE
  5
149B
102
{ACAD_REACTORS
330
1645
102
}
330
1E
100
AcDbEntity
  8
STEMPEL
100
AcDbLine
 10
128.0954037518786
 20
422.3628507975545
 30
0.0
 11
128.0954037518786
 21
419.3628507975545
 31
0.0
  0
LINE
  5
149C
102
{ACAD_REACTORS
330
1645
102
}
330
1E
100
AcDbEntity
  8
STEMPEL
100
AcDbLine
 10
128.0954037518786
 20
419.3628507975545
 30
0.0
 11
127.5954037518786
 21
419.3628507975545
 31
0.0
  0
LINE
  5
149D
102
{ACAD_REACTORS
330
1645
102
}
330
1E
100
AcDbEntity
  8
STEMPEL
100
AcDbLine
 10
128.0954037518786
 20
422.3628507975545
 30
0.0
 11
127.5954037518786
 21
422.3628507975545
 31
0.0
  0
LINE
  5
149E
102
{ACAD_REACTORS
330
1645
102
}
330
1E
100
AcDbEntity
  8
STEMPEL
100
AcDbLine
 10
127.5954037518785
 20
434.3628507975545
 30
0.0
 11
127.5954037518785
 21
422.3628507975545
 31
0.0
  0
LINE
  5
149F
102
{ACAD_REACTORS
330
1645
102
}
330
1E
100
AcDbEntity
  8
STEMPEL
100
AcDbLine
 10
128.0954037518786
 20
407.3628507975545
 30
0.0
 11
127.5954037518786
 21
407.3628507975545
 31
0.0
  0
LINE
  5
14A0
102
{ACAD_REACTORS
330
1645
102
}
330
1E
100
AcDbEntity
  8
STEMPEL
100
AcDbLine
 10
128.0954037518786
 20
407.3628507975545
 30
0.0
 11
128.0954037518786
 21
404.3628507975545
 31
0.0
  0
LINE
  5
14A1
102
{ACAD_REACTORS
330
1645
102
}
330
1E
100
AcDbEntity
  8
STEMPEL
100
AcDbLine
 10
128.0954037518786
 20
404.3628507975545
 30
0.0
 11
127.5954037518786
 21
404.3628507975545
 31
0.0
  0
LINE
  5
14A2
102
{ACAD_REACTORS
330
1645
102
}
330
1E
100
AcDbEntity
  8
STEMPEL
100
AcDbLine
 10
128.0954037518786
 20
392.3628507975545
 30
0.0
 11
127.5954037518786
 21
392.3628507975545
 31
0.0
  0
LINE
  5
14A3
102
{ACAD_REACTORS
330
1645
102
}
330
1E
100
AcDbEntity
  8
STEMPEL
100
AcDbLine
 10
127.5954037518786
 20
404.3628507975545
 30
0.0
 11
127.5954037518786
 21
392.3628507975545
 31
0.0
  0
LINE
  5
14A4
102
{ACAD_REACTORS
330
1645
102
}
330
1E
100
AcDbEntity
  8
STEMPEL
100
AcDbLine
 10
127.5954037518785
 20
419.3628507975545
 30
0.0
 11
127.5954037518786
 21
407.3628507975545
 31
0.0
  0
LINE
  5
14A5
102
{ACAD_REACTORS
330
1645
102
}
330
1E
100
AcDbEntity
  8
STEMPEL
100
AcDbLine
 10
128.0954037518786
 20
437.3628507975545
 30
0.0
 11
128.0954037518786
 21
434.3628507975545
 31
0.0
  0
LINE
  5
14A6
330
1E
100
AcDbEntity
  8
BEM
 62
     1
100
AcDbLine
 10
181.4662746561283
 20
345.0341667848783
 30
0.0
 11
188.4662746561282
 21
345.0341667848783
 31
0.0
  0
LINE
  5
14A7
330
1E
100
AcDbEntity
  8
BEM
 62
     1
100
AcDbLine
 10
188.4662746561282
 20
338.0341667848783
 30
0.0
 11
181.4662746561283
 21
338.0341667848783
 31
0.0
  0
LINE
  5
14A8
330
1E
100
AcDbEntity
  8
BEM
 62
     1
100
AcDbLine
 10
181.4662746561283
 20
338.0341667848783
 30
0.0
 11
181.4662746561283
 21
345.0341667848783
 31
0.0
  0
LINE
  5
14A9
330
1E
100
AcDbEntity
  8
BEM
 62
     1
100
AcDbLine
 10
188.4662746561282
 20
345.0341667848783
 30
0.0
 11
188.4662746561282
 21
338.0341667848783
 31
0.0
  0
LINE
  5
14AA
102
{ACAD_REACTORS
330
1645
102
}
330
1E
100
AcDbEntity
  8
STEMPEL
100
AcDbLine
 10
128.0954037518786
 20
389.3628507975545
 30
0.0
 11
127.5954037518786
 21
389.3628507975545
 31
0.0
  0
POINT
  5
14AB
330
1E
100
AcDbEntity
  8
DEFPOINTS
  6
ByBlock
 62
     0
100
AcDbPoint
 10
129.4454458826313
 20
375.3628507975546
 30
0.0
  0
LINE
  5
14AC
102
{ACAD_REACTORS
330
1645
102
}
330
1E
100
AcDbEntity
  8
STEMPEL
100
AcDbLine
 10
127.5954037518786
 20
389.3628507975545
 30
0.0
 11
127.5954037518786
 21
375.3628507975545
 31
0.0
  0
POINT
  5
14AD
330
1E
100
AcDbEntity
  8
DEFPOINTS
  6
ByBlock
 62
     0
100
AcDbPoint
 10
122.0954037518787
 20
317.7084230705546
 30
0.0
  0
ARC
  5
14AE
330
1E
100
AcDbEntity
  8
STEMPEL
100
AcDbCircle
 10
125.5954037518787
 20
314.2084230705546
 30
0.0
 40
3.0
100
AcDbArc
 50
90.0
 51
180.0
  0
LINE
  5
14AF
102
{ACAD_REACTORS
330
1645
102
}
330
1E
100
AcDbEntity
  8
STEMPEL
100
AcDbLine
 10
128.0954037518786
 20
392.3628507975545
 30
0.0
 11
128.0954037518786
 21
389.3628507975545
 31
0.0
  0
LINE
  5
14B0
102
{ACAD_REACTORS
330
1645
102
}
330
1E
100
AcDbEntity
  8
STEMPEL
100
AcDbLine
 10
127.5954037518787
 20
375.3628507975545
 30
0.0
 11
260.5954037518787
 21
375.3628507975545
 31
0.0
  0
DIMENSION
  5
14B1
330
1E
100
AcDbEntity
  8
BEM
100
AcDbDimension
  2
*D1
 10
260.5954037518787
 20
354.034226949075
 30
0.0
 11
194.0954037518787
 21
360.534226949075
 31
0.0
 70
    32
  1
%%c<>
 71
     5
 42
133.0
  3
Standard
100
AcDbAlignedDimension
 13
127.5954037518787
 23
375.3628507975545
 33
0.0
 14
260.5954037518787
 24
375.3628507975545
 34
0.0
100
AcDbRotatedDimension
1001
ACAD
1000
DSTYLE
1002
{
1070
    40
1040
2.0
1070
    41
1040
3.5
1070
    42
1040
1.0
1070
    43
1040
7.0
1070
    44
1040
1.0
1070
    73
1070
     0
1070
    74
1070
     0
1070
    77
1070
     1
1070
    78
1070
     8
1070
    79
1070
     2
1070
   140
1040
3.5
1070
   141
1040
1.5
1070
   146
1040
0.5142857142857144
1070
   147
1040
1.5
1070
   172
1070
     1
1070
   178
1070
     1
1070
   179
1070
     2
1070
   271
1070
     2
1070
   272
1070
     2
1070
   284
1070
     8
1070
   285
1070
     8
1070
   286
1070
     8
1002
}
  0
LINE
  5
14B2
330
1E
100
AcDbEntity
  8
STEMPEL
100
AcDbLine
 10
266.0954037518787
 20
317.7084230705546
 30
0.0
 11
122.0954037518787
 21
317.7084230705546
 31
0.0
  0
LINE
  5
14B3
330
1E
100
AcDbEntity
  8
STEMPEL
100
AcDbLine
 10
125.5954037518787
 20
317.2084230705546
 30
0.0
 11
262.5954037518787
 21
317.2084230705546
 31
0.0
  0
LINE
  5
14B4
102
{ACAD_REACTORS
330
1645
102
}
330
1E
100
AcDbEntity
  8
STEMPEL
100
AcDbLine
 10
127.5954037518785
 20
494.3628507975545
 30
0.0
 11
127.5954037518785
 21
482.3628507975544
 31
0.0
  0
LINE
  5
14B5
102
{ACAD_REACTORS
330
1645
102
}
330
1E
100
AcDbEntity
  8
STEMPEL
100
AcDbLine
 10
132.0954037518785
 20
517.3628507975546
 30
0.0
 11
129.5954037518785
 21
375.3628507975545
 31
0.0
  0
LINE
  5
14B6
102
{ACAD_REACTORS
330
1645
102
}
330
1E
100
AcDbEntity
  8
STEMPEL
100
AcDbLine
 10
260.5954037518789
 20
494.3628507975545
 30
0.0
 11
260.5954037518789
 21
482.3628507975544
 31
0.0
  0
LINE
  5
14B7
102
{ACAD_REACTORS
330
1645
102
}
330
1E
100
AcDbEntity
  8
STEMPEL
100
AcDbLine
 10
256.0954037518789
 20
517.3628507975546
 30
0.0
 11
258.5954037518789
 21
375.3628507975545
 31
0.0
  0
LINE
  5
14B8
102
{ACAD_REACTORS
330
15F1
102
}
330
1E
100
AcDbEntity
  8
MITTEL
100
AcDbLine
 10
194.0954037518787
 20
530.3628507975544
 30
0.0
 11
194.0954037518787
 21
370.3628507975547
 31
0.0
  0
LINE
  5
14B9
102
{ACAD_REACTORS
330
1645
102
}
330
1E
100
AcDbEntity
  8
STEMPEL
100
AcDbLine
 10
119.0954037518785
 20
525.3628507975547
 30
0.0
 11
119.0954037518785
 21
514.3628507975546
 31
0.0
  0
DIMENSION
  5
14BA
330
1E
100
AcDbEntity
  8
BEM
100
AcDbDimension
  2
*D2
 10
105.463384412711
 20
514.3628507975546
 30
0.0
 11
98.9633844127109
 21
494.5628507975546
 31
0.0
 70
    32
 71
     5
 42
11.00000000000011
  3
Standard
100
AcDbAlignedDimension
 13
119.0954037518785
 23
525.3628507975547
 33
0.0
 14
119.0954037518785
 24
514.3628507975546
 34
0.0
 50
90.0
100
AcDbRotatedDimension
1001
ACAD
1000
DSTYLE
1002
{
1070
    40
1040
2.0
1070
    41
1040
3.5
1070
    42
1040
1.0
1070
    43
1040
7.0
1070
    44
1040
1.0
1070
    73
1070
     0
1070
    74
1070
     0
1070
    77
1070
     1
1070
    78
1070
     8
1070
    79
1070
     2
1070
   140
1040
3.5
1070
   141
1040
1.5
1070
   146
1040
0.5142857142857144
1070
   147
1040
1.5
1070
   172
1070
     1
1070
   178
1070
     1
1070
   179
1070
     2
1070
   271
1070
     2
1070
   272
1070
     2
1070
   284
1070
     8
1070
   285
1070
     8
1070
   286
1070
     8
1002
}
  0
POINT
  5
14BB
330
1E
100
AcDbEntity
  8
DEFPOINTS
  6
ByBlock
 62
     0
100
AcDbPoint
 10
119.0954037518787
 20
320.7084230705546
 30
0.0
  0
LINE
  5
14BD
102
{ACAD_REACTORS
330
15F1
330
1645
102
}
330
1E
100
AcDbEntity
  8
STEMPEL
100
AcDbLine
 10
119.0954037518785
 20
525.3628507975545
 30
0.0
 11
269.0954037518789
 21
525.3628507975547
 31
0.0
  0
DIMENSION
  5
14BE
330
1E
100
AcDbEntity
  8
BEM
100
AcDbDimension
  2
*D3
 10
269.0954037518787
 20
334.9751346339501
 30
0.0
 11
196.6955550757949
 21
334.9751346339501
 31
0.0
 70
   160
 71
     5
 42
150.0
  3
Standard
100
AcDbAlignedDimension
 13
119.0954037518787
 23
320.7084230705546
 33
0.0
 14
269.0954037518787
 24
320.7084230705546
 34
0.0
100
AcDbRotatedDimension
1001
ACAD
1000
DSTYLE
1002
{
1070
    40
1040
2.0
1070
    41
1040
3.5
1070
    42
1040
1.0
1070
    43
1040
7.0
1070
    44
1040
1.0
1070
    73
1070
     0
1070
    74
1070
     0
1070
    77
1070
     1
1070
    78
1070
     8
1070
    79
1070
     2
1070
   140
1040
3.5
1070
   141
1040
1.5
1070
   146
1040
0.5142857142857144
1070
   147
1040
1.5
1070
   172
1070
     1
1070
   178
1070
     1
1070
   179
1070
     2
1070
   271
1070
     2
1070
   272
1070
     2
1070
   284
1070
     8
1070
   285
1070
     8
1070
   286
1070
     8
1002
}
  0
LINE
  5
14BF
330
1E
100
AcDbEntity
  8
STEMPEL
100
AcDbLine
 10
269.0954037518787
 20
320.7084230705546
 30
0.0
 11
119.0954037518787
 21
320.7084230705546
 31
0.0
  0
DIMENSION
  5
14C0
330
1E
100
AcDbEntity
  8
BEM
100
AcDbDimension
  2
*D4
 10
90.54929091924213
 20
375.3628507975545
 30
0.0
 11
84.04929091924207
 21
450.3628507975545
 31
0.0
 70
    32
 71
     5
 42
150.0
  3
Standard
100
AcDbAlignedDimension
 13
119.0954037518785
 23
525.3628507975545
 33
0.0
 14
127.5954037518786
 24
375.3628507975545
 34
0.0
 50
90.0
100
AcDbRotatedDimension
1001
ACAD
1000
DSTYLE
1002
{
1070
    40
1040
2.0
1070
    41
1040
3.5
1070
    42
1040
1.0
1070
    43
1040
7.0
1070
    44
1040
1.0
1070
    73
1070
     0
1070
    74
1070
     0
1070
    77
1070
     1
1070
    78
1070
     8
1070
    79
1070
     2
1070
   140
1040
3.5
1070
   141
1040
1.5
1070
   146
1040
0.5142857142857144
1070
   147
1040
1.5
1070
   172
1070
     1
1070
   178
1070
     1
1070
   179
1070
     2
1070
   271
1070
     2
1070
   272
1070
     2
1070
   284
1070
     8
1070
   285
1070
     8
1070
   286
1070
     8
1002
}
  0
LINE
  5
14C1
102
{ACAD_REACTORS
330
1645
102
}
330
1E
100
AcDbEntity
  8
STEMPEL
100
AcDbLine
 10
127.5954037518785
 20
514.3628507975545
 30
0.0
 11
119.0954037518785
 21
514.3628507975546
 31
0.0
  0
LINE
  5
14C2
330
1E
100
AcDbEntity
  8
MITTEL
100
AcDbLine
 10
221.0954037518787
 20
266.2084230705546
 30
0.0
 11
232.0954037518787
 21
266.2084230705546
 31
0.0
  0
ARC
  5
14C3
330
1E
100
AcDbEntity
  8
STEMPEL
100
AcDbCircle
 10
226.5954037518787
 20
266.2084230705546
 30
0.0
 40
3.5
100
AcDbArc
 50
0.0
 51
180.0
  0
LINE
  5
14C4
330
1E
100
AcDbEntity
  8
STEMPEL
100
AcDbLine
 10
223.0954037518787
 20
252.2084230705546
 30
0.0
 11
223.0954037518787
 21
266.2084230705546
 31
0.0
  0
LINE
  5
14C5
330
1E
100
AcDbEntity
  8
STEMPEL
100
AcDbLine
 10
230.0954037518787
 20
252.2084230705546
 30
0.0
 11
230.0954037518787
 21
266.2084230705546
 31
0.0
  0
ARC
  5
14C6
330
1E
100
AcDbEntity
  8
STEMPEL
100
AcDbCircle
 10
226.5954037518787
 20
239.2084230705545
 30
0.0
 40
3.5
100
AcDbArc
 50
0.0
 51
180.0
  0
LINE
  5
14C7
330
1E
100
AcDbEntity
  8
MITTEL
100
AcDbLine
 10
221.0954037518787
 20
225.2084230705545
 30
0.0
 11
232.0954037518787
 21
225.2084230705545
 31
0.0
  0
LINE
  5
14C8
330
1E
100
AcDbEntity
  8
STEMPEL
100
AcDbLine
 10
223.0954037518787
 20
239.2084230705545
 30
0.0
 11
223.0954037518787
 21
225.2084230705545
 31
0.0
  0
LINE
  5
14C9
330
1E
100
AcDbEntity
  8
STEMPEL
100
AcDbLine
 10
230.0954037518787
 20
239.2084230705545
 30
0.0
 11
230.0954037518787
 21
225.2084230705545
 31
0.0
  0
ARC
  5
14CA
330
1E
100
AcDbEntity
  8
STEMPEL
100
AcDbCircle
 10
226.5954037518787
 20
225.2084230705545
 30
0.0
 40
3.5
100
AcDbArc
 50
180.0
 51
0.0
  0
LINE
  5
14CB
330
1E
100
AcDbEntity
  8
MITTEL
100
AcDbLine
 10
226.5954037518787
 20
219.7084230705545
 30
0.0
 11
226.5954037518787
 21
271.7084230705546
 31
0.0
  0
ARC
  5
14CC
330
1E
100
AcDbEntity
  8
STEMPEL
100
AcDbCircle
 10
226.5954037518787
 20
252.2084230705546
 30
0.0
 40
3.5
100
AcDbArc
 50
180.0
 51
0.0
  0
ARC
  5
14CD
330
1E
100
AcDbEntity
  8
STEMPEL
100
AcDbCircle
 10
262.5954037518787
 20
177.2084230705545
 30
0.0
 40
3.0
100
AcDbArc
 50
270.0
 51
0.0
  0
LINE
  5
14CE
330
1E
100
AcDbEntity
  8
MITTEL
100
AcDbLine
 10
208.0954037518787
 20
278.2084230705546
 30
0.0
 11
219.0954037518787
 21
278.2084230705546
 31
0.0
  0
ARC
  5
14CF
330
1E
100
AcDbEntity
  8
STEMPEL
100
AcDbCircle
 10
213.5954037518787
 20
278.2084230705546
 30
0.0
 40
3.5
100
AcDbArc
 50
0.0
 51
180.0
  0
ARC
  5
14D0
330
1E
100
AcDbEntity
  8
STEMPEL
100
AcDbCircle
 10
200.5954037518787
 20
283.2084230705546
 30
0.0
 40
3.5
100
AcDbArc
 50
0.0
 51
180.0
  0
LINE
  5
14D1
330
1E
100
AcDbEntity
  8
STEMPEL
100
AcDbLine
 10
204.0954037518787
 20
252.2084230705546
 30
0.0
 11
204.0954037518787
 21
283.2084230705546
 31
0.0
  0
LINE
  5
14D2
330
1E
100
AcDbEntity
  8
STEMPEL
100
AcDbLine
 10
210.0954037518787
 20
252.2084230705546
 30
0.0
 11
210.0954037518787
 21
278.2084230705546
 31
0.0
  0
LINE
  5
14D3
330
1E
100
AcDbEntity
  8
STEMPEL
100
AcDbLine
 10
217.0954037518787
 20
252.2084230705546
 30
0.0
 11
217.0954037518787
 21
278.2084230705546
 31
0.0
  0
LINE
  5
14D4
330
1E
100
AcDbEntity
  8
STEMPEL
100
AcDbLine
 10
197.0954037518787
 20
252.2084230705546
 30
0.0
 11
197.0954037518787
 21
283.2084230705546
 31
0.0
  0
ARC
  5
14D5
330
1E
100
AcDbEntity
  8
STEMPEL
100
AcDbCircle
 10
187.5954037518787
 20
283.2084230705546
 30
0.0
 40
3.5
100
AcDbArc
 50
0.0
 51
180.0
  0
ARC
  5
14D6
330
1E
100
AcDbEntity
  8
STEMPEL
100
AcDbCircle
 10
174.5954037518787
 20
278.2084230705546
 30
0.0
 40
3.5
100
AcDbArc
 50
0.0
 51
180.0
  0
LINE
  5
14D7
330
1E
100
AcDbEntity
  8
STEMPEL
100
AcDbLine
 10
171.0954037518787
 20
252.2084230705546
 30
0.0
 11
171.0954037518787
 21
278.2084230705546
 31
0.0
  0
LINE
  5
14D8
330
1E
100
AcDbEntity
  8
STEMPEL
100
AcDbLine
 10
178.0954037518787
 20
252.2084230705546
 30
0.0
 11
178.0954037518787
 21
278.2084230705546
 31
0.0
  0
LINE
  5
14D9
330
1E
100
AcDbEntity
  8
STEMPEL
100
AcDbLine
 10
184.0954037518787
 20
252.2084230705546
 30
0.0
 11
184.0954037518787
 21
283.2084230705546
 31
0.0
  0
LINE
  5
14DA
330
1E
100
AcDbEntity
  8
STEMPEL
100
AcDbLine
 10
191.0954037518787
 20
252.2084230705546
 30
0.0
 11
191.0954037518787
 21
283.2084230705546
 31
0.0
  0
LINE
  5
14DB
330
1E
100
AcDbEntity
  8
MITTEL
100
AcDbLine
 10
182.0954037518787
 20
283.2084230705546
 30
0.0
 11
206.0954037518787
 21
283.2084230705546
 31
0.0
  0
ARC
  5
14DC
330
1E
100
AcDbEntity
  8
STEMPEL
100
AcDbCircle
 10
213.5954037518787
 20
239.2084230705545
 30
0.0
 40
3.5
100
AcDbArc
 50
0.0
 51
180.0
  0
ARC
  5
14DD
330
1E
100
AcDbEntity
  8
STEMPEL
100
AcDbCircle
 10
200.5954037518787
 20
239.2084230705545
 30
0.0
 40
3.5
100
AcDbArc
 50
0.0
 51
180.0
  0
LINE
  5
14DE
330
1E
100
AcDbEntity
  8
MITTEL
100
AcDbLine
 10
208.0954037518787
 20
213.2084230705545
 30
0.0
 11
219.0954037518787
 21
213.2084230705545
 31
0.0
  0
ARC
  5
14DF
330
1E
100
AcDbEntity
  8
STEMPEL
100
AcDbCircle
 10
213.5954037518787
 20
213.2084230705545
 30
0.0
 40
3.5
100
AcDbArc
 50
180.0
 51
0.0
  0
ARC
  5
14E0
330
1E
100
AcDbEntity
  8
STEMPEL
100
AcDbCircle
 10
200.5954037518787
 20
208.2084230705545
 30
0.0
 40
3.5
100
AcDbArc
 50
180.0
 51
0.0
  0
LINE
  5
14E1
330
1E
100
AcDbEntity
  8
STEMPEL
100
AcDbLine
 10
204.0954037518787
 20
239.2084230705545
 30
0.0
 11
204.0954037518787
 21
208.2084230705545
 31
0.0
  0
LINE
  5
14E2
330
1E
100
AcDbEntity
  8
STEMPEL
100
AcDbLine
 10
210.0954037518787
 20
239.2084230705545
 30
0.0
 11
210.0954037518787
 21
213.2084230705545
 31
0.0
  0
LINE
  5
14E3
330
1E
100
AcDbEntity
  8
STEMPEL
100
AcDbLine
 10
217.0954037518787
 20
239.2084230705545
 30
0.0
 11
217.0954037518787
 21
213.2084230705545
 31
0.0
  0
LINE
  5
14E4
330
1E
100
AcDbEntity
  8
STEMPEL
100
AcDbLine
 10
197.0954037518787
 20
239.2084230705545
 30
0.0
 11
197.0954037518787
 21
208.2084230705545
 31
0.0
  0
ARC
  5
14E5
330
1E
100
AcDbEntity
  8
STEMPEL
100
AcDbCircle
 10
187.5954037518787
 20
239.2084230705545
 30
0.0
 40
3.5
100
AcDbArc
 50
0.0
 51
180.0
  0
ARC
  5
14E6
330
1E
100
AcDbEntity
  8
STEMPEL
100
AcDbCircle
 10
174.5954037518787
 20
239.2084230705545
 30
0.0
 40
3.5
100
AcDbArc
 50
0.0
 51
180.0
  0
ARC
  5
14E7
330
1E
100
AcDbEntity
  8
STEMPEL
100
AcDbCircle
 10
187.5954037518787
 20
208.2084230705545
 30
0.0
 40
3.5
100
AcDbArc
 50
180.0
 51
0.0
  0
ARC
  5
14E8
330
1E
100
AcDbEntity
  8
STEMPEL
100
AcDbCircle
 10
174.5954037518787
 20
213.2084230705545
 30
0.0
 40
3.5
100
AcDbArc
 50
180.0
 51
0.0
  0
LINE
  5
14E9
330
1E
100
AcDbEntity
  8
STEMPEL
100
AcDbLine
 10
171.0954037518787
 20
239.2084230705545
 30
0.0
 11
171.0954037518787
 21
213.2084230705545
 31
0.0
  0
LINE
  5
14EA
330
1E
100
AcDbEntity
  8
STEMPEL
100
AcDbLine
 10
178.0954037518787
 20
239.2084230705545
 30
0.0
 11
178.0954037518787
 21
213.2084230705545
 31
0.0
  0
LINE
  5
14EB
330
1E
100
AcDbEntity
  8
STEMPEL
100
AcDbLine
 10
184.0954037518787
 20
239.2084230705545
 30
0.0
 11
184.0954037518787
 21
208.2084230705545
 31
0.0
  0
LINE
  5
14EC
330
1E
100
AcDbEntity
  8
STEMPEL
100
AcDbLine
 10
191.0954037518787
 20
239.2084230705545
 30
0.0
 11
191.0954037518787
 21
208.2084230705545
 31
0.0
  0
LINE
  5
14ED
330
1E
100
AcDbEntity
  8
MITTEL
100
AcDbLine
 10
182.0954037518787
 20
208.2084230705545
 30
0.0
 11
206.0954037518787
 21
208.2084230705545
 31
0.0
  0
LINE
  5
14EE
330
1E
100
AcDbEntity
  8
MITTEL
100
AcDbLine
 10
174.5954037518787
 20
207.7084230705545
 30
0.0
 11
174.5954037518787
 21
283.7084230705546
 31
0.0
  0
LINE
  5
14EF
330
1E
100
AcDbEntity
  8
MITTEL
100
AcDbLine
 10
213.5954037518787
 20
207.7084230705545
 30
0.0
 11
213.5954037518787
 21
283.7084230705546
 31
0.0
  0
ARC
  5
14F0
330
1E
100
AcDbEntity
  8
STEMPEL
100
AcDbCircle
 10
174.5954037518787
 20
252.2084230705546
 30
0.0
 40
3.5
100
AcDbArc
 50
180.0
 51
0.0
  0
ARC
  5
14F1
330
1E
100
AcDbEntity
  8
STEMPEL
100
AcDbCircle
 10
187.5954037518787
 20
252.2084230705546
 30
0.0
 40
3.5
100
AcDbArc
 50
180.0
 51
0.0
  0
ARC
  5
14F2
330
1E
100
AcDbEntity
  8
STEMPEL
100
AcDbCircle
 10
213.5954037518787
 20
252.2084230705546
 30
0.0
 40
3.5
100
AcDbArc
 50
180.0
 51
0.0
  0
ARC
  5
14F3
330
1E
100
AcDbEntity
  8
STEMPEL
100
AcDbCircle
 10
200.5954037518787
 20
252.2084230705546
 30
0.0
 40
3.5
100
AcDbArc
 50
180.0
 51
0.0
  0
ARC
  5
14F4
330
1E
100
AcDbEntity
  8
STEMPEL
100
AcDbCircle
 10
161.5954037518787
 20
266.2084230705546
 30
0.0
 40
3.5
100
AcDbArc
 50
0.0
 51
180.0
  0
LINE
  5
14F5
330
1E
100
AcDbEntity
  8
STEMPEL
100
AcDbLine
 10
158.0954037518787
 20
252.2084230705546
 30
0.0
 11
158.0954037518787
 21
266.2084230705546
 31
0.0
  0
LINE
  5
14F6
330
1E
100
AcDbEntity
  8
STEMPEL
100
AcDbLine
 10
165.0954037518787
 20
252.2084230705546
 30
0.0
 11
165.0954037518787
 21
266.2084230705546
 31
0.0
  0
LINE
  5
14F7
330
1E
100
AcDbEntity
  8
MITTEL
100
AcDbLine
 10
156.0954037518787
 20
266.2084230705546
 30
0.0
 11
167.0954037518787
 21
266.2084230705546
 31
0.0
  0
ARC
  5
14F8
330
1E
100
AcDbEntity
  8
STEMPEL
100
AcDbCircle
 10
161.5954037518787
 20
239.2084230705545
 30
0.0
 40
3.5
100
AcDbArc
 50
0.0
 51
180.0
  0
ARC
  5
14F9
330
1E
100
AcDbEntity
  8
STEMPEL
100
AcDbCircle
 10
161.5954037518787
 20
225.2084230705545
 30
0.0
 40
3.5
100
AcDbArc
 50
180.0
 51
0.0
  0
LINE
  5
14FA
330
1E
100
AcDbEntity
  8
MITTEL
100
AcDbLine
 10
156.0954037518787
 20
225.2084230705545
 30
0.0
 11
167.0954037518787
 21
225.2084230705545
 31
0.0
  0
LINE
  5
14FB
330
1E
100
AcDbEntity
  8
STEMPEL
100
AcDbLine
 10
165.0954037518787
 20
239.2084230705545
 30
0.0
 11
165.0954037518787
 21
225.2084230705545
 31
0.0
  0
LINE
  5
14FC
330
1E
100
AcDbEntity
  8
STEMPEL
100
AcDbLine
 10
158.0954037518787
 20
239.2084230705545
 30
0.0
 11
158.0954037518787
 21
225.2084230705545
 31
0.0
  0
LINE
  5
14FD
330
1E
100
AcDbEntity
  8
MITTEL
100
AcDbLine
 10
161.5954037518787
 20
219.7084230705545
 30
0.0
 11
161.5954037518787
 21
271.7084230705546
 31
0.0
  0
ARC
  5
14FE
330
1E
100
AcDbEntity
  8
STEMPEL
100
AcDbCircle
 10
161.5954037518787
 20
252.2084230705546
 30
0.0
 40
3.5
100
AcDbArc
 50
180.0
 51
0.0
  0
LINE
  5
14FF
330
1E
100
AcDbEntity
  8
MITTEL
100
AcDbLine
 10
169.0954037518787
 20
213.2084230705545
 30
0.0
 11
180.0954037518787
 21
213.2084230705545
 31
0.0
  0
LINE
  5
1500
330
1E
100
AcDbEntity
  8
MITTEL
100
AcDbLine
 10
169.0954037518787
 20
278.2084230705546
 30
0.0
 11
180.0954037518787
 21
278.2084230705546
 31
0.0
  0
ARC
  5
1501
330
1E
100
AcDbEntity
  8
STEMPEL
100
AcDbCircle
 10
125.5954037518787
 20
177.2084230705545
 30
0.0
 40
3.0
100
AcDbArc
 50
180.0
 51
270.0
  0
POINT
  5
1502
330
1E
100
AcDbEntity
  8
DEFPOINTS
  6
ByBlock
 62
     0
100
AcDbPoint
 10
123.3089471482932
 20
175.2662294139076
 30
0.0
  0
LINE
  5
1503
330
1E
100
AcDbEntity
  8
MITTEL
100
AcDbLine
 10
187.5954037518787
 20
202.7084230705545
 30
0.0
 11
187.5954037518787
 21
288.7084230705546
 31
0.0
  0
LINE
  5
1504
330
1E
100
AcDbEntity
  8
MITTEL
100
AcDbLine
 10
200.5954037518787
 20
202.7084230705545
 30
0.0
 11
200.5954037518787
 21
288.7084230705546
 31
0.0
  0
LINE
  5
1505
330
1E
100
AcDbEntity
  8
STEMPEL
100
AcDbLine
 10
266.0954037518787
 20
173.7084230705545
 30
0.0
 11
122.0954037518787
 21
173.7084230705545
 31
0.0
  0
LINE
  5
1506
330
1E
100
AcDbEntity
  8
STEMPEL
100
AcDbLine
 10
125.5954037518787
 20
174.2084230705545
 30
0.0
 11
262.5954037518787
 21
174.2084230705545
 31
0.0
  0
LINE
  5
1507
330
1E
100
AcDbEntity
  8
MITTEL
100
AcDbLine
 10
156.0954037518787
 20
252.2084230705546
 30
0.0
 11
232.0954037518787
 21
252.2084230705546
 31
0.0
  0
LINE
  5
1508
330
1E
100
AcDbEntity
  8
MITTEL
100
AcDbLine
 10
156.0954037518787
 20
239.2084230705545
 30
0.0
 11
232.0954037518787
 21
239.2084230705545
 31
0.0
  0
LINE
  5
1509
330
1E
100
AcDbEntity
  8
MITTEL
100
AcDbLine
 10
114.0954037518787
 20
245.7084230705545
 30
0.0
 11
274.0954037518787
 21
245.7084230705545
 31
0.0
  0
LINE
  5
150A
330
1E
100
AcDbEntity
  8
STEMPEL
100
AcDbLine
 10
269.0954037518787
 20
170.7084230705545
 30
0.0
 11
119.0954037518787
 21
170.7084230705545
 31
0.0
  0
LINE
  5
150B
330
1E
100
AcDbEntity
  8
MITTEL
100
AcDbLine
 10
194.0954037518787
 20
325.7084230705544
 30
0.0
 11
194.0954037518786
 21
165.7084230705545
 31
0.0
  0
LINE
  5
150C
330
1E
100
AcDbEntity
  8
STEMPEL
100
AcDbLine
 10
119.0954037518787
 20
320.7084230705546
 30
0.0
 11
119.0954037518787
 21
170.7084230705545
 31
0.0
  0
LINE
  5
150D
330
1E
100
AcDbEntity
  8
STEMPEL
100
AcDbLine
 10
122.0954037518787
 20
317.7084230705546
 30
0.0
 11
122.0954037518787
 21
173.7084230705545
 31
0.0
  0
LINE
  5
150E
330
1E
100
AcDbEntity
  8
STEMPEL
100
AcDbLine
 10
269.0954037518787
 20
320.7084230705546
 30
0.0
 11
269.0954037518787
 21
170.7084230705545
 31
0.0
  0
LINE
  5
150F
330
1E
100
AcDbEntity
  8
STEMPEL
100
AcDbLine
 10
266.0954037518787
 20
317.7084230705546
 30
0.0
 11
266.0954037518787
 21
173.7084230705545
 31
0.0
  0
LINE
  5
1510
330
1E
100
AcDbEntity
  8
STEMPEL
100
AcDbLine
 10
265.5954037518788
 20
177.2084230705545
 30
0.0
 11
265.5954037518788
 21
314.2084230705546
 31
0.0
  0
LINE
  5
1511
330
1E
100
AcDbEntity
  8
STEMPEL
100
AcDbLine
 10
122.5954037518787
 20
177.2084230705545
 30
0.0
 11
122.5954037518787
 21
314.2084230705546
 31
0.0
  0
TEXT
  5
1512
330
1E
100
AcDbEntity
  8
TEXT
 62
     1
100
AcDbText
 10
286.9140825984132
 20
445.6604722677527
 30
0.0
 40
7.0
  1
EDV-Art.Nr. 16290.100X
 41
0.8
  7
GREEKS
100
AcDbText
  0
TEXT
  5
1513
330
1E
100
AcDbEntity
  8
TEXT
 62
     1
100
AcDbText
 10
286.9532037187424
 20
458.5071252225943
 30
0.0
 40
7.0
  1
Siebaufnahme   150
 41
0.8
  7
GREEKS
100
AcDbText
  0
LINE
  5
1514
330
1E
100
AcDbEntity
  8
TEXT
 62
     2
100
AcDbLine
 10
286.931375507743
 20
455.1272198056979
 30
0.0
 11
390.4898603144732
 21
455.1272198056979
 31
0.0
  0
TEXT
  5
1515
330
1E
100
AcDbEntity
  8
TEXT
 62
     1
100
AcDbText
 10
286.9140825984132
 20
536.7490246046862
 30
0.0
 40
7.0
  1
EDV-Art.Nr. 16197.000X
 41
0.8
  7
GREEKS
100
AcDbText
  0
TEXT
  5
1516
330
1E
100
AcDbEntity
  8
TEXT
 62
     1
100
AcDbText
 10
286.9532037187424
 20
549.5956775595277
 30
0.0
 40
7.0
  1
Edelstahlsieb   143
 41
0.8
  7
GREEKS
100
AcDbText
  0
LINE
  5
1517
330
1E
100
AcDbEntity
  8
TEXT
 62
     2
100
AcDbLine
 10
286.931375507743
 20
546.2157721426314
 30
0.0
 11
390.4898603144732
 21
546.2157721426314
 31
0.0
  0
HATCH
  5
15F1
330
1E
100
AcDbEntity
  8
SCHRAFF
100
AcDbHatch
 10
0.0
 20
0.0
 30
0.0
210
0.0
220
0.0
230
1.0
  2
_USER
 70
     0
 71
     1
 91
       10
 92
        7
 72
     1
 73
     1
 93
        8
 10
262.5954037518787
 20
525.3628507975547
 42
0.0
 10
247.6587424267597
 20
525.3628507975547
 42
0.0
 10
247.6587424267597
 20
523.8628507975544
 42
0.0
 10
262.5954037518787
 20
523.8628507975545
 42
-0.4142135623730951
 10
264.0954037518787
 20
522.3628507975545
 42
0.0
 10
264.0954037518787
 20
517.3628507975546
 42
0.0
 10
265.5954037518788
 20
517.3628507975546
 42
0.0
 10
265.5954037518788
 20
522.3628507975545
 42
0.4142135623731173
 97
        8
330
14BD
330
1421
330
142E
330
1419
330
141E
330
1466
330
141F
330
141A
 92
        7
 72
     1
 73
     1
 93
        8
 10
247.6587424267597
 20
525.3628507975546
 42
0.0
 10
233.0954037518787
 20
525.3628507975546
 42
0.4142135623731064
 10
230.0954037518788
 20
522.3628507975545
 42
0.0
 10
230.0954037518788
 20
521.3628507975545
 42
0.0
 10
231.5954037518787
 20
521.3628507975545
 42
0.0
 10
231.5954037518787
 20
522.3628507975545
 42
-0.4142135623730951
 10
233.0954037518787
 20
523.8628507975545
 42
0.0
 10
247.6587424267598
 20
523.8628507975545
 42
0.0
 97
        8
330
14BD
330
1429
330
142A
330
1468
330
142B
330
1428
330
142E
330
1421
 92
        7
 72
     1
 73
     1
 93
        8
 10
217.0954037518787
 20
522.3628507975545
 42
0.0
 10
217.0954037518787
 20
521.3628507975545
 42
0.0
 10
218.5954037518787
 20
521.3628507975545
 42
0.0
 10
218.5954037518787
 20
522.3628507975545
 42
-1.0
 10
221.5954037518788
 20
522.3628507975545
 42
0.0
 10
221.5954037518788
 20
521.3628507975545
 42
0.0
 10
223.0954037518787
 20
521.3628507975545
 42
0.0
 10
223.0954037518787
 20
522.3628507975545
 42
1.0
 97
        8
330
1431
330
143A
330
1432
330
1430
330
1433
330
1468
330
142C
330
1469
 92
        7
 72
     1
 73
     1
 93
        8
 10
204.0954037518787
 20
522.3628507975545
 42
0.0
 10
204.0954037518787
 20
521.3628507975545
 42
0.0
 10
205.5954037518787
 20
521.3628507975545
 42
0.0
 10
205.5954037518787
 20
522.3628507975545
 42
-1.0
 10
208.5954037518787
 20
522.3628507975545
 42
0.0
 10
208.5954037518787
 20
521.3628507975545
 42
0.0
 10
210.0954037518787
 20
521.3628507975545
 42
0.0
 10
210.0954037518787
 20
522.3628507975545
 42
1.0
 97
        8
330
1435
330
1447
330
1437
330
1438
330
1436
330
143A
330
1434
330
143B
 92
        7
 72
     1
 73
     1
 93
        6
 10
194.0954037518787
 20
525.3628507975545
 42
0.0
 10
194.0954037518787
 20
523.8628507975545
 42
-0.4142135623730951
 10
195.5954037518787
 20
522.3628507975545
 42
0.0
 10
195.5954037518787
 20
521.3628507975545
 42
0.0
 10
197.0954037518787
 20
521.3628507975545
 42
0.0
 10
197.0954037518787
 20
522.3628507975545
 42
0.4142135623730951
 97
        6
330
14B8
330
143C
330
143F
330
1447
330
1439
330
1448
 92
        7
 72
     1
 73
     1
 93
        6
 10
194.0954037518787
 20
525.3628507975545
 42
0.4142135623730978
 10
191.0954037518787
 20
522.3628507975545
 42
0.0
 10
191.0954037518787
 20
521.3628507975545
 42
0.0
 10
192.5954037518787
 20
521.3628507975545
 42
0.0
 10
192.5954037518787
 20
522.3628507975545
 42
-0.4142135623730951
 10
194.0954037518787
 20
523.8628507975545
 42
0.0
 97
        6
330
1448
330
143D
330
1446
330
143E
330
143C
330
14B8
 92
        7
 72
     1
 73
     1
 93
        8
 10
178.0954037518787
 20
522.3628507975545
 42
0.0
 10
178.0954037518787
 20
521.3628507975545
 42
0.0
 10
179.5954037518787
 20
521.3628507975545
 42
0.0
 10
179.5954037518787
 20
522.3628507975545
 42
-1.0
 10
182.5954037518787
 20
522.3628507975545
 42
0.0
 10
182.5954037518787
 20
521.3628507975545
 42
0.0
 10
184.0954037518787
 20
521.3628507975545
 42
0.0
 10
184.0954037518787
 20
522.3628507975545
 42
1.0
 97
        8
330
1442
330
1465
330
1443
330
1441
330
1444
330
1446
330
1440
330
1445
 92
        7
 72
     1
 73
     1
 93
        8
 10
165.0954037518787
 20
522.3628507975545
 42
0.0
 10
165.0954037518787
 20
521.3628507975545
 42
0.0
 10
166.5954037518787
 20
521.3628507975545
 42
0.0
 10
166.5954037518787
 20
522.3628507975545
 42
-1.0
 10
169.5954037518787
 20
522.3628507975545
 42
0.0
 10
169.5954037518787
 20
521.3628507975545
 42
0.0
 10
171.0954037518787
 20
521.3628507975545
 42
0.0
 10
171.0954037518787
 20
522.3628507975545
 42
1.0
 97
        8
330
144D
330
1454
330
144A
330
1449
330
144B
330
1465
330
144C
330
144E
 92
        7
 72
     1
 73
     1
 93
        8
 10
155.0954037518787
 20
525.3628507975545
 42
0.0
 10
140.5320650769975
 20
525.3628507975545
 42
0.0
 10
140.5320650769975
 20
523.8628507975545
 42
0.0
 10
155.0954037518787
 20
523.8628507975545
 42
-0.4142135623730951
 10
156.5954037518787
 20
522.3628507975545
 42
0.0
 10
156.5954037518787
 20
521.3628507975545
 42
0.0
 10
158.0954037518787
 20
521.3628507975545
 42
0.0
 10
158.0954037518787
 20
522.3628507975545
 42
0.4142135623730951
 97
        8
330
14BD
330
1456
330
1464
330
1452
330
144F
330
1454
330
1451
330
1453
 92
        7
 72
     1
 73
     1
 93
        8
 10
140.5320650769976
 20
525.3628507975545
 42
0.0
 10
125.5954037518787
 20
525.3628507975545
 42
0.4142135623730951
 10
122.5954037518787
 20
522.3628507975545
 42
0.0
 10
122.5954037518787
 20
517.3628507975544
 42
0.0
 10
124.0954037518787
 20
517.3628507975543
 42
0.0
 10
124.0954037518787
 20
522.3628507975545
 42
-0.4142135623730951
 10
125.5954037518787
 20
523.8628507975545
 42
0.0
 10
140.5320650769976
 20
523.8628507975545
 42
0.0
 97
        8
330
14BD
330
145B
330
145E
330
1466
330
145F
330
1459
330
1464
330
1456
 75
     0
 76
     0
 52
45.0
 41
2.0
 77
     0
 78
     1
 53
45.0
 43
0.0
 44
0.0
 45
-1.414213562373094
 46
1.414213562373095
 79
     0
 47
0.2375034398025973
 98
       10
 10
251.3259988842155
 20
524.0436829932798
 10
246.5730633885014
 20
524.756193541614
 10
219.4813391536873
 20
524.2811874408305
 10
208.0742970958791
 20
524.2811874408305
 10
195.7166668949594
 20
524.2811874408305
 10
192.6272586922491
 20
524.2811874408305
 10
180.7449238678459
 20
524.2811874408305
 10
169.1002354267402
 20
524.2811874408305
 10
155.3167243161142
 20
524.5186904912222
 10
136.3049875531005
 20
524.756193541614
  0
HATCH
  5
1645
330
1E
100
AcDbEntity
  8
SCHRAFF
100
AcDbHatch
 10
0.0
 20
0.0
 30
0.0
210
0.0
220
0.0
230
1.0
  2
NET
 70
     0
 71
     1
 91
        2
 92
        7
 72
     0
 73
     1
 93
       40
 10
260.5954037518789
 20
514.3628507975545
 10
269.0954037518789
 20
514.3628507975546
 10
269.0954037518789
 20
525.3628507975546
 10
266.0954037518789
 20
525.3628507975546
 10
266.0954037518788
 20
517.3628507975546
 10
256.0954037518788
 20
517.3628507975546
 10
258.5954037518789
 20
375.3628507975545
 10
260.5954037518787
 20
375.3628507975546
 10
260.5954037518787
 20
389.3628507975545
 10
260.0954037518787
 20
389.3628507975545
 10
260.0954037518787
 20
392.3628507975545
 10
260.5954037518787
 20
392.3628507975545
 10
260.5954037518787
 20
404.3628507975545
 10
260.0954037518787
 20
404.3628507975545
 10
260.0954037518787
 20
407.3628507975545
 10
260.5954037518787
 20
407.3628507975545
 10
260.5954037518789
 20
419.3628507975545
 10
260.0954037518787
 20
419.3628507975545
 10
260.0954037518787
 20
422.3628507975545
 10
260.5954037518789
 20
422.3628507975545
 10
260.5954037518789
 20
434.3628507975545
 10
260.0954037518787
 20
434.3628507975545
 10
260.0954037518787
 20
437.3628507975545
 10
260.5954037518789
 20
437.3628507975545
 10
260.5954037518789
 20
449.3628507975545
 10
260.0954037518787
 20
449.3628507975544
 10
260.0954037518788
 20
452.3628507975545
 10
260.5954037518789
 20
452.3628507975545
 10
260.5954037518789
 20
464.3628507975545
 10
260.0954037518787
 20
464.3628507975545
 10
260.0954037518787
 20
467.3628507975545
 10
260.5954037518789
 20
467.3628507975545
 10
260.5954037518789
 20
479.3628507975545
 10
260.0954037518787
 20
479.3628507975545
 10
260.0954037518787
 20
482.3628507975545
 10
260.5954037518789
 20
482.3628507975545
 10
260.5954037518789
 20
494.3628507975545
 10
260.0954037518787
 20
494.3628507975545
 10
260.0954037518787
 20
497.3628507975545
 10
260.5954037518789
 20
497.3628507975545
 97
       40
330
141B
330
141C
330
14BD
330
141D
330
1466
330
14B7
330
14B0
330
1486
330
1485
330
148B
330
1480
330
1481
330
147D
330
147E
330
147F
330
1482
330
147A
330
1479
330
147B
330
147C
330
1478
330
1483
330
1475
330
1476
330
1472
330
1473
330
1474
330
1477
330
146D
330
146E
330
146F
330
1470
330
146B
330
146A
330
146C
330
14B6
330
1423
330
1424
330
1425
330
1426
 92
        7
 72
     0
 73
     1
 93
       40
 10
132.0954037518785
 20
517.3628507975544
 10
122.0954037518785
 20
517.3628507975544
 10
122.0954037518785
 20
525.3628507975545
 10
119.0954037518785
 20
525.3628507975545
 10
119.0954037518785
 20
514.3628507975546
 10
127.5954037518785
 20
514.3628507975545
 10
127.5954037518785
 20
497.3628507975545
 10
128.0954037518786
 20
497.3628507975545
 10
128.0954037518786
 20
494.3628507975545
 10
127.5954037518785
 20
494.3628507975545
 10
127.5954037518785
 20
482.3628507975545
 10
128.0954037518786
 20
482.3628507975545
 10
128.0954037518786
 20
479.3628507975545
 10
127.5954037518785
 20
479.3628507975545
 10
127.5954037518785
 20
467.3628507975545
 10
128.0954037518786
 20
467.3628507975545
 10
128.0954037518786
 20
464.3628507975545
 10
127.5954037518785
 20
464.3628507975545
 10
127.5954037518785
 20
452.3628507975545
 10
128.0954037518785
 20
452.3628507975545
 10
128.0954037518786
 20
449.3628507975545
 10
127.5954037518785
 20
449.3628507975545
 10
127.5954037518785
 20
437.3628507975545
 10
128.0954037518786
 20
437.3628507975545
 10
128.0954037518786
 20
434.3628507975545
 10
127.5954037518785
 20
434.3628507975545
 10
127.5954037518785
 20
422.3628507975545
 10
128.0954037518786
 20
422.3628507975545
 10
128.0954037518786
 20
419.3628507975545
 10
127.5954037518785
 20
419.3628507975545
 10
127.5954037518786
 20
407.3628507975545
 10
128.0954037518786
 20
407.3628507975545
 10
128.0954037518786
 20
404.3628507975545
 10
127.5954037518786
 20
404.3628507975545
 10
127.5954037518786
 20
392.3628507975545
 10
128.0954037518786
 20
392.3628507975545
 10
128.0954037518786
 20
389.3628507975545
 10
127.5954037518786
 20
389.3628507975545
 10
127.5954037518786
 20
375.3628507975545
 10
129.5954037518785
 20
375.3628507975545
 97
       40
330
1466
330
145D
330
14BD
330
14B9
330
14C1
330
1463
330
1460
330
1461
330
1462
330
14B4
330
148E
330
148C
330
148D
330
1493
330
148F
330
1490
330
1491
330
1499
330
1494
330
1495
330
1496
330
1498
330
1497
330
14A5
330
149A
330
149E
330
149D
330
149B
330
149C
330
14A4
330
149F
330
14A0
330
14A1
330
14A3
330
14A2
330
14AF
330
14AA
330
14AC
330
14B0
330
14B5
 75
     0
 76
     1
 52
45.0
 41
20.0
 77
     0
 78
     2
 53
45.0
 43
0.0
 44
0.0
 45
-1.767766952966368
 46
1.767766952966368
 79
     0
 53
135.0
 43
0.0
 44
0.0
 45
-1.767766952966368
 46
-1.767766952966368
 79
     0
 47
0.2842259503475083
 98
        2
 10
258.7786969931826
 20
502.6970069046288
 10
130.5154617878411
 20
502.1285546216031
  0
ENDSEC
  0
SECTION
  2
OBJECTS
  0
DICTIONARY
  5
C
330
0
100
AcDbDictionary
281
     1
  3
ACAD_COLOR
350
DF
  3
ACAD_GROUP
350
D
  3
ACAD_LAYOUT
350
19
  3
ACAD_MATERIAL
350
DE
  3
ACAD_MLINESTYLE
350
16
  3
ACAD_PLOTSETTINGS
350
18
  3
ACAD_PLOTSTYLENAME
350
E
  3
AcDbVariableDictionary
350
EA
  0
DICTIONARY
  5
A0
330
1E
100
AcDbDictionary
280
     1
281
     1
  3
ACAD_LAYOUTSELFREF
360
D4
  0
DICTIONARY
  5
A2
330
1A
100
AcDbDictionary
280
     1
281
     1
  3
ACAD_LAYOUTSELFREF
360
D3
  0
DICTIONARY
  5
DF
102
{ACAD_REACTORS
330
C
102
}
330
C
100
AcDbDictionary
281
     1
  0
DICTIONARY
  5
D
102
{ACAD_REACTORS
330
C
102
}
330
C
100
AcDbDictionary
281
     1
  0
DICTIONARY
  5
19
102
{ACAD_REACTORS
330
C
102
}
330
C
100
AcDbDictionary
281
     1
  3
Layout1
350
1D
  3
Model
350
21
  0
DICTIONARY
  5
DE
102
{ACAD_REACTORS
330
C
102
}
330
C
100
AcDbDictionary
281
     1
  0
DICTIONARY
  5
16
102
{ACAD_REACTORS
330
C
102
}
330
C
100
AcDbDictionary
281
     1
  3
Standard
350
17
  0
DICTIONARY
  5
18
102
{ACAD_REACTORS
330
C
102
}
330
C
100
AcDbDictionary
281
     1
  0
ACDBDICTIONARYWDFLT
  5
E
102
{ACAD_REACTORS
330
C
102
}
330
C
100
AcDbDictionary
281
     1
  3
Normal
350
F
100
AcDbDictionaryWithDefault
340
F
  0
DICTIONARY
  5
EA
102
{ACAD_REACTORS
330
C
102
}
330
C
100
AcDbDictionary
281
     1
  3
DIMASSOC
350
EB
  3
PROJECTNAME
350
EC
  0
XRECORD
  5
D4
102
{ACAD_REACTORS
330
A0
102
}
330
A0
100
AcDbXrecord
280
     1
340
1E
  0
XRECORD
  5
D3
102
{ACAD_REACTORS
330
A2
102
}
330
A2
100
AcDbXrecord
280
     1
340
1A
  0
LAYOUT
  5
1D
102
{ACAD_REACTORS
330
19
102
}
330
19
100
AcDbPlotSettings
  1

  2
\\NT_WORK01\HP LaserJet 5000 PCL 6
  4

  6

 40
0.0
 41
0.0
 42
0.0
 43
0.0
 44
0.0
 45
0.0
 46
0.0
 47
0.0
 48
0.0
 49
0.0
140
0.0
141
0.0
142
1.0
143
1.0
 70
   688
 72
     0
 73
     0
 74
     5
  7

 75
    16
147
1.0
 76
     0
 77
     2
 78
   300
148
0.0
149
0.0
100
AcDbLayout
  1
Layout1
 70
     0
 71
     1
 10
0.0
 20
0.0
 11
12.0
 21
9.0
 12
0.0
 22
0.0
 32
0.0
 14
1.000000000000000E+20
 24
1.000000000000000E+20
 34
1.000000000000000E+20
 15
-1.000000000000000E+20
 25
-1.000000000000000E+20
 35
-1.000000000000000E+20
146
0.0
 13
0.0
 23
0.0
 33
0.0
 16
1.0
 26
0.0
 36
0.0
 17
0.0
 27
1.0
 37
0.0
 76
     0
330
1A
  0
LAYOUT
  5
21
102
{ACAD_REACTORS
330
19
102
}
330
19
100
AcDbPlotSettings
  1

  2
none_device
  4
Letter_(8.50_x_11.00_Inches)
  6

 40
6.349999904632568
 41
6.349999904632568
 42
6.350006103515625
 43
6.350006103515625
 44
215.8999938964844
 45
279.3999938964844
 46
0.0
 47
0.0
 48
0.0
 49
0.0
140
0.0
141
0.0
142
1.0
143
1.0
 70
 11952
 72
     0
 73
     1
 74
     0
  7

 75
     0
147
1.0
 76
     0
 77
     2
 78
   300
148
2271.647086223434
149
61.84701676039883
100
AcDbLayout
  1
Model
 70
     1
 71
     0
 10
0.0
 20
0.0
 11
12.0
 21
9.0
 12
0.0
 22
0.0
 32
0.0
 14
0.0
 24
0.0
 34
0.0
 15
0.0
 25
0.0
 35
0.0
146
0.0
 13
0.0
 23
0.0
 33
0.0
 16
1.0
 26
0.0
 36
0.0
 17
0.0
 27
1.0
 37
0.0
 76
     0
330
1E
  0
MLINESTYLE
  5
17
102
{ACAD_REACTORS
330
16
102
}
330
16
100
AcDbMlineStyle
  2
STANDARD
 70
     0
  3

 62
   256
 51
90.0
 52
90.0
 71
     2
 49
0.5
 62
   256
  6
BYLAYER
 49
-0.5
 62
   256
  6
BYLAYER
  0
ACDBPLACEHOLDER
  5
F
102
{ACAD_REACTORS
330
E
102
}
330
E
  0
DICTIONARYVAR
  5
EB
102
{ACAD_REACTORS
330
EA
102
}
330
EA
100
DictionaryVariables
280
     0
  1
1
  0
DICTIONARYVAR
  5
EC
102
{ACAD_REACTORS
330
EA
102
}
330
EA
100
DictionaryVariables
280
     0
  1

  0
ENDSEC
  0
EOF
