  0
SECTION
  2
HEADER
  9
$ACADVER
  1
AC1018
  9
$ACADMAINTVER
 70
     2
  9
$DWGCODEPAGE
  3
ANSI_1252
  9
$INSBASE
 10
0.0
 20
0.0
 30
0.0
  9
$EXTMIN
 10
-0.025627235270008
 20
-0.0362442327398185
 30
-0.000000000000013
  9
$EXTMAX
 10
420.0256404375887
 20
594.0362629045889
 30
0.0000000000000023
  9
$LIMMIN
 10
0.0
 20
0.0
  9
$LIMMAX
 10
419.9999999999999
 20
594.0
  9
$ORTHOMODE
 70
     1
  9
$REGENMODE
 70
     1
  9
$FILLMODE
 70
     1
  9
$QTEXTMODE
 70
     0
  9
$MIRRTEXT
 70
     1
  9
$LTSCALE
 40
20.0
  9
$ATTMODE
 70
     1
  9
$TEXTSIZE
 40
3.5
  9
$TRACEWID
 40
0.5
  9
$TEXTSTYLE
  7
STANDARD
  9
$CLAYER
  8
SCHRAFF
  9
$CELTYPE
  6
ByLayer
  9
$CECOLOR
 62
   256
  9
$CELTSCALE
 40
1.0
  9
$DISPSILH
 70
     0
  9
$DIMSCALE
 40
2.0
  9
$DIMASZ
 40
3.5
  9
$DIMEXO
 40
1.0
  9
$DIMDLI
 40
7.0
  9
$DIMRND
 40
0.0
  9
$DIMDLE
 40
0.0
  9
$DIMEXE
 40
1.0
  9
$DIMTP
 40
0.0
  9
$DIMTM
 40
0.0
  9
$DIMTXT
 40
3.5
  9
$DIMCEN
 40
1.5
  9
$DIMTSZ
 40
0.0
  9
$DIMTOL
 70
     0
  9
$DIMLIM
 70
     0
  9
$DIMTIH
 70
     0
  9
$DIMTOH
 70
     0
  9
$DIMSE1
 70
     0
  9
$DIMSE2
 70
     0
  9
$DIMTAD
 70
     1
  9
$DIMZIN
 70
     8
  9
$DIMBLK
  1

  9
$DIMASO
 70
     1
  9
$DIMSHO
 70
     0
  9
$DIMPOST
  1

  9
$DIMAPOST
  1

  9
$DIMALT
 70
     0
  9
$DIMALTD
 70
     2
  9
$DIMALTF
 40
25.4
  9
$DIMLFAC
 40
1.0
  9
$DIMTOFL
 70
     1
  9
$DIMTVP
 40
0.0
  9
$DIMTIX
 70
     0
  9
$DIMSOXD
 70
     0
  9
$DIMSAH
 70
     0
  9
$DIMBLK1
  1

  9
$DIMBLK2
  1

  9
$DIMSTYLE
  2
Standard
  9
$DIMCLRD
 70
     0
  9
$DIMCLRE
 70
     0
  9
$DIMCLRT
 70
     1
  9
$DIMTFAC
 40
0.5142857142857144
  9
$DIMGAP
 40
1.5
  9
$DIMJUST
 70
     0
  9
$DIMSD1
 70
     0
  9
$DIMSD2
 70
     0
  9
$DIMTOLJ
 70
     1
  9
$DIMTZIN
 70
     8
  9
$DIMALTZ
 70
     8
  9
$DIMALTTZ
 70
     8
  9
$DIMUPT
 70
     0
  9
$DIMDEC
 70
     2
  9
$DIMTDEC
 70
     2
  9
$DIMALTU
 70
     2
  9
$DIMALTTD
 70
     2
  9
$DIMTXSTY
  7
STANDARD
  9
$DIMAUNIT
 70
     0
  9
$DIMADEC
 70
     2
  9
$DIMALTRND
 40
0.0
  9
$DIMAZIN
 70
     2
  9
$DIMDSEP
 70
    46
  9
$DIMATFIT
 70
     3
  9
$DIMFRAC
 70
     0
  9
$DIMLDRBLK
  1

  9
$DIMLUNIT
 70
     2
  9
$DIMLWD
 70
    -2
  9
$DIMLWE
 70
    -2
  9
$DIMTMOVE
 70
     0
  9
$LUNITS
 70
     2
  9
$LUPREC
 70
     2
  9
$SKETCHINC
 40
1.0
  9
$FILLETRAD
 40
0.0
  9
$AUNITS
 70
     0
  9
$AUPREC
 70
     0
  9
$MENU
  1
ACAD
  9
$ELEVATION
 40
0.0
  9
$PELEVATION
 40
0.0
  9
$THICKNESS
 40
0.0
  9
$LIMCHECK
 70
     0
  9
$CHAMFERA
 40
0.0
  9
$CHAMFERB
 40
0.0
  9
$CHAMFERC
 40
0.0
  9
$CHAMFERD
 40
0.0
  9
$SKPOLY
 70
     0
  9
$TDCREATE
 40
2455397.864709028
  9
$TDUCREATE
 40
2455397.781375695
  9
$TDUPDATE
 40
2455461.541119190
  9
$TDUUPDATE
 40
2455461.457785857
  9
$TDINDWG
 40
0.0484281134
  9
$TDUSRTIMER
 40
0.0484281134
  9
$USRTIMER
 70
     1
  9
$ANGBASE
 50
0.0
  9
$ANGDIR
 70
     0
  9
$PDMODE
 70
     0
  9
$PDSIZE
 40
0.0
  9
$PLINEWID
 40
0.0
  9
$SPLFRAME
 70
     0
  9
$SPLINETYPE
 70
     6
  9
$SPLINESEGS
 70
     8
  9
$HANDSEED
  5
113D
  9
$SURFTAB1
 70
     6
  9
$SURFTAB2
 70
     6
  9
$SURFTYPE
 70
     6
  9
$SURFU
 70
     6
  9
$SURFV
 70
     6
  9
$UCSBASE
  2

  9
$UCSNAME
  2

  9
$UCSORG
 10
0.0
 20
0.0
 30
0.0
  9
$UCSXDIR
 10
1.0
 20
0.0
 30
0.0
  9
$UCSYDIR
 10
0.0
 20
1.0
 30
0.0
  9
$UCSORTHOREF
  2

  9
$UCSORTHOVIEW
 70
     0
  9
$UCSORGTOP
 10
0.0
 20
0.0
 30
0.0
  9
$UCSORGBOTTOM
 10
0.0
 20
0.0
 30
0.0
  9
$UCSORGLEFT
 10
0.0
 20
0.0
 30
0.0
  9
$UCSORGRIGHT
 10
0.0
 20
0.0
 30
0.0
  9
$UCSORGFRONT
 10
0.0
 20
0.0
 30
0.0
  9
$UCSORGBACK
 10
0.0
 20
0.0
 30
0.0
  9
$PUCSBASE
  2

  9
$PUCSNAME
  2

  9
$PUCSORG
 10
0.0
 20
0.0
 30
0.0
  9
$PUCSXDIR
 10
1.0
 20
0.0
 30
0.0
  9
$PUCSYDIR
 10
0.0
 20
1.0
 30
0.0
  9
$PUCSORTHOREF
  2

  9
$PUCSORTHOVIEW
 70
     0
  9
$PUCSORGTOP
 10
0.0
 20
0.0
 30
0.0
  9
$PUCSORGBOTTOM
 10
0.0
 20
0.0
 30
0.0
  9
$PUCSORGLEFT
 10
0.0
 20
0.0
 30
0.0
  9
$PUCSORGRIGHT
 10
0.0
 20
0.0
 30
0.0
  9
$PUCSORGFRONT
 10
0.0
 20
0.0
 30
0.0
  9
$PUCSORGBACK
 10
0.0
 20
0.0
 30
0.0
  9
$USERI1
 70
     0
  9
$USERI2
 70
     0
  9
$USERI3
 70
     0
  9
$USERI4
 70
     0
  9
$USERI5
 70
     0
  9
$USERR1
 40
0.0
  9
$USERR2
 40
0.0
  9
$USERR3
 40
0.0
  9
$USERR4
 40
0.0
  9
$USERR5
 40
0.0
  9
$WORLDVIEW
 70
     1
  9
$SHADEDGE
 70
     3
  9
$SHADEDIF
 70
    70
  9
$TILEMODE
 70
     1
  9
$MAXACTVP
 70
    16
  9
$PINSBASE
 10
0.0
 20
0.0
 30
0.0
  9
$PLIMCHECK
 70
     0
  9
$PEXTMIN
 10
1.000000000000000E+20
 20
1.000000000000000E+20
 30
1.000000000000000E+20
  9
$PEXTMAX
 10
-1.000000000000000E+20
 20
-1.000000000000000E+20
 30
-1.000000000000000E+20
  9
$PLIMMIN
 10
0.0
 20
0.0
  9
$PLIMMAX
 10
12.0
 20
9.0
  9
$UNITMODE
 70
     0
  9
$VISRETAIN
 70
     0
  9
$PLINEGEN
 70
     0
  9
$PSLTSCALE
 70
     0
  9
$TREEDEPTH
 70
  3020
  9
$CMLSTYLE
  2
Standard
  9
$CMLJUST
 70
     0
  9
$CMLSCALE
 40
1.0
  9
$PROXYGRAPHICS
 70
     1
  9
$MEASUREMENT
 70
     0
  9
$CELWEIGHT
370
    -1
  9
$ENDCAPS
280
     0
  9
$JOINSTYLE
280
     0
  9
$LWDISPLAY
290
     0
  9
$INSUNITS
 70
     0
  9
$HYPERLINKBASE
  1

  9
$STYLESHEET
  1
monochrome 1.ctb
  9
$XEDIT
290
     1
  9
$CEPSNTYPE
380
     0
  9
$PSTYLEMODE
290
     1
  9
$FINGERPRINTGUID
  2
{D68B0D02-A558-11D7-B632-000102183313}
  9
$VERSIONGUID
  2
{CCD325FB-9701-457E-981B-90FBD92C59C1}
  9
$EXTNAMES
290
     1
  9
$PSVPSCALE
 40
0.0
  9
$OLESTARTUP
290
     0
  9
$SORTENTS
280
   127
  9
$INDEXCTL
280
     0
  9
$HIDETEXT
280
     0
  9
$XCLIPFRAME
290
     0
  9
$HALOGAP
280
     0
  9
$OBSCOLOR
 70
   257
  9
$OBSLTYPE
280
     0
  9
$INTERSECTIONDISPLAY
280
     0
  9
$INTERSECTIONCOLOR
 70
   257
  9
$DIMASSOC
280
     1
  9
$PROJECTNAME
  1

  0
ENDSEC
  0
SECTION
  2
CLASSES
  0
CLASS
  1
ACDBDICTIONARYWDFLT
  2
AcDbDictionaryWithDefault
  3
ObjectDBX Classes
 90
        0
 91
        1
280
     0
281
     0
  0
CLASS
  1
DICTIONARYVAR
  2
AcDbDictionaryVar
  3
ObjectDBX Classes
 90
        0
 91
        2
280
     0
281
     0
  0
ENDSEC
  0
SECTION
  2
TABLES
  0
TABLE
  2
VPORT
  5
8
330
0
100
AcDbSymbolTable
 70
     2
  0
VPORT
  5
113C
330
8
100
AcDbSymbolTableRecord
100
AcDbViewportTableRecord
  2
*Active
 70
     0
 10
0.0
 20
0.0
 11
1.0
 21
1.0
 12
210.0000066011594
 22
297.0000093359246
 13
0.0
 23
0.0
 14
1.0
 24
1.0
 15
10.0
 25
10.0
 16
0.0
 26
0.0
 36
1.0
 17
0.0
 27
0.0
 37
0.0
 40
598.8698625112506
 41
1.336927223719676
 42
50.0
 43
0.0
 44
0.0
 50
0.0
 51
0.0
 71
     0
 72
  1500
 73
     1
 74
     0
 75
     0
 76
     0
 77
     0
 78
     0
281
     0
 65
     1
110
0.0
120
0.0
130
0.0
111
1.0
121
0.0
131
0.0
112
0.0
122
1.0
132
0.0
 79
     0
146
0.0
  0
ENDTAB
  0
TABLE
  2
LTYPE
  5
5
330
0
100
AcDbSymbolTable
 70
     3
  0
LTYPE
  5
13
330
5
100
AcDbSymbolTableRecord
100
AcDbLinetypeTableRecord
  2
ByBlock
 70
     0
  3

 72
    65
 73
     0
 40
0.0
  0
LTYPE
  5
14
330
5
100
AcDbSymbolTableRecord
100
AcDbLinetypeTableRecord
  2
ByLayer
 70
     0
  3

 72
    65
 73
     0
 40
0.0
  0
LTYPE
  5
15
330
5
100
AcDbSymbolTableRecord
100
AcDbLinetypeTableRecord
  2
Continuous
 70
     0
  3
Solid line
 72
    65
 73
     0
 40
0.0
  0
LTYPE
  5
25
330
5
100
AcDbSymbolTableRecord
100
AcDbLinetypeTableRecord
  2
STRICHPUNKT
 70
     0
  3
__ . __ . __ . __ . __ . __ . __ . __ . __ . __
 72
    65
 73
     4
 40
1.0
 49
0.5
 74
     0
 49
-0.25
 74
     0
 49
0.0
 74
     0
 49
-0.25
 74
     0
  0
LTYPE
  5
27
330
5
100
AcDbSymbolTableRecord
100
AcDbLinetypeTableRecord
  2
RAND
 70
     0
  3
__ __ . __ __ . __ __ . __ __ . __ __ . __ __
 72
    65
 73
     6
 40
1.75
 49
0.5
 74
     0
 49
-0.25
 74
     0
 49
0.5
 74
     0
 49
-0.25
 74
     0
 49
0.0
 74
     0
 49
-0.25
 74
     0
  0
ENDTAB
  0
TABLE
  2
LAYER
  5
2
330
0
100
AcDbSymbolTable
 70
     9
  0
LAYER
  5
10
330
2
100
AcDbSymbolTableRecord
100
AcDbLayerTableRecord
  2
0
 70
     0
 62
     7
  6
Continuous
370
    -3
390
F
  0
LAYER
  5
2A
330
2
100
AcDbSymbolTableRecord
100
AcDbLayerTableRecord
  2
VOLL
 70
     0
 62
     1
  6
Continuous
370
    -3
390
F
  0
LAYER
  5
2B
330
2
100
AcDbSymbolTableRecord
100
AcDbLayerTableRecord
  2
HILF
 70
     0
 62
     2
  6
Continuous
370
    -3
390
F
  0
LAYER
  5
2C
330
2
100
AcDbSymbolTableRecord
100
AcDbLayerTableRecord
  2
MITTEL
 70
     0
 62
     2
  6
STRICHPUNKT
370
    -3
390
F
  0
LAYER
  5
2F
330
2
100
AcDbSymbolTableRecord
100
AcDbLayerTableRecord
  2
BEM
 70
     0
 62
     7
  6
Continuous
370
    -3
390
F
  0
LAYER
  5
30
330
2
100
AcDbSymbolTableRecord
100
AcDbLayerTableRecord
  2
STEMPEL
 70
     0
 62
     3
  6
Continuous
370
    -3
390
F
  0
LAYER
  5
31
330
2
100
AcDbSymbolTableRecord
100
AcDbLayerTableRecord
  2
TEXT
 70
     0
 62
     7
  6
Continuous
370
    -3
390
F
  0
LAYER
  5
5D8
330
2
100
AcDbSymbolTableRecord
100
AcDbLayerTableRecord
  2
DEFPOINTS
 70
     0
 62
     4
  6
RAND
290
     0
370
    -3
390
F
  0
LAYER
  5
5D9
330
2
100
AcDbSymbolTableRecord
100
AcDbLayerTableRecord
  2
SCHRAFF
 70
     0
 62
     7
  6
Continuous
370
    -3
390
F
  0
ENDTAB
  0
TABLE
  2
STYLE
  5
3
330
0
100
AcDbSymbolTable
 70
     2
  0
STYLE
  5
11
330
3
100
AcDbSymbolTableRecord
100
AcDbTextStyleTableRecord
  2
STANDARD
 70
     0
 40
0.0
 41
0.8
 50
0.0
 71
     0
 42
3.5
  3
simplex.shx
  4

  0
STYLE
  5
24
330
3
100
AcDbSymbolTableRecord
100
AcDbTextStyleTableRecord
  2
GREEKS
 70
     0
 40
0.0
 41
0.8
 50
0.0
 71
     0
 42
2.5
  3
SIMPLEX.shx
  4

  0
ENDTAB
  0
TABLE
  2
VIEW
  5
6
330
0
100
AcDbSymbolTable
 70
     0
  0
ENDTAB
  0
TABLE
  2
UCS
  5
7
330
0
100
AcDbSymbolTable
 70
     0
  0
ENDTAB
  0
TABLE
  2
APPID
  5
9
330
0
100
AcDbSymbolTable
 70
     1
  0
APPID
  5
12
330
9
100
AcDbSymbolTableRecord
100
AcDbRegAppTableRecord
  2
ACAD
 70
     0
  0
ENDTAB
  0
TABLE
  2
DIMSTYLE
  5
A
330
0
100
AcDbSymbolTable
 70
     1
100
AcDbDimStyleTable
 71
     1
340
9D
  0
DIMSTYLE
105
9D
102
{ACAD_REACTORS
330
FD0
330
F78
330
F70
330
F6F
102
}
330
A
100
AcDbSymbolTableRecord
100
AcDbDimStyleTableRecord
  2
Standard
 70
     0
340
11
  0
ENDTAB
  0
TABLE
  2
BLOCK_RECORD
  5
1
330
0
100
AcDbSymbolTable
 70
     5
  0
BLOCK_RECORD
  5
1E
102
{ACAD_XDICTIONARY
360
A0
102
}
330
1
100
AcDbSymbolTableRecord
100
AcDbBlockTableRecord
  2
*Model_Space
340
21
  0
BLOCK_RECORD
  5
1A
102
{ACAD_XDICTIONARY
360
A2
102
}
330
1
100
AcDbSymbolTableRecord
100
AcDbBlockTableRecord
  2
*Paper_Space
340
1D
  0
BLOCK_RECORD
  5
22
330
1
100
AcDbSymbolTableRecord
100
AcDbBlockTableRecord
  2
LOGO
340
0
102
{BLKREFS
331
7F2
102
}
  0
BLOCK_RECORD
  5
FD1
330
1
100
AcDbSymbolTableRecord
100
AcDbBlockTableRecord
  2
*D1
340
0
  0
BLOCK_RECORD
  5
FDE
330
1
100
AcDbSymbolTableRecord
100
AcDbBlockTableRecord
  2
*D2
340
0
  0
BLOCK_RECORD
  5
FEB
330
1
100
AcDbSymbolTableRecord
100
AcDbBlockTableRecord
  2
*D3
340
0
  0
BLOCK_RECORD
  5
FF8
330
1
100
AcDbSymbolTableRecord
100
AcDbBlockTableRecord
  2
*D4
340
0
  0
ENDTAB
  0
ENDSEC
  0
SECTION
  2
BLOCKS
  0
BLOCK
  5
35
330
1E
100
AcDbEntity
  8
0
100
AcDbBlockBegin
  2
*Model_Space
 70
     0
 10
0.0
 20
0.0
 30
0.0
  3
*Model_Space
  1

  0
ENDBLK
  5
36
330
1E
100
AcDbEntity
  8
0
100
AcDbBlockEnd
  0
BLOCK
  5
33
330
1A
100
AcDbEntity
 67
     1
  8
0
100
AcDbBlockBegin
  2
*Paper_Space
 70
     0
 10
0.0
 20
0.0
 30
0.0
  3
*Paper_Space
  1

  0
ENDBLK
  5
34
330
1A
100
AcDbEntity
 67
     1
  8
0
100
AcDbBlockEnd
  0
BLOCK
  5
37
330
22
100
AcDbEntity
  8
0
100
AcDbBlockBegin
  2
LOGO
 70
     0
 10
0.0
 20
0.0
 30
0.0
  3
LOGO
  1

  0
ARC
  5
38
330
22
100
AcDbEntity
  8
0
100
AcDbCircle
 10
11.59973089678112
 20
-9.271599258481501
 30
0.0
 40
4.5
100
AcDbArc
 50
270.0
 51
231.0575587310159
  0
LINE
  5
39
330
22
100
AcDbEntity
  8
0
100
AcDbLine
 10
3.599730896781125
 20
-4.771599258481529
 30
0.0
 11
3.599730896781153
 21
-11.77159925848133
 31
0.0
  0
LINE
  5
3A
330
22
100
AcDbEntity
  8
0
100
AcDbLine
 10
2.599730896781125
 20
-4.771599258481529
 30
0.0
 11
2.599730896781153
 21
-11.77159925848133
 31
0.0
  0
CIRCLE
  5
3B
330
22
100
AcDbEntity
  8
0
100
AcDbCircle
 10
11.59973089678112
 20
-9.271599258481501
 30
0.0
 40
3.5
  0
ARC
  5
3C
330
22
100
AcDbEntity
  8
0
100
AcDbCircle
 10
31.59973089678115
 20
-9.271599258481472
 30
0.0
 40
4.5
100
AcDbArc
 50
270.0
 51
231.0575587310182
  0
LINE
  5
3D
330
22
100
AcDbEntity
  8
0
100
AcDbLine
 10
17.59973089678112
 20
-4.771599258481472
 30
0.0
 11
17.59973089678115
 21
-13.77159925848147
 31
0.0
  0
ARC
  5
3E
330
22
100
AcDbEntity
  8
0
100
AcDbCircle
 10
22.59973089678116
 20
-7.271599258481472
 30
0.0
 40
2.5
100
AcDbArc
 50
293.1161887722295
 51
90.0
  0
CIRCLE
  5
3F
330
22
100
AcDbEntity
  8
0
100
AcDbCircle
 10
31.59973089678115
 20
-9.271599258481472
 30
0.0
 40
3.5
  0
ARC
  5
40
330
22
100
AcDbEntity
  8
0
100
AcDbCircle
 10
4.599730896781153
 20
-11.77159925848133
 30
0.0
 40
1.0
100
AcDbArc
 50
180.0
 51
270.0
  0
ARC
  5
41
330
22
100
AcDbEntity
  8
0
100
AcDbCircle
 10
4.599730896781153
 20
-11.77159925848133
 30
0.0
 40
2.0
100
AcDbArc
 50
179.9999999999992
 51
270.0
  0
LINE
  5
42
330
22
100
AcDbEntity
  8
0
100
AcDbLine
 10
11.59973089678115
 20
-13.77159925848144
 30
0.0
 11
4.599730896781153
 21
-13.77159925848147
 31
0.0
  0
LINE
  5
43
330
22
100
AcDbEntity
  8
0
100
AcDbLine
 10
8.771303772034769
 20
-12.77159925848136
 30
0.0
 11
4.599730896781153
 21
-12.77159925848133
 31
0.0
  0
LINE
  5
44
330
22
100
AcDbEntity
  8
0
100
AcDbLine
 10
31.59973089678115
 20
-13.77159925848147
 30
0.0
 11
23.6715276665056
 21
-13.77159925848144
 31
0.0
  0
LINE
  5
45
330
22
100
AcDbEntity
  8
0
100
AcDbLine
 10
23.56565672307022
 20
-9.51278021337896
 30
0.0
 11
24.4388546544846
 21
-12.77159925848144
 31
0.0
  0
LINE
  5
46
330
22
100
AcDbEntity
  8
0
100
AcDbLine
 10
22.59973089678116
 20
-9.771599258481472
 30
0.0
 11
18.59973089678112
 21
-9.771599258481472
 31
0.0
  0
LINE
  5
47
330
22
100
AcDbEntity
  8
0
100
AcDbLine
 10
18.59973089678115
 20
-13.77159925848144
 30
0.0
 11
17.59973089678115
 21
-13.77159925848144
 31
0.0
  0
LINE
  5
48
330
22
100
AcDbEntity
  8
0
100
AcDbLine
 10
18.59973089678115
 20
-9.771599258481472
 30
0.0
 11
18.59973089678115
 21
-13.77159925848144
 31
0.0
  0
LINE
  5
49
330
22
100
AcDbEntity
  8
0
100
AcDbLine
 10
22.59973089678116
 20
-9.771599258481472
 30
0.0
 11
23.67152766650562
 21
-13.77159925848147
 31
0.0
  0
ARC
  5
4A
330
22
100
AcDbEntity
  8
0
100
AcDbCircle
 10
22.59973089678116
 20
-7.271599258481472
 30
0.0
 40
2.5
100
AcDbArc
 50
270.0
 51
270.0000000000007
  0
LINE
  5
4B
330
22
100
AcDbEntity
  8
0
100
AcDbLine
 10
28.77130377203494
 20
-12.77159925848147
 30
0.0
 11
24.43885465448463
 21
-12.77159925848144
 31
0.0
  0
LINE
  5
4C
330
22
100
AcDbEntity
  8
0
100
AcDbLine
 10
3.599730896781125
 20
-4.771599258481472
 30
0.0
 11
2.599730896781125
 21
-4.771599258481472
 31
0.0
  0
LINE
  5
4D
330
22
100
AcDbEntity
  8
0
100
AcDbLine
 10
22.59973089678116
 20
-8.771599258481472
 30
0.0
 11
18.59973089678115
 21
-8.771599258481472
 31
0.0
  0
LINE
  5
4E
330
22
100
AcDbEntity
  8
0
100
AcDbLine
 10
22.59973089678116
 20
-5.771599258481472
 30
0.0
 11
18.59973089678115
 21
-5.771599258481472
 31
0.0
  0
LINE
  5
4F
330
22
100
AcDbEntity
  8
0
100
AcDbLine
 10
22.59973089678116
 20
-4.771599258481472
 30
0.0
 11
17.59973089678115
 21
-4.771599258481472
 31
0.0
  0
LINE
  5
50
330
22
100
AcDbEntity
  8
0
100
AcDbLine
 10
18.59973089678115
 20
-5.771599258481472
 30
0.0
 11
18.59973089678115
 21
-8.771599258481472
 31
0.0
  0
ARC
  5
51
330
22
100
AcDbEntity
  8
0
100
AcDbCircle
 10
22.59973089678116
 20
-7.271599258481472
 30
0.0
 40
1.5
100
AcDbArc
 50
270.0
 51
90.0
  0
ENDBLK
  5
52
330
22
100
AcDbEntity
  8
0
100
AcDbBlockEnd
  0
BLOCK
  5
FDC
330
FD1
100
AcDbEntity
  8
0
100
AcDbBlockBegin
  2
*D1
 70
     1
 10
0.0
 20
0.0
 30
0.0
  3
*D1
  1

  0
LINE
  5
1133
330
FD1
100
AcDbEntity
  8
BEM
 62
     0
370
    -2
100
AcDbLine
 10
131.4844728190168
 20
322.7084230705545
 30
0.0
 11
131.4844728190168
 21
335.1342225043743
 31
0.0
  0
LINE
  5
1134
330
FD1
100
AcDbEntity
  8
BEM
 62
     0
370
    -2
100
AcDbLine
 10
281.4844728190169
 20
322.7084230705545
 30
0.0
 11
281.4844728190169
 21
335.1342225043743
 31
0.0
  0
LINE
  5
1135
330
FD1
100
AcDbEntity
  8
BEM
 62
     0
370
    -2
100
AcDbLine
 10
138.4844728190168
 20
333.1342225043743
 30
0.0
 11
274.4844728190169
 21
333.1342225043743
 31
0.0
  0
SOLID
  5
1136
330
FD1
100
AcDbEntity
  8
BEM
 62
     0
100
AcDbTrace
 10
138.4844728190168
 20
334.3008891710411
 30
0.0
 11
138.4844728190168
 21
331.9675558377077
 31
0.0
 12
131.4844728190168
 22
333.1342225043743
 32
0.0
 13
131.4844728190168
 23
333.1342225043743
 33
0.0
  0
SOLID
  5
1137
330
FD1
100
AcDbEntity
  8
BEM
 62
     0
100
AcDbTrace
 10
274.4844728190169
 20
334.3008891710411
 30
0.0
 11
274.4844728190169
 21
331.9675558377077
 31
0.0
 12
281.4844728190169
 22
333.1342225043743
 32
0.0
 13
281.4844728190169
 23
333.1342225043743
 33
0.0
  0
MTEXT
  5
1138
330
FD1
100
AcDbEntity
  8
BEM
 62
     1
100
AcDbMText
 10
210.2717700447692
 20
339.6342225043743
 30
0.0
 40
7.0
 41
0.0
 71
     5
 72
     1
  1
\A1;150
 73
     1
 44
1.0
  0
POINT
  5
1139
330
FD1
100
AcDbEntity
  8
DEFPOINTS
 62
     0
100
AcDbPoint
 10
131.4844728190168
 20
320.7084230705545
 30
0.0
  0
POINT
  5
113A
330
FD1
100
AcDbEntity
  8
DEFPOINTS
 62
     0
100
AcDbPoint
 10
281.4844728190169
 20
320.7084230705545
 30
0.0
  0
POINT
  5
113B
330
FD1
100
AcDbEntity
  8
DEFPOINTS
 62
     0
100
AcDbPoint
 10
281.4844728190169
 20
333.1342225043743
 30
0.0
  0
ENDBLK
  5
FDD
330
FD1
100
AcDbEntity
  8
0
100
AcDbBlockEnd
  0
BLOCK
  5
FE9
330
FDE
100
AcDbEntity
  8
0
100
AcDbBlockBegin
  2
*D2
 70
     1
 10
0.0
 20
0.0
 30
0.0
  3
*D2
  1

  0
LINE
  5
104A
330
FDE
100
AcDbEntity
  8
BEM
 62
     0
370
    -2
100
AcDbLine
 10
129.4844728190168
 20
525.3628507975545
 30
0.0
 11
98.06335517156211
 21
525.3628507975545
 31
0.0
  0
LINE
  5
104B
330
FDE
100
AcDbEntity
  8
BEM
 62
     0
370
    -2
100
AcDbLine
 10
153.4844728190169
 20
375.3628507975546
 30
0.0
 11
98.06335517156208
 21
375.3628507975547
 31
0.0
  0
LINE
  5
104C
330
FDE
100
AcDbEntity
  8
BEM
 62
     0
370
    -2
100
AcDbLine
 10
100.0633551715621
 20
518.3628507975545
 30
0.0
 11
100.0633551715621
 21
382.3628507975547
 31
0.0
  0
SOLID
  5
104D
330
FDE
100
AcDbEntity
  8
BEM
 62
     0
100
AcDbTrace
 10
98.89668850489544
 20
518.3628507975545
 30
0.0
 11
101.2300218382288
 21
518.3628507975545
 31
0.0
 12
100.0633551715621
 22
525.3628507975545
 32
0.0
 13
100.0633551715621
 23
525.3628507975545
 33
0.0
  0
SOLID
  5
104E
330
FDE
100
AcDbEntity
  8
BEM
 62
     0
100
AcDbTrace
 10
98.89668850489542
 20
382.3628507975547
 30
0.0
 11
101.2300218382287
 21
382.3628507975547
 31
0.0
 12
100.0633551715621
 22
375.3628507975547
 32
0.0
 13
100.0633551715621
 23
375.3628507975547
 33
0.0
  0
MTEXT
  5
104F
330
FDE
100
AcDbEntity
  8
BEM
 62
     1
100
AcDbMText
 10
93.56335517156201
 20
450.3628507975546
 30
0.0
 40
7.0
 41
0.0
 71
     5
 72
     1
  1
\A1;150
 11
0.0000000000000001
 21
1.0
 31
0.0
 73
     1
 44
1.0
  0
POINT
  5
1050
330
FDE
100
AcDbEntity
  8
DEFPOINTS
 62
     0
100
AcDbPoint
 10
131.4844728190168
 20
525.3628507975545
 30
0.0
  0
POINT
  5
1051
330
FDE
100
AcDbEntity
  8
DEFPOINTS
 62
     0
100
AcDbPoint
 10
155.4844728190169
 20
375.3628507975546
 30
0.0
  0
POINT
  5
1052
330
FDE
100
AcDbEntity
  8
DEFPOINTS
 62
     0
100
AcDbPoint
 10
100.0633551715621
 20
375.3628507975547
 30
0.0
  0
ENDBLK
  5
FEA
330
FDE
100
AcDbEntity
  8
0
100
AcDbBlockEnd
  0
BLOCK
  5
FF6
330
FEB
100
AcDbEntity
  8
0
100
AcDbBlockBegin
  2
*D3
 70
     1
 10
0.0
 20
0.0
 30
0.0
  3
*D3
  1

  0
LINE
  5
103F
330
FEB
100
AcDbEntity
  8
BEM
 62
     0
370
    -2
100
AcDbLine
 10
129.4844728190168
 20
525.3628507975545
 30
0.0
 11
113.719531534814
 21
525.3628507975545
 31
0.0
  0
LINE
  5
1040
330
FEB
100
AcDbEntity
  8
BEM
 62
     0
370
    -2
100
AcDbLine
 10
129.4844728190169
 20
514.3628507975547
 30
0.0
 11
113.719531534814
 21
514.3628507975547
 31
0.0
  0
LINE
  5
1041
330
FEB
100
AcDbEntity
  8
BEM
 62
     0
370
    -2
100
AcDbLine
 10
115.719531534814
 20
532.3628507975545
 30
0.0
 11
115.719531534814
 21
539.3628507975545
 31
0.0
  0
LINE
  5
1042
330
FEB
100
AcDbEntity
  8
BEM
 62
     0
370
    -2
100
AcDbLine
 10
115.719531534814
 20
507.3628507975548
 30
0.0
 11
115.719531534814
 21
488.7628507975547
 31
0.0
  0
LINE
  5
1043
330
FEB
100
AcDbEntity
  8
BEM
 62
     0
370
    -2
100
AcDbLine
 10
115.719531534814
 20
525.3628507975545
 30
0.0
 11
115.719531534814
 21
514.3628507975547
 31
0.0
  0
SOLID
  5
1044
330
FEB
100
AcDbEntity
  8
BEM
 62
     0
100
AcDbTrace
 10
114.5528648681473
 20
532.3628507975545
 30
0.0
 11
116.8861982014806
 21
532.3628507975545
 31
0.0
 12
115.719531534814
 22
525.3628507975545
 32
0.0
 13
115.719531534814
 23
525.3628507975545
 33
0.0
  0
SOLID
  5
1045
330
FEB
100
AcDbEntity
  8
BEM
 62
     0
100
AcDbTrace
 10
114.5528648681473
 20
507.3628507975548
 30
0.0
 11
116.8861982014806
 21
507.3628507975548
 31
0.0
 12
115.719531534814
 22
514.3628507975547
 32
0.0
 13
115.719531534814
 23
514.3628507975547
 33
0.0
  0
MTEXT
  5
1046
330
FEB
100
AcDbEntity
  8
BEM
 62
     1
100
AcDbMText
 10
109.2195315348139
 20
494.5628507975547
 30
0.0
 40
7.0
 41
0.0
 71
     5
 72
     1
  1
\A1;11
 11
0.0000000000000001
 21
1.0
 31
0.0
 73
     1
 44
1.0
  0
POINT
  5
1047
330
FEB
100
AcDbEntity
  8
DEFPOINTS
 62
     0
100
AcDbPoint
 10
131.4844728190168
 20
525.3628507975545
 30
0.0
  0
POINT
  5
1048
330
FEB
100
AcDbEntity
  8
DEFPOINTS
 62
     0
100
AcDbPoint
 10
131.4844728190169
 20
514.3628507975547
 30
0.0
  0
POINT
  5
1049
330
FEB
100
AcDbEntity
  8
DEFPOINTS
 62
     0
100
AcDbPoint
 10
115.719531534814
 20
514.3628507975547
 30
0.0
  0
ENDBLK
  5
FF7
330
FEB
100
AcDbEntity
  8
0
100
AcDbBlockEnd
  0
BLOCK
  5
1003
330
FF8
100
AcDbEntity
  8
0
100
AcDbBlockBegin
  2
*D4
 70
     1
 10
0.0
 20
0.0
 30
0.0
  3
*D4
  1

  0
LINE
  5
1036
330
FF8
100
AcDbEntity
  8
BEM
 62
     0
370
    -2
100
AcDbLine
 10
155.4844728190169
 20
373.3628507975546
 30
0.0
 11
155.4844728190169
 21
353.588469551665
 31
0.0
  0
LINE
  5
1037
330
FF8
100
AcDbEntity
  8
BEM
 62
     0
370
    -2
100
AcDbLine
 10
257.4844728190168
 20
373.3628507975547
 30
0.0
 11
257.4844728190168
 21
353.588469551665
 31
0.0
  0
LINE
  5
1038
330
FF8
100
AcDbEntity
  8
BEM
 62
     0
370
    -2
100
AcDbLine
 10
162.4844728190169
 20
355.588469551665
 30
0.0
 11
250.4844728190168
 21
355.588469551665
 31
0.0
  0
SOLID
  5
1039
330
FF8
100
AcDbEntity
  8
BEM
 62
     0
100
AcDbTrace
 10
162.4844728190169
 20
356.7551362183317
 30
0.0
 11
162.4844728190169
 21
354.4218028849983
 31
0.0
 12
155.4844728190169
 22
355.588469551665
 32
0.0
 13
155.4844728190169
 23
355.588469551665
 33
0.0
  0
SOLID
  5
103A
330
FF8
100
AcDbEntity
  8
BEM
 62
     0
100
AcDbTrace
 10
250.4844728190168
 20
356.7551362183317
 30
0.0
 11
250.4844728190168
 21
354.4218028849983
 31
0.0
 12
257.4844728190168
 22
355.588469551665
 32
0.0
 13
257.4844728190168
 23
355.588469551665
 33
0.0
  0
MTEXT
  5
103B
330
FF8
100
AcDbEntity
  8
BEM
 62
     1
100
AcDbMText
 10
206.4844728190168
 20
362.088469551665
 30
0.0
 40
7.0
 41
0.0
 71
     5
 72
     1
  1
\A1;%%c102
 73
     1
 44
1.0
  0
POINT
  5
103C
330
FF8
100
AcDbEntity
  8
DEFPOINTS
 62
     0
100
AcDbPoint
 10
155.4844728190169
 20
375.3628507975546
 30
0.0
  0
POINT
  5
103D
330
FF8
100
AcDbEntity
  8
DEFPOINTS
 62
     0
100
AcDbPoint
 10
257.4844728190168
 20
375.3628507975547
 30
0.0
  0
POINT
  5
103E
330
FF8
100
AcDbEntity
  8
DEFPOINTS
 62
     0
100
AcDbPoint
 10
257.4844728190168
 20
355.588469551665
 30
0.0
  0
ENDBLK
  5
1004
330
FF8
100
AcDbEntity
  8
0
100
AcDbBlockEnd
  0
ENDSEC
  0
SECTION
  2
ENTITIES
  0
LINE
  5
57
330
1E
100
AcDbEntity
  8
STEMPEL
100
AcDbLine
 10
410.0
 20
110.0
 30
0.0
 11
29.99999999999997
 21
110.0
 31
0.0
  0
LINE
  5
5B
330
1E
100
AcDbEntity
  8
STEMPEL
100
AcDbLine
 10
135.9999999999999
 20
29.99999999999997
 30
0.0
 11
29.99999999999997
 21
29.99999999999997
 31
0.0
  0
LINE
  5
5E
330
1E
100
AcDbEntity
  8
VOLL
100
AcDbLine
 10
44.00000000000008
 20
110.0
 30
0.0
 11
43.99999999999997
 21
9.999999999999971
 31
0.0
  0
LINE
  5
5F
330
1E
100
AcDbEntity
  8
VOLL
100
AcDbLine
 10
94.00000000000011
 20
109.9999999999999
 30
0.0
 11
94.0
 21
9.999999999999971
 31
0.0
  0
LINE
  5
60
330
1E
100
AcDbEntity
  8
VOLL
100
AcDbLine
 10
114.0000000000001
 20
109.9999999999999
 30
0.0
 11
114.0
 21
9.999999999999971
 31
0.0
  0
LINE
  5
63
330
1E
100
AcDbEntity
  8
HILF
100
AcDbLine
 10
30.00000000000009
 20
100.0
 30
0.0
 11
136.0000000000001
 21
100.0
 31
0.0
  0
LINE
  5
64
330
1E
100
AcDbEntity
  8
HILF
100
AcDbLine
 10
30.00000000000009
 20
90.00000000000005
 30
0.0
 11
136.0000000000001
 21
90.00000000000005
 31
0.0
  0
LINE
  5
65
330
1E
100
AcDbEntity
  8
HILF
100
AcDbLine
 10
30.00000000000009
 20
79.99999999999994
 30
0.0
 11
136.0000000000001
 21
79.99999999999994
 31
0.0
  0
LINE
  5
66
330
1E
100
AcDbEntity
  8
HILF
100
AcDbLine
 10
30.00000000000009
 20
69.99999999999994
 30
0.0
 11
136.0000000000001
 21
69.99999999999994
 31
0.0
  0
LINE
  5
67
330
1E
100
AcDbEntity
  8
HILF
100
AcDbLine
 10
30.00000000000009
 20
59.99999999999997
 30
0.0
 11
136.0000000000001
 21
59.99999999999997
 31
0.0
  0
LINE
  5
68
330
1E
100
AcDbEntity
  8
HILF
100
AcDbLine
 10
30.00000000000009
 20
49.99999999999997
 30
0.0
 11
136.0000000000001
 21
49.99999999999997
 31
0.0
  0
LINE
  5
69
330
1E
100
AcDbEntity
  8
HILF
100
AcDbLine
 10
30.00000000000009
 20
39.99999999999997
 30
0.0
 11
136.0000000000001
 21
39.99999999999997
 31
0.0
  0
TEXT
  5
74
330
1E
100
AcDbEntity
  8
TEXT
100
AcDbText
 10
59.34071736793199
 20
18.67381894984132
 30
0.0
 40
4.0
  1
Änderung
 41
0.8
  7
GREEKS
 72
     1
 11
70.08357451078913
 21
18.67381894984132
 31
0.0
100
AcDbText
  0
TEXT
  5
7B
330
1E
100
AcDbEntity
  8
TEXT
100
AcDbText
 10
38.26641107045757
 20
13.65465846027192
 30
0.0
 40
4.0
  1
Index
 50
90.0
 41
0.8
  7
GREEKS
100
AcDbText
  0
TEXT
  5
7C
330
1E
100
AcDbEntity
  8
TEXT
100
AcDbText
 10
100.0934676075481
 20
18.6715626933981
 30
0.0
 40
4.0
  1
Tag
 41
0.8
  7
GREEKS
 72
     1
 11
103.8268009408814
 21
18.6715626933981
 31
0.0
100
AcDbText
  0
TEXT
  5
7D
330
1E
100
AcDbEntity
  8
TEXT
100
AcDbText
 10
119.0122744386592
 20
18.59324216966408
 30
0.0
 40
4.0
  1
Name
 41
0.8
  7
GREEKS
 72
     1
 11
125.3360839624688
 21
18.59324216966408
 31
0.0
100
AcDbText
  0
LINE
  5
83
330
1E
100
AcDbEntity
  8
STEMPEL
100
AcDbLine
 10
39.99999999999989
 20
10.0
 30
0.0
 11
410.0
 21
10.0
 31
0.0
  0
LINE
  5
85
330
1E
100
AcDbEntity
  8
STEMPEL
100
AcDbLine
 10
410.0
 20
10.0
 30
0.0
 11
29.99999999999989
 21
10.0
 31
0.0
  0
LINE
  5
86
330
1E
100
AcDbEntity
  8
STEMPEL
100
AcDbLine
 10
410.0
 20
10.0
 30
0.0
 11
410.0
 21
584.0
 31
0.0
  0
LINE
  5
87
330
1E
100
AcDbEntity
  8
STEMPEL
100
AcDbLine
 10
30.0
 20
10.0
 30
0.0
 11
29.99999999999989
 21
584.0
 31
0.0
  0
LINE
  5
88
330
1E
100
AcDbEntity
  8
STEMPEL
100
AcDbLine
 10
410.0
 20
584.0
 30
0.0
 11
29.99999999999989
 21
584.0
 31
0.0
  0
LINE
  5
89
330
1E
100
AcDbEntity
  8
HILF
100
AcDbLine
 10
0.0
 20
0.0
 30
0.0
 11
-0.0000000000001137
 21
594.0
 31
0.0
  0
LINE
  5
8A
330
1E
100
AcDbEntity
  8
HILF
100
AcDbLine
 10
419.9999999999999
 20
594.0000000000002
 30
0.0
 11
0.0
 21
594.0
 31
0.0
  0
LINE
  5
8B
330
1E
100
AcDbEntity
  8
HILF
100
AcDbLine
 10
420.0
 20
0.0
 30
0.0
 11
0.0
 21
0.0
 31
0.0
  0
LINE
  5
8C
330
1E
100
AcDbEntity
  8
HILF
100
AcDbLine
 10
31.08767135713856
 20
297.0
 30
0.0
 11
0.0000000000001137
 21
297.0
 31
0.0
  0
LINE
  5
8E
330
1E
100
AcDbEntity
  8
HILF
100
AcDbLine
 10
420.0
 20
-0.0000000000001137
 30
0.0
 11
419.9999999999999
 21
594.0
 31
0.0
  0
TEXT
  5
8F
330
1E
100
AcDbEntity
  8
VOLL
100
AcDbText
 10
78.07675471698113
 20
31.02594776470585
 30
0.0
 40
1.8
  1

  7
GREEKS
100
AcDbText
  0
TEXT
  5
90
330
1E
100
AcDbEntity
  8
TEXT
100
AcDbText
 10
31.85509950977675
 20
111.6719999999999
 30
0.0
 40
5.0
  1
Erstellt mit AUTOCAD 2004
 41
0.8
  7
GREEKS
100
AcDbText
  0
TEXT
  5
118
330
1E
100
AcDbEntity
  8
TEXT
100
AcDbText
 10
417.3022923857165
 20
10.16790107998849
 30
0.0
 40
4.0
  1
Diese Zeichnung ist urheberrechtlich geschützt und bleibt unser Eigentum. Sie darf weder ganz noch teilweise verfielfältigt und nicht an Dritte weitergegeben werden.
 50
90.0
 41
0.8
  7
GREEKS
100
AcDbText
  0
LINE
  5
7D0
330
1E
100
AcDbEntity
  8
STEMPEL
100
AcDbLine
 10
410.0
 20
110.0
 30
0.0
 11
410.0
 21
10.0
 31
0.0
  0
TEXT
  5
7D1
330
1E
100
AcDbEntity
  8
TEXT
 62
     1
100
AcDbText
 10
348.3402717721521
 20
88.14901428913959
 30
0.0
 40
7.0
  1
16091070w
 41
0.8
  7
GREEKS
 72
     1
 11
370.7402717721521
 21
88.14901428913959
 31
0.0
100
AcDbText
  0
LINE
  5
7D2
330
1E
100
AcDbEntity
  8
STEMPEL
100
AcDbLine
 10
332.0
 20
109.9999999999997
 30
0.0
 11
332.0
 21
40.0
 31
0.0
  0
TEXT
  5
7D3
330
1E
100
AcDbEntity
  8
TEXT
100
AcDbText
 10
224.9837501577827
 20
42.62974153022628
 30
0.0
 40
4.0
  1
19091070W.DWG
 41
0.8
  7
GREEKS
100
AcDbText
  0
TEXT
  5
7D4
330
1E
100
AcDbEntity
  8
TEXT
100
AcDbText
 10
224.877940380901
 20
102.5489328011779
 30
0.0
 40
5.0
  1
Benennung
 41
0.8
  7
GREEKS
100
AcDbText
  0
TEXT
  5
7D5
330
1E
100
AcDbEntity
  8
TEXT
100
AcDbText
 10
224.742238391136
 20
30.8456057019306
 30
0.0
 40
5.0
  1
Bauvorhaben
 41
0.8
  7
GREEKS
100
AcDbText
  0
TEXT
  5
7D6
330
1E
100
AcDbEntity
  8
TEXT
100
AcDbText
 10
225.1296391125315
 20
62.21063346052324
 30
0.0
 40
5.0
  1
obere Balkone
 41
0.8
  7
GREEKS
100
AcDbText
  0
LINE
  5
7D7
330
1E
100
AcDbEntity
  8
STEMPEL
100
AcDbLine
 10
220.0
 20
110.0
 30
0.0
 11
220.0
 21
10.0
 31
0.0
  0
LINE
  5
7D8
330
1E
100
AcDbEntity
  8
HILF
100
AcDbLine
 10
224.7736801096948
 20
84.03758247564139
 30
0.0
 11
324.8353916556311
 21
84.03758247564139
 31
0.0
  0
LINE
  5
7D9
330
1E
100
AcDbEntity
  8
HILF
100
AcDbLine
 10
224.7736801096948
 20
70.0
 30
0.0
 11
324.835391655631
 21
70.0
 31
0.0
  0
LINE
  5
7DA
330
1E
100
AcDbEntity
  8
HILF
100
AcDbLine
 10
224.7736801096948
 20
60.0
 30
0.0
 11
324.835391655631
 21
60.0
 31
0.0
  0
LINE
  5
7DB
330
1E
100
AcDbEntity
  8
HILF
100
AcDbLine
 10
224.7736801096948
 20
50.0
 30
0.0
 11
324.835391655631
 21
50.0
 31
0.0
  0
TEXT
  5
7DC
330
1E
100
AcDbEntity
  8
TEXT
 62
     1
100
AcDbText
 10
226.8935731057402
 20
87.41748789253779
 30
0.0
 40
7.0
  1
Siebeinheit DN70
 41
0.8
  7
GREEKS
100
AcDbText
  0
TEXT
  5
7DD
330
1E
100
AcDbEntity
  8
TEXT
100
AcDbText
 10
225.1296391125315
 20
51.64011943042158
 30
0.0
 40
5.0
  1
EDV-Art.Nr. 16091.070X
 41
0.8
  7
GREEKS
100
AcDbText
  0
TEXT
  5
7DE
330
1E
100
AcDbEntity
  8
TEXT
100
AcDbText
 10
225.1296391125315
 20
72.21063346052324
 30
0.0
 40
5.0
  1
für Balkondirektablauf
 41
0.8
  7
GREEKS
100
AcDbText
  0
LINE
  5
7DF
330
1E
100
AcDbEntity
  8
HILF
100
AcDbLine
 10
223.4909699289885
 20
14.89398258028314
 30
0.0
 11
404.8588839326728
 21
14.89398258028314
 31
0.0
  0
LINE
  5
7E0
330
1E
100
AcDbEntity
  8
VOLL
100
AcDbLine
 10
332.0
 20
60.0
 30
0.0
 11
410.0
 21
60.0
 31
0.0
  0
LINE
  5
7E1
330
1E
100
AcDbEntity
  8
HILF
100
AcDbLine
 10
336.7238616296993
 20
83.77983636955827
 30
0.0
 11
404.8588839326728
 21
83.77983636955827
 31
0.0
  0
TEXT
  5
7E2
330
1E
100
AcDbEntity
  8
TEXT
100
AcDbText
 10
336.178754957634
 20
102.3132034537136
 30
0.0
 40
5.0
  1
Zeichnungs Nr.
 41
0.8
  7
GREEKS
100
AcDbText
  0
TEXT
  5
7E3
330
1E
100
AcDbEntity
  8
TEXT
100
AcDbText
 10
337.2400861497006
 20
52.07416177878599
 30
0.0
 40
5.0
  1
ersetzt durch:
 41
0.8
  7
GREEKS
100
AcDbText
  0
TEXT
  5
7E4
330
1E
100
AcDbEntity
  8
TEXT
100
AcDbText
 10
336.7238616296993
 20
73.1811823709997
 30
0.0
 40
5.0
  1
Ersatz für:
 41
0.8
  7
GREEKS
100
AcDbText
  0
TEXT
  5
7E5
330
1E
100
AcDbEntity
  8
TEXT
100
AcDbText
 10
192.4626584226295
 20
73.30961091915225
 30
0.0
 40
4.0
  1
Name
 41
0.8
  7
GREEKS
100
AcDbText
  0
TEXT
  5
7E6
330
1E
100
AcDbEntity
  8
TEXT
100
AcDbText
 10
194.4216048581257
 20
63.0896391972351
 30
0.0
 40
4.0
  1
Koeh
 41
0.8
  7
GREEKS
 72
     1
 11
199.6787477152685
 21
63.0896391972351
 31
0.0
100
AcDbText
  0
LINE
  5
7E7
330
1E
100
AcDbEntity
  8
VOLL
100
AcDbLine
 10
180.0000000000001
 20
109.9999999999998
 30
0.0
 11
180.0
 21
40.0
 31
0.0
  0
TEXT
  5
7E8
330
1E
100
AcDbEntity
  8
TEXT
100
AcDbText
 10
162.3311673153651
 20
73.31880501229926
 30
0.0
 40
4.0
  1
Tag
 41
0.8
  7
GREEKS
100
AcDbText
  0
TEXT
  5
7E9
330
1E
100
AcDbEntity
  8
TEXT
 62
     1
100
AcDbText
 10
150.5006306481887
 20
88.14901428913959
 30
0.0
 40
7.0
  1
1:2
 41
0.8
  7
GREEKS
100
AcDbText
  0
TEXT
  5
7EA
330
1E
100
AcDbEntity
  8
TEXT
100
AcDbText
 10
160.398997108236
 20
63.10765040825732
 30
0.0
 40
4.0
  1
29.05.
 41
0.8
  7
GREEKS
 72
     1
 11
167.4085209177598
 21
63.10765040825732
 31
0.0
100
AcDbText
  0
LINE
  5
7EB
330
1E
100
AcDbEntity
  8
VOLL
100
AcDbLine
 10
154.0000000000001
 20
79.99999999999994
 30
0.0
 11
154.0000000000001
 21
40.0
 31
0.0
  0
LINE
  5
7EC
330
1E
100
AcDbEntity
  8
STEMPEL
100
AcDbLine
 10
136.0000000000001
 20
109.9999999999999
 30
0.0
 11
136.0
 21
10.0
 31
0.0
  0
TEXT
  5
7ED
330
1E
100
AcDbEntity
  8
TEXT
100
AcDbText
 10
143.5163572150377
 20
102.4620895087088
 30
0.0
 40
5.0
  1
Maßstab
 41
0.8
  7
GREEKS
100
AcDbText
  0
TEXT
  5
7EE
330
1E
100
AcDbEntity
  8
TEXT
100
AcDbText
 10
137.5836127167615
 20
63.62990369617967
 30
0.0
 40
4.0
  1
Gez.
 41
0.8
  7
GREEKS
100
AcDbText
  0
TEXT
  5
7EF
330
1E
100
AcDbEntity
  8
TEXT
100
AcDbText
 10
137.6006777387304
 20
43.5294638964981
 30
0.0
 40
4.0
  1
Norm.
 41
0.8
  7
GREEKS
100
AcDbText
  0
TEXT
  5
7F0
330
1E
100
AcDbEntity
  8
TEXT
100
AcDbText
 10
137.5515086571672
 20
53.68926291428374
 30
0.0
 40
4.0
  1
Gepr.
 41
0.8
  7
GREEKS
100
AcDbText
  0
TEXT
  5
7F1
330
1E
100
AcDbEntity
  8
TEXT
100
AcDbText
 10
138.622109822104
 20
73.14025471151666
 30
0.0
 40
4.0
  1
2008
 41
0.8
  7
GREEKS
100
AcDbText
  0
INSERT
  5
7F2
330
1E
100
AcDbEntity
  8
STEMPEL
100
AcDbBlockReference
  2
LOGO
 10
140.9955485457794
 20
45.02105276448321
 30
0.0
 41
2.0
 42
2.0
 43
2.0
  0
LINE
  5
7F3
330
1E
100
AcDbEntity
  8
HILF
100
AcDbLine
 10
136.0000000000001
 20
70.0
 30
0.0
 11
220.0
 21
70.0
 31
0.0
  0
LINE
  5
7F4
330
1E
100
AcDbEntity
  8
HILF
100
AcDbLine
 10
136.0000000000001
 20
60.0
 30
0.0
 11
220.0
 21
60.0
 31
0.0
  0
LINE
  5
7F5
330
1E
100
AcDbEntity
  8
HILF
100
AcDbLine
 10
136.0000000000001
 20
50.0
 30
0.0
 11
220.0
 21
50.0
 31
0.0
  0
LINE
  5
7F6
330
1E
100
AcDbEntity
  8
STEMPEL
100
AcDbLine
 10
410.0
 20
40.0
 30
0.0
 11
136.0000000000001
 21
40.0
 31
0.0
  0
LINE
  5
7F7
330
1E
100
AcDbEntity
  8
STEMPEL
100
AcDbLine
 10
410.0
 20
80.0
 30
0.0
 11
136.0000000000001
 21
79.99999999999994
 31
0.0
  0
TEXT
  5
7F8
330
1E
100
AcDbEntity
  8
TEXT
100
AcDbText
 10
184.2858954734051
 20
102.4184168434819
 30
0.0
 40
5.0
  1
Zul. Abw.
 41
0.8
  7
GREEKS
100
AcDbText
  0
TEXT
  5
7F9
330
1E
100
AcDbEntity
  8
TEXT
100
AcDbText
 10
182.26571485335
 20
87.50549234323846
 30
0.0
 40
4.0
  1
DIN EN1123-2
 41
0.8
  7
GREEKS
 72
     1
 11
199.2561910438262
 21
87.50549234323846
 31
0.0
100
AcDbText
  0
LINE
  5
EC3
330
1E
100
AcDbEntity
  8
TEXT
 62
     1
100
AcDbLine
 10
347.5709169223047
 20
556.5490768793796
 30
0.0
 11
354.5709169223047
 21
556.5490768793796
 31
0.0
  0
LINE
  5
EC4
330
1E
100
AcDbEntity
  8
TEXT
 62
     1
100
AcDbLine
 10
354.5709169223047
 20
549.5490768793796
 30
0.0
 11
347.5709169223047
 21
549.5490768793796
 31
0.0
  0
LINE
  5
EC5
330
1E
100
AcDbEntity
  8
TEXT
 62
     1
100
AcDbLine
 10
347.5709169223047
 20
549.5490768793796
 30
0.0
 11
347.5709169223047
 21
556.5490768793796
 31
0.0
  0
LINE
  5
EC6
330
1E
100
AcDbEntity
  8
TEXT
 62
     1
100
AcDbLine
 10
354.5709169223047
 20
556.5490768793796
 30
0.0
 11
354.5709169223047
 21
549.5490768793796
 31
0.0
  0
TEXT
  5
EC7
330
1E
100
AcDbEntity
  8
TEXT
 62
     1
100
AcDbText
 10
286.9140825984132
 20
536.7490246046862
 30
0.0
 40
7.0
  1
EDV-Art.Nr. 16197.000X
 41
0.8
  7
GREEKS
100
AcDbText
  0
TEXT
  5
EC8
330
1E
100
AcDbEntity
  8
TEXT
 62
     1
100
AcDbText
 10
286.9532037187424
 20
549.5956775595277
 30
0.0
 40
7.0
  1
Edelstahlsieb   143
 41
0.8
  7
GREEKS
100
AcDbText
  0
LINE
  5
EC9
330
1E
100
AcDbEntity
  8
TEXT
 62
     2
100
AcDbLine
 10
286.931375507743
 20
546.2157721426314
 30
0.0
 11
390.4898603144732
 21
546.2157721426314
 31
0.0
  0
LINE
  5
ECA
330
1E
100
AcDbEntity
  8
TEXT
 62
     1
100
AcDbLine
 10
358.012325157123
 20
465.4605245424462
 30
0.0
 11
358.012325157123
 21
458.4605245424461
 31
0.0
  0
LINE
  5
ECB
330
1E
100
AcDbEntity
  8
TEXT
 62
     1
100
AcDbLine
 10
351.012325157123
 20
458.4605245424461
 30
0.0
 11
351.012325157123
 21
465.4605245424462
 31
0.0
  0
LINE
  5
ECC
330
1E
100
AcDbEntity
  8
TEXT
 62
     1
100
AcDbLine
 10
358.012325157123
 20
458.4605245424461
 30
0.0
 11
351.012325157123
 21
458.4605245424461
 31
0.0
  0
LINE
  5
ECD
330
1E
100
AcDbEntity
  8
TEXT
 62
     1
100
AcDbLine
 10
351.012325157123
 20
465.4605245424462
 30
0.0
 11
358.012325157123
 21
465.4605245424462
 31
0.0
  0
LINE
  5
ECE
102
{ACAD_REACTORS
330
1115
102
}
330
1E
100
AcDbEntity
  8
STEMPEL
100
AcDbLine
 10
276.4844728190169
 20
517.3628507975547
 30
0.0
 11
276.4844728190169
 21
522.3628507975547
 31
0.0
  0
LINE
  5
ECF
102
{ACAD_REACTORS
330
1115
102
}
330
1E
100
AcDbEntity
  8
STEMPEL
100
AcDbLine
 10
277.9844728190169
 20
517.3628507975547
 30
0.0
 11
277.9844728190169
 21
522.3628507975547
 31
0.0
  0
LINE
  5
ED0
102
{ACAD_REACTORS
330
10C4
102
}
330
1E
100
AcDbEntity
  8
STEMPEL
100
AcDbLine
 10
278.484472819017
 20
525.3628507975547
 30
0.0
 11
278.4844728190169
 21
517.3628507975547
 31
0.0
  0
ARC
  5
ED1
102
{ACAD_REACTORS
330
1115
102
}
330
1E
100
AcDbEntity
  8
STEMPEL
100
AcDbCircle
 10
274.9844728190169
 20
522.3628507975547
 30
0.0
 40
3.0
100
AcDbArc
 50
0.0
 51
90.0
  0
ARC
  5
ED2
102
{ACAD_REACTORS
330
1115
102
}
330
1E
100
AcDbEntity
  8
STEMPEL
100
AcDbCircle
 10
274.9844728190169
 20
522.3628507975547
 30
0.0
 40
1.5
100
AcDbArc
 50
0.0
 51
90.0
  0
LINE
  5
ED3
102
{ACAD_REACTORS
330
10C4
102
}
330
1E
100
AcDbEntity
  8
STEMPEL
100
AcDbLine
 10
281.484472819017
 20
525.3628507975547
 30
0.0
 11
281.4844728190169
 21
514.3628507975547
 31
0.0
  0
LINE
  5
ED4
330
1E
100
AcDbEntity
  8
STEMPEL
100
AcDbLine
 10
264.2978114938977
 20
517.3628507975547
 30
0.0
 11
264.2978114938978
 21
521.3628507975547
 31
0.0
  0
LINE
  5
ED5
330
1E
100
AcDbEntity
  8
STEMPEL
100
AcDbLine
 10
255.7978114938979
 20
517.3628507975547
 30
0.0
 11
255.7978114938979
 21
521.3628507975547
 31
0.0
  0
LINE
  5
ED6
330
1E
100
AcDbEntity
  8
STEMPEL
100
AcDbLine
 10
255.7978114938979
 20
521.3628507975547
 30
0.0
 11
264.2978114938978
 21
521.3628507975547
 31
0.0
  0
POINT
  5
ED7
330
1E
100
AcDbEntity
  8
DEFPOINTS
  6
ByBlock
 62
     0
100
AcDbPoint
 10
253.3844728190169
 20
504.2628507975546
 30
0.0
  0
POINT
  5
ED8
330
1E
100
AcDbEntity
  8
DEFPOINTS
  6
ByBlock
 62
     0
100
AcDbPoint
 10
253.3844728190169
 20
504.2628507975546
 30
0.0
  0
LINE
  5
ED9
102
{ACAD_REACTORS
330
10C4
102
}
330
1E
100
AcDbEntity
  8
STEMPEL
100
AcDbLine
 10
266.9844728190169
 20
514.3628507975547
 30
0.0
 11
257.4844728190169
 21
504.8628507975546
 31
0.0
  0
LINE
  5
EDA
102
{ACAD_REACTORS
330
10C4
102
}
330
1E
100
AcDbEntity
  8
STEMPEL
100
AcDbLine
 10
266.4844728190169
 20
517.3628507975547
 30
0.0
 11
253.3844728190169
 21
504.2628507975546
 31
0.0
  0
LINE
  5
EDB
102
{ACAD_REACTORS
330
1115
102
}
330
1E
100
AcDbEntity
  8
MITTEL
100
AcDbLine
 10
260.0478114938977
 20
509.3628507975548
 30
0.0
 11
260.0478114938978
 21
526.3628507975547
 31
0.0
  0
LINE
  5
EDC
102
{ACAD_REACTORS
330
1115
102
}
330
1E
100
AcDbEntity
  8
STEMPEL
100
AcDbLine
 10
243.9844728190169
 20
521.3628507975547
 30
0.0
 11
243.9844728190169
 21
522.3628507975547
 31
0.0
  0
ARC
  5
EDD
102
{ACAD_REACTORS
330
1115
102
}
330
1E
100
AcDbEntity
  8
STEMPEL
100
AcDbCircle
 10
245.4844728190169
 20
522.3628507975547
 30
0.0
 40
1.5
100
AcDbArc
 50
90.0
 51
180.0
  0
LINE
  5
EDE
102
{ACAD_REACTORS
330
1115
102
}
330
1E
100
AcDbEntity
  8
STEMPEL
100
AcDbLine
 10
242.4844728190169
 20
521.3628507975547
 30
0.0
 11
242.4844728190169
 21
522.3628507975547
 31
0.0
  0
LINE
  5
EDF
102
{ACAD_REACTORS
330
1115
102
}
330
1E
100
AcDbEntity
  8
STEMPEL
100
AcDbLine
 10
235.4844728190169
 20
521.3628507975547
 30
0.0
 11
235.4844728190169
 21
522.3628507975547
 31
0.0
  0
LINE
  5
EE0
102
{ACAD_REACTORS
330
1115
102
}
330
1E
100
AcDbEntity
  8
STEMPEL
100
AcDbLine
 10
233.9844728190169
 20
521.3628507975547
 30
0.0
 11
233.9844728190169
 21
522.3628507975547
 31
0.0
  0
LINE
  5
EE1
102
{ACAD_REACTORS
330
1115
102
}
330
1E
100
AcDbEntity
  8
STEMPEL
100
AcDbLine
 10
233.9844728190169
 20
521.3628507975547
 30
0.0
 11
243.9844728190169
 21
521.3628507975547
 31
0.0
  0
ARC
  5
EE2
102
{ACAD_REACTORS
330
1115
102
}
330
1E
100
AcDbEntity
  8
STEMPEL
100
AcDbCircle
 10
245.4844728190169
 20
522.3628507975547
 30
0.0
 40
3.0
100
AcDbArc
 50
90.0
 51
180.0
  0
LINE
  5
EE3
102
{ACAD_REACTORS
330
10C4
102
}
330
1E
100
AcDbEntity
  8
STEMPEL
100
AcDbLine
 10
256.9844728190168
 20
497.3628507975546
 30
0.0
 11
257.4844728190168
 21
497.3628507975546
 31
0.0
  0
LINE
  5
EE4
102
{ACAD_REACTORS
330
10C4
102
}
330
1E
100
AcDbEntity
  8
STEMPEL
100
AcDbLine
 10
256.9844728190168
 20
494.3628507975547
 30
0.0
 11
257.4844728190168
 21
494.3628507975547
 31
0.0
  0
LINE
  5
EE5
102
{ACAD_REACTORS
330
10C4
102
}
330
1E
100
AcDbEntity
  8
STEMPEL
100
AcDbLine
 10
256.9844728190168
 20
497.3628507975546
 30
0.0
 11
256.9844728190168
 21
494.3628507975547
 31
0.0
  0
LINE
  5
EE6
102
{ACAD_REACTORS
330
10C4
102
}
330
1E
100
AcDbEntity
  8
STEMPEL
100
AcDbLine
 10
256.9844728190168
 20
479.3628507975546
 30
0.0
 11
257.4844728190168
 21
479.3628507975546
 31
0.0
  0
LINE
  5
EE7
102
{ACAD_REACTORS
330
10C4
102
}
330
1E
100
AcDbEntity
  8
STEMPEL
100
AcDbLine
 10
256.9844728190168
 20
482.3628507975547
 30
0.0
 11
257.4844728190168
 21
482.3628507975547
 31
0.0
  0
LINE
  5
EE8
102
{ACAD_REACTORS
330
10C4
102
}
330
1E
100
AcDbEntity
  8
STEMPEL
100
AcDbLine
 10
256.9844728190168
 20
482.3628507975547
 30
0.0
 11
256.9844728190168
 21
479.3628507975546
 31
0.0
  0
LINE
  5
EE9
102
{ACAD_REACTORS
330
10C4
102
}
330
1E
100
AcDbEntity
  8
STEMPEL
100
AcDbLine
 10
257.4844728190169
 20
494.3628507975547
 30
0.0
 11
257.4844728190169
 21
482.3628507975546
 31
0.0
  0
LINE
  5
EEA
102
{ACAD_REACTORS
330
10C4
102
}
330
1E
100
AcDbEntity
  8
STEMPEL
100
AcDbLine
 10
257.4844728190169
 20
504.8628507975546
 30
0.0
 11
257.4844728190169
 21
497.3628507975546
 31
0.0
  0
LINE
  5
EEB
102
{ACAD_REACTORS
330
1115
102
}
330
1E
100
AcDbEntity
  8
STEMPEL
100
AcDbLine
 10
274.9844728190169
 20
523.8628507975547
 30
0.0
 11
245.4844728190169
 21
523.8628507975547
 31
0.0
  0
LINE
  5
EEC
102
{ACAD_REACTORS
330
10C4
102
}
330
1E
100
AcDbEntity
  8
STEMPEL
100
AcDbLine
 10
266.9844728190168
 20
514.3628507975547
 30
0.0
 11
281.4844728190169
 21
514.3628507975547
 31
0.0
  0
LINE
  5
EED
102
{ACAD_REACTORS
330
10C4
102
}
330
1E
100
AcDbEntity
  8
STEMPEL
100
AcDbLine
 10
256.9844728190168
 20
467.3628507975546
 30
0.0
 11
257.4844728190168
 21
467.3628507975546
 31
0.0
  0
LINE
  5
EEE
102
{ACAD_REACTORS
330
10C4
102
}
330
1E
100
AcDbEntity
  8
STEMPEL
100
AcDbLine
 10
256.9844728190168
 20
464.3628507975547
 30
0.0
 11
257.4844728190168
 21
464.3628507975547
 31
0.0
  0
LINE
  5
EEF
102
{ACAD_REACTORS
330
10C4
102
}
330
1E
100
AcDbEntity
  8
STEMPEL
100
AcDbLine
 10
256.9844728190169
 20
452.3628507975547
 30
0.0
 11
257.4844728190168
 21
452.3628507975547
 31
0.0
  0
POINT
  5
EF0
330
1E
100
AcDbEntity
  8
DEFPOINTS
  6
ByBlock
 62
     0
100
AcDbPoint
 10
253.6020376035537
 20
459.8274002296415
 30
0.0
  0
LINE
  5
EF1
102
{ACAD_REACTORS
330
10C4
102
}
330
1E
100
AcDbEntity
  8
STEMPEL
100
AcDbLine
 10
257.4844728190169
 20
464.3628507975547
 30
0.0
 11
257.4844728190169
 21
452.3628507975547
 31
0.0
  0
LINE
  5
EF2
102
{ACAD_REACTORS
330
10C4
102
}
330
1E
100
AcDbEntity
  8
STEMPEL
100
AcDbLine
 10
256.9844728190168
 20
467.3628507975546
 30
0.0
 11
256.9844728190168
 21
464.3628507975547
 31
0.0
  0
LINE
  5
EF3
102
{ACAD_REACTORS
330
10C4
102
}
330
1E
100
AcDbEntity
  8
STEMPEL
100
AcDbLine
 10
256.9844728190168
 20
449.3628507975546
 30
0.0
 11
257.4844728190168
 21
449.3628507975547
 31
0.0
  0
LINE
  5
EF4
102
{ACAD_REACTORS
330
10C4
102
}
330
1E
100
AcDbEntity
  8
STEMPEL
100
AcDbLine
 10
256.9844728190168
 20
437.3628507975547
 30
0.0
 11
257.4844728190168
 21
437.3628507975547
 31
0.0
  0
LINE
  5
EF5
102
{ACAD_REACTORS
330
10C4
102
}
330
1E
100
AcDbEntity
  8
STEMPEL
100
AcDbLine
 10
256.9844728190168
 20
434.3628507975546
 30
0.0
 11
257.4844728190168
 21
434.3628507975546
 31
0.0
  0
LINE
  5
EF6
102
{ACAD_REACTORS
330
10C4
102
}
330
1E
100
AcDbEntity
  8
STEMPEL
100
AcDbLine
 10
256.9844728190168
 20
437.3628507975547
 30
0.0
 11
256.9844728190168
 21
434.3628507975546
 31
0.0
  0
LINE
  5
EF7
102
{ACAD_REACTORS
330
10C4
102
}
330
1E
100
AcDbEntity
  8
STEMPEL
100
AcDbLine
 10
257.4844728190169
 20
449.3628507975547
 30
0.0
 11
257.4844728190169
 21
437.3628507975547
 31
0.0
  0
LINE
  5
EF8
102
{ACAD_REACTORS
330
10C4
102
}
330
1E
100
AcDbEntity
  8
STEMPEL
100
AcDbLine
 10
256.9844728190169
 20
452.3628507975547
 30
0.0
 11
256.9844728190168
 21
449.3628507975546
 31
0.0
  0
LINE
  5
EF9
330
1E
100
AcDbEntity
  8
TEXT
 62
     2
100
AcDbLine
 10
286.931375507743
 20
455.1272198056979
 30
0.0
 11
256.6558860219078
 21
444.7471854742112
 31
0.0
  0
LINE
  5
EFA
102
{ACAD_REACTORS
330
10C4
102
}
330
1E
100
AcDbEntity
  8
STEMPEL
100
AcDbLine
 10
257.4844728190169
 20
479.3628507975546
 30
0.0
 11
257.4844728190169
 21
467.3628507975546
 31
0.0
  0
LINE
  5
EFB
102
{ACAD_REACTORS
330
1115
102
}
330
1E
100
AcDbEntity
  8
STEMPEL
100
AcDbLine
 10
230.9844728190169
 20
521.3628507975547
 30
0.0
 11
230.9844728190169
 21
522.3628507975547
 31
0.0
  0
LINE
  5
EFC
102
{ACAD_REACTORS
330
1115
102
}
330
1E
100
AcDbEntity
  8
STEMPEL
100
AcDbLine
 10
229.4844728190169
 20
521.3628507975547
 30
0.0
 11
229.4844728190169
 21
522.3628507975547
 31
0.0
  0
LINE
  5
EFD
102
{ACAD_REACTORS
330
1115
102
}
330
1E
100
AcDbEntity
  8
STEMPEL
100
AcDbLine
 10
222.4844728190169
 20
521.3628507975547
 30
0.0
 11
222.4844728190169
 21
522.3628507975547
 31
0.0
  0
LINE
  5
EFE
102
{ACAD_REACTORS
330
1115
102
}
330
1E
100
AcDbEntity
  8
STEMPEL
100
AcDbLine
 10
220.9844728190169
 20
521.3628507975547
 30
0.0
 11
220.9844728190169
 21
522.3628507975547
 31
0.0
  0
LINE
  5
EFF
102
{ACAD_REACTORS
330
1115
102
}
330
1E
100
AcDbEntity
  8
STEMPEL
100
AcDbLine
 10
217.9844728190169
 20
521.3628507975547
 30
0.0
 11
217.9844728190169
 21
522.3628507975547
 31
0.0
  0
LINE
  5
F00
102
{ACAD_REACTORS
330
1115
102
}
330
1E
100
AcDbEntity
  8
STEMPEL
100
AcDbLine
 10
216.4844728190169
 20
521.3628507975547
 30
0.0
 11
216.4844728190169
 21
522.3628507975547
 31
0.0
  0
ARC
  5
F01
102
{ACAD_REACTORS
330
1115
102
}
330
1E
100
AcDbEntity
  8
STEMPEL
100
AcDbCircle
 10
219.4844728190169
 20
522.3628507975547
 30
0.0
 40
3.0
100
AcDbArc
 50
0.0
 51
180.0
  0
ARC
  5
F02
102
{ACAD_REACTORS
330
1115
102
}
330
1E
100
AcDbEntity
  8
STEMPEL
100
AcDbCircle
 10
219.4844728190169
 20
522.3628507975547
 30
0.0
 40
1.5
100
AcDbArc
 50
0.0
 51
180.0
  0
LINE
  5
F03
102
{ACAD_REACTORS
330
1115
102
}
330
1E
100
AcDbEntity
  8
STEMPEL
100
AcDbLine
 10
220.9844728190169
 20
521.3628507975547
 30
0.0
 11
230.9844728190169
 21
521.3628507975547
 31
0.0
  0
LINE
  5
F04
102
{ACAD_REACTORS
330
1115
102
}
330
1E
100
AcDbEntity
  8
STEMPEL
100
AcDbLine
 10
207.9844728190169
 20
521.3628507975547
 30
0.0
 11
207.9844728190169
 21
522.3628507975547
 31
0.0
  0
LINE
  5
F05
102
{ACAD_REACTORS
330
1115
102
}
330
1E
100
AcDbEntity
  8
STEMPEL
100
AcDbLine
 10
209.4844728190169
 20
521.3628507975547
 30
0.0
 11
209.4844728190169
 21
522.3628507975547
 31
0.0
  0
LINE
  5
F06
102
{ACAD_REACTORS
330
1115
102
}
330
1E
100
AcDbEntity
  8
STEMPEL
100
AcDbLine
 10
203.4844728190169
 20
521.3628507975547
 30
0.0
 11
203.4844728190169
 21
522.3628507975547
 31
0.0
  0
LINE
  5
F07
102
{ACAD_REACTORS
330
1115
102
}
330
1E
100
AcDbEntity
  8
STEMPEL
100
AcDbLine
 10
204.9844728190169
 20
521.3628507975547
 30
0.0
 11
204.9844728190169
 21
522.3628507975547
 31
0.0
  0
ARC
  5
F08
102
{ACAD_REACTORS
330
1115
102
}
330
1E
100
AcDbEntity
  8
STEMPEL
100
AcDbCircle
 10
206.4844728190169
 20
522.3628507975547
 30
0.0
 40
3.0
100
AcDbArc
 50
0.0
 51
180.0
  0
ARC
  5
F09
102
{ACAD_REACTORS
330
1115
102
}
330
1E
100
AcDbEntity
  8
STEMPEL
100
AcDbCircle
 10
206.4844728190169
 20
522.3628507975547
 30
0.0
 40
1.5
100
AcDbArc
 50
0.0
 51
180.0
  0
LINE
  5
F0A
102
{ACAD_REACTORS
330
1115
102
}
330
1E
100
AcDbEntity
  8
STEMPEL
100
AcDbLine
 10
207.9844728190169
 20
521.3628507975547
 30
0.0
 11
217.9844728190169
 21
521.3628507975547
 31
0.0
  0
LINE
  5
F0B
102
{ACAD_REACTORS
330
1115
102
}
330
1E
100
AcDbEntity
  8
STEMPEL
100
AcDbLine
 10
194.9844728190169
 20
521.3628507975547
 30
0.0
 11
194.9844728190169
 21
522.3628507975547
 31
0.0
  0
LINE
  5
F0C
102
{ACAD_REACTORS
330
1115
102
}
330
1E
100
AcDbEntity
  8
STEMPEL
100
AcDbLine
 10
196.4844728190169
 20
521.3628507975547
 30
0.0
 11
196.4844728190169
 21
522.3628507975547
 31
0.0
  0
LINE
  5
F0D
102
{ACAD_REACTORS
330
1115
102
}
330
1E
100
AcDbEntity
  8
STEMPEL
100
AcDbLine
 10
191.9844728190169
 20
521.3628507975547
 30
0.0
 11
191.9844728190169
 21
522.3628507975547
 31
0.0
  0
ARC
  5
F0E
102
{ACAD_REACTORS
330
1115
102
}
330
1E
100
AcDbEntity
  8
STEMPEL
100
AcDbCircle
 10
193.4844728190169
 20
522.3628507975547
 30
0.0
 40
1.5
100
AcDbArc
 50
0.0
 51
180.0
  0
LINE
  5
F0F
102
{ACAD_REACTORS
330
1115
102
}
330
1E
100
AcDbEntity
  8
STEMPEL
100
AcDbLine
 10
181.9844728190169
 20
521.3628507975547
 30
0.0
 11
181.9844728190169
 21
522.3628507975547
 31
0.0
  0
LINE
  5
F10
102
{ACAD_REACTORS
330
1115
102
}
330
1E
100
AcDbEntity
  8
STEMPEL
100
AcDbLine
 10
183.4844728190169
 20
521.3628507975547
 30
0.0
 11
183.4844728190169
 21
522.3628507975547
 31
0.0
  0
LINE
  5
F11
102
{ACAD_REACTORS
330
1115
102
}
330
1E
100
AcDbEntity
  8
STEMPEL
100
AcDbLine
 10
190.4844728190169
 20
521.3628507975547
 30
0.0
 11
190.4844728190169
 21
522.3628507975547
 31
0.0
  0
LINE
  5
F12
102
{ACAD_REACTORS
330
1115
102
}
330
1E
100
AcDbEntity
  8
STEMPEL
100
AcDbLine
 10
181.9844728190169
 20
521.3628507975547
 30
0.0
 11
191.9844728190169
 21
521.3628507975547
 31
0.0
  0
ARC
  5
F13
102
{ACAD_REACTORS
330
1115
102
}
330
1E
100
AcDbEntity
  8
STEMPEL
100
AcDbCircle
 10
193.4844728190169
 20
522.3628507975547
 30
0.0
 40
3.0
100
AcDbArc
 50
0.0
 51
180.0
  0
LINE
  5
F14
102
{ACAD_REACTORS
330
1115
102
}
330
1E
100
AcDbEntity
  8
STEMPEL
100
AcDbLine
 10
178.9844728190169
 20
521.3628507975547
 30
0.0
 11
178.9844728190169
 21
522.3628507975547
 31
0.0
  0
LINE
  5
F15
102
{ACAD_REACTORS
330
1115
102
}
330
1E
100
AcDbEntity
  8
STEMPEL
100
AcDbLine
 10
177.4844728190169
 20
521.3628507975547
 30
0.0
 11
177.4844728190169
 21
522.3628507975547
 31
0.0
  0
LINE
  5
F16
102
{ACAD_REACTORS
330
1115
102
}
330
1E
100
AcDbEntity
  8
STEMPEL
100
AcDbLine
 10
170.4844728190169
 20
521.3628507975547
 30
0.0
 11
170.4844728190169
 21
522.3628507975547
 31
0.0
  0
POINT
  5
F17
330
1E
100
AcDbEntity
  8
DEFPOINTS
  6
ByBlock
 62
     0
100
AcDbPoint
 10
169.3819441900312
 20
524.686555252984
 30
0.0
  0
LINE
  5
F18
102
{ACAD_REACTORS
330
1115
102
}
330
1E
100
AcDbEntity
  8
STEMPEL
100
AcDbLine
 10
168.9844728190169
 20
521.3628507975547
 30
0.0
 11
168.9844728190169
 21
522.3628507975547
 31
0.0
  0
ARC
  5
F19
102
{ACAD_REACTORS
330
1115
102
}
330
1E
100
AcDbEntity
  8
STEMPEL
100
AcDbCircle
 10
167.4844728190169
 20
522.3628507975547
 30
0.0
 40
1.5
100
AcDbArc
 50
0.0
 51
90.0
  0
ARC
  5
F1A
102
{ACAD_REACTORS
330
1115
102
}
330
1E
100
AcDbEntity
  8
STEMPEL
100
AcDbCircle
 10
167.4844728190169
 20
522.3628507975547
 30
0.0
 40
3.0
100
AcDbArc
 50
0.0
 51
90.0
  0
LINE
  5
F1B
102
{ACAD_REACTORS
330
1115
102
}
330
1E
100
AcDbEntity
  8
STEMPEL
100
AcDbLine
 10
168.9844728190169
 20
521.3628507975547
 30
0.0
 11
178.9844728190169
 21
521.3628507975547
 31
0.0
  0
ARC
  5
F1C
102
{ACAD_REACTORS
330
1115
102
}
330
1E
100
AcDbEntity
  8
STEMPEL
100
AcDbCircle
 10
180.4844728190169
 20
522.3628507975547
 30
0.0
 40
3.0
100
AcDbArc
 50
0.0
 51
180.0
  0
ARC
  5
F1D
102
{ACAD_REACTORS
330
1115
102
}
330
1E
100
AcDbEntity
  8
STEMPEL
100
AcDbCircle
 10
180.4844728190169
 20
522.3628507975547
 30
0.0
 40
1.5
100
AcDbArc
 50
0.0
 51
180.0
  0
LINE
  5
F1E
102
{ACAD_REACTORS
330
1115
102
}
330
1E
100
AcDbEntity
  8
STEMPEL
100
AcDbLine
 10
194.9844728190169
 20
521.3628507975547
 30
0.0
 11
204.9844728190169
 21
521.3628507975547
 31
0.0
  0
ARC
  5
F1F
102
{ACAD_REACTORS
330
1115
102
}
330
1E
100
AcDbEntity
  8
STEMPEL
100
AcDbCircle
 10
232.4844728190169
 20
522.3628507975547
 30
0.0
 40
1.5
100
AcDbArc
 50
0.0
 51
180.0
  0
ARC
  5
F20
102
{ACAD_REACTORS
330
1115
102
}
330
1E
100
AcDbEntity
  8
STEMPEL
100
AcDbCircle
 10
232.4844728190169
 20
522.3628507975547
 30
0.0
 40
3.0
100
AcDbArc
 50
0.0
 51
180.0
  0
LINE
  5
F21
102
{ACAD_REACTORS
330
10C4
102
}
330
1E
100
AcDbEntity
  8
STEMPEL
100
AcDbLine
 10
256.9844728190168
 20
419.3628507975547
 30
0.0
 11
257.4844728190168
 21
419.3628507975547
 31
0.0
  0
LINE
  5
F22
102
{ACAD_REACTORS
330
10C4
102
}
330
1E
100
AcDbEntity
  8
STEMPEL
100
AcDbLine
 10
256.9844728190168
 20
422.3628507975546
 30
0.0
 11
257.4844728190168
 21
422.3628507975546
 31
0.0
  0
LINE
  5
F23
102
{ACAD_REACTORS
330
10C4
102
}
330
1E
100
AcDbEntity
  8
STEMPEL
100
AcDbLine
 10
256.9844728190168
 20
422.3628507975546
 30
0.0
 11
256.9844728190168
 21
419.3628507975547
 31
0.0
  0
LINE
  5
F24
102
{ACAD_REACTORS
330
10C4
102
}
330
1E
100
AcDbEntity
  8
STEMPEL
100
AcDbLine
 10
256.9844728190168
 20
407.3628507975547
 30
0.0
 11
257.4844728190168
 21
407.3628507975547
 31
0.0
  0
LINE
  5
F25
102
{ACAD_REACTORS
330
10C4
102
}
330
1E
100
AcDbEntity
  8
STEMPEL
100
AcDbLine
 10
256.9844728190168
 20
404.3628507975546
 30
0.0
 11
257.4844728190168
 21
404.3628507975546
 31
0.0
  0
LINE
  5
F26
102
{ACAD_REACTORS
330
10C4
102
}
330
1E
100
AcDbEntity
  8
STEMPEL
100
AcDbLine
 10
256.9844728190168
 20
407.3628507975547
 30
0.0
 11
256.9844728190168
 21
404.3628507975546
 31
0.0
  0
LINE
  5
F27
102
{ACAD_REACTORS
330
10C4
102
}
330
1E
100
AcDbEntity
  8
STEMPEL
100
AcDbLine
 10
257.4844728190169
 20
419.3628507975547
 30
0.0
 11
257.4844728190168
 21
407.3628507975547
 31
0.0
  0
LINE
  5
F28
102
{ACAD_REACTORS
330
10C4
102
}
330
1E
100
AcDbEntity
  8
STEMPEL
100
AcDbLine
 10
256.9844728190168
 20
392.3628507975547
 30
0.0
 11
257.4844728190168
 21
392.3628507975547
 31
0.0
  0
LINE
  5
F29
102
{ACAD_REACTORS
330
10C4
102
}
330
1E
100
AcDbEntity
  8
STEMPEL
100
AcDbLine
 10
256.9844728190168
 20
389.3628507975547
 30
0.0
 11
257.4844728190168
 21
389.3628507975547
 31
0.0
  0
LINE
  5
F2A
102
{ACAD_REACTORS
330
10C4
102
}
330
1E
100
AcDbEntity
  8
STEMPEL
100
AcDbLine
 10
256.9844728190168
 20
392.3628507975547
 30
0.0
 11
256.9844728190168
 21
389.3628507975547
 31
0.0
  0
LINE
  5
F2B
102
{ACAD_REACTORS
330
10C4
102
}
330
1E
100
AcDbEntity
  8
STEMPEL
100
AcDbLine
 10
257.4844728190168
 20
404.3628507975546
 30
0.0
 11
257.4844728190168
 21
392.3628507975547
 31
0.0
  0
POINT
  5
F2C
330
1E
100
AcDbEntity
  8
DEFPOINTS
  6
ByBlock
 62
     0
100
AcDbPoint
 10
255.6344306882642
 20
375.3628507975548
 30
0.0
  0
LINE
  5
F2D
102
{ACAD_REACTORS
330
10C4
102
}
330
1E
100
AcDbEntity
  8
STEMPEL
100
AcDbLine
 10
257.4844728190168
 20
389.3628507975547
 30
0.0
 11
257.4844728190168
 21
375.3628507975547
 31
0.0
  0
LINE
  5
F2E
330
1E
100
AcDbEntity
  8
BEM
 62
     1
100
AcDbLine
 10
200.7530411998113
 20
342.8343902733451
 30
0.0
 11
200.7530411998113
 21
335.834390273345
 31
0.0
  0
LINE
  5
F2F
330
1E
100
AcDbEntity
  8
BEM
 62
     1
100
AcDbLine
 10
193.7530411998113
 20
335.834390273345
 30
0.0
 11
193.7530411998113
 21
342.8343902733451
 31
0.0
  0
LINE
  5
F30
330
1E
100
AcDbEntity
  8
BEM
 62
     1
100
AcDbLine
 10
193.7530411998113
 20
342.8343902733451
 30
0.0
 11
200.7530411998113
 21
342.8343902733451
 31
0.0
  0
LINE
  5
F31
330
1E
100
AcDbEntity
  8
BEM
 62
     1
100
AcDbLine
 10
200.7530411998113
 20
335.834390273345
 30
0.0
 11
193.7530411998113
 21
335.834390273345
 31
0.0
  0
LINE
  5
F33
102
{ACAD_REACTORS
330
10C4
102
}
330
1E
100
AcDbEntity
  8
STEMPEL
100
AcDbLine
 10
257.4844728190169
 20
434.3628507975547
 30
0.0
 11
257.4844728190169
 21
422.3628507975546
 31
0.0
  0
LINE
  5
F34
102
{ACAD_REACTORS
330
10C4
102
}
330
1E
100
AcDbEntity
  8
STEMPEL
100
AcDbLine
 10
253.3844728190169
 20
504.2628507975546
 30
0.0
 11
255.6344306882642
 21
375.3628507975548
 31
0.0
  0
TEXT
  5
F35
330
1E
100
AcDbEntity
  8
TEXT
 62
     1
100
AcDbText
 10
286.9140825984132
 20
445.6604722677527
 30
0.0
 40
7.0
  1
EDV-Art.Nr. 16290.070X
 41
0.8
  7
GREEKS
100
AcDbText
  0
TEXT
  5
F36
330
1E
100
AcDbEntity
  8
TEXT
 62
     1
100
AcDbText
 10
286.9532037187424
 20
458.5071252225943
 30
0.0
 40
7.0
  1
Siebaufnahme   150
 41
0.8
  7
GREEKS
100
AcDbText
  0
LINE
  5
F37
330
1E
100
AcDbEntity
  8
TEXT
 62
     2
100
AcDbLine
 10
286.931375507743
 20
455.1272198056979
 30
0.0
 11
390.4898603144732
 21
455.1272198056979
 31
0.0
  0
LINE
  5
F38
102
{ACAD_REACTORS
330
1115
102
}
330
1E
100
AcDbEntity
  8
MITTEL
100
AcDbLine
 10
206.4844728190169
 20
530.3628507975544
 30
0.0
 11
206.4844728190169
 21
370.3628507975547
 31
0.0
  0
LINE
  5
F39
102
{ACAD_REACTORS
330
1115
102
}
330
1E
100
AcDbEntity
  8
TEXT
 62
     2
100
AcDbLine
 10
286.931375507743
 20
546.2157721426314
 30
0.0
 11
274.3845283805574
 21
524.6086784984989
 31
0.0
  0
LINE
  5
F3A
330
1E
100
AcDbEntity
  8
STEMPEL
100
AcDbLine
 10
157.171134144136
 20
517.3628507975547
 30
0.0
 11
157.171134144136
 21
521.3628507975547
 31
0.0
  0
LINE
  5
F3B
330
1E
100
AcDbEntity
  8
STEMPEL
100
AcDbLine
 10
148.6711341441361
 20
517.3628507975547
 30
0.0
 11
148.671134144136
 21
521.3628507975547
 31
0.0
  0
LINE
  5
F3C
330
1E
100
AcDbEntity
  8
STEMPEL
100
AcDbLine
 10
157.171134144136
 20
521.3628507975547
 30
0.0
 11
148.671134144136
 21
521.3628507975547
 31
0.0
  0
POINT
  5
F3D
330
1E
100
AcDbEntity
  8
DEFPOINTS
  6
ByBlock
 62
     0
100
AcDbPoint
 10
159.5844728190169
 20
504.2628507975546
 30
0.0
  0
POINT
  5
F3E
330
1E
100
AcDbEntity
  8
DEFPOINTS
  6
ByBlock
 62
     0
100
AcDbPoint
 10
159.5844728190169
 20
504.2628507975546
 30
0.0
  0
LINE
  5
F3F
102
{ACAD_REACTORS
330
1115
102
}
330
1E
100
AcDbEntity
  8
MITTEL
100
AcDbLine
 10
152.9211341441361
 20
509.3628507975548
 30
0.0
 11
152.9211341441359
 21
526.3628507975547
 31
0.0
  0
ARC
  5
F40
102
{ACAD_REACTORS
330
1115
102
}
330
1E
100
AcDbEntity
  8
STEMPEL
100
AcDbCircle
 10
137.9844728190169
 20
522.3628507975547
 30
0.0
 40
3.0
100
AcDbArc
 50
90.0
 51
180.0
  0
ARC
  5
F41
102
{ACAD_REACTORS
330
1115
102
}
330
1E
100
AcDbEntity
  8
STEMPEL
100
AcDbCircle
 10
137.9844728190169
 20
522.3628507975547
 30
0.0
 40
1.5
100
AcDbArc
 50
90.0
 51
180.0
  0
POINT
  5
F42
330
1E
100
AcDbEntity
  8
DEFPOINTS
  6
ByBlock
 62
     0
100
AcDbPoint
 10
135.6702915016681
 20
524.2719251361895
 30
0.0
  0
LINE
  5
F43
102
{ACAD_REACTORS
330
1115
102
}
330
1E
100
AcDbEntity
  8
STEMPEL
100
AcDbLine
 10
136.4844728190169
 20
517.3628507975547
 30
0.0
 11
136.4844728190169
 21
522.3628507975547
 31
0.0
  0
LINE
  5
F44
102
{ACAD_REACTORS
330
1115
102
}
330
1E
100
AcDbEntity
  8
STEMPEL
100
AcDbLine
 10
134.9844728190169
 20
517.3628507975547
 30
0.0
 11
134.9844728190169
 21
522.3628507975547
 31
0.0
  0
LINE
  5
F45
102
{ACAD_REACTORS
330
10C4
102
}
330
1E
100
AcDbEntity
  8
STEMPEL
100
AcDbLine
 10
134.4844728190168
 20
525.3628507975545
 30
0.0
 11
134.4844728190169
 21
517.3628507975547
 31
0.0
  0
LINE
  5
F46
102
{ACAD_REACTORS
330
10C4
102
}
330
1E
100
AcDbEntity
  8
STEMPEL
100
AcDbLine
 10
145.984472819017
 20
514.3628507975547
 30
0.0
 11
131.4844728190169
 21
514.3628507975547
 31
0.0
  0
LINE
  5
F47
102
{ACAD_REACTORS
330
10C4
102
}
330
1E
100
AcDbEntity
  8
STEMPEL
100
AcDbLine
 10
131.4844728190168
 20
525.3628507975545
 30
0.0
 11
131.4844728190169
 21
514.3628507975547
 31
0.0
  0
LINE
  5
F48
102
{ACAD_REACTORS
330
10C4
102
}
330
1E
100
AcDbEntity
  8
STEMPEL
100
AcDbLine
 10
146.4844728190169
 20
517.3628507975547
 30
0.0
 11
159.5844728190169
 21
504.2628507975546
 31
0.0
  0
LINE
  5
F49
102
{ACAD_REACTORS
330
10C4
102
}
330
1E
100
AcDbEntity
  8
STEMPEL
100
AcDbLine
 10
145.9844728190169
 20
514.3628507975547
 30
0.0
 11
155.4844728190169
 21
504.8628507975546
 31
0.0
  0
LINE
  5
F4A
102
{ACAD_REACTORS
330
10C4
102
}
330
1E
100
AcDbEntity
  8
STEMPEL
100
AcDbLine
 10
155.984472819017
 20
497.3628507975546
 30
0.0
 11
155.984472819017
 21
494.3628507975547
 31
0.0
  0
LINE
  5
F4B
102
{ACAD_REACTORS
330
10C4
102
}
330
1E
100
AcDbEntity
  8
STEMPEL
100
AcDbLine
 10
155.984472819017
 20
494.3628507975547
 30
0.0
 11
155.484472819017
 21
494.3628507975547
 31
0.0
  0
LINE
  5
F4C
102
{ACAD_REACTORS
330
10C4
102
}
330
1E
100
AcDbEntity
  8
STEMPEL
100
AcDbLine
 10
155.984472819017
 20
497.3628507975546
 30
0.0
 11
155.484472819017
 21
497.3628507975546
 31
0.0
  0
LINE
  5
F4D
102
{ACAD_REACTORS
330
10C4
102
}
330
1E
100
AcDbEntity
  8
STEMPEL
100
AcDbLine
 10
155.984472819017
 20
482.3628507975547
 30
0.0
 11
155.484472819017
 21
482.3628507975547
 31
0.0
  0
LINE
  5
F4E
102
{ACAD_REACTORS
330
10C4
102
}
330
1E
100
AcDbEntity
  8
STEMPEL
100
AcDbLine
 10
155.984472819017
 20
479.3628507975546
 30
0.0
 11
155.484472819017
 21
479.3628507975546
 31
0.0
  0
LINE
  5
F4F
102
{ACAD_REACTORS
330
10C4
102
}
330
1E
100
AcDbEntity
  8
STEMPEL
100
AcDbLine
 10
155.984472819017
 20
482.3628507975547
 30
0.0
 11
155.984472819017
 21
479.3628507975546
 31
0.0
  0
LINE
  5
F50
102
{ACAD_REACTORS
330
10C4
102
}
330
1E
100
AcDbEntity
  8
STEMPEL
100
AcDbLine
 10
155.4844728190169
 20
494.3628507975547
 30
0.0
 11
155.4844728190169
 21
482.3628507975546
 31
0.0
  0
LINE
  5
F51
102
{ACAD_REACTORS
330
10C4
102
}
330
1E
100
AcDbEntity
  8
STEMPEL
100
AcDbLine
 10
155.4844728190169
 20
504.8628507975546
 30
0.0
 11
155.4844728190169
 21
497.3628507975546
 31
0.0
  0
LINE
  5
F52
102
{ACAD_REACTORS
330
10C4
102
}
330
1E
100
AcDbEntity
  8
STEMPEL
100
AcDbLine
 10
155.984472819017
 20
467.3628507975546
 30
0.0
 11
155.484472819017
 21
467.3628507975546
 31
0.0
  0
POINT
  5
F53
330
1E
100
AcDbEntity
  8
DEFPOINTS
  6
ByBlock
 62
     0
100
AcDbPoint
 10
159.3669080344802
 20
459.8274002296415
 30
0.0
  0
LINE
  5
F54
102
{ACAD_REACTORS
330
10C4
102
}
330
1E
100
AcDbEntity
  8
STEMPEL
100
AcDbLine
 10
155.984472819017
 20
464.3628507975547
 30
0.0
 11
155.484472819017
 21
464.3628507975547
 31
0.0
  0
LINE
  5
F55
102
{ACAD_REACTORS
330
10C4
102
}
330
1E
100
AcDbEntity
  8
STEMPEL
100
AcDbLine
 10
155.9844728190169
 20
452.3628507975547
 30
0.0
 11
155.484472819017
 21
452.3628507975547
 31
0.0
  0
LINE
  5
F56
102
{ACAD_REACTORS
330
10C4
102
}
330
1E
100
AcDbEntity
  8
STEMPEL
100
AcDbLine
 10
155.4844728190169
 20
464.3628507975547
 30
0.0
 11
155.4844728190169
 21
452.3628507975547
 31
0.0
  0
LINE
  5
F57
102
{ACAD_REACTORS
330
10C4
102
}
330
1E
100
AcDbEntity
  8
STEMPEL
100
AcDbLine
 10
155.984472819017
 20
467.3628507975546
 30
0.0
 11
155.984472819017
 21
464.3628507975547
 31
0.0
  0
LINE
  5
F58
102
{ACAD_REACTORS
330
10C4
102
}
330
1E
100
AcDbEntity
  8
STEMPEL
100
AcDbLine
 10
155.984472819017
 20
449.3628507975546
 30
0.0
 11
155.484472819017
 21
449.3628507975547
 31
0.0
  0
LINE
  5
F59
102
{ACAD_REACTORS
330
10C4
102
}
330
1E
100
AcDbEntity
  8
STEMPEL
100
AcDbLine
 10
155.984472819017
 20
437.3628507975547
 30
0.0
 11
155.484472819017
 21
437.3628507975547
 31
0.0
  0
LINE
  5
F5A
102
{ACAD_REACTORS
330
10C4
102
}
330
1E
100
AcDbEntity
  8
STEMPEL
100
AcDbLine
 10
155.984472819017
 20
434.3628507975546
 30
0.0
 11
155.484472819017
 21
434.3628507975546
 31
0.0
  0
LINE
  5
F5B
102
{ACAD_REACTORS
330
10C4
102
}
330
1E
100
AcDbEntity
  8
STEMPEL
100
AcDbLine
 10
155.984472819017
 20
437.3628507975547
 30
0.0
 11
155.984472819017
 21
434.3628507975546
 31
0.0
  0
LINE
  5
F5C
102
{ACAD_REACTORS
330
10C4
102
}
330
1E
100
AcDbEntity
  8
STEMPEL
100
AcDbLine
 10
155.4844728190169
 20
449.3628507975547
 30
0.0
 11
155.4844728190169
 21
437.3628507975547
 31
0.0
  0
LINE
  5
F5D
102
{ACAD_REACTORS
330
10C4
102
}
330
1E
100
AcDbEntity
  8
STEMPEL
100
AcDbLine
 10
155.9844728190169
 20
452.3628507975547
 30
0.0
 11
155.984472819017
 21
449.3628507975546
 31
0.0
  0
LINE
  5
F5E
102
{ACAD_REACTORS
330
10C4
102
}
330
1E
100
AcDbEntity
  8
STEMPEL
100
AcDbLine
 10
155.4844728190169
 20
479.3628507975546
 30
0.0
 11
155.4844728190169
 21
467.3628507975546
 31
0.0
  0
LINE
  5
F5F
102
{ACAD_REACTORS
330
10C4
102
}
330
1E
100
AcDbEntity
  8
STEMPEL
100
AcDbLine
 10
155.984472819017
 20
422.3628507975546
 30
0.0
 11
155.484472819017
 21
422.3628507975546
 31
0.0
  0
LINE
  5
F60
102
{ACAD_REACTORS
330
10C4
102
}
330
1E
100
AcDbEntity
  8
STEMPEL
100
AcDbLine
 10
155.984472819017
 20
419.3628507975547
 30
0.0
 11
155.484472819017
 21
419.3628507975547
 31
0.0
  0
LINE
  5
F61
102
{ACAD_REACTORS
330
10C4
102
}
330
1E
100
AcDbEntity
  8
STEMPEL
100
AcDbLine
 10
155.984472819017
 20
422.3628507975546
 30
0.0
 11
155.984472819017
 21
419.3628507975547
 31
0.0
  0
LINE
  5
F62
102
{ACAD_REACTORS
330
10C4
102
}
330
1E
100
AcDbEntity
  8
STEMPEL
100
AcDbLine
 10
155.984472819017
 20
404.3628507975546
 30
0.0
 11
155.484472819017
 21
404.3628507975546
 31
0.0
  0
LINE
  5
F63
102
{ACAD_REACTORS
330
10C4
102
}
330
1E
100
AcDbEntity
  8
STEMPEL
100
AcDbLine
 10
155.984472819017
 20
407.3628507975547
 30
0.0
 11
155.484472819017
 21
407.3628507975547
 31
0.0
  0
LINE
  5
F64
102
{ACAD_REACTORS
330
10C4
102
}
330
1E
100
AcDbEntity
  8
STEMPEL
100
AcDbLine
 10
155.984472819017
 20
407.3628507975547
 30
0.0
 11
155.984472819017
 21
404.3628507975546
 31
0.0
  0
LINE
  5
F65
102
{ACAD_REACTORS
330
10C4
102
}
330
1E
100
AcDbEntity
  8
STEMPEL
100
AcDbLine
 10
155.4844728190169
 20
419.3628507975547
 30
0.0
 11
155.484472819017
 21
407.3628507975547
 31
0.0
  0
LINE
  5
F66
102
{ACAD_REACTORS
330
10C4
102
}
330
1E
100
AcDbEntity
  8
STEMPEL
100
AcDbLine
 10
155.984472819017
 20
392.3628507975547
 30
0.0
 11
155.484472819017
 21
392.3628507975547
 31
0.0
  0
LINE
  5
F67
102
{ACAD_REACTORS
330
10C4
102
}
330
1E
100
AcDbEntity
  8
STEMPEL
100
AcDbLine
 10
155.984472819017
 20
389.3628507975547
 30
0.0
 11
155.484472819017
 21
389.3628507975547
 31
0.0
  0
LINE
  5
F68
102
{ACAD_REACTORS
330
10C4
102
}
330
1E
100
AcDbEntity
  8
STEMPEL
100
AcDbLine
 10
155.984472819017
 20
392.3628507975547
 30
0.0
 11
155.984472819017
 21
389.3628507975547
 31
0.0
  0
LINE
  5
F69
102
{ACAD_REACTORS
330
10C4
102
}
330
1E
100
AcDbEntity
  8
STEMPEL
100
AcDbLine
 10
155.484472819017
 20
404.3628507975546
 30
0.0
 11
155.484472819017
 21
392.3628507975547
 31
0.0
  0
POINT
  5
F6A
330
1E
100
AcDbEntity
  8
DEFPOINTS
  6
ByBlock
 62
     0
100
AcDbPoint
 10
157.3345149497696
 20
375.3628507975548
 30
0.0
  0
LINE
  5
F6B
102
{ACAD_REACTORS
330
10C4
102
}
330
1E
100
AcDbEntity
  8
STEMPEL
100
AcDbLine
 10
155.484472819017
 20
389.3628507975547
 30
0.0
 11
155.484472819017
 21
375.3628507975547
 31
0.0
  0
LINE
  5
F6C
102
{ACAD_REACTORS
330
10C4
102
}
330
1E
100
AcDbEntity
  8
STEMPEL
100
AcDbLine
 10
155.4844728190169
 20
434.3628507975547
 30
0.0
 11
155.4844728190169
 21
422.3628507975546
 31
0.0
  0
LINE
  5
F6D
102
{ACAD_REACTORS
330
10C4
102
}
330
1E
100
AcDbEntity
  8
STEMPEL
100
AcDbLine
 10
159.5844728190169
 20
504.2628507975546
 30
0.0
 11
157.3345149497696
 21
375.3628507975548
 31
0.0
  0
DIMENSION
  5
F6F
330
1E
100
AcDbEntity
  8
BEM
100
AcDbDimension
  2
*D2
 10
100.0633551715621
 20
375.3628507975547
 30
0.0
 11
93.56335517156201
 21
450.3628507975546
 31
0.0
 70
    32
 71
     5
 42
149.9999999999998
  3
Standard
100
AcDbAlignedDimension
 13
131.4844728190168
 23
525.3628507975545
 33
0.0
 14
155.4844728190169
 24
375.3628507975546
 34
0.0
 50
90.0
100
AcDbRotatedDimension
1001
ACAD
1000
DSTYLE
1002
{
1070
    40
1040
2.0
1070
    41
1040
3.5
1070
    42
1040
1.0
1070
    43
1040
7.0
1070
    44
1040
1.0
1070
    73
1070
     0
1070
    74
1070
     0
1070
    77
1070
     1
1070
    78
1070
     8
1070
    79
1070
     2
1070
   140
1040
3.5
1070
   141
1040
1.5
1070
   146
1040
0.5142857142857144
1070
   147
1040
1.5
1070
   172
1070
     1
1070
   178
1070
     1
1070
   179
1070
     2
1070
   271
1070
     2
1070
   272
1070
     2
1070
   284
1070
     8
1070
   285
1070
     8
1070
   286
1070
     8
1002
}
  0
DIMENSION
  5
F70
330
1E
100
AcDbEntity
  8
BEM
100
AcDbDimension
  2
*D3
 10
115.719531534814
 20
514.3628507975547
 30
0.0
 11
109.2195315348139
 21
494.5628507975547
 31
0.0
 70
    32
 71
     5
 42
10.99999999999977
  3
Standard
100
AcDbAlignedDimension
 13
131.4844728190168
 23
525.3628507975545
 33
0.0
 14
131.4844728190169
 24
514.3628507975547
 34
0.0
 50
90.0
100
AcDbRotatedDimension
1001
ACAD
1000
DSTYLE
1002
{
1070
    40
1040
2.0
1070
    41
1040
3.5
1070
    42
1040
1.0
1070
    43
1040
7.0
1070
    44
1040
1.0
1070
    73
1070
     0
1070
    74
1070
     0
1070
    77
1070
     1
1070
    78
1070
     8
1070
    79
1070
     2
1070
   140
1040
3.5
1070
   141
1040
1.5
1070
   146
1040
0.5142857142857144
1070
   147
1040
1.5
1070
   172
1070
     1
1070
   178
1070
     1
1070
   179
1070
     2
1070
   271
1070
     2
1070
   272
1070
     2
1070
   284
1070
     8
1070
   285
1070
     8
1070
   286
1070
     8
1002
}
  0
LINE
  5
F71
330
1E
100
AcDbEntity
  8
STEMPEL
100
AcDbLine
 10
137.9844728190169
 20
525.3628507975547
 30
0.0
 11
274.9844728190169
 21
525.3628507975547
 31
0.0
  0
LINE
  5
F73
102
{ACAD_REACTORS
330
10C4
330
1115
102
}
330
1E
100
AcDbEntity
  8
STEMPEL
100
AcDbLine
 10
131.4844728190168
 20
525.3628507975545
 30
0.0
 11
281.484472819017
 21
525.3628507975547
 31
0.0
  0
LINE
  5
F74
102
{ACAD_REACTORS
330
10C4
330
1115
102
}
330
1E
100
AcDbEntity
  8
STEMPEL
100
AcDbLine
 10
134.4844728190169
 20
517.3628507975547
 30
0.0
 11
278.4844728190169
 21
517.3628507975547
 31
0.0
  0
LINE
  5
F75
102
{ACAD_REACTORS
330
10C4
102
}
330
1E
100
AcDbEntity
  8
STEMPEL
100
AcDbLine
 10
155.4844728190169
 20
375.3628507975546
 30
0.0
 11
257.4844728190168
 21
375.3628507975547
 31
0.0
  0
LINE
  5
F76
330
1E
100
AcDbEntity
  8
STEMPEL
100
AcDbLine
 10
159.5844728190169
 20
504.2628507975545
 30
0.0
 11
253.3844728190169
 21
504.2628507975546
 31
0.0
  0
LINE
  5
F77
102
{ACAD_REACTORS
330
1115
102
}
330
1E
100
AcDbEntity
  8
STEMPEL
100
AcDbLine
 10
137.9844728190169
 20
523.8628507975547
 30
0.0
 11
167.4844728190169
 21
523.8628507975547
 31
0.0
  0
DIMENSION
  5
F78
330
1E
100
AcDbEntity
  8
BEM
100
AcDbDimension
  2
*D4
 10
257.4844728190168
 20
355.588469551665
 30
0.0
 11
206.4844728190168
 21
362.088469551665
 31
0.0
 70
    32
  1
%%c<>
 71
     5
 42
101.9999999999998
  3
Standard
100
AcDbAlignedDimension
 13
155.4844728190169
 23
375.3628507975546
 33
0.0
 14
257.4844728190168
 24
375.3628507975547
 34
0.0
100
AcDbRotatedDimension
1001
ACAD
1000
DSTYLE
1002
{
1070
    40
1040
2.0
1070
    41
1040
3.5
1070
    42
1040
1.0
1070
    43
1040
7.0
1070
    44
1040
1.0
1070
    73
1070
     0
1070
    74
1070
     0
1070
    77
1070
     1
1070
    78
1070
     8
1070
    79
1070
     2
1070
   140
1040
3.5
1070
   141
1040
1.5
1070
   146
1040
0.5142857142857144
1070
   147
1040
1.5
1070
   172
1070
     1
1070
   178
1070
     1
1070
   179
1070
     2
1070
   271
1070
     2
1070
   272
1070
     2
1070
   284
1070
     8
1070
   285
1070
     8
1070
   286
1070
     8
1002
}
  0
ARC
  5
F79
330
1E
100
AcDbEntity
  8
STEMPEL
100
AcDbCircle
 10
274.9844728190169
 20
314.2084230705547
 30
0.0
 40
3.0
100
AcDbArc
 50
0.0
 51
90.0
  0
LINE
  5
F7A
330
1E
100
AcDbEntity
  8
MITTEL
100
AcDbLine
 10
233.4844728190169
 20
266.2084230705547
 30
0.0
 11
244.4844728190169
 21
266.2084230705547
 31
0.0
  0
ARC
  5
F7B
330
1E
100
AcDbEntity
  8
STEMPEL
100
AcDbCircle
 10
238.9844728190169
 20
266.2084230705547
 30
0.0
 40
3.5
100
AcDbArc
 50
0.0
 51
180.0
  0
LINE
  5
F7C
330
1E
100
AcDbEntity
  8
STEMPEL
100
AcDbLine
 10
235.4844728190169
 20
252.2084230705547
 30
0.0
 11
235.4844728190169
 21
266.2084230705547
 31
0.0
  0
LINE
  5
F7D
330
1E
100
AcDbEntity
  8
STEMPEL
100
AcDbLine
 10
242.4844728190169
 20
252.2084230705547
 30
0.0
 11
242.4844728190169
 21
266.2084230705547
 31
0.0
  0
ARC
  5
F7E
330
1E
100
AcDbEntity
  8
STEMPEL
100
AcDbCircle
 10
238.9844728190169
 20
239.2084230705545
 30
0.0
 40
3.5
100
AcDbArc
 50
0.0
 51
180.0
  0
LINE
  5
F7F
330
1E
100
AcDbEntity
  8
MITTEL
100
AcDbLine
 10
233.4844728190169
 20
225.2084230705545
 30
0.0
 11
244.4844728190169
 21
225.2084230705545
 31
0.0
  0
LINE
  5
F80
330
1E
100
AcDbEntity
  8
STEMPEL
100
AcDbLine
 10
235.4844728190169
 20
239.2084230705545
 30
0.0
 11
235.4844728190169
 21
225.2084230705545
 31
0.0
  0
LINE
  5
F81
330
1E
100
AcDbEntity
  8
STEMPEL
100
AcDbLine
 10
242.4844728190169
 20
239.2084230705545
 30
0.0
 11
242.4844728190169
 21
225.2084230705545
 31
0.0
  0
ARC
  5
F82
330
1E
100
AcDbEntity
  8
STEMPEL
100
AcDbCircle
 10
238.9844728190169
 20
252.2084230705547
 30
0.0
 40
3.5
100
AcDbArc
 50
180.0
 51
0.0
  0
LINE
  5
F83
330
1E
100
AcDbEntity
  8
MITTEL
100
AcDbLine
 10
220.4844728190169
 20
278.2084230705547
 30
0.0
 11
231.4844728190169
 21
278.2084230705547
 31
0.0
  0
ARC
  5
F84
330
1E
100
AcDbEntity
  8
STEMPEL
100
AcDbCircle
 10
225.9844728190169
 20
278.2084230705547
 30
0.0
 40
3.5
100
AcDbArc
 50
0.0
 51
180.0
  0
ARC
  5
F85
330
1E
100
AcDbEntity
  8
STEMPEL
100
AcDbCircle
 10
212.9844728190169
 20
283.2084230705547
 30
0.0
 40
3.5
100
AcDbArc
 50
0.0
 51
180.0
  0
LINE
  5
F86
330
1E
100
AcDbEntity
  8
MITTEL
100
AcDbLine
 10
181.4844728190168
 20
278.2084230705547
 30
0.0
 11
192.4844728190169
 21
278.2084230705547
 31
0.0
  0
ARC
  5
F87
330
1E
100
AcDbEntity
  8
STEMPEL
100
AcDbCircle
 10
186.9844728190168
 20
278.2084230705547
 30
0.0
 40
3.5
100
AcDbArc
 50
0.0
 51
180.0
  0
LINE
  5
F88
330
1E
100
AcDbEntity
  8
MITTEL
100
AcDbLine
 10
194.4844728190169
 20
283.2084230705547
 30
0.0
 11
218.4844728190169
 21
283.2084230705547
 31
0.0
  0
ARC
  5
F89
330
1E
100
AcDbEntity
  8
STEMPEL
100
AcDbCircle
 10
199.9844728190169
 20
283.2084230705547
 30
0.0
 40
3.5
100
AcDbArc
 50
0.0
 51
180.0
  0
ARC
  5
F8A
330
1E
100
AcDbEntity
  8
STEMPEL
100
AcDbCircle
 10
225.9844728190169
 20
239.2084230705545
 30
0.0
 40
3.5
100
AcDbArc
 50
0.0
 51
180.0
  0
ARC
  5
F8B
330
1E
100
AcDbEntity
  8
STEMPEL
100
AcDbCircle
 10
212.9844728190169
 20
239.2084230705545
 30
0.0
 40
3.5
100
AcDbArc
 50
0.0
 51
180.0
  0
ARC
  5
F8C
330
1E
100
AcDbEntity
  8
STEMPEL
100
AcDbCircle
 10
225.9844728190169
 20
252.2084230705547
 30
0.0
 40
3.5
100
AcDbArc
 50
180.0
 51
0.0
  0
ARC
  5
F8D
330
1E
100
AcDbEntity
  8
STEMPEL
100
AcDbCircle
 10
212.9844728190169
 20
252.2084230705547
 30
0.0
 40
3.5
100
AcDbArc
 50
180.0
 51
0.0
  0
LINE
  5
F8E
330
1E
100
AcDbEntity
  8
MITTEL
100
AcDbLine
 10
168.4844728190169
 20
266.2084230705547
 30
0.0
 11
179.4844728190168
 21
266.2084230705547
 31
0.0
  0
ARC
  5
F8F
330
1E
100
AcDbEntity
  8
STEMPEL
100
AcDbCircle
 10
173.9844728190169
 20
266.2084230705547
 30
0.0
 40
3.5
100
AcDbArc
 50
0.0
 51
180.0
  0
LINE
  5
F90
330
1E
100
AcDbEntity
  8
STEMPEL
100
AcDbLine
 10
170.4844728190169
 20
252.2084230705547
 30
0.0
 11
170.4844728190169
 21
266.2084230705547
 31
0.0
  0
LINE
  5
F91
330
1E
100
AcDbEntity
  8
STEMPEL
100
AcDbLine
 10
177.4844728190168
 20
252.2084230705547
 30
0.0
 11
177.4844728190168
 21
266.2084230705547
 31
0.0
  0
ARC
  5
F92
330
1E
100
AcDbEntity
  8
STEMPEL
100
AcDbCircle
 10
186.9844728190168
 20
239.2084230705545
 30
0.0
 40
3.5
100
AcDbArc
 50
0.0
 51
180.0
  0
ARC
  5
F93
330
1E
100
AcDbEntity
  8
STEMPEL
100
AcDbCircle
 10
173.9844728190169
 20
239.2084230705545
 30
0.0
 40
3.5
100
AcDbArc
 50
0.0
 51
180.0
  0
LINE
  5
F94
330
1E
100
AcDbEntity
  8
MITTEL
100
AcDbLine
 10
168.4844728190169
 20
225.2084230705545
 30
0.0
 11
179.4844728190168
 21
225.2084230705545
 31
0.0
  0
LINE
  5
F95
330
1E
100
AcDbEntity
  8
STEMPEL
100
AcDbLine
 10
170.4844728190169
 20
239.2084230705545
 30
0.0
 11
170.4844728190169
 21
225.2084230705545
 31
0.0
  0
LINE
  5
F96
330
1E
100
AcDbEntity
  8
STEMPEL
100
AcDbLine
 10
177.4844728190168
 20
239.2084230705545
 30
0.0
 11
177.4844728190168
 21
225.2084230705545
 31
0.0
  0
ARC
  5
F97
330
1E
100
AcDbEntity
  8
STEMPEL
100
AcDbCircle
 10
186.9844728190168
 20
252.2084230705547
 30
0.0
 40
3.5
100
AcDbArc
 50
180.0
 51
0.0
  0
ARC
  5
F98
330
1E
100
AcDbEntity
  8
STEMPEL
100
AcDbCircle
 10
173.9844728190169
 20
252.2084230705547
 30
0.0
 40
3.5
100
AcDbArc
 50
180.0
 51
0.0
  0
ARC
  5
F99
330
1E
100
AcDbEntity
  8
STEMPEL
100
AcDbCircle
 10
199.9844728190169
 20
252.2084230705547
 30
0.0
 40
3.5
100
AcDbArc
 50
180.0
 51
0.0
  0
ARC
  5
F9A
330
1E
100
AcDbEntity
  8
STEMPEL
100
AcDbCircle
 10
199.9844728190169
 20
239.2084230705545
 30
0.0
 40
3.5
100
AcDbArc
 50
0.0
 51
180.0
  0
LINE
  5
F9B
330
1E
100
AcDbEntity
  8
STEMPEL
100
AcDbLine
 10
183.4844728190168
 20
252.2084230705547
 30
0.0
 11
183.4844728190168
 21
278.2084230705547
 31
0.0
  0
LINE
  5
F9C
330
1E
100
AcDbEntity
  8
STEMPEL
100
AcDbLine
 10
190.4844728190169
 20
252.2084230705547
 30
0.0
 11
190.4844728190169
 21
278.2084230705547
 31
0.0
  0
LINE
  5
F9D
330
1E
100
AcDbEntity
  8
STEMPEL
100
AcDbLine
 10
203.4844728190169
 20
252.2084230705547
 30
0.0
 11
203.4844728190169
 21
283.2084230705547
 31
0.0
  0
LINE
  5
F9E
330
1E
100
AcDbEntity
  8
STEMPEL
100
AcDbLine
 10
209.4844728190169
 20
252.2084230705547
 30
0.0
 11
209.4844728190169
 21
283.2084230705547
 31
0.0
  0
LINE
  5
F9F
330
1E
100
AcDbEntity
  8
STEMPEL
100
AcDbLine
 10
229.4844728190169
 20
252.2084230705547
 30
0.0
 11
229.4844728190169
 21
278.2084230705547
 31
0.0
  0
LINE
  5
FA0
330
1E
100
AcDbEntity
  8
STEMPEL
100
AcDbLine
 10
222.4844728190169
 20
252.2084230705547
 30
0.0
 11
222.4844728190169
 21
278.2084230705547
 31
0.0
  0
LINE
  5
FA1
330
1E
100
AcDbEntity
  8
STEMPEL
100
AcDbLine
 10
216.4844728190169
 20
252.2084230705547
 30
0.0
 11
216.4844728190169
 21
283.2084230705547
 31
0.0
  0
LINE
  5
FA2
330
1E
100
AcDbEntity
  8
STEMPEL
100
AcDbLine
 10
196.4844728190169
 20
252.2084230705547
 30
0.0
 11
196.4844728190169
 21
283.2084230705547
 31
0.0
  0
LINE
  5
FA3
330
1E
100
AcDbEntity
  8
MITTEL
100
AcDbLine
 10
168.4844728190169
 20
252.2084230705547
 30
0.0
 11
244.4844728190169
 21
252.2084230705547
 31
0.0
  0
LINE
  5
FA4
330
1E
100
AcDbEntity
  8
MITTEL
100
AcDbLine
 10
168.4844728190169
 20
239.2084230705545
 30
0.0
 11
244.4844728190169
 21
239.2084230705545
 31
0.0
  0
ARC
  5
FA5
330
1E
100
AcDbEntity
  8
STEMPEL
100
AcDbCircle
 10
274.9844728190169
 20
177.2084230705546
 30
0.0
 40
3.0
100
AcDbArc
 50
270.0
 51
0.0
  0
LINE
  5
FA6
330
1E
100
AcDbEntity
  8
MITTEL
100
AcDbLine
 10
220.4844728190169
 20
213.2084230705546
 30
0.0
 11
231.4844728190169
 21
213.2084230705546
 31
0.0
  0
ARC
  5
FA7
330
1E
100
AcDbEntity
  8
STEMPEL
100
AcDbCircle
 10
225.9844728190169
 20
213.2084230705546
 30
0.0
 40
3.5
100
AcDbArc
 50
180.0
 51
0.0
  0
ARC
  5
FA8
330
1E
100
AcDbEntity
  8
STEMPEL
100
AcDbCircle
 10
212.9844728190169
 20
208.2084230705545
 30
0.0
 40
3.5
100
AcDbArc
 50
180.0
 51
0.0
  0
LINE
  5
FA9
330
1E
100
AcDbEntity
  8
MITTEL
100
AcDbLine
 10
181.4844728190168
 20
213.2084230705546
 30
0.0
 11
192.4844728190169
 21
213.2084230705546
 31
0.0
  0
ARC
  5
FAA
330
1E
100
AcDbEntity
  8
STEMPEL
100
AcDbCircle
 10
186.9844728190168
 20
213.2084230705546
 30
0.0
 40
3.5
100
AcDbArc
 50
180.0
 51
0.0
  0
LINE
  5
FAB
330
1E
100
AcDbEntity
  8
MITTEL
100
AcDbLine
 10
194.4844728190169
 20
208.2084230705545
 30
0.0
 11
218.4844728190169
 21
208.2084230705545
 31
0.0
  0
ARC
  5
FAC
330
1E
100
AcDbEntity
  8
STEMPEL
100
AcDbCircle
 10
199.9844728190169
 20
208.2084230705545
 30
0.0
 40
3.5
100
AcDbArc
 50
180.0
 51
0.0
  0
ARC
  5
FAD
330
1E
100
AcDbEntity
  8
STEMPEL
100
AcDbCircle
 10
238.9844728190169
 20
225.2084230705545
 30
0.0
 40
3.5
100
AcDbArc
 50
180.0
 51
0.0
  0
LINE
  5
FAE
330
1E
100
AcDbEntity
  8
STEMPEL
100
AcDbLine
 10
209.4844728190169
 20
239.2084230705545
 30
0.0
 11
209.4844728190169
 21
208.2084230705545
 31
0.0
  0
LINE
  5
FAF
330
1E
100
AcDbEntity
  8
STEMPEL
100
AcDbLine
 10
203.4844728190169
 20
239.2084230705545
 30
0.0
 11
203.4844728190169
 21
208.2084230705545
 31
0.0
  0
LINE
  5
FB0
330
1E
100
AcDbEntity
  8
STEMPEL
100
AcDbLine
 10
216.4844728190169
 20
239.2084230705545
 30
0.0
 11
216.4844728190169
 21
208.2084230705545
 31
0.0
  0
LINE
  5
FB1
330
1E
100
AcDbEntity
  8
STEMPEL
100
AcDbLine
 10
229.4844728190169
 20
239.2084230705545
 30
0.0
 11
229.4844728190169
 21
213.2084230705546
 31
0.0
  0
LINE
  5
FB2
330
1E
100
AcDbEntity
  8
STEMPEL
100
AcDbLine
 10
222.4844728190169
 20
239.2084230705545
 30
0.0
 11
222.4844728190169
 21
213.2084230705546
 31
0.0
  0
ARC
  5
FB3
330
1E
100
AcDbEntity
  8
STEMPEL
100
AcDbCircle
 10
173.9844728190169
 20
225.2084230705545
 30
0.0
 40
3.5
100
AcDbArc
 50
180.0
 51
0.0
  0
LINE
  5
FB4
330
1E
100
AcDbEntity
  8
STEMPEL
100
AcDbLine
 10
183.4844728190168
 20
239.2084230705545
 30
0.0
 11
183.4844728190168
 21
213.2084230705546
 31
0.0
  0
LINE
  5
FB5
330
1E
100
AcDbEntity
  8
STEMPEL
100
AcDbLine
 10
196.4844728190169
 20
239.2084230705545
 30
0.0
 11
196.4844728190169
 21
208.2084230705545
 31
0.0
  0
LINE
  5
FB6
330
1E
100
AcDbEntity
  8
STEMPEL
100
AcDbLine
 10
190.4844728190169
 20
239.2084230705545
 30
0.0
 11
190.4844728190169
 21
213.2084230705546
 31
0.0
  0
LINE
  5
FB7
330
1E
100
AcDbEntity
  8
MITTEL
100
AcDbLine
 10
173.9844728190169
 20
219.7084230705546
 30
0.0
 11
173.9844728190169
 21
271.7084230705546
 31
0.0
  0
LINE
  5
FB8
330
1E
100
AcDbEntity
  8
MITTEL
100
AcDbLine
 10
238.9844728190169
 20
219.7084230705546
 30
0.0
 11
238.9844728190169
 21
271.7084230705546
 31
0.0
  0
LINE
  5
FB9
330
1E
100
AcDbEntity
  8
MITTEL
100
AcDbLine
 10
212.9844728190169
 20
202.7084230705546
 30
0.0
 11
212.9844728190169
 21
288.7084230705547
 31
0.0
  0
LINE
  5
FBA
330
1E
100
AcDbEntity
  8
MITTEL
100
AcDbLine
 10
225.9844728190169
 20
207.7084230705545
 30
0.0
 11
225.9844728190169
 21
283.7084230705547
 31
0.0
  0
LINE
  5
FBB
330
1E
100
AcDbEntity
  8
MITTEL
100
AcDbLine
 10
186.9844728190168
 20
207.7084230705545
 30
0.0
 11
186.9844728190168
 21
283.7084230705547
 31
0.0
  0
LINE
  5
FBC
330
1E
100
AcDbEntity
  8
MITTEL
100
AcDbLine
 10
199.9844728190169
 20
202.7084230705546
 30
0.0
 11
199.9844728190169
 21
288.7084230705547
 31
0.0
  0
LINE
  5
FBD
330
1E
100
AcDbEntity
  8
STEMPEL
100
AcDbLine
 10
278.484472819017
 20
317.7084230705545
 30
0.0
 11
278.4844728190169
 21
173.7084230705545
 31
0.0
  0
LINE
  5
FBE
330
1E
100
AcDbEntity
  8
STEMPEL
100
AcDbLine
 10
281.4844728190169
 20
320.7084230705545
 30
0.0
 11
281.4844728190169
 21
170.7084230705545
 31
0.0
  0
LINE
  5
FBF
330
1E
100
AcDbEntity
  8
STEMPEL
100
AcDbLine
 10
277.9844728190169
 20
177.2084230705546
 30
0.0
 11
277.9844728190169
 21
314.2084230705547
 31
0.0
  0
ARC
  5
FC0
330
1E
100
AcDbEntity
  8
STEMPEL
100
AcDbCircle
 10
137.9844728190168
 20
314.2084230705547
 30
0.0
 40
3.0
100
AcDbArc
 50
90.0
 51
180.0
  0
POINT
  5
FC1
330
1E
100
AcDbEntity
  8
DEFPOINTS
  6
ByBlock
 62
     0
100
AcDbPoint
 10
134.4844728190169
 20
173.7084230705545
 30
0.0
  0
POINT
  5
FC2
330
1E
100
AcDbEntity
  8
DEFPOINTS
  6
ByBlock
 62
     0
100
AcDbPoint
 10
135.6980162154313
 20
175.2662294139076
 30
0.0
  0
ARC
  5
FC3
330
1E
100
AcDbEntity
  8
STEMPEL
100
AcDbCircle
 10
137.9844728190168
 20
177.2084230705545
 30
0.0
 40
3.0
100
AcDbArc
 50
180.0
 51
270.0
  0
POINT
  5
FC4
330
1E
100
AcDbEntity
  8
DEFPOINTS
  6
ByBlock
 62
     0
100
AcDbPoint
 10
131.4844728190169
 20
170.7084230705545
 30
0.0
  0
LINE
  5
FC5
330
1E
100
AcDbEntity
  8
STEMPEL
100
AcDbLine
 10
134.4844728190168
 20
317.7084230705545
 30
0.0
 11
134.4844728190169
 21
173.7084230705545
 31
0.0
  0
LINE
  5
FC6
330
1E
100
AcDbEntity
  8
STEMPEL
100
AcDbLine
 10
131.4844728190168
 20
320.7084230705545
 30
0.0
 11
131.4844728190169
 21
170.7084230705545
 31
0.0
  0
LINE
  5
FC7
330
1E
100
AcDbEntity
  8
STEMPEL
100
AcDbLine
 10
134.9844728190168
 20
177.2084230705545
 30
0.0
 11
134.9844728190168
 21
314.2084230705547
 31
0.0
  0
LINE
  5
FC8
330
1E
100
AcDbEntity
  8
MITTEL
100
AcDbLine
 10
126.4844728190169
 20
245.7084230705545
 30
0.0
 11
286.4844728190169
 21
245.7084230705545
 31
0.0
  0
LINE
  5
FC9
330
1E
100
AcDbEntity
  8
STEMPEL
100
AcDbLine
 10
131.4844728190168
 20
320.7084230705545
 30
0.0
 11
281.4844728190169
 21
320.7084230705545
 31
0.0
  0
LINE
  5
FCA
330
1E
100
AcDbEntity
  8
STEMPEL
100
AcDbLine
 10
134.4844728190168
 20
317.7084230705545
 30
0.0
 11
278.484472819017
 21
317.7084230705545
 31
0.0
  0
LINE
  5
FCB
330
1E
100
AcDbEntity
  8
STEMPEL
100
AcDbLine
 10
131.4844728190169
 20
170.7084230705545
 30
0.0
 11
281.4844728190169
 21
170.7084230705545
 31
0.0
  0
LINE
  5
FCC
330
1E
100
AcDbEntity
  8
STEMPEL
100
AcDbLine
 10
134.4844728190169
 20
173.7084230705545
 30
0.0
 11
278.4844728190169
 21
173.7084230705545
 31
0.0
  0
LINE
  5
FCD
330
1E
100
AcDbEntity
  8
STEMPEL
100
AcDbLine
 10
137.9844728190168
 20
317.2084230705547
 30
0.0
 11
274.9844728190169
 21
317.2084230705547
 31
0.0
  0
LINE
  5
FCE
330
1E
100
AcDbEntity
  8
STEMPEL
100
AcDbLine
 10
137.9844728190168
 20
174.2084230705545
 30
0.0
 11
274.9844728190169
 21
174.2084230705546
 31
0.0
  0
LINE
  5
FCF
330
1E
100
AcDbEntity
  8
MITTEL
100
AcDbLine
 10
206.4844728190169
 20
325.7084230705545
 30
0.0
 11
206.4844728190168
 21
165.7084230705545
 31
0.0
  0
DIMENSION
  5
FD0
330
1E
100
AcDbEntity
  8
BEM
100
AcDbDimension
  2
*D1
 10
281.4844728190169
 20
333.1342225043743
 30
0.0
 11
210.2717700447692
 21
333.1342225043743
 31
0.0
 70
   160
 71
     5
 42
150.0000000000001
  3
Standard
100
AcDbAlignedDimension
 13
131.4844728190168
 23
320.7084230705545
 33
0.0
 14
281.4844728190169
 24
320.7084230705545
 34
0.0
100
AcDbRotatedDimension
1001
ACAD
1000
DSTYLE
1002
{
1070
    40
1040
2.0
1070
    41
1040
3.5
1070
    42
1040
1.0
1070
    43
1040
7.0
1070
    44
1040
1.0
1070
    73
1070
     0
1070
    74
1070
     0
1070
    77
1070
     1
1070
    78
1070
     8
1070
    79
1070
     2
1070
   140
1040
3.5
1070
   141
1040
1.5
1070
   146
1040
0.5142857142857144
1070
   147
1040
1.5
1070
   172
1070
     1
1070
   178
1070
     1
1070
   179
1070
     2
1070
   271
1070
     2
1070
   272
1070
     2
1070
   284
1070
     8
1070
   285
1070
     8
1070
   286
1070
     8
1002
}
  0
HATCH
  5
10C4
330
1E
100
AcDbEntity
  8
SCHRAFF
100
AcDbHatch
 10
0.0
 20
0.0
 30
0.0
210
0.0
220
0.0
230
1.0
  2
NET
 70
     0
 71
     1
 91
        2
 92
        7
 72
     0
 73
     1
 93
       42
 10
256.9844728190168
 20
497.3628507975547
 10
257.4844728190169
 20
497.3628507975546
 10
257.4844728190169
 20
504.8628507975546
 10
266.984472819017
 20
514.3628507975547
 10
281.484472819017
 20
514.3628507975547
 10
281.484472819017
 20
525.3628507975547
 10
278.484472819017
 20
525.3628507975547
 10
278.484472819017
 20
517.3628507975547
 10
266.4844728190169
 20
517.3628507975547
 10
253.3844728190169
 20
504.2628507975547
 10
255.6344306882642
 20
375.3628507975548
 10
257.4844728190168
 20
375.3628507975547
 10
257.4844728190167
 20
389.3628507975547
 10
256.9844728190168
 20
389.3628507975547
 10
256.9844728190168
 20
392.3628507975546
 10
257.4844728190168
 20
392.3628507975546
 10
257.4844728190168
 20
404.3628507975547
 10
256.9844728190168
 20
404.3628507975546
 10
256.9844728190168
 20
407.3628507975547
 10
257.4844728190168
 20
407.3628507975546
 10
257.4844728190169
 20
419.3628507975547
 10
256.9844728190168
 20
419.3628507975547
 10
256.9844728190168
 20
422.3628507975546
 10
257.4844728190169
 20
422.3628507975546
 10
257.4844728190168
 20
434.3628507975546
 10
256.9844728190168
 20
434.3628507975547
 10
256.9844728190168
 20
437.3628507975547
 10
257.4844728190169
 20
437.3628507975546
 10
257.4844728190169
 20
449.3628507975547
 10
256.9844728190168
 20
449.3628507975545
 10
256.9844728190169
 20
452.3628507975547
 10
257.4844728190169
 20
452.3628507975547
 10
257.4844728190169
 20
464.3628507975547
 10
256.9844728190168
 20
464.3628507975547
 10
256.9844728190168
 20
467.3628507975546
 10
257.4844728190169
 20
467.3628507975546
 10
257.4844728190169
 20
479.3628507975546
 10
256.9844728190168
 20
479.3628507975546
 10
256.9844728190168
 20
482.3628507975546
 10
257.4844728190169
 20
482.3628507975547
 10
257.4844728190169
 20
494.3628507975546
 10
256.9844728190168
 20
494.3628507975547
 97
       42
330
EE3
330
EEA
330
ED9
330
EEC
330
ED3
330
F73
330
ED0
330
F74
330
EDA
330
F34
330
F75
330
F2D
330
F29
330
F2A
330
F28
330
F2B
330
F25
330
F26
330
F24
330
F27
330
F21
330
F23
330
F22
330
F33
330
EF5
330
EF6
330
EF4
330
EF7
330
EF3
330
EF8
330
EEF
330
EF1
330
EEE
330
EF2
330
EED
330
EFA
330
EE6
330
EE8
330
EE7
330
EE9
330
EE4
330
EE5
 92
        7
 72
     0
 73
     1
 93
       42
 10
159.5844728190169
 20
504.2628507975546
 10
146.4844728190168
 20
517.3628507975547
 10
134.4844728190169
 20
517.3628507975547
 10
134.4844728190168
 20
525.3628507975544
 10
131.4844728190168
 20
525.3628507975545
 10
131.4844728190169
 20
514.3628507975547
 10
145.9844728190169
 20
514.3628507975547
 10
155.4844728190169
 20
504.8628507975546
 10
155.4844728190169
 20
497.3628507975546
 10
155.9844728190171
 20
497.3628507975547
 10
155.984472819017
 20
494.3628507975547
 10
155.4844728190169
 20
494.3628507975547
 10
155.4844728190169
 20
482.3628507975547
 10
155.984472819017
 20
482.3628507975547
 10
155.984472819017
 20
479.3628507975546
 10
155.4844728190169
 20
479.3628507975547
 10
155.4844728190169
 20
467.3628507975546
 10
155.984472819017
 20
467.3628507975546
 10
155.984472819017
 20
464.3628507975547
 10
155.4844728190169
 20
464.3628507975547
 10
155.4844728190169
 20
452.3628507975548
 10
155.9844728190169
 20
452.3628507975547
 10
155.984472819017
 20
449.3628507975547
 10
155.4844728190169
 20
449.3628507975546
 10
155.4844728190169
 20
437.3628507975547
 10
155.984472819017
 20
437.3628507975547
 10
155.984472819017
 20
434.3628507975546
 10
155.4844728190169
 20
434.3628507975547
 10
155.4844728190169
 20
422.3628507975547
 10
155.984472819017
 20
422.3628507975546
 10
155.984472819017
 20
419.3628507975546
 10
155.4844728190169
 20
419.3628507975547
 10
155.484472819017
 20
407.3628507975547
 10
155.984472819017
 20
407.3628507975546
 10
155.984472819017
 20
404.3628507975546
 10
155.484472819017
 20
404.3628507975546
 10
155.484472819017
 20
392.3628507975548
 10
155.984472819017
 20
392.3628507975546
 10
155.984472819017
 20
389.3628507975547
 10
155.484472819017
 20
389.3628507975547
 10
155.484472819017
 20
375.3628507975546
 10
157.3345149497696
 20
375.3628507975546
 97
       42
330
F48
330
F74
330
F45
330
F73
330
F47
330
F46
330
F49
330
F51
330
F4C
330
F4A
330
F4B
330
F50
330
F4D
330
F4F
330
F4E
330
F5E
330
F52
330
F57
330
F54
330
F56
330
F55
330
F5D
330
F58
330
F5C
330
F59
330
F5B
330
F5A
330
F6C
330
F5F
330
F61
330
F60
330
F65
330
F63
330
F64
330
F62
330
F69
330
F66
330
F68
330
F67
330
F6B
330
F75
330
F6D
 75
     0
 76
     1
 52
45.0
 41
20.0
 77
     0
 78
     2
 53
45.0
 43
0.0
 44
0.0
 45
-1.767766952966368
 46
1.767766952966368
 79
     0
 53
135.0
 43
0.0
 44
0.0
 45
-1.767766952966368
 46
-1.767766952966368
 79
     0
 47
0.3304554738279262
 98
        2
 10
255.0515493027837
 20
494.8782245756369
 10
157.8390305509197
 20
491.9041258445607
  0
HATCH
  5
1115
330
1E
100
AcDbEntity
  8
SCHRAFF
100
AcDbHatch
 10
0.0
 20
0.0
 30
0.0
210
0.0
220
0.0
230
1.0
  2
_USER
 70
     0
 71
     1
 91
       10
 92
        7
 72
     1
 73
     1
 93
        9
 10
274.8198373545437
 20
525.3583299184697
 42
0.0
 10
274.8224625469779
 20
525.3628507975546
 42
0.0
 10
260.0478114938978
 20
525.3628507975546
 42
0.0
 10
260.0478114938978
 20
523.8628507975546
 42
0.0
 10
274.9844728190169
 20
523.8628507975547
 42
-0.4142135623730951
 10
276.4844728190169
 20
522.3628507975547
 42
0.0
 10
276.4844728190169
 20
517.3628507975547
 42
0.0
 10
277.9844728190169
 20
517.3628507975547
 42
0.0
 10
277.9844728190169
 20
522.3628507975547
 42
0.4303881582706332
 97
        9
330
F39
330
F73
330
EDB
330
EEB
330
ED2
330
ECE
330
F74
330
ECF
330
ED1
 92
        7
 72
     1
 73
     1
 93
        8
 10
260.0478114938978
 20
525.3628507975546
 42
0.0
 10
245.4844728190169
 20
525.3628507975546
 42
0.4142135623730841
 10
242.4844728190169
 20
522.3628507975547
 42
0.0
 10
242.484472819017
 20
521.3628507975547
 42
0.0
 10
243.9844728190169
 20
521.3628507975547
 42
0.0
 10
243.9844728190169
 20
522.3628507975547
 42
-0.4142135623730951
 10
245.4844728190169
 20
523.8628507975547
 42
0.0
 10
260.0478114938978
 20
523.8628507975547
 42
0.0
 97
        8
330
F73
330
EE2
330
EDE
330
EE1
330
EDC
330
EDD
330
EEB
330
EDB
 92
        7
 72
     1
 73
     1
 93
        8
 10
152.9211341441359
 20
525.3628507975545
 42
0.0
 10
137.9844728190169
 20
525.3628507975545
 42
0.414213562373073
 10
134.9844728190169
 20
522.3628507975547
 42
0.0
 10
134.9844728190169
 20
517.3628507975547
 42
0.0
 10
136.4844728190169
 20
517.3628507975547
 42
0.0
 10
136.4844728190169
 20
522.3628507975547
 42
-0.4142135623730951
 10
137.9844728190169
 20
523.8628507975547
 42
0.0
 10
152.9211341441359
 20
523.8628507975547
 42
0.0
 97
        8
330
F73
330
F40
330
F44
330
F74
330
F43
330
F41
330
F77
330
F3F
 92
        7
 72
     1
 73
     1
 93
        8
 10
167.4844728190169
 20
525.3628507975545
 42
0.0
 10
152.9211341441359
 20
525.3628507975546
 42
0.0
 10
152.9211341441359
 20
523.8628507975547
 42
0.0
 10
167.4844728190169
 20
523.8628507975547
 42
-0.4142135623730951
 10
168.9844728190169
 20
522.3628507975547
 42
0.0
 10
168.9844728190169
 20
521.3628507975547
 42
0.0
 10
170.4844728190169
 20
521.3628507975547
 42
0.0
 10
170.4844728190169
 20
522.3628507975547
 42
0.4142135623730729
 97
        8
330
F73
330
F3F
330
F77
330
F19
330
F18
330
F1B
330
F16
330
F1A
 92
        7
 72
     1
 73
     1
 93
        8
 10
177.4844728190169
 20
522.3628507975547
 42
0.0
 10
177.4844728190169
 20
521.3628507975547
 42
0.0
 10
178.9844728190169
 20
521.3628507975547
 42
0.0
 10
178.9844728190169
 20
522.3628507975547
 42
-1.0
 10
181.9844728190169
 20
522.3628507975547
 42
0.0
 10
181.9844728190169
 20
521.3628507975547
 42
0.0
 10
183.4844728190169
 20
521.3628507975547
 42
0.0
 10
183.4844728190169
 20
522.3628507975547
 42
1.0
 97
        8
330
F15
330
F1B
330
F14
330
F1D
330
F0F
330
F12
330
F10
330
F1C
 92
        7
 72
     1
 73
     1
 93
        8
 10
190.4844728190169
 20
522.3628507975547
 42
0.0
 10
190.4844728190169
 20
521.3628507975547
 42
0.0
 10
191.9844728190169
 20
521.3628507975547
 42
0.0
 10
191.9844728190169
 20
522.3628507975547
 42
-1.0
 10
194.9844728190169
 20
522.3628507975547
 42
0.0
 10
194.9844728190169
 20
521.3628507975547
 42
0.0
 10
196.4844728190169
 20
521.3628507975547
 42
0.0
 10
196.4844728190169
 20
522.3628507975547
 42
1.0
 97
        8
330
F11
330
F12
330
F0D
330
F0E
330
F0B
330
F1E
330
F0C
330
F13
 92
        7
 72
     1
 73
     1
 93
        6
 10
204.9844728190169
 20
522.3628507975547
 42
-0.4142135623730951
 10
206.4844728190169
 20
523.8628507975547
 42
0.0
 10
206.4844728190169
 20
525.3628507975547
 42
0.4142135623730951
 10
203.4844728190169
 20
522.3628507975547
 42
0.0
 10
203.4844728190169
 20
521.3628507975547
 42
0.0
 10
204.9844728190169
 20
521.3628507975547
 42
0.0
 97
        6
330
F09
330
F38
330
F08
330
F06
330
F1E
330
F07
 92
        7
 72
     1
 73
     1
 93
        6
 10
206.4844728190169
 20
525.3628507975546
 42
0.0
 10
206.4844728190169
 20
523.8628507975547
 42
-0.4142135623730951
 10
207.9844728190169
 20
522.3628507975547
 42
0.0
 10
207.9844728190169
 20
521.3628507975547
 42
0.0
 10
209.484472819017
 20
521.3628507975547
 42
0.0
 10
209.4844728190169
 20
522.3628507975547
 42
0.4142135623730839
 97
        6
330
F38
330
F09
330
F04
330
F0A
330
F05
330
F08
 92
        7
 72
     1
 73
     1
 93
        8
 10
216.4844728190169
 20
522.3628507975547
 42
0.0
 10
216.4844728190169
 20
521.3628507975547
 42
0.0
 10
217.9844728190169
 20
521.3628507975547
 42
0.0
 10
217.9844728190169
 20
522.3628507975547
 42
-1.0
 10
220.9844728190169
 20
522.3628507975547
 42
0.0
 10
220.9844728190169
 20
521.3628507975547
 42
0.0
 10
222.4844728190169
 20
521.3628507975547
 42
0.0
 10
222.4844728190169
 20
522.3628507975547
 42
1.0
 97
        8
330
F00
330
F0A
330
EFF
330
F02
330
EFE
330
F03
330
EFD
330
F01
 92
        7
 72
     1
 73
     1
 93
        8
 10
229.4844728190169
 20
522.3628507975547
 42
0.0
 10
229.484472819017
 20
521.3628507975547
 42
0.0
 10
230.9844728190169
 20
521.3628507975547
 42
0.0
 10
230.9844728190169
 20
522.3628507975547
 42
-1.0
 10
233.9844728190169
 20
522.3628507975547
 42
0.0
 10
233.984472819017
 20
521.3628507975547
 42
0.0
 10
235.4844728190169
 20
521.3628507975547
 42
0.0
 10
235.4844728190169
 20
522.3628507975547
 42
1.0
 97
        8
330
EFC
330
F03
330
EFB
330
F1F
330
EE0
330
EE1
330
EDF
330
F20
 75
     0
 76
     0
 52
45.0
 41
2.0
 77
     0
 78
     1
 53
45.0
 43
0.0
 44
0.0
 45
-1.414213562373094
 46
1.414213562373095
 79
     0
 47
0.3304554738279262
 98
       10
 10
267.6164333535485
 20
524.2887628366729
 10
253.3982737806173
 20
524.2887628366729
 10
148.5806949345665
 20
524.6192174750374
 10
158.500340237802
 20
524.6192174750374
 10
180.3235572949984
 20
524.2887628366729
 10
194.2110607195282
 20
524.2887628366729
 10
204.4613595612441
 20
522.3060294178492
 10
208.4292176825379
 20
522.3060294178492
 10
221.6554114201854
 20
522.3060294178492
 10
234.5509490094305
 20
522.6364854533728
  0
ENDSEC
  0
SECTION
  2
OBJECTS
  0
DICTIONARY
  5
C
330
0
100
AcDbDictionary
281
     1
  3
ACAD_COLOR
350
DF
  3
ACAD_GROUP
350
D
  3
ACAD_LAYOUT
350
19
  3
ACAD_MATERIAL
350
DE
  3
ACAD_MLINESTYLE
350
16
  3
ACAD_PLOTSETTINGS
350
18
  3
ACAD_PLOTSTYLENAME
350
E
  3
AcDbVariableDictionary
350
EA
  0
DICTIONARY
  5
A0
330
1E
100
AcDbDictionary
280
     1
281
     1
  3
ACAD_LAYOUTSELFREF
360
D4
  0
DICTIONARY
  5
A2
330
1A
100
AcDbDictionary
280
     1
281
     1
  3
ACAD_LAYOUTSELFREF
360
D3
  0
DICTIONARY
  5
DF
102
{ACAD_REACTORS
330
C
102
}
330
C
100
AcDbDictionary
281
     1
  0
DICTIONARY
  5
D
102
{ACAD_REACTORS
330
C
102
}
330
C
100
AcDbDictionary
281
     1
  0
DICTIONARY
  5
19
102
{ACAD_REACTORS
330
C
102
}
330
C
100
AcDbDictionary
281
     1
  3
Layout1
350
1D
  3
Model
350
21
  0
DICTIONARY
  5
DE
102
{ACAD_REACTORS
330
C
102
}
330
C
100
AcDbDictionary
281
     1
  0
DICTIONARY
  5
16
102
{ACAD_REACTORS
330
C
102
}
330
C
100
AcDbDictionary
281
     1
  3
Standard
350
17
  0
DICTIONARY
  5
18
102
{ACAD_REACTORS
330
C
102
}
330
C
100
AcDbDictionary
281
     1
  0
ACDBDICTIONARYWDFLT
  5
E
102
{ACAD_REACTORS
330
C
102
}
330
C
100
AcDbDictionary
281
     1
  3
Normal
350
F
100
AcDbDictionaryWithDefault
340
F
  0
DICTIONARY
  5
EA
102
{ACAD_REACTORS
330
C
102
}
330
C
100
AcDbDictionary
281
     1
  3
DIMASSOC
350
EB
  3
PROJECTNAME
350
EC
  0
XRECORD
  5
D4
102
{ACAD_REACTORS
330
A0
102
}
330
A0
100
AcDbXrecord
280
     1
340
1E
  0
XRECORD
  5
D3
102
{ACAD_REACTORS
330
A2
102
}
330
A2
100
AcDbXrecord
280
     1
340
1A
  0
LAYOUT
  5
1D
102
{ACAD_REACTORS
330
19
102
}
330
19
100
AcDbPlotSettings
  1

  2
\\NT_WORK01\HP LaserJet 5000 PCL 6
  4

  6

 40
0.0
 41
0.0
 42
0.0
 43
0.0
 44
0.0
 45
0.0
 46
0.0
 47
0.0
 48
0.0
 49
0.0
140
0.0
141
0.0
142
1.0
143
1.0
 70
   688
 72
     0
 73
     0
 74
     5
  7

 75
    16
147
1.0
 76
     0
 77
     2
 78
   300
148
0.0
149
0.0
100
AcDbLayout
  1
Layout1
 70
     0
 71
     1
 10
0.0
 20
0.0
 11
12.0
 21
9.0
 12
0.0
 22
0.0
 32
0.0
 14
1.000000000000000E+20
 24
1.000000000000000E+20
 34
1.000000000000000E+20
 15
-1.000000000000000E+20
 25
-1.000000000000000E+20
 35
-1.000000000000000E+20
146
0.0
 13
0.0
 23
0.0
 33
0.0
 16
1.0
 26
0.0
 36
0.0
 17
0.0
 27
1.0
 37
0.0
 76
     0
330
1A
  0
LAYOUT
  5
21
102
{ACAD_REACTORS
330
19
102
}
330
19
100
AcDbPlotSettings
  1

  2
none_device
  4
Letter_(8.50_x_11.00_Inches)
  6

 40
6.349999904632568
 41
6.349999904632568
 42
6.350006103515625
 43
6.350006103515625
 44
215.8999938964844
 45
279.3999938964844
 46
0.0
 47
0.0
 48
0.0
 49
0.0
140
0.0
141
0.0
142
1.0
143
1.0
 70
 11952
 72
     0
 73
     1
 74
     0
  7

 75
     0
147
1.0
 76
     0
 77
     2
 78
   300
148
2271.647086223434
149
61.84701676039883
100
AcDbLayout
  1
Model
 70
     1
 71
     0
 10
0.0
 20
0.0
 11
12.0
 21
9.0
 12
0.0
 22
0.0
 32
0.0
 14
0.0
 24
0.0
 34
0.0
 15
0.0
 25
0.0
 35
0.0
146
0.0
 13
0.0
 23
0.0
 33
0.0
 16
1.0
 26
0.0
 36
0.0
 17
0.0
 27
1.0
 37
0.0
 76
     0
330
1E
  0
MLINESTYLE
  5
17
102
{ACAD_REACTORS
330
16
102
}
330
16
100
AcDbMlineStyle
  2
STANDARD
 70
     0
  3

 62
   256
 51
90.0
 52
90.0
 71
     2
 49
0.5
 62
   256
  6
BYLAYER
 49
-0.5
 62
   256
  6
BYLAYER
  0
ACDBPLACEHOLDER
  5
F
102
{ACAD_REACTORS
330
E
102
}
330
E
  0
DICTIONARYVAR
  5
EB
102
{ACAD_REACTORS
330
EA
102
}
330
EA
100
DictionaryVariables
280
     0
  1
1
  0
DICTIONARYVAR
  5
EC
102
{ACAD_REACTORS
330
EA
102
}
330
EA
100
DictionaryVariables
280
     0
  1

  0
ENDSEC
  0
EOF
