  0
SECTION
  2
HEADER
  9
$ACADVER
  1
AC1018
  9
$ACADMAINTVER
 70
     2
  9
$DWGCODEPAGE
  3
ANSI_1252
  9
$INSBASE
 10
0.0
 20
0.0
 30
0.0
  9
$EXTMIN
 10
-0.0309557502237112
 20
-0.0218938135105873
 30
-0.0000000000000129
  9
$EXTMAX
 10
840.0406059901323
 20
594.0188985638344
 30
0.0000000000000023
  9
$LIMMIN
 10
0.0
 20
0.0
  9
$LIMMAX
 10
840.0
 20
594.0
  9
$ORTHOMODE
 70
     0
  9
$REGENMODE
 70
     1
  9
$FILLMODE
 70
     1
  9
$QTEXTMODE
 70
     0
  9
$MIRRTEXT
 70
     1
  9
$LTSCALE
 40
20.0
  9
$ATTMODE
 70
     1
  9
$TEXTSIZE
 40
3.5
  9
$TRACEWID
 40
1.0
  9
$TEXTSTYLE
  7
STANDARD
  9
$CLAYER
  8
BEM
  9
$CELTYPE
  6
ByLayer
  9
$CECOLOR
 62
   256
  9
$CELTSCALE
 40
1.0
  9
$DISPSILH
 70
     0
  9
$DIMSCALE
 40
2.0
  9
$DIMASZ
 40
3.5
  9
$DIMEXO
 40
1.0
  9
$DIMDLI
 40
7.0
  9
$DIMRND
 40
0.0
  9
$DIMDLE
 40
0.0
  9
$DIMEXE
 40
1.0
  9
$DIMTP
 40
0.0
  9
$DIMTM
 40
0.0
  9
$DIMTXT
 40
3.5
  9
$DIMCEN
 40
1.5
  9
$DIMTSZ
 40
0.0
  9
$DIMTOL
 70
     0
  9
$DIMLIM
 70
     0
  9
$DIMTIH
 70
     0
  9
$DIMTOH
 70
     0
  9
$DIMSE1
 70
     0
  9
$DIMSE2
 70
     0
  9
$DIMTAD
 70
     1
  9
$DIMZIN
 70
     8
  9
$DIMBLK
  1

  9
$DIMASO
 70
     1
  9
$DIMSHO
 70
     0
  9
$DIMPOST
  1

  9
$DIMAPOST
  1

  9
$DIMALT
 70
     0
  9
$DIMALTD
 70
     2
  9
$DIMALTF
 40
25.4
  9
$DIMLFAC
 40
1.0
  9
$DIMTOFL
 70
     1
  9
$DIMTVP
 40
0.0
  9
$DIMTIX
 70
     0
  9
$DIMSOXD
 70
     0
  9
$DIMSAH
 70
     0
  9
$DIMBLK1
  1

  9
$DIMBLK2
  1

  9
$DIMSTYLE
  2
Standard
  9
$DIMCLRD
 70
     0
  9
$DIMCLRE
 70
     0
  9
$DIMCLRT
 70
     1
  9
$DIMTFAC
 40
0.5
  9
$DIMGAP
 40
1.5
  9
$DIMJUST
 70
     0
  9
$DIMSD1
 70
     0
  9
$DIMSD2
 70
     0
  9
$DIMTOLJ
 70
     1
  9
$DIMTZIN
 70
     8
  9
$DIMALTZ
 70
     8
  9
$DIMALTTZ
 70
     8
  9
$DIMUPT
 70
     0
  9
$DIMDEC
 70
     2
  9
$DIMTDEC
 70
     2
  9
$DIMALTU
 70
     2
  9
$DIMALTTD
 70
     2
  9
$DIMTXSTY
  7
STANDARD
  9
$DIMAUNIT
 70
     0
  9
$DIMADEC
 70
     2
  9
$DIMALTRND
 40
0.0
  9
$DIMAZIN
 70
     2
  9
$DIMDSEP
 70
    46
  9
$DIMATFIT
 70
     3
  9
$DIMFRAC
 70
     0
  9
$DIMLDRBLK
  1

  9
$DIMLUNIT
 70
     2
  9
$DIMLWD
 70
    -2
  9
$DIMLWE
 70
    -2
  9
$DIMTMOVE
 70
     0
  9
$LUNITS
 70
     2
  9
$LUPREC
 70
     2
  9
$SKETCHINC
 40
1.0
  9
$FILLETRAD
 40
0.0
  9
$AUNITS
 70
     0
  9
$AUPREC
 70
     0
  9
$MENU
  1
ACAD
  9
$ELEVATION
 40
0.0
  9
$PELEVATION
 40
0.0
  9
$THICKNESS
 40
0.0
  9
$LIMCHECK
 70
     0
  9
$CHAMFERA
 40
0.0
  9
$CHAMFERB
 40
0.0
  9
$CHAMFERC
 40
0.0
  9
$CHAMFERD
 40
0.0
  9
$SKPOLY
 70
     0
  9
$TDCREATE
 40
2455397.867059838
  9
$TDUCREATE
 40
2455397.783726505
  9
$TDUPDATE
 40
2455461.488960382
  9
$TDUUPDATE
 40
2455461.405627048
  9
$TDINDWG
 40
0.0768566551
  9
$TDUSRTIMER
 40
0.0768566551
  9
$USRTIMER
 70
     1
  9
$ANGBASE
 50
0.0
  9
$ANGDIR
 70
     0
  9
$PDMODE
 70
     0
  9
$PDSIZE
 40
0.0
  9
$PLINEWID
 40
0.0
  9
$SPLFRAME
 70
     0
  9
$SPLINETYPE
 70
     6
  9
$SPLINESEGS
 70
     8
  9
$HANDSEED
  5
FFE
  9
$SURFTAB1
 70
     6
  9
$SURFTAB2
 70
     6
  9
$SURFTYPE
 70
     6
  9
$SURFU
 70
     6
  9
$SURFV
 70
     6
  9
$UCSBASE
  2

  9
$UCSNAME
  2

  9
$UCSORG
 10
0.0
 20
0.0
 30
0.0
  9
$UCSXDIR
 10
1.0
 20
0.0
 30
0.0
  9
$UCSYDIR
 10
0.0
 20
1.0
 30
0.0
  9
$UCSORTHOREF
  2

  9
$UCSORTHOVIEW
 70
     0
  9
$UCSORGTOP
 10
0.0
 20
0.0
 30
0.0
  9
$UCSORGBOTTOM
 10
0.0
 20
0.0
 30
0.0
  9
$UCSORGLEFT
 10
0.0
 20
0.0
 30
0.0
  9
$UCSORGRIGHT
 10
0.0
 20
0.0
 30
0.0
  9
$UCSORGFRONT
 10
0.0
 20
0.0
 30
0.0
  9
$UCSORGBACK
 10
0.0
 20
0.0
 30
0.0
  9
$PUCSBASE
  2

  9
$PUCSNAME
  2

  9
$PUCSORG
 10
0.0
 20
0.0
 30
0.0
  9
$PUCSXDIR
 10
1.0
 20
0.0
 30
0.0
  9
$PUCSYDIR
 10
0.0
 20
1.0
 30
0.0
  9
$PUCSORTHOREF
  2

  9
$PUCSORTHOVIEW
 70
     0
  9
$PUCSORGTOP
 10
0.0
 20
0.0
 30
0.0
  9
$PUCSORGBOTTOM
 10
0.0
 20
0.0
 30
0.0
  9
$PUCSORGLEFT
 10
0.0
 20
0.0
 30
0.0
  9
$PUCSORGRIGHT
 10
0.0
 20
0.0
 30
0.0
  9
$PUCSORGFRONT
 10
0.0
 20
0.0
 30
0.0
  9
$PUCSORGBACK
 10
0.0
 20
0.0
 30
0.0
  9
$USERI1
 70
     0
  9
$USERI2
 70
     0
  9
$USERI3
 70
     0
  9
$USERI4
 70
     0
  9
$USERI5
 70
     0
  9
$USERR1
 40
0.0
  9
$USERR2
 40
0.0
  9
$USERR3
 40
0.0
  9
$USERR4
 40
0.0
  9
$USERR5
 40
0.0
  9
$WORLDVIEW
 70
     1
  9
$SHADEDGE
 70
     3
  9
$SHADEDIF
 70
    70
  9
$TILEMODE
 70
     1
  9
$MAXACTVP
 70
    16
  9
$PINSBASE
 10
0.0
 20
0.0
 30
0.0
  9
$PLIMCHECK
 70
     0
  9
$PEXTMIN
 10
1.000000000000000E+20
 20
1.000000000000000E+20
 30
1.000000000000000E+20
  9
$PEXTMAX
 10
-1.000000000000000E+20
 20
-1.000000000000000E+20
 30
-1.000000000000000E+20
  9
$PLIMMIN
 10
0.0
 20
0.0
  9
$PLIMMAX
 10
12.0
 20
9.0
  9
$UNITMODE
 70
     0
  9
$VISRETAIN
 70
     0
  9
$PLINEGEN
 70
     0
  9
$PSLTSCALE
 70
     0
  9
$TREEDEPTH
 70
  3020
  9
$CMLSTYLE
  2
Standard
  9
$CMLJUST
 70
     0
  9
$CMLSCALE
 40
1.0
  9
$PROXYGRAPHICS
 70
     1
  9
$MEASUREMENT
 70
     0
  9
$CELWEIGHT
370
    -1
  9
$ENDCAPS
280
     0
  9
$JOINSTYLE
280
     0
  9
$LWDISPLAY
290
     0
  9
$INSUNITS
 70
     0
  9
$HYPERLINKBASE
  1

  9
$STYLESHEET
  1
monochrome 1.ctb
  9
$XEDIT
290
     1
  9
$CEPSNTYPE
380
     0
  9
$PSTYLEMODE
290
     1
  9
$FINGERPRINTGUID
  2
{D68B0D0D-A558-11D7-B632-000102183313}
  9
$VERSIONGUID
  2
{DDCE9E43-1CD8-4D27-BB4B-2D4E5EE8BE90}
  9
$EXTNAMES
290
     1
  9
$PSVPSCALE
 40
0.0
  9
$OLESTARTUP
290
     0
  9
$SORTENTS
280
   127
  9
$INDEXCTL
280
     0
  9
$HIDETEXT
280
     0
  9
$XCLIPFRAME
290
     0
  9
$HALOGAP
280
     0
  9
$OBSCOLOR
 70
   257
  9
$OBSLTYPE
280
     0
  9
$INTERSECTIONDISPLAY
280
     0
  9
$INTERSECTIONCOLOR
 70
   257
  9
$DIMASSOC
280
     1
  9
$PROJECTNAME
  1

  0
ENDSEC
  0
SECTION
  2
CLASSES
  0
CLASS
  1
ACDBDICTIONARYWDFLT
  2
AcDbDictionaryWithDefault
  3
ObjectDBX Classes
 90
        0
 91
        1
280
     0
281
     0
  0
CLASS
  1
DICTIONARYVAR
  2
AcDbDictionaryVar
  3
ObjectDBX Classes
 90
        0
 91
        2
280
     0
281
     0
  0
ENDSEC
  0
SECTION
  2
TABLES
  0
TABLE
  2
VPORT
  5
8
330
0
100
AcDbSymbolTable
 70
     2
  0
VPORT
  5
FFD
330
8
100
AcDbSymbolTableRecord
100
AcDbViewportTableRecord
  2
*Active
 70
     0
 10
0.0
 20
0.0
 11
1.0
 21
1.0
 12
420.0048251199542
 22
296.998502375162
 13
0.0
 23
0.0
 14
1.0
 24
1.0
 15
10.0
 25
10.0
 16
0.0
 26
0.0
 36
1.0
 17
0.0
 27
0.0
 37
0.0
 40
632.1554278667239
 41
1.336927223719676
 42
50.0
 43
0.0
 44
0.0
 50
0.0
 51
0.0
 71
     0
 72
  1500
 73
     1
 74
     0
 75
     0
 76
     0
 77
     0
 78
     0
281
     0
 65
     1
110
0.0
120
0.0
130
0.0
111
1.0
121
0.0
131
0.0
112
0.0
122
1.0
132
0.0
 79
     0
146
0.0
  0
ENDTAB
  0
TABLE
  2
LTYPE
  5
5
330
0
100
AcDbSymbolTable
 70
     2
  0
LTYPE
  5
13
330
5
100
AcDbSymbolTableRecord
100
AcDbLinetypeTableRecord
  2
ByBlock
 70
     0
  3

 72
    65
 73
     0
 40
0.0
  0
LTYPE
  5
14
330
5
100
AcDbSymbolTableRecord
100
AcDbLinetypeTableRecord
  2
ByLayer
 70
     0
  3

 72
    65
 73
     0
 40
0.0
  0
LTYPE
  5
15
330
5
100
AcDbSymbolTableRecord
100
AcDbLinetypeTableRecord
  2
Continuous
 70
     0
  3
Solid line
 72
    65
 73
     0
 40
0.0
  0
LTYPE
  5
25
330
5
100
AcDbSymbolTableRecord
100
AcDbLinetypeTableRecord
  2
STRICHPUNKT
 70
     0
  3
__ . __ . __ . __ . __ . __ . __ . __ . __ . __
 72
    65
 73
     4
 40
1.0
 49
0.5
 74
     0
 49
-0.25
 74
     0
 49
0.0
 74
     0
 49
-0.25
 74
     0
  0
ENDTAB
  0
TABLE
  2
LAYER
  5
2
330
0
100
AcDbSymbolTable
 70
     9
  0
LAYER
  5
10
330
2
100
AcDbSymbolTableRecord
100
AcDbLayerTableRecord
  2
0
 70
     0
 62
     7
  6
Continuous
370
    -3
390
F
  0
LAYER
  5
2B
330
2
100
AcDbSymbolTableRecord
100
AcDbLayerTableRecord
  2
VOLL
 70
     0
 62
     1
  6
Continuous
370
    -3
390
F
  0
LAYER
  5
2C
330
2
100
AcDbSymbolTableRecord
100
AcDbLayerTableRecord
  2
HILF
 70
     0
 62
     2
  6
Continuous
370
    -3
390
F
  0
LAYER
  5
2D
330
2
100
AcDbSymbolTableRecord
100
AcDbLayerTableRecord
  2
MITTEL
 70
     0
 62
     2
  6
STRICHPUNKT
370
    -3
390
F
  0
LAYER
  5
2F
330
2
100
AcDbSymbolTableRecord
100
AcDbLayerTableRecord
  2
BEM
 70
     0
 62
     7
  6
Continuous
370
    -3
390
F
  0
LAYER
  5
30
330
2
100
AcDbSymbolTableRecord
100
AcDbLayerTableRecord
  2
STEMPEL
 70
     0
 62
     3
  6
Continuous
370
    -3
390
F
  0
LAYER
  5
33
330
2
100
AcDbSymbolTableRecord
100
AcDbLayerTableRecord
  2
TEXT
 70
     0
 62
     7
  6
Continuous
370
    -3
390
F
  0
LAYER
  5
359
330
2
100
AcDbSymbolTableRecord
100
AcDbLayerTableRecord
  2
DEFPOINTS
 70
     0
 62
     7
  6
Continuous
290
     0
370
    -3
390
F
  0
LAYER
  5
35A
330
2
100
AcDbSymbolTableRecord
100
AcDbLayerTableRecord
  2
SCHRAFF
 70
     0
 62
     7
  6
Continuous
370
    -3
390
F
  0
ENDTAB
  0
TABLE
  2
STYLE
  5
3
330
0
100
AcDbSymbolTable
 70
     2
  0
STYLE
  5
11
330
3
100
AcDbSymbolTableRecord
100
AcDbTextStyleTableRecord
  2
STANDARD
 70
     0
 40
0.0
 41
0.8
 50
0.0
 71
     0
 42
3.5
  3
simplex.shx
  4

  0
STYLE
  5
24
330
3
100
AcDbSymbolTableRecord
100
AcDbTextStyleTableRecord
  2
GREEKS
 70
     0
 40
0.0
 41
0.8
 50
0.0
 71
     0
 42
2.5
  3
SIMPLEX.shx
  4

  0
ENDTAB
  0
TABLE
  2
VIEW
  5
6
330
0
100
AcDbSymbolTable
 70
     0
  0
ENDTAB
  0
TABLE
  2
UCS
  5
7
330
0
100
AcDbSymbolTable
 70
     0
  0
ENDTAB
  0
TABLE
  2
APPID
  5
9
330
0
100
AcDbSymbolTable
 70
     1
  0
APPID
  5
12
330
9
100
AcDbSymbolTableRecord
100
AcDbRegAppTableRecord
  2
ACAD
 70
     0
  0
ENDTAB
  0
TABLE
  2
DIMSTYLE
  5
A
330
0
100
AcDbSymbolTable
 70
     1
100
AcDbDimStyleTable
 71
     1
340
A2
  0
DIMSTYLE
105
A2
102
{ACAD_REACTORS
330
B88
330
B82
330
AF2
330
D2E
330
E23
330
E30
330
F54
330
F99
102
}
330
A
100
AcDbSymbolTableRecord
100
AcDbDimStyleTableRecord
  2
Standard
 70
     0
340
11
  0
ENDTAB
  0
TABLE
  2
BLOCK_RECORD
  5
1
330
0
100
AcDbSymbolTable
 70
    10
  0
BLOCK_RECORD
  5
1E
102
{ACAD_XDICTIONARY
360
DB
102
}
330
1
100
AcDbSymbolTableRecord
100
AcDbBlockTableRecord
  2
*Model_Space
340
21
  0
BLOCK_RECORD
  5
1A
102
{ACAD_XDICTIONARY
360
DD
102
}
330
1
100
AcDbSymbolTableRecord
100
AcDbBlockTableRecord
  2
*Paper_Space
340
1D
  0
BLOCK_RECORD
  5
22
330
1
100
AcDbSymbolTableRecord
100
AcDbBlockTableRecord
  2
LOGO
340
0
102
{BLKREFS
331
56
102
}
  0
BLOCK_RECORD
  5
23
330
1
100
AcDbSymbolTableRecord
100
AcDbBlockTableRecord
  2
LORO
340
0
102
{BLKREFS
331
9B
102
}
  0
BLOCK_RECORD
  5
BA9
330
1
100
AcDbSymbolTableRecord
100
AcDbBlockTableRecord
  2
*D2
340
0
  0
BLOCK_RECORD
  5
BF3
330
1
100
AcDbSymbolTableRecord
100
AcDbBlockTableRecord
  2
*D3
340
0
  0
BLOCK_RECORD
  5
C00
330
1
100
AcDbSymbolTableRecord
100
AcDbBlockTableRecord
  2
*D4
340
0
  0
BLOCK_RECORD
  5
D2F
330
1
100
AcDbSymbolTableRecord
100
AcDbBlockTableRecord
  2
*D5
340
0
  0
BLOCK_RECORD
  5
E24
330
1
100
AcDbSymbolTableRecord
100
AcDbBlockTableRecord
  2
*D6
340
0
  0
BLOCK_RECORD
  5
E31
330
1
100
AcDbSymbolTableRecord
100
AcDbBlockTableRecord
  2
*D7
340
0
  0
BLOCK_RECORD
  5
F82
330
1
100
AcDbSymbolTableRecord
100
AcDbBlockTableRecord
  2
*D8
340
0
  0
BLOCK_RECORD
  5
F9A
330
1
100
AcDbSymbolTableRecord
100
AcDbBlockTableRecord
  2
*D9
340
0
  0
ENDTAB
  0
ENDSEC
  0
SECTION
  2
BLOCKS
  0
BLOCK
  5
37
330
1E
100
AcDbEntity
  8
0
100
AcDbBlockBegin
  2
*Model_Space
 70
     0
 10
0.0
 20
0.0
 30
0.0
  3
*Model_Space
  1

  0
ENDBLK
  5
38
330
1E
100
AcDbEntity
  8
0
100
AcDbBlockEnd
  0
BLOCK
  5
35
330
1A
100
AcDbEntity
 67
     1
  8
0
100
AcDbBlockBegin
  2
*Paper_Space
 70
     0
 10
0.0
 20
0.0
 30
0.0
  3
*Paper_Space
  1

  0
ENDBLK
  5
36
330
1A
100
AcDbEntity
 67
     1
  8
0
100
AcDbBlockEnd
  0
BLOCK
  5
39
330
22
100
AcDbEntity
  8
0
100
AcDbBlockBegin
  2
LOGO
 70
     0
 10
0.0
 20
0.0
 30
0.0
  3
LOGO
  1

  0
ARC
  5
3A
330
22
100
AcDbEntity
  8
0
100
AcDbCircle
 10
11.59973089678112
 20
-9.271599258481501
 30
0.0
 40
4.5
100
AcDbArc
 50
270.0
 51
231.0575587310159
  0
LINE
  5
3B
330
22
100
AcDbEntity
  8
0
100
AcDbLine
 10
3.599730896781125
 20
-4.771599258481529
 30
0.0
 11
3.599730896781153
 21
-11.77159925848133
 31
0.0
  0
LINE
  5
3C
330
22
100
AcDbEntity
  8
0
100
AcDbLine
 10
2.599730896781125
 20
-4.771599258481529
 30
0.0
 11
2.599730896781153
 21
-11.77159925848133
 31
0.0
  0
CIRCLE
  5
3D
330
22
100
AcDbEntity
  8
0
100
AcDbCircle
 10
11.59973089678112
 20
-9.271599258481501
 30
0.0
 40
3.5
  0
ARC
  5
3E
330
22
100
AcDbEntity
  8
0
100
AcDbCircle
 10
31.59973089678115
 20
-9.271599258481472
 30
0.0
 40
4.5
100
AcDbArc
 50
270.0
 51
231.0575587310182
  0
LINE
  5
3F
330
22
100
AcDbEntity
  8
0
100
AcDbLine
 10
17.59973089678112
 20
-4.771599258481472
 30
0.0
 11
17.59973089678115
 21
-13.77159925848147
 31
0.0
  0
ARC
  5
40
330
22
100
AcDbEntity
  8
0
100
AcDbCircle
 10
22.59973089678116
 20
-7.271599258481472
 30
0.0
 40
2.5
100
AcDbArc
 50
293.1161887722295
 51
90.0
  0
CIRCLE
  5
41
330
22
100
AcDbEntity
  8
0
100
AcDbCircle
 10
31.59973089678115
 20
-9.271599258481472
 30
0.0
 40
3.5
  0
ARC
  5
42
330
22
100
AcDbEntity
  8
0
100
AcDbCircle
 10
4.599730896781153
 20
-11.77159925848133
 30
0.0
 40
1.0
100
AcDbArc
 50
180.0
 51
270.0
  0
ARC
  5
43
330
22
100
AcDbEntity
  8
0
100
AcDbCircle
 10
4.599730896781153
 20
-11.77159925848133
 30
0.0
 40
2.0
100
AcDbArc
 50
179.9999999999992
 51
270.0
  0
LINE
  5
44
330
22
100
AcDbEntity
  8
0
100
AcDbLine
 10
11.59973089678115
 20
-13.77159925848144
 30
0.0
 11
4.599730896781153
 21
-13.77159925848147
 31
0.0
  0
LINE
  5
45
330
22
100
AcDbEntity
  8
0
100
AcDbLine
 10
8.771303772034769
 20
-12.77159925848136
 30
0.0
 11
4.599730896781153
 21
-12.77159925848133
 31
0.0
  0
LINE
  5
46
330
22
100
AcDbEntity
  8
0
100
AcDbLine
 10
31.59973089678115
 20
-13.77159925848147
 30
0.0
 11
23.6715276665056
 21
-13.77159925848144
 31
0.0
  0
LINE
  5
47
330
22
100
AcDbEntity
  8
0
100
AcDbLine
 10
23.56565672307022
 20
-9.51278021337896
 30
0.0
 11
24.4388546544846
 21
-12.77159925848144
 31
0.0
  0
LINE
  5
48
330
22
100
AcDbEntity
  8
0
100
AcDbLine
 10
22.59973089678116
 20
-9.771599258481472
 30
0.0
 11
18.59973089678112
 21
-9.771599258481472
 31
0.0
  0
LINE
  5
49
330
22
100
AcDbEntity
  8
0
100
AcDbLine
 10
18.59973089678115
 20
-13.77159925848144
 30
0.0
 11
17.59973089678115
 21
-13.77159925848144
 31
0.0
  0
LINE
  5
4A
330
22
100
AcDbEntity
  8
0
100
AcDbLine
 10
18.59973089678115
 20
-9.771599258481472
 30
0.0
 11
18.59973089678115
 21
-13.77159925848144
 31
0.0
  0
LINE
  5
4B
330
22
100
AcDbEntity
  8
0
100
AcDbLine
 10
22.59973089678116
 20
-9.771599258481472
 30
0.0
 11
23.67152766650562
 21
-13.77159925848147
 31
0.0
  0
ARC
  5
4C
330
22
100
AcDbEntity
  8
0
100
AcDbCircle
 10
22.59973089678116
 20
-7.271599258481472
 30
0.0
 40
2.5
100
AcDbArc
 50
270.0
 51
270.0000000000007
  0
LINE
  5
4D
330
22
100
AcDbEntity
  8
0
100
AcDbLine
 10
28.77130377203494
 20
-12.77159925848147
 30
0.0
 11
24.43885465448463
 21
-12.77159925848144
 31
0.0
  0
LINE
  5
4E
330
22
100
AcDbEntity
  8
0
100
AcDbLine
 10
3.599730896781125
 20
-4.771599258481472
 30
0.0
 11
2.599730896781125
 21
-4.771599258481472
 31
0.0
  0
LINE
  5
4F
330
22
100
AcDbEntity
  8
0
100
AcDbLine
 10
22.59973089678116
 20
-8.771599258481472
 30
0.0
 11
18.59973089678115
 21
-8.771599258481472
 31
0.0
  0
LINE
  5
50
330
22
100
AcDbEntity
  8
0
100
AcDbLine
 10
22.59973089678116
 20
-5.771599258481472
 30
0.0
 11
18.59973089678115
 21
-5.771599258481472
 31
0.0
  0
LINE
  5
51
330
22
100
AcDbEntity
  8
0
100
AcDbLine
 10
22.59973089678116
 20
-4.771599258481472
 30
0.0
 11
17.59973089678115
 21
-4.771599258481472
 31
0.0
  0
LINE
  5
52
330
22
100
AcDbEntity
  8
0
100
AcDbLine
 10
18.59973089678115
 20
-5.771599258481472
 30
0.0
 11
18.59973089678115
 21
-8.771599258481472
 31
0.0
  0
ARC
  5
53
330
22
100
AcDbEntity
  8
0
100
AcDbCircle
 10
22.59973089678116
 20
-7.271599258481472
 30
0.0
 40
1.5
100
AcDbArc
 50
270.0
 51
90.0
  0
ENDBLK
  5
54
330
22
100
AcDbEntity
  8
0
100
AcDbBlockEnd
  0
BLOCK
  5
55
330
23
100
AcDbEntity
  8
0
100
AcDbBlockBegin
  2
LORO
 70
     0
 10
0.0
 20
0.0
 30
0.0
  3
LORO
  1

  0
INSERT
  5
56
330
23
100
AcDbEntity
  8
STEMPEL
100
AcDbBlockReference
  2
LOGO
 10
-1.748032802467321
 20
3.771489518552062
 30
0.0
  0
ENDBLK
  5
57
330
23
100
AcDbEntity
  8
0
100
AcDbBlockEnd
  0
BLOCK
  5
BB4
330
BA9
100
AcDbEntity
  8
0
100
AcDbBlockBegin
  2
*D2
 70
     1
 10
0.0
 20
0.0
 30
0.0
  3
*D2
  1

  0
LINE
  5
E91
330
BA9
100
AcDbEntity
  8
BEM
 62
     0
370
    -2
100
AcDbLine
 10
591.3889176868894
 20
325.0517766023551
 30
0.0
 11
622.5669823484288
 21
323.4178034711023
 31
0.0
  0
LINE
  5
E92
330
BA9
100
AcDbEntity
  8
BEM
 62
     0
370
    -2
100
AcDbLine
 10
587.5683928811582
 20
252.151820565271
 30
0.0
 11
618.7464575426976
 21
250.5178474340182
 31
0.0
  0
LINE
  5
E93
330
BA9
100
AcDbEntity
  8
BEM
 62
     0
370
    -2
100
AcDbLine
 10
620.2033715852195
 20
316.532068640306
 30
0.0
 11
617.1155501668887
 21
257.6129260897861
 31
0.0
  0
SOLID
  5
E94
330
BA9
100
AcDbEntity
  8
BEM
 62
     0
100
AcDbTrace
 10
619.0383037946726
 20
316.5931272559228
 30
0.0
 11
621.3684393757666
 21
316.4710100246893
 31
0.0
 12
620.5697232789198
 22
323.5224753835881
 32
0.0
 13
620.5697232789198
 23
323.5224753835881
 33
0.0
  0
SOLID
  5
E95
330
BA9
100
AcDbEntity
  8
BEM
 62
     0
100
AcDbTrace
 10
615.9504823763418
 20
257.6739847054028
 30
0.0
 11
618.2806179574357
 21
257.5518674741693
 31
0.0
 12
616.7491984731884
 22
250.622519346504
 32
0.0
 13
616.7491984731884
 23
250.622519346504
 33
0.0
  0
MTEXT
  5
E96
330
BA9
100
AcDbEntity
  8
BEM
 62
     1
100
AcDbMText
 10
612.1683689001494
 20
287.4126810806248
 30
0.0
 40
7.0
 41
0.0
 71
     5
 72
     1
  1
\A1;%%c73
 11
0.0523359562428937
 21
0.9986295347545766
 31
0.0
 73
     1
 44
1.0
  0
POINT
  5
E97
330
BA9
100
AcDbEntity
  8
DEFPOINTS
 62
     0
100
AcDbPoint
 10
589.3916586173804
 20
325.1564485148409
 30
0.0
  0
POINT
  5
E98
330
BA9
100
AcDbEntity
  8
DEFPOINTS
 62
     0
100
AcDbPoint
 10
585.5711338116491
 20
252.2564924777568
 30
0.0
  0
POINT
  5
E99
330
BA9
100
AcDbEntity
  8
DEFPOINTS
 62
     0
100
AcDbPoint
 10
616.7491984731884
 20
250.622519346504
 30
0.0
  0
ENDBLK
  5
BB5
330
BA9
100
AcDbEntity
  8
0
100
AcDbBlockEnd
  0
BLOCK
  5
BFE
330
BF3
100
AcDbEntity
  8
0
100
AcDbBlockBegin
  2
*D3
 70
     1
 10
0.0
 20
0.0
 30
0.0
  3
*D3
  1

  0
LINE
  5
FA6
330
BF3
100
AcDbEntity
  8
BEM
 62
     0
370
    -2
100
AcDbLine
 10
243.0281545946466
 20
348.6671006117493
 30
0.0
 11
243.0281545946466
 21
398.019041180283
 31
0.0
  0
LINE
  5
FA7
330
BF3
100
AcDbEntity
  8
BEM
 62
     0
370
    -2
100
AcDbLine
 10
443.9181922514393
 20
348.6671006117493
 30
0.0
 11
443.9181922514393
 21
398.019041180283
 31
0.0
  0
LINE
  5
FA8
330
BF3
100
AcDbEntity
  8
BEM
 62
     0
370
    -2
100
AcDbLine
 10
250.0281545946466
 20
396.019041180283
 30
0.0
 11
436.9181922514393
 21
396.019041180283
 31
0.0
  0
SOLID
  5
FA9
330
BF3
100
AcDbEntity
  8
BEM
 62
     0
100
AcDbTrace
 10
250.0281545946466
 20
397.1857078469497
 30
0.0
 11
250.0281545946466
 21
394.8523745136163
 31
0.0
 12
243.0281545946466
 22
396.019041180283
 32
0.0
 13
243.0281545946466
 23
396.019041180283
 33
0.0
  0
SOLID
  5
FAA
330
BF3
100
AcDbEntity
  8
BEM
 62
     0
100
AcDbTrace
 10
436.9181922514393
 20
397.1857078469497
 30
0.0
 11
436.9181922514393
 21
394.8523745136163
 31
0.0
 12
443.9181922514393
 22
396.019041180283
 32
0.0
 13
443.9181922514393
 23
396.019041180283
 33
0.0
  0
MTEXT
  5
FAB
330
BF3
100
AcDbEntity
  8
BEM
 62
     1
100
AcDbMText
 10
343.4731734230429
 20
402.519041180283
 30
0.0
 40
7.0
 41
0.0
 71
     5
 72
     1
  1
\A1;%%C201
 73
     1
 44
1.0
  0
POINT
  5
FAC
330
BF3
100
AcDbEntity
  8
DEFPOINTS
 62
     0
100
AcDbPoint
 10
243.0281545946466
 20
346.6671006117493
 30
0.0
  0
POINT
  5
FAD
330
BF3
100
AcDbEntity
  8
DEFPOINTS
 62
     0
100
AcDbPoint
 10
443.9181922514393
 20
346.6671006117493
 30
0.0
  0
POINT
  5
FAE
330
BF3
100
AcDbEntity
  8
DEFPOINTS
 62
     0
100
AcDbPoint
 10
443.9181922514393
 20
396.019041180283
 30
0.0
  0
ENDBLK
  5
BFF
330
BF3
100
AcDbEntity
  8
0
100
AcDbBlockEnd
  0
BLOCK
  5
C0B
330
C00
100
AcDbEntity
  8
0
100
AcDbBlockBegin
  2
*D4
 70
     1
 10
0.0
 20
0.0
 30
0.0
  3
*D4
  1

  0
LINE
  5
E7F
330
C00
100
AcDbEntity
  8
BEM
 62
     0
370
    -2
100
AcDbLine
 10
343.4731734230429
 20
255.3021078819268
 30
0.0
 11
343.4731734230429
 21
223.7059125627082
 31
0.0
  0
LINE
  5
E80
330
C00
100
AcDbEntity
  8
BEM
 62
     0
370
    -2
100
AcDbLine
 10
593.4731734230429
 20
286.3924547588413
 30
0.0
 11
593.4731734230429
 21
223.7059125627082
 31
0.0
  0
LINE
  5
E81
330
C00
100
AcDbEntity
  8
BEM
 62
     0
370
    -2
100
AcDbLine
 10
350.473173423043
 20
225.7059125627082
 30
0.0
 11
586.4731734230429
 21
225.7059125627082
 31
0.0
  0
SOLID
  5
E82
330
C00
100
AcDbEntity
  8
BEM
 62
     0
100
AcDbTrace
 10
350.473173423043
 20
226.8725792293749
 30
0.0
 11
350.473173423043
 21
224.5392458960416
 31
0.0
 12
343.4731734230429
 22
225.7059125627082
 32
0.0
 13
343.4731734230429
 23
225.7059125627082
 33
0.0
  0
SOLID
  5
E83
330
C00
100
AcDbEntity
  8
BEM
 62
     0
100
AcDbTrace
 10
586.4731734230429
 20
226.8725792293749
 30
0.0
 11
586.4731734230429
 21
224.5392458960416
 31
0.0
 12
593.4731734230429
 22
225.7059125627082
 32
0.0
 13
593.4731734230429
 23
225.7059125627082
 33
0.0
  0
MTEXT
  5
E84
330
C00
100
AcDbEntity
  8
BEM
 62
     1
100
AcDbMText
 10
468.4731734230429
 20
232.2059125627082
 30
0.0
 40
7.0
 41
0.0
 71
     5
 72
     1
  1
\A1;250
 73
     1
 44
1.0
  0
POINT
  5
E85
330
C00
100
AcDbEntity
  8
DEFPOINTS
 62
     0
100
AcDbPoint
 10
343.4731734230429
 20
257.3021078819268
 30
0.0
  0
POINT
  5
E86
330
C00
100
AcDbEntity
  8
DEFPOINTS
 62
     0
100
AcDbPoint
 10
593.4731734230429
 20
288.3924547588413
 30
0.0
  0
POINT
  5
E87
330
C00
100
AcDbEntity
  8
DEFPOINTS
 62
     0
100
AcDbPoint
 10
593.4731734230429
 20
225.7059125627082
 30
0.0
  0
ENDBLK
  5
C0C
330
C00
100
AcDbEntity
  8
0
100
AcDbBlockEnd
  0
BLOCK
  5
D39
330
D2F
100
AcDbEntity
  8
0
100
AcDbBlockBegin
  2
*D5
 70
     1
 10
0.0
 20
0.0
 30
0.0
  3
*D5
  1

  0
ARC
  5
FD5
330
D2F
100
AcDbEntity
  8
BEM
 62
     0
370
    -2
100
AcDbCircle
 10
343.473173423043
 20
301.5176000914433
 30
0.0
 40
39.15788017941716
100
AcDbArc
 50
7.521274181044693
 51
79.74391832034161
  0
SOLID
  5
FD6
330
D2F
100
AcDbEntity
  8
BEM
 62
     0
100
AcDbTrace
 10
383.4598011112859
 20
306.6918611098927
 30
0.0
 11
381.1285029843992
 21
306.5944265779275
 31
0.0
 12
382.5864556437378
 22
299.6492494632502
 32
0.0
 13
382.5864556437378
 23
299.6492494632502
 33
0.0
  0
SOLID
  5
FD7
330
D2F
100
AcDbEntity
  8
BEM
 62
     0
100
AcDbTrace
 10
350.3408767961559
 20
338.8878109809626
 30
0.0
 11
350.54943422136
 21
341.2118050095342
 31
0.0
 12
343.4731734230429
 22
340.6754802708605
 32
0.0
 13
343.4731734230429
 23
340.6754802708605
 33
0.0
  0
MTEXT
  5
FD8
330
D2F
100
AcDbEntity
  8
BEM
 62
     1
100
AcDbMText
 10
366.0472093537352
 20
341.204561732237
 30
0.0
 40
7.0
 41
0.0
 71
     5
 72
     1
  1
\A1;93°
 11
0.8692247972275504
 21
-0.4944170829216199
 31
0.0
 73
     1
 44
1.0
  0
POINT
  5
FD9
330
D2F
100
AcDbEntity
  8
DEFPOINTS
 62
     0
100
AcDbPoint
 10
377.9906397924242
 20
320.0077081382945
 30
0.0
  0
POINT
  5
FDA
330
D2F
100
AcDbEntity
  8
DEFPOINTS
 62
     0
100
AcDbPoint
 10
343.473173423043
 20
363.5521078819268
 30
0.0
  0
POINT
  5
FDB
330
D2F
100
AcDbEntity
  8
DEFPOINTS
 62
     0
100
AcDbPoint
 10
338.473173423043
 20
301.756438476017
 30
0.0
  0
POINT
  5
FDC
330
D2F
100
AcDbEntity
  8
DEFPOINTS
 62
     0
100
AcDbPoint
 10
623.7217845855838
 20
288.1307749776265
 30
0.0
  0
POINT
  5
FDD
330
D2F
100
AcDbEntity
  8
DEFPOINTS
 62
     0
100
AcDbPoint
 10
343.4731734230429
 20
257.3021078819268
 30
0.0
  0
ENDBLK
  5
D3A
330
D2F
100
AcDbEntity
  8
0
100
AcDbBlockEnd
  0
BLOCK
  5
E2E
330
E24
100
AcDbEntity
  8
0
100
AcDbBlockBegin
  2
*D6
 70
     1
 10
0.0
 20
0.0
 30
0.0
  3
*D6
  1

  0
LINE
  5
E6D
330
E24
100
AcDbEntity
  8
BEM
 62
     0
370
    -2
100
AcDbLine
 10
241.650082924546
 20
345.3021078819267
 30
0.0
 11
227.1291144372995
 21
345.3021078819267
 31
0.0
  0
LINE
  5
E6E
330
E24
100
AcDbEntity
  8
BEM
 62
     0
370
    -2
100
AcDbLine
 10
319.3372298018642
 20
262.3021078819268
 30
0.0
 11
227.1291144372994
 21
262.3021078819268
 31
0.0
  0
LINE
  5
E6F
330
E24
100
AcDbEntity
  8
BEM
 62
     0
370
    -2
100
AcDbLine
 10
229.1291144372995
 20
338.3021078819267
 30
0.0
 11
229.1291144372994
 21
269.3021078819267
 31
0.0
  0
SOLID
  5
E70
330
E24
100
AcDbEntity
  8
BEM
 62
     0
100
AcDbTrace
 10
227.9624477706328
 20
338.3021078819267
 30
0.0
 11
230.2957811039661
 21
338.3021078819267
 31
0.0
 12
229.1291144372995
 22
345.3021078819267
 32
0.0
 13
229.1291144372995
 23
345.3021078819267
 33
0.0
  0
SOLID
  5
E71
330
E24
100
AcDbEntity
  8
BEM
 62
     0
100
AcDbTrace
 10
227.9624477706327
 20
269.3021078819267
 30
0.0
 11
230.2957811039661
 21
269.3021078819267
 31
0.0
 12
229.1291144372994
 22
262.3021078819268
 32
0.0
 13
229.1291144372994
 23
262.3021078819268
 33
0.0
  0
MTEXT
  5
E72
330
E24
100
AcDbEntity
  8
BEM
 62
     1
100
AcDbMText
 10
222.6291144372994
 20
303.8021078819268
 30
0.0
 40
7.0
 41
0.0
 71
     5
 72
     1
  1
\A1;83
 11
0.0000000000000001
 21
1.0
 31
0.0
 73
     1
 44
1.0
  0
POINT
  5
E73
330
E24
100
AcDbEntity
  8
DEFPOINTS
 62
     0
100
AcDbPoint
 10
243.650082924546
 20
345.3021078819267
 30
0.0
  0
POINT
  5
E74
330
E24
100
AcDbEntity
  8
DEFPOINTS
 62
     0
100
AcDbPoint
 10
321.3372298018642
 20
262.3021078819268
 30
0.0
  0
POINT
  5
E75
330
E24
100
AcDbEntity
  8
DEFPOINTS
 62
     0
100
AcDbPoint
 10
229.1291144372994
 20
262.3021078819268
 30
0.0
  0
ENDBLK
  5
E2F
330
E24
100
AcDbEntity
  8
0
100
AcDbBlockEnd
  0
BLOCK
  5
E3B
330
E31
100
AcDbEntity
  8
0
100
AcDbBlockBegin
  2
*D7
 70
     1
 10
0.0
 20
0.0
 30
0.0
  3
*D7
  1

  0
LINE
  5
E64
330
E31
100
AcDbEntity
  8
BEM
 62
     0
370
    -2
100
AcDbLine
 10
384.7722115287196
 20
359.3021078819268
 30
0.0
 11
641.2115022798757
 21
359.3021078819267
 31
0.0
  0
LINE
  5
E65
330
E31
100
AcDbEntity
  8
BEM
 62
     0
370
    -2
100
AcDbLine
 10
620.7286369118111
 20
288.3924547588412
 30
0.0
 11
641.2115022798757
 21
288.3924547588411
 31
0.0
  0
LINE
  5
E66
330
E31
100
AcDbEntity
  8
BEM
 62
     0
370
    -2
100
AcDbLine
 10
639.2115022798757
 20
352.3021078819267
 30
0.0
 11
639.2115022798757
 21
295.3924547588412
 31
0.0
  0
SOLID
  5
E67
330
E31
100
AcDbEntity
  8
BEM
 62
     0
100
AcDbTrace
 10
638.0448356132091
 20
352.3021078819267
 30
0.0
 11
640.3781689465423
 21
352.3021078819267
 31
0.0
 12
639.2115022798757
 22
359.3021078819268
 32
0.0
 13
639.2115022798757
 23
359.3021078819268
 33
0.0
  0
SOLID
  5
E68
330
E31
100
AcDbEntity
  8
BEM
 62
     0
100
AcDbTrace
 10
638.0448356132091
 20
295.3924547588412
 30
0.0
 11
640.3781689465423
 21
295.3924547588412
 31
0.0
 12
639.2115022798757
 22
288.3924547588412
 32
0.0
 13
639.2115022798757
 23
288.3924547588412
 33
0.0
  0
MTEXT
  5
E69
330
E31
100
AcDbEntity
  8
BEM
 62
     1
100
AcDbMText
 10
632.7115022798756
 20
323.8472813203841
 30
0.0
 40
7.0
 41
0.0
 71
     5
 72
     1
  1
\A1;71
 11
0.0000000000000001
 21
1.0
 31
0.0
 73
     1
 44
1.0
  0
POINT
  5
E6A
330
E31
100
AcDbEntity
  8
DEFPOINTS
 62
     0
100
AcDbPoint
 10
382.7722115287196
 20
359.3021078819268
 30
0.0
  0
POINT
  5
E6B
330
E31
100
AcDbEntity
  8
DEFPOINTS
 62
     0
100
AcDbPoint
 10
618.7286369118111
 20
288.3924547588412
 30
0.0
  0
POINT
  5
E6C
330
E31
100
AcDbEntity
  8
DEFPOINTS
 62
     0
100
AcDbPoint
 10
639.2115022798757
 20
288.3924547588412
 30
0.0
  0
ENDBLK
  5
E3C
330
E31
100
AcDbEntity
  8
0
100
AcDbBlockEnd
  0
BLOCK
  5
F8C
330
F82
100
AcDbEntity
  8
0
100
AcDbBlockBegin
  2
*D8
 70
     1
 10
0.0
 20
0.0
 30
0.0
  3
*D8
  1

  0
LINE
  5
F8E
330
F82
100
AcDbEntity
  8
BEM
 62
     0
370
    -2
100
AcDbLine
 10
302.4731734230429
 20
372.3021078819268
 30
0.0
 11
302.4731734230429
 21
383.6676444708134
 31
0.0
  0
LINE
  5
F8F
330
F82
100
AcDbEntity
  8
BEM
 62
     0
370
    -2
100
AcDbLine
 10
384.473173423043
 20
372.3021078819267
 30
0.0
 11
384.473173423043
 21
383.6676444708134
 31
0.0
  0
LINE
  5
F90
330
F82
100
AcDbEntity
  8
BEM
 62
     0
370
    -2
100
AcDbLine
 10
309.4731734230429
 20
381.6676444708134
 30
0.0
 11
377.473173423043
 21
381.6676444708134
 31
0.0
  0
SOLID
  5
F91
330
F82
100
AcDbEntity
  8
BEM
 62
     0
100
AcDbTrace
 10
309.4731734230429
 20
382.8343111374801
 30
0.0
 11
309.4731734230429
 21
380.5009778041467
 31
0.0
 12
302.4731734230429
 22
381.6676444708134
 32
0.0
 13
302.4731734230429
 23
381.6676444708134
 33
0.0
  0
SOLID
  5
F92
330
F82
100
AcDbEntity
  8
BEM
 62
     0
100
AcDbTrace
 10
377.473173423043
 20
382.8343111374801
 30
0.0
 11
377.473173423043
 21
380.5009778041467
 31
0.0
 12
384.473173423043
 22
381.6676444708134
 32
0.0
 13
384.473173423043
 23
381.6676444708134
 33
0.0
  0
MTEXT
  5
F93
330
F82
100
AcDbEntity
  8
BEM
 62
     1
100
AcDbMText
 10
347.4369255229879
 20
388.1676444708134
 30
0.0
 40
7.0
 41
0.0
 71
     5
 72
     1
  1
\A1;82
 73
     1
 44
1.0
  0
POINT
  5
F94
330
F82
100
AcDbEntity
  8
DEFPOINTS
 62
     0
100
AcDbPoint
 10
302.4731734230429
 20
370.3021078819268
 30
0.0
  0
POINT
  5
F95
330
F82
100
AcDbEntity
  8
DEFPOINTS
 62
     0
100
AcDbPoint
 10
384.473173423043
 20
370.3021078819267
 30
0.0
  0
POINT
  5
F96
330
F82
100
AcDbEntity
  8
DEFPOINTS
 62
     0
100
AcDbPoint
 10
384.473173423043
 20
381.6676444708134
 30
0.0
  0
ENDBLK
  5
F8D
330
F82
100
AcDbEntity
  8
0
100
AcDbBlockEnd
  0
BLOCK
  5
FA4
330
F9A
100
AcDbEntity
  8
0
100
AcDbBlockBegin
  2
*D9
 70
     1
 10
0.0
 20
0.0
 30
0.0
  3
*D9
  1

  0
LINE
  5
F9B
330
F9A
100
AcDbEntity
  8
BEM
 62
     0
370
    -2
100
AcDbLine
 10
300.4731734230429
 20
370.3021078819268
 30
0.0
 11
227.1291144372995
 21
370.3021078819268
 31
0.0
  0
LINE
  5
F9C
330
F9A
100
AcDbEntity
  8
BEM
 62
     0
370
    -2
100
AcDbLine
 10
241.650082924546
 20
345.3021078819266
 30
0.0
 11
227.1291144372995
 21
345.3021078819266
 31
0.0
  0
LINE
  5
F9D
330
F9A
100
AcDbEntity
  8
BEM
 62
     0
370
    -2
100
AcDbLine
 10
229.1291144372995
 20
363.3021078819268
 30
0.0
 11
229.1291144372995
 21
352.3021078819267
 31
0.0
  0
SOLID
  5
F9E
330
F9A
100
AcDbEntity
  8
BEM
 62
     0
100
AcDbTrace
 10
227.9624477706328
 20
363.3021078819268
 30
0.0
 11
230.2957811039661
 21
363.3021078819268
 31
0.0
 12
229.1291144372995
 22
370.3021078819268
 32
0.0
 13
229.1291144372995
 23
370.3021078819268
 33
0.0
  0
SOLID
  5
F9F
330
F9A
100
AcDbEntity
  8
BEM
 62
     0
100
AcDbTrace
 10
227.9624477706328
 20
352.3021078819267
 30
0.0
 11
230.2957811039661
 21
352.3021078819267
 31
0.0
 12
229.1291144372995
 22
345.3021078819266
 32
0.0
 13
229.1291144372995
 23
345.3021078819266
 33
0.0
  0
MTEXT
  5
FA0
330
F9A
100
AcDbEntity
  8
BEM
 62
     1
100
AcDbMText
 10
222.6291144372994
 20
357.8021078819268
 30
0.0
 40
7.0
 41
0.0
 71
     5
 72
     1
  1
\A1;25
 11
0.0000000000000001
 21
1.0
 31
0.0
 73
     1
 44
1.0
  0
POINT
  5
FA1
330
F9A
100
AcDbEntity
  8
DEFPOINTS
 62
     0
100
AcDbPoint
 10
302.4731734230429
 20
370.3021078819268
 30
0.0
  0
POINT
  5
FA2
330
F9A
100
AcDbEntity
  8
DEFPOINTS
 62
     0
100
AcDbPoint
 10
243.650082924546
 20
345.3021078819266
 30
0.0
  0
POINT
  5
FA3
330
F9A
100
AcDbEntity
  8
DEFPOINTS
 62
     0
100
AcDbPoint
 10
229.1291144372995
 20
345.3021078819266
 30
0.0
  0
ENDBLK
  5
FA5
330
F9A
100
AcDbEntity
  8
0
100
AcDbBlockEnd
  0
ENDSEC
  0
SECTION
  2
ENTITIES
  0
LINE
  5
58
330
1E
100
AcDbEntity
  8
STEMPEL
100
AcDbLine
 10
830.0000000000002
 20
110.0
 30
0.0
 11
470.0000000000001
 21
110.0
 31
0.0
  0
LINE
  5
59
330
1E
100
AcDbEntity
  8
STEMPEL
100
AcDbLine
 10
470.0000000000001
 20
110.0
 30
0.0
 11
470.0000000000001
 21
10.0
 31
0.0
  0
LINE
  5
5A
330
1E
100
AcDbEntity
  8
STEMPEL
100
AcDbLine
 10
566.0000000000002
 20
109.9999999999999
 30
0.0
 11
566.0000000000001
 21
9.999999999999886
 31
0.0
  0
LINE
  5
5B
330
1E
100
AcDbEntity
  8
STEMPEL
100
AcDbLine
 10
650.0
 20
110.0
 30
0.0
 11
650.0
 21
10.0
 31
0.0
  0
LINE
  5
5C
330
1E
100
AcDbEntity
  8
STEMPEL
100
AcDbLine
 10
752.0000000000002
 20
109.9999999999997
 30
0.0
 11
752.0000000000002
 21
40.0
 31
0.0
  0
LINE
  5
5D
330
1E
100
AcDbEntity
  8
STEMPEL
100
AcDbLine
 10
566.0
 20
30.0
 30
0.0
 11
470.0000000000001
 21
30.0
 31
0.0
  0
LINE
  5
5E
330
1E
100
AcDbEntity
  8
STEMPEL
100
AcDbLine
 10
830.0000000000002
 20
40.0
 30
0.0
 11
566.0000000000001
 21
40.0
 31
0.0
  0
LINE
  5
5F
330
1E
100
AcDbEntity
  8
STEMPEL
100
AcDbLine
 10
830.0000000000002
 20
80.0
 30
0.0
 11
566.0000000000002
 21
80.0
 31
0.0
  0
LINE
  5
60
330
1E
100
AcDbEntity
  8
VOLL
100
AcDbLine
 10
484.0000000000002
 20
110.0
 30
0.0
 11
484.0000000000001
 21
9.999999999999985
 31
0.0
  0
LINE
  5
61
330
1E
100
AcDbEntity
  8
VOLL
100
AcDbLine
 10
524.0000000000001
 20
109.9999999999999
 30
0.0
 11
524.0000000000001
 21
9.999999999999943
 31
0.0
  0
LINE
  5
62
330
1E
100
AcDbEntity
  8
VOLL
100
AcDbLine
 10
544.0000000000002
 20
109.9999999999999
 30
0.0
 11
544.0000000000001
 21
9.999999999999914
 31
0.0
  0
LINE
  5
63
330
1E
100
AcDbEntity
  8
VOLL
100
AcDbLine
 10
584.0000000000002
 20
80.0
 30
0.0
 11
584.0000000000002
 21
40.0
 31
0.0
  0
LINE
  5
64
330
1E
100
AcDbEntity
  8
VOLL
100
AcDbLine
 10
610.0000000000002
 20
109.9999999999998
 30
0.0
 11
610.0000000000001
 21
40.0
 31
0.0
  0
LINE
  5
65
330
1E
100
AcDbEntity
  8
HILF
100
AcDbLine
 10
470.0000000000001
 20
100.0
 30
0.0
 11
566.0000000000002
 21
100.0
 31
0.0
  0
LINE
  5
66
330
1E
100
AcDbEntity
  8
HILF
100
AcDbLine
 10
470.0000000000001
 20
90.0
 30
0.0
 11
566.0000000000002
 21
90.0
 31
0.0
  0
LINE
  5
67
330
1E
100
AcDbEntity
  8
HILF
100
AcDbLine
 10
470.0000000000001
 20
80.0
 30
0.0
 11
566.0000000000002
 21
80.0
 31
0.0
  0
LINE
  5
68
330
1E
100
AcDbEntity
  8
HILF
100
AcDbLine
 10
470.0000000000001
 20
70.0
 30
0.0
 11
566.0000000000002
 21
70.0
 31
0.0
  0
LINE
  5
69
330
1E
100
AcDbEntity
  8
HILF
100
AcDbLine
 10
470.0000000000001
 20
60.0
 30
0.0
 11
566.0000000000002
 21
60.0
 31
0.0
  0
LINE
  5
6A
330
1E
100
AcDbEntity
  8
HILF
100
AcDbLine
 10
470.0000000000001
 20
50.0
 30
0.0
 11
566.0000000000002
 21
50.0
 31
0.0
  0
LINE
  5
6B
330
1E
100
AcDbEntity
  8
HILF
100
AcDbLine
 10
470.0000000000001
 20
40.0
 30
0.0
 11
566.0000000000002
 21
40.0
 31
0.0
  0
LINE
  5
6C
330
1E
100
AcDbEntity
  8
HILF
100
AcDbLine
 10
566.0000000000002
 20
70.0
 30
0.0
 11
650.0
 21
70.0
 31
0.0
  0
LINE
  5
6D
330
1E
100
AcDbEntity
  8
HILF
100
AcDbLine
 10
566.0000000000002
 20
60.0
 30
0.0
 11
650.0
 21
60.0
 31
0.0
  0
LINE
  5
6E
330
1E
100
AcDbEntity
  8
HILF
100
AcDbLine
 10
566.0000000000002
 20
50.0
 30
0.0
 11
650.0
 21
50.0
 31
0.0
  0
LINE
  5
6F
330
1E
100
AcDbEntity
  8
HILF
100
AcDbLine
 10
654.7736801096948
 20
84.03758247564136
 30
0.0
 11
746.6297842514811
 21
84.03758247564136
 31
0.0
  0
LINE
  5
70
330
1E
100
AcDbEntity
  8
HILF
100
AcDbLine
 10
654.7736801096948
 20
70.0
 30
0.0
 11
746.6297842514811
 21
70.0
 31
0.0
  0
LINE
  5
71
330
1E
100
AcDbEntity
  8
HILF
100
AcDbLine
 10
654.7736801096948
 20
60.0
 30
0.0
 11
746.6297842514811
 21
60.0
 31
0.0
  0
LINE
  5
72
330
1E
100
AcDbEntity
  8
HILF
100
AcDbLine
 10
654.7736801096948
 20
50.0
 30
0.0
 11
746.6297842514811
 21
50.0
 31
0.0
  0
LINE
  5
73
330
1E
100
AcDbEntity
  8
VOLL
100
AcDbLine
 10
752.0000000000002
 20
60.0
 30
0.0
 11
830.0000000000002
 21
60.0
 31
0.0
  0
LINE
  5
74
330
1E
100
AcDbEntity
  8
HILF
100
AcDbLine
 10
756.7238616296995
 20
83.77983636955823
 30
0.0
 11
824.858883932673
 21
83.77983636955823
 31
0.0
  0
LINE
  5
75
330
1E
100
AcDbEntity
  8
HILF
100
AcDbLine
 10
654.7736801096948
 20
14.89398258028305
 30
0.0
 11
824.858883932673
 21
14.89398258028305
 31
0.0
  0
TEXT
  5
76
330
1E
100
AcDbEntity
  8
TEXT
100
AcDbText
 10
492.3998239263297
 20
18.67381894984129
 30
0.0
 40
4.0
  1
Änderung
 41
0.8
  7
GREEKS
 72
     1
 11
503.1426810691868
 21
18.67381894984129
 31
0.0
100
AcDbText
  0
TEXT
  5
78
330
1E
100
AcDbEntity
  8
TEXT
100
AcDbText
 10
573.5163572150378
 20
102.4620895087088
 30
0.0
 40
5.0
  1
Maßstab
 41
0.8
  7
GREEKS
100
AcDbText
  0
TEXT
  5
79
330
1E
100
AcDbEntity
  8
TEXT
100
AcDbText
 10
654.8779403809011
 20
102.5489328011779
 30
0.0
 40
5.0
  1
Benennung
 41
0.8
  7
GREEKS
100
AcDbText
  0
TEXT
  5
7A
330
1E
100
AcDbEntity
  8
TEXT
100
AcDbText
 10
756.1787549576343
 20
102.3132034537135
 30
0.0
 40
5.0
  1
Zeichnungs Nr.
 41
0.8
  7
GREEKS
100
AcDbText
  0
TEXT
  5
7B
330
1E
100
AcDbEntity
  8
TEXT
100
AcDbText
 10
654.742238391136
 20
30.84560570193055
 30
0.0
 40
5.0
  1
Bauvorhaben
 41
0.8
  7
GREEKS
100
AcDbText
  0
TEXT
  5
7C
330
1E
100
AcDbEntity
  8
TEXT
100
AcDbText
 10
756.7238616296995
 20
73.18118237099965
 30
0.0
 40
5.0
  1
Ersatz für:
 41
0.8
  7
GREEKS
100
AcDbText
  0
TEXT
  5
7D
330
1E
100
AcDbEntity
  8
TEXT
100
AcDbText
 10
478.2664110704577
 20
13.65465846027187
 30
0.0
 40
4.0
  1
Index
 50
90.0
 41
0.8
  7
GREEKS
100
AcDbText
  0
TEXT
  5
7E
330
1E
100
AcDbEntity
  8
TEXT
100
AcDbText
 10
529.8990113186979
 20
18.67156269339808
 30
0.0
 40
4.0
  1
Tag
 41
0.8
  7
GREEKS
 72
     1
 11
533.6323446520313
 21
18.67156269339808
 31
0.0
100
AcDbText
  0
TEXT
  5
7F
330
1E
100
AcDbEntity
  8
TEXT
100
AcDbText
 10
548.9795678138293
 20
18.59324216966404
 30
0.0
 40
4.0
  1
Name
 41
0.8
  7
GREEKS
 72
     1
 11
555.3033773376388
 21
18.59324216966404
 31
0.0
100
AcDbText
  0
TEXT
  5
80
330
1E
100
AcDbEntity
  8
TEXT
100
AcDbText
 10
592.3311673153651
 20
73.31880501229919
 30
0.0
 40
4.0
  1
Tag
 41
0.8
  7
GREEKS
100
AcDbText
  0
TEXT
  5
81
330
1E
100
AcDbEntity
  8
TEXT
100
AcDbText
 10
622.4626584226296
 20
73.3096109191522
 30
0.0
 40
4.0
  1
Name
 41
0.8
  7
GREEKS
100
AcDbText
  0
TEXT
  5
82
330
1E
100
AcDbEntity
  8
TEXT
100
AcDbText
 10
567.5836127167616
 20
63.62990369617961
 30
0.0
 40
4.0
  1
Gez.
 41
0.8
  7
GREEKS
100
AcDbText
  0
TEXT
  5
83
330
1E
100
AcDbEntity
  8
TEXT
100
AcDbText
 10
567.5515086571673
 20
53.68926291428373
 30
0.0
 40
4.0
  1
Gepr.
 41
0.8
  7
GREEKS
100
AcDbText
  0
TEXT
  5
84
330
1E
100
AcDbEntity
  8
TEXT
100
AcDbText
 10
567.6006777387304
 20
43.52946389649804
 30
0.0
 40
4.0
  1
Norm.
 41
0.8
  7
GREEKS
100
AcDbText
  0
TEXT
  5
85
330
1E
100
AcDbEntity
  8
TEXT
100
AcDbText
 10
757.2400861497007
 20
52.07416177878596
 30
0.0
 40
5.0
  1
ersetzt durch:
 41
0.8
  7
GREEKS
100
AcDbText
  0
TEXT
  5
86
330
1E
100
AcDbEntity
  8
TEXT
100
AcDbText
 10
568.8693027807324
 20
72.96682596523723
 30
0.0
 40
4.0
  1
2008
 41
0.8
  7
GREEKS
100
AcDbText
  0
LINE
  5
87
330
1E
100
AcDbEntity
  8
HILF
100
AcDbLine
 10
0.0
 20
0.0
 30
0.0
 11
840.0
 21
0.0
 31
0.0
  0
LINE
  5
88
330
1E
100
AcDbEntity
  8
HILF
100
AcDbLine
 10
840.0
 20
0.0
 30
0.0
 11
840.0
 21
594.0
 31
0.0
  0
LINE
  5
89
330
1E
100
AcDbEntity
  8
HILF
100
AcDbLine
 10
840.0
 20
594.0
 30
0.0
 11
0.0
 21
594.0
 31
0.0
  0
LINE
  5
8B
330
1E
100
AcDbEntity
  8
STEMPEL
100
AcDbLine
 10
830.0
 20
584.0
 30
0.0
 11
40.0
 21
584.0
 31
0.0
  0
LINE
  5
8D
330
1E
100
AcDbEntity
  8
STEMPEL
100
AcDbLine
 10
40.0
 20
10.0
 30
0.0
 11
830.0
 21
10.0
 31
0.0
  0
LINE
  5
8E
330
1E
100
AcDbEntity
  8
STEMPEL
100
AcDbLine
 10
830.0
 20
10.0
 30
0.0
 11
830.0
 21
584.0
 31
0.0
  0
TEXT
  5
8F
330
1E
100
AcDbEntity
  8
TEXT
 62
     1
100
AcDbText
 10
655.0390572473189
 20
87.37343075652544
 30
0.0
 40
7.0
  1
Balkonablauf DN70
 41
0.8
  7
GREEKS
100
AcDbText
  0
TEXT
  5
90
330
1E
100
AcDbEntity
  8
TEXT
 62
     1
100
AcDbText
 10
767.1961422184136
 20
87.37343075652544
 30
0.0
 40
7.0
  1
15871070W
 41
0.8
  7
GREEKS
 72
     1
 11
790.1294755517469
 21
87.37343075652544
 31
0.0
100
AcDbText
  0
TEXT
  5
91
330
1E
100
AcDbEntity
  8
TEXT
100
AcDbText
 10
618.509022641583
 20
102.83989611379
 30
0.0
 40
5.0
  1
Zul.Abw.
 41
0.8
  7
GREEKS
100
AcDbText
  0
TEXT
  5
93
330
1E
100
AcDbEntity
  8
TEXT
100
AcDbText
 10
590.1565237511869
 20
63.1508587612022
 30
0.0
 40
4.0
  1
28.05.
 41
0.8
  7
GREEKS
 72
     1
 11
597.1660475607107
 21
63.1508587612022
 31
0.0
100
AcDbText
  0
TEXT
  5
94
330
1E
100
AcDbEntity
  8
TEXT
100
AcDbText
 10
624.023175322661
 20
62.94297655165468
 30
0.0
 40
4.0
  1
Koeh
 41
0.8
  7
GREEKS
 72
     1
 11
629.2803181798038
 21
62.94297655165468
 31
0.0
100
AcDbText
  0
TEXT
  5
95
330
1E
100
AcDbEntity
  8
TEXT
100
AcDbText
 10
655.3788460232791
 20
72.10021383107525
 30
0.0
 40
5.0
  1
Kompletteinheit seitlich
 41
0.75
  7
GREEKS
100
AcDbText
  0
TEXT
  5
97
330
1E
100
AcDbEntity
  8
TEXT
100
AcDbText
 10
655.3788460232791
 20
52.59097337846058
 30
0.0
 40
5.0
  1
EDV-Art.Nr. 15871.070X
 41
0.8
  7
GREEKS
100
AcDbText
  0
TEXT
  5
98
330
1E
100
AcDbEntity
  8
TEXT
100
AcDbText
 10
654.1676050109348
 20
43.31127624791508
 30
0.0
 40
4.0
  1
15871070W.DWG
 41
0.8
  7
GREEKS
100
AcDbText
  0
TEXT
  5
99
330
1E
100
AcDbEntity
  8
TEXT
 62
     1
100
AcDbText
 10
582.7034912034222
 20
87.47077088414977
 30
0.0
 40
7.0
  1
1:2
 41
0.8
  7
GREEKS
100
AcDbText
  0
TEXT
  5
9A
330
1E
100
AcDbEntity
  8
TEXT
100
AcDbText
 10
470.0441139350127
 20
114.1143585051043
 30
0.0
 40
5.0
  1
Erstellt mit AUTOCAD 2004
 41
0.8
  7
GREEKS
100
AcDbText
  0
INSERT
  5
9B
330
1E
100
AcDbEntity
  8
HILF
100
AcDbBlockReference
  2
LORO
 10
573.0624985962354
 20
36.9805930029896
 30
0.0
 41
2.0
 42
2.0
 43
2.0
  0
LINE
  5
9C
330
1E
100
AcDbEntity
  8
BEM
100
AcDbLine
 10
456.0
 20
0.0
 30
0.0
 11
456.0
 21
10.0
 31
0.0
  0
LINE
  5
13E
330
1E
100
AcDbEntity
  8
HILF
100
AcDbLine
 10
0.0
 20
0.0
 30
0.0
 11
0.0
 21
594.0
 31
0.0
  0
LINE
  5
13F
330
1E
100
AcDbEntity
  8
STEMPEL
100
AcDbLine
 10
40.0
 20
10.0
 30
0.0
 11
40.0
 21
584.0
 31
0.0
  0
LINE
  5
14A
330
1E
100
AcDbEntity
  8
HILF
100
AcDbLine
 10
0.0
 20
297.0
 30
0.0
 11
40.0
 21
297.0
 31
0.0
  0
TEXT
  5
15B
330
1E
100
AcDbEntity
  8
BEM
100
AcDbText
 10
837.3022923857165
 20
10.16790107998861
 30
0.0
 40
4.0
  1
Diese Zeichnung ist urheberrechtlich geschützt und bleibt unser Eigentum. Sie darf weder ganz noch teilweise verfielfältigt und nicht an Dritte weitergegeben werden.
 50
90.0
 41
0.8
  7
GREEKS
100
AcDbText
  0
TEXT
  5
838
330
1E
100
AcDbEntity
  8
TEXT
100
AcDbText
 10
612.6261322080842
 20
90.76363841023018
 30
0.0
 40
4.0
  1
DIN EN1123-2
 41
0.8
  7
GREEKS
 72
     1
 11
629.6166083985603
 21
90.76363841023018
 31
0.0
100
AcDbText
  0
LINE
  5
ADC
102
{ACAD_REACTORS
330
D6B
102
}
330
1E
100
AcDbEntity
  8
STEMPEL
100
AcDbLine
 10
589.3916586173803
 20
325.1564485148409
 30
0.0
 11
595.355963008714
 21
324.318220197264
 31
0.0
  0
LINE
  5
ADD
102
{ACAD_REACTORS
330
D6B
102
}
330
1E
100
AcDbEntity
  8
STEMPEL
100
AcDbLine
 10
589.2381593160286
 20
323.5622973187495
 30
0.0
 11
595.2719056149645
 21
322.7143095775145
 31
0.0
  0
LINE
  5
AE1
102
{ACAD_REACTORS
330
D98
102
}
330
1E
100
AcDbEntity
  8
STEMPEL
100
AcDbLine
 10
443.2962639215398
 20
345.3021078819267
 30
0.0
 11
443.9181922514393
 21
346.6671006117493
 31
0.0
  0
ARC
  5
AE2
102
{ACAD_REACTORS
330
D98
102
}
330
1E
100
AcDbEntity
  8
STEMPEL
100
AcDbCircle
 10
439.4120722108483
 20
343.7751318835773
 30
0.0
 40
3.0
100
AcDbArc
 50
65.50468174750744
 51
92.36239407091188
  0
ARC
  5
AE3
102
{ACAD_REACTORS
330
D98
102
}
330
1E
100
AcDbEntity
  8
STEMPEL
100
AcDbCircle
 10
439.4120722108483
 20
343.7751318835773
 30
0.0
 40
4.5
100
AcDbArc
 50
65.50468174750744
 51
92.36239407091188
  0
LINE
  5
AE4
102
{ACAD_REACTORS
330
D98
102
}
330
1E
100
AcDbEntity
  8
STEMPEL
100
AcDbLine
 10
441.2778572005464
 20
347.8701100730451
 30
0.0
 11
443.9181922514393
 21
346.6671006117493
 31
0.0
  0
LINE
  5
AE5
102
{ACAD_REACTORS
330
D98
102
}
330
1E
100
AcDbEntity
  8
STEMPEL
100
AcDbLine
 10
440.6559288706471
 20
346.5051173432225
 30
0.0
 11
443.2962639215398
 21
345.3021078819267
 31
0.0
  0
LINE
  5
AEE
102
{ACAD_REACTORS
330
D6B
102
}
330
1E
100
AcDbEntity
  8
STEMPEL
100
AcDbLine
 10
585.5851095702734
 20
253.8579557928802
 30
0.0
 11
591.6744412311214
 21
254.0705999401675
 31
0.0
  0
LINE
  5
AEF
102
{ACAD_REACTORS
330
D6B
102
}
330
1E
100
AcDbEntity
  8
STEMPEL
100
AcDbLine
 10
585.5711338116491
 20
252.2564924777568
 30
0.0
 11
591.5903838373717
 21
252.4666893204182
 31
0.0
  0
LINE
  5
AF0
102
{ACAD_REACTORS
330
D6B
102
}
330
1E
100
AcDbEntity
  8
STEMPEL
100
AcDbLine
 10
595.355963008714
 20
324.318220197264
 30
0.0
 11
591.5903838373717
 21
252.4666893204182
 31
0.0
  0
LINE
  5
AF1
330
1E
100
AcDbEntity
  8
HILF
100
AcDbLine
 10
589.2926782408544
 20
323.2677904208948
 30
0.0
 11
585.6603020918218
 21
253.9579246199604
 31
0.0
  0
DIMENSION
  5
AF2
330
1E
100
AcDbEntity
  8
BEM
100
AcDbDimension
  2
*D2
 10
616.7491984731884
 20
250.622519346504
 30
0.0
 11
612.1683689001494
 21
287.4126810806248
 31
0.0
 70
    33
  1
%%c<>
 71
     5
 42
72.99999999999994
  3
Standard
100
AcDbAlignedDimension
 13
589.3916586173803
 23
325.1564485148409
 33
0.0
 14
585.5711338116491
 24
252.2564924777568
 34
0.0
1001
ACAD
1000
DSTYLE
1002
{
1070
    40
1040
2.0
1070
    41
1040
3.5
1070
    42
1040
1.0
1070
    43
1040
7.0
1070
    44
1040
1.0
1070
    73
1070
     0
1070
    74
1070
     0
1070
    77
1070
     1
1070
    78
1070
     8
1070
    79
1070
     2
1070
   140
1040
3.5
1070
   141
1040
1.5
1070
   146
1040
0.5
1070
   147
1040
1.5
1070
   172
1070
     1
1070
   178
1070
     1
1070
   179
1070
     2
1070
   271
1070
     2
1070
   272
1070
     2
1070
   284
1070
     8
1070
   285
1070
     8
1070
   286
1070
     8
1002
}
  0
LINE
  5
AF3
102
{ACAD_REACTORS
330
D98
102
}
330
1E
100
AcDbEntity
  8
STEMPEL
100
AcDbLine
 10
381.4731734230429
 20
358.5521078819267
 30
0.0
 11
382.7722115287196
 21
359.3021078819268
 31
0.0
  0
LINE
  5
AF4
102
{ACAD_REACTORS
330
D98
102
}
330
1E
100
AcDbEntity
  8
STEMPEL
100
AcDbLine
 10
305.4731734230429
 20
358.5521078819267
 30
0.0
 11
304.1741353173663
 21
359.3021078819268
 31
0.0
  0
ARC
  5
AF8
102
{ACAD_REACTORS
330
D98
102
}
330
1E
100
AcDbEntity
  8
STEMPEL
100
AcDbCircle
 10
407.9133484458122
 20
342.4756540575219
 30
0.0
 40
3.0
100
AcDbArc
 50
92.36239407091188
 51
135.0
  0
ARC
  5
AF9
102
{ACAD_REACTORS
330
D98
102
}
330
1E
100
AcDbEntity
  8
STEMPEL
100
AcDbCircle
 10
407.9133484458122
 20
342.4756540575219
 30
0.0
 40
4.5
100
AcDbArc
 50
92.36239407091188
 51
135.0
  0
LINE
  5
AFA
330
1E
100
AcDbEntity
  8
STEMPEL
100
AcDbLine
 10
393.473173423043
 20
335.4241012443737
 30
0.0
 11
393.473173423043
 21
340.3021078819268
 31
0.0
  0
LINE
  5
AFB
102
{ACAD_REACTORS
330
DB7
102
}
330
1E
100
AcDbEntity
  8
STEMPEL
100
AcDbLine
 10
394.973173423043
 20
335.3454895754491
 30
0.0
 11
394.9731734230431
 21
340.3021078819268
 31
0.0
  0
LINE
  5
AFC
102
{ACAD_REACTORS
330
D98
102
}
330
1E
100
AcDbEntity
  8
STEMPEL
100
AcDbLine
 10
399.6332005524185
 20
341.8021078819266
 30
0.0
 11
394.6078920471067
 21
341.8021078819267
 31
0.0
  0
ARC
  5
AFD
102
{ACAD_REACTORS
330
D98
102
}
330
1E
100
AcDbEntity
  8
STEMPEL
100
AcDbCircle
 10
394.6078920471068
 20
344.8021078819268
 30
0.0
 40
3.0
100
AcDbArc
 50
210.0000000000005
 51
270.0
  0
ARC
  5
B00
102
{ACAD_REACTORS
330
D98
102
}
330
1E
100
AcDbEntity
  8
STEMPEL
100
AcDbCircle
 10
399.6332005524186
 20
344.8021078819266
 30
0.0
 40
3.0
100
AcDbArc
 50
270.0
 51
315.0
  0
ARC
  5
B01
102
{ACAD_REACTORS
330
D98
102
}
330
1E
100
AcDbEntity
  8
STEMPEL
100
AcDbCircle
 10
399.6332005524186
 20
344.8021078819266
 30
0.0
 40
4.5
100
AcDbArc
 50
270.0
 51
315.0
  0
LINE
  5
B02
102
{ACAD_REACTORS
330
D98
102
}
330
1E
100
AcDbEntity
  8
STEMPEL
100
AcDbLine
 10
402.815181067758
 20
341.6201273665871
 30
0.0
 11
405.7920281022525
 21
344.5969744010815
 31
0.0
  0
LINE
  5
B03
102
{ACAD_REACTORS
330
D98
102
}
330
1E
100
AcDbEntity
  8
STEMPEL
100
AcDbLine
 10
401.7545208959782
 20
342.6807875383669
 30
0.0
 11
404.7313679304727
 21
345.6576345728614
 31
0.0
  0
LINE
  5
B04
102
{ACAD_REACTORS
330
D98
102
}
330
1E
100
AcDbEntity
  8
STEMPEL
100
AcDbLine
 10
388.4731734230428
 20
346.4277522289446
 30
0.0
 11
389.7722115287195
 21
347.1777522289447
 31
0.0
  0
LINE
  5
B05
330
1E
100
AcDbEntity
  8
STEMPEL
100
AcDbLine
 10
389.8713214532821
 20
335.6128663074151
 30
0.0
 11
389.7853975825751
 21
333.9733411857162
 31
0.0
  0
LINE
  5
B06
102
{ACAD_REACTORS
330
D6B
102
}
330
1E
100
AcDbEntity
  8
STEMPEL
100
AcDbLine
 10
389.8713214532821
 20
335.6128663074151
 30
0.0
 11
389.7875839232934
 21
334.0150590518079
 31
0.0
  0
POLYLINE
  5
B07
330
1E
100
AcDbEntity
  8
STEMPEL
100
AcDb2dPolyline
 66
     1
 10
0.0
 20
0.0
 30
0.0
 70
     4
 75
     6
  0
VERTEX
  5
B08
330
B07
100
AcDbEntity
  8
STEMPEL
100
AcDbVertex
100
AcDb2dVertex
 10
389.7853975825751
 20
333.9733411857163
 30
0.0
 70
    16
  0
VERTEX
  5
B09
330
B07
100
AcDbEntity
  8
STEMPEL
100
AcDbVertex
100
AcDb2dVertex
 10
389.7853975825751
 20
333.9733411857163
 30
0.0
 70
     8
  0
VERTEX
  5
B0A
330
B07
100
AcDbEntity
  8
STEMPEL
100
AcDbVertex
100
AcDb2dVertex
 10
389.4462241498769
 20
333.9263019069906
 30
0.0
 70
     8
  0
VERTEX
  5
B0B
330
B07
100
AcDbEntity
  8
STEMPEL
100
AcDbVertex
100
AcDb2dVertex
 10
388.9232953335458
 20
333.8661724513715
 30
0.0
 70
     8
  0
VERTEX
  5
B0C
330
B07
100
AcDbEntity
  8
STEMPEL
100
AcDbVertex
100
AcDb2dVertex
 10
388.213451377319
 20
333.7978678354645
 30
0.0
 70
     8
  0
VERTEX
  5
B0D
330
B07
100
AcDbEntity
  8
STEMPEL
100
AcDbVertex
100
AcDb2dVertex
 10
387.3135325249341
 20
333.7263030758759
 30
0.0
 70
     8
  0
VERTEX
  5
B0E
330
B07
100
AcDbEntity
  8
STEMPEL
100
AcDbVertex
100
AcDb2dVertex
 10
386.2203790201284
 20
333.656393189211
 30
0.0
 70
     8
  0
VERTEX
  5
B0F
330
B07
100
AcDbEntity
  8
STEMPEL
100
AcDbVertex
100
AcDb2dVertex
 10
384.9308311066393
 20
333.5930531920761
 30
0.0
 70
     8
  0
VERTEX
  5
B10
330
B07
100
AcDbEntity
  8
STEMPEL
100
AcDbVertex
100
AcDb2dVertex
 10
383.4417290282044
 20
333.541198101077
 30
0.0
 70
     8
  0
VERTEX
  5
B11
330
B07
100
AcDbEntity
  8
STEMPEL
100
AcDbVertex
100
AcDb2dVertex
 10
381.7499130285608
 20
333.5057429328192
 30
0.0
 70
     8
  0
VERTEX
  5
B12
330
B07
100
AcDbEntity
  8
STEMPEL
100
AcDbVertex
100
AcDb2dVertex
 10
389.1231336013238
 20
333.8697255819557
 30
0.0
 70
    16
  0
VERTEX
  5
B13
330
B07
100
AcDbEntity
  8
STEMPEL
100
AcDbVertex
100
AcDb2dVertex
 10
386.5345162614552
 20
333.5740545808683
 30
0.0
 70
    16
  0
VERTEX
  5
B14
330
B07
100
AcDbEntity
  8
STEMPEL
100
AcDbVertex
100
AcDb2dVertex
 10
381.7499130285608
 20
333.5057429328192
 30
0.0
 70
    16
  0
SEQEND
  5
B15
330
B07
100
AcDbEntity
  8
STEMPEL
  0
POLYLINE
  5
B16
330
1E
100
AcDbEntity
  8
STEMPEL
100
AcDb2dPolyline
 66
     1
 10
0.0
 20
0.0
 30
0.0
 70
     4
 75
     6
  0
VERTEX
  5
B17
330
B16
100
AcDbEntity
  8
STEMPEL
100
AcDbVertex
100
AcDb2dVertex
 10
389.8713214532821
 20
335.6128663074151
 30
0.0
 70
    16
  0
VERTEX
  5
B18
330
B16
100
AcDbEntity
  8
STEMPEL
100
AcDbVertex
100
AcDb2dVertex
 10
389.8713214532821
 20
335.6128663074151
 30
0.0
 70
     8
  0
VERTEX
  5
B19
330
B16
100
AcDbEntity
  8
STEMPEL
100
AcDbVertex
100
AcDb2dVertex
 10
389.5321480205839
 20
335.5658270286895
 30
0.0
 70
     8
  0
VERTEX
  5
B1A
330
B16
100
AcDbEntity
  8
STEMPEL
100
AcDbVertex
100
AcDb2dVertex
 10
389.0092192042527
 20
335.5056975730704
 30
0.0
 70
     8
  0
VERTEX
  5
B1B
330
B16
100
AcDbEntity
  8
STEMPEL
100
AcDbVertex
100
AcDb2dVertex
 10
388.299375248026
 20
335.4373929571636
 30
0.0
 70
     8
  0
VERTEX
  5
B1C
330
B16
100
AcDbEntity
  8
STEMPEL
100
AcDbVertex
100
AcDb2dVertex
 10
387.3994563956411
 20
335.3658281975748
 30
0.0
 70
     8
  0
VERTEX
  5
B1D
330
B16
100
AcDbEntity
  8
STEMPEL
100
AcDbVertex
100
AcDb2dVertex
 10
386.3063028908354
 20
335.2959183109099
 30
0.0
 70
     8
  0
VERTEX
  5
B1E
330
B16
100
AcDbEntity
  8
STEMPEL
100
AcDbVertex
100
AcDb2dVertex
 10
385.0167549773463
 20
335.2325783137751
 30
0.0
 70
     8
  0
VERTEX
  5
B1F
330
B16
100
AcDbEntity
  8
STEMPEL
100
AcDbVertex
100
AcDb2dVertex
 10
383.5276528989114
 20
335.1807232227758
 30
0.0
 70
     8
  0
VERTEX
  5
B20
330
B16
100
AcDbEntity
  8
STEMPEL
100
AcDbVertex
100
AcDb2dVertex
 10
381.8358368992678
 20
335.145268054518
 30
0.0
 70
     8
  0
VERTEX
  5
B21
330
B16
100
AcDbEntity
  8
STEMPEL
100
AcDbVertex
100
AcDb2dVertex
 10
389.2090574720307
 20
335.5092507036546
 30
0.0
 70
    16
  0
VERTEX
  5
B22
330
B16
100
AcDbEntity
  8
STEMPEL
100
AcDbVertex
100
AcDb2dVertex
 10
386.6204401321621
 20
335.2135797025672
 30
0.0
 70
    16
  0
VERTEX
  5
B23
330
B16
100
AcDbEntity
  8
STEMPEL
100
AcDbVertex
100
AcDb2dVertex
 10
381.8358368992678
 20
335.145268054518
 30
0.0
 70
    16
  0
SEQEND
  5
B24
330
B16
100
AcDbEntity
  8
STEMPEL
  0
LINE
  5
B29
330
1E
100
AcDbEntity
  8
STEMPEL
100
AcDbLine
 10
381.7499130285612
 20
333.5057429328192
 30
0.0
 11
379.9731734230429
 21
333.5988579099085
 31
0.0
  0
LINE
  5
B2A
330
1E
100
AcDbEntity
  8
STEMPEL
100
AcDbLine
 10
381.8358368992682
 20
335.145268054518
 30
0.0
 11
379.973173423043
 21
335.2428861108586
 31
0.0
  0
LINE
  5
B2B
330
1E
100
AcDbEntity
  8
HILF
100
AcDbLine
 10
405.9731734230429
 20
346.8994400654316
 30
0.0
 11
389.9328951312426
 21
346.8994400654316
 31
0.0
  0
ARC
  5
B2C
102
{ACAD_REACTORS
330
D98
102
}
330
1E
100
AcDbEntity
  8
STEMPEL
100
AcDbCircle
 10
394.6078920471068
 20
344.8021078819268
 30
0.0
 40
4.5
100
AcDbArc
 50
210.0000000000005
 51
270.0
  0
LINE
  5
B2D
330
1E
100
AcDbEntity
  8
MITTEL
100
AcDbLine
 10
387.3750972116895
 20
342.3296760175915
 30
0.0
 11
393.8702877400729
 21
346.0796760175914
 31
0.0
  0
LINE
  5
B2E
102
{ACAD_REACTORS
330
D98
102
}
330
1E
100
AcDbEntity
  8
STEMPEL
100
AcDbLine
 10
391.7037146231092
 20
341.3647028301557
 30
0.0
 11
393.1328207744958
 21
342.1897976513593
 31
0.0
  0
ARC
  5
B2F
330
1E
100
AcDbEntity
  8
STEMPEL
100
AcDbCircle
 10
343.4731734230429
 20
308.8021078819267
 30
0.0
 40
50.0
100
AcDbArc
 50
295.8419327631689
 51
298.2402577322607
  0
ARC
  5
B30
102
{ACAD_REACTORS
330
DBD
102
}
330
1E
100
AcDbEntity
  8
STEMPEL
100
AcDbCircle
 10
343.4731734230429
 20
308.8021078819267
 30
0.0
 40
51.5
100
AcDbArc
 50
295.4564006512043
 51
298.7403709888678
  0
LINE
  5
B32
102
{ACAD_REACTORS
330
D6B
102
}
330
1E
100
AcDbEntity
  8
STEMPEL
100
AcDbLine
 10
370.3048829275179
 20
325.3021078819268
 30
0.0
 11
367.0768354872103
 21
263.7072934389472
 31
0.0
  0
LINE
  5
B36
102
{ACAD_REACTORS
330
D98
102
}
330
1E
100
AcDbEntity
  8
STEMPEL
100
AcDbLine
 10
298.4731734230432
 20
346.4277522289445
 30
0.0
 11
297.1741353173663
 21
347.1777522289445
 31
0.0
  0
ARC
  5
B37
102
{ACAD_REACTORS
330
D98
102
}
330
1E
100
AcDbEntity
  8
STEMPEL
100
AcDbCircle
 10
292.338454798979
 20
344.8021078819268
 30
0.0
 40
3.0
100
AcDbArc
 50
270.0
 51
329.9999999999995
  0
ARC
  5
B38
102
{ACAD_REACTORS
330
D98
102
}
330
1E
100
AcDbEntity
  8
STEMPEL
100
AcDbCircle
 10
292.338454798979
 20
344.8021078819268
 30
0.0
 40
4.5
100
AcDbArc
 50
270.0
 51
329.9999999999995
  0
LINE
  5
B39
102
{ACAD_REACTORS
330
D98
102
}
330
1E
100
AcDbEntity
  8
STEMPEL
100
AcDbLine
 10
295.2426322229767
 20
341.3647028301556
 30
0.0
 11
293.8135260715901
 21
342.1897976513591
 31
0.0
  0
LINE
  5
B3A
330
1E
100
AcDbEntity
  8
MITTEL
100
AcDbLine
 10
299.5712496343963
 20
342.3296760175913
 30
0.0
 11
293.0760591060129
 21
346.0796760175913
 31
0.0
  0
LINE
  5
B3B
330
1E
100
AcDbEntity
  8
STEMPEL
100
AcDbLine
 10
293.4731734230429
 20
308.8021078819267
 30
0.0
 11
293.4731734230429
 21
340.3021078819268
 31
0.0
  0
LINE
  5
B3F
102
{ACAD_REACTORS
330
DBD
102
}
330
1E
100
AcDbEntity
  8
STEMPEL
100
AcDbLine
 10
365.6091170442217
 20
262.3021078819268
 30
0.0
 11
321.3372298018642
 21
262.3021078819268
 31
0.0
  0
LINE
  5
B40
330
1E
100
AcDbEntity
  8
STEMPEL
100
AcDbLine
 10
365.2676681407464
 20
263.8021078819268
 30
0.0
 11
321.6786787053395
 21
263.8021078819268
 31
0.0
  0
LINE
  5
B41
102
{ACAD_REACTORS
330
D98
102
}
330
1E
100
AcDbEntity
  8
STEMPEL
100
AcDbLine
 10
305.4731734230429
 20
358.5521078819267
 30
0.0
 11
296.235569116009
 21
342.5521078819268
 31
0.0
  0
LINE
  5
B42
102
{ACAD_REACTORS
330
D98
102
}
330
1E
100
AcDbEntity
  8
STEMPEL
100
AcDbLine
 10
304.1741353173663
 20
359.3021078819268
 30
0.0
 11
294.9365310103324
 21
343.3021078819268
 31
0.0
  0
LINE
  5
B43
102
{ACAD_REACTORS
330
D98
102
}
330
1E
100
AcDbEntity
  8
STEMPEL
100
AcDbLine
 10
382.7722115287196
 20
359.3021078819268
 30
0.0
 11
392.0098158357535
 21
343.3021078819268
 31
0.0
  0
LINE
  5
B44
102
{ACAD_REACTORS
330
D98
102
}
330
1E
100
AcDbEntity
  8
STEMPEL
100
AcDbLine
 10
381.4731734230429
 20
358.5521078819267
 30
0.0
 11
390.710777730077
 21
342.5521078819268
 31
0.0
  0
ARC
  5
B46
102
{ACAD_REACTORS
330
D98
102
}
330
1E
100
AcDbEntity
  8
STEMPEL
100
AcDbCircle
 10
279.0329984002738
 20
342.4756540575219
 30
0.0
 40
3.0
100
AcDbArc
 50
45.0
 51
87.63760592908813
  0
ARC
  5
B47
102
{ACAD_REACTORS
330
D98
102
}
330
1E
100
AcDbEntity
  8
STEMPEL
100
AcDbCircle
 10
279.0329984002738
 20
342.4756540575219
 30
0.0
 40
4.5
100
AcDbArc
 50
45.0
 51
87.63760592908813
  0
ARC
  5
B48
102
{ACAD_REACTORS
330
D98
102
}
330
1E
100
AcDbEntity
  8
STEMPEL
100
AcDbCircle
 10
287.3131462936671
 20
344.8021078819268
 30
0.0
 40
3.0
100
AcDbArc
 50
225.0
 51
270.0
  0
ARC
  5
B49
102
{ACAD_REACTORS
330
D98
102
}
330
1E
100
AcDbEntity
  8
STEMPEL
100
AcDbCircle
 10
287.3131462936671
 20
344.8021078819268
 30
0.0
 40
4.5
100
AcDbArc
 50
225.0
 51
270.0
  0
LINE
  5
B4B
102
{ACAD_REACTORS
330
D98
102
}
330
1E
100
AcDbEntity
  8
STEMPEL
100
AcDbLine
 10
285.1918259501075
 20
342.6807875383671
 30
0.0
 11
282.2149789156133
 21
345.6576345728614
 31
0.0
  0
LINE
  5
B4C
102
{ACAD_REACTORS
330
D98
102
}
330
1E
100
AcDbEntity
  8
STEMPEL
100
AcDbLine
 10
284.1311657783277
 20
341.6201273665873
 30
0.0
 11
281.1543187438333
 21
344.5969744010815
 31
0.0
  0
LINE
  5
B4D
330
1E
100
AcDbEntity
  8
STEMPEL
100
AcDbLine
 10
280.0385623109762
 20
345.3021078819267
 30
0.0
 11
243.650082924546
 21
345.3021078819266
 31
0.0
  0
LINE
  5
B4F
102
{ACAD_REACTORS
330
DAF
102
}
330
1E
100
AcDbEntity
  8
STEMPEL
100
AcDbLine
 10
291.9731734230429
 20
308.8021078819269
 30
0.0
 11
291.973173423043
 21
340.3021078819268
 31
0.0
  0
LINE
  5
B50
102
{ACAD_REACTORS
330
D98
102
}
330
1E
100
AcDbEntity
  8
STEMPEL
100
AcDbLine
 10
245.6684896455395
 20
347.8701100730451
 30
0.0
 11
243.0281545946466
 21
346.6671006117493
 31
0.0
  0
LINE
  5
B51
102
{ACAD_REACTORS
330
D98
102
}
330
1E
100
AcDbEntity
  8
STEMPEL
100
AcDbLine
 10
246.2904179754388
 20
346.5051173432225
 30
0.0
 11
243.650082924546
 21
345.3021078819267
 31
0.0
  0
LINE
  5
B52
102
{ACAD_REACTORS
330
D98
102
}
330
1E
100
AcDbEntity
  8
STEMPEL
100
AcDbLine
 10
243.650082924546
 20
345.3021078819267
 30
0.0
 11
243.0281545946466
 21
346.6671006117493
 31
0.0
  0
ARC
  5
B53
102
{ACAD_REACTORS
330
D98
102
}
330
1E
100
AcDbEntity
  8
STEMPEL
100
AcDbCircle
 10
247.5342746352376
 20
343.7751318835773
 30
0.0
 40
3.0
100
AcDbArc
 50
87.63760592908813
 51
114.4953182524925
  0
ARC
  5
B54
102
{ACAD_REACTORS
330
D98
102
}
330
1E
100
AcDbEntity
  8
STEMPEL
100
AcDbCircle
 10
247.5342746352376
 20
343.7751318835773
 30
0.0
 40
4.5
100
AcDbArc
 50
87.63760592908813
 51
114.4953182524925
  0
LINE
  5
B57
102
{ACAD_REACTORS
330
D98
102
}
330
1E
100
AcDbEntity
  8
STEMPEL
100
AcDbLine
 10
279.21848782969
 20
346.9718295068982
 30
0.0
 11
247.7197640646539
 21
348.2713073329535
 31
0.0
  0
LINE
  5
B58
102
{ACAD_REACTORS
330
D98
102
}
330
1E
100
AcDbEntity
  8
STEMPEL
100
AcDbLine
 10
279.1566580198846
 20
345.4731043571062
 30
0.0
 11
247.6579342548484
 21
346.7725821831615
 31
0.0
  0
LINE
  5
B6E
102
{ACAD_REACTORS
330
D98
102
}
330
1E
100
AcDbEntity
  8
STEMPEL
100
AcDbLine
 10
292.338454798979
 20
341.8021078819267
 30
0.0
 11
287.3131462936671
 21
341.8021078819268
 31
0.0
  0
LINE
  5
B6F
330
1E
100
AcDbEntity
  8
HILF
100
AcDbLine
 10
280.9731734230429
 20
346.8994400654316
 30
0.0
 11
297.0134517148433
 21
346.8994400654316
 31
0.0
  0
LINE
  5
B70
330
1E
100
AcDbEntity
  8
STEMPEL
100
AcDbLine
 10
247.5342746352376
 20
348.2751318835773
 30
0.0
 11
297.8077077563717
 21
348.2751318835773
 31
0.0
  0
LINE
  5
B71
102
{ACAD_REACTORS
330
D98
330
DAF
330
DB7
102
}
330
1E
100
AcDbEntity
  8
STEMPEL
100
AcDbLine
 10
399.6332005524186
 20
340.3021078819268
 30
0.0
 11
379.9731734230429
 21
340.3021078819267
 31
0.0
  0
ARC
  5
B72
330
1E
100
AcDbEntity
  8
STEMPEL
100
AcDbCircle
 10
343.4731734230429
 20
308.8021078819267
 30
0.0
 40
50.0
100
AcDbArc
 50
180.0
 51
244.1580672368311
  0
LINE
  5
B7B
330
1E
100
AcDbEntity
  8
MITTEL
100
AcDbLine
 10
343.4731734230429
 20
375.3021078819267
 30
0.0
 11
343.4731734230429
 21
257.3021078819268
 31
0.0
  0
ARC
  5
B7C
330
1E
100
AcDbEntity
  8
STEMPEL
100
AcDbCircle
 10
343.4731734230429
 20
308.8021078819267
 30
0.0
 40
51.5
100
AcDbArc
 50
180.0
 51
244.5435993487957
  0
LINE
  5
B7D
102
{ACAD_REACTORS
330
D6B
330
DBD
102
}
330
1E
100
AcDbEntity
  8
STEMPEL
100
AcDbLine
 10
365.2676681407464
 20
263.8021078819268
 30
0.0
 11
585.5711338116491
 21
252.2564924777568
 31
0.0
  0
LINE
  5
B7E
330
1E
100
AcDbEntity
  8
STEMPEL
100
AcDbLine
 10
406.9077845351097
 20
345.3021078819267
 30
0.0
 11
443.2962639215398
 21
345.3021078819267
 31
0.0
  0
LINE
  5
B7F
102
{ACAD_REACTORS
330
D98
102
}
330
1E
100
AcDbEntity
  8
STEMPEL
100
AcDbLine
 10
407.7278590163957
 20
346.9718295068982
 30
0.0
 11
439.226582781432
 21
348.2713073329535
 31
0.0
  0
LINE
  5
B80
102
{ACAD_REACTORS
330
D98
102
}
330
1E
100
AcDbEntity
  8
STEMPEL
100
AcDbLine
 10
407.7896888262012
 20
345.4731043571062
 30
0.0
 11
439.2884125912374
 21
346.7725821831615
 31
0.0
  0
LINE
  5
B81
330
1E
100
AcDbEntity
  8
STEMPEL
100
AcDbLine
 10
389.1386390897141
 20
348.2751318835773
 30
0.0
 11
439.4120722108483
 21
348.2751318835773
 31
0.0
  0
DIMENSION
  5
B82
330
1E
100
AcDbEntity
  8
BEM
100
AcDbDimension
  2
*D3
 10
443.9181922514393
 20
396.019041180283
 30
0.0
 11
343.4731734230429
 21
402.519041180283
 31
0.0
 70
    32
  1
%%C201
 71
     5
 42
200.8900376567928
  3
Standard
100
AcDbAlignedDimension
 13
243.0281545946466
 23
346.6671006117493
 33
0.0
 14
443.9181922514393
 24
346.6671006117493
 34
0.0
100
AcDbRotatedDimension
1001
ACAD
1000
DSTYLE
1002
{
1070
    40
1040
2.0
1070
    41
1040
3.5
1070
    42
1040
1.0
1070
    43
1040
7.0
1070
    44
1040
1.0
1070
    73
1070
     0
1070
    74
1070
     0
1070
    77
1070
     1
1070
    78
1070
     8
1070
    79
1070
     2
1070
   140
1040
3.5
1070
   141
1040
1.5
1070
   146
1040
0.5
1070
   147
1040
1.5
1070
   172
1070
     1
1070
   178
1070
     1
1070
   179
1070
     2
1070
   271
1070
     2
1070
   272
1070
     2
1070
   284
1070
     8
1070
   285
1070
     8
1070
   286
1070
     8
1002
}
  0
LINE
  5
B84
330
1E
100
AcDbEntity
  8
MITTEL
100
AcDbLine
 10
343.4731734230429
 20
301.4943995796017
 30
0.0
 11
598.4663210968157
 21
288.1307749776265
 31
0.0
  0
LINE
  5
B85
102
{ACAD_REACTORS
330
D6B
102
}
330
1E
100
AcDbEntity
  8
STEMPEL
100
AcDbLine
 10
367.160573017199
 20
265.3051006945545
 30
0.0
 11
585.5851095702734
 21
253.8579557928802
 31
0.0
  0
LINE
  5
B86
102
{ACAD_REACTORS
330
D6B
330
DB7
102
}
330
1E
100
AcDbEntity
  8
STEMPEL
100
AcDbLine
 10
389.8713214532821
 20
335.6128663074151
 30
0.0
 11
589.3916586173803
 21
325.1564485148409
 31
0.0
  0
LINE
  5
B87
102
{ACAD_REACTORS
330
D6B
102
}
330
1E
100
AcDbEntity
  8
STEMPEL
100
AcDbLine
 10
389.7875839232934
 20
334.0150590518078
 30
0.0
 11
589.2381593160286
 21
323.5622973187495
 31
0.0
  0
DIMENSION
  5
B88
330
1E
100
AcDbEntity
  8
BEM
100
AcDbDimension
  2
*D4
 10
593.4731734230429
 20
225.7059125627082
 30
0.0
 11
468.4731734230429
 21
232.2059125627082
 31
0.0
 70
    32
 71
     5
 42
250.0
  3
Standard
100
AcDbAlignedDimension
 13
343.4731734230429
 23
257.3021078819268
 33
0.0
 14
593.4731734230429
 24
288.3924547588413
 34
0.0
100
AcDbRotatedDimension
1001
ACAD
1000
DSTYLE
1002
{
1070
    40
1040
2.0
1070
    41
1040
3.5
1070
    42
1040
1.0
1070
    43
1040
7.0
1070
    44
1040
1.0
1070
    73
1070
     0
1070
    74
1070
     0
1070
    77
1070
     1
1070
    78
1070
     8
1070
    79
1070
     2
1070
   140
1040
3.5
1070
   141
1040
1.5
1070
   146
1040
0.5
1070
   147
1040
1.5
1070
   172
1070
     1
1070
   178
1070
     1
1070
   179
1070
     2
1070
   271
1070
     2
1070
   272
1070
     2
1070
   284
1070
     8
1070
   285
1070
     8
1070
   286
1070
     8
1002
}
  0
DIMENSION
  5
D2E
330
1E
100
AcDbEntity
  8
BEM
100
AcDbDimension
  2
*D5
 10
343.4731734230429
 20
257.3021078819268
 30
0.0
 11
362.8334983147447
 21
335.5546005502579
 31
0.0
 70
   162
  1
93°
 71
     5
 42
1.618527722053936
  3
Standard
100
AcDb2LineAngularDimension
 13
338.4731734230429
 23
301.756438476017
 33
0.0
 14
623.721784585584
 24
288.1307749776265
 34
0.0
 15
343.4731734230429
 25
363.5521078819268
 35
0.0
 16
377.9906397924242
 26
320.0077081382945
 36
0.0
1001
ACAD
1000
DSTYLE
1002
{
1070
    40
1040
2.0
1070
    41
1040
3.5
1070
    42
1040
1.0
1070
    43
1040
7.0
1070
    44
1040
1.0
1070
    73
1070
     0
1070
    74
1070
     0
1070
    77
1070
     1
1070
    78
1070
     8
1070
    79
1070
     2
1070
   140
1040
3.5
1070
   141
1040
1.5
1070
   146
1040
0.5
1070
   147
1040
1.5
1070
   172
1070
     1
1070
   178
1070
     1
1070
   179
1070
     2
1070
   271
1070
     2
1070
   272
1070
     2
1070
   284
1070
     8
1070
   285
1070
     8
1070
   286
1070
     8
1002
}
  0
HATCH
  5
D6B
330
1E
100
AcDbEntity
  8
SCHRAFF
100
AcDbHatch
 10
0.0
 20
0.0
 30
0.0
210
0.0
220
0.0
230
1.0
  2
_USER
 70
     0
 71
     1
 91
        2
 92
        7
 72
     0
 73
     1
 93
        6
 10
389.8713214532821
 20
335.6128663074152
 10
389.7875839232933
 20
334.0150590518078
 10
589.2381593160282
 20
323.5622973187495
 10
595.2719056149645
 20
322.7143095775145
 10
595.355963008714
 20
324.3182201972641
 10
589.3916586173802
 20
325.1564485148408
 97
        6
330
B06
330
B87
330
ADD
330
AF0
330
ADC
330
B86
 92
        7
 72
     0
 73
     1
 93
        6
 10
367.160573017199
 20
265.3051006945545
 10
367.0768354872103
 20
263.7072934389472
 10
585.5711338116487
 20
252.2564924777567
 10
591.5903838373717
 20
252.4666893204182
 10
591.6744412311211
 20
254.0705999401675
 10
585.5851095702733
 20
253.8579557928802
 97
        6
330
B32
330
B7D
330
AEF
330
AF0
330
AEE
330
B85
 75
     0
 76
     0
 52
42.0
 41
2.0
 77
     0
 78
     1
 53
42.0
 43
0.0
 44
-54.42476347630668
 45
-1.338261212717716
 46
1.486289650954788
 79
     0
 47
0.4691189141838856
 98
        2
 10
484.196318484433
 20
329.4668078910356
 10
442.4152068394946
 20
260.0372075476662
  0
HATCH
  5
D98
330
1E
100
AcDbEntity
  8
SCHRAFF
100
AcDbHatch
 10
0.0
 20
0.0
 30
0.0
210
0.0
220
0.0
230
1.0
  2
_USER
 70
     0
 71
     1
 91
        4
 92
        7
 72
     1
 73
     1
 93
       18
 10
439.2884125912374
 20
346.7725821831615
 42
-0.1177283015269096
 10
440.6559288706471
 20
346.5051173432225
 42
0.0
 10
443.2962639215397
 20
345.3021078819266
 42
0.0
 10
443.9181922514392
 20
346.6671006117492
 42
0.0
 10
441.2778572005464
 20
347.8701100730451
 42
0.1177283015269031
 10
439.226582781432
 20
348.2713073329535
 42
0.0
 10
407.7278590163957
 20
346.9718295068982
 42
0.1882181836572902
 10
404.7313679304727
 20
345.6576345728614
 42
0.0
 10
401.7545208959782
 20
342.6807875383669
 42
-0.1989123673796629
 10
399.6332005524185
 20
341.8021078819266
 42
0.0
 10
394.6078920471067
 20
341.8021078819267
 42
-0.1292196001266723
 10
393.1328207744975
 20
342.1897976513602
 42
0.0
 10
391.7037146231091
 20
341.3647028301556
 42
0.1771982469998063
 10
394.6078920471069
 20
340.3021078819268
 42
0.0
 10
399.6332005524186
 20
340.3021078819268
 42
0.19891236737966
 10
402.8151810677581
 20
341.6201273665872
 42
0.0
 10
405.7920281022525
 20
344.5969744010815
 42
-0.1882181836572871
 10
407.7896888262012
 20
345.4731043571062
 42
0.0
 97
       18
330
AE2
330
AE5
330
AE1
330
AE4
330
AE3
330
B7F
330
AF9
330
B03
330
B00
330
AFC
330
AFD
330
B2E
330
B2C
330
B71
330
B01
330
B02
330
AF8
330
B80
 92
        7
 72
     0
 73
     1
 93
        4
 10
382.7722115287196
 20
359.3021078819268
 10
381.4731734230429
 20
358.5521078819267
 10
388.473173423043
 20
346.4277522289447
 10
389.7722115287195
 20
347.1777522289447
 97
        4
330
AF3
330
B44
330
B04
330
B43
 92
        7
 72
     0
 73
     1
 93
        4
 10
305.4731734230429
 20
358.5521078819267
 10
304.1741353173663
 20
359.3021078819267
 10
297.1741353173664
 20
347.1777522289446
 10
298.473173423043
 20
346.4277522289447
 97
        4
330
AF4
330
B42
330
B36
330
B41
 92
        7
 72
     1
 73
     1
 93
       18
 10
279.2184878296901
 20
346.9718295068982
 42
0.0
 10
247.7197640646539
 20
348.2713073329535
 42
0.1177283015269093
 10
245.6684896455393
 20
347.870110073045
 42
0.0
 10
243.0281545946465
 20
346.6671006117493
 42
0.0
 10
243.650082924546
 20
345.3021078819267
 42
0.0
 10
246.2904179754388
 20
346.5051173432225
 42
-0.1177283015269071
 10
247.6579342548484
 20
346.7725821831615
 42
0.0
 10
279.1566580198846
 20
345.4731043571062
 42
-0.1882181836572918
 10
281.1543187438333
 20
344.5969744010815
 42
0.0
 10
284.1311657783277
 20
341.6201273665873
 42
0.1989123673796547
 10
287.3131462936671
 20
340.3021078819268
 42
0.0
 10
292.338454798979
 20
340.3021078819268
 42
0.1771982469997985
 10
295.2426322229767
 20
341.3647028301556
 42
0.0
 10
293.8135260715883
 20
342.1897976513601
 42
-0.129219600126676
 10
292.338454798979
 20
341.8021078819267
 42
0.0
 10
287.3131462936671
 20
341.8021078819268
 42
-0.1989123673796649
 10
285.1918259501074
 20
342.6807875383672
 42
0.0
 10
282.2149789156133
 20
345.6576345728614
 42
0.1882181836572966
 97
       18
330
B57
330
B54
330
B50
330
B52
330
B51
330
B53
330
B58
330
B46
330
B4C
330
B49
330
B71
330
B38
330
B39
330
B37
330
B6E
330
B48
330
B4B
330
B47
 75
     0
 76
     0
 52
45.0
 41
2.0
 77
     0
 78
     1
 53
45.0
 43
0.0
 44
-54.42476347630668
 45
-1.414213562373094
 46
1.414213562373095
 79
     0
 47
0.2730603783753916
 98
        4
 10
416.4250036254643
 20
346.5709892580796
 10
387.1868783343525
 20
350.3938348471991
 10
303.2980505826013
 20
355.3089220332097
 10
271.0541372892444
 20
346.2979295585792
  0
HATCH
  5
DAA
330
1E
100
AcDbEntity
  8
SCHRAFF
100
AcDbHatch
 10
0.0
 20
0.0
 30
0.0
210
0.0
220
0.0
230
1.0
  2
_USER
 70
     0
 71
     0
 91
        3
 92
        7
 72
     0
 73
     1
 93
        4
 10
394.9731734230431
 20
340.3021078819268
 10
393.473173423043
 20
340.3021078819268
 10
393.4731734230429
 20
335.4241012443737
 10
394.973173423043
 20
335.3454895754491
 97
        0
 92
        7
 72
     1
 73
     1
 93
        8
 10
291.9731734230429
 20
308.8021078819269
 42
0.2893140617279167
 10
321.3372298018642
 20
262.3021078819268
 42
0.0
 10
343.4731734230429
 20
262.3021078819268
 42
0.0
 10
343.4731734230429
 20
263.8021078819268
 42
0.0
 10
321.6786787053395
 20
263.8021078819268
 42
-0.2874919409686583
 10
293.4731734230429
 20
308.8021078819267
 42
0.0
 10
293.4731734230429
 20
340.3021078819268
 42
0.0
 10
291.973173423043
 20
340.3021078819268
 42
0.0
 97
        0
 92
        7
 72
     1
 73
     1
 93
        5
 10
343.4731734230429
 20
263.8021078819267
 42
0.0
 10
343.4731734230429
 20
262.3021078819268
 42
0.0
 10
365.6091170442217
 20
262.3021078819268
 42
0.0143300044958528
 10
368.2365066162951
 20
263.6465176503732
 42
0.0
 10
365.2676681407467
 20
263.8021078819268
 42
0.0
 97
        0
 75
     0
 76
     0
 52
135.0
 41
2.0
 77
     0
 78
     1
 53
135.0
 43
0.0
 44
-54.42476347630668
 45
-1.414213562373095
 46
-1.414213562373094
 79
     0
 47
0.2730603783753916
 98
        3
 10
394.2914696272956
 20
338.106117581895
 10
292.6411636431867
 20
332.3718498979383
 10
349.2046415116183
 20
263.287573792624
  0
ARC
  5
DAB
102
{ACAD_REACTORS
330
DAF
102
}
330
1E
100
AcDbEntity
  8
SCHRAFF
100
AcDbCircle
 10
291.973173423043
 20
340.3021078819268
 30
0.0
 40
4.0
100
AcDbArc
 50
180.0
 51
270.0
  0
HATCH
  5
DAF
330
1E
100
AcDbEntity
  8
SCHRAFF
100
AcDbHatch
 10
0.0
 20
0.0
 30
0.0
210
0.0
220
0.0
230
1.0
  2
_USER
 70
     0
 71
     1
 91
        1
 92
        7
 72
     1
 73
     1
 93
        3
 10
291.973173423043
 20
336.3021078819268
 42
0.0
 10
291.973173423043
 20
340.3021078819268
 42
0.0
 10
287.973173423043
 20
340.3021078819268
 42
0.4142135623730951
 97
        3
330
B71
330
DAB
330
B4F
 75
     0
 76
     0
 52
0.0
 41
0.1
 77
     0
 78
     1
 53
0.0
 43
0.0
 44
-54.42476347630668
 45
0.0
 46
0.1
 79
     0
 47
0.0456892386500325
 98
        1
 10
290.2569192823021
 20
338.2413053639339
  0
ARC
  5
DB0
102
{ACAD_REACTORS
330
DB7
102
}
330
1E
100
AcDbEntity
  8
SCHRAFF
100
AcDbCircle
 10
394.9731734230431
 20
340.3021078819268
 30
0.0
 40
4.0
100
AcDbArc
 50
321.7147276060849
 51
0.0
  0
ARC
  5
DB1
102
{ACAD_REACTORS
330
DB7
102
}
330
1E
100
AcDbEntity
  8
SCHRAFF
100
AcDbCircle
 10
394.973173423043
 20
335.3454895754491
 30
0.0
 40
4.0
100
AcDbArc
 50
357.0000000000001
 51
38.28527239391402
  0
HATCH
  5
DB7
330
1E
100
AcDbEntity
  8
SCHRAFF
100
AcDbHatch
 10
0.0
 20
0.0
 30
0.0
210
0.0
220
0.0
230
1.0
  2
_USER
 70
     0
 71
     1
 91
        1
 92
        7
 72
     1
 73
     1
 93
        5
 10
394.973173423043
 20
335.3454895754491
 42
0.0
 10
398.9676915620613
 20
335.1361457504773
 42
0.1821151851313181
 10
398.1129160464077
 20
337.8237987286879
 42
0.1686224689836088
 10
398.9731734230431
 20
340.3021078819268
 42
0.0
 10
394.973173423043
 20
340.3021078819268
 42
0.0
 97
        5
330
B71
330
AFB
330
B86
330
DB1
330
DB0
 75
     0
 76
     0
 52
0.0
 41
0.1
 77
     0
 78
     1
 53
0.0
 43
0.0
 44
-54.42476347630668
 45
0.0
 46
0.1
 79
     0
 47
0.0353356738044583
 98
        1
 10
396.3425119189756
 20
338.6405614116411
  0
ARC
  5
DB8
102
{ACAD_REACTORS
330
DBD
102
}
330
1E
100
AcDbEntity
  8
SCHRAFF
100
AcDbCircle
 10
367.160573017199
 20
265.3051006945545
 30
0.0
 40
4.0
100
AcDbArc
 50
228.6552311820619
 51
333.4218215217977
  0
HATCH
  5
DBD
330
1E
100
AcDbEntity
  8
SCHRAFF
100
AcDbHatch
 10
0.0
 20
0.0
 30
0.0
210
0.0
220
0.0
230
1.0
  2
_USER
 70
     0
 71
     1
 91
        1
 92
        7
 72
     1
 73
     1
 93
        4
 10
370.7378718345954
 20
263.5154266541062
 42
0.0
 10
368.2365066162951
 20
263.6465176503732
 42
-0.0143300044958531
 10
365.6091170442217
 20
262.3021078819268
 42
0.0
 10
364.5182191106782
 20
262.3021078819268
 42
0.4918799420913279
 97
        4
330
B7D
330
B30
330
B3F
330
DB8
 75
     0
 76
     0
 52
0.0
 41
0.1
 77
     0
 78
     1
 53
0.0
 43
0.0
 44
-54.42476347630668
 45
0.0
 46
0.1
 79
     0
 47
0.0745357716001903
 98
        1
 10
368.6605517957305
 20
262.5819288643827
  0
DIMENSION
  5
E23
330
1E
100
AcDbEntity
  8
BEM
100
AcDbDimension
  2
*D6
 10
229.1291144372994
 20
262.3021078819268
 30
0.0
 11
222.6291144372994
 21
303.8021078819268
 31
0.0
 70
    32
 71
     5
 42
82.99999999999995
  3
Standard
100
AcDbAlignedDimension
 13
243.650082924546
 23
345.3021078819267
 33
0.0
 14
321.3372298018642
 24
262.3021078819268
 34
0.0
 50
90.0
100
AcDbRotatedDimension
1001
ACAD
1000
DSTYLE
1002
{
1070
    40
1040
2.0
1070
    41
1040
3.5
1070
    42
1040
1.0
1070
    43
1040
7.0
1070
    44
1040
1.0
1070
    73
1070
     0
1070
    74
1070
     0
1070
    77
1070
     1
1070
    78
1070
     8
1070
    79
1070
     2
1070
   140
1040
3.5
1070
   141
1040
1.5
1070
   146
1040
0.5
1070
   147
1040
1.5
1070
   172
1070
     1
1070
   178
1070
     1
1070
   179
1070
     2
1070
   271
1070
     2
1070
   272
1070
     2
1070
   284
1070
     8
1070
   285
1070
     8
1070
   286
1070
     8
1002
}
  0
DIMENSION
  5
E30
330
1E
100
AcDbEntity
  8
BEM
100
AcDbDimension
  2
*D7
 10
639.2115022798757
 20
288.3924547588412
 30
0.0
 11
632.7115022798756
 21
323.8472813203841
 31
0.0
 70
    32
  1
71
 71
     5
 42
70.90965312308554
  3
Standard
100
AcDbAlignedDimension
 13
382.7722115287196
 23
359.3021078819268
 33
0.0
 14
618.7286369118111
 24
288.3924547588412
 34
0.0
 50
90.0
100
AcDbRotatedDimension
1001
ACAD
1000
DSTYLE
1002
{
1070
    40
1040
2.0
1070
    41
1040
3.5
1070
    42
1040
1.0
1070
    43
1040
7.0
1070
    44
1040
1.0
1070
    73
1070
     0
1070
    74
1070
     0
1070
    77
1070
     1
1070
    78
1070
     8
1070
    79
1070
     2
1070
   140
1040
3.5
1070
   141
1040
1.5
1070
   146
1040
0.5
1070
   147
1040
1.5
1070
   172
1070
     1
1070
   178
1070
     1
1070
   179
1070
     2
1070
   271
1070
     2
1070
   272
1070
     2
1070
   284
1070
     8
1070
   285
1070
     8
1070
   286
1070
     8
1002
}
  0
LINE
  5
E5A
330
1E
100
AcDbEntity
  8
BEM
100
AcDbLine
 10
606.7149134518321
 20
288.3924547588413
 30
0.0
 11
595.4731734230429
 21
288.3924547588413
 31
0.0
  0
LINE
  5
F3F
330
1E
100
AcDbEntity
  8
STEMPEL
100
AcDbLine
 10
379.973173423043
 20
325.3021078819268
 30
0.0
 11
379.973173423043
 21
365.3021078819268
 31
0.0
  0
LINE
  5
F40
330
1E
100
AcDbEntity
  8
STEMPEL
100
AcDbLine
 10
376.473173423043
 20
363.3021078819267
 30
0.0
 11
377.7303211247459
 21
325.3021078819267
 31
0.0
  0
LINE
  5
F41
330
1E
100
AcDbEntity
  8
STEMPEL
100
AcDbLine
 10
306.9731734230429
 20
325.3021078819268
 30
0.0
 11
379.973173423043
 21
325.3021078819268
 31
0.0
  0
HATCH
  5
F42
330
1E
100
AcDbEntity
  8
SCHRAFF
100
AcDbHatch
 10
0.0
 20
0.0
 30
0.0
210
0.0
220
0.0
230
1.0
  2
NET
 70
     0
 71
     0
 91
        6
 92
        7
 72
     0
 73
     1
 93
       10
 10
379.9731734230428
 20
365.3021078819269
 10
384.473173423043
 20
365.3021078819268
 10
384.473173423043
 20
370.3021078819268
 10
378.9731734230429
 20
370.3021078819267
 10
378.9731734230429
 20
369.3021078819267
 10
370.3432311081318
 20
369.3021078819267
 10
370.3432311081318
 20
363.3021078819267
 10
376.4731734230429
 20
363.3021078819267
 10
377.7303211247458
 20
325.3021078819267
 10
379.973173423043
 20
325.3021078819268
 97
        0
 92
        7
 72
     0
 73
     1
 93
        4
 10
360.4437361715201
 20
369.3021078819267
 10
356.2010954844008
 20
369.3021078819267
 10
356.2010954844009
 20
363.3021078819267
 10
360.4437361715201
 20
363.3021078819267
 97
        0
 92
        7
 72
     0
 73
     1
 93
        4
 10
343.4731734230429
 20
363.3021078819268
 10
347.751348016095
 20
363.3021078819267
 10
347.751348016095
 20
369.3021078819267
 10
343.4731734230429
 20
369.3021078819267
 97
        0
 92
        7
 72
     0
 73
     1
 93
        4
 10
339.829932911378
 20
363.3021078819268
 10
343.4731734230429
 20
363.3021078819268
 10
343.4731734230429
 20
369.3021078819267
 10
339.829932911378
 20
369.3021078819267
 97
        0
 92
        7
 72
     0
 73
     1
 93
        4
 10
327.916824236939
 20
363.3021078819268
 10
332.1594649240582
 20
363.3021078819268
 10
332.1594649240582
 20
369.3021078819267
 10
327.916824236939
 20
369.3021078819268
 97
        0
 92
        7
 72
     0
 73
     1
 93
       10
 10
318.0173293003272
 20
363.3021078819268
 10
318.0173293003272
 20
369.3021078819268
 10
307.9731734230429
 20
369.3021078819268
 10
307.9731734230429
 20
370.3021078819268
 10
302.4731734230429
 20
370.3021078819268
 10
302.4731734230429
 20
365.3021078819268
 10
306.9731734230429
 20
365.3021078819269
 10
306.9731734230429
 20
325.3021078819267
 10
309.2160257213401
 20
325.3021078819268
 10
310.4731734230429
 20
363.3021078819268
 97
        0
 75
     0
 76
     1
 52
45.0
 41
20.0
 77
     0
 78
     2
 53
45.0
 43
118.4731734230429
 44
-77.58172579097418
 45
-1.767766952966368
 46
1.767766952966368
 79
     0
 53
135.0
 43
118.4731734230429
 44
-77.58172579097418
 45
-1.767766952966368
 46
-1.767766952966368
 79
     0
 47
0.202624019147231
 98
        6
 10
378.5046356834326
 20
366.472334900464
 10
358.63343691171
 20
366.472334900464
 10
345.4535602329505
 20
365.8644625767092
 10
340.7899120829489
 20
366.067086443474
 10
329.6377082184391
 20
366.067086443474
 10
314.8356926110527
 20
365.8644625767092
  0
LINE
  5
F43
330
1E
100
AcDbEntity
  8
STEMPEL
100
AcDbLine
 10
310.4731734230429
 20
363.3021078819268
 30
0.0
 11
309.2160257213401
 21
325.3021078819268
 31
0.0
  0
LINE
  5
F44
330
1E
100
AcDbEntity
  8
STEMPEL
100
AcDbLine
 10
306.9731734230429
 20
325.3021078819268
 30
0.0
 11
306.9731734230429
 21
365.3021078819268
 31
0.0
  0
HATCH
  5
F45
330
1E
100
AcDbEntity
  8
SCHRAFF
100
AcDbHatch
 10
0.0
 20
0.0
 30
0.0
210
0.0
220
0.0
230
1.0
  2
NET
 70
     0
 71
     0
 91
        2
 92
        7
 72
     1
 73
     1
 93
       20
 10
382.2117792378025
 20
357.2728050839975
 42
0.0
 10
381.473173423043
 20
358.5521078819268
 42
0.0
 10
381.7014242204164
 20
358.6838885412331
 42
-0.4859861683436503
 10
382.1872474264141
 20
359.3021078819269
 42
0.0
 10
385.2731734230431
 20
359.3021078819269
 42
0.0
 10
382.7413466558203
 20
363.7931927787593
 42
0.7040385315424561
 10
380.8854271854588
 20
363.4757560595938
 42
0.0
 10
379.973173423043
 20
358.302107881927
 42
0.0
 10
379.973173423043
 20
336.6121014302621
 42
0.0
 10
381.2132735607589
 20
336.6121014302621
 42
0.0088923584128242
 10
381.459823364945
 20
345.4755772696814
 42
-0.7464811088944954
 10
383.148839227212
 20
345.8295478345257
 42
0.0
 10
383.9731734230428
 20
344.3021078819267
 42
0.0
 10
385.773173423043
 20
344.3021078819269
 42
0.0
 10
383.4731734230431
 20
348.3021078819271
 42
0.0
 10
383.4731734230431
 20
348.9021078819269
 42
0.0
 10
384.8731734230431
 20
350.3021078819269
 42
0.0
 10
384.8731734230431
 20
351.3021078819268
 42
0.0
 10
383.473173423043
 20
352.702107881927
 42
0.0
 10
383.4731734230429
 20
353.8071530430176
 42
0.0
 97
        0
 92
        7
 72
     1
 73
     1
 93
       20
 10
306.9731734230429
 20
358.3021078819268
 42
0.0
 10
306.0609196606271
 20
363.4757560595938
 42
0.7040385315423318
 10
304.2050001902656
 20
363.7931927787593
 42
0.0
 10
301.6731734230431
 20
359.3021078819269
 42
0.0
 10
304.7590994196719
 20
359.3021078819269
 42
-0.4859861683437569
 10
305.2449226256696
 20
358.6838885412329
 42
0.0
 10
305.4731734230429
 20
358.5521078819267
 42
0.0
 10
304.7345676082838
 20
357.272805083998
 42
0.0
 10
303.473173423043
 20
353.8071530430177
 42
0.0
 10
303.4731734230429
 20
352.7021078819267
 42
0.0
 10
302.0731734230429
 20
351.3021078819268
 42
0.0
 10
302.0731734230429
 20
350.3021078819268
 42
0.0
 10
303.4731734230429
 20
348.9021078819269
 42
0.0
 10
303.4731734230429
 20
348.3021078819269
 42
0.0
 10
301.1731734230429
 20
344.3021078819269
 42
0.0
 10
302.973173423043
 20
344.3021078819269
 42
0.0
 10
303.7975076188739
 20
345.8295478345257
 42
-0.746481108894445
 10
305.486523481141
 20
345.475577269682
 42
0.0088923584128248
 10
305.7330732853271
 20
336.6121014302621
 42
0.0
 10
306.9731734230429
 20
336.612101430262
 42
0.0
 97
        0
 75
     0
 76
     1
 52
45.0
 41
15.0
 77
     0
 78
     2
 53
45.0
 43
118.4731734230429
 44
-77.58172579097418
 45
-1.325825214724776
 46
1.325825214724776
 79
     0
 53
135.0
 43
118.4731734230429
 44
-77.58172579097418
 45
-1.325825214724776
 46
-1.325825214724776
 79
     0
 47
0.1374415070709692
 98
        2
 10
381.8371274760637
 20
354.28848619382
 10
305.6406775303793
 20
353.3263961771601
  0
LINE
  5
F46
330
1E
100
AcDbEntity
  8
STEMPEL
100
AcDbLine
 10
381.2132735607589
 20
336.6121014302621
 30
0.0
 11
379.973173423043
 21
336.6121014302621
 31
0.0
  0
ARC
  5
F47
330
1E
100
AcDbEntity
  8
STEMPEL
100
AcDbCircle
 10
132.1682581977172
 20
347.9747989743034
 30
0.0
 40
249.3040925710106
100
AcDbArc
 50
357.3876873862747
 51
359.4256120996517
  0
LINE
  5
F48
330
1E
100
AcDbEntity
  8
STEMPEL
100
AcDbLine
 10
379.973173423043
 20
358.3021078819269
 30
0.0
 11
379.973173423043
 21
336.612101430262
 31
0.0
  0
LINE
  5
F49
330
1E
100
AcDbEntity
  8
STEMPEL
100
AcDbLine
 10
383.973173423043
 20
344.3021078819269
 30
0.0
 11
383.148839227212
 21
345.8295478345257
 31
0.0
  0
LINE
  5
F4A
330
1E
100
AcDbEntity
  8
STEMPEL
100
AcDbLine
 10
385.773173423043
 20
344.3021078819269
 30
0.0
 11
381.4452966765851
 21
344.3021078819268
 31
0.0
  0
LINE
  5
F4B
330
1E
100
AcDbEntity
  8
STEMPEL
100
AcDbLine
 10
385.773173423043
 20
344.3021078819269
 30
0.0
 11
383.4731734230431
 21
348.3021078819269
 31
0.0
  0
LINE
  5
F4C
330
1E
100
AcDbEntity
  8
STEMPEL
100
AcDbLine
 10
384.8731734230431
 20
351.3021078819269
 30
0.0
 11
383.473173423043
 21
352.7021078819268
 31
0.0
  0
LINE
  5
F4D
330
1E
100
AcDbEntity
  8
STEMPEL
100
AcDbLine
 10
383.4731734230431
 20
348.9021078819269
 30
0.0
 11
383.4731734230431
 21
348.3021078819269
 31
0.0
  0
LINE
  5
F4E
330
1E
100
AcDbEntity
  8
STEMPEL
100
AcDbLine
 10
384.8731734230431
 20
351.3021078819269
 30
0.0
 11
384.8731734230431
 21
350.3021078819269
 31
0.0
  0
LINE
  5
F4F
330
1E
100
AcDbEntity
  8
STEMPEL
100
AcDbLine
 10
384.8731734230431
 20
350.3021078819269
 30
0.0
 11
383.4731734230431
 21
348.9021078819269
 31
0.0
  0
LINE
  5
F50
330
1E
100
AcDbEntity
  8
STEMPEL
100
AcDbLine
 10
383.473173423043
 20
353.8071530430177
 30
0.0
 11
383.473173423043
 21
352.7021078819268
 31
0.0
  0
LINE
  5
F51
330
1E
100
AcDbEntity
  8
STEMPEL
100
AcDbLine
 10
382.2117792378024
 20
357.2728050839975
 30
0.0
 11
383.473173423043
 21
353.8071530430177
 31
0.0
  0
LINE
  5
F52
330
1E
100
AcDbEntity
  8
STEMPEL
100
AcDbLine
 10
385.2731734230431
 20
359.3021078819269
 30
0.0
 11
382.1872474264141
 21
359.3021078819269
 31
0.0
  0
LINE
  5
F53
330
1E
100
AcDbEntity
  8
STEMPEL
100
AcDbLine
 10
385.2731734230431
 20
359.3021078819269
 30
0.0
 11
382.7413466558203
 21
363.7931927787593
 31
0.0
  0
DIMENSION
  5
F54
330
1E
100
AcDbEntity
  8
BEM
100
AcDbDimension
  2
*D8
 10
384.473173423043
 20
381.6676444708134
 30
0.0
 11
347.4369255229879
 21
381.6676444708134
 31
0.0
 70
   160
 71
     5
 42
82.00000000000006
  3
Standard
100
AcDbAlignedDimension
 13
302.4731734230429
 23
370.3021078819268
 33
0.0
 14
384.473173423043
 24
370.3021078819267
 34
0.0
100
AcDbRotatedDimension
1001
ACAD
1000
DSTYLE
1002
{
1070
    40
1040
2.0
1070
    41
1040
3.5
1070
    42
1040
1.0
1070
    43
1040
7.0
1070
    44
1040
1.0
1070
    73
1070
     0
1070
    74
1070
     0
1070
    77
1070
     1
1070
    78
1070
     8
1070
    79
1070
     2
1070
   140
1040
3.5
1070
   141
1040
1.5
1070
   146
1040
0.5142857142857144
1070
   147
1040
1.5
1070
   172
1070
     1
1070
   178
1070
     1
1070
   179
1070
     2
1070
   271
1070
     2
1070
   272
1070
     2
1070
   284
1070
     8
1070
   285
1070
     8
1070
   286
1070
     8
1002
}
  0
LINE
  5
F55
330
1E
100
AcDbEntity
  8
STEMPEL
100
AcDbLine
 10
379.973173423043
 20
364.3021078819269
 30
0.0
 11
381.870234938471
 21
364.3021078819269
 31
0.0
  0
LINE
  5
F56
330
1E
100
AcDbEntity
  8
STEMPEL
100
AcDbLine
 10
378.9731734230429
 20
369.3021078819267
 30
0.0
 11
378.9731734230429
 21
370.3021078819267
 31
0.0
  0
POINT
  5
F57
330
1E
100
AcDbEntity
  8
SCHRAFF
  6
ByBlock
 62
     0
100
AcDbPoint
 10
376.473173423043
 20
363.3021078819268
 30
0.0
  0
POINT
  5
F58
330
1E
100
AcDbEntity
  8
SCHRAFF
  6
ByBlock
 62
     0
100
AcDbPoint
 10
376.473173423043
 20
363.3021078819268
 30
0.0
  0
LINE
  5
F59
330
1E
100
AcDbEntity
  8
STEMPEL
100
AcDbLine
 10
379.973173423043
 20
365.3021078819268
 30
0.0
 11
384.473173423043
 21
365.3021078819268
 31
0.0
  0
LINE
  5
F5A
330
1E
100
AcDbEntity
  8
STEMPEL
100
AcDbLine
 10
384.473173423043
 20
365.3021078819268
 30
0.0
 11
384.473173423043
 21
370.3021078819267
 31
0.0
  0
LINE
  5
F5B
330
1E
100
AcDbEntity
  8
STEMPEL
100
AcDbLine
 10
370.3432311081318
 20
363.3021078819268
 30
0.0
 11
370.3432311081318
 21
369.3021078819267
 31
0.0
  0
LINE
  5
F5C
330
1E
100
AcDbEntity
  8
STEMPEL
100
AcDbLine
 10
302.4731734230429
 20
370.3021078819268
 30
0.0
 11
384.473173423043
 21
370.3021078819267
 31
0.0
  0
LINE
  5
F5D
330
1E
100
AcDbEntity
  8
STEMPEL
100
AcDbLine
 10
307.9731734230429
 20
369.3021078819268
 30
0.0
 11
378.9731734230429
 21
369.3021078819267
 31
0.0
  0
LINE
  5
F5E
330
1E
100
AcDbEntity
  8
STEMPEL
100
AcDbLine
 10
310.4731734230429
 20
363.3021078819268
 30
0.0
 11
376.473173423043
 21
363.3021078819267
 31
0.0
  0
ARC
  5
F5F
330
1E
100
AcDbEntity
  8
STEMPEL
100
AcDbCircle
 10
381.870234938471
 20
363.3021078819269
 30
0.0
 40
1.0
100
AcDbArc
 50
29.411913665529
 51
169.9999999999981
  0
LINE
  5
F60
330
1E
100
AcDbEntity
  8
STEMPEL
100
AcDbLine
 10
379.973173423043
 20
358.3021078819269
 30
0.0
 11
380.8854271854588
 21
363.4757560595938
 31
0.0
  0
LINE
  5
F61
330
1E
100
AcDbEntity
  8
STEMPEL
100
AcDbLine
 10
360.4437361715201
 20
363.3021078819268
 30
0.0
 11
360.4437361715201
 21
369.3021078819267
 31
0.0
  0
LINE
  5
F62
330
1E
100
AcDbEntity
  8
STEMPEL
100
AcDbLine
 10
356.2010954844008
 20
363.3021078819268
 30
0.0
 11
356.2010954844008
 21
369.3021078819267
 31
0.0
  0
LINE
  5
F63
330
1E
100
AcDbEntity
  8
STEMPEL
100
AcDbLine
 10
347.751348016095
 20
363.3021078819268
 30
0.0
 11
347.751348016095
 21
369.3021078819267
 31
0.0
  0
LINE
  5
F64
330
1E
100
AcDbEntity
  8
STEMPEL
100
AcDbLine
 10
339.829932911378
 20
363.3021078819268
 30
0.0
 11
339.829932911378
 21
369.3021078819267
 31
0.0
  0
LINE
  5
F65
330
1E
100
AcDbEntity
  8
STEMPEL
100
AcDbLine
 10
327.916824236939
 20
363.3021078819268
 30
0.0
 11
327.916824236939
 21
369.3021078819268
 31
0.0
  0
LINE
  5
F66
330
1E
100
AcDbEntity
  8
STEMPEL
100
AcDbLine
 10
332.1594649240582
 20
363.3021078819268
 30
0.0
 11
332.1594649240582
 21
369.3021078819267
 31
0.0
  0
POINT
  5
F67
330
1E
100
AcDbEntity
  8
SCHRAFF
  6
ByBlock
 62
     0
100
AcDbPoint
 10
310.4731734230429
 20
363.3021078819268
 30
0.0
  0
LINE
  5
F68
330
1E
100
AcDbEntity
  8
STEMPEL
100
AcDbLine
 10
318.0173293003272
 20
363.3021078819268
 30
0.0
 11
318.0173293003272
 21
369.3021078819268
 31
0.0
  0
LINE
  5
F69
330
1E
100
AcDbEntity
  8
STEMPEL
100
AcDbLine
 10
307.9731734230429
 20
369.3021078819268
 30
0.0
 11
307.9731734230429
 21
370.3021078819268
 31
0.0
  0
POINT
  5
F6A
330
1E
100
AcDbEntity
  8
SCHRAFF
  6
ByBlock
 62
     0
100
AcDbPoint
 10
302.4731734230429
 20
365.3021078819268
 30
0.0
  0
LINE
  5
F6B
330
1E
100
AcDbEntity
  8
STEMPEL
100
AcDbLine
 10
302.4731734230429
 20
365.3021078819268
 30
0.0
 11
306.9731734230429
 21
365.3021078819268
 31
0.0
  0
LINE
  5
F6C
330
1E
100
AcDbEntity
  8
STEMPEL
100
AcDbLine
 10
302.4731734230429
 20
365.3021078819268
 30
0.0
 11
302.4731734230429
 21
370.3021078819268
 31
0.0
  0
LINE
  5
F6D
330
1E
100
AcDbEntity
  8
STEMPEL
100
AcDbLine
 10
306.9731734230429
 20
358.3021078819269
 30
0.0
 11
306.0609196606271
 21
363.4757560595938
 31
0.0
  0
LINE
  5
F6E
330
1E
100
AcDbEntity
  8
STEMPEL
100
AcDbLine
 10
301.6731734230429
 20
359.3021078819269
 30
0.0
 11
304.2050001902656
 21
363.7931927787593
 31
0.0
  0
ARC
  5
F6F
330
1E
100
AcDbEntity
  8
STEMPEL
100
AcDbCircle
 10
305.0761119076148
 20
363.3021078819269
 30
0.0
 40
1.0
100
AcDbArc
 50
10.00000000000181
 51
150.588086334471
  0
LINE
  5
F70
330
1E
100
AcDbEntity
  8
STEMPEL
100
AcDbLine
 10
305.0761119076148
 20
364.3021078819269
 30
0.0
 11
306.973173423043
 21
364.3021078819269
 31
0.0
  0
LINE
  5
F71
330
1E
100
AcDbEntity
  8
STEMPEL
100
AcDbLine
 10
301.6731734230429
 20
359.3021078819269
 30
0.0
 11
304.7590994196719
 21
359.3021078819269
 31
0.0
  0
ARC
  5
F72
330
1E
100
AcDbEntity
  8
STEMPEL
100
AcDbCircle
 10
304.7590994196719
 20
358.8021078819269
 30
0.0
 40
0.5
100
AcDbArc
 50
346.3235567027674
 51
90.0
  0
LINE
  5
F73
330
1E
100
AcDbEntity
  8
STEMPEL
100
AcDbLine
 10
305.4731734230429
 20
358.5521078819267
 30
0.0
 11
304.1741353173663
 21
359.3021078819268
 31
0.0
  0
LINE
  5
F74
330
1E
100
AcDbEntity
  8
STEMPEL
100
AcDbLine
 10
306.973173423043
 20
336.6121014302621
 30
0.0
 11
305.7330732853271
 21
336.6121014302621
 31
0.0
  0
ARC
  5
F75
330
1E
100
AcDbEntity
  8
STEMPEL
100
AcDbCircle
 10
554.7780886483687
 20
347.9747989743034
 30
0.0
 40
249.3040925710106
100
AcDbArc
 50
180.5743879003482
 51
182.6123126137253
  0
LINE
  5
F76
330
1E
100
AcDbEntity
  8
STEMPEL
100
AcDbLine
 10
304.7345676082838
 20
357.272805083998
 30
0.0
 11
303.4731734230429
 21
353.8071530430177
 31
0.0
  0
LINE
  5
F77
330
1E
100
AcDbEntity
  8
STEMPEL
100
AcDbLine
 10
303.4731734230429
 20
348.9021078819269
 30
0.0
 11
303.4731734230429
 21
348.3021078819269
 31
0.0
  0
LINE
  5
F78
330
1E
100
AcDbEntity
  8
STEMPEL
100
AcDbLine
 10
302.0731734230429
 20
351.3021078819269
 30
0.0
 11
302.0731734230429
 21
350.3021078819269
 31
0.0
  0
LINE
  5
F79
330
1E
100
AcDbEntity
  8
STEMPEL
100
AcDbLine
 10
302.0731734230429
 20
350.3021078819269
 30
0.0
 11
303.4731734230429
 21
348.9021078819269
 31
0.0
  0
LINE
  5
F7A
330
1E
100
AcDbEntity
  8
STEMPEL
100
AcDbLine
 10
302.0731734230429
 20
351.3021078819269
 30
0.0
 11
303.4731734230429
 21
352.7021078819268
 31
0.0
  0
LINE
  5
F7B
330
1E
100
AcDbEntity
  8
STEMPEL
100
AcDbLine
 10
302.9731734230429
 20
344.3021078819269
 30
0.0
 11
303.7975076188739
 21
345.8295478345257
 31
0.0
  0
LINE
  5
F7C
330
1E
100
AcDbEntity
  8
STEMPEL
100
AcDbLine
 10
301.1731734230429
 20
344.3021078819269
 30
0.0
 11
305.5010501695009
 21
344.3021078819269
 31
0.0
  0
LINE
  5
F7D
330
1E
100
AcDbEntity
  8
STEMPEL
100
AcDbLine
 10
301.1731734230429
 20
344.3021078819269
 30
0.0
 11
303.4731734230429
 21
348.3021078819269
 31
0.0
  0
ARC
  5
F7E
330
1E
100
AcDbEntity
  8
STEMPEL
100
AcDbCircle
 10
304.5895272442131
 20
345.4021078819269
 30
0.0
 40
0.9
100
AcDbArc
 50
4.682416862268558
 51
151.6449939715894
  0
LINE
  5
F7F
330
1E
100
AcDbEntity
  8
STEMPEL
100
AcDbLine
 10
306.9731734230429
 20
358.3021078819269
 30
0.0
 11
306.973173423043
 21
336.6121014302621
 31
0.0
  0
LINE
  5
F80
330
1E
100
AcDbEntity
  8
STEMPEL
100
AcDbLine
 10
303.4731734230429
 20
353.8071530430177
 30
0.0
 11
303.4731734230429
 21
352.7021078819268
 31
0.0
  0
LWPOLYLINE
  5
F81
330
1E
100
AcDbEntity
  8
BEM
 62
     1
100
AcDbPolyline
 90
        4
 70
     1
 43
0.0
 10
333.8052540859097
 20
391.6359715815547
 10
333.8052540859097
 20
384.6359715815546
 10
340.8052540859097
 20
384.6359715815546
 10
340.8052540859097
 20
391.6359715815547
  0
ARC
  5
F97
330
1E
100
AcDbEntity
  8
STEMPEL
100
AcDbCircle
 10
382.3568196018729
 20
345.4021078819269
 30
0.0
 40
0.9
100
AcDbArc
 50
28.35500602841055
 51
175.3175831377314
  0
LINE
  5
F98
330
1E
100
AcDbEntity
  8
STEMPEL
100
AcDbLine
 10
306.9731734230428
 20
340.3021078819267
 30
0.0
 11
287.3131462936671
 21
340.3021078819268
 31
0.0
  0
DIMENSION
  5
F99
330
1E
100
AcDbEntity
  8
BEM
100
AcDbDimension
  2
*D9
 10
229.1291144372995
 20
345.3021078819266
 30
0.0
 11
222.6291144372994
 21
357.8021078819268
 31
0.0
 70
    32
 71
     5
 42
25.00000000000017
  3
Standard
100
AcDbAlignedDimension
 13
302.4731734230429
 23
370.3021078819268
 33
0.0
 14
243.650082924546
 24
345.3021078819266
 34
0.0
 50
90.0
100
AcDbRotatedDimension
1001
ACAD
1000
DSTYLE
1002
{
1070
    40
1040
2.0
1070
    41
1040
3.5
1070
    42
1040
1.0
1070
    43
1040
7.0
1070
    44
1040
1.0
1070
    73
1070
     0
1070
    74
1070
     0
1070
    77
1070
     1
1070
    78
1070
     8
1070
    79
1070
     2
1070
   140
1040
3.5
1070
   141
1040
1.5
1070
   146
1040
0.5
1070
   147
1040
1.5
1070
   172
1070
     1
1070
   178
1070
     1
1070
   179
1070
     2
1070
   271
1070
     2
1070
   272
1070
     2
1070
   284
1070
     8
1070
   285
1070
     8
1070
   286
1070
     8
1002
}
  0
TEXT
  5
FBD
330
1E
100
AcDbEntity
  8
TEXT
 62
     1
100
AcDbText
 10
421.9229650050027
 20
424.945688612787
 30
0.0
 40
7.0
  1
EDV-Art.Nr. 15091.000X
 41
0.8
  7
GREEKS
100
AcDbText
  0
LINE
  5
FBE
330
1E
100
AcDbEntity
  8
TEXT
 62
     2
100
AcDbLine
 10
421.3346588907262
 20
433.7781281804211
 30
0.0
 11
526.8420135767895
 21
433.7781281804211
 31
0.0
  0
LINE
  5
FBF
330
1E
100
AcDbEntity
  8
TEXT
 62
     2
100
AcDbLine
 10
421.3346588907262
 20
433.7781281804211
 30
0.0
 11
397.4331082661155
 21
397.2182635656019
 31
0.0
  0
TEXT
  5
FC0
330
1E
100
AcDbEntity
  8
TEXT
 62
     1
100
AcDbText
 10
421.9229650050027
 20
437.768187448735
 30
0.0
 40
7.0
  1
Sieb   82
 41
0.8
  7
GREEKS
100
AcDbText
  0
TEXT
  5
FC1
330
1E
100
AcDbEntity
  8
TEXT
 62
     1
100
AcDbText
 10
460.5161148733771
 20
388.9238955547052
 30
0.0
 40
7.0
  1
Dichtelement DN70
 41
0.8
  7
GREEKS
100
AcDbText
  0
LINE
  5
FC2
330
1E
100
AcDbEntity
  8
TEXT
 62
     2
100
AcDbLine
 10
459.9278087591007
 20
384.9338362863914
 30
0.0
 11
380.6046508718189
 21
350.0224728204665
 31
0.0
  0
LINE
  5
FC3
330
1E
100
AcDbEntity
  8
TEXT
 62
     2
100
AcDbLine
 10
459.9278087591007
 20
384.9338362863914
 30
0.0
 11
565.4351634451639
 21
384.9338362863914
 31
0.0
  0
TEXT
  5
FC4
330
1E
100
AcDbEntity
  8
TEXT
 62
     1
100
AcDbText
 10
460.5161148733771
 20
376.1013967187572
 30
0.0
 40
7.0
  1
EDV-Art.Nr. 00911.070X
 41
0.8
  7
GREEKS
100
AcDbText
  0
LWPOLYLINE
  5
FC5
330
1E
100
AcDbEntity
  8
BEM
 62
     1
100
AcDbPolyline
 90
        4
 70
     1
 43
0.0
 10
442.8990279618055
 20
444.5919085848406
 10
442.8990279618055
 20
437.5919085848407
 10
449.8990279618055
 20
437.5919085848407
 10
449.8990279618055
 20
444.5919085848406
  0
TEXT
  5
FC7
330
1E
100
AcDbEntity
  8
TEXT
 62
     1
100
AcDbText
 10
197.7419098834597
 20
206.5675183827186
 30
0.0
 40
7.0
  1
Ablauftopf DN70
 41
0.8
  7
GREEKS
100
AcDbText
  0
LINE
  5
FC8
330
1E
100
AcDbEntity
  8
TEXT
 62
     2
100
AcDbLine
 10
302.6609584552465
 20
202.5774591144048
 30
0.0
 11
328.4655725995781
 21
263.6493834683641
 31
0.0
  0
LINE
  5
FC9
330
1E
100
AcDbEntity
  8
TEXT
 62
     2
100
AcDbLine
 10
197.1536037691832
 20
202.5774591144048
 30
0.0
 11
302.6609584552465
 21
202.5774591144048
 31
0.0
  0
TEXT
  5
FCA
330
1E
100
AcDbEntity
  8
TEXT
 62
     1
100
AcDbText
 10
197.7419098834597
 20
193.7450195467705
 30
0.0
 40
7.0
  1
EDV-Art.Nr. 15879.070X
 41
0.8
  7
GREEKS
100
AcDbText
  0
LINE
  5
FCB
330
1E
100
AcDbEntity
  8
TEXT
 62
     2
100
AcDbLine
 10
395.5310906604111
 20
394.3089332358802
 30
0.0
 11
377.1197843839025
 21
366.146958499478
 31
0.0
  0
TEXT
  5
FDE
330
1E
100
AcDbEntity
  8
TEXT
 62
     1
100
AcDbText
 10
527.7207679680034
 20
306.6866710039384
 30
0.0
 40
7.0
  1
DN70
 50
357.0
 41
0.8
  7
GREEKS
100
AcDbText
  0
ENDSEC
  0
SECTION
  2
OBJECTS
  0
DICTIONARY
  5
C
330
0
100
AcDbDictionary
281
     1
  3
ACAD_COLOR
350
11A
  3
ACAD_GROUP
350
D
  3
ACAD_LAYOUT
350
19
  3
ACAD_MATERIAL
350
119
  3
ACAD_MLINESTYLE
350
16
  3
ACAD_PLOTSETTINGS
350
18
  3
ACAD_PLOTSTYLENAME
350
E
  3
AcDbVariableDictionary
350
125
  0
DICTIONARY
  5
DB
330
1E
100
AcDbDictionary
280
     1
281
     1
  3
ACAD_LAYOUTSELFREF
360
10F
  0
DICTIONARY
  5
DD
330
1A
100
AcDbDictionary
280
     1
281
     1
  3
ACAD_LAYOUTSELFREF
360
10E
  0
DICTIONARY
  5
11A
102
{ACAD_REACTORS
330
C
102
}
330
C
100
AcDbDictionary
281
     1
  0
DICTIONARY
  5
D
102
{ACAD_REACTORS
330
C
102
}
330
C
100
AcDbDictionary
281
     1
  0
DICTIONARY
  5
19
102
{ACAD_REACTORS
330
C
102
}
330
C
100
AcDbDictionary
281
     1
  3
Layout1
350
1D
  3
Model
350
21
  0
DICTIONARY
  5
119
102
{ACAD_REACTORS
330
C
102
}
330
C
100
AcDbDictionary
281
     1
  0
DICTIONARY
  5
16
102
{ACAD_REACTORS
330
C
102
}
330
C
100
AcDbDictionary
281
     1
  3
Standard
350
17
  0
DICTIONARY
  5
18
102
{ACAD_REACTORS
330
C
102
}
330
C
100
AcDbDictionary
281
     1
  0
ACDBDICTIONARYWDFLT
  5
E
102
{ACAD_REACTORS
330
C
102
}
330
C
100
AcDbDictionary
281
     1
  3
Normal
350
F
100
AcDbDictionaryWithDefault
340
F
  0
DICTIONARY
  5
125
102
{ACAD_REACTORS
330
C
102
}
330
C
100
AcDbDictionary
281
     1
  3
DIMASSOC
350
126
  3
PROJECTNAME
350
127
  0
XRECORD
  5
10F
102
{ACAD_REACTORS
330
DB
102
}
330
DB
100
AcDbXrecord
280
     1
340
1E
  0
XRECORD
  5
10E
102
{ACAD_REACTORS
330
DD
102
}
330
DD
100
AcDbXrecord
280
     1
340
1A
  0
LAYOUT
  5
1D
102
{ACAD_REACTORS
330
19
102
}
330
19
100
AcDbPlotSettings
  1

  2
\\NT_WORK01\HP LaserJet 5000 PCL 6
  4

  6

 40
0.0
 41
0.0
 42
0.0
 43
0.0
 44
0.0
 45
0.0
 46
0.0
 47
0.0
 48
0.0
 49
0.0
140
0.0
141
0.0
142
1.0
143
1.0
 70
   688
 72
     0
 73
     0
 74
     5
  7

 75
    16
147
1.0
 76
     0
 77
     2
 78
   300
148
0.0
149
0.0
100
AcDbLayout
  1
Layout1
 70
     0
 71
     1
 10
0.0
 20
0.0
 11
12.0
 21
9.0
 12
0.0
 22
0.0
 32
0.0
 14
1.000000000000000E+20
 24
1.000000000000000E+20
 34
1.000000000000000E+20
 15
-1.000000000000000E+20
 25
-1.000000000000000E+20
 35
-1.000000000000000E+20
146
0.0
 13
0.0
 23
0.0
 33
0.0
 16
1.0
 26
0.0
 36
0.0
 17
0.0
 27
1.0
 37
0.0
 76
     0
330
1A
  0
LAYOUT
  5
21
102
{ACAD_REACTORS
330
19
102
}
330
19
100
AcDbPlotSettings
  1

  2
none_device
  4
Letter_(8.50_x_11.00_Inches)
  6

 40
6.349999904632568
 41
6.349999904632568
 42
6.350006103515625
 43
6.350006103515625
 44
215.8999938964844
 45
279.3999938964844
 46
0.0
 47
0.0
 48
0.0
 49
0.0
140
0.0
141
0.0
142
1.0
143
1.0
 70
 11952
 72
     0
 73
     1
 74
     0
  7

 75
     0
147
1.0
 76
     0
 77
     2
 78
   300
148
-2639.748624139445
149
484.6119735782792
100
AcDbLayout
  1
Model
 70
     1
 71
     0
 10
0.0
 20
0.0
 11
12.0
 21
9.0
 12
0.0
 22
0.0
 32
0.0
 14
0.0
 24
0.0
 34
0.0
 15
0.0
 25
0.0
 35
0.0
146
0.0
 13
0.0
 23
0.0
 33
0.0
 16
1.0
 26
0.0
 36
0.0
 17
0.0
 27
1.0
 37
0.0
 76
     0
330
1E
  0
MLINESTYLE
  5
17
102
{ACAD_REACTORS
330
16
102
}
330
16
100
AcDbMlineStyle
  2
STANDARD
 70
     0
  3

 62
   256
 51
90.0
 52
90.0
 71
     2
 49
0.5
 62
   256
  6
BYLAYER
 49
-0.5
 62
   256
  6
BYLAYER
  0
ACDBPLACEHOLDER
  5
F
102
{ACAD_REACTORS
330
E
102
}
330
E
  0
DICTIONARYVAR
  5
126
102
{ACAD_REACTORS
330
125
102
}
330
125
100
DictionaryVariables
280
     0
  1
1
  0
DICTIONARYVAR
  5
127
102
{ACAD_REACTORS
330
125
102
}
330
125
100
DictionaryVariables
280
     0
  1

  0
ENDSEC
  0
EOF
