  0
SECTION
  2
HEADER
  9
$ACADVER
  1
AC1018
  9
$ACADMAINTVER
 70
     2
  9
$DWGCODEPAGE
  3
ANSI_1252
  9
$INSBASE
 10
0.0
 20
0.0
 30
0.0
  9
$EXTMIN
 10
-0.02563359212877
 20
-0.0362532231533805
 30
-0.0000000349181948
  9
$EXTMAX
 10
420.0256375038029
 20
594.0362587553789
 30
0.0000000814935746
  9
$LIMMIN
 10
0.0
 20
0.0
  9
$LIMMAX
 10
419.9999999999999
 20
594.0
  9
$ORTHOMODE
 70
     0
  9
$REGENMODE
 70
     1
  9
$FILLMODE
 70
     1
  9
$QTEXTMODE
 70
     0
  9
$MIRRTEXT
 70
     1
  9
$LTSCALE
 40
20.0
  9
$ATTMODE
 70
     1
  9
$TEXTSIZE
 40
3.5
  9
$TRACEWID
 40
0.5
  9
$TEXTSTYLE
  7
STANDARD
  9
$CLAYER
  8
BEM
  9
$CELTYPE
  6
ByLayer
  9
$CECOLOR
 62
   256
  9
$CELTSCALE
 40
1.0
  9
$DISPSILH
 70
     0
  9
$DIMSCALE
 40
2.0
  9
$DIMASZ
 40
3.5
  9
$DIMEXO
 40
1.0
  9
$DIMDLI
 40
7.0
  9
$DIMRND
 40
0.0
  9
$DIMDLE
 40
0.0
  9
$DIMEXE
 40
1.0
  9
$DIMTP
 40
0.0
  9
$DIMTM
 40
0.0
  9
$DIMTXT
 40
3.5
  9
$DIMCEN
 40
1.5
  9
$DIMTSZ
 40
0.0
  9
$DIMTOL
 70
     0
  9
$DIMLIM
 70
     0
  9
$DIMTIH
 70
     0
  9
$DIMTOH
 70
     0
  9
$DIMSE1
 70
     0
  9
$DIMSE2
 70
     0
  9
$DIMTAD
 70
     1
  9
$DIMZIN
 70
     8
  9
$DIMBLK
  1

  9
$DIMASO
 70
     1
  9
$DIMSHO
 70
     0
  9
$DIMPOST
  1

  9
$DIMAPOST
  1

  9
$DIMALT
 70
     0
  9
$DIMALTD
 70
     2
  9
$DIMALTF
 40
25.4
  9
$DIMLFAC
 40
1.0
  9
$DIMTOFL
 70
     1
  9
$DIMTVP
 40
0.0
  9
$DIMTIX
 70
     0
  9
$DIMSOXD
 70
     0
  9
$DIMSAH
 70
     0
  9
$DIMBLK1
  1

  9
$DIMBLK2
  1

  9
$DIMSTYLE
  2
Standard
  9
$DIMCLRD
 70
     0
  9
$DIMCLRE
 70
     0
  9
$DIMCLRT
 70
     1
  9
$DIMTFAC
 40
0.5142857142857144
  9
$DIMGAP
 40
1.5
  9
$DIMJUST
 70
     0
  9
$DIMSD1
 70
     0
  9
$DIMSD2
 70
     0
  9
$DIMTOLJ
 70
     1
  9
$DIMTZIN
 70
     8
  9
$DIMALTZ
 70
     8
  9
$DIMALTTZ
 70
     8
  9
$DIMUPT
 70
     0
  9
$DIMDEC
 70
     2
  9
$DIMTDEC
 70
     2
  9
$DIMALTU
 70
     2
  9
$DIMALTTD
 70
     2
  9
$DIMTXSTY
  7
STANDARD
  9
$DIMAUNIT
 70
     0
  9
$DIMADEC
 70
     2
  9
$DIMALTRND
 40
0.0
  9
$DIMAZIN
 70
     2
  9
$DIMDSEP
 70
    46
  9
$DIMATFIT
 70
     3
  9
$DIMFRAC
 70
     0
  9
$DIMLDRBLK
  1

  9
$DIMLUNIT
 70
     2
  9
$DIMLWD
 70
    -2
  9
$DIMLWE
 70
    -2
  9
$DIMTMOVE
 70
     0
  9
$LUNITS
 70
     2
  9
$LUPREC
 70
     2
  9
$SKETCHINC
 40
1.0
  9
$FILLETRAD
 40
0.0
  9
$AUNITS
 70
     0
  9
$AUPREC
 70
     0
  9
$MENU
  1
ACAD
  9
$ELEVATION
 40
0.0
  9
$PELEVATION
 40
0.0
  9
$THICKNESS
 40
0.0
  9
$LIMCHECK
 70
     0
  9
$CHAMFERA
 40
0.0
  9
$CHAMFERB
 40
0.0
  9
$CHAMFERC
 40
0.0
  9
$CHAMFERD
 40
0.0
  9
$SKPOLY
 70
     0
  9
$TDCREATE
 40
2455397.864709028
  9
$TDUCREATE
 40
2455397.781375695
  9
$TDUPDATE
 40
2455461.485532095
  9
$TDUUPDATE
 40
2455461.402198762
  9
$TDINDWG
 40
0.0817727546
  9
$TDUSRTIMER
 40
0.0817727546
  9
$USRTIMER
 70
     1
  9
$ANGBASE
 50
0.0
  9
$ANGDIR
 70
     0
  9
$PDMODE
 70
     0
  9
$PDSIZE
 40
0.0
  9
$PLINEWID
 40
0.0
  9
$SPLFRAME
 70
     0
  9
$SPLINETYPE
 70
     6
  9
$SPLINESEGS
 70
     8
  9
$HANDSEED
  5
1954
  9
$SURFTAB1
 70
     6
  9
$SURFTAB2
 70
     6
  9
$SURFTYPE
 70
     6
  9
$SURFU
 70
     6
  9
$SURFV
 70
     6
  9
$UCSBASE
  2

  9
$UCSNAME
  2

  9
$UCSORG
 10
0.0
 20
0.0
 30
0.0
  9
$UCSXDIR
 10
1.0
 20
0.0
 30
0.0
  9
$UCSYDIR
 10
0.0
 20
1.0
 30
0.0
  9
$UCSORTHOREF
  2

  9
$UCSORTHOVIEW
 70
     0
  9
$UCSORGTOP
 10
0.0
 20
0.0
 30
0.0
  9
$UCSORGBOTTOM
 10
0.0
 20
0.0
 30
0.0
  9
$UCSORGLEFT
 10
0.0
 20
0.0
 30
0.0
  9
$UCSORGRIGHT
 10
0.0
 20
0.0
 30
0.0
  9
$UCSORGFRONT
 10
0.0
 20
0.0
 30
0.0
  9
$UCSORGBACK
 10
0.0
 20
0.0
 30
0.0
  9
$PUCSBASE
  2

  9
$PUCSNAME
  2

  9
$PUCSORG
 10
0.0
 20
0.0
 30
0.0
  9
$PUCSXDIR
 10
1.0
 20
0.0
 30
0.0
  9
$PUCSYDIR
 10
0.0
 20
1.0
 30
0.0
  9
$PUCSORTHOREF
  2

  9
$PUCSORTHOVIEW
 70
     0
  9
$PUCSORGTOP
 10
0.0
 20
0.0
 30
0.0
  9
$PUCSORGBOTTOM
 10
0.0
 20
0.0
 30
0.0
  9
$PUCSORGLEFT
 10
0.0
 20
0.0
 30
0.0
  9
$PUCSORGRIGHT
 10
0.0
 20
0.0
 30
0.0
  9
$PUCSORGFRONT
 10
0.0
 20
0.0
 30
0.0
  9
$PUCSORGBACK
 10
0.0
 20
0.0
 30
0.0
  9
$USERI1
 70
     0
  9
$USERI2
 70
     0
  9
$USERI3
 70
     0
  9
$USERI4
 70
     0
  9
$USERI5
 70
     0
  9
$USERR1
 40
0.0
  9
$USERR2
 40
0.0
  9
$USERR3
 40
0.0
  9
$USERR4
 40
0.0
  9
$USERR5
 40
0.0
  9
$WORLDVIEW
 70
     1
  9
$SHADEDGE
 70
     3
  9
$SHADEDIF
 70
    70
  9
$TILEMODE
 70
     1
  9
$MAXACTVP
 70
    16
  9
$PINSBASE
 10
0.0
 20
0.0
 30
0.0
  9
$PLIMCHECK
 70
     0
  9
$PEXTMIN
 10
1.000000000000000E+20
 20
1.000000000000000E+20
 30
1.000000000000000E+20
  9
$PEXTMAX
 10
-1.000000000000000E+20
 20
-1.000000000000000E+20
 30
-1.000000000000000E+20
  9
$PLIMMIN
 10
0.0
 20
0.0
  9
$PLIMMAX
 10
12.0
 20
9.0
  9
$UNITMODE
 70
     0
  9
$VISRETAIN
 70
     0
  9
$PLINEGEN
 70
     0
  9
$PSLTSCALE
 70
     0
  9
$TREEDEPTH
 70
  3020
  9
$CMLSTYLE
  2
Standard
  9
$CMLJUST
 70
     0
  9
$CMLSCALE
 40
1.0
  9
$PROXYGRAPHICS
 70
     1
  9
$MEASUREMENT
 70
     0
  9
$CELWEIGHT
370
    -1
  9
$ENDCAPS
280
     0
  9
$JOINSTYLE
280
     0
  9
$LWDISPLAY
290
     0
  9
$INSUNITS
 70
     0
  9
$HYPERLINKBASE
  1

  9
$STYLESHEET
  1
monochrome 1.ctb
  9
$XEDIT
290
     1
  9
$CEPSNTYPE
380
     0
  9
$PSTYLEMODE
290
     1
  9
$FINGERPRINTGUID
  2
{D68B0D02-A558-11D7-B632-000102183313}
  9
$VERSIONGUID
  2
{EF60AA7F-A22D-4D2D-B8E2-D95B13C3C75A}
  9
$EXTNAMES
290
     1
  9
$PSVPSCALE
 40
0.0
  9
$OLESTARTUP
290
     0
  9
$SORTENTS
280
   127
  9
$INDEXCTL
280
     0
  9
$HIDETEXT
280
     0
  9
$XCLIPFRAME
290
     0
  9
$HALOGAP
280
     0
  9
$OBSCOLOR
 70
   257
  9
$OBSLTYPE
280
     0
  9
$INTERSECTIONDISPLAY
280
     0
  9
$INTERSECTIONCOLOR
 70
   257
  9
$DIMASSOC
280
     1
  9
$PROJECTNAME
  1

  0
ENDSEC
  0
SECTION
  2
CLASSES
  0
CLASS
  1
ACDBDICTIONARYWDFLT
  2
AcDbDictionaryWithDefault
  3
ObjectDBX Classes
 90
        0
 91
        1
280
     0
281
     0
  0
CLASS
  1
DICTIONARYVAR
  2
AcDbDictionaryVar
  3
ObjectDBX Classes
 90
        0
 91
        2
280
     0
281
     0
  0
ENDSEC
  0
SECTION
  2
TABLES
  0
TABLE
  2
VPORT
  5
8
330
0
100
AcDbSymbolTable
 70
     2
  0
VPORT
  5
1953
330
8
100
AcDbSymbolTableRecord
100
AcDbViewportTableRecord
  2
*Active
 70
     0
 10
0.0
 20
0.0
 11
1.0
 21
1.0
 12
210.0000019558371
 22
297.0000027661128
 13
0.0
 23
0.0
 14
1.0
 24
1.0
 15
10.0
 25
10.0
 16
0.0
 26
0.0
 36
1.0
 17
0.0
 27
0.0
 37
0.0
 40
598.8698673915487
 41
1.336927223719676
 42
50.0
 43
0.0
 44
0.0
 50
0.0
 51
0.0
 71
     0
 72
  1500
 73
     1
 74
     0
 75
     0
 76
     0
 77
     0
 78
     0
281
     0
 65
     1
110
0.0
120
0.0
130
0.0
111
1.0
121
0.0
131
0.0
112
0.0
122
1.0
132
0.0
 79
     0
146
0.0
  0
ENDTAB
  0
TABLE
  2
LTYPE
  5
5
330
0
100
AcDbSymbolTable
 70
     2
  0
LTYPE
  5
13
330
5
100
AcDbSymbolTableRecord
100
AcDbLinetypeTableRecord
  2
ByBlock
 70
     0
  3

 72
    65
 73
     0
 40
0.0
  0
LTYPE
  5
14
330
5
100
AcDbSymbolTableRecord
100
AcDbLinetypeTableRecord
  2
ByLayer
 70
     0
  3

 72
    65
 73
     0
 40
0.0
  0
LTYPE
  5
15
330
5
100
AcDbSymbolTableRecord
100
AcDbLinetypeTableRecord
  2
Continuous
 70
     0
  3
Solid line
 72
    65
 73
     0
 40
0.0
  0
LTYPE
  5
25
330
5
100
AcDbSymbolTableRecord
100
AcDbLinetypeTableRecord
  2
STRICHPUNKT
 70
     0
  3
__ . __ . __ . __ . __ . __ . __ . __ . __ . __
 72
    65
 73
     4
 40
1.0
 49
0.5
 74
     0
 49
-0.25
 74
     0
 49
0.0
 74
     0
 49
-0.25
 74
     0
  0
ENDTAB
  0
TABLE
  2
LAYER
  5
2
330
0
100
AcDbSymbolTable
 70
     9
  0
LAYER
  5
10
330
2
100
AcDbSymbolTableRecord
100
AcDbLayerTableRecord
  2
0
 70
     0
 62
     7
  6
Continuous
370
    -3
390
F
  0
LAYER
  5
2A
330
2
100
AcDbSymbolTableRecord
100
AcDbLayerTableRecord
  2
VOLL
 70
     0
 62
     1
  6
Continuous
370
    -3
390
F
  0
LAYER
  5
2B
330
2
100
AcDbSymbolTableRecord
100
AcDbLayerTableRecord
  2
HILF
 70
     0
 62
     2
  6
Continuous
370
    -3
390
F
  0
LAYER
  5
2C
330
2
100
AcDbSymbolTableRecord
100
AcDbLayerTableRecord
  2
MITTEL
 70
     0
 62
     2
  6
STRICHPUNKT
370
    -3
390
F
  0
LAYER
  5
2F
330
2
100
AcDbSymbolTableRecord
100
AcDbLayerTableRecord
  2
BEM
 70
     0
 62
     7
  6
Continuous
370
    -3
390
F
  0
LAYER
  5
30
330
2
100
AcDbSymbolTableRecord
100
AcDbLayerTableRecord
  2
STEMPEL
 70
     0
 62
     3
  6
Continuous
370
    -3
390
F
  0
LAYER
  5
31
330
2
100
AcDbSymbolTableRecord
100
AcDbLayerTableRecord
  2
TEXT
 70
     0
 62
     7
  6
Continuous
370
    -3
390
F
  0
LAYER
  5
347
330
2
100
AcDbSymbolTableRecord
100
AcDbLayerTableRecord
  2
DEFPOINTS
 70
     0
 62
     7
  6
Continuous
290
     0
370
    -3
390
F
  0
LAYER
  5
348
330
2
100
AcDbSymbolTableRecord
100
AcDbLayerTableRecord
  2
SCHRAFF
 70
     0
 62
     7
  6
Continuous
370
    -3
390
F
  0
ENDTAB
  0
TABLE
  2
STYLE
  5
3
330
0
100
AcDbSymbolTable
 70
     2
  0
STYLE
  5
11
330
3
100
AcDbSymbolTableRecord
100
AcDbTextStyleTableRecord
  2
STANDARD
 70
     0
 40
0.0
 41
0.8
 50
0.0
 71
     0
 42
3.5
  3
simplex.shx
  4

  0
STYLE
  5
24
330
3
100
AcDbSymbolTableRecord
100
AcDbTextStyleTableRecord
  2
GREEKS
 70
     0
 40
0.0
 41
0.8
 50
0.0
 71
     0
 42
2.5
  3
SIMPLEX.shx
  4

  0
ENDTAB
  0
TABLE
  2
VIEW
  5
6
330
0
100
AcDbSymbolTable
 70
     0
  0
ENDTAB
  0
TABLE
  2
UCS
  5
7
330
0
100
AcDbSymbolTable
 70
     0
  0
ENDTAB
  0
TABLE
  2
APPID
  5
9
330
0
100
AcDbSymbolTable
 70
     1
  0
APPID
  5
12
330
9
100
AcDbSymbolTableRecord
100
AcDbRegAppTableRecord
  2
ACAD
 70
     0
  0
ENDTAB
  0
TABLE
  2
DIMSTYLE
  5
A
330
0
100
AcDbSymbolTable
 70
     1
100
AcDbDimStyleTable
 71
     1
340
9D
  0
DIMSTYLE
105
9D
102
{ACAD_REACTORS
330
44B
330
E10
330
E11
330
E12
330
E13
330
E14
330
E16
330
E17
330
E18
330
18FA
102
}
330
A
100
AcDbSymbolTableRecord
100
AcDbDimStyleTableRecord
  2
Standard
 70
     0
340
11
  0
ENDTAB
  0
TABLE
  2
BLOCK_RECORD
  5
1
330
0
100
AcDbSymbolTable
 70
    11
  0
BLOCK_RECORD
  5
1E
102
{ACAD_XDICTIONARY
360
A0
102
}
330
1
100
AcDbSymbolTableRecord
100
AcDbBlockTableRecord
  2
*Model_Space
340
21
  0
BLOCK_RECORD
  5
1A
102
{ACAD_XDICTIONARY
360
A2
102
}
330
1
100
AcDbSymbolTableRecord
100
AcDbBlockTableRecord
  2
*Paper_Space
340
1D
  0
BLOCK_RECORD
  5
22
330
1
100
AcDbSymbolTableRecord
100
AcDbBlockTableRecord
  2
LOGO
340
0
102
{BLKREFS
331
9B
102
}
  0
BLOCK_RECORD
  5
4F2
330
1
100
AcDbSymbolTableRecord
100
AcDbBlockTableRecord
  2
*D1
340
0
  0
BLOCK_RECORD
  5
E19
330
1
100
AcDbSymbolTableRecord
100
AcDbBlockTableRecord
  2
*D2
340
0
  0
BLOCK_RECORD
  5
E25
330
1
100
AcDbSymbolTableRecord
100
AcDbBlockTableRecord
  2
*D3
340
0
  0
BLOCK_RECORD
  5
E31
330
1
100
AcDbSymbolTableRecord
100
AcDbBlockTableRecord
  2
*D4
340
0
  0
BLOCK_RECORD
  5
E3D
330
1
100
AcDbSymbolTableRecord
100
AcDbBlockTableRecord
  2
*D5
340
0
  0
BLOCK_RECORD
  5
E4B
330
1
100
AcDbSymbolTableRecord
100
AcDbBlockTableRecord
  2
*D6
340
0
  0
BLOCK_RECORD
  5
E57
330
1
100
AcDbSymbolTableRecord
100
AcDbBlockTableRecord
  2
*D7
340
0
  0
BLOCK_RECORD
  5
E63
330
1
100
AcDbSymbolTableRecord
100
AcDbBlockTableRecord
  2
*D8
340
0
  0
BLOCK_RECORD
  5
E6F
330
1
100
AcDbSymbolTableRecord
100
AcDbBlockTableRecord
  2
*D9
340
0
  0
BLOCK_RECORD
  5
18FB
330
1
100
AcDbSymbolTableRecord
100
AcDbBlockTableRecord
  2
*D10
340
0
  0
ENDTAB
  0
ENDSEC
  0
SECTION
  2
BLOCKS
  0
BLOCK
  5
35
330
1E
100
AcDbEntity
  8
0
100
AcDbBlockBegin
  2
*Model_Space
 70
     0
 10
0.0
 20
0.0
 30
0.0
  3
*Model_Space
  1

  0
ENDBLK
  5
36
330
1E
100
AcDbEntity
  8
0
100
AcDbBlockEnd
  0
BLOCK
  5
33
330
1A
100
AcDbEntity
 67
     1
  8
0
100
AcDbBlockBegin
  2
*Paper_Space
 70
     0
 10
0.0
 20
0.0
 30
0.0
  3
*Paper_Space
  1

  0
ENDBLK
  5
34
330
1A
100
AcDbEntity
 67
     1
  8
0
100
AcDbBlockEnd
  0
BLOCK
  5
37
330
22
100
AcDbEntity
  8
0
100
AcDbBlockBegin
  2
LOGO
 70
     0
 10
0.0
 20
0.0
 30
0.0
  3
LOGO
  1

  0
ARC
  5
38
330
22
100
AcDbEntity
  8
0
100
AcDbCircle
 10
11.59973089678112
 20
-9.271599258481501
 30
0.0
 40
4.5
100
AcDbArc
 50
270.0
 51
231.0575587310159
  0
LINE
  5
39
330
22
100
AcDbEntity
  8
0
100
AcDbLine
 10
3.599730896781125
 20
-4.771599258481529
 30
0.0
 11
3.599730896781153
 21
-11.77159925848133
 31
0.0
  0
LINE
  5
3A
330
22
100
AcDbEntity
  8
0
100
AcDbLine
 10
2.599730896781125
 20
-4.771599258481529
 30
0.0
 11
2.599730896781153
 21
-11.77159925848133
 31
0.0
  0
CIRCLE
  5
3B
330
22
100
AcDbEntity
  8
0
100
AcDbCircle
 10
11.59973089678112
 20
-9.271599258481501
 30
0.0
 40
3.5
  0
ARC
  5
3C
330
22
100
AcDbEntity
  8
0
100
AcDbCircle
 10
31.59973089678115
 20
-9.271599258481472
 30
0.0
 40
4.5
100
AcDbArc
 50
270.0
 51
231.0575587310182
  0
LINE
  5
3D
330
22
100
AcDbEntity
  8
0
100
AcDbLine
 10
17.59973089678112
 20
-4.771599258481472
 30
0.0
 11
17.59973089678115
 21
-13.77159925848147
 31
0.0
  0
ARC
  5
3E
330
22
100
AcDbEntity
  8
0
100
AcDbCircle
 10
22.59973089678116
 20
-7.271599258481472
 30
0.0
 40
2.5
100
AcDbArc
 50
293.1161887722295
 51
90.0
  0
CIRCLE
  5
3F
330
22
100
AcDbEntity
  8
0
100
AcDbCircle
 10
31.59973089678115
 20
-9.271599258481472
 30
0.0
 40
3.5
  0
ARC
  5
40
330
22
100
AcDbEntity
  8
0
100
AcDbCircle
 10
4.599730896781153
 20
-11.77159925848133
 30
0.0
 40
1.0
100
AcDbArc
 50
180.0
 51
270.0
  0
ARC
  5
41
330
22
100
AcDbEntity
  8
0
100
AcDbCircle
 10
4.599730896781153
 20
-11.77159925848133
 30
0.0
 40
2.0
100
AcDbArc
 50
179.9999999999992
 51
270.0
  0
LINE
  5
42
330
22
100
AcDbEntity
  8
0
100
AcDbLine
 10
11.59973089678115
 20
-13.77159925848144
 30
0.0
 11
4.599730896781153
 21
-13.77159925848147
 31
0.0
  0
LINE
  5
43
330
22
100
AcDbEntity
  8
0
100
AcDbLine
 10
8.771303772034769
 20
-12.77159925848136
 30
0.0
 11
4.599730896781153
 21
-12.77159925848133
 31
0.0
  0
LINE
  5
44
330
22
100
AcDbEntity
  8
0
100
AcDbLine
 10
31.59973089678115
 20
-13.77159925848147
 30
0.0
 11
23.6715276665056
 21
-13.77159925848144
 31
0.0
  0
LINE
  5
45
330
22
100
AcDbEntity
  8
0
100
AcDbLine
 10
23.56565672307022
 20
-9.51278021337896
 30
0.0
 11
24.4388546544846
 21
-12.77159925848144
 31
0.0
  0
LINE
  5
46
330
22
100
AcDbEntity
  8
0
100
AcDbLine
 10
22.59973089678116
 20
-9.771599258481472
 30
0.0
 11
18.59973089678112
 21
-9.771599258481472
 31
0.0
  0
LINE
  5
47
330
22
100
AcDbEntity
  8
0
100
AcDbLine
 10
18.59973089678115
 20
-13.77159925848144
 30
0.0
 11
17.59973089678115
 21
-13.77159925848144
 31
0.0
  0
LINE
  5
48
330
22
100
AcDbEntity
  8
0
100
AcDbLine
 10
18.59973089678115
 20
-9.771599258481472
 30
0.0
 11
18.59973089678115
 21
-13.77159925848144
 31
0.0
  0
LINE
  5
49
330
22
100
AcDbEntity
  8
0
100
AcDbLine
 10
22.59973089678116
 20
-9.771599258481472
 30
0.0
 11
23.67152766650562
 21
-13.77159925848147
 31
0.0
  0
ARC
  5
4A
330
22
100
AcDbEntity
  8
0
100
AcDbCircle
 10
22.59973089678116
 20
-7.271599258481472
 30
0.0
 40
2.5
100
AcDbArc
 50
270.0
 51
270.0000000000007
  0
LINE
  5
4B
330
22
100
AcDbEntity
  8
0
100
AcDbLine
 10
28.77130377203494
 20
-12.77159925848147
 30
0.0
 11
24.43885465448463
 21
-12.77159925848144
 31
0.0
  0
LINE
  5
4C
330
22
100
AcDbEntity
  8
0
100
AcDbLine
 10
3.599730896781125
 20
-4.771599258481472
 30
0.0
 11
2.599730896781125
 21
-4.771599258481472
 31
0.0
  0
LINE
  5
4D
330
22
100
AcDbEntity
  8
0
100
AcDbLine
 10
22.59973089678116
 20
-8.771599258481472
 30
0.0
 11
18.59973089678115
 21
-8.771599258481472
 31
0.0
  0
LINE
  5
4E
330
22
100
AcDbEntity
  8
0
100
AcDbLine
 10
22.59973089678116
 20
-5.771599258481472
 30
0.0
 11
18.59973089678115
 21
-5.771599258481472
 31
0.0
  0
LINE
  5
4F
330
22
100
AcDbEntity
  8
0
100
AcDbLine
 10
22.59973089678116
 20
-4.771599258481472
 30
0.0
 11
17.59973089678115
 21
-4.771599258481472
 31
0.0
  0
LINE
  5
50
330
22
100
AcDbEntity
  8
0
100
AcDbLine
 10
18.59973089678115
 20
-5.771599258481472
 30
0.0
 11
18.59973089678115
 21
-8.771599258481472
 31
0.0
  0
ARC
  5
51
330
22
100
AcDbEntity
  8
0
100
AcDbCircle
 10
22.59973089678116
 20
-7.271599258481472
 30
0.0
 40
1.5
100
AcDbArc
 50
270.0
 51
90.0
  0
ENDBLK
  5
52
330
22
100
AcDbEntity
  8
0
100
AcDbBlockEnd
  0
BLOCK
  5
4FD
330
4F2
100
AcDbEntity
  8
0
100
AcDbBlockBegin
  2
*D1
 70
     1
 10
0.0
 20
0.0
 30
0.0
  3
*D1
  1

  0
LINE
  5
F0F
330
4F2
100
AcDbEntity
  8
BEM
 62
     0
370
    -2
100
AcDbLine
 10
198.4999999999999
 20
153.3450175792368
 30
0.0
 11
198.4999999999999
 21
127.1774482457402
 31
0.0
  0
LINE
  5
F10
330
4F2
100
AcDbEntity
  8
BEM
 62
     0
370
    -2
100
AcDbLine
 10
251.4999999999999
 20
153.3450175792384
 30
0.0
 11
251.4999999999999
 21
127.1774482457402
 31
0.0
  0
LINE
  5
F11
330
4F2
100
AcDbEntity
  8
BEM
 62
     0
370
    -2
100
AcDbLine
 10
205.4999999999999
 20
129.1774482457402
 30
0.0
 11
244.4999999999999
 21
129.1774482457402
 31
0.0
  0
SOLID
  5
F12
330
4F2
100
AcDbEntity
  8
BEM
 62
     0
100
AcDbTrace
 10
205.4999999999999
 20
130.3441149124068
 30
0.0
 11
205.4999999999999
 21
128.0107815790735
 31
0.0
 12
198.4999999999999
 22
129.1774482457402
 32
0.0
 13
198.4999999999999
 23
129.1774482457402
 33
0.0
  0
SOLID
  5
F13
330
4F2
100
AcDbEntity
  8
BEM
 62
     0
100
AcDbTrace
 10
244.4999999999999
 20
130.3441149124068
 30
0.0
 11
244.4999999999999
 21
128.0107815790735
 31
0.0
 12
251.4999999999999
 22
129.1774482457402
 32
0.0
 13
251.4999999999999
 23
129.1774482457402
 33
0.0
  0
MTEXT
  5
F14
330
4F2
100
AcDbEntity
  8
BEM
 62
     1
100
AcDbMText
 10
224.9999999999999
 20
135.6774482457402
 30
0.0
 40
7.0
 41
0.0
 71
     5
 72
     1
  1
\A1;%%c53
 73
     1
 44
1.0
  0
POINT
  5
F15
330
4F2
100
AcDbEntity
  8
DEFPOINTS
 62
     0
100
AcDbPoint
 10
198.4999999999999
 20
155.3450175792368
 30
0.0
  0
POINT
  5
F16
330
4F2
100
AcDbEntity
  8
DEFPOINTS
 62
     0
100
AcDbPoint
 10
251.4999999999999
 20
155.3450175792384
 30
0.0
  0
POINT
  5
F17
330
4F2
100
AcDbEntity
  8
DEFPOINTS
 62
     0
100
AcDbPoint
 10
251.4999999999999
 20
129.1774482457402
 30
0.0
  0
ENDBLK
  5
4FE
330
4F2
100
AcDbEntity
  8
0
100
AcDbBlockEnd
  0
BLOCK
  5
E23
330
E19
100
AcDbEntity
  8
0
100
AcDbBlockBegin
  2
*D2
 70
     1
 10
0.0
 20
0.0
 30
0.0
  3
*D2
  1

  0
LINE
  5
F06
330
E19
100
AcDbEntity
  8
BEM
 62
     0
370
    -2
100
AcDbLine
 10
197.0249319811554
 20
149.3450175792373
 30
0.0
 11
98.37859105691491
 21
149.3450175792374
 31
0.0
  0
LINE
  5
F07
330
E19
100
AcDbEntity
  8
BEM
 62
     0
370
    -2
100
AcDbLine
 10
123.1769095015029
 20
399.6998918807333
 30
0.0
 11
98.37859105691496
 21
399.6998918807333
 31
0.0
  0
LINE
  5
F08
330
E19
100
AcDbEntity
  8
BEM
 62
     0
370
    -2
100
AcDbLine
 10
100.3785910569149
 20
156.3450175792374
 30
0.0
 11
100.3785910569149
 21
392.6998918807333
 31
0.0
  0
SOLID
  5
F09
330
E19
100
AcDbEntity
  8
BEM
 62
     0
100
AcDbTrace
 10
99.21192439024823
 20
156.3450175792374
 30
0.0
 11
101.5452577235816
 21
156.3450175792374
 31
0.0
 12
100.3785910569149
 22
149.3450175792374
 32
0.0
 13
100.3785910569149
 23
149.3450175792374
 33
0.0
  0
SOLID
  5
F0A
330
E19
100
AcDbEntity
  8
BEM
 62
     0
100
AcDbTrace
 10
99.21192439024828
 20
392.6998918807333
 30
0.0
 11
101.5452577235816
 21
392.6998918807333
 31
0.0
 12
100.3785910569149
 22
399.6998918807333
 32
0.0
 13
100.3785910569149
 23
399.6998918807333
 33
0.0
  0
MTEXT
  5
F0B
330
E19
100
AcDbEntity
  8
BEM
 62
     1
100
AcDbMText
 10
93.87859105691488
 20
274.5224547299854
 30
0.0
 40
7.0
 41
0.0
 71
     5
 72
     1
  1
\A1;250
 11
0.0000000000000001
 21
1.0
 31
0.0
 73
     1
 44
1.0
  0
POINT
  5
F0C
330
E19
100
AcDbEntity
  8
DEFPOINTS
 62
     0
100
AcDbPoint
 10
199.0249319811554
 20
149.3450175792373
 30
0.0
  0
POINT
  5
F0D
330
E19
100
AcDbEntity
  8
DEFPOINTS
 62
     0
100
AcDbPoint
 10
125.1769095015029
 20
399.6998918807333
 30
0.0
  0
POINT
  5
F0E
330
E19
100
AcDbEntity
  8
DEFPOINTS
 62
     0
100
AcDbPoint
 10
100.3785910569149
 20
399.6998918807333
 30
0.0
  0
ENDBLK
  5
E24
330
E19
100
AcDbEntity
  8
0
100
AcDbBlockEnd
  0
BLOCK
  5
E2F
330
E25
100
AcDbEntity
  8
0
100
AcDbBlockBegin
  2
*D3
 70
     1
 10
0.0
 20
0.0
 30
0.0
  3
*D3
  1

  0
LINE
  5
EFD
330
E25
100
AcDbEntity
  8
BEM
 62
     0
370
    -2
100
AcDbLine
 10
123.1769095015029
 20
399.6998918807333
 30
0.0
 11
113.6388088072967
 21
399.6998918807333
 31
0.0
  0
LINE
  5
EFE
330
E25
100
AcDbEntity
  8
BEM
 62
     0
370
    -2
100
AcDbLine
 10
197.9999999999999
 20
338.1748988213224
 30
0.0
 11
113.6388088072967
 21
338.1748988213225
 31
0.0
  0
LINE
  5
EFF
330
E25
100
AcDbEntity
  8
BEM
 62
     0
370
    -2
100
AcDbLine
 10
115.6388088072968
 20
392.6998918807333
 30
0.0
 11
115.6388088072967
 21
345.1748988213225
 31
0.0
  0
SOLID
  5
F00
330
E25
100
AcDbEntity
  8
BEM
 62
     0
100
AcDbTrace
 10
114.4721421406301
 20
392.6998918807333
 30
0.0
 11
116.8054754739634
 21
392.6998918807333
 31
0.0
 12
115.6388088072968
 22
399.6998918807333
 32
0.0
 13
115.6388088072968
 23
399.6998918807333
 33
0.0
  0
SOLID
  5
F01
330
E25
100
AcDbEntity
  8
BEM
 62
     0
100
AcDbTrace
 10
114.4721421406301
 20
345.1748988213225
 30
0.0
 11
116.8054754739634
 21
345.1748988213225
 31
0.0
 12
115.6388088072967
 22
338.1748988213225
 32
0.0
 13
115.6388088072967
 23
338.1748988213225
 33
0.0
  0
MTEXT
  5
F02
330
E25
100
AcDbEntity
  8
BEM
 62
     1
100
AcDbMText
 10
109.1388088072967
 20
368.9373953510279
 30
0.0
 40
7.0
 41
0.0
 71
     5
 72
     1
  1
\A1;61
 11
0.0000000000000001
 21
1.0
 31
0.0
 73
     1
 44
1.0
  0
POINT
  5
F03
330
E25
100
AcDbEntity
  8
DEFPOINTS
 62
     0
100
AcDbPoint
 10
125.1769095015029
 20
399.6998918807333
 30
0.0
  0
POINT
  5
F04
330
E25
100
AcDbEntity
  8
DEFPOINTS
 62
     0
100
AcDbPoint
 10
199.9999999999999
 20
338.1748988213224
 30
0.0
  0
POINT
  5
F05
330
E25
100
AcDbEntity
  8
DEFPOINTS
 62
     0
100
AcDbPoint
 10
115.6388088072967
 20
338.1748988213225
 30
0.0
  0
ENDBLK
  5
E30
330
E25
100
AcDbEntity
  8
0
100
AcDbBlockEnd
  0
BLOCK
  5
E3B
330
E31
100
AcDbEntity
  8
0
100
AcDbBlockBegin
  2
*D4
 70
     1
 10
0.0
 20
0.0
 30
0.0
  3
*D4
  1

  0
LINE
  5
18D3
330
E31
100
AcDbEntity
  8
BEM
 62
     0
370
    -2
100
AcDbLine
 10
124.5549811716036
 20
403.0648846105558
 30
0.0
 11
124.5549811716036
 21
540.3905708905101
 31
0.0
  0
LINE
  5
18D4
330
E31
100
AcDbEntity
  8
BEM
 62
     0
370
    -2
100
AcDbLine
 10
325.4450188283962
 20
403.0648846105558
 30
0.0
 11
325.4450188283962
 21
540.3905708905101
 31
0.0
  0
LINE
  5
18D5
330
E31
100
AcDbEntity
  8
BEM
 62
     0
370
    -2
100
AcDbLine
 10
131.5549811716036
 20
538.3905708905102
 30
0.0
 11
318.4450188283962
 21
538.3905708905102
 31
0.0
  0
SOLID
  5
18D6
330
E31
100
AcDbEntity
  8
BEM
 62
     0
100
AcDbTrace
 10
131.5549811716036
 20
539.5572375571767
 30
0.0
 11
131.5549811716036
 21
537.2239042238435
 31
0.0
 12
124.5549811716036
 22
538.3905708905102
 32
0.0
 13
124.5549811716036
 23
538.3905708905102
 33
0.0
  0
SOLID
  5
18D7
330
E31
100
AcDbEntity
  8
BEM
 62
     0
100
AcDbTrace
 10
318.4450188283962
 20
539.5572375571767
 30
0.0
 11
318.4450188283962
 21
537.2239042238435
 31
0.0
 12
325.4450188283962
 22
538.3905708905102
 32
0.0
 13
325.4450188283962
 23
538.3905708905102
 33
0.0
  0
MTEXT
  5
18D8
330
E31
100
AcDbEntity
  8
BEM
 62
     1
100
AcDbMText
 10
224.9999999999999
 20
544.8905708905101
 30
0.0
 40
7.0
 41
0.0
 71
     5
 72
     1
  1
\A1;%%c201
 73
     1
 44
1.0
  0
POINT
  5
18D9
330
E31
100
AcDbEntity
  8
DEFPOINTS
 62
     0
100
AcDbPoint
 10
124.5549811716036
 20
401.0648846105558
 30
0.0
  0
POINT
  5
18DA
330
E31
100
AcDbEntity
  8
DEFPOINTS
 62
     0
100
AcDbPoint
 10
325.4450188283962
 20
401.0648846105558
 30
0.0
  0
POINT
  5
18DB
330
E31
100
AcDbEntity
  8
DEFPOINTS
 62
     0
100
AcDbPoint
 10
325.4450188283962
 20
538.3905708905102
 30
0.0
  0
ENDBLK
  5
E3C
330
E31
100
AcDbEntity
  8
0
100
AcDbBlockEnd
  0
BLOCK
  5
E49
330
E3D
100
AcDbEntity
  8
0
100
AcDbBlockBegin
  2
*D5
 70
     1
 10
0.0
 20
0.0
 30
0.0
  3
*D5
  1

  0
LINE
  5
EE9
330
E3D
100
AcDbEntity
  8
BEM
 62
     0
370
    -2
100
AcDbLine
 10
123.1769095015029
 20
399.6998918807333
 30
0.0
 11
113.6388088072967
 21
399.6998918807333
 31
0.0
  0
LINE
  5
EEA
330
E3D
100
AcDbEntity
  8
BEM
 62
     0
370
    -2
100
AcDbLine
 10
181.1999999999999
 20
413.6998918807334
 30
0.0
 11
113.6388088072967
 21
413.6998918807334
 31
0.0
  0
LINE
  5
EEB
330
E3D
100
AcDbEntity
  8
BEM
 62
     0
370
    -2
100
AcDbLine
 10
115.6388088072967
 20
392.6998918807333
 30
0.0
 11
115.6388088072967
 21
385.6998918807333
 31
0.0
  0
LINE
  5
EEC
330
E3D
100
AcDbEntity
  8
BEM
 62
     0
370
    -2
100
AcDbLine
 10
115.6388088072968
 20
420.6998918807334
 30
0.0
 11
115.6388088072968
 21
427.6998918807334
 31
0.0
  0
LINE
  5
EED
330
E3D
100
AcDbEntity
  8
BEM
 62
     0
370
    -2
100
AcDbLine
 10
115.6388088072967
 20
399.6998918807333
 30
0.0
 11
115.6388088072967
 21
413.6998918807334
 31
0.0
  0
SOLID
  5
EEE
330
E3D
100
AcDbEntity
  8
BEM
 62
     0
100
AcDbTrace
 10
114.4721421406301
 20
392.6998918807333
 30
0.0
 11
116.8054754739634
 21
392.6998918807333
 31
0.0
 12
115.6388088072967
 22
399.6998918807333
 32
0.0
 13
115.6388088072967
 23
399.6998918807333
 33
0.0
  0
SOLID
  5
EEF
330
E3D
100
AcDbEntity
  8
BEM
 62
     0
100
AcDbTrace
 10
114.4721421406301
 20
420.6998918807334
 30
0.0
 11
116.8054754739634
 21
420.6998918807334
 31
0.0
 12
115.6388088072967
 22
413.6998918807334
 32
0.0
 13
115.6388088072967
 23
413.6998918807334
 33
0.0
  0
MTEXT
  5
EF0
330
E3D
100
AcDbEntity
  8
BEM
 62
     1
100
AcDbMText
 10
109.1388088072967
 20
406.6998918807334
 30
0.0
 40
7.0
 41
0.0
 71
     5
 72
     1
  1
\A1;14
 11
0.0000000000000001
 21
1.0
 31
0.0
 73
     1
 44
1.0
  0
POINT
  5
EF1
330
E3D
100
AcDbEntity
  8
DEFPOINTS
 62
     0
100
AcDbPoint
 10
125.1769095015029
 20
399.6998918807333
 30
0.0
  0
POINT
  5
EF2
330
E3D
100
AcDbEntity
  8
DEFPOINTS
 62
     0
100
AcDbPoint
 10
183.1999999999999
 20
413.6998918807334
 30
0.0
  0
POINT
  5
EF3
330
E3D
100
AcDbEntity
  8
DEFPOINTS
 62
     0
100
AcDbPoint
 10
115.6388088072967
 20
413.6998918807334
 30
0.0
  0
ENDBLK
  5
E4A
330
E3D
100
AcDbEntity
  8
0
100
AcDbBlockEnd
  0
BLOCK
  5
E55
330
E4B
100
AcDbEntity
  8
0
100
AcDbBlockBegin
  2
*D6
 70
     1
 10
0.0
 20
0.0
 30
0.0
  3
*D6
  1

  0
LINE
  5
18DF
330
E4B
100
AcDbEntity
  8
BEM
 62
     0
370
    -2
100
AcDbLine
 10
123.1769095015029
 20
399.6998918807333
 30
0.0
 11
98.37859105691494
 21
399.6998918807333
 31
0.0
  0
LINE
  5
18E0
330
E4B
100
AcDbEntity
  8
BEM
 62
     0
370
    -2
100
AcDbLine
 10
172.5
 20
499.0275346310496
 30
0.0
 11
98.37859105691498
 21
499.0275346310497
 31
0.0
  0
LINE
  5
18E1
330
E4B
100
AcDbEntity
  8
BEM
 62
     0
370
    -2
100
AcDbLine
 10
100.3785910569149
 20
406.6998918807333
 30
0.0
 11
100.378591056915
 21
492.0275346310496
 31
0.0
  0
SOLID
  5
18E2
330
E4B
100
AcDbEntity
  8
BEM
 62
     0
100
AcDbTrace
 10
99.21192439024828
 20
406.6998918807333
 30
0.0
 11
101.5452577235816
 21
406.6998918807333
 31
0.0
 12
100.3785910569149
 22
399.6998918807333
 32
0.0
 13
100.3785910569149
 23
399.6998918807333
 33
0.0
  0
SOLID
  5
18E3
330
E4B
100
AcDbEntity
  8
BEM
 62
     0
100
AcDbTrace
 10
99.2119243902483
 20
492.0275346310496
 30
0.0
 11
101.5452577235816
 21
492.0275346310496
 31
0.0
 12
100.378591056915
 22
499.0275346310497
 32
0.0
 13
100.378591056915
 23
499.0275346310497
 33
0.0
  0
MTEXT
  5
18E4
330
E4B
100
AcDbEntity
  8
BEM
 62
     1
100
AcDbMText
 10
93.87859105691488
 20
449.3637132558915
 30
0.0
 40
7.0
 41
0.0
 71
     5
 72
     1
  1
\A1;min.35 - max.145
 11
0.0000000000000001
 21
1.0
 31
0.0
 73
     1
 44
1.0
  0
POINT
  5
18E5
330
E4B
100
AcDbEntity
  8
DEFPOINTS
 62
     0
100
AcDbPoint
 10
125.1769095015029
 20
399.6998918807333
 30
0.0
  0
POINT
  5
18E6
330
E4B
100
AcDbEntity
  8
DEFPOINTS
 62
     0
100
AcDbPoint
 10
174.5
 20
499.0275346310496
 30
0.0
  0
POINT
  5
18E7
330
E4B
100
AcDbEntity
  8
DEFPOINTS
 62
     0
100
AcDbPoint
 10
100.378591056915
 20
499.0275346310497
 30
0.0
  0
ENDBLK
  5
E56
330
E4B
100
AcDbEntity
  8
0
100
AcDbBlockEnd
  0
BLOCK
  5
E61
330
E57
100
AcDbEntity
  8
0
100
AcDbBlockBegin
  2
*D7
 70
     1
 10
0.0
 20
0.0
 30
0.0
  3
*D7
  1

  0
LINE
  5
1894
330
E57
100
AcDbEntity
  8
BEM
 62
     0
370
    -2
100
AcDbLine
 10
174.5
 20
501.0275346310496
 30
0.0
 11
174.5
 21
510.80509797694
 31
0.0
  0
LINE
  5
1895
330
E57
100
AcDbEntity
  8
BEM
 62
     0
370
    -2
100
AcDbLine
 10
275.4999999999999
 20
501.0275346310496
 30
0.0
 11
275.4999999999999
 21
510.80509797694
 31
0.0
  0
LINE
  5
1896
330
E57
100
AcDbEntity
  8
BEM
 62
     0
370
    -2
100
AcDbLine
 10
181.5
 20
508.80509797694
 30
0.0
 11
268.4999999999999
 21
508.80509797694
 31
0.0
  0
SOLID
  5
1897
330
E57
100
AcDbEntity
  8
BEM
 62
     0
100
AcDbTrace
 10
181.5
 20
509.9717646436067
 30
0.0
 11
181.5
 21
507.6384313102733
 31
0.0
 12
174.5
 22
508.80509797694
 32
0.0
 13
174.5
 23
508.80509797694
 33
0.0
  0
SOLID
  5
1898
330
E57
100
AcDbEntity
  8
BEM
 62
     0
100
AcDbTrace
 10
268.4999999999999
 20
509.9717646436067
 30
0.0
 11
268.4999999999999
 21
507.6384313102733
 31
0.0
 12
275.4999999999999
 22
508.80509797694
 32
0.0
 13
275.4999999999999
 23
508.80509797694
 33
0.0
  0
MTEXT
  5
1899
330
E57
100
AcDbEntity
  8
BEM
 62
     1
100
AcDbMText
 10
230.2245152781838
 20
515.30509797694
 30
0.0
 40
7.0
 41
0.0
 71
     5
 72
     1
  1
\A1;101
 73
     1
 44
1.0
  0
POINT
  5
189A
330
E57
100
AcDbEntity
  8
DEFPOINTS
 62
     0
100
AcDbPoint
 10
174.5
 20
499.0275346310496
 30
0.0
  0
POINT
  5
189B
330
E57
100
AcDbEntity
  8
DEFPOINTS
 62
     0
100
AcDbPoint
 10
275.4999999999999
 20
499.0275346310496
 30
0.0
  0
POINT
  5
189C
330
E57
100
AcDbEntity
  8
DEFPOINTS
 62
     0
100
AcDbPoint
 10
275.4999999999999
 20
508.80509797694
 30
0.0
  0
ENDBLK
  5
E62
330
E57
100
AcDbEntity
  8
0
100
AcDbBlockEnd
  0
BLOCK
  5
E6D
330
E63
100
AcDbEntity
  8
0
100
AcDbBlockBegin
  2
*D8
 70
     1
 10
0.0
 20
0.0
 30
0.0
  3
*D8
  1

  0
LINE
  5
18CA
330
E63
100
AcDbEntity
  8
BEM
 62
     0
370
    -2
100
AcDbLine
 10
161.85327499241
 20
401.8226287282683
 30
0.0
 11
161.85327499241
 21
525.6428765971207
 31
0.0
  0
LINE
  5
18CB
330
E63
100
AcDbEntity
  8
BEM
 62
     0
370
    -2
100
AcDbLine
 10
288.1467250075898
 20
401.8226287282683
 30
0.0
 11
288.1467250075898
 21
525.6428765971207
 31
0.0
  0
LINE
  5
18CC
330
E63
100
AcDbEntity
  8
BEM
 62
     0
370
    -2
100
AcDbLine
 10
168.85327499241
 20
523.6428765971206
 30
0.0
 11
281.1467250075897
 21
523.6428765971206
 31
0.0
  0
SOLID
  5
18CD
330
E63
100
AcDbEntity
  8
BEM
 62
     0
100
AcDbTrace
 10
168.85327499241
 20
524.8095432637873
 30
0.0
 11
168.85327499241
 21
522.476209930454
 31
0.0
 12
161.85327499241
 22
523.6428765971206
 32
0.0
 13
161.85327499241
 23
523.6428765971206
 33
0.0
  0
SOLID
  5
18CE
330
E63
100
AcDbEntity
  8
BEM
 62
     0
100
AcDbTrace
 10
281.1467250075897
 20
524.8095432637873
 30
0.0
 11
281.1467250075897
 21
522.476209930454
 31
0.0
 12
288.1467250075898
 22
523.6428765971206
 32
0.0
 13
288.1467250075898
 23
523.6428765971206
 33
0.0
  0
MTEXT
  5
18CF
330
E63
100
AcDbEntity
  8
BEM
 62
     1
100
AcDbMText
 10
224.9999999999999
 20
530.1428765971206
 30
0.0
 40
7.0
 41
0.0
 71
     5
 72
     1
  1
\A1;%%c126
 73
     1
 44
1.0
  0
POINT
  5
18D0
330
E63
100
AcDbEntity
  8
DEFPOINTS
 62
     0
100
AcDbPoint
 10
161.85327499241
 20
399.8226287282684
 30
0.0
  0
POINT
  5
18D1
330
E63
100
AcDbEntity
  8
DEFPOINTS
 62
     0
100
AcDbPoint
 10
288.1467250075898
 20
399.8226287282684
 30
0.0
  0
POINT
  5
18D2
330
E63
100
AcDbEntity
  8
DEFPOINTS
 62
     0
100
AcDbPoint
 10
288.1467250075898
 20
523.6428765971206
 30
0.0
  0
ENDBLK
  5
E6E
330
E63
100
AcDbEntity
  8
0
100
AcDbBlockEnd
  0
BLOCK
  5
E79
330
E6F
100
AcDbEntity
  8
0
100
AcDbBlockBegin
  2
*D9
 70
     1
 10
0.0
 20
0.0
 30
0.0
  3
*D9
  1

  0
LINE
  5
18C1
330
E6F
100
AcDbEntity
  8
BEM
 62
     0
370
    -2
100
AcDbLine
 10
276.4999999999999
 20
381.1998918807333
 30
0.0
 11
276.4999999999999
 21
317.5192732736643
 31
0.0
  0
LINE
  5
18C2
330
E6F
100
AcDbEntity
  8
BEM
 62
     0
370
    -2
100
AcDbLine
 10
173.4999999999999
 20
381.1998918807333
 30
0.0
 11
173.4999999999999
 21
317.5192732736643
 31
0.0
  0
LINE
  5
18C3
330
E6F
100
AcDbEntity
  8
BEM
 62
     0
370
    -2
100
AcDbLine
 10
269.4999999999999
 20
319.5192732736643
 30
0.0
 11
180.4999999999999
 21
319.5192732736643
 31
0.0
  0
SOLID
  5
18C4
330
E6F
100
AcDbEntity
  8
BEM
 62
     0
100
AcDbTrace
 10
269.4999999999999
 20
320.685939940331
 30
0.0
 11
269.4999999999999
 21
318.3526066069977
 31
0.0
 12
276.4999999999999
 22
319.5192732736643
 32
0.0
 13
276.4999999999999
 23
319.5192732736643
 33
0.0
  0
SOLID
  5
18C5
330
E6F
100
AcDbEntity
  8
BEM
 62
     0
100
AcDbTrace
 10
180.4999999999999
 20
320.685939940331
 30
0.0
 11
180.4999999999999
 21
318.3526066069977
 31
0.0
 12
173.4999999999999
 22
319.5192732736643
 32
0.0
 13
173.4999999999999
 23
319.5192732736643
 33
0.0
  0
MTEXT
  5
18C6
330
E6F
100
AcDbEntity
  8
BEM
 62
     1
100
AcDbMText
 10
224.9999999999999
 20
326.0192732736643
 30
0.0
 40
7.0
 41
0.0
 71
     5
 72
     1
  1
\A1;%%c103
 73
     1
 44
1.0
  0
POINT
  5
18C7
330
E6F
100
AcDbEntity
  8
DEFPOINTS
 62
     0
100
AcDbPoint
 10
276.4999999999999
 20
383.1998918807333
 30
0.0
  0
POINT
  5
18C8
330
E6F
100
AcDbEntity
  8
DEFPOINTS
 62
     0
100
AcDbPoint
 10
173.4999999999999
 20
383.1998918807333
 30
0.0
  0
POINT
  5
18C9
330
E6F
100
AcDbEntity
  8
DEFPOINTS
 62
     0
100
AcDbPoint
 10
173.4999999999999
 20
319.5192732736643
 30
0.0
  0
ENDBLK
  5
E7A
330
E6F
100
AcDbEntity
  8
0
100
AcDbBlockEnd
  0
BLOCK
  5
1907
330
18FB
100
AcDbEntity
  8
0
100
AcDbBlockBegin
  2
*D10
 70
     1
 10
0.0
 20
0.0
 30
0.0
  3
*D10
  1

  0
LINE
  5
18FC
330
18FB
100
AcDbEntity
  8
BEM
 62
     0
370
    -2
100
AcDbLine
 10
172.5
 20
499.0275346310496
 30
0.0
 11
152.711774421615
 21
499.0275346310496
 31
0.0
  0
LINE
  5
18FD
330
18FB
100
AcDbEntity
  8
BEM
 62
     0
370
    -2
100
AcDbLine
 10
172.5
 20
490.0275346310495
 30
0.0
 11
152.711774421615
 21
490.0275346310495
 31
0.0
  0
LINE
  5
18FE
330
18FB
100
AcDbEntity
  8
BEM
 62
     0
370
    -2
100
AcDbLine
 10
154.711774421615
 20
506.0275346310496
 30
0.0
 11
154.711774421615
 21
513.0275346310497
 31
0.0
  0
LINE
  5
18FF
330
18FB
100
AcDbEntity
  8
BEM
 62
     0
370
    -2
100
AcDbLine
 10
154.711774421615
 20
483.0275346310495
 30
0.0
 11
154.711774421615
 21
466.5608679643828
 31
0.0
  0
LINE
  5
1900
330
18FB
100
AcDbEntity
  8
BEM
 62
     0
370
    -2
100
AcDbLine
 10
154.711774421615
 20
499.0275346310496
 30
0.0
 11
154.711774421615
 21
490.0275346310495
 31
0.0
  0
SOLID
  5
1901
330
18FB
100
AcDbEntity
  8
BEM
 62
     0
100
AcDbTrace
 10
153.5451077549483
 20
506.0275346310496
 30
0.0
 11
155.8784410882817
 21
506.0275346310496
 31
0.0
 12
154.711774421615
 22
499.0275346310496
 32
0.0
 13
154.711774421615
 23
499.0275346310496
 33
0.0
  0
SOLID
  5
1902
330
18FB
100
AcDbEntity
  8
BEM
 62
     0
100
AcDbTrace
 10
153.5451077549483
 20
483.0275346310495
 30
0.0
 11
155.8784410882817
 21
483.0275346310495
 31
0.0
 12
154.711774421615
 22
490.0275346310495
 32
0.0
 13
154.711774421615
 23
490.0275346310495
 33
0.0
  0
MTEXT
  5
1903
330
18FB
100
AcDbEntity
  8
BEM
 62
     1
100
AcDbMText
 10
148.2117744216149
 20
471.2942012977162
 30
0.0
 40
7.0
 41
0.0
 71
     5
 72
     1
  1
\A1;9
 11
0.0000000000000001
 21
1.0
 31
0.0
 73
     1
 44
1.0
  0
POINT
  5
1904
330
18FB
100
AcDbEntity
  8
DEFPOINTS
 62
     0
100
AcDbPoint
 10
174.5
 20
499.0275346310496
 30
0.0
  0
POINT
  5
1905
330
18FB
100
AcDbEntity
  8
DEFPOINTS
 62
     0
100
AcDbPoint
 10
174.5
 20
490.0275346310495
 30
0.0
  0
POINT
  5
1906
330
18FB
100
AcDbEntity
  8
DEFPOINTS
 62
     0
100
AcDbPoint
 10
154.711774421615
 20
490.0275346310495
 30
0.0
  0
ENDBLK
  5
1908
330
18FB
100
AcDbEntity
  8
0
100
AcDbBlockEnd
  0
ENDSEC
  0
SECTION
  2
ENTITIES
  0
LINE
  5
57
330
1E
100
AcDbEntity
  8
STEMPEL
100
AcDbLine
 10
410.0
 20
110.0
 30
0.0
 11
39.99999999999997
 21
110.0
 31
0.0
  0
LINE
  5
58
330
1E
100
AcDbEntity
  8
STEMPEL
100
AcDbLine
 10
136.0000000000001
 20
109.9999999999999
 30
0.0
 11
136.0
 21
9.999999999999971
 31
0.0
  0
LINE
  5
59
330
1E
100
AcDbEntity
  8
STEMPEL
100
AcDbLine
 10
220.0
 20
110.0
 30
0.0
 11
220.0
 21
9.999999999999971
 31
0.0
  0
LINE
  5
5A
330
1E
100
AcDbEntity
  8
STEMPEL
100
AcDbLine
 10
332.0
 20
109.9999999999997
 30
0.0
 11
332.0
 21
40.0
 31
0.0
  0
LINE
  5
5B
330
1E
100
AcDbEntity
  8
STEMPEL
100
AcDbLine
 10
135.9999999999999
 20
29.99999999999997
 30
0.0
 11
39.99999999999997
 21
29.99999999999997
 31
0.0
  0
LINE
  5
5C
330
1E
100
AcDbEntity
  8
STEMPEL
100
AcDbLine
 10
410.0
 20
40.0
 30
0.0
 11
136.0000000000001
 21
39.99999999999997
 31
0.0
  0
LINE
  5
5D
330
1E
100
AcDbEntity
  8
STEMPEL
100
AcDbLine
 10
410.0
 20
80.0
 30
0.0
 11
136.0000000000001
 21
79.99999999999994
 31
0.0
  0
LINE
  5
5E
330
1E
100
AcDbEntity
  8
VOLL
100
AcDbLine
 10
54.00000000000009
 20
110.0
 30
0.0
 11
53.99999999999997
 21
9.999999999999971
 31
0.0
  0
LINE
  5
5F
330
1E
100
AcDbEntity
  8
VOLL
100
AcDbLine
 10
94.00000000000011
 20
109.9999999999999
 30
0.0
 11
94.0
 21
9.999999999999971
 31
0.0
  0
LINE
  5
60
330
1E
100
AcDbEntity
  8
VOLL
100
AcDbLine
 10
114.0000000000001
 20
109.9999999999999
 30
0.0
 11
114.0
 21
9.999999999999971
 31
0.0
  0
LINE
  5
61
330
1E
100
AcDbEntity
  8
VOLL
100
AcDbLine
 10
154.0000000000001
 20
79.99999999999994
 30
0.0
 11
154.0000000000001
 21
39.99999999999997
 31
0.0
  0
LINE
  5
62
330
1E
100
AcDbEntity
  8
VOLL
100
AcDbLine
 10
180.0000000000001
 20
109.9999999999998
 30
0.0
 11
180.0
 21
39.99999999999997
 31
0.0
  0
LINE
  5
63
330
1E
100
AcDbEntity
  8
HILF
100
AcDbLine
 10
40.00000000000008
 20
100.0
 30
0.0
 11
136.0000000000001
 21
100.0
 31
0.0
  0
LINE
  5
64
330
1E
100
AcDbEntity
  8
HILF
100
AcDbLine
 10
40.00000000000008
 20
90.00000000000005
 30
0.0
 11
136.0000000000001
 21
90.00000000000005
 31
0.0
  0
LINE
  5
65
330
1E
100
AcDbEntity
  8
HILF
100
AcDbLine
 10
40.00000000000008
 20
79.99999999999994
 30
0.0
 11
136.0000000000001
 21
79.99999999999994
 31
0.0
  0
LINE
  5
66
330
1E
100
AcDbEntity
  8
HILF
100
AcDbLine
 10
40.00000000000008
 20
69.99999999999994
 30
0.0
 11
136.0000000000001
 21
69.99999999999994
 31
0.0
  0
LINE
  5
67
330
1E
100
AcDbEntity
  8
HILF
100
AcDbLine
 10
40.00000000000008
 20
59.99999999999997
 30
0.0
 11
136.0000000000001
 21
59.99999999999997
 31
0.0
  0
LINE
  5
68
330
1E
100
AcDbEntity
  8
HILF
100
AcDbLine
 10
40.00000000000008
 20
49.99999999999997
 30
0.0
 11
136.0000000000001
 21
49.99999999999997
 31
0.0
  0
LINE
  5
69
330
1E
100
AcDbEntity
  8
HILF
100
AcDbLine
 10
40.00000000000008
 20
39.99999999999997
 30
0.0
 11
136.0000000000001
 21
39.99999999999997
 31
0.0
  0
LINE
  5
6A
330
1E
100
AcDbEntity
  8
HILF
100
AcDbLine
 10
136.0000000000001
 20
69.99999999999994
 30
0.0
 11
220.0
 21
69.99999999999994
 31
0.0
  0
LINE
  5
6B
330
1E
100
AcDbEntity
  8
HILF
100
AcDbLine
 10
136.0000000000001
 20
59.99999999999997
 30
0.0
 11
220.0
 21
59.99999999999997
 31
0.0
  0
LINE
  5
6C
330
1E
100
AcDbEntity
  8
HILF
100
AcDbLine
 10
136.0000000000001
 20
49.99999999999997
 30
0.0
 11
220.0
 21
49.99999999999997
 31
0.0
  0
LINE
  5
6D
330
1E
100
AcDbEntity
  8
HILF
100
AcDbLine
 10
224.7736801096948
 20
84.03758247564139
 30
0.0
 11
324.8353916556311
 21
84.03758247564139
 31
0.0
  0
LINE
  5
6E
330
1E
100
AcDbEntity
  8
HILF
100
AcDbLine
 10
224.7736801096948
 20
69.99999999999994
 30
0.0
 11
324.835391655631
 21
69.99999999999994
 31
0.0
  0
LINE
  5
6F
330
1E
100
AcDbEntity
  8
HILF
100
AcDbLine
 10
224.7736801096948
 20
59.99999999999997
 30
0.0
 11
324.835391655631
 21
59.99999999999997
 31
0.0
  0
LINE
  5
70
330
1E
100
AcDbEntity
  8
HILF
100
AcDbLine
 10
224.7736801096948
 20
49.99999999999997
 30
0.0
 11
324.835391655631
 21
49.99999999999997
 31
0.0
  0
LINE
  5
71
330
1E
100
AcDbEntity
  8
VOLL
100
AcDbLine
 10
332.0
 20
60.0
 30
0.0
 11
410.0
 21
60.0
 31
0.0
  0
LINE
  5
72
330
1E
100
AcDbEntity
  8
HILF
100
AcDbLine
 10
336.7238616296993
 20
83.77983636955827
 30
0.0
 11
404.8588839326728
 21
83.77983636955827
 31
0.0
  0
LINE
  5
73
330
1E
100
AcDbEntity
  8
HILF
100
AcDbLine
 10
223.4909699289885
 20
14.89398258028314
 30
0.0
 11
404.8588839326728
 21
14.89398258028314
 31
0.0
  0
TEXT
  5
74
330
1E
100
AcDbEntity
  8
TEXT
100
AcDbText
 10
63.86165979631819
 20
18.67381894984132
 30
0.0
 40
4.0
  1
Änderung
 41
0.8
  7
GREEKS
 72
     1
 11
74.60451693917534
 21
18.67381894984132
 31
0.0
100
AcDbText
  0
TEXT
  5
75
330
1E
100
AcDbEntity
  8
TEXT
100
AcDbText
 10
143.5163572150377
 20
102.4620895087088
 30
0.0
 40
5.0
  1
Maßstab
 41
0.8
  7
GREEKS
100
AcDbText
  0
TEXT
  5
76
330
1E
100
AcDbEntity
  8
TEXT
100
AcDbText
 10
184.2858954734051
 20
102.4184168434819
 30
0.0
 40
5.0
  1
Zul. Abw.
 41
0.8
  7
GREEKS
100
AcDbText
  0
TEXT
  5
77
330
1E
100
AcDbEntity
  8
TEXT
100
AcDbText
 10
224.877940380901
 20
102.5489328011779
 30
0.0
 40
5.0
  1
Benennung
 41
0.8
  7
GREEKS
100
AcDbText
  0
TEXT
  5
78
330
1E
100
AcDbEntity
  8
TEXT
100
AcDbText
 10
336.178754957634
 20
102.3132034537136
 30
0.0
 40
5.0
  1
Zeichnungs Nr.
 41
0.8
  7
GREEKS
100
AcDbText
  0
TEXT
  5
79
330
1E
100
AcDbEntity
  8
TEXT
100
AcDbText
 10
224.742238391136
 20
30.84560570193057
 30
0.0
 40
5.0
  1
Bauvorhaben
 41
0.8
  7
GREEKS
100
AcDbText
  0
TEXT
  5
7A
330
1E
100
AcDbEntity
  8
TEXT
100
AcDbText
 10
336.7238616296993
 20
73.1811823709997
 30
0.0
 40
5.0
  1
Ersatz für:
 41
0.8
  7
GREEKS
100
AcDbText
  0
TEXT
  5
7B
330
1E
100
AcDbEntity
  8
TEXT
100
AcDbText
 10
48.26641107045756
 20
13.65465846027192
 30
0.0
 40
4.0
  1
Index
 50
90.0
 41
0.8
  7
GREEKS
100
AcDbText
  0
TEXT
  5
7C
330
1E
100
AcDbEntity
  8
TEXT
100
AcDbText
 10
100.0934676075481
 20
18.6715626933981
 30
0.0
 40
4.0
  1
Tag
 41
0.8
  7
GREEKS
 72
     1
 11
103.8268009408814
 21
18.6715626933981
 31
0.0
100
AcDbText
  0
TEXT
  5
7D
330
1E
100
AcDbEntity
  8
TEXT
100
AcDbText
 10
119.0122744386592
 20
18.59324216966408
 30
0.0
 40
4.0
  1
Name
 41
0.8
  7
GREEKS
 72
     1
 11
125.3360839624688
 21
18.59324216966408
 31
0.0
100
AcDbText
  0
TEXT
  5
7E
330
1E
100
AcDbEntity
  8
TEXT
100
AcDbText
 10
162.3311673153651
 20
73.31880501229926
 30
0.0
 40
4.0
  1
Tag
 41
0.8
  7
GREEKS
100
AcDbText
  0
TEXT
  5
7F
330
1E
100
AcDbEntity
  8
TEXT
100
AcDbText
 10
192.4626584226295
 20
73.30961091915225
 30
0.0
 40
4.0
  1
Name
 41
0.8
  7
GREEKS
100
AcDbText
  0
TEXT
  5
80
330
1E
100
AcDbEntity
  8
TEXT
100
AcDbText
 10
137.5836127167615
 20
63.62990369617964
 30
0.0
 40
4.0
  1
Gez.
 41
0.8
  7
GREEKS
100
AcDbText
  0
TEXT
  5
81
330
1E
100
AcDbEntity
  8
TEXT
100
AcDbText
 10
137.5515086571672
 20
53.68926291428377
 30
0.0
 40
4.0
  1
Gepr.
 41
0.8
  7
GREEKS
100
AcDbText
  0
TEXT
  5
82
330
1E
100
AcDbEntity
  8
TEXT
100
AcDbText
 10
137.6006777387304
 20
43.52946389649807
 30
0.0
 40
4.0
  1
Norm.
 41
0.8
  7
GREEKS
100
AcDbText
  0
LINE
  5
83
330
1E
100
AcDbEntity
  8
STEMPEL
100
AcDbLine
 10
49.99999999999989
 20
10.0
 30
0.0
 11
410.0
 21
10.0
 31
0.0
  0
TEXT
  5
84
330
1E
100
AcDbEntity
  8
TEXT
100
AcDbText
 10
337.2400861497006
 20
52.07416177878602
 30
0.0
 40
5.0
  1
ersetzt durch:
 41
0.8
  7
GREEKS
100
AcDbText
  0
LINE
  5
85
330
1E
100
AcDbEntity
  8
STEMPEL
100
AcDbLine
 10
410.0
 20
10.0
 30
0.0
 11
39.99999999999989
 21
10.0
 31
0.0
  0
LINE
  5
86
330
1E
100
AcDbEntity
  8
STEMPEL
100
AcDbLine
 10
410.0
 20
10.0
 30
0.0
 11
410.0
 21
584.0
 31
0.0
  0
LINE
  5
87
330
1E
100
AcDbEntity
  8
STEMPEL
100
AcDbLine
 10
40.0
 20
10.0
 30
0.0
 11
39.99999999999989
 21
584.0
 31
0.0
  0
LINE
  5
88
330
1E
100
AcDbEntity
  8
STEMPEL
100
AcDbLine
 10
410.0
 20
584.0
 30
0.0
 11
39.99999999999989
 21
584.0
 31
0.0
  0
LINE
  5
89
330
1E
100
AcDbEntity
  8
HILF
100
AcDbLine
 10
0.0
 20
0.0
 30
0.0
 11
-0.0000000000001137
 21
594.0
 31
0.0
  0
LINE
  5
8A
330
1E
100
AcDbEntity
  8
HILF
100
AcDbLine
 10
419.9999999999999
 20
594.0000000000002
 30
0.0
 11
0.0
 21
594.0
 31
0.0
  0
LINE
  5
8B
330
1E
100
AcDbEntity
  8
HILF
100
AcDbLine
 10
420.0
 20
0.0
 30
0.0
 11
0.0
 21
0.0
 31
0.0
  0
LINE
  5
8C
330
1E
100
AcDbEntity
  8
HILF
100
AcDbLine
 10
31.08767135713856
 20
297.0
 30
0.0
 11
0.0000000000001137
 21
297.0
 31
0.0
  0
TEXT
  5
8D
330
1E
100
AcDbEntity
  8
TEXT
100
AcDbText
 10
138.622109822104
 20
73.14025471151666
 30
0.0
 40
4.0
  1
2006
 41
0.8
  7
GREEKS
100
AcDbText
  0
LINE
  5
8E
330
1E
100
AcDbEntity
  8
HILF
100
AcDbLine
 10
420.0
 20
-0.0000000000001137
 30
0.0
 11
419.9999999999999
 21
594.0
 31
0.0
  0
TEXT
  5
8F
330
1E
100
AcDbEntity
  8
VOLL
100
AcDbText
 10
78.07675471698113
 20
31.02594776470585
 30
0.0
 40
1.8
  1

  7
GREEKS
100
AcDbText
  0
TEXT
  5
90
330
1E
100
AcDbEntity
  8
TEXT
100
AcDbText
 10
41.85509950977674
 20
111.6719999999999
 30
0.0
 40
5.0
  1
Erstellt mit AUTOCAD 2004
 41
0.8
  7
GREEKS
100
AcDbText
  0
TEXT
  5
91
330
1E
100
AcDbEntity
  8
TEXT
100
AcDbText
 10
194.4216048581257
 20
63.0896391972351
 30
0.0
 40
4.0
  1
Koeh
 41
0.8
  7
GREEKS
 72
     1
 11
199.6787477152685
 21
63.0896391972351
 31
0.0
100
AcDbText
  0
TEXT
  5
92
330
1E
100
AcDbEntity
  8
TEXT
 62
     1
100
AcDbText
 10
344.5810507876003
 20
88.14901428913959
 30
0.0
 40
7.0
  1
15672050X
 41
0.8
  7
GREEKS
 72
     1
 11
367.247717454267
 21
88.14901428913959
 31
0.0
100
AcDbText
  0
TEXT
  5
93
330
1E
100
AcDbEntity
  8
TEXT
 62
     1
100
AcDbText
 10
150.5006306481887
 20
88.14901428913959
 30
0.0
 40
7.0
  1
1:2
 41
0.8
  7
GREEKS
100
AcDbText
  0
TEXT
  5
94
330
1E
100
AcDbEntity
  8
TEXT
100
AcDbText
 10
161.0085209177598
 20
63.10765040825732
 30
0.0
 40
4.0
  1
14.12.
 41
0.8
  7
GREEKS
 72
     1
 11
167.4085209177598
 21
63.10765040825732
 31
0.0
100
AcDbText
  0
TEXT
  5
95
330
1E
100
AcDbEntity
  8
TEXT
 62
     1
100
AcDbText
 10
226.8935731057402
 20
87.41748789253779
 30
0.0
 40
7.0
  1
Balkonablauf DN50
 41
0.8
  7
GREEKS
100
AcDbText
  0
TEXT
  5
96
330
1E
100
AcDbEntity
  8
TEXT
100
AcDbText
 10
225.1296391125315
 20
71.50334417585288
 30
0.0
 40
5.0
  1
Kompletteinheit senkrecht
 41
0.8
  7
GREEKS
100
AcDbText
  0
TEXT
  5
98
330
1E
100
AcDbEntity
  8
TEXT
100
AcDbText
 10
225.1296391125315
 20
51.64011943042158
 30
0.0
 40
5.0
  1
EDV-Art.Nr. 15672.050X
 41
0.8
  7
GREEKS
100
AcDbText
  0
TEXT
  5
99
330
1E
100
AcDbEntity
  8
TEXT
100
AcDbText
 10
224.9837501577827
 20
42.62974153022632
 30
0.0
 40
4.0
  1
15672050X.DWG
 41
0.8
  7
GREEKS
100
AcDbText
  0
TEXT
  5
9A
330
1E
100
AcDbEntity
  8
TEXT
100
AcDbText
 10
182.626132208084
 20
90.76363841023022
 30
0.0
 40
4.0
  1
DIN EN1123-2
 41
0.8
  7
GREEKS
 72
     1
 11
199.6166083985602
 21
90.76363841023022
 31
0.0
100
AcDbText
  0
INSERT
  5
9B
330
1E
100
AcDbEntity
  8
STEMPEL
100
AcDbBlockReference
  2
LOGO
 10
140.9955485457794
 20
45.02105276448322
 30
0.0
 41
2.0
 42
2.0
 43
2.0
  0
TEXT
  5
118
330
1E
100
AcDbEntity
  8
BEM
100
AcDbText
 10
417.3022923857165
 20
10.16790107998849
 30
0.0
 40
4.0
  1
Diese Zeichnung ist urheberrechtlich geschützt und bleibt unser Eigentum. Sie darf weder ganz noch teilweise verfielfältigt und nicht an Dritte weitergegeben werden.
 50
90.0
 41
0.8
  7
GREEKS
100
AcDbText
  0
ARC
  5
3DA
330
1E
100
AcDbEntity
  8
STEMPEL
100
AcDbCircle
 10
320.9388987878052
 20
398.1729158823839
 30
0.0
 40
4.5
100
AcDbArc
 50
65.50468174750598
 51
92.36239407091025
  0
ARC
  5
3DB
330
1E
100
AcDbEntity
  8
STEMPEL
100
AcDbCircle
 10
320.9388987878052
 20
398.1729158823839
 30
0.0
 40
3.0
100
AcDbArc
 50
65.50468174750635
 51
92.36239407091025
  0
LINE
  5
3DC
330
1E
100
AcDbEntity
  8
STEMPEL
100
AcDbLine
 10
322.182755447604
 20
400.902901342029
 30
0.0
 11
324.8230904984968
 21
399.6998918807333
 31
0.0
  0
LINE
  5
3DD
330
1E
100
AcDbEntity
  8
STEMPEL
100
AcDbLine
 10
322.8046837775033
 20
402.2678940718517
 30
0.0
 11
325.4450188283962
 21
401.0648846105558
 31
0.0
  0
LINE
  5
3DE
330
1E
100
AcDbEntity
  8
STEMPEL
100
AcDbLine
 10
324.8230904984968
 20
399.6998918807333
 30
0.0
 11
325.4450188283962
 21
401.0648846105558
 31
0.0
  0
ARC
  5
3E1
330
1E
100
AcDbEntity
  8
STEMPEL
100
AcDbCircle
 10
289.440175022769
 20
396.8734380563284
 30
0.0
 40
4.5
100
AcDbArc
 50
92.36239407091025
 51
134.9999999999997
  0
ARC
  5
3E2
330
1E
100
AcDbEntity
  8
STEMPEL
100
AcDbCircle
 10
289.440175022769
 20
396.8734380563284
 30
0.0
 40
3.0
100
AcDbArc
 50
92.36239407091025
 51
134.9999999999994
  0
ARC
  5
3E3
330
1E
100
AcDbEntity
  8
STEMPEL
100
AcDbCircle
 10
281.1600271293755
 20
399.1998918807332
 30
0.0
 40
4.5
100
AcDbArc
 50
270.0
 51
314.9999999999995
  0
ARC
  5
3E4
330
1E
100
AcDbEntity
  8
STEMPEL
100
AcDbCircle
 10
281.1600271293755
 20
399.1998918807332
 30
0.0
 40
3.0
100
AcDbArc
 50
269.9999999999988
 51
314.9999999999997
  0
LINE
  5
3E5
330
1E
100
AcDbEntity
  8
STEMPEL
100
AcDbLine
 10
284.342007644715
 20
396.0179113653937
 30
0.0
 11
287.3188546792095
 21
398.9947583998881
 31
0.0
  0
LINE
  5
3E6
330
1E
100
AcDbEntity
  8
STEMPEL
100
AcDbLine
 10
283.2813474729352
 20
397.0785715371735
 30
0.0
 11
286.2581945074296
 21
400.0554185716679
 31
0.0
  0
LINE
  5
3E7
330
1E
100
AcDbEntity
  8
STEMPEL
100
AcDbLine
 10
262.9999999999998
 20
412.9498918807333
 30
0.0
 11
264.2990381056764
 21
413.6998918807333
 31
0.0
  0
LINE
  5
3E8
330
1E
100
AcDbEntity
  8
MITTEL
100
AcDbLine
 10
268.9019237886464
 20
396.727460016398
 30
0.0
 11
275.3971143170298
 21
400.477460016398
 31
0.0
  0
LINE
  5
3E9
330
1E
100
AcDbEntity
  8
STEMPEL
100
AcDbLine
 10
269.9999999999997
 20
400.8255362277512
 30
0.0
 11
271.2990381056763
 21
401.5755362277512
 31
0.0
  0
LINE
  5
3EA
330
1E
100
AcDbEntity
  8
STEMPEL
100
AcDbLine
 10
273.2305412000661
 20
395.7624868289623
 30
0.0
 11
274.6596473514527
 21
396.5875816501658
 31
0.0
  0
ARC
  5
3EB
330
1E
100
AcDbEntity
  8
STEMPEL
100
AcDbCircle
 10
276.1347186240637
 20
399.1998918807333
 30
0.0
 40
4.5
100
AcDbArc
 50
210.0000000000001
 51
269.999999999998
  0
ARC
  5
3EC
330
1E
100
AcDbEntity
  8
STEMPEL
100
AcDbCircle
 10
276.1347186240637
 20
399.1998918807333
 30
0.0
 40
3.0
100
AcDbArc
 50
210.0
 51
269.999999999998
  0
LINE
  5
3ED
330
1E
100
AcDbEntity
  8
STEMPEL
100
AcDbLine
 10
262.9999999999998
 20
412.9498918807333
 30
0.0
 11
272.2376043070338
 21
396.9498918807334
 31
0.0
  0
LINE
  5
3EE
330
1E
100
AcDbEntity
  8
STEMPEL
100
AcDbLine
 10
264.2990381056764
 20
413.6998918807334
 30
0.0
 11
273.5366424127104
 21
397.6998918807333
 31
0.0
  0
LINE
  5
3F2
330
1E
100
AcDbEntity
  8
STEMPEL
100
AcDbLine
 10
276.5
 20
383.1998918807333
 30
0.0
 11
276.5
 21
394.6998918807334
 31
0.0
  0
LINE
  5
3F3
330
1E
100
AcDbEntity
  8
STEMPEL
100
AcDbLine
 10
275.0
 20
383.199891880734
 30
0.0
 11
274.9999999999999
 21
394.6998918807334
 31
0.0
  0
LINE
  5
3F4
330
1E
100
AcDbEntity
  8
STEMPEL
100
AcDbLine
 10
276.4999999999999
 20
385.639203237362
 30
0.0
 11
276.4999999999998
 21
394.6998918807333
 31
0.0
  0
LINE
  5
3F5
330
1E
100
AcDbEntity
  8
STEMPEL
100
AcDbLine
 10
274.9999999999999
 20
385.7178149062865
 30
0.0
 11
274.9999999999999
 21
393.4521913956995
 31
0.0
  0
LINE
  5
3F6
330
1E
100
AcDbEntity
  8
HILF
100
AcDbLine
 10
287.4999999999999
 20
401.2972240642382
 30
0.0
 11
271.4597217081995
 21
401.2972240642382
 31
0.0
  0
LINE
  5
3F7
330
1E
100
AcDbEntity
  8
STEMPEL
100
AcDbLine
 10
281.1600271293754
 20
396.1998918807332
 30
0.0
 11
276.1347186240636
 21
396.1998918807333
 31
0.0
  0
LINE
  5
3FD
330
1E
100
AcDbEntity
  8
STEMPEL
100
AcDbLine
 10
186.9999999999999
 20
412.9498918807333
 30
0.0
 11
185.7009618943232
 21
413.6998918807333
 31
0.0
  0
LINE
  5
3FE
330
1E
100
AcDbEntity
  8
STEMPEL
100
AcDbLine
 10
180.0
 20
400.8255362277511
 30
0.0
 11
178.7009618943233
 21
401.5755362277511
 31
0.0
  0
LINE
  5
3FF
330
1E
100
AcDbEntity
  8
STEMPEL
100
AcDbLine
 10
186.9999999999999
 20
412.9498918807333
 30
0.0
 11
177.7623956929659
 21
396.9498918807333
 31
0.0
  0
ARC
  5
406
330
1E
100
AcDbEntity
  8
STEMPEL
100
AcDbCircle
 10
253.4999999999999
 20
334.5669782451135
 30
0.0
 40
3.5
100
AcDbArc
 50
173.8085564205933
 51
180.0
  0
ARC
  5
407
330
1E
100
AcDbEntity
  8
STEMPEL
100
AcDbCircle
 10
253.4999999999999
 20
334.5669782451135
 30
0.0
 40
2.0
100
AcDbArc
 50
173.8085564205933
 51
180.0
  0
LINE
  5
408
330
1E
100
AcDbEntity
  8
STEMPEL
100
AcDbLine
 10
250.3948993142533
 20
338.3964423615397
 30
0.0
 11
250.0204152155787
 21
334.9444563610669
 31
0.0
  0
LINE
  5
409
330
1E
100
AcDbEntity
  8
STEMPEL
100
AcDbLine
 10
249.9999999999998
 20
339.8986216915111
 30
0.0
 11
249.9999999999998
 21
338.1748988213224
 31
0.0
  0
LINE
  5
40A
330
1E
100
AcDbEntity
  8
STEMPEL
100
AcDbLine
 10
251.8861499361481
 20
338.2346660261311
 30
0.0
 11
251.5116658374734
 21
334.7826800256584
 31
0.0
  0
LINE
  5
40B
330
1E
100
AcDbEntity
  8
STEMPEL
100
AcDbLine
 10
250.3948993142533
 20
338.3964423615397
 30
0.0
 11
251.8861499361481
 21
338.2346660261311
 31
0.0
  0
LINE
  5
40D
330
1E
100
AcDbEntity
  8
STEMPEL
100
AcDbLine
 10
198.1138500638516
 20
338.2346660261311
 30
0.0
 11
198.4883341625264
 21
334.7826800256584
 31
0.0
  0
ARC
  5
40E
330
1E
100
AcDbEntity
  8
STEMPEL
100
AcDbCircle
 10
196.4999999999999
 20
334.5669782451135
 30
0.0
 40
2.0
100
AcDbArc
 50
0.0
 51
6.191443579406635
  0
ARC
  5
40F
330
1E
100
AcDbEntity
  8
STEMPEL
100
AcDbCircle
 10
196.4999999999999
 20
334.5669782451135
 30
0.0
 40
3.5
100
AcDbArc
 50
0.0
 51
6.191443579406635
  0
LINE
  5
410
330
1E
100
AcDbEntity
  8
STEMPEL
100
AcDbLine
 10
199.6051006857465
 20
338.3964423615397
 30
0.0
 11
199.9795847844211
 21
334.9444563610669
 31
0.0
  0
LINE
  5
411
330
1E
100
AcDbEntity
  8
STEMPEL
100
AcDbLine
 10
199.6051006857465
 20
338.3964423615397
 30
0.0
 11
198.1138500638516
 21
338.2346660261311
 31
0.0
  0
LINE
  5
412
330
1E
100
AcDbEntity
  8
STEMPEL
100
AcDbLine
 10
199.9999999999999
 20
339.8986216915111
 30
0.0
 11
199.9999999999999
 21
338.1748988213224
 31
0.0
  0
LINE
  5
415
330
1E
100
AcDbEntity
  8
STEMPEL
100
AcDbLine
 10
199.9999999999999
 20
338.1748988213224
 30
0.0
 11
249.9999999999998
 21
338.1748988213224
 31
0.0
  0
LINE
  5
416
330
1E
100
AcDbEntity
  8
STEMPEL
100
AcDbLine
 10
199.9999999999999
 20
339.8986216915111
 30
0.0
 11
249.9999999999998
 21
339.8986216915111
 31
0.0
  0
ARC
  5
418
330
1E
100
AcDbEntity
  8
STEMPEL
100
AcDbCircle
 10
224.9999999999999
 20
383.1998918807333
 30
0.0
 40
51.5
100
AcDbArc
 50
299.0411004264532
 51
0.0
  0
ARC
  5
419
330
1E
100
AcDbEntity
  8
STEMPEL
100
AcDbCircle
 10
224.9999999999999
 20
383.1998918807333
 30
0.0
 40
50.0
100
AcDbArc
 50
300.0000000000005
 51
0.0
  0
LINE
  5
41C
330
1E
100
AcDbEntity
  8
STEMPEL
100
AcDbLine
 10
270.665465666671
 20
402.6729158823838
 30
0.0
 11
320.9388987878052
 21
402.6729158823838
 31
0.0
  0
LINE
  5
41F
330
1E
100
AcDbEntity
  8
STEMPEL
100
AcDbLine
 10
288.4346111120666
 20
399.6998918807333
 30
0.0
 11
324.8230904984968
 21
399.6998918807333
 31
0.0
  0
LINE
  5
420
330
1E
100
AcDbEntity
  8
STEMPEL
100
AcDbLine
 10
289.3165154031582
 20
399.8708883559127
 30
0.0
 11
320.8152391681943
 21
401.1703661819681
 31
0.0
  0
LINE
  5
421
330
1E
100
AcDbEntity
  8
STEMPEL
100
AcDbLine
 10
289.2546855933527
 20
401.3696135057047
 30
0.0
 11
320.7534093583889
 21
402.6690913317601
 31
0.0
  0
LINE
  5
423
330
1E
100
AcDbEntity
  8
STEMPEL
100
AcDbLine
 10
173.8652813759359
 20
396.1998918807333
 30
0.0
 11
168.839972870624
 21
396.1998918807334
 31
0.0
  0
LINE
  5
425
330
1E
100
AcDbEntity
  8
STEMPEL
100
AcDbLine
 10
176.7694587999335
 20
395.7624868289622
 30
0.0
 11
175.340352648547
 21
396.5875816501657
 31
0.0
  0
ARC
  5
426
330
1E
100
AcDbEntity
  8
STEMPEL
100
AcDbCircle
 10
173.8652813759359
 20
399.1998918807333
 30
0.0
 40
3.0
100
AcDbArc
 50
270.0
 51
330.0000000000001
  0
LINE
  5
427
330
1E
100
AcDbEntity
  8
STEMPEL
100
AcDbLine
 10
165.6579923552846
 20
396.0179113653938
 30
0.0
 11
162.6811453207903
 21
398.9947583998881
 31
0.0
  0
LINE
  5
428
330
1E
100
AcDbEntity
  8
STEMPEL
100
AcDbLine
 10
166.7186525270644
 20
397.0785715371737
 30
0.0
 11
163.7418054925702
 21
400.0554185716679
 31
0.0
  0
ARC
  5
429
330
1E
100
AcDbEntity
  8
STEMPEL
100
AcDbCircle
 10
160.5598249772306
 20
396.8734380563284
 30
0.0
 40
4.5
100
AcDbArc
 50
45.00000000000057
 51
87.63760592908976
  0
ARC
  5
42A
330
1E
100
AcDbEntity
  8
STEMPEL
100
AcDbCircle
 10
160.5598249772306
 20
396.8734380563284
 30
0.0
 40
3.0
100
AcDbArc
 50
45.00000000000057
 51
87.63760592908976
  0
ARC
  5
42B
330
1E
100
AcDbEntity
  8
STEMPEL
100
AcDbCircle
 10
168.839972870624
 20
399.1998918807334
 30
0.0
 40
4.5
100
AcDbArc
 50
225.0000000000006
 51
270.0
  0
ARC
  5
42C
330
1E
100
AcDbEntity
  8
STEMPEL
100
AcDbCircle
 10
168.839972870624
 20
399.1998918807334
 30
0.0
 40
3.0
100
AcDbArc
 50
225.0000000000003
 51
270.0
  0
LINE
  5
42D
330
1E
100
AcDbEntity
  8
STEMPEL
100
AcDbLine
 10
173.4999999999999
 20
383.1998918807333
 30
0.0
 11
173.4999999999999
 21
394.6998918807334
 31
0.0
  0
LINE
  5
42E
330
1E
100
AcDbEntity
  8
STEMPEL
100
AcDbLine
 10
174.9999999999999
 20
383.1998918807333
 30
0.0
 11
174.9999999999999
 21
394.6998918807334
 31
0.0
  0
ARC
  5
42F
330
1E
100
AcDbEntity
  8
STEMPEL
100
AcDbCircle
 10
129.0611012121944
 20
398.1729158823839
 30
0.0
 40
3.0
100
AcDbArc
 50
87.63760592908976
 51
114.4953182524933
  0
LINE
  5
430
330
1E
100
AcDbEntity
  8
STEMPEL
100
AcDbLine
 10
125.1769095015029
 20
399.6998918807333
 30
0.0
 11
124.5549811716036
 21
401.0648846105558
 31
0.0
  0
LINE
  5
431
330
1E
100
AcDbEntity
  8
STEMPEL
100
AcDbLine
 10
127.1953162224963
 20
402.2678940718516
 30
0.0
 11
124.5549811716036
 21
401.0648846105558
 31
0.0
  0
ARC
  5
432
330
1E
100
AcDbEntity
  8
STEMPEL
100
AcDbCircle
 10
129.0611012121944
 20
398.1729158823839
 30
0.0
 40
4.5
100
AcDbArc
 50
87.63760592908976
 51
114.4953182524947
  0
LINE
  5
433
330
1E
100
AcDbEntity
  8
STEMPEL
100
AcDbLine
 10
127.8172445523957
 20
400.902901342029
 30
0.0
 11
125.1769095015029
 21
399.6998918807333
 31
0.0
  0
LINE
  5
434
330
1E
100
AcDbEntity
  8
STEMPEL
100
AcDbLine
 10
160.6834845968416
 20
399.8708883559127
 30
0.0
 11
129.1847608318053
 21
401.1703661819681
 31
0.0
  0
LINE
  5
435
330
1E
100
AcDbEntity
  8
STEMPEL
100
AcDbLine
 10
160.745314406647
 20
401.3696135057047
 30
0.0
 11
129.2465906416107
 21
402.6690913317601
 31
0.0
  0
LINE
  5
436
330
1E
100
AcDbEntity
  8
STEMPEL
100
AcDbLine
 10
161.5653888879331
 20
399.6998918807333
 30
0.0
 11
125.1769095015029
 21
399.6998918807333
 31
0.0
  0
LINE
  5
439
330
1E
100
AcDbEntity
  8
STEMPEL
100
AcDbLine
 10
129.0611012121944
 20
402.6729158823838
 30
0.0
 11
179.3345343333286
 21
402.6729158823838
 31
0.0
  0
ARC
  5
43B
330
1E
100
AcDbEntity
  8
STEMPEL
100
AcDbCircle
 10
224.9999999999999
 20
383.1998918807333
 30
0.0
 40
51.5
100
AcDbArc
 50
180.0
 51
240.9588995735468
  0
ARC
  5
43C
330
1E
100
AcDbEntity
  8
STEMPEL
100
AcDbCircle
 10
224.9999999999999
 20
383.1998918807333
 30
0.0
 40
50.0
100
AcDbArc
 50
180.0
 51
239.9999999999991
  0
LINE
  5
43E
330
1E
100
AcDbEntity
  8
STEMPEL
100
AcDbLine
 10
281.1600271293755
 20
394.6998918807334
 30
0.0
 11
262.6446368738946
 21
394.6998918807334
 31
0.0
  0
LINE
  5
440
330
1E
100
AcDbEntity
  8
HILF
100
AcDbLine
 10
162.4999999999999
 20
401.2972240642382
 30
0.0
 11
178.5402782918003
 21
401.2972240642382
 31
0.0
  0
LINE
  5
441
330
1E
100
AcDbEntity
  8
STEMPEL
100
AcDbLine
 10
185.7009618943232
 20
413.6998918807333
 30
0.0
 11
176.4633575872892
 21
397.6998918807333
 31
0.0
  0
LINE
  5
442
330
1E
100
AcDbEntity
  8
MITTEL
100
AcDbLine
 10
181.0980762113533
 20
396.7274600163979
 30
0.0
 11
174.6028856829698
 21
400.4774600163978
 31
0.0
  0
ARC
  5
443
330
1E
100
AcDbEntity
  8
STEMPEL
100
AcDbCircle
 10
173.8652813759359
 20
399.1998918807333
 30
0.0
 40
4.5
100
AcDbArc
 50
270.0
 51
330.0000000000001
  0
LINE
  5
447
330
1E
100
AcDbEntity
  8
STEMPEL
100
AcDbLine
 10
251.4999999999999
 20
155.3450175792384
 30
0.0
 11
250.9750680188444
 21
149.3450175792373
 31
0.0
  0
LINE
  5
448
330
1E
100
AcDbEntity
  8
STEMPEL
100
AcDbLine
 10
249.9999999999999
 20
155.3450175792386
 30
0.0
 11
249.4750680188444
 21
149.3450175792375
 31
0.0
  0
LINE
  5
449
330
1E
100
AcDbEntity
  8
STEMPEL
100
AcDbLine
 10
199.9999999999999
 20
155.3450175792359
 30
0.0
 11
200.5249319811553
 21
149.3450175792375
 31
0.0
  0
LINE
  5
44A
330
1E
100
AcDbEntity
  8
STEMPEL
100
AcDbLine
 10
198.4999999999999
 20
155.3450175792368
 30
0.0
 11
199.0249319811554
 21
149.3450175792373
 31
0.0
  0
DIMENSION
  5
44B
330
1E
100
AcDbEntity
  8
BEM
100
AcDbDimension
  2
*D1
 10
251.4999999999999
 20
129.1774482457402
 30
0.0
 11
224.9999999999999
 21
135.6774482457402
 31
0.0
 70
    32
  1
%%c<>
 71
     5
 42
53.0
  3
Standard
100
AcDbAlignedDimension
 13
198.4999999999999
 23
155.3450175792368
 33
0.0
 14
251.4999999999999
 24
155.3450175792384
 34
0.0
100
AcDbRotatedDimension
1001
ACAD
1000
DSTYLE
1002
{
1070
    40
1040
2.0
1070
    41
1040
3.5
1070
    42
1040
1.0
1070
    43
1040
7.0
1070
    44
1040
1.0
1070
    73
1070
     0
1070
    74
1070
     0
1070
    77
1070
     1
1070
    78
1070
     8
1070
    79
1070
     2
1070
   140
1040
3.5
1070
   141
1040
1.5
1070
   146
1040
0.5142857142857144
1070
   147
1040
1.5
1070
   172
1070
     1
1070
   178
1070
     1
1070
   179
1070
     2
1070
   271
1070
     2
1070
   272
1070
     2
1070
   284
1070
     8
1070
   285
1070
     8
1070
   286
1070
     8
1002
}
  0
LINE
  5
44C
330
1E
100
AcDbEntity
  8
STEMPEL
100
AcDbLine
 10
250.9750680188444
 20
149.3450175792376
 30
0.0
 11
199.0249319811554
 21
149.3450175792373
 31
0.0
  0
LINE
  5
44D
330
1E
100
AcDbEntity
  8
HILF
100
AcDbLine
 10
249.6087500136773
 20
155.3450175792374
 30
0.0
 11
200.2037670957945
 21
155.3450175792374
 31
0.0
  0
LINE
  5
454
330
1E
100
AcDbEntity
  8
MITTEL
100
AcDbLine
 10
224.9999999999999
 20
504.0275346310495
 30
0.0
 11
225.0
 21
332.0270778750189
 31
0.0
  0
LINE
  5
455
330
1E
100
AcDbEntity
  8
STEMPEL
100
AcDbLine
 10
251.4999999999999
 20
334.6751445981598
 30
0.0
 11
251.4999999999999
 21
155.3450175792384
 31
0.0
  0
LINE
  5
456
330
1E
100
AcDbEntity
  8
STEMPEL
100
AcDbLine
 10
249.9999999999999
 20
334.6751445981598
 30
0.0
 11
249.9999999999999
 21
155.3450175792386
 31
0.0
  0
LINE
  5
457
330
1E
100
AcDbEntity
  8
STEMPEL
100
AcDbLine
 10
199.9999999999998
 20
334.5669782451135
 30
0.0
 11
199.9999999999999
 21
155.3450175792359
 31
0.0
  0
LINE
  5
458
330
1E
100
AcDbEntity
  8
STEMPEL
100
AcDbLine
 10
198.4999999999999
 20
334.5669782451135
 30
0.0
 11
198.4999999999999
 21
155.3450175792368
 31
0.0
  0
TEXT
  5
7F5
330
1E
100
AcDbEntity
  8
TEXT
 62
     1
100
AcDbText
 10
347.247717454267
 20
62.63642917653806
 30
0.0
 40
7.0
  1
15672X50
 41
0.8
  7
GREEKS
 72
     1
 11
367.247717454267
 21
62.63642917653806
 31
0.0
100
AcDbText
  0
HATCH
  5
824
330
1E
100
AcDbEntity
  8
SCHRAFF
100
AcDbHatch
 10
0.0
 20
0.0
 30
0.0
210
0.0
220
0.0
230
1.0
  2
_USER
 70
     0
 71
     0
 91
        2
 92
        7
 72
     1
 73
     1
 93
        9
 10
251.5
 20
334.6751445981599
 42
0.0
 10
251.8861499361481
 20
338.2346660261311
 42
0.0
 10
250.3948993142533
 20
338.3964423615396
 42
0.0
 10
250.0204152155787
 20
334.9444563610669
 42
0.0270218430346072
 10
249.9999999999999
 20
334.5669782451131
 42
0.0
 10
249.9999999999999
 20
155.345017579239
 42
0.0
 10
249.4750680188444
 20
149.3450175792376
 42
0.0
 10
250.9750680188444
 20
149.3450175792376
 42
0.0
 10
251.4999999999999
 20
155.3450175792382
 42
0.0
 97
        0
 92
        7
 72
     1
 73
     1
 93
        9
 10
199.9999999999998
 20
334.5669782451135
 42
0.0270218430345783
 10
199.9795847844211
 20
334.9444563610669
 42
0.0
 10
199.6051006857465
 20
338.3964423615396
 42
0.0
 10
198.1138500638516
 20
338.2346660261311
 42
0.0
 10
198.4999999999999
 20
334.6751445981598
 42
0.0
 10
198.4999999999999
 20
155.3450175792368
 42
0.0
 10
199.0249319811555
 20
149.3450175792374
 42
0.0
 10
200.5249319811553
 20
149.3450175792374
 42
0.0
 10
200.0
 20
155.3450175792355
 42
0.0
 97
        0
 75
     0
 76
     0
 52
45.0
 41
2.0
 77
     0
 78
     1
 53
45.0
 43
17.73343128150421
 44
-43.77744091991417
 45
-1.414213562373094
 46
1.414213562373095
 79
     0
 47
0.5682962119908149
 98
        2
 10
250.5000061959031
 20
318.9120132081393
 10
199.3171723742385
 20
310.955865628737
  0
HATCH
  5
851
330
1E
100
AcDbEntity
  8
SCHRAFF
100
AcDbHatch
 10
0.0
 20
0.0
 30
0.0
210
0.0
220
0.0
230
1.0
  2
_USER
 70
     0
 71
     0
 91
        4
 92
        7
 72
     1
 73
     1
 93
       18
 10
284.342007644715
 20
396.0179113653936
 42
0.0
 10
287.3188546792095
 20
398.9947583998881
 42
-0.1882181836573042
 10
289.3165154031583
 20
399.8708883559127
 42
0.0
 10
320.8152391681943
 20
401.1703661819681
 42
-0.1177283015268956
 10
322.182755447604
 20
400.902901342029
 42
0.0
 10
324.8230904984968
 20
399.6998918807332
 42
0.0
 10
325.4450188283962
 20
401.0648846105558
 42
0.0
 10
322.8046837775033
 20
402.2678940718517
 42
0.1177283015268987
 10
320.7534093583889
 20
402.6690913317601
 42
0.0
 10
289.2546855933527
 20
401.3696135057047
 42
0.1882181836572899
 10
286.2581945074296
 20
400.0554185716679
 42
0.0
 10
283.2813474729352
 20
397.0785715371735
 42
-0.198912367379672
 10
281.1600271293754
 20
396.1998918807332
 42
0.0
 10
276.1347186240636
 20
396.1998918807333
 42
-0.1292196001266739
 10
274.6596473514544
 20
396.5875816501668
 42
0.0
 10
273.230541200066
 20
395.7624868289622
 42
0.1771982469998009
 10
276.1347186240637
 20
394.6998918807334
 42
0.0
 10
281.1600271293755
 20
394.6998918807334
 42
0.1989123673796467
 97
        0
 92
        7
 72
     0
 73
     1
 93
        4
 10
264.2990381056764
 20
413.6998918807333
 10
262.9999999999998
 20
412.9498918807334
 10
269.9999999999998
 20
400.8255362277512
 10
271.2990381056765
 20
401.5755362277511
 97
        0
 92
        7
 72
     0
 73
     1
 93
        4
 10
186.9999999999999
 20
412.9498918807334
 10
185.7009618943232
 20
413.6998918807332
 10
178.7009618943232
 20
401.5755362277512
 10
180.0
 20
400.8255362277512
 97
        0
 92
        7
 72
     1
 73
     1
 93
       18
 10
176.7694587999335
 20
395.7624868289622
 42
0.0
 10
175.3403526485451
 20
396.5875816501667
 42
-0.1292196001266748
 10
173.8652813759359
 20
396.1998918807333
 42
0.0
 10
168.839972870624
 20
396.1998918807334
 42
-0.1989123673796638
 10
166.7186525270643
 20
397.0785715371738
 42
0.0
 10
163.7418054925702
 20
400.0554185716679
 42
0.1882181836572901
 10
160.7453144066471
 20
401.3696135057047
 42
0.0
 10
129.2465906416107
 20
402.6690913317601
 42
0.1177283015269151
 10
127.1953162224961
 20
402.2678940718515
 42
0.0
 10
124.5549811716036
 20
401.0648846105558
 42
0.0
 10
125.1769095015029
 20
399.6998918807333
 42
0.0
 10
127.8172445523957
 20
400.902901342029
 42
-0.1177283015269049
 10
129.1847608318053
 20
401.1703661819681
 42
0.0
 10
160.6834845968416
 20
399.8708883559127
 42
-0.1882181836572898
 10
162.6811453207903
 20
398.9947583998881
 42
0.0
 10
165.6579923552846
 20
396.0179113653938
 42
0.1989123673796553
 10
168.839972870624
 20
394.6998918807334
 42
0.0
 10
173.8652813759359
 20
394.6998918807334
 42
0.177198246999798
 97
        0
 75
     0
 76
     0
 52
45.0
 41
2.0
 77
     0
 78
     1
 53
45.0
 43
17.73343128150421
 44
-43.77744091991417
 45
-1.414213562373094
 46
1.414213562373095
 79
     0
 47
0.3042393883041572
 98
        4
 10
278.9262969418787
 20
395.3019318199529
 10
267.0525694805792
 20
406.8630293908856
 10
182.4141976704686
 20
405.9503111984268
 10
168.7137425715505
 20
395.606170750986
  0
HATCH
  5
85E
330
1E
100
AcDbEntity
  8
SCHRAFF
100
AcDbHatch
 10
0.0
 20
0.0
 30
0.0
210
0.0
220
0.0
230
1.0
  2
_USER
 70
     0
 71
     0
 91
        2
 92
        7
 72
     1
 73
     1
 93
        6
 10
276.5
 20
383.19989188073
 42
0.0
 10
276.5
 20
394.6998918807334
 42
0.0
 10
274.9999999999999
 20
394.6998918807333
 42
0.0
 10
275.0
 20
383.199891880734
 42
-0.267949192431127
 10
249.9999999999998
 20
339.8986216915113
 42
0.0
 10
249.9999999999998
 20
338.1748988213224
 42
0.2724386372896129
 97
        0
 92
        7
 72
     1
 73
     1
 93
        6
 10
174.9999999999999
 20
394.6998918807333
 42
0.0
 10
173.4999999999999
 20
394.6998918807333
 42
0.0
 10
173.4999999999999
 20
383.1998918807333
 42
0.27243863728963
 10
199.9999999999999
 20
338.1748988213224
 42
0.0
 10
199.9999999999999
 20
339.8986216915111
 42
-0.2679491924311228
 10
174.9999999999999
 20
383.1998918807331
 42
0.0
 97
        0
 75
     0
 76
     0
 52
135.0
 41
2.0
 77
     0
 78
     1
 53
135.0
 43
17.73343128150421
 44
-43.77744091991417
 45
-1.414213562373095
 46
-1.414213562373094
 79
     0
 47
0.3042393883041572
 98
        2
 10
275.5772962729111
 20
382.5238771255281
 10
174.1939254844065
 20
388.6086655417073
  0
ARC
  5
85F
330
1E
100
AcDbEntity
  8
SCHRAFF
100
AcDbCircle
 10
276.4999999999998
 20
394.6998918807334
 30
0.0
 40
3.0
100
AcDbArc
 50
270.0
 51
0.0
  0
ARC
  5
860
330
1E
100
AcDbEntity
  8
SCHRAFF
100
AcDbCircle
 10
173.5
 20
394.6998918807334
 30
0.0
 40
3.0
100
AcDbArc
 50
180.0
 51
270.0
  0
HATCH
  5
867
330
1E
100
AcDbEntity
  8
SCHRAFF
100
AcDbHatch
 10
0.0
 20
0.0
 30
0.0
210
0.0
220
0.0
230
1.0
  2
_USER
 70
     0
 71
     0
 91
        2
 92
        7
 72
     1
 73
     1
 93
        3
 10
279.4999999999998
 20
394.6998918807334
 42
0.0
 10
276.4999999999998
 20
394.6998918807333
 42
0.0
 10
276.4999999999998
 20
391.6998918807333
 42
0.4142135623730951
 97
        0
 92
        7
 72
     1
 73
     1
 93
        3
 10
173.4999999999999
 20
394.6998918807334
 42
0.0
 10
170.5
 20
394.6998918807334
 42
0.4142135623730841
 10
173.4999999999999
 20
391.6998918807333
 42
0.0
 97
        0
 75
     0
 76
     0
 52
0.0
 41
0.1
 77
     0
 78
     1
 53
0.0
 43
17.73343128150421
 44
-43.77744091991417
 45
0.0
 46
0.1
 79
     0
 47
0.2230651951757515
 98
        2
 10
277.6708747094795
 20
393.555445894529
 10
172.3096350284063
 20
393.555445894529
  0
ARC
  5
868
330
1E
100
AcDbEntity
  8
SCHRAFF
100
AcDbCircle
 10
249.9999999999994
 20
339.8986216915111
 30
0.0
 40
4.0
100
AcDbArc
 50
294.715939631184
 51
10.08504298720902
  0
ARC
  5
869
330
1E
100
AcDbEntity
  8
SCHRAFF
100
AcDbCircle
 10
200.0000000000004
 20
339.8986216915111
 30
0.0
 40
4.0
100
AcDbArc
 50
169.914957012791
 51
245.284060368816
  0
HATCH
  5
872
330
1E
100
AcDbEntity
  8
SCHRAFF
100
AcDbHatch
 10
0.0
 20
0.0
 30
0.0
210
0.0
220
0.0
230
1.0
  2
_USER
 70
     0
 71
     0
 91
        2
 92
        7
 72
     1
 73
     1
 93
        4
 10
253.9381957030316
 20
340.5990605572364
 42
-0.0202612604628159
 10
250.3948993142533
 20
338.3964423615397
 42
0.0
 10
251.8861499361481
 20
338.2346660261311
 42
0.0
 10
251.6724792149414
 20
336.2650541229103
 42
0.3412513386857079
 97
        0
 92
        7
 72
     1
 73
     1
 93
        4
 10
196.0618042969682
 20
340.5990605572364
 42
0.3412513386856999
 10
198.3275207850584
 20
336.2650541229104
 42
0.0
 10
198.1138500638516
 20
338.234666026131
 42
0.0
 10
199.6051006857464
 20
338.3964423615397
 42
-0.0202612604628157
 97
        0
 75
     0
 76
     0
 52
0.0
 41
0.1
 77
     0
 78
     1
 53
0.0
 43
17.73343128150421
 44
-43.77744091991417
 45
0.0
 46
0.1
 79
     0
 47
0.2072883707469252
 98
        2
 10
252.4706365130319
 20
338.4961057582873
 10
196.6706275931501
 20
338.9106827807548
  0
TEXT
  5
873
330
1E
100
AcDbEntity
  8
TEXT
 62
     1
100
AcDbText
 10
217.9182441619524
 20
238.4758293273303
 30
0.0
 40
7.0
  1
DN50
 50
90.0
 41
0.8
  7
GREEKS
100
AcDbText
  0
LINE
  5
B49
330
1E
100
AcDbEntity
  8
STEMPEL
100
AcDbLine
 10
262.5560073525184
 20
393.5835558904429
 30
0.0
 11
260.9999999999999
 21
393.5835558904429
 31
0.0
  0
LINE
  5
B4B
330
1E
100
AcDbEntity
  8
STEMPEL
100
AcDbLine
 10
263.3970615154279
 20
418.6998918807334
 30
0.0
 11
261.4999999999999
 21
418.6998918807335
 31
0.0
  0
LINE
  5
B54
330
1E
100
AcDbEntity
  8
STEMPEL
100
AcDbLine
 10
184.9999999999999
 20
408.2049370418242
 30
0.0
 11
184.9999999999999
 21
407.0998918807333
 31
0.0
  0
LINE
  5
B55
330
1E
100
AcDbEntity
  8
STEMPEL
100
AcDbLine
 10
188.4999999999999
 20
412.6998918807333
 30
0.0
 11
188.4999999999999
 21
393.5835558904429
 31
0.0
  0
ARC
  5
B57
330
1E
100
AcDbEntity
  8
STEMPEL
100
AcDbCircle
 10
186.11635382117
 20
399.7998918807334
 30
0.0
 40
0.9
100
AcDbArc
 50
4.682416862268558
 51
151.6449939715894
  0
LINE
  5
B58
330
1E
100
AcDbEntity
  8
STEMPEL
100
AcDbLine
 10
182.6999999999999
 20
398.6998918807334
 30
0.0
 11
184.9999999999999
 21
402.6998918807334
 31
0.0
  0
LINE
  5
B59
330
1E
100
AcDbEntity
  8
STEMPEL
100
AcDbLine
 10
182.6999999999999
 20
398.6998918807334
 30
0.0
 11
184.4999999999999
 21
398.6998918807334
 31
0.0
  0
LINE
  5
B5A
330
1E
100
AcDbEntity
  8
STEMPEL
100
AcDbLine
 10
184.4999999999999
 20
398.6998918807334
 30
0.0
 11
185.3243341958308
 21
400.2273318333322
 31
0.0
  0
LINE
  5
B5B
330
1E
100
AcDbEntity
  8
STEMPEL
100
AcDbLine
 10
183.5999999999999
 20
405.6998918807334
 30
0.0
 11
184.9999999999999
 21
407.0998918807333
 31
0.0
  0
LINE
  5
B5C
330
1E
100
AcDbEntity
  8
STEMPEL
100
AcDbLine
 10
183.5999999999999
 20
404.6998918807333
 30
0.0
 11
184.9999999999999
 21
403.2998918807334
 31
0.0
  0
LINE
  5
B5D
330
1E
100
AcDbEntity
  8
STEMPEL
100
AcDbLine
 10
183.5999999999999
 20
405.6998918807334
 30
0.0
 11
183.5999999999999
 21
404.6998918807333
 31
0.0
  0
LINE
  5
B5E
330
1E
100
AcDbEntity
  8
STEMPEL
100
AcDbLine
 10
184.9999999999999
 20
403.2998918807334
 30
0.0
 11
184.9999999999999
 21
402.6998918807334
 31
0.0
  0
ARC
  5
B61
330
1E
100
AcDbEntity
  8
STEMPEL
100
AcDbCircle
 10
186.6029384845719
 20
417.6998918807333
 30
0.0
 40
1.0
100
AcDbArc
 50
10.00000000000181
 51
150.588086334471
  0
LINE
  5
B62
330
1E
100
AcDbEntity
  8
STEMPEL
100
AcDbLine
 10
186.2613941852407
 20
411.6705890828045
 30
0.0
 11
184.9999999999999
 21
408.2049370418242
 31
0.0
  0
ARC
  5
B63
330
1E
100
AcDbEntity
  8
STEMPEL
100
AcDbCircle
 10
186.2859259966289
 20
413.1998918807333
 30
0.0
 40
0.5
100
AcDbArc
 50
346.3235567027737
 51
90.0
  0
LINE
  5
B64
330
1E
100
AcDbEntity
  8
STEMPEL
100
AcDbLine
 10
183.1999999999999
 20
413.6998918807334
 30
0.0
 11
185.7318267672226
 21
418.1909767775657
 31
0.0
  0
LINE
  5
B65
330
1E
100
AcDbEntity
  8
STEMPEL
100
AcDbLine
 10
183.1999999999999
 20
413.6998918807334
 30
0.0
 11
186.2859259966289
 21
413.6998918807334
 31
0.0
  0
LINE
  5
B66
330
1E
100
AcDbEntity
  8
STEMPEL
100
AcDbLine
 10
188.4999999999999
 20
412.6998918807333
 30
0.0
 11
187.587746237584
 21
417.8735400584002
 31
0.0
  0
LINE
  5
B6B
330
1E
100
AcDbEntity
  8
STEMPEL
100
AcDbLine
 10
264.9999999999999
 20
408.2049370418242
 30
0.0
 11
264.9999999999999
 21
407.0998918807333
 31
0.0
  0
LINE
  5
B6C
330
1E
100
AcDbEntity
  8
STEMPEL
100
AcDbLine
 10
261.4999999999999
 20
412.6998918807333
 30
0.0
 11
261.4999999999999
 21
393.5835558904429
 31
0.0
  0
LINE
  5
B6D
330
1E
100
AcDbEntity
  8
STEMPEL
100
AcDbLine
 10
267.3
 20
398.6998918807334
 30
0.0
 11
265.0
 21
402.6998918807334
 31
0.0
  0
ARC
  5
B6F
330
1E
100
AcDbEntity
  8
STEMPEL
100
AcDbCircle
 10
263.8836461788299
 20
399.7998918807334
 30
0.0
 40
0.9
100
AcDbArc
 50
28.35500602841055
 51
175.3175831377314
  0
ARC
  5
B70
330
1E
100
AcDbEntity
  8
STEMPEL
100
AcDbCircle
 10
24.78861816753442
 20
413.0223634794793
 30
0.0
 40
238.5606811700688
100
AcDbArc
 50
355.326145898449
 51
356.8403665142375
  0
LINE
  5
B71
330
1E
100
AcDbEntity
  8
STEMPEL
100
AcDbLine
 10
267.3
 20
398.6998918807334
 30
0.0
 11
262.9189719816384
 21
398.6998918807334
 31
0.0
  0
LINE
  5
B72
330
1E
100
AcDbEntity
  8
STEMPEL
100
AcDbLine
 10
265.4999999999999
 20
398.6998918807334
 30
0.0
 11
264.6756658041689
 21
400.2273318333322
 31
0.0
  0
LINE
  5
B73
330
1E
100
AcDbEntity
  8
STEMPEL
100
AcDbLine
 10
266.4
 20
404.6998918807333
 30
0.0
 11
265.0
 21
403.2998918807334
 31
0.0
  0
LINE
  5
B74
330
1E
100
AcDbEntity
  8
STEMPEL
100
AcDbLine
 10
266.4
 20
405.6998918807334
 30
0.0
 11
266.4
 21
404.6998918807333
 31
0.0
  0
LINE
  5
B75
330
1E
100
AcDbEntity
  8
STEMPEL
100
AcDbLine
 10
265.0
 20
403.2998918807334
 30
0.0
 11
265.0
 21
402.6998918807334
 31
0.0
  0
LINE
  5
B76
330
1E
100
AcDbEntity
  8
STEMPEL
100
AcDbLine
 10
266.4
 20
405.6998918807334
 30
0.0
 11
264.9999999999999
 21
407.0998918807333
 31
0.0
  0
LINE
  5
B77
330
1E
100
AcDbEntity
  8
STEMPEL
100
AcDbLine
 10
261.4999999999999
 20
412.6998918807333
 30
0.0
 11
262.4122537624157
 21
417.8735400584002
 31
0.0
  0
LINE
  5
B79
330
1E
100
AcDbEntity
  8
STEMPEL
100
AcDbLine
 10
263.7386058147594
 20
411.6705890828038
 30
0.0
 11
264.9999999999999
 21
408.2049370418242
 31
0.0
  0
ARC
  5
B7A
330
1E
100
AcDbEntity
  8
STEMPEL
100
AcDbCircle
 10
263.3970615154279
 20
417.6998918807333
 30
0.0
 40
1.0
100
AcDbArc
 50
29.411913665529
 51
169.9999999999981
  0
LINE
  5
B7B
330
1E
100
AcDbEntity
  8
STEMPEL
100
AcDbLine
 10
266.8
 20
413.6998918807334
 30
0.0
 11
264.2681732327773
 21
418.1909767775657
 31
0.0
  0
LINE
  5
B7C
330
1E
100
AcDbEntity
  8
STEMPEL
100
AcDbLine
 10
266.8
 20
413.6998918807334
 30
0.0
 11
263.714074003371
 21
413.6998918807334
 31
0.0
  0
ARC
  5
D37
330
1E
100
AcDbEntity
  8
STEMPEL
100
AcDbCircle
 10
263.7140740033709
 20
413.1998918807333
 30
0.0
 40
0.5
100
AcDbArc
 50
90.0
 51
193.6764432972256
  0
ARC
  5
D38
330
1E
100
AcDbEntity
  8
STEMPEL
100
AcDbCircle
 10
425.2113818324653
 20
413.0223634794793
 30
0.0
 40
238.5606811700688
100
AcDbArc
 50
183.1596334857625
 51
184.673854101551
  0
LINE
  5
D39
330
1E
100
AcDbEntity
  8
STEMPEL
100
AcDbLine
 10
187.3553631261052
 20
394.6998918807334
 30
0.0
 11
168.839972870624
 21
394.6998918807334
 31
0.0
  0
HATCH
  5
D62
330
1E
100
AcDbEntity
  8
SCHRAFF
100
AcDbHatch
 10
0.0
 20
0.0
 30
0.0
210
0.0
220
0.0
230
1.0
  2
NET
 70
     0
 71
     0
 91
        2
 92
        7
 72
     1
 73
     1
 93
       20
 10
264.9999999999999
 20
408.2049370418241
 42
0.0
 10
263.7386058147594
 20
411.6705890828036
 42
0.0
 10
262.9999999999999
 20
412.9498918807333
 42
0.0
 10
263.2282507973731
 20
413.0816725400396
 42
-0.485986168343762
 10
263.714074003371
 20
413.6998918807334
 42
0.0
 10
266.8
 20
413.6998918807334
 42
0.0
 10
264.2681732327773
 20
418.1909767775657
 42
0.7040385315424552
 10
262.4122537624157
 20
417.8735400584002
 42
0.0
 10
261.4999999999999
 20
412.6998918807333
 42
0.0
 10
261.5
 20
393.5835558904429
 42
0.0
 10
262.5560073525184
 20
393.5835558904429
 42
0.0065571884227471
 10
262.9840185768613
 20
399.8257796727636
 42
-0.7673041015612464
 10
264.6756658041689
 20
400.2273318333322
 42
0.0
 10
265.4999999999999
 20
398.6998918807334
 42
0.0
 10
267.3
 20
398.6998918807334
 42
0.0
 10
265.0
 20
402.6998918807333
 42
0.0
 10
265.0
 20
403.2998918807334
 42
0.0
 10
266.4
 20
404.6998918807333
 42
0.0
 10
266.4000000000001
 20
405.6998918807333
 42
0.0
 10
264.9999999999999
 20
407.0998918807334
 42
0.0
 97
        0
 92
        7
 72
     1
 73
     1
 93
       20
 10
188.4999999999999
 20
412.6998918807334
 42
0.0
 10
187.587746237584
 20
417.8735400584002
 42
0.7040385315423309
 10
185.7318267672226
 20
418.1909767775657
 42
0.0
 10
183.1999999999999
 20
413.6998918807334
 42
0.0
 10
186.2859259966289
 20
413.6998918807334
 42
-0.4859861683436781
 10
186.7717492026266
 20
413.0816725400396
 42
0.0
 10
186.9999999999999
 20
412.9498918807334
 42
0.0
 10
186.2613941852407
 20
411.6705890828046
 42
0.0
 10
184.9999999999999
 20
408.2049370418241
 42
0.0
 10
184.9999999999999
 20
407.0998918807334
 42
0.0
 10
183.5999999999999
 20
405.6998918807333
 42
0.0
 10
183.5999999999999
 20
404.6998918807333
 42
0.0
 10
184.9999999999999
 20
403.2998918807334
 42
0.0
 10
184.9999999999999
 20
402.6998918807334
 42
0.0
 10
182.6999999999999
 20
398.6998918807334
 42
0.0
 10
184.4999999999999
 20
398.6998918807334
 42
0.0
 10
185.3243341958308
 20
400.2273318333322
 42
-0.7673041015639809
 10
187.0159814231388
 20
399.825779672758
 42
0.0065571884227412
 10
187.4439926474814
 20
393.5835558904429
 42
0.0
 10
188.4999999999999
 20
393.5835558904429
 42
0.0
 97
        0
 75
     0
 76
     1
 52
45.0
 41
15.0
 77
     0
 78
     2
 53
45.0
 43
17.73343128150421
 44
-43.77744091991417
 45
-1.325825214724776
 46
1.325825214724776
 79
     0
 53
135.0
 43
17.73343128150421
 44
-43.77744091991417
 45
-1.325825214724776
 46
-1.325825214724776
 79
     0
 47
0.1816684602659492
 98
        2
 10
262.9484339673304
 20
407.2424784913275
 10
187.5026985922445
 20
409.2408319867422
  0
TEXT
  5
E03
330
1E
100
AcDbEntity
  8
TEXT
 62
     1
100
AcDbText
 10
292.9841464250211
 20
179.2315267959826
 30
0.0
 40
7.0
  1
EDV-Art.Nr. 15679.050X
 41
0.8
  7
GREEKS
100
AcDbText
  0
LINE
  5
E04
330
1E
100
AcDbEntity
  8
TEXT
 62
     2
100
AcDbLine
 10
292.3958403107446
 20
188.0639663636168
 30
0.0
 11
397.9031949968079
 21
188.0639663636168
 31
0.0
  0
LINE
  5
E05
330
1E
100
AcDbEntity
  8
TEXT
 62
     2
100
AcDbLine
 10
292.3958403107446
 20
188.0639663636168
 30
0.0
 11
250.5484497936657
 21
202.3317038919306
 31
0.0
  0
TEXT
  5
E06
330
1E
100
AcDbEntity
  8
TEXT
 62
     1
100
AcDbText
 10
292.9841464250211
 20
192.0540256319306
 30
0.0
 40
7.0
  1
Ablauftopf DN50
 41
0.8
  7
GREEKS
100
AcDbText
  0
LWPOLYLINE
  5
E07
330
1E
100
AcDbEntity
  8
BEM
 62
     1
100
AcDbPolyline
 90
        4
 70
     1
 43
0.0
 10
357.5950440300817
 20
344.6227516176255
 10
357.5950440300817
 20
337.6227516176255
 10
364.5950440300817
 20
337.6227516176255
 10
364.5950440300817
 20
344.6227516176255
  0
TEXT
  5
E08
330
1E
100
AcDbEntity
  8
TEXT
 62
     1
100
AcDbText
 10
292.9841464250211
 20
337.5933203062766
 30
0.0
 40
7.0
  1
Siebaufnahme   100
 41
0.8
  7
GREEKS
100
AcDbText
  0
LINE
  5
E09
330
1E
100
AcDbEntity
  8
TEXT
 62
     2
100
AcDbLine
 10
292.3958403107446
 20
333.6032610379628
 30
0.0
 11
259.8414141814562
 21
384.4361820201248
 31
0.0
  0
LINE
  5
E0A
330
1E
100
AcDbEntity
  8
TEXT
 62
     2
100
AcDbLine
 10
292.3958403107446
 20
333.6032610379628
 30
0.0
 11
397.9031949968079
 21
333.6032610379628
 31
0.0
  0
TEXT
  5
E0B
330
1E
100
AcDbEntity
  8
TEXT
 62
     1
100
AcDbText
 10
292.9841464250211
 20
324.7708214703286
 30
0.0
 40
7.0
  1
EDV-Art.Nr. 15094.000X
 41
0.8
  7
GREEKS
100
AcDbText
  0
TEXT
  5
E0C
330
1E
100
AcDbEntity
  8
TEXT
 62
     1
100
AcDbText
 10
293.6808431076523
 20
370.6006990509524
 30
0.0
 40
7.0
  1
EDV-Art.Nr. 00911.070X
 41
0.8
  7
GREEKS
100
AcDbText
  0
LINE
  5
E0D
330
1E
100
AcDbEntity
  8
TEXT
 62
     2
100
AcDbLine
 10
293.0925369933758
 20
379.4331386185866
 30
0.0
 11
398.5998916794391
 21
379.4331386185866
 31
0.0
  0
LINE
  5
E0E
330
1E
100
AcDbEntity
  8
TEXT
 62
     2
100
AcDbLine
 10
293.0925369933758
 20
379.4331386185866
 30
0.0
 11
263.3262752810426
 21
402.2972942401763
 31
0.0
  0
TEXT
  5
E0F
330
1E
100
AcDbEntity
  8
TEXT
 62
     1
100
AcDbText
 10
293.6808431076523
 20
383.4231978869004
 30
0.0
 40
7.0
  1
Dichtelement DN70
 41
0.8
  7
GREEKS
100
AcDbText
  0
DIMENSION
  5
E10
330
1E
100
AcDbEntity
  8
BEM
100
AcDbDimension
  2
*D2
 10
100.3785910569149
 20
399.6998918807333
 30
0.0
 11
93.87859105691488
 21
274.5224547299854
 31
0.0
 70
    32
  1
250
 71
     5
 42
250.3548743014958
  3
Standard
100
AcDbAlignedDimension
 13
199.0249319811554
 23
149.3450175792373
 33
0.0
 14
125.1769095015029
 24
399.6998918807333
 34
0.0
 50
90.0
100
AcDbRotatedDimension
1001
ACAD
1000
DSTYLE
1002
{
1070
    40
1040
2.0
1070
    41
1040
3.5
1070
    42
1040
1.0
1070
    43
1040
7.0
1070
    44
1040
1.0
1070
    73
1070
     0
1070
    74
1070
     0
1070
    77
1070
     1
1070
    78
1070
     8
1070
    79
1070
     2
1070
   140
1040
3.5
1070
   141
1040
1.5
1070
   146
1040
0.5142857142857144
1070
   147
1040
1.5
1070
   172
1070
     1
1070
   178
1070
     1
1070
   179
1070
     2
1070
   271
1070
     2
1070
   272
1070
     2
1070
   284
1070
     8
1070
   285
1070
     8
1070
   286
1070
     8
1002
}
  0
DIMENSION
  5
E11
330
1E
100
AcDbEntity
  8
BEM
100
AcDbDimension
  2
*D3
 10
115.6388088072967
 20
338.1748988213225
 30
0.0
 11
109.1388088072967
 21
368.9373953510279
 31
0.0
 70
    32
  1
61
 71
     5
 42
61.52499305941081
  3
Standard
100
AcDbAlignedDimension
 13
125.1769095015029
 23
399.6998918807333
 33
0.0
 14
199.9999999999999
 24
338.1748988213224
 34
0.0
 50
90.0
100
AcDbRotatedDimension
1001
ACAD
1000
DSTYLE
1002
{
1070
    40
1040
2.0
1070
    41
1040
3.5
1070
    42
1040
1.0
1070
    43
1040
7.0
1070
    44
1040
1.0
1070
    73
1070
     0
1070
    74
1070
     0
1070
    77
1070
     1
1070
    78
1070
     8
1070
    79
1070
     2
1070
   140
1040
3.5
1070
   141
1040
1.5
1070
   146
1040
0.5142857142857144
1070
   147
1040
1.5
1070
   172
1070
     1
1070
   178
1070
     1
1070
   179
1070
     2
1070
   271
1070
     2
1070
   272
1070
     2
1070
   284
1070
     8
1070
   285
1070
     8
1070
   286
1070
     8
1002
}
  0
DIMENSION
  5
E12
330
1E
100
AcDbEntity
  8
BEM
100
AcDbDimension
  2
*D4
 10
325.4450188283962
 20
538.3905708905102
 30
0.0
 11
224.9999999999999
 21
544.8905708905101
 31
0.0
 70
    32
  1
%%c201
 71
     5
 42
200.8900376567926
  3
Standard
100
AcDbAlignedDimension
 13
124.5549811716036
 23
401.0648846105558
 33
0.0
 14
325.4450188283962
 24
401.0648846105558
 34
0.0
100
AcDbRotatedDimension
1001
ACAD
1000
DSTYLE
1002
{
1070
    40
1040
2.0
1070
    41
1040
3.5
1070
    42
1040
1.0
1070
    43
1040
7.0
1070
    44
1040
1.0
1070
    73
1070
     0
1070
    74
1070
     0
1070
    77
1070
     1
1070
    78
1070
     8
1070
    79
1070
     2
1070
   140
1040
3.5
1070
   141
1040
1.5
1070
   146
1040
0.5142857142857144
1070
   147
1040
1.5
1070
   172
1070
     1
1070
   178
1070
     1
1070
   179
1070
     2
1070
   271
1070
     2
1070
   272
1070
     2
1070
   284
1070
     8
1070
   285
1070
     8
1070
   286
1070
     8
1002
}
  0
DIMENSION
  5
E13
330
1E
100
AcDbEntity
  8
BEM
100
AcDbDimension
  2
*D5
 10
115.6388088072967
 20
413.6998918807334
 30
0.0
 11
115.6388088072967
 21
406.6998918807334
 31
0.0
 70
   160
 71
     5
 42
14.00000000000017
  3
Standard
100
AcDbAlignedDimension
 13
125.1769095015029
 23
399.6998918807333
 33
0.0
 14
183.1999999999999
 24
413.6998918807334
 34
0.0
 50
90.0
100
AcDbRotatedDimension
1001
ACAD
1000
DSTYLE
1002
{
1070
    40
1040
2.0
1070
    41
1040
3.5
1070
    42
1040
1.0
1070
    43
1040
7.0
1070
    44
1040
1.0
1070
    73
1070
     0
1070
    74
1070
     0
1070
    77
1070
     1
1070
    78
1070
     8
1070
    79
1070
     2
1070
   140
1040
3.5
1070
   141
1040
1.5
1070
   146
1040
0.5142857142857144
1070
   147
1040
1.5
1070
   172
1070
     1
1070
   178
1070
     1
1070
   179
1070
     2
1070
   271
1070
     2
1070
   272
1070
     2
1070
   284
1070
     8
1070
   285
1070
     8
1070
   286
1070
     8
1002
}
  0
DIMENSION
  5
E14
330
1E
100
AcDbEntity
  8
BEM
100
AcDbDimension
  2
*D6
 10
100.378591056915
 20
499.0275346310497
 30
0.0
 11
93.87859105691488
 21
449.3637132558915
 31
0.0
 70
    32
  1
min.35 - max.145
 71
     5
 42
99.32764275031644
  3
Standard
100
AcDbAlignedDimension
 13
125.1769095015029
 23
399.6998918807333
 33
0.0
 14
174.5
 24
499.0275346310496
 34
0.0
 50
90.0
100
AcDbRotatedDimension
1001
ACAD
1000
DSTYLE
1002
{
1070
   279
1070
     1
1070
    40
1040
2.0
1070
    41
1040
3.5
1070
    42
1040
1.0
1070
    43
1040
7.0
1070
    44
1040
1.0
1070
    73
1070
     0
1070
    74
1070
     0
1070
    77
1070
     1
1070
    78
1070
     8
1070
    79
1070
     2
1070
   140
1040
3.5
1070
   141
1040
1.5
1070
   146
1040
0.5142857142857144
1070
   147
1040
1.5
1070
   172
1070
     1
1070
   178
1070
     1
1070
   179
1070
     2
1070
   271
1070
     2
1070
   272
1070
     2
1070
   284
1070
     8
1070
   285
1070
     8
1070
   286
1070
     8
1002
}
  0
LWPOLYLINE
  5
E15
330
1E
100
AcDbEntity
  8
BEM
 62
     1
100
AcDbPolyline
 90
        4
 70
     1
 43
0.0
 10
215.4136507380945
 20
518.8412731724688
 10
215.4136507380945
 20
511.8412731724688
 10
222.4136507380945
 20
511.8412731724688
 10
222.4136507380945
 20
518.8412731724688
  0
DIMENSION
  5
E16
330
1E
100
AcDbEntity
  8
BEM
100
AcDbDimension
  2
*D7
 10
275.4999999999999
 20
508.80509797694
 30
0.0
 11
230.2245152781838
 21
508.80509797694
 31
0.0
 70
   160
 71
     5
 42
100.9999999999999
  3
Standard
100
AcDbAlignedDimension
 13
174.5
 23
499.0275346310496
 33
0.0
 14
275.4999999999999
 24
499.0275346310496
 34
0.0
100
AcDbRotatedDimension
1001
ACAD
1000
DSTYLE
1002
{
1070
    40
1040
2.0
1070
    41
1040
3.5
1070
    42
1040
1.0
1070
    43
1040
7.0
1070
    44
1040
1.0
1070
    73
1070
     0
1070
    74
1070
     0
1070
    77
1070
     1
1070
    78
1070
     8
1070
    79
1070
     2
1070
   140
1040
3.5
1070
   141
1040
1.5
1070
   146
1040
0.5142857142857144
1070
   147
1040
1.5
1070
   172
1070
     1
1070
   178
1070
     1
1070
   179
1070
     2
1070
   271
1070
     2
1070
   272
1070
     2
1070
   284
1070
     8
1070
   285
1070
     8
1070
   286
1070
     8
1002
}
  0
DIMENSION
  5
E17
330
1E
100
AcDbEntity
  8
BEM
100
AcDbDimension
  2
*D8
 10
288.1467250075898
 20
523.6428765971206
 30
0.0
 11
224.9999999999999
 21
530.1428765971206
 31
0.0
 70
    32
  1
%%c126
 71
     5
 42
126.2934500151797
  3
Standard
100
AcDbAlignedDimension
 13
161.85327499241
 23
399.8226287282684
 33
0.0
 14
288.1467250075898
 24
399.8226287282684
 34
0.0
100
AcDbRotatedDimension
1001
ACAD
1000
DSTYLE
1002
{
1070
    40
1040
2.0
1070
    41
1040
3.5
1070
    42
1040
1.0
1070
    43
1040
7.0
1070
    44
1040
1.0
1070
    73
1070
     0
1070
    74
1070
     0
1070
    77
1070
     1
1070
    78
1070
     8
1070
    79
1070
     2
1070
   140
1040
3.5
1070
   141
1040
1.5
1070
   146
1040
0.5142857142857144
1070
   147
1040
1.5
1070
   172
1070
     1
1070
   178
1070
     1
1070
   179
1070
     2
1070
   271
1070
     2
1070
   272
1070
     2
1070
   284
1070
     8
1070
   285
1070
     8
1070
   286
1070
     8
1002
}
  0
DIMENSION
  5
E18
330
1E
100
AcDbEntity
  8
BEM
100
AcDbDimension
  2
*D9
 10
173.4999999999999
 20
319.5192732736643
 30
0.0
 11
224.9999999999999
 21
326.0192732736643
 31
0.0
 70
    32
  1
%%c<>
 71
     5
 42
103.0
  3
Standard
100
AcDbAlignedDimension
 13
276.4999999999999
 23
383.1998918807333
 33
0.0
 14
173.4999999999999
 24
383.1998918807333
 34
0.0
100
AcDbRotatedDimension
1001
ACAD
1000
DSTYLE
1002
{
1070
    40
1040
2.0
1070
    41
1040
3.5
1070
    42
1040
1.0
1070
    43
1040
7.0
1070
    44
1040
1.0
1070
    73
1070
     0
1070
    74
1070
     0
1070
    77
1070
     1
1070
    78
1070
     8
1070
    79
1070
     2
1070
   140
1040
3.5
1070
   141
1040
1.5
1070
   146
1040
0.5142857142857144
1070
   147
1040
1.5
1070
   172
1070
     1
1070
   178
1070
     1
1070
   179
1070
     2
1070
   271
1070
     2
1070
   272
1070
     2
1070
   284
1070
     8
1070
   285
1070
     8
1070
   286
1070
     8
1002
}
  0
TEXT
  5
11D7
330
1E
100
AcDbEntity
  8
VOLL
100
AcDbText
 10
571.168690668609
 20
61.73990711604654
 30
0.0
 40
1.8
  1

  7
GREEKS
100
AcDbText
  0
LINE
  5
11E2
330
1E
100
AcDbEntity
  8
STEMPEL
100
AcDbLine
 10
271.7
 20
497.7149688397531
 30
0.0
 11
271.6999999999999
 21
499.0275346310496
 31
0.0
  0
LINE
  5
11E3
330
1E
100
AcDbEntity
  8
STEMPEL
100
AcDbLine
 10
272.4999999999999
 20
499.0275346310496
 30
0.0
 11
272.4999999999999
 21
493.0275346310495
 31
0.0
  0
LINE
  5
11E4
330
1E
100
AcDbEntity
  8
STEMPEL
100
AcDbLine
 10
275.4999999999999
 20
499.0275346310496
 30
0.0
 11
275.4999999999999
 21
490.0275346310496
 31
0.0
  0
LINE
  5
11E7
330
1E
100
AcDbEntity
  8
STEMPEL
100
AcDbLine
 10
260.9999999999999
 20
468.0275346310496
 30
0.0
 11
261.4999999999999
 21
468.0275346310496
 31
0.0
  0
LINE
  5
11E8
330
1E
100
AcDbEntity
  8
STEMPEL
100
AcDbLine
 10
260.9999999999999
 20
471.0275346310497
 30
0.0
 11
261.4999999999999
 21
471.0275346310496
 31
0.0
  0
LINE
  5
11E9
330
1E
100
AcDbEntity
  8
STEMPEL
100
AcDbLine
 10
260.9999999999999
 20
471.0275346310497
 30
0.0
 11
260.9999999999999
 21
468.0275346310496
 31
0.0
  0
LINE
  5
11EA
330
1E
100
AcDbEntity
  8
STEMPEL
100
AcDbLine
 10
261.4999999999999
 20
483.0275346310497
 30
0.0
 11
261.4999999999999
 21
471.0275346310496
 31
0.0
  0
LINE
  5
11EB
330
1E
100
AcDbEntity
  8
STEMPEL
100
AcDbLine
 10
261.4999999999999
 20
483.0275346310497
 30
0.0
 11
268.4999999999998
 21
490.0275346310496
 31
0.0
  0
LINE
  5
11EC
330
1E
100
AcDbEntity
  8
STEMPEL
100
AcDbLine
 10
266.9999999999999
 20
493.0275346310496
 30
0.0
 11
256.9999999999999
 21
483.0275346310497
 31
0.0
  0
LINE
  5
11F0
330
1E
100
AcDbEntity
  8
STEMPEL
100
AcDbLine
 10
268.4999999999998
 20
490.0275346310496
 30
0.0
 11
275.4999999999999
 21
490.0275346310496
 31
0.0
  0
LINE
  5
11F1
330
1E
100
AcDbEntity
  8
STEMPEL
100
AcDbLine
 10
260.9999999999999
 20
456.0275346310497
 30
0.0
 11
261.4999999999999
 21
456.0275346310497
 31
0.0
  0
LINE
  5
11F2
330
1E
100
AcDbEntity
  8
STEMPEL
100
AcDbLine
 10
260.9999999999999
 20
453.0275346310497
 30
0.0
 11
261.4999999999999
 21
453.0275346310497
 31
0.0
  0
LINE
  5
11F3
330
1E
100
AcDbEntity
  8
STEMPEL
100
AcDbLine
 10
260.9999999999999
 20
453.0275346310497
 30
0.0
 11
260.9999999999999
 21
456.0275346310497
 31
0.0
  0
LINE
  5
11F4
330
1E
100
AcDbEntity
  8
STEMPEL
100
AcDbLine
 10
260.9999999999999
 20
441.0275346310497
 30
0.0
 11
261.4999999999999
 21
441.0275346310497
 31
0.0
  0
LINE
  5
11F5
330
1E
100
AcDbEntity
  8
STEMPEL
100
AcDbLine
 10
260.9999999999999
 20
438.0275346310497
 30
0.0
 11
261.4999999999999
 21
438.0275346310496
 31
0.0
  0
LINE
  5
11F6
330
1E
100
AcDbEntity
  8
STEMPEL
100
AcDbLine
 10
260.9999999999999
 20
441.0275346310498
 30
0.0
 11
260.9999999999999
 21
438.0275346310497
 31
0.0
  0
LINE
  5
11F7
330
1E
100
AcDbEntity
  8
STEMPEL
100
AcDbLine
 10
260.9999999999999
 20
426.0275346310497
 30
0.0
 11
261.4999999999999
 21
426.0275346310497
 31
0.0
  0
LINE
  5
11F8
330
1E
100
AcDbEntity
  8
STEMPEL
100
AcDbLine
 10
260.9999999999999
 20
423.0275346310497
 30
0.0
 11
261.4999999999999
 21
423.0275346310497
 31
0.0
  0
LINE
  5
11F9
330
1E
100
AcDbEntity
  8
STEMPEL
100
AcDbLine
 10
260.9999999999999
 20
426.0275346310497
 30
0.0
 11
260.9999999999999
 21
423.0275346310497
 31
0.0
  0
LINE
  5
11FA
330
1E
100
AcDbEntity
  8
STEMPEL
100
AcDbLine
 10
261.4999999999999
 20
438.0275346310496
 30
0.0
 11
261.4999999999999
 21
426.0275346310497
 31
0.0
  0
LINE
  5
11FB
330
1E
100
AcDbEntity
  8
STEMPEL
100
AcDbLine
 10
261.4999999999999
 20
453.0275346310497
 30
0.0
 11
261.4999999999999
 21
441.0275346310497
 31
0.0
  0
LINE
  5
11FC
330
1E
100
AcDbEntity
  8
STEMPEL
100
AcDbLine
 10
260.9999999999999
 20
411.0275346310497
 30
0.0
 11
261.4999999999999
 21
411.0275346310497
 31
0.0
  0
LINE
  5
11FD
330
1E
100
AcDbEntity
  8
STEMPEL
100
AcDbLine
 10
260.9999999999999
 20
408.0275346310497
 30
0.0
 11
261.4999999999999
 21
408.0275346310497
 31
0.0
  0
LINE
  5
11FE
330
1E
100
AcDbEntity
  8
STEMPEL
100
AcDbLine
 10
260.9999999999999
 20
411.0275346310497
 30
0.0
 11
260.9999999999999
 21
408.0275346310497
 31
0.0
  0
LINE
  5
11FF
330
1E
100
AcDbEntity
  8
STEMPEL
100
AcDbLine
 10
260.9999999999999
 20
393.0275346310497
 30
0.0
 11
261.4999999999999
 21
393.0275346310497
 31
0.0
  0
LINE
  5
1200
330
1E
100
AcDbEntity
  8
STEMPEL
100
AcDbLine
 10
260.9999999999999
 20
396.0275346310497
 30
0.0
 11
261.4999999999999
 21
396.0275346310497
 31
0.0
  0
LINE
  5
1201
330
1E
100
AcDbEntity
  8
STEMPEL
100
AcDbLine
 10
260.9999999999999
 20
396.0275346310497
 30
0.0
 11
260.9999999999999
 21
393.0275346310497
 31
0.0
  0
LINE
  5
1202
330
1E
100
AcDbEntity
  8
STEMPEL
100
AcDbLine
 10
260.9999999999999
 20
378.0275346310497
 30
0.0
 11
261.4999999999999
 21
378.0275346310497
 31
0.0
  0
LINE
  5
1203
330
1E
100
AcDbEntity
  8
STEMPEL
100
AcDbLine
 10
260.9999999999999
 20
381.0275346310497
 30
0.0
 11
261.4999999999999
 21
381.0275346310497
 31
0.0
  0
LINE
  5
1204
330
1E
100
AcDbEntity
  8
STEMPEL
100
AcDbLine
 10
260.9999999999999
 20
381.0275346310497
 30
0.0
 11
260.9999999999999
 21
378.0275346310497
 31
0.0
  0
LINE
  5
1205
330
1E
100
AcDbEntity
  8
STEMPEL
100
AcDbLine
 10
261.4999999999999
 20
393.0275346310498
 30
0.0
 11
261.4999999999999
 21
381.0275346310497
 31
0.0
  0
LINE
  5
1206
330
1E
100
AcDbEntity
  8
STEMPEL
100
AcDbLine
 10
261.4999999999999
 20
408.0275346310497
 30
0.0
 11
261.4999999999999
 21
396.0275346310498
 31
0.0
  0
LINE
  5
1207
330
1E
100
AcDbEntity
  8
STEMPEL
100
AcDbLine
 10
261.4999999999999
 20
423.0275346310497
 30
0.0
 11
261.4999999999999
 21
411.0275346310497
 31
0.0
  0
LINE
  5
1208
330
1E
100
AcDbEntity
  8
STEMPEL
100
AcDbLine
 10
260.9999999999999
 20
366.0275346310497
 30
0.0
 11
261.4999999999999
 21
366.0275346310497
 31
0.0
  0
LINE
  5
1209
330
1E
100
AcDbEntity
  8
STEMPEL
100
AcDbLine
 10
260.9999999999999
 20
363.0275346310497
 30
0.0
 11
261.4999999999999
 21
363.0275346310497
 31
0.0
  0
LINE
  5
120A
330
1E
100
AcDbEntity
  8
STEMPEL
100
AcDbLine
 10
260.9999999999999
 20
366.0275346310497
 30
0.0
 11
260.9999999999999
 21
363.0275346310497
 31
0.0
  0
LINE
  5
120C
330
1E
100
AcDbEntity
  8
STEMPEL
100
AcDbLine
 10
261.4999999999999
 20
363.0275346310497
 30
0.0
 11
261.4999999999999
 21
349.0275346310497
 31
0.0
  0
LINE
  5
120D
330
1E
100
AcDbEntity
  8
STEMPEL
100
AcDbLine
 10
261.4999999999999
 20
378.0275346310497
 30
0.0
 11
261.4999999999999
 21
366.0275346310497
 31
0.0
  0
LINE
  5
1210
330
1E
100
AcDbEntity
  8
STEMPEL
100
AcDbLine
 10
261.4999999999999
 20
468.0275346310496
 30
0.0
 11
261.4999999999999
 21
456.0275346310496
 31
0.0
  0
LINE
  5
1211
330
1E
100
AcDbEntity
  8
STEMPEL
100
AcDbLine
 10
256.9999999999999
 20
483.0275346310497
 30
0.0
 11
259.4999999999999
 21
349.0275346310497
 31
0.0
  0
LINE
  5
122D
330
1E
100
AcDbEntity
  8
STEMPEL
100
AcDbLine
 10
194.2499999999999
 20
493.0275346310495
 30
0.0
 11
194.2499999999999
 21
495.0275346310495
 31
0.0
  0
LINE
  5
122F
330
1E
100
AcDbEntity
  8
STEMPEL
100
AcDbLine
 10
189.0
 20
471.0275346310497
 30
0.0
 11
189.0
 21
468.0275346310496
 31
0.0
  0
LINE
  5
1230
330
1E
100
AcDbEntity
  8
STEMPEL
100
AcDbLine
 10
189.0
 20
471.0275346310497
 30
0.0
 11
188.5
 21
471.0275346310496
 31
0.0
  0
LINE
  5
1231
330
1E
100
AcDbEntity
  8
STEMPEL
100
AcDbLine
 10
189.0
 20
468.0275346310496
 30
0.0
 11
188.5
 21
468.0275346310496
 31
0.0
  0
LINE
  5
1232
330
1E
100
AcDbEntity
  8
STEMPEL
100
AcDbLine
 10
188.5
 20
483.0275346310497
 30
0.0
 11
188.5
 21
471.0275346310496
 31
0.0
  0
LINE
  5
1233
330
1E
100
AcDbEntity
  8
MITTEL
100
AcDbLine
 10
189.9999999999998
 20
488.0275346310496
 30
0.0
 11
190.0
 21
502.5275346310496
 31
0.0
  0
LINE
  5
1234
330
1E
100
AcDbEntity
  8
STEMPEL
100
AcDbLine
 10
185.75
 20
493.0275346310495
 30
0.0
 11
185.75
 21
495.0275346310495
 31
0.0
  0
LINE
  5
1235
330
1E
100
AcDbEntity
  8
STEMPEL
100
AcDbLine
 10
178.3
 20
497.7149688397536
 30
0.0
 11
178.2999999999999
 21
499.0275346310496
 31
0.0
  0
LINE
  5
1236
330
1E
100
AcDbEntity
  8
STEMPEL
100
AcDbLine
 10
177.5
 20
499.0275346310496
 30
0.0
 11
177.4999999999999
 21
493.0275346310496
 31
0.0
  0
LINE
  5
1237
330
1E
100
AcDbEntity
  8
STEMPEL
100
AcDbLine
 10
181.5000000000001
 20
490.0275346310496
 30
0.0
 11
174.5
 21
490.0275346310495
 31
0.0
  0
LINE
  5
1238
330
1E
100
AcDbEntity
  8
STEMPEL
100
AcDbLine
 10
174.5
 20
499.0275346310496
 30
0.0
 11
174.5
 21
490.0275346310495
 31
0.0
  0
LINE
  5
1239
330
1E
100
AcDbEntity
  8
STEMPEL
100
AcDbLine
 10
183.0
 20
493.0275346310496
 30
0.0
 11
193.0
 21
483.0275346310497
 31
0.0
  0
LINE
  5
123A
330
1E
100
AcDbEntity
  8
STEMPEL
100
AcDbLine
 10
188.5
 20
483.0275346310497
 30
0.0
 11
181.5000000000001
 21
490.0275346310496
 31
0.0
  0
LINE
  5
123E
330
1E
100
AcDbEntity
  8
STEMPEL
100
AcDbLine
 10
189.0
 20
453.0275346310497
 30
0.0
 11
189.0
 21
456.0275346310497
 31
0.0
  0
LINE
  5
123F
330
1E
100
AcDbEntity
  8
STEMPEL
100
AcDbLine
 10
189.0
 20
453.0275346310497
 30
0.0
 11
188.5
 21
453.0275346310497
 31
0.0
  0
LINE
  5
1240
330
1E
100
AcDbEntity
  8
STEMPEL
100
AcDbLine
 10
189.0
 20
456.0275346310497
 30
0.0
 11
188.5
 21
456.0275346310497
 31
0.0
  0
LINE
  5
1241
330
1E
100
AcDbEntity
  8
STEMPEL
100
AcDbLine
 10
189.0
 20
441.0275346310498
 30
0.0
 11
189.0
 21
438.0275346310497
 31
0.0
  0
LINE
  5
1242
330
1E
100
AcDbEntity
  8
STEMPEL
100
AcDbLine
 10
189.0
 20
438.0275346310497
 30
0.0
 11
188.5
 21
438.0275346310496
 31
0.0
  0
LINE
  5
1243
330
1E
100
AcDbEntity
  8
STEMPEL
100
AcDbLine
 10
189.0
 20
441.0275346310497
 30
0.0
 11
188.5
 21
441.0275346310497
 31
0.0
  0
LINE
  5
1244
330
1E
100
AcDbEntity
  8
STEMPEL
100
AcDbLine
 10
189.0
 20
426.0275346310497
 30
0.0
 11
189.0
 21
423.0275346310497
 31
0.0
  0
LINE
  5
1245
330
1E
100
AcDbEntity
  8
STEMPEL
100
AcDbLine
 10
189.0
 20
423.0275346310497
 30
0.0
 11
188.5
 21
423.0275346310497
 31
0.0
  0
LINE
  5
1246
330
1E
100
AcDbEntity
  8
STEMPEL
100
AcDbLine
 10
189.0
 20
426.0275346310497
 30
0.0
 11
188.5
 21
426.0275346310497
 31
0.0
  0
LINE
  5
1247
330
1E
100
AcDbEntity
  8
STEMPEL
100
AcDbLine
 10
188.5
 20
438.0275346310496
 30
0.0
 11
188.5
 21
426.0275346310497
 31
0.0
  0
LINE
  5
1248
330
1E
100
AcDbEntity
  8
STEMPEL
100
AcDbLine
 10
188.5
 20
453.0275346310497
 30
0.0
 11
188.5
 21
441.0275346310497
 31
0.0
  0
LINE
  5
1249
330
1E
100
AcDbEntity
  8
STEMPEL
100
AcDbLine
 10
189.0
 20
411.0275346310497
 30
0.0
 11
188.5
 21
411.0275346310497
 31
0.0
  0
LINE
  5
124A
330
1E
100
AcDbEntity
  8
STEMPEL
100
AcDbLine
 10
189.0
 20
408.0275346310497
 30
0.0
 11
188.5
 21
408.0275346310497
 31
0.0
  0
LINE
  5
124B
330
1E
100
AcDbEntity
  8
STEMPEL
100
AcDbLine
 10
189.0
 20
411.0275346310497
 30
0.0
 11
189.0
 21
408.0275346310497
 31
0.0
  0
LINE
  5
124C
330
1E
100
AcDbEntity
  8
STEMPEL
100
AcDbLine
 10
189.0
 20
396.0275346310497
 30
0.0
 11
189.0
 21
393.0275346310497
 31
0.0
  0
LINE
  5
124D
330
1E
100
AcDbEntity
  8
STEMPEL
100
AcDbLine
 10
189.0
 20
396.0275346310497
 30
0.0
 11
188.5
 21
396.0275346310497
 31
0.0
  0
LINE
  5
124E
330
1E
100
AcDbEntity
  8
STEMPEL
100
AcDbLine
 10
189.0
 20
393.0275346310497
 30
0.0
 11
188.5
 21
393.0275346310497
 31
0.0
  0
LINE
  5
124F
330
1E
100
AcDbEntity
  8
STEMPEL
100
AcDbLine
 10
189.0
 20
381.0275346310497
 30
0.0
 11
189.0
 21
378.0275346310497
 31
0.0
  0
LINE
  5
1250
330
1E
100
AcDbEntity
  8
STEMPEL
100
AcDbLine
 10
189.0
 20
378.0275346310497
 30
0.0
 11
188.5
 21
378.0275346310497
 31
0.0
  0
LINE
  5
1251
330
1E
100
AcDbEntity
  8
STEMPEL
100
AcDbLine
 10
189.0
 20
381.0275346310497
 30
0.0
 11
188.5
 21
381.0275346310497
 31
0.0
  0
LINE
  5
1252
330
1E
100
AcDbEntity
  8
STEMPEL
100
AcDbLine
 10
188.5
 20
393.0275346310498
 30
0.0
 11
188.5
 21
381.0275346310497
 31
0.0
  0
LINE
  5
1253
330
1E
100
AcDbEntity
  8
STEMPEL
100
AcDbLine
 10
188.5
 20
408.0275346310497
 30
0.0
 11
188.5
 21
396.0275346310498
 31
0.0
  0
LINE
  5
1254
330
1E
100
AcDbEntity
  8
STEMPEL
100
AcDbLine
 10
188.5
 20
423.0275346310497
 30
0.0
 11
188.5
 21
411.0275346310497
 31
0.0
  0
LINE
  5
1255
330
1E
100
AcDbEntity
  8
STEMPEL
100
AcDbLine
 10
189.0
 20
366.0275346310497
 30
0.0
 11
188.5
 21
366.0275346310497
 31
0.0
  0
LINE
  5
1256
330
1E
100
AcDbEntity
  8
STEMPEL
100
AcDbLine
 10
189.0
 20
363.0275346310497
 30
0.0
 11
188.5
 21
363.0275346310497
 31
0.0
  0
LINE
  5
1257
330
1E
100
AcDbEntity
  8
STEMPEL
100
AcDbLine
 10
189.0
 20
366.0275346310497
 30
0.0
 11
189.0
 21
363.0275346310497
 31
0.0
  0
LINE
  5
1259
330
1E
100
AcDbEntity
  8
STEMPEL
100
AcDbLine
 10
188.5
 20
363.0275346310497
 30
0.0
 11
188.5
 21
349.0275346310497
 31
0.0
  0
LINE
  5
125C
330
1E
100
AcDbEntity
  8
STEMPEL
100
AcDbLine
 10
188.5
 20
378.0275346310497
 30
0.0
 11
188.5
 21
366.0275346310497
 31
0.0
  0
LINE
  5
125F
330
1E
100
AcDbEntity
  8
STEMPEL
100
AcDbLine
 10
193.0
 20
483.0275346310497
 30
0.0
 11
190.5
 21
349.0275346310497
 31
0.0
  0
LINE
  5
1260
330
1E
100
AcDbEntity
  8
STEMPEL
100
AcDbLine
 10
188.5
 20
468.0275346310496
 30
0.0
 11
188.5
 21
456.0275346310496
 31
0.0
  0
LINE
  5
1290
330
1E
100
AcDbEntity
  8
STEMPEL
100
AcDbLine
 10
188.5
 20
349.0275346310496
 30
0.0
 11
261.4999999999999
 21
349.0275346310498
 31
0.0
  0
LINE
  5
1295
330
1E
100
AcDbEntity
  8
STEMPEL
100
AcDbLine
 10
177.4999999999999
 20
493.0275346310496
 30
0.0
 11
272.4999999999999
 21
493.0275346310495
 31
0.0
  0
LINE
  5
1296
330
1E
100
AcDbEntity
  8
STEMPEL
100
AcDbLine
 10
174.5
 20
499.0275346310496
 30
0.0
 11
275.4999999999999
 21
499.0275346310496
 31
0.0
  0
LINE
  5
1297
330
1E
100
AcDbEntity
  8
STEMPEL
100
AcDbLine
 10
192.9999999999999
 20
483.0275346310497
 30
0.0
 11
256.9999999999999
 21
483.0275346310497
 31
0.0
  0
HATCH
  5
129D
330
1E
100
AcDbEntity
  8
SCHRAFF
100
AcDbHatch
 10
0.0
 20
0.0
 30
0.0
210
0.0
220
0.0
230
1.0
  2
NET
 70
     0
 71
     0
 91
        2
 92
        7
 72
     0
 73
     1
 93
       42
 10
272.4999999999999
 20
493.0275346310494
 10
266.9999999999997
 20
493.0275346310494
 10
256.9999999999999
 20
483.0275346310497
 10
259.5
 20
349.0275346310497
 10
261.4999999999999
 20
349.0275346310497
 10
261.4999999999999
 20
363.0275346310497
 10
260.9999999999998
 20
363.0275346310497
 10
260.9999999999999
 20
366.0275346310497
 10
261.4999999999999
 20
366.0275346310497
 10
261.4999999999998
 20
378.0275346310497
 10
260.9999999999998
 20
378.0275346310497
 10
260.9999999999999
 20
381.0275346310497
 10
261.4999999999999
 20
381.0275346310497
 10
261.4999999999999
 20
393.0275346310497
 10
260.9999999999998
 20
393.0275346310497
 10
260.9999999999999
 20
396.0275346310497
 10
261.4999999999999
 20
396.0275346310497
 10
261.4999999999998
 20
408.0275346310497
 10
260.9999999999999
 20
408.0275346310497
 10
260.9999999999998
 20
411.0275346310497
 10
261.4999999999999
 20
411.0275346310498
 10
261.4999999999998
 20
423.0275346310497
 10
260.9999999999999
 20
423.0275346310497
 10
260.9999999999998
 20
426.0275346310497
 10
261.4999999999999
 20
426.0275346310497
 10
261.4999999999999
 20
438.0275346310497
 10
260.9999999999998
 20
438.0275346310496
 10
260.9999999999999
 20
441.0275346310497
 10
261.4999999999998
 20
441.0275346310497
 10
261.4999999999999
 20
453.0275346310497
 10
260.9999999999998
 20
453.0275346310497
 10
260.9999999999999
 20
456.0275346310497
 10
261.4999999999998
 20
456.0275346310497
 10
261.4999999999999
 20
468.0275346310496
 10
260.9999999999999
 20
468.0275346310496
 10
260.9999999999999
 20
471.0275346310496
 10
261.4999999999998
 20
471.0275346310496
 10
261.4999999999999
 20
483.0275346310496
 10
268.4999999999998
 20
490.0275346310496
 10
275.4999999999999
 20
490.0275346310497
 10
275.4999999999999
 20
499.0275346310496
 10
272.4999999999999
 20
499.0275346310497
 97
        0
 92
        7
 72
     0
 73
     1
 93
       42
 10
188.5
 20
471.0275346310496
 10
189.0
 20
471.0275346310496
 10
189.0
 20
468.0275346310496
 10
188.5
 20
468.0275346310496
 10
188.5
 20
456.0275346310497
 10
189.0
 20
456.0275346310497
 10
189.0
 20
453.0275346310497
 10
188.5
 20
453.0275346310497
 10
188.5
 20
441.0275346310497
 10
189.0
 20
441.0275346310497
 10
189.0
 20
438.0275346310496
 10
188.5
 20
438.0275346310496
 10
188.5
 20
426.0275346310497
 10
189.0
 20
426.0275346310497
 10
189.0
 20
423.0275346310497
 10
188.5
 20
423.0275346310497
 10
188.5
 20
411.0275346310497
 10
189.0
 20
411.0275346310497
 10
189.0
 20
408.0275346310497
 10
188.5
 20
408.0275346310497
 10
188.5
 20
396.0275346310497
 10
189.0
 20
396.0275346310497
 10
189.0
 20
393.0275346310497
 10
188.5
 20
393.0275346310497
 10
188.5
 20
381.0275346310497
 10
189.0
 20
381.0275346310497
 10
189.0
 20
378.0275346310497
 10
188.5
 20
378.0275346310497
 10
188.5
 20
366.0275346310497
 10
189.0
 20
366.0275346310497
 10
189.0
 20
363.0275346310497
 10
188.5
 20
363.0275346310497
 10
188.5
 20
349.0275346310497
 10
190.5
 20
349.0275346310497
 10
192.9999999999999
 20
483.0275346310497
 10
183.0
 20
493.0275346310496
 10
177.4999999999999
 20
493.0275346310496
 10
177.4999999999999
 20
499.0275346310496
 10
174.5
 20
499.0275346310497
 10
174.5
 20
490.0275346310494
 10
181.5
 20
490.0275346310496
 10
188.5
 20
483.0275346310497
 97
        0
 75
     0
 76
     1
 52
45.0
 41
15.0
 77
     0
 78
     2
 53
45.0
 43
0.0
 44
-14.55530374823218
 45
-1.325825214724776
 46
1.325825214724776
 79
     0
 53
135.0
 43
0.0
 44
-14.55530374823218
 45
-1.325825214724776
 46
-1.325825214724776
 79
     0
 47
0.33477438141283
 98
        2
 10
273.5826395429576
 20
492.9051454274135
 10
190.4998710180007
 20
474.1577808175483
  0
TEXT
  5
16A4
330
1E
100
AcDbEntity
  8
VOLL
100
AcDbText
 10
675.2878178852164
 20
264.9548375810717
 30
0.0
 40
1.8
  1

  7
GREEKS
100
AcDbText
  0
LINE
  5
16B8
330
1E
100
AcDbEntity
  8
STEMPEL
100
AcDbLine
 10
271.9999999999999
 20
493.0275346310495
 30
0.0
 11
271.9999999999999
 21
496.5275346310495
 31
0.0
  0
LINE
  5
16B9
330
1E
100
AcDbEntity
  8
STEMPEL
100
AcDbLine
 10
177.9999999999999
 20
493.0275346310495
 30
0.0
 11
177.9999999999999
 21
496.5275346310495
 31
0.0
  0
ARC
  5
16BE
330
1E
100
AcDbEntity
  8
STEMPEL
100
AcDbCircle
 10
269.4999999999999
 20
496.5275346310495
 30
0.0
 40
2.5
100
AcDbArc
 50
0.0
 51
90.0
  0
ARC
  5
16BF
330
1E
100
AcDbEntity
  8
STEMPEL
100
AcDbCircle
 10
180.4999999999999
 20
496.5275346310495
 30
0.0
 40
2.5
100
AcDbArc
 50
90.0
 51
180.0
  0
LINE
  5
16F1
330
1E
100
AcDbEntity
  8
STEMPEL
100
AcDbLine
 10
219.3076118445747
 20
495.0275346310495
 30
0.0
 11
219.3076118445747
 21
495.5275346310496
 31
0.0
  0
LINE
  5
16F2
330
1E
100
AcDbEntity
  8
STEMPEL
100
AcDbLine
 10
210.8578643762688
 20
495.0275346310495
 30
0.0
 11
210.8578643762688
 21
495.5275346310496
 31
0.0
  0
ARC
  5
16F3
330
1E
100
AcDbEntity
  8
STEMPEL
100
AcDbCircle
 10
180.4999999999999
 20
496.5275346310495
 30
0.0
 40
1.25
100
AcDbArc
 50
90.0
 51
180.0
  0
LINE
  5
16F4
330
1E
100
AcDbEntity
  8
STEMPEL
100
AcDbLine
 10
227.1923881554251
 20
497.7775346310496
 30
0.0
 11
222.8076118445747
 21
497.7775346310496
 31
0.0
  0
LINE
  5
16F5
330
1E
100
AcDbEntity
  8
STEMPEL
100
AcDbLine
 10
179.2499999999999
 20
493.0275346310495
 30
0.0
 11
179.2499999999999
 21
496.5275346310495
 31
0.0
  0
ARC
  5
16F6
330
1E
100
AcDbEntity
  8
STEMPEL
100
AcDbCircle
 10
269.4999999999999
 20
496.5275346310495
 30
0.0
 40
1.25
100
AcDbArc
 50
0.0
 51
90.0
  0
LINE
  5
16F7
330
1E
100
AcDbEntity
  8
STEMPEL
100
AcDbLine
 10
270.7499999999999
 20
493.0275346310495
 30
0.0
 11
270.7499999999999
 21
496.5275346310495
 31
0.0
  0
LINE
  5
16F8
330
1E
100
AcDbEntity
  8
STEMPEL
100
AcDbLine
 10
267.2266594028869
 20
495.0275346310496
 30
0.0
 11
182.7733405971128
 21
495.0275346310496
 31
0.0
  0
LINE
  5
16F9
330
1E
100
AcDbEntity
  8
STEMPEL
100
AcDbLine
 10
202.3725830020303
 20
495.0275346310495
 30
0.0
 11
202.3725830020303
 21
495.5275346310496
 31
0.0
  0
LINE
  5
16FA
330
1E
100
AcDbEntity
  8
STEMPEL
100
AcDbLine
 10
192.4730880654187
 20
495.0275346310496
 30
0.0
 11
192.4730880654187
 21
495.5275346310496
 31
0.0
  0
LINE
  5
16FB
330
1E
100
AcDbEntity
  8
STEMPEL
100
AcDbLine
 10
182.7733405971128
 20
495.0275346310495
 30
0.0
 11
182.7733405971128
 21
495.5275346310496
 31
0.0
  0
ARC
  5
16FC
330
1E
100
AcDbEntity
  8
STEMPEL
100
AcDbCircle
 10
180.5233405971128
 20
495.5275346310496
 30
0.0
 40
2.25
100
AcDbArc
 50
0.0
 51
90.0
  0
ARC
  5
16FD
330
1E
100
AcDbEntity
  8
STEMPEL
100
AcDbCircle
 10
188.9730880654186
 20
495.5275346310496
 30
0.0
 40
2.25
100
AcDbArc
 50
0.0
 51
90.0
  0
LINE
  5
16FE
330
1E
100
AcDbEntity
  8
STEMPEL
100
AcDbLine
 10
191.2230880654187
 20
495.0275346310495
 30
0.0
 11
191.2230880654187
 21
495.5275346310496
 31
0.0
  0
LINE
  5
16FF
330
1E
100
AcDbEntity
  8
STEMPEL
100
AcDbLine
 10
209.6078643762688
 20
495.0275346310495
 30
0.0
 11
209.6078643762688
 21
495.5275346310496
 31
0.0
  0
ARC
  5
1700
330
1E
100
AcDbEntity
  8
STEMPEL
100
AcDbCircle
 10
207.3578643762688
 20
495.5275346310496
 30
0.0
 40
2.25
100
AcDbArc
 50
0.0
 51
90.0
  0
ARC
  5
1701
330
1E
100
AcDbEntity
  8
STEMPEL
100
AcDbCircle
 10
205.8725830020303
 20
495.5275346310496
 30
0.0
 40
2.25
100
AcDbArc
 50
90.0
 51
180.0
  0
LINE
  5
1702
330
1E
100
AcDbEntity
  8
STEMPEL
100
AcDbLine
 10
203.6225830020303
 20
495.0275346310495
 30
0.0
 11
203.6225830020303
 21
495.5275346310496
 31
0.0
  0
LINE
  5
1703
330
1E
100
AcDbEntity
  8
STEMPEL
100
AcDbLine
 10
220.5576118445747
 20
495.0275346310495
 30
0.0
 11
220.5576118445747
 21
495.5275346310496
 31
0.0
  0
ARC
  5
1704
330
1E
100
AcDbEntity
  8
STEMPEL
100
AcDbCircle
 10
222.8076118445747
 20
495.5275346310496
 30
0.0
 40
2.25
100
AcDbArc
 50
90.0
 51
180.0
  0
LINE
  5
1705
330
1E
100
AcDbEntity
  8
STEMPEL
100
AcDbLine
 10
207.3578643762688
 20
497.7775346310496
 30
0.0
 11
205.8725830020303
 21
497.7775346310496
 31
0.0
  0
LINE
  5
1706
330
1E
100
AcDbEntity
  8
STEMPEL
100
AcDbLine
 10
188.9730880654186
 20
497.7775346310496
 30
0.0
 11
180.4999999999999
 21
497.7775346310496
 31
0.0
  0
ARC
  5
1707
330
1E
100
AcDbEntity
  8
STEMPEL
100
AcDbCircle
 10
188.9730880654186
 20
495.5275346310496
 30
0.0
 40
3.5
100
AcDbArc
 50
0.0
 51
90.0
  0
ARC
  5
1708
330
1E
100
AcDbEntity
  8
STEMPEL
100
AcDbCircle
 10
205.8725830020303
 20
495.5275346310496
 30
0.0
 40
3.5
100
AcDbArc
 50
90.0
 51
180.0
  0
ARC
  5
1709
330
1E
100
AcDbEntity
  8
STEMPEL
100
AcDbCircle
 10
207.3578643762688
 20
495.5275346310496
 30
0.0
 40
3.5
100
AcDbArc
 50
0.0
 51
90.0
  0
ARC
  5
170A
330
1E
100
AcDbEntity
  8
STEMPEL
100
AcDbCircle
 10
222.8076118445747
 20
495.5275346310496
 30
0.0
 40
3.5
100
AcDbArc
 50
90.0
 51
180.0
  0
ARC
  5
170B
330
1E
100
AcDbEntity
  8
STEMPEL
100
AcDbCircle
 10
227.1923881554251
 20
495.5275346310496
 30
0.0
 40
3.5
100
AcDbArc
 50
0.0
 51
90.0
  0
ARC
  5
170C
330
1E
100
AcDbEntity
  8
STEMPEL
100
AcDbCircle
 10
242.6421356237309
 20
495.5275346310495
 30
0.0
 40
3.5
100
AcDbArc
 50
90.0
 51
180.0
  0
ARC
  5
170D
330
1E
100
AcDbEntity
  8
STEMPEL
100
AcDbCircle
 10
244.1274169979695
 20
495.5275346310495
 30
0.0
 40
3.5
100
AcDbArc
 50
0.0
 51
90.0
  0
ARC
  5
170E
330
1E
100
AcDbEntity
  8
STEMPEL
100
AcDbCircle
 10
261.0269119345811
 20
495.5275346310495
 30
0.0
 40
3.5
100
AcDbArc
 50
90.0
 51
180.0
  0
LINE
  5
170F
330
1E
100
AcDbEntity
  8
STEMPEL
100
AcDbLine
 10
261.0269119345811
 20
497.7775346310495
 30
0.0
 11
269.4999999999999
 21
497.7775346310495
 31
0.0
  0
LINE
  5
1710
330
1E
100
AcDbEntity
  8
STEMPEL
100
AcDbLine
 10
242.6421356237309
 20
497.7775346310495
 30
0.0
 11
244.1274169979695
 21
497.7775346310495
 31
0.0
  0
ARC
  5
1711
330
1E
100
AcDbEntity
  8
STEMPEL
100
AcDbCircle
 10
227.1923881554251
 20
495.5275346310496
 30
0.0
 40
2.25
100
AcDbArc
 50
0.0
 51
90.0
  0
LINE
  5
1712
330
1E
100
AcDbEntity
  8
STEMPEL
100
AcDbLine
 10
229.4423881554251
 20
495.0275346310495
 30
0.0
 11
229.4423881554251
 21
495.5275346310496
 31
0.0
  0
LINE
  5
1713
330
1E
100
AcDbEntity
  8
STEMPEL
100
AcDbLine
 10
246.3774169979695
 20
495.0275346310495
 30
0.0
 11
246.3774169979695
 21
495.5275346310495
 31
0.0
  0
ARC
  5
1714
330
1E
100
AcDbEntity
  8
STEMPEL
100
AcDbCircle
 10
244.1274169979695
 20
495.5275346310495
 30
0.0
 40
2.25
100
AcDbArc
 50
0.0
 51
90.0
  0
ARC
  5
1715
330
1E
100
AcDbEntity
  8
STEMPEL
100
AcDbCircle
 10
242.6421356237309
 20
495.5275346310495
 30
0.0
 40
2.25
100
AcDbArc
 50
90.0
 51
180.0
  0
LINE
  5
1716
330
1E
100
AcDbEntity
  8
STEMPEL
100
AcDbLine
 10
240.3921356237309
 20
495.0275346310495
 30
0.0
 11
240.3921356237309
 21
495.5275346310495
 31
0.0
  0
LINE
  5
1717
330
1E
100
AcDbEntity
  8
STEMPEL
100
AcDbLine
 10
258.7769119345811
 20
495.0275346310495
 30
0.0
 11
258.7769119345811
 21
495.5275346310495
 31
0.0
  0
ARC
  5
1718
330
1E
100
AcDbEntity
  8
STEMPEL
100
AcDbCircle
 10
261.0269119345811
 20
495.5275346310495
 30
0.0
 40
2.25
100
AcDbArc
 50
90.0
 51
180.0
  0
ARC
  5
1719
330
1E
100
AcDbEntity
  8
STEMPEL
100
AcDbCircle
 10
269.4766594028869
 20
495.5275346310495
 30
0.0
 40
2.25
100
AcDbArc
 50
90.0
 51
180.0
  0
LINE
  5
171A
330
1E
100
AcDbEntity
  8
STEMPEL
100
AcDbLine
 10
267.2266594028869
 20
495.0275346310495
 30
0.0
 11
267.2266594028869
 21
495.5275346310495
 31
0.0
  0
LINE
  5
171B
330
1E
100
AcDbEntity
  8
STEMPEL
100
AcDbLine
 10
257.5269119345811
 20
495.0275346310495
 30
0.0
 11
257.5269119345811
 21
495.5275346310495
 31
0.0
  0
LINE
  5
171C
330
1E
100
AcDbEntity
  8
STEMPEL
100
AcDbLine
 10
247.6274169979695
 20
495.0275346310495
 30
0.0
 11
247.6274169979695
 21
495.5275346310495
 31
0.0
  0
LINE
  5
171D
330
1E
100
AcDbEntity
  8
STEMPEL
100
AcDbLine
 10
239.142135623731
 20
495.0275346310495
 30
0.0
 11
239.142135623731
 21
495.5275346310495
 31
0.0
  0
LINE
  5
171E
330
1E
100
AcDbEntity
  8
STEMPEL
100
AcDbLine
 10
230.6923881554251
 20
495.0275346310495
 30
0.0
 11
230.6923881554251
 21
495.5275346310496
 31
0.0
  0
HATCH
  5
172C
330
1E
100
AcDbEntity
  8
SCHRAFF
100
AcDbHatch
 10
0.0
 20
0.0
 30
0.0
210
0.0
220
0.0
230
1.0
  2
_USER
 70
     0
 71
     0
 91
        6
 92
        7
 72
     1
 73
     1
 93
       12
 10
188.9730880654186
 20
499.0275346310496
 42
0.0
 10
180.4999999999999
 20
499.0275346310496
 42
0.4142135623730951
 10
177.9999999999999
 20
496.5275346310495
 42
0.0
 10
177.9999999999998
 20
493.0275346310495
 42
0.0
 10
179.2499999999999
 20
493.0275346310495
 42
0.0
 10
179.2499999999999
 20
496.5275346310495
 42
-0.4142135623730951
 10
180.4999999999999
 20
497.7775346310496
 42
0.0
 10
188.9730880654186
 20
497.7775346310496
 42
-0.4142135623730934
 10
191.2230880654187
 20
495.5275346310496
 42
0.0
 10
191.2230880654187
 20
495.0275346310496
 42
0.0
 10
192.4730880654187
 20
495.0275346310496
 42
0.0
 10
192.4730880654187
 20
495.5275346310496
 42
0.4142135623730964
 97
        0
 92
        7
 72
     1
 73
     1
 93
       12
 10
207.3578643762688
 20
499.0275346310496
 42
0.0
 10
205.8725830020303
 20
499.0275346310496
 42
0.4142135623730951
 10
202.3725830020303
 20
495.5275346310496
 42
0.0
 10
202.3725830020303
 20
495.0275346310496
 42
0.0
 10
203.6225830020303
 20
495.0275346310496
 42
0.0
 10
203.6225830020303
 20
495.5275346310496
 42
-0.4142135623730934
 10
205.8725830020303
 20
497.7775346310496
 42
0.0
 10
207.3578643762688
 20
497.7775346310496
 42
-0.4142135623730934
 10
209.6078643762688
 20
495.5275346310496
 42
0.0
 10
209.6078643762688
 20
495.0275346310496
 42
0.0
 10
210.8578643762688
 20
495.0275346310495
 42
0.0
 10
210.8578643762688
 20
495.5275346310496
 42
0.4142135623730964
 97
        0
 92
        7
 72
     1
 73
     1
 93
        8
 10
224.9999999999999
 20
499.0275346310496
 42
0.0
 10
222.8076118445747
 20
499.0275346310496
 42
0.4142135623731023
 10
219.3076118445747
 20
495.5275346310496
 42
0.0
 10
219.3076118445747
 20
495.0275346310496
 42
0.0
 10
220.5576118445747
 20
495.0275346310496
 42
0.0
 10
220.5576118445747
 20
495.5275346310496
 42
-0.4142135623730934
 10
222.8076118445747
 20
497.7775346310496
 42
0.0
 10
224.9999999999999
 20
497.7775346310496
 42
0.0
 97
        0
 92
        7
 72
     1
 73
     1
 93
        8
 10
227.1923881554251
 20
499.0275346310496
 42
0.0
 10
224.9999999999999
 20
499.0275346310496
 42
0.0
 10
224.9999999999999
 20
497.7775346310496
 42
0.0
 10
227.1923881554251
 20
497.7775346310496
 42
-0.4142135623730934
 10
229.4423881554251
 20
495.5275346310496
 42
0.0
 10
229.4423881554251
 20
495.0275346310496
 42
0.0
 10
230.6923881554251
 20
495.0275346310496
 42
0.0
 10
230.6923881554251
 20
495.5275346310496
 42
0.4142135623730975
 97
        0
 92
        7
 72
     1
 73
     1
 93
       12
 10
244.1274169979695
 20
499.0275346310496
 42
0.0
 10
242.6421356237309
 20
499.0275346310496
 42
0.4142135623730985
 10
239.142135623731
 20
495.5275346310495
 42
0.0
 10
239.142135623731
 20
495.0275346310496
 42
0.0
 10
240.3921356237308
 20
495.0275346310496
 42
0.0
 10
240.3921356237309
 20
495.5275346310495
 42
-0.4142135623730951
 10
242.6421356237309
 20
497.7775346310495
 42
0.0
 10
244.1274169979695
 20
497.7775346310495
 42
-0.4142135623730951
 10
246.3774169979695
 20
495.5275346310495
 42
0.0
 10
246.3774169979695
 20
495.0275346310496
 42
0.0
 10
247.6274169979695
 20
495.0275346310496
 42
0.0
 10
247.6274169979695
 20
495.5275346310495
 42
0.4142135623730999
 97
        0
 92
        7
 72
     1
 73
     1
 93
       12
 10
269.4999999999999
 20
499.0275346310496
 42
0.0
 10
261.0269119345811
 20
499.0275346310496
 42
0.4142135623731022
 10
257.5269119345811
 20
495.5275346310495
 42
0.0
 10
257.5269119345811
 20
495.0275346310496
 42
0.0
 10
258.7769119345811
 20
495.0275346310497
 42
0.0
 10
258.7769119345811
 20
495.5275346310495
 42
-0.4142135623730951
 10
261.0269119345811
 20
497.7775346310495
 42
0.0
 10
269.4999999999999
 20
497.7775346310495
 42
-0.4142135623730432
 10
270.7499999999999
 20
496.5275346310495
 42
0.0
 10
270.7499999999999
 20
493.0275346310495
 42
0.0
 10
271.9999999999999
 20
493.0275346310495
 42
0.0
 10
271.9999999999999
 20
496.5275346310495
 42
0.4142135623730964
 97
        0
 75
     0
 76
     0
 52
45.0
 41
2.0
 77
     0
 78
     1
 53
45.0
 43
114.2868512291187
 44
247.6778457401219
 45
-1.414213562373094
 46
1.414213562373095
 79
     0
 47
0.19196931903384
 98
        6
 10
187.3300952465405
 20
498.3529620977496
 10
205.0042769088692
 20
498.3529620977496
 10
223.8311233585633
 20
498.1609928454616
 10
226.5206722706324
 20
498.1609928454616
 10
243.2343001693349
 20
498.5449313500376
 10
262.829589358916
 20
498.5449313500376
  0
LINE
  5
18DD
330
1E
100
AcDbEntity
  8
STEMPEL
100
AcDbLine
 10
188.5
 20
418.6998918807335
 30
0.0
 11
186.6029384845719
 21
418.6998918807334
 31
0.0
  0
LINE
  5
18DE
330
1E
100
AcDbEntity
  8
STEMPEL
100
AcDbLine
 10
189.0
 20
393.5835558904429
 30
0.0
 11
187.4439926474814
 21
393.5835558904429
 31
0.0
  0
LINE
  5
18EA
330
1E
100
AcDbEntity
  8
TEXT
 62
     2
100
AcDbLine
 10
272.4375795425977
 20
555.688842568974
 30
0.0
 11
265.316038635404
 21
541.0376359928679
 31
0.0
  0
TEXT
  5
18F7
330
1E
100
AcDbEntity
  8
TEXT
 62
     1
100
AcDbText
 10
273.0258856568743
 20
559.6789018372878
 30
0.0
 40
7.0
  1
Edelstahlsieb
 41
0.8
  7
GREEKS
100
AcDbText
  0
LINE
  5
18F8
330
1E
100
AcDbEntity
  8
TEXT
 62
     2
100
AcDbLine
 10
272.4375795425977
 20
555.688842568974
 30
0.0
 11
377.9449342286611
 21
555.688842568974
 31
0.0
  0
TEXT
  5
18F9
330
1E
100
AcDbEntity
  8
TEXT
 62
     1
100
AcDbText
 10
273.0258856568743
 20
546.8564030013397
 30
0.0
 40
7.0
  1
EDV-Art.Nr. 15096.000X
 41
0.8
  7
GREEKS
100
AcDbText
  0
DIMENSION
  5
18FA
330
1E
100
AcDbEntity
  8
BEM
100
AcDbDimension
  2
*D10
 10
154.711774421615
 20
490.0275346310495
 30
0.0
 11
148.2117744216149
 21
471.2942012977162
 31
0.0
 70
    32
 71
     5
 42
9.000000000000113
  3
Standard
100
AcDbAlignedDimension
 13
174.5
 23
499.0275346310496
 33
0.0
 14
174.5
 24
490.0275346310495
 34
0.0
 50
90.0
100
AcDbRotatedDimension
1001
ACAD
1000
DSTYLE
1002
{
1070
    40
1040
2.0
1070
    41
1040
3.5
1070
    42
1040
1.0
1070
    43
1040
7.0
1070
    44
1040
1.0
1070
    73
1070
     0
1070
    74
1070
     0
1070
    77
1070
     1
1070
    78
1070
     8
1070
    79
1070
     2
1070
   140
1040
3.5
1070
   141
1040
1.5
1070
   146
1040
0.5142857142857144
1070
   147
1040
1.5
1070
   172
1070
     1
1070
   178
1070
     1
1070
   179
1070
     2
1070
   271
1070
     2
1070
   272
1070
     2
1070
   284
1070
     8
1070
   285
1070
     8
1070
   286
1070
     8
1002
}
  0
LINE
  5
1921
330
1E
100
AcDbEntity
  8
MITTEL
100
AcDbLine
 10
225.0
 20
315.7234980002127
 30
0.0
 11
224.9999999999999
 21
144.3450175792375
 31
0.0
  0
LINE
  5
1932
330
1E
100
AcDbEntity
  8
TEXT
 62
     2
100
AcDbLine
 10
262.9525877811782
 20
536.1752884828287
 30
0.0
 11
257.8216733086668
 21
525.6194145728494
 31
0.0
  0
LINE
  5
1933
330
1E
100
AcDbEntity
  8
TEXT
 62
     2
100
AcDbLine
 10
255.7564753416226
 20
521.370665260021
 30
0.0
 11
250.3273085321559
 21
510.2011942848158
 31
0.0
  0
LINE
  5
1934
330
1E
100
AcDbEntity
  8
TEXT
 62
     2
100
AcDbLine
 10
248.7912266692287
 20
507.0410000256178
 30
0.0
 11
244.326137693901
 21
497.8549345644005
 31
0.0
  0
ENDSEC
  0
SECTION
  2
OBJECTS
  0
DICTIONARY
  5
C
330
0
100
AcDbDictionary
281
     1
  3
ACAD_COLOR
350
DF
  3
ACAD_GROUP
350
D
  3
ACAD_LAYOUT
350
19
  3
ACAD_MATERIAL
350
DE
  3
ACAD_MLINESTYLE
350
16
  3
ACAD_PLOTSETTINGS
350
18
  3
ACAD_PLOTSTYLENAME
350
E
  3
AcDbVariableDictionary
350
EA
  0
DICTIONARY
  5
A0
330
1E
100
AcDbDictionary
280
     1
281
     1
  3
ACAD_LAYOUTSELFREF
360
D4
  0
DICTIONARY
  5
A2
330
1A
100
AcDbDictionary
280
     1
281
     1
  3
ACAD_LAYOUTSELFREF
360
D3
  0
DICTIONARY
  5
DF
102
{ACAD_REACTORS
330
C
102
}
330
C
100
AcDbDictionary
281
     1
  0
DICTIONARY
  5
D
102
{ACAD_REACTORS
330
C
102
}
330
C
100
AcDbDictionary
281
     1
  0
DICTIONARY
  5
19
102
{ACAD_REACTORS
330
C
102
}
330
C
100
AcDbDictionary
281
     1
  3
Layout1
350
1D
  3
Model
350
21
  0
DICTIONARY
  5
DE
102
{ACAD_REACTORS
330
C
102
}
330
C
100
AcDbDictionary
281
     1
  0
DICTIONARY
  5
16
102
{ACAD_REACTORS
330
C
102
}
330
C
100
AcDbDictionary
281
     1
  3
Standard
350
17
  0
DICTIONARY
  5
18
102
{ACAD_REACTORS
330
C
102
}
330
C
100
AcDbDictionary
281
     1
  0
ACDBDICTIONARYWDFLT
  5
E
102
{ACAD_REACTORS
330
C
102
}
330
C
100
AcDbDictionary
281
     1
  3
Normal
350
F
100
AcDbDictionaryWithDefault
340
F
  0
DICTIONARY
  5
EA
102
{ACAD_REACTORS
330
C
102
}
330
C
100
AcDbDictionary
281
     1
  3
DIMASSOC
350
EB
  3
PROJECTNAME
350
EC
  0
XRECORD
  5
D4
102
{ACAD_REACTORS
330
A0
102
}
330
A0
100
AcDbXrecord
280
     1
340
1E
  0
XRECORD
  5
D3
102
{ACAD_REACTORS
330
A2
102
}
330
A2
100
AcDbXrecord
280
     1
340
1A
  0
LAYOUT
  5
1D
102
{ACAD_REACTORS
330
19
102
}
330
19
100
AcDbPlotSettings
  1

  2
\\NT_WORK01\HP LaserJet 5000 PCL 6
  4

  6

 40
0.0
 41
0.0
 42
0.0
 43
0.0
 44
0.0
 45
0.0
 46
0.0
 47
0.0
 48
0.0
 49
0.0
140
0.0
141
0.0
142
1.0
143
1.0
 70
   688
 72
     0
 73
     0
 74
     5
  7

 75
    16
147
1.0
 76
     0
 77
     2
 78
   300
148
0.0
149
0.0
100
AcDbLayout
  1
Layout1
 70
     0
 71
     1
 10
0.0
 20
0.0
 11
12.0
 21
9.0
 12
0.0
 22
0.0
 32
0.0
 14
1.000000000000000E+20
 24
1.000000000000000E+20
 34
1.000000000000000E+20
 15
-1.000000000000000E+20
 25
-1.000000000000000E+20
 35
-1.000000000000000E+20
146
0.0
 13
0.0
 23
0.0
 33
0.0
 16
1.0
 26
0.0
 36
0.0
 17
0.0
 27
1.0
 37
0.0
 76
     0
330
1A
  0
LAYOUT
  5
21
102
{ACAD_REACTORS
330
19
102
}
330
19
100
AcDbPlotSettings
  1

  2
none_device
  4
Letter_(8.50_x_11.00_Inches)
  6

 40
6.349999904632568
 41
6.349999904632568
 42
6.350006103515625
 43
6.350006103515625
 44
215.8999938964844
 45
279.3999938964844
 46
0.0
 47
0.0
 48
0.0
 49
0.0
140
0.0
141
0.0
142
1.0
143
1.0
 70
 11952
 72
     0
 73
     1
 74
     0
  7

 75
     0
147
1.0
 76
     0
 77
     2
 78
   300
148
2271.647266194407
149
61.84724561340366
100
AcDbLayout
  1
Model
 70
     1
 71
     0
 10
0.0
 20
0.0
 11
12.0
 21
9.0
 12
0.0
 22
0.0
 32
0.0
 14
0.0
 24
0.0
 34
0.0
 15
0.0
 25
0.0
 35
0.0
146
0.0
 13
0.0
 23
0.0
 33
0.0
 16
1.0
 26
0.0
 36
0.0
 17
0.0
 27
1.0
 37
0.0
 76
     0
330
1E
  0
MLINESTYLE
  5
17
102
{ACAD_REACTORS
330
16
102
}
330
16
100
AcDbMlineStyle
  2
STANDARD
 70
     0
  3

 62
   256
 51
90.0
 52
90.0
 71
     2
 49
0.5
 62
   256
  6
BYLAYER
 49
-0.5
 62
   256
  6
BYLAYER
  0
ACDBPLACEHOLDER
  5
F
102
{ACAD_REACTORS
330
E
102
}
330
E
  0
DICTIONARYVAR
  5
EB
102
{ACAD_REACTORS
330
EA
102
}
330
EA
100
DictionaryVariables
280
     0
  1
1
  0
DICTIONARYVAR
  5
EC
102
{ACAD_REACTORS
330
EA
102
}
330
EA
100
DictionaryVariables
280
     0
  1

  0
ENDSEC
  0
EOF
