  0
SECTION
  2
HEADER
  9
$ACADVER
  1
AC1018
  9
$ACADMAINTVER
 70
     2
  9
$DWGCODEPAGE
  3
ANSI_1252
  9
$INSBASE
 10
0.0
 20
0.0
 30
0.0
  9
$EXTMIN
 10
-0.0192146320376878
 20
-0.0271749795965661
 30
-0.000000000000013
  9
$EXTMAX
 10
420.0192317462092
 20
594.027199183924
 30
0.0000000000000023
  9
$LIMMIN
 10
0.0
 20
0.0
  9
$LIMMAX
 10
419.9999999999999
 20
594.0
  9
$ORTHOMODE
 70
     1
  9
$REGENMODE
 70
     1
  9
$FILLMODE
 70
     1
  9
$QTEXTMODE
 70
     0
  9
$MIRRTEXT
 70
     1
  9
$LTSCALE
 40
20.0
  9
$ATTMODE
 70
     1
  9
$TEXTSIZE
 40
3.5
  9
$TRACEWID
 40
0.5
  9
$TEXTSTYLE
  7
STANDARD
  9
$CLAYER
  8
BEM
  9
$CELTYPE
  6
ByLayer
  9
$CECOLOR
 62
   256
  9
$CELTSCALE
 40
1.0
  9
$DISPSILH
 70
     0
  9
$DIMSCALE
 40
2.0
  9
$DIMASZ
 40
3.5
  9
$DIMEXO
 40
1.0
  9
$DIMDLI
 40
7.0
  9
$DIMRND
 40
0.0
  9
$DIMDLE
 40
0.0
  9
$DIMEXE
 40
1.0
  9
$DIMTP
 40
0.0
  9
$DIMTM
 40
0.0
  9
$DIMTXT
 40
3.5
  9
$DIMCEN
 40
1.5
  9
$DIMTSZ
 40
0.0
  9
$DIMTOL
 70
     0
  9
$DIMLIM
 70
     0
  9
$DIMTIH
 70
     0
  9
$DIMTOH
 70
     0
  9
$DIMSE1
 70
     0
  9
$DIMSE2
 70
     0
  9
$DIMTAD
 70
     1
  9
$DIMZIN
 70
     8
  9
$DIMBLK
  1

  9
$DIMASO
 70
     1
  9
$DIMSHO
 70
     0
  9
$DIMPOST
  1

  9
$DIMAPOST
  1

  9
$DIMALT
 70
     0
  9
$DIMALTD
 70
     2
  9
$DIMALTF
 40
25.4
  9
$DIMLFAC
 40
1.0
  9
$DIMTOFL
 70
     1
  9
$DIMTVP
 40
0.0
  9
$DIMTIX
 70
     0
  9
$DIMSOXD
 70
     0
  9
$DIMSAH
 70
     0
  9
$DIMBLK1
  1

  9
$DIMBLK2
  1

  9
$DIMSTYLE
  2
Standard
  9
$DIMCLRD
 70
     0
  9
$DIMCLRE
 70
     0
  9
$DIMCLRT
 70
     1
  9
$DIMTFAC
 40
0.5142857142857144
  9
$DIMGAP
 40
1.5
  9
$DIMJUST
 70
     0
  9
$DIMSD1
 70
     0
  9
$DIMSD2
 70
     0
  9
$DIMTOLJ
 70
     1
  9
$DIMTZIN
 70
     8
  9
$DIMALTZ
 70
     8
  9
$DIMALTTZ
 70
     8
  9
$DIMUPT
 70
     0
  9
$DIMDEC
 70
     2
  9
$DIMTDEC
 70
     2
  9
$DIMALTU
 70
     2
  9
$DIMALTTD
 70
     2
  9
$DIMTXSTY
  7
STANDARD
  9
$DIMAUNIT
 70
     0
  9
$DIMADEC
 70
     2
  9
$DIMALTRND
 40
0.0
  9
$DIMAZIN
 70
     2
  9
$DIMDSEP
 70
    46
  9
$DIMATFIT
 70
     3
  9
$DIMFRAC
 70
     0
  9
$DIMLDRBLK
  1

  9
$DIMLUNIT
 70
     2
  9
$DIMLWD
 70
    -2
  9
$DIMLWE
 70
    -2
  9
$DIMTMOVE
 70
     0
  9
$LUNITS
 70
     2
  9
$LUPREC
 70
     2
  9
$SKETCHINC
 40
1.0
  9
$FILLETRAD
 40
0.0
  9
$AUNITS
 70
     0
  9
$AUPREC
 70
     0
  9
$MENU
  1
ACAD
  9
$ELEVATION
 40
0.0
  9
$PELEVATION
 40
0.0
  9
$THICKNESS
 40
0.0
  9
$LIMCHECK
 70
     0
  9
$CHAMFERA
 40
0.0
  9
$CHAMFERB
 40
0.0
  9
$CHAMFERC
 40
0.0
  9
$CHAMFERD
 40
0.0
  9
$SKPOLY
 70
     0
  9
$TDCREATE
 40
2455397.864709028
  9
$TDUCREATE
 40
2455397.781375695
  9
$TDUPDATE
 40
2455461.483662083
  9
$TDUUPDATE
 40
2455461.400328750
  9
$TDINDWG
 40
0.0904244907
  9
$TDUSRTIMER
 40
0.0904244907
  9
$USRTIMER
 70
     1
  9
$ANGBASE
 50
0.0
  9
$ANGDIR
 70
     0
  9
$PDMODE
 70
     0
  9
$PDSIZE
 40
0.0
  9
$PLINEWID
 40
0.0
  9
$SPLFRAME
 70
     0
  9
$SPLINETYPE
 70
     6
  9
$SPLINESEGS
 70
     8
  9
$HANDSEED
  5
179B
  9
$SURFTAB1
 70
     6
  9
$SURFTAB2
 70
     6
  9
$SURFTYPE
 70
     6
  9
$SURFU
 70
     6
  9
$SURFV
 70
     6
  9
$UCSBASE
  2

  9
$UCSNAME
  2

  9
$UCSORG
 10
0.0
 20
0.0
 30
0.0
  9
$UCSXDIR
 10
1.0
 20
0.0
 30
0.0
  9
$UCSYDIR
 10
0.0
 20
1.0
 30
0.0
  9
$UCSORTHOREF
  2

  9
$UCSORTHOVIEW
 70
     0
  9
$UCSORGTOP
 10
0.0
 20
0.0
 30
0.0
  9
$UCSORGBOTTOM
 10
0.0
 20
0.0
 30
0.0
  9
$UCSORGLEFT
 10
0.0
 20
0.0
 30
0.0
  9
$UCSORGRIGHT
 10
0.0
 20
0.0
 30
0.0
  9
$UCSORGFRONT
 10
0.0
 20
0.0
 30
0.0
  9
$UCSORGBACK
 10
0.0
 20
0.0
 30
0.0
  9
$PUCSBASE
  2

  9
$PUCSNAME
  2

  9
$PUCSORG
 10
0.0
 20
0.0
 30
0.0
  9
$PUCSXDIR
 10
1.0
 20
0.0
 30
0.0
  9
$PUCSYDIR
 10
0.0
 20
1.0
 30
0.0
  9
$PUCSORTHOREF
  2

  9
$PUCSORTHOVIEW
 70
     0
  9
$PUCSORGTOP
 10
0.0
 20
0.0
 30
0.0
  9
$PUCSORGBOTTOM
 10
0.0
 20
0.0
 30
0.0
  9
$PUCSORGLEFT
 10
0.0
 20
0.0
 30
0.0
  9
$PUCSORGRIGHT
 10
0.0
 20
0.0
 30
0.0
  9
$PUCSORGFRONT
 10
0.0
 20
0.0
 30
0.0
  9
$PUCSORGBACK
 10
0.0
 20
0.0
 30
0.0
  9
$USERI1
 70
     0
  9
$USERI2
 70
     0
  9
$USERI3
 70
     0
  9
$USERI4
 70
     0
  9
$USERI5
 70
     0
  9
$USERR1
 40
0.0
  9
$USERR2
 40
0.0
  9
$USERR3
 40
0.0
  9
$USERR4
 40
0.0
  9
$USERR5
 40
0.0
  9
$WORLDVIEW
 70
     1
  9
$SHADEDGE
 70
     3
  9
$SHADEDIF
 70
    70
  9
$TILEMODE
 70
     1
  9
$MAXACTVP
 70
    16
  9
$PINSBASE
 10
0.0
 20
0.0
 30
0.0
  9
$PLIMCHECK
 70
     0
  9
$PEXTMIN
 10
1.000000000000000E+20
 20
1.000000000000000E+20
 30
1.000000000000000E+20
  9
$PEXTMAX
 10
-1.000000000000000E+20
 20
-1.000000000000000E+20
 30
-1.000000000000000E+20
  9
$PLIMMIN
 10
0.0
 20
0.0
  9
$PLIMMAX
 10
12.0
 20
9.0
  9
$UNITMODE
 70
     0
  9
$VISRETAIN
 70
     0
  9
$PLINEGEN
 70
     0
  9
$PSLTSCALE
 70
     0
  9
$TREEDEPTH
 70
  3020
  9
$CMLSTYLE
  2
Standard
  9
$CMLJUST
 70
     0
  9
$CMLSCALE
 40
1.0
  9
$PROXYGRAPHICS
 70
     1
  9
$MEASUREMENT
 70
     0
  9
$CELWEIGHT
370
    -1
  9
$ENDCAPS
280
     0
  9
$JOINSTYLE
280
     0
  9
$LWDISPLAY
290
     0
  9
$INSUNITS
 70
     0
  9
$HYPERLINKBASE
  1

  9
$STYLESHEET
  1
monochrome 1.ctb
  9
$XEDIT
290
     1
  9
$CEPSNTYPE
380
     0
  9
$PSTYLEMODE
290
     1
  9
$FINGERPRINTGUID
  2
{D68B0D02-A558-11D7-B632-000102183313}
  9
$VERSIONGUID
  2
{4B2E8224-BC14-4C37-B503-141C3CEB99A9}
  9
$EXTNAMES
290
     1
  9
$PSVPSCALE
 40
0.0
  9
$OLESTARTUP
290
     0
  9
$SORTENTS
280
   127
  9
$INDEXCTL
280
     0
  9
$HIDETEXT
280
     0
  9
$XCLIPFRAME
290
     0
  9
$HALOGAP
280
     0
  9
$OBSCOLOR
 70
   257
  9
$OBSLTYPE
280
     0
  9
$INTERSECTIONDISPLAY
280
     0
  9
$INTERSECTIONCOLOR
 70
   257
  9
$DIMASSOC
280
     1
  9
$PROJECTNAME
  1

  0
ENDSEC
  0
SECTION
  2
CLASSES
  0
CLASS
  1
ACDBDICTIONARYWDFLT
  2
AcDbDictionaryWithDefault
  3
ObjectDBX Classes
 90
        0
 91
        1
280
     0
281
     0
  0
CLASS
  1
DICTIONARYVAR
  2
AcDbDictionaryVar
  3
ObjectDBX Classes
 90
        0
 91
        2
280
     0
281
     0
  0
ENDSEC
  0
SECTION
  2
TABLES
  0
TABLE
  2
VPORT
  5
8
330
0
100
AcDbSymbolTable
 70
     2
  0
VPORT
  5
179A
330
8
100
AcDbSymbolTableRecord
100
AcDbViewportTableRecord
  2
*Active
 70
     0
 10
0.0
 20
0.0
 11
1.0
 21
1.0
 12
210.0000085570858
 22
297.0000121021637
 13
0.0
 23
0.0
 14
1.0
 24
1.0
 15
10.0
 25
10.0
 16
0.0
 26
0.0
 36
1.0
 17
0.0
 27
0.0
 37
0.0
 40
598.8515831069676
 41
1.336927223719676
 42
50.0
 43
0.0
 44
0.0
 50
0.0
 51
0.0
 71
     0
 72
  1500
 73
     1
 74
     0
 75
     0
 76
     0
 77
     0
 78
     0
281
     0
 65
     1
110
0.0
120
0.0
130
0.0
111
1.0
121
0.0
131
0.0
112
0.0
122
1.0
132
0.0
 79
     0
146
0.0
  0
ENDTAB
  0
TABLE
  2
LTYPE
  5
5
330
0
100
AcDbSymbolTable
 70
     2
  0
LTYPE
  5
13
330
5
100
AcDbSymbolTableRecord
100
AcDbLinetypeTableRecord
  2
ByBlock
 70
     0
  3

 72
    65
 73
     0
 40
0.0
  0
LTYPE
  5
14
330
5
100
AcDbSymbolTableRecord
100
AcDbLinetypeTableRecord
  2
ByLayer
 70
     0
  3

 72
    65
 73
     0
 40
0.0
  0
LTYPE
  5
15
330
5
100
AcDbSymbolTableRecord
100
AcDbLinetypeTableRecord
  2
Continuous
 70
     0
  3
Solid line
 72
    65
 73
     0
 40
0.0
  0
LTYPE
  5
25
330
5
100
AcDbSymbolTableRecord
100
AcDbLinetypeTableRecord
  2
STRICHPUNKT
 70
     0
  3
__ . __ . __ . __ . __ . __ . __ . __ . __ . __
 72
    65
 73
     4
 40
1.0
 49
0.5
 74
     0
 49
-0.25
 74
     0
 49
0.0
 74
     0
 49
-0.25
 74
     0
  0
ENDTAB
  0
TABLE
  2
LAYER
  5
2
330
0
100
AcDbSymbolTable
 70
     9
  0
LAYER
  5
10
330
2
100
AcDbSymbolTableRecord
100
AcDbLayerTableRecord
  2
0
 70
     0
 62
     7
  6
Continuous
370
    -3
390
F
  0
LAYER
  5
2A
330
2
100
AcDbSymbolTableRecord
100
AcDbLayerTableRecord
  2
VOLL
 70
     0
 62
     1
  6
Continuous
370
    -3
390
F
  0
LAYER
  5
2B
330
2
100
AcDbSymbolTableRecord
100
AcDbLayerTableRecord
  2
HILF
 70
     0
 62
     2
  6
Continuous
370
    -3
390
F
  0
LAYER
  5
2C
330
2
100
AcDbSymbolTableRecord
100
AcDbLayerTableRecord
  2
MITTEL
 70
     0
 62
     2
  6
STRICHPUNKT
370
    -3
390
F
  0
LAYER
  5
2F
330
2
100
AcDbSymbolTableRecord
100
AcDbLayerTableRecord
  2
BEM
 70
     0
 62
     7
  6
Continuous
370
    -3
390
F
  0
LAYER
  5
30
330
2
100
AcDbSymbolTableRecord
100
AcDbLayerTableRecord
  2
STEMPEL
 70
     0
 62
     3
  6
Continuous
370
    -3
390
F
  0
LAYER
  5
31
330
2
100
AcDbSymbolTableRecord
100
AcDbLayerTableRecord
  2
TEXT
 70
     0
 62
     7
  6
Continuous
370
    -3
390
F
  0
LAYER
  5
347
330
2
100
AcDbSymbolTableRecord
100
AcDbLayerTableRecord
  2
DEFPOINTS
 70
     0
 62
     7
  6
Continuous
290
     0
370
    -3
390
F
  0
LAYER
  5
348
330
2
100
AcDbSymbolTableRecord
100
AcDbLayerTableRecord
  2
SCHRAFF
 70
     0
 62
     7
  6
Continuous
370
    -3
390
F
  0
ENDTAB
  0
TABLE
  2
STYLE
  5
3
330
0
100
AcDbSymbolTable
 70
     2
  0
STYLE
  5
11
330
3
100
AcDbSymbolTableRecord
100
AcDbTextStyleTableRecord
  2
STANDARD
 70
     0
 40
0.0
 41
0.8
 50
0.0
 71
     0
 42
3.5
  3
simplex.shx
  4

  0
STYLE
  5
24
330
3
100
AcDbSymbolTableRecord
100
AcDbTextStyleTableRecord
  2
GREEKS
 70
     0
 40
0.0
 41
0.8
 50
0.0
 71
     0
 42
2.5
  3
SIMPLEX.shx
  4

  0
ENDTAB
  0
TABLE
  2
VIEW
  5
6
330
0
100
AcDbSymbolTable
 70
     0
  0
ENDTAB
  0
TABLE
  2
UCS
  5
7
330
0
100
AcDbSymbolTable
 70
     0
  0
ENDTAB
  0
TABLE
  2
APPID
  5
9
330
0
100
AcDbSymbolTable
 70
     1
  0
APPID
  5
12
330
9
100
AcDbSymbolTableRecord
100
AcDbRegAppTableRecord
  2
ACAD
 70
     0
  0
ENDTAB
  0
TABLE
  2
DIMSTYLE
  5
A
330
0
100
AcDbSymbolTable
 70
     1
100
AcDbDimStyleTable
 71
     1
340
9D
  0
DIMSTYLE
105
9D
102
{ACAD_REACTORS
330
B38
330
1577
330
1588
330
15B0
330
15BD
330
15D9
330
163E
330
16A3
330
16B0
102
}
330
A
100
AcDbSymbolTableRecord
100
AcDbDimStyleTableRecord
  2
Standard
 70
     0
340
11
  0
ENDTAB
  0
TABLE
  2
BLOCK_RECORD
  5
1
330
0
100
AcDbSymbolTable
 70
    10
  0
BLOCK_RECORD
  5
1E
102
{ACAD_XDICTIONARY
360
A0
102
}
330
1
100
AcDbSymbolTableRecord
100
AcDbBlockTableRecord
  2
*Model_Space
340
21
  0
BLOCK_RECORD
  5
1A
102
{ACAD_XDICTIONARY
360
A2
102
}
330
1
100
AcDbSymbolTableRecord
100
AcDbBlockTableRecord
  2
*Paper_Space
340
1D
  0
BLOCK_RECORD
  5
22
330
1
100
AcDbSymbolTableRecord
100
AcDbBlockTableRecord
  2
LOGO
340
0
102
{BLKREFS
331
9B
102
}
  0
BLOCK_RECORD
  5
BB8
330
1
100
AcDbSymbolTableRecord
100
AcDbBlockTableRecord
  2
*D1
340
0
  0
BLOCK_RECORD
  5
1578
330
1
100
AcDbSymbolTableRecord
100
AcDbBlockTableRecord
  2
*D2
340
0
  0
BLOCK_RECORD
  5
1589
330
1
100
AcDbSymbolTableRecord
100
AcDbBlockTableRecord
  2
*D3
340
0
  0
BLOCK_RECORD
  5
15B1
330
1
100
AcDbSymbolTableRecord
100
AcDbBlockTableRecord
  2
*D4
340
0
  0
BLOCK_RECORD
  5
15BE
330
1
100
AcDbSymbolTableRecord
100
AcDbBlockTableRecord
  2
*D5
340
0
  0
BLOCK_RECORD
  5
15DA
330
1
100
AcDbSymbolTableRecord
100
AcDbBlockTableRecord
  2
*D6
340
0
  0
BLOCK_RECORD
  5
163F
330
1
100
AcDbSymbolTableRecord
100
AcDbBlockTableRecord
  2
*D7
340
0
  0
BLOCK_RECORD
  5
16A4
330
1
100
AcDbSymbolTableRecord
100
AcDbBlockTableRecord
  2
*D8
340
0
  0
BLOCK_RECORD
  5
16B1
330
1
100
AcDbSymbolTableRecord
100
AcDbBlockTableRecord
  2
*D9
340
0
  0
ENDTAB
  0
ENDSEC
  0
SECTION
  2
BLOCKS
  0
BLOCK
  5
35
330
1E
100
AcDbEntity
  8
0
100
AcDbBlockBegin
  2
*Model_Space
 70
     0
 10
0.0
 20
0.0
 30
0.0
  3
*Model_Space
  1

  0
ENDBLK
  5
36
330
1E
100
AcDbEntity
  8
0
100
AcDbBlockEnd
  0
BLOCK
  5
33
330
1A
100
AcDbEntity
 67
     1
  8
0
100
AcDbBlockBegin
  2
*Paper_Space
 70
     0
 10
0.0
 20
0.0
 30
0.0
  3
*Paper_Space
  1

  0
ENDBLK
  5
34
330
1A
100
AcDbEntity
 67
     1
  8
0
100
AcDbBlockEnd
  0
BLOCK
  5
37
330
22
100
AcDbEntity
  8
0
100
AcDbBlockBegin
  2
LOGO
 70
     0
 10
0.0
 20
0.0
 30
0.0
  3
LOGO
  1

  0
ARC
  5
38
330
22
100
AcDbEntity
  8
0
100
AcDbCircle
 10
11.59973089678112
 20
-9.271599258481501
 30
0.0
 40
4.5
100
AcDbArc
 50
270.0
 51
231.0575587310159
  0
LINE
  5
39
330
22
100
AcDbEntity
  8
0
100
AcDbLine
 10
3.599730896781125
 20
-4.771599258481529
 30
0.0
 11
3.599730896781153
 21
-11.77159925848133
 31
0.0
  0
LINE
  5
3A
330
22
100
AcDbEntity
  8
0
100
AcDbLine
 10
2.599730896781125
 20
-4.771599258481529
 30
0.0
 11
2.599730896781153
 21
-11.77159925848133
 31
0.0
  0
CIRCLE
  5
3B
330
22
100
AcDbEntity
  8
0
100
AcDbCircle
 10
11.59973089678112
 20
-9.271599258481501
 30
0.0
 40
3.5
  0
ARC
  5
3C
330
22
100
AcDbEntity
  8
0
100
AcDbCircle
 10
31.59973089678115
 20
-9.271599258481472
 30
0.0
 40
4.5
100
AcDbArc
 50
270.0
 51
231.0575587310182
  0
LINE
  5
3D
330
22
100
AcDbEntity
  8
0
100
AcDbLine
 10
17.59973089678112
 20
-4.771599258481472
 30
0.0
 11
17.59973089678115
 21
-13.77159925848147
 31
0.0
  0
ARC
  5
3E
330
22
100
AcDbEntity
  8
0
100
AcDbCircle
 10
22.59973089678116
 20
-7.271599258481472
 30
0.0
 40
2.5
100
AcDbArc
 50
293.1161887722295
 51
90.0
  0
CIRCLE
  5
3F
330
22
100
AcDbEntity
  8
0
100
AcDbCircle
 10
31.59973089678115
 20
-9.271599258481472
 30
0.0
 40
3.5
  0
ARC
  5
40
330
22
100
AcDbEntity
  8
0
100
AcDbCircle
 10
4.599730896781153
 20
-11.77159925848133
 30
0.0
 40
1.0
100
AcDbArc
 50
180.0
 51
270.0
  0
ARC
  5
41
330
22
100
AcDbEntity
  8
0
100
AcDbCircle
 10
4.599730896781153
 20
-11.77159925848133
 30
0.0
 40
2.0
100
AcDbArc
 50
179.9999999999992
 51
270.0
  0
LINE
  5
42
330
22
100
AcDbEntity
  8
0
100
AcDbLine
 10
11.59973089678115
 20
-13.77159925848144
 30
0.0
 11
4.599730896781153
 21
-13.77159925848147
 31
0.0
  0
LINE
  5
43
330
22
100
AcDbEntity
  8
0
100
AcDbLine
 10
8.771303772034769
 20
-12.77159925848136
 30
0.0
 11
4.599730896781153
 21
-12.77159925848133
 31
0.0
  0
LINE
  5
44
330
22
100
AcDbEntity
  8
0
100
AcDbLine
 10
31.59973089678115
 20
-13.77159925848147
 30
0.0
 11
23.6715276665056
 21
-13.77159925848144
 31
0.0
  0
LINE
  5
45
330
22
100
AcDbEntity
  8
0
100
AcDbLine
 10
23.56565672307022
 20
-9.51278021337896
 30
0.0
 11
24.4388546544846
 21
-12.77159925848144
 31
0.0
  0
LINE
  5
46
330
22
100
AcDbEntity
  8
0
100
AcDbLine
 10
22.59973089678116
 20
-9.771599258481472
 30
0.0
 11
18.59973089678112
 21
-9.771599258481472
 31
0.0
  0
LINE
  5
47
330
22
100
AcDbEntity
  8
0
100
AcDbLine
 10
18.59973089678115
 20
-13.77159925848144
 30
0.0
 11
17.59973089678115
 21
-13.77159925848144
 31
0.0
  0
LINE
  5
48
330
22
100
AcDbEntity
  8
0
100
AcDbLine
 10
18.59973089678115
 20
-9.771599258481472
 30
0.0
 11
18.59973089678115
 21
-13.77159925848144
 31
0.0
  0
LINE
  5
49
330
22
100
AcDbEntity
  8
0
100
AcDbLine
 10
22.59973089678116
 20
-9.771599258481472
 30
0.0
 11
23.67152766650562
 21
-13.77159925848147
 31
0.0
  0
ARC
  5
4A
330
22
100
AcDbEntity
  8
0
100
AcDbCircle
 10
22.59973089678116
 20
-7.271599258481472
 30
0.0
 40
2.5
100
AcDbArc
 50
270.0
 51
270.0000000000007
  0
LINE
  5
4B
330
22
100
AcDbEntity
  8
0
100
AcDbLine
 10
28.77130377203494
 20
-12.77159925848147
 30
0.0
 11
24.43885465448463
 21
-12.77159925848144
 31
0.0
  0
LINE
  5
4C
330
22
100
AcDbEntity
  8
0
100
AcDbLine
 10
3.599730896781125
 20
-4.771599258481472
 30
0.0
 11
2.599730896781125
 21
-4.771599258481472
 31
0.0
  0
LINE
  5
4D
330
22
100
AcDbEntity
  8
0
100
AcDbLine
 10
22.59973089678116
 20
-8.771599258481472
 30
0.0
 11
18.59973089678115
 21
-8.771599258481472
 31
0.0
  0
LINE
  5
4E
330
22
100
AcDbEntity
  8
0
100
AcDbLine
 10
22.59973089678116
 20
-5.771599258481472
 30
0.0
 11
18.59973089678115
 21
-5.771599258481472
 31
0.0
  0
LINE
  5
4F
330
22
100
AcDbEntity
  8
0
100
AcDbLine
 10
22.59973089678116
 20
-4.771599258481472
 30
0.0
 11
17.59973089678115
 21
-4.771599258481472
 31
0.0
  0
LINE
  5
50
330
22
100
AcDbEntity
  8
0
100
AcDbLine
 10
18.59973089678115
 20
-5.771599258481472
 30
0.0
 11
18.59973089678115
 21
-8.771599258481472
 31
0.0
  0
ARC
  5
51
330
22
100
AcDbEntity
  8
0
100
AcDbCircle
 10
22.59973089678116
 20
-7.271599258481472
 30
0.0
 40
1.5
100
AcDbArc
 50
270.0
 51
90.0
  0
ENDBLK
  5
52
330
22
100
AcDbEntity
  8
0
100
AcDbBlockEnd
  0
BLOCK
  5
BC3
330
BB8
100
AcDbEntity
  8
0
100
AcDbBlockBegin
  2
*D1
 70
     1
 10
0.0
 20
0.0
 30
0.0
  3
*D1
  1

  0
LINE
  5
177D
330
BB8
100
AcDbEntity
  8
BEM
 62
     0
370
    -2
100
AcDbLine
 10
188.4999999999999
 20
199.8694163442172
 30
0.0
 11
188.4999999999999
 21
168.6205106112534
 31
0.0
  0
LINE
  5
177E
330
BB8
100
AcDbEntity
  8
BEM
 62
     0
370
    -2
100
AcDbLine
 10
261.4999999999999
 20
199.869416344216
 30
0.0
 11
261.4999999999999
 21
168.6205106112534
 31
0.0
  0
LINE
  5
177F
330
BB8
100
AcDbEntity
  8
BEM
 62
     0
370
    -2
100
AcDbLine
 10
195.4999999999999
 20
170.6205106112534
 30
0.0
 11
254.4999999999999
 21
170.6205106112534
 31
0.0
  0
SOLID
  5
1780
330
BB8
100
AcDbEntity
  8
BEM
 62
     0
100
AcDbTrace
 10
195.4999999999999
 20
171.7871772779201
 30
0.0
 11
195.4999999999999
 21
169.4538439445868
 31
0.0
 12
188.4999999999999
 22
170.6205106112534
 32
0.0
 13
188.4999999999999
 23
170.6205106112534
 33
0.0
  0
SOLID
  5
1781
330
BB8
100
AcDbEntity
  8
BEM
 62
     0
100
AcDbTrace
 10
254.4999999999999
 20
171.7871772779201
 30
0.0
 11
254.4999999999999
 21
169.4538439445868
 31
0.0
 12
261.4999999999999
 22
170.6205106112534
 32
0.0
 13
261.4999999999999
 23
170.6205106112534
 33
0.0
  0
MTEXT
  5
1782
330
BB8
100
AcDbEntity
  8
BEM
 62
     1
100
AcDbMText
 10
225.0
 20
177.1205106112534
 30
0.0
 40
7.0
 41
0.0
 71
     5
 72
     1
  1
\A1;%%c73
 73
     1
 44
1.0
  0
POINT
  5
1783
330
BB8
100
AcDbEntity
  8
DEFPOINTS
 62
     0
100
AcDbPoint
 10
188.4999999999999
 20
201.8694163442172
 30
0.0
  0
POINT
  5
1784
330
BB8
100
AcDbEntity
  8
DEFPOINTS
 62
     0
100
AcDbPoint
 10
261.4999999999999
 20
201.8694163442161
 30
0.0
  0
POINT
  5
1785
330
BB8
100
AcDbEntity
  8
DEFPOINTS
 62
     0
100
AcDbPoint
 10
261.4999999999999
 20
170.6205106112534
 30
0.0
  0
ENDBLK
  5
BC4
330
BB8
100
AcDbEntity
  8
0
100
AcDbBlockEnd
  0
BLOCK
  5
1582
330
1578
100
AcDbEntity
  8
0
100
AcDbBlockBegin
  2
*D2
 70
     1
 10
0.0
 20
0.0
 30
0.0
  3
*D2
  1

  0
LINE
  5
1774
330
1578
100
AcDbEntity
  8
BEM
 62
     0
370
    -2
100
AcDbLine
 10
180.4999999999999
 20
397.0100143112627
 30
0.0
 11
180.4999999999999
 21
359.155040917597
 31
0.0
  0
LINE
  5
1775
330
1578
100
AcDbEntity
  8
BEM
 62
     0
370
    -2
100
AcDbLine
 10
269.4999999999999
 20
397.0100143112627
 30
0.0
 11
269.4999999999999
 21
359.155040917597
 31
0.0
  0
LINE
  5
1776
330
1578
100
AcDbEntity
  8
BEM
 62
     0
370
    -2
100
AcDbLine
 10
187.4999999999999
 20
361.155040917597
 30
0.0
 11
262.5
 21
361.155040917597
 31
0.0
  0
SOLID
  5
1777
330
1578
100
AcDbEntity
  8
BEM
 62
     0
100
AcDbTrace
 10
187.4999999999999
 20
362.3217075842637
 30
0.0
 11
187.4999999999999
 21
359.9883742509303
 31
0.0
 12
180.4999999999999
 22
361.155040917597
 32
0.0
 13
180.4999999999999
 23
361.155040917597
 33
0.0
  0
SOLID
  5
1778
330
1578
100
AcDbEntity
  8
BEM
 62
     0
100
AcDbTrace
 10
262.5
 20
362.3217075842637
 30
0.0
 11
262.5
 21
359.9883742509303
 31
0.0
 12
269.4999999999999
 22
361.155040917597
 32
0.0
 13
269.4999999999999
 23
361.155040917597
 33
0.0
  0
MTEXT
  5
1779
330
1578
100
AcDbEntity
  8
BEM
 62
     1
100
AcDbMText
 10
225.0
 20
367.655040917597
 30
0.0
 40
7.0
 41
0.0
 71
     5
 72
     1
  1
\A1;%%c89
 73
     1
 44
1.0
  0
POINT
  5
177A
330
1578
100
AcDbEntity
  8
DEFPOINTS
 62
     0
100
AcDbPoint
 10
180.4999999999999
 20
399.0100143112627
 30
0.0
  0
POINT
  5
177B
330
1578
100
AcDbEntity
  8
DEFPOINTS
 62
     0
100
AcDbPoint
 10
269.4999999999999
 20
399.0100143112627
 30
0.0
  0
POINT
  5
177C
330
1578
100
AcDbEntity
  8
DEFPOINTS
 62
     0
100
AcDbPoint
 10
269.4999999999999
 20
361.155040917597
 30
0.0
  0
ENDBLK
  5
1583
330
1578
100
AcDbEntity
  8
0
100
AcDbBlockEnd
  0
BLOCK
  5
1593
330
1589
100
AcDbEntity
  8
0
100
AcDbBlockBegin
  2
*D3
 70
     1
 10
0.0
 20
0.0
 30
0.0
  3
*D3
  1

  0
LINE
  5
176B
330
1589
100
AcDbEntity
  8
BEM
 62
     0
370
    -2
100
AcDbLine
 10
288.0
 20
445.3062823417091
 30
0.0
 11
288.0
 21
494.9730420080184
 31
0.0
  0
LINE
  5
176C
330
1589
100
AcDbEntity
  8
BEM
 62
     0
370
    -2
100
AcDbLine
 10
161.9999999999999
 20
445.3062823417091
 30
0.0
 11
161.9999999999999
 21
494.9730420080184
 31
0.0
  0
LINE
  5
176D
330
1589
100
AcDbEntity
  8
BEM
 62
     0
370
    -2
100
AcDbLine
 10
281.0
 20
492.9730420080184
 30
0.0
 11
168.9999999999999
 21
492.9730420080184
 31
0.0
  0
SOLID
  5
176E
330
1589
100
AcDbEntity
  8
BEM
 62
     0
100
AcDbTrace
 10
281.0
 20
494.139708674685
 30
0.0
 11
281.0
 21
491.8063753413517
 31
0.0
 12
288.0
 22
492.9730420080184
 32
0.0
 13
288.0
 23
492.9730420080184
 33
0.0
  0
SOLID
  5
176F
330
1589
100
AcDbEntity
  8
BEM
 62
     0
100
AcDbTrace
 10
168.9999999999999
 20
494.139708674685
 30
0.0
 11
168.9999999999999
 21
491.8063753413517
 31
0.0
 12
161.9999999999999
 22
492.9730420080184
 32
0.0
 13
161.9999999999999
 23
492.9730420080184
 33
0.0
  0
MTEXT
  5
1770
330
1589
100
AcDbEntity
  8
BEM
 62
     1
100
AcDbMText
 10
225.0
 20
499.4730420080184
 30
0.0
 40
7.0
 41
0.0
 71
     5
 72
     1
  1
\A1;%%c126
 73
     1
 44
1.0
  0
POINT
  5
1771
330
1589
100
AcDbEntity
  8
DEFPOINTS
 62
     0
100
AcDbPoint
 10
288.0
 20
443.3062823417091
 30
0.0
  0
POINT
  5
1772
330
1589
100
AcDbEntity
  8
DEFPOINTS
 62
     0
100
AcDbPoint
 10
161.9999999999999
 20
443.3062823417091
 30
0.0
  0
POINT
  5
1773
330
1589
100
AcDbEntity
  8
DEFPOINTS
 62
     0
100
AcDbPoint
 10
161.9999999999999
 20
492.9730420080184
 30
0.0
  0
ENDBLK
  5
1594
330
1589
100
AcDbEntity
  8
0
100
AcDbBlockEnd
  0
BLOCK
  5
15BB
330
15B1
100
AcDbEntity
  8
0
100
AcDbBlockBegin
  2
*D4
 70
     1
 10
0.0
 20
0.0
 30
0.0
  3
*D4
  1

  0
LINE
  5
1762
330
15B1
100
AcDbEntity
  8
BEM
 62
     0
370
    -2
100
AcDbLine
 10
123.1769095015031
 20
441.8694163442155
 30
0.0
 11
111.1523204168911
 21
441.8694163442155
 31
0.0
  0
LINE
  5
1763
330
15B1
100
AcDbEntity
  8
BEM
 62
     0
370
    -2
100
AcDbLine
 10
185.9592720748813
 20
388.8694163442156
 30
0.0
 11
111.1523204168911
 21
388.8694163442157
 31
0.0
  0
LINE
  5
1764
330
15B1
100
AcDbEntity
  8
BEM
 62
     0
370
    -2
100
AcDbLine
 10
113.1523204168911
 20
434.8694163442155
 30
0.0
 11
113.1523204168911
 21
395.8694163442157
 31
0.0
  0
SOLID
  5
1765
330
15B1
100
AcDbEntity
  8
BEM
 62
     0
100
AcDbTrace
 10
111.9856537502245
 20
434.8694163442155
 30
0.0
 11
114.3189870835578
 21
434.8694163442155
 31
0.0
 12
113.1523204168911
 22
441.8694163442155
 32
0.0
 13
113.1523204168911
 23
441.8694163442155
 33
0.0
  0
SOLID
  5
1766
330
15B1
100
AcDbEntity
  8
BEM
 62
     0
100
AcDbTrace
 10
111.9856537502244
 20
395.8694163442157
 30
0.0
 11
114.3189870835578
 21
395.8694163442157
 31
0.0
 12
113.1523204168911
 22
388.8694163442157
 32
0.0
 13
113.1523204168911
 23
388.8694163442157
 33
0.0
  0
MTEXT
  5
1767
330
15B1
100
AcDbEntity
  8
BEM
 62
     1
100
AcDbMText
 10
106.652320416891
 20
415.3694163442156
 30
0.0
 40
7.0
 41
0.0
 71
     5
 72
     1
  1
\A1;53
 11
0.0000000000000001
 21
1.0
 31
0.0
 73
     1
 44
1.0
  0
POINT
  5
1768
330
15B1
100
AcDbEntity
  8
DEFPOINTS
 62
     0
100
AcDbPoint
 10
125.1769095015031
 20
441.8694163442155
 30
0.0
  0
POINT
  5
1769
330
15B1
100
AcDbEntity
  8
DEFPOINTS
 62
     0
100
AcDbPoint
 10
187.9592720748813
 20
388.8694163442156
 30
0.0
  0
POINT
  5
176A
330
15B1
100
AcDbEntity
  8
DEFPOINTS
 62
     0
100
AcDbPoint
 10
113.1523204168911
 20
388.8694163442157
 30
0.0
  0
ENDBLK
  5
15BC
330
15B1
100
AcDbEntity
  8
0
100
AcDbBlockEnd
  0
BLOCK
  5
15C8
330
15BE
100
AcDbEntity
  8
0
100
AcDbBlockBegin
  2
*D5
 70
     1
 10
0.0
 20
0.0
 30
0.0
  3
*D5
  1

  0
LINE
  5
1759
330
15BE
100
AcDbEntity
  8
BEM
 62
     0
370
    -2
100
AcDbLine
 10
123.1769095015031
 20
441.8694163442155
 30
0.0
 11
96.14973503626295
 21
441.8694163442155
 31
0.0
  0
LINE
  5
175A
330
15BE
100
AcDbEntity
  8
BEM
 62
     0
370
    -2
100
AcDbLine
 10
187.3748866352592
 20
191.8694163442156
 30
0.0
 11
96.14973503626288
 21
191.8694163442156
 31
0.0
  0
LINE
  5
175B
330
15BE
100
AcDbEntity
  8
BEM
 62
     0
370
    -2
100
AcDbLine
 10
98.14973503626294
 20
434.8694163442155
 30
0.0
 11
98.14973503626289
 21
198.8694163442156
 31
0.0
  0
SOLID
  5
175C
330
15BE
100
AcDbEntity
  8
BEM
 62
     0
100
AcDbTrace
 10
96.98306836959627
 20
434.8694163442155
 30
0.0
 11
99.31640170292961
 21
434.8694163442155
 31
0.0
 12
98.14973503626294
 22
441.8694163442155
 32
0.0
 13
98.14973503626294
 23
441.8694163442155
 33
0.0
  0
SOLID
  5
175D
330
15BE
100
AcDbEntity
  8
BEM
 62
     0
100
AcDbTrace
 10
96.98306836959622
 20
198.8694163442156
 30
0.0
 11
99.31640170292956
 21
198.8694163442156
 31
0.0
 12
98.14973503626289
 22
191.8694163442156
 32
0.0
 13
98.14973503626289
 23
191.8694163442156
 33
0.0
  0
MTEXT
  5
175E
330
15BE
100
AcDbEntity
  8
BEM
 62
     1
100
AcDbMText
 10
91.64973503626285
 20
316.8694163442156
 30
0.0
 40
7.0
 41
0.0
 71
     5
 72
     1
  1
\A1;250
 11
0.0000000000000001
 21
1.0
 31
0.0
 73
     1
 44
1.0
  0
POINT
  5
175F
330
15BE
100
AcDbEntity
  8
DEFPOINTS
 62
     0
100
AcDbPoint
 10
125.1769095015031
 20
441.8694163442155
 30
0.0
  0
POINT
  5
1760
330
15BE
100
AcDbEntity
  8
DEFPOINTS
 62
     0
100
AcDbPoint
 10
189.3748866352592
 20
191.8694163442156
 30
0.0
  0
POINT
  5
1761
330
15BE
100
AcDbEntity
  8
DEFPOINTS
 62
     0
100
AcDbPoint
 10
98.14973503626289
 20
191.8694163442156
 30
0.0
  0
ENDBLK
  5
15C9
330
15BE
100
AcDbEntity
  8
0
100
AcDbBlockEnd
  0
BLOCK
  5
15E6
330
15DA
100
AcDbEntity
  8
0
100
AcDbBlockBegin
  2
*D6
 70
     1
 10
0.0
 20
0.0
 30
0.0
  3
*D6
  1

  0
LINE
  5
174E
330
15DA
100
AcDbEntity
  8
BEM
 62
     0
370
    -2
100
AcDbLine
 10
123.1769095015031
 20
441.8694163442155
 30
0.0
 11
111.1523204168911
 21
441.8694163442155
 31
0.0
  0
LINE
  5
174F
330
15DA
100
AcDbEntity
  8
BEM
 62
     0
370
    -2
100
AcDbLine
 10
181.2
 20
455.8694163442157
 30
0.0
 11
111.1523204168911
 21
455.8694163442157
 31
0.0
  0
LINE
  5
1750
330
15DA
100
AcDbEntity
  8
BEM
 62
     0
370
    -2
100
AcDbLine
 10
113.1523204168911
 20
434.8694163442155
 30
0.0
 11
113.1523204168911
 21
427.8694163442155
 31
0.0
  0
LINE
  5
1751
330
15DA
100
AcDbEntity
  8
BEM
 62
     0
370
    -2
100
AcDbLine
 10
113.1523204168911
 20
462.8694163442157
 30
0.0
 11
113.1523204168911
 21
469.8694163442158
 31
0.0
  0
LINE
  5
1752
330
15DA
100
AcDbEntity
  8
BEM
 62
     0
370
    -2
100
AcDbLine
 10
113.1523204168911
 20
441.8694163442155
 30
0.0
 11
113.1523204168911
 21
455.8694163442157
 31
0.0
  0
SOLID
  5
1753
330
15DA
100
AcDbEntity
  8
BEM
 62
     0
100
AcDbTrace
 10
111.9856537502245
 20
434.8694163442155
 30
0.0
 11
114.3189870835578
 21
434.8694163442155
 31
0.0
 12
113.1523204168911
 22
441.8694163442155
 32
0.0
 13
113.1523204168911
 23
441.8694163442155
 33
0.0
  0
SOLID
  5
1754
330
15DA
100
AcDbEntity
  8
BEM
 62
     0
100
AcDbTrace
 10
111.9856537502245
 20
462.8694163442157
 30
0.0
 11
114.3189870835578
 21
462.8694163442157
 31
0.0
 12
113.1523204168911
 22
455.8694163442157
 32
0.0
 13
113.1523204168911
 23
455.8694163442157
 33
0.0
  0
MTEXT
  5
1755
330
15DA
100
AcDbEntity
  8
BEM
 62
     1
100
AcDbMText
 10
106.652320416891
 20
448.8694163442156
 30
0.0
 40
7.0
 41
0.0
 71
     5
 72
     1
  1
\A1;14
 11
0.0000000000000001
 21
1.0
 31
0.0
 73
     1
 44
1.0
  0
POINT
  5
1756
330
15DA
100
AcDbEntity
  8
DEFPOINTS
 62
     0
100
AcDbPoint
 10
125.1769095015031
 20
441.8694163442155
 30
0.0
  0
POINT
  5
1757
330
15DA
100
AcDbEntity
  8
DEFPOINTS
 62
     0
100
AcDbPoint
 10
183.2
 20
455.8694163442157
 30
0.0
  0
POINT
  5
1758
330
15DA
100
AcDbEntity
  8
DEFPOINTS
 62
     0
100
AcDbPoint
 10
113.1523204168911
 20
455.8694163442157
 30
0.0
  0
ENDBLK
  5
15E7
330
15DA
100
AcDbEntity
  8
0
100
AcDbBlockEnd
  0
BLOCK
  5
1649
330
163F
100
AcDbEntity
  8
0
100
AcDbBlockBegin
  2
*D7
 70
     1
 10
0.0
 20
0.0
 30
0.0
  3
*D7
  1

  0
LINE
  5
1745
330
163F
100
AcDbEntity
  8
BEM
 62
     0
370
    -2
100
AcDbLine
 10
124.5549811716036
 20
445.2344090740381
 30
0.0
 11
124.5549811716036
 21
508.5941171022368
 31
0.0
  0
LINE
  5
1746
330
163F
100
AcDbEntity
  8
BEM
 62
     0
370
    -2
100
AcDbLine
 10
325.4450188283964
 20
445.2344090740381
 30
0.0
 11
325.4450188283964
 21
508.5941171022368
 31
0.0
  0
LINE
  5
1747
330
163F
100
AcDbEntity
  8
BEM
 62
     0
370
    -2
100
AcDbLine
 10
131.5549811716036
 20
506.5941171022368
 30
0.0
 11
318.4450188283964
 21
506.5941171022368
 31
0.0
  0
SOLID
  5
1748
330
163F
100
AcDbEntity
  8
BEM
 62
     0
100
AcDbTrace
 10
131.5549811716036
 20
507.7607837689035
 30
0.0
 11
131.5549811716036
 21
505.4274504355701
 31
0.0
 12
124.5549811716036
 22
506.5941171022368
 32
0.0
 13
124.5549811716036
 23
506.5941171022368
 33
0.0
  0
SOLID
  5
1749
330
163F
100
AcDbEntity
  8
BEM
 62
     0
100
AcDbTrace
 10
318.4450188283964
 20
507.7607837689035
 30
0.0
 11
318.4450188283964
 21
505.4274504355701
 31
0.0
 12
325.4450188283964
 22
506.5941171022368
 32
0.0
 13
325.4450188283964
 23
506.5941171022368
 33
0.0
  0
MTEXT
  5
174A
330
163F
100
AcDbEntity
  8
BEM
 62
     1
100
AcDbMText
 10
225.0
 20
513.0941171022368
 30
0.0
 40
7.0
 41
0.0
 71
     5
 72
     1
  1
\A1;%%c201
 73
     1
 44
1.0
  0
POINT
  5
174B
330
163F
100
AcDbEntity
  8
DEFPOINTS
 62
     0
100
AcDbPoint
 10
124.5549811716036
 20
443.2344090740381
 30
0.0
  0
POINT
  5
174C
330
163F
100
AcDbEntity
  8
DEFPOINTS
 62
     0
100
AcDbPoint
 10
325.4450188283964
 20
443.2344090740381
 30
0.0
  0
POINT
  5
174D
330
163F
100
AcDbEntity
  8
DEFPOINTS
 62
     0
100
AcDbPoint
 10
325.4450188283964
 20
506.5941171022368
 30
0.0
  0
ENDBLK
  5
164A
330
163F
100
AcDbEntity
  8
0
100
AcDbBlockEnd
  0
BLOCK
  5
16AE
330
16A4
100
AcDbEntity
  8
0
100
AcDbBlockBegin
  2
*D8
 70
     1
 10
0.0
 20
0.0
 30
0.0
  3
*D8
  1

  0
LINE
  5
173C
330
16A4
100
AcDbEntity
  8
BEM
 62
     0
370
    -2
100
AcDbLine
 10
123.1769095015031
 20
441.8694163442155
 30
0.0
 11
96.14973503626295
 21
441.8694163442155
 31
0.0
  0
LINE
  5
173D
330
16A4
100
AcDbEntity
  8
BEM
 62
     0
370
    -2
100
AcDbLine
 10
182.0
 20
466.8694163442157
 30
0.0
 11
96.14973503626295
 21
466.8694163442157
 31
0.0
  0
LINE
  5
173E
330
16A4
100
AcDbEntity
  8
BEM
 62
     0
370
    -2
100
AcDbLine
 10
98.14973503626294
 20
448.8694163442155
 30
0.0
 11
98.14973503626294
 21
459.8694163442157
 31
0.0
  0
SOLID
  5
173F
330
16A4
100
AcDbEntity
  8
BEM
 62
     0
100
AcDbTrace
 10
96.98306836959627
 20
448.8694163442155
 30
0.0
 11
99.31640170292961
 21
448.8694163442155
 31
0.0
 12
98.14973503626294
 22
441.8694163442155
 32
0.0
 13
98.14973503626294
 23
441.8694163442155
 33
0.0
  0
SOLID
  5
1740
330
16A4
100
AcDbEntity
  8
BEM
 62
     0
100
AcDbTrace
 10
96.98306836959627
 20
459.8694163442157
 30
0.0
 11
99.31640170292961
 21
459.8694163442157
 31
0.0
 12
98.14973503626294
 22
466.8694163442157
 32
0.0
 13
98.14973503626294
 23
466.8694163442157
 33
0.0
  0
MTEXT
  5
1741
330
16A4
100
AcDbEntity
  8
BEM
 62
     1
100
AcDbMText
 10
91.64973503626287
 20
454.3694163442157
 30
0.0
 40
7.0
 41
0.0
 71
     5
 72
     1
  1
\A1;25
 11
0.0000000000000001
 21
1.0
 31
0.0
 73
     1
 44
1.0
  0
POINT
  5
1742
330
16A4
100
AcDbEntity
  8
DEFPOINTS
 62
     0
100
AcDbPoint
 10
125.1769095015031
 20
441.8694163442155
 30
0.0
  0
POINT
  5
1743
330
16A4
100
AcDbEntity
  8
DEFPOINTS
 62
     0
100
AcDbPoint
 10
184.0
 20
466.8694163442157
 30
0.0
  0
POINT
  5
1744
330
16A4
100
AcDbEntity
  8
DEFPOINTS
 62
     0
100
AcDbPoint
 10
98.14973503626294
 20
466.8694163442157
 30
0.0
  0
ENDBLK
  5
16AF
330
16A4
100
AcDbEntity
  8
0
100
AcDbBlockEnd
  0
BLOCK
  5
16BB
330
16B1
100
AcDbEntity
  8
0
100
AcDbBlockBegin
  2
*D9
 70
     1
 10
0.0
 20
0.0
 30
0.0
  3
*D9
  1

  0
LINE
  5
1733
330
16B1
100
AcDbEntity
  8
BEM
 62
     0
370
    -2
100
AcDbLine
 10
184.0
 20
468.8694163442156
 30
0.0
 11
184.0
 21
480.2349529331022
 31
0.0
  0
LINE
  5
1734
330
16B1
100
AcDbEntity
  8
BEM
 62
     0
370
    -2
100
AcDbLine
 10
266.0
 20
468.8694163442155
 30
0.0
 11
266.0
 21
480.2349529331022
 31
0.0
  0
LINE
  5
1735
330
16B1
100
AcDbEntity
  8
BEM
 62
     0
370
    -2
100
AcDbLine
 10
190.9999999999999
 20
478.2349529331022
 30
0.0
 11
259.0
 21
478.2349529331022
 31
0.0
  0
SOLID
  5
1736
330
16B1
100
AcDbEntity
  8
BEM
 62
     0
100
AcDbTrace
 10
190.9999999999999
 20
479.4016195997689
 30
0.0
 11
190.9999999999999
 21
477.0682862664355
 31
0.0
 12
184.0
 22
478.2349529331022
 32
0.0
 13
184.0
 23
478.2349529331022
 33
0.0
  0
SOLID
  5
1737
330
16B1
100
AcDbEntity
  8
BEM
 62
     0
100
AcDbTrace
 10
259.0
 20
479.4016195997689
 30
0.0
 11
259.0
 21
477.0682862664355
 31
0.0
 12
266.0
 22
478.2349529331022
 32
0.0
 13
266.0
 23
478.2349529331022
 33
0.0
  0
MTEXT
  5
1738
330
16B1
100
AcDbEntity
  8
BEM
 62
     1
100
AcDbMText
 10
228.9637520999449
 20
484.7349529331022
 30
0.0
 40
7.0
 41
0.0
 71
     5
 72
     1
  1
\A1;82
 73
     1
 44
1.0
  0
POINT
  5
1739
330
16B1
100
AcDbEntity
  8
DEFPOINTS
 62
     0
100
AcDbPoint
 10
184.0
 20
466.8694163442157
 30
0.0
  0
POINT
  5
173A
330
16B1
100
AcDbEntity
  8
DEFPOINTS
 62
     0
100
AcDbPoint
 10
266.0
 20
466.8694163442155
 30
0.0
  0
POINT
  5
173B
330
16B1
100
AcDbEntity
  8
DEFPOINTS
 62
     0
100
AcDbPoint
 10
266.0
 20
478.2349529331022
 30
0.0
  0
ENDBLK
  5
16BC
330
16B1
100
AcDbEntity
  8
0
100
AcDbBlockEnd
  0
ENDSEC
  0
SECTION
  2
ENTITIES
  0
LINE
  5
57
330
1E
100
AcDbEntity
  8
STEMPEL
100
AcDbLine
 10
410.0
 20
110.0
 30
0.0
 11
39.99999999999997
 21
110.0
 31
0.0
  0
LINE
  5
58
330
1E
100
AcDbEntity
  8
STEMPEL
100
AcDbLine
 10
136.0000000000001
 20
109.9999999999999
 30
0.0
 11
136.0
 21
9.999999999999971
 31
0.0
  0
LINE
  5
59
330
1E
100
AcDbEntity
  8
STEMPEL
100
AcDbLine
 10
220.0
 20
110.0
 30
0.0
 11
220.0
 21
9.999999999999971
 31
0.0
  0
LINE
  5
5A
330
1E
100
AcDbEntity
  8
STEMPEL
100
AcDbLine
 10
332.0
 20
109.9999999999997
 30
0.0
 11
332.0
 21
40.0
 31
0.0
  0
LINE
  5
5B
330
1E
100
AcDbEntity
  8
STEMPEL
100
AcDbLine
 10
135.9999999999999
 20
29.99999999999997
 30
0.0
 11
39.99999999999997
 21
29.99999999999997
 31
0.0
  0
LINE
  5
5C
330
1E
100
AcDbEntity
  8
STEMPEL
100
AcDbLine
 10
410.0
 20
40.0
 30
0.0
 11
136.0000000000001
 21
39.99999999999997
 31
0.0
  0
LINE
  5
5D
330
1E
100
AcDbEntity
  8
STEMPEL
100
AcDbLine
 10
410.0
 20
80.0
 30
0.0
 11
136.0000000000001
 21
79.99999999999994
 31
0.0
  0
LINE
  5
5E
330
1E
100
AcDbEntity
  8
VOLL
100
AcDbLine
 10
54.00000000000009
 20
110.0
 30
0.0
 11
53.99999999999997
 21
9.999999999999971
 31
0.0
  0
LINE
  5
5F
330
1E
100
AcDbEntity
  8
VOLL
100
AcDbLine
 10
94.00000000000011
 20
109.9999999999999
 30
0.0
 11
94.0
 21
9.999999999999971
 31
0.0
  0
LINE
  5
60
330
1E
100
AcDbEntity
  8
VOLL
100
AcDbLine
 10
114.0000000000001
 20
109.9999999999999
 30
0.0
 11
114.0
 21
9.999999999999971
 31
0.0
  0
LINE
  5
61
330
1E
100
AcDbEntity
  8
VOLL
100
AcDbLine
 10
154.0000000000001
 20
79.99999999999994
 30
0.0
 11
154.0000000000001
 21
39.99999999999997
 31
0.0
  0
LINE
  5
62
330
1E
100
AcDbEntity
  8
VOLL
100
AcDbLine
 10
180.0000000000001
 20
109.9999999999998
 30
0.0
 11
180.0
 21
39.99999999999997
 31
0.0
  0
LINE
  5
63
330
1E
100
AcDbEntity
  8
HILF
100
AcDbLine
 10
40.00000000000008
 20
100.0
 30
0.0
 11
136.0000000000001
 21
100.0
 31
0.0
  0
LINE
  5
64
330
1E
100
AcDbEntity
  8
HILF
100
AcDbLine
 10
40.00000000000008
 20
90.00000000000005
 30
0.0
 11
136.0000000000001
 21
90.00000000000005
 31
0.0
  0
LINE
  5
65
330
1E
100
AcDbEntity
  8
HILF
100
AcDbLine
 10
40.00000000000008
 20
79.99999999999994
 30
0.0
 11
136.0000000000001
 21
79.99999999999994
 31
0.0
  0
LINE
  5
66
330
1E
100
AcDbEntity
  8
HILF
100
AcDbLine
 10
40.00000000000008
 20
69.99999999999994
 30
0.0
 11
136.0000000000001
 21
69.99999999999994
 31
0.0
  0
LINE
  5
67
330
1E
100
AcDbEntity
  8
HILF
100
AcDbLine
 10
40.00000000000008
 20
59.99999999999997
 30
0.0
 11
136.0000000000001
 21
59.99999999999997
 31
0.0
  0
LINE
  5
68
330
1E
100
AcDbEntity
  8
HILF
100
AcDbLine
 10
40.00000000000008
 20
49.99999999999997
 30
0.0
 11
136.0000000000001
 21
49.99999999999997
 31
0.0
  0
LINE
  5
69
330
1E
100
AcDbEntity
  8
HILF
100
AcDbLine
 10
40.00000000000008
 20
39.99999999999997
 30
0.0
 11
136.0000000000001
 21
39.99999999999997
 31
0.0
  0
LINE
  5
6A
330
1E
100
AcDbEntity
  8
HILF
100
AcDbLine
 10
136.0000000000001
 20
69.99999999999994
 30
0.0
 11
220.0
 21
69.99999999999994
 31
0.0
  0
LINE
  5
6B
330
1E
100
AcDbEntity
  8
HILF
100
AcDbLine
 10
136.0000000000001
 20
59.99999999999997
 30
0.0
 11
220.0
 21
59.99999999999997
 31
0.0
  0
LINE
  5
6C
330
1E
100
AcDbEntity
  8
HILF
100
AcDbLine
 10
136.0000000000001
 20
49.99999999999997
 30
0.0
 11
220.0
 21
49.99999999999997
 31
0.0
  0
LINE
  5
6D
330
1E
100
AcDbEntity
  8
HILF
100
AcDbLine
 10
224.7736801096948
 20
84.03758247564139
 30
0.0
 11
324.8353916556311
 21
84.03758247564139
 31
0.0
  0
LINE
  5
6E
330
1E
100
AcDbEntity
  8
HILF
100
AcDbLine
 10
224.7736801096948
 20
69.99999999999994
 30
0.0
 11
324.835391655631
 21
69.99999999999994
 31
0.0
  0
LINE
  5
6F
330
1E
100
AcDbEntity
  8
HILF
100
AcDbLine
 10
224.7736801096948
 20
59.99999999999997
 30
0.0
 11
324.835391655631
 21
59.99999999999997
 31
0.0
  0
LINE
  5
70
330
1E
100
AcDbEntity
  8
HILF
100
AcDbLine
 10
224.7736801096948
 20
49.99999999999997
 30
0.0
 11
324.835391655631
 21
49.99999999999997
 31
0.0
  0
LINE
  5
71
330
1E
100
AcDbEntity
  8
VOLL
100
AcDbLine
 10
332.0
 20
60.0
 30
0.0
 11
410.0
 21
60.0
 31
0.0
  0
LINE
  5
72
330
1E
100
AcDbEntity
  8
HILF
100
AcDbLine
 10
336.7238616296993
 20
83.77983636955827
 30
0.0
 11
404.8588839326728
 21
83.77983636955827
 31
0.0
  0
LINE
  5
73
330
1E
100
AcDbEntity
  8
HILF
100
AcDbLine
 10
223.4909699289885
 20
14.89398258028314
 30
0.0
 11
404.8588839326728
 21
14.89398258028314
 31
0.0
  0
TEXT
  5
74
330
1E
100
AcDbEntity
  8
TEXT
100
AcDbText
 10
63.86165979631819
 20
18.67381894984132
 30
0.0
 40
4.0
  1
Änderung
 41
0.8
  7
GREEKS
 72
     1
 11
74.60451693917534
 21
18.67381894984132
 31
0.0
100
AcDbText
  0
TEXT
  5
75
330
1E
100
AcDbEntity
  8
TEXT
100
AcDbText
 10
143.5163572150377
 20
102.4620895087088
 30
0.0
 40
5.0
  1
Maßstab
 41
0.8
  7
GREEKS
100
AcDbText
  0
TEXT
  5
76
330
1E
100
AcDbEntity
  8
TEXT
100
AcDbText
 10
184.2858954734051
 20
102.4184168434819
 30
0.0
 40
5.0
  1
Zul. Abw.
 41
0.8
  7
GREEKS
100
AcDbText
  0
TEXT
  5
77
330
1E
100
AcDbEntity
  8
TEXT
100
AcDbText
 10
224.877940380901
 20
102.5489328011779
 30
0.0
 40
5.0
  1
Benennung
 41
0.8
  7
GREEKS
100
AcDbText
  0
TEXT
  5
78
330
1E
100
AcDbEntity
  8
TEXT
100
AcDbText
 10
336.178754957634
 20
102.3132034537136
 30
0.0
 40
5.0
  1
Zeichnungs Nr.
 41
0.8
  7
GREEKS
100
AcDbText
  0
TEXT
  5
79
330
1E
100
AcDbEntity
  8
TEXT
100
AcDbText
 10
224.742238391136
 20
30.84560570193057
 30
0.0
 40
5.0
  1
Bauvorhaben
 41
0.8
  7
GREEKS
100
AcDbText
  0
TEXT
  5
7A
330
1E
100
AcDbEntity
  8
TEXT
100
AcDbText
 10
336.7238616296993
 20
73.1811823709997
 30
0.0
 40
5.0
  1
Ersatz für:
 41
0.8
  7
GREEKS
100
AcDbText
  0
TEXT
  5
7B
330
1E
100
AcDbEntity
  8
TEXT
100
AcDbText
 10
48.26641107045756
 20
13.65465846027192
 30
0.0
 40
4.0
  1
Index
 50
90.0
 41
0.8
  7
GREEKS
100
AcDbText
  0
TEXT
  5
7C
330
1E
100
AcDbEntity
  8
TEXT
100
AcDbText
 10
100.0934676075481
 20
18.6715626933981
 30
0.0
 40
4.0
  1
Tag
 41
0.8
  7
GREEKS
 72
     1
 11
103.8268009408814
 21
18.6715626933981
 31
0.0
100
AcDbText
  0
TEXT
  5
7D
330
1E
100
AcDbEntity
  8
TEXT
100
AcDbText
 10
119.0122744386592
 20
18.59324216966408
 30
0.0
 40
4.0
  1
Name
 41
0.8
  7
GREEKS
 72
     1
 11
125.3360839624688
 21
18.59324216966408
 31
0.0
100
AcDbText
  0
TEXT
  5
7E
330
1E
100
AcDbEntity
  8
TEXT
100
AcDbText
 10
162.3311673153651
 20
73.31880501229926
 30
0.0
 40
4.0
  1
Tag
 41
0.8
  7
GREEKS
100
AcDbText
  0
TEXT
  5
7F
330
1E
100
AcDbEntity
  8
TEXT
100
AcDbText
 10
192.4626584226295
 20
73.30961091915225
 30
0.0
 40
4.0
  1
Name
 41
0.8
  7
GREEKS
100
AcDbText
  0
TEXT
  5
80
330
1E
100
AcDbEntity
  8
TEXT
100
AcDbText
 10
137.5836127167615
 20
63.62990369617964
 30
0.0
 40
4.0
  1
Gez.
 41
0.8
  7
GREEKS
100
AcDbText
  0
TEXT
  5
81
330
1E
100
AcDbEntity
  8
TEXT
100
AcDbText
 10
137.5515086571672
 20
53.68926291428377
 30
0.0
 40
4.0
  1
Gepr.
 41
0.8
  7
GREEKS
100
AcDbText
  0
TEXT
  5
82
330
1E
100
AcDbEntity
  8
TEXT
100
AcDbText
 10
137.6006777387304
 20
43.52946389649807
 30
0.0
 40
4.0
  1
Norm.
 41
0.8
  7
GREEKS
100
AcDbText
  0
LINE
  5
83
330
1E
100
AcDbEntity
  8
STEMPEL
100
AcDbLine
 10
49.99999999999989
 20
10.0
 30
0.0
 11
410.0
 21
10.0
 31
0.0
  0
TEXT
  5
84
330
1E
100
AcDbEntity
  8
TEXT
100
AcDbText
 10
337.2400861497006
 20
52.07416177878602
 30
0.0
 40
5.0
  1
ersetzt durch:
 41
0.8
  7
GREEKS
100
AcDbText
  0
LINE
  5
85
330
1E
100
AcDbEntity
  8
STEMPEL
100
AcDbLine
 10
410.0
 20
10.0
 30
0.0
 11
39.99999999999989
 21
10.0
 31
0.0
  0
LINE
  5
86
330
1E
100
AcDbEntity
  8
STEMPEL
100
AcDbLine
 10
410.0
 20
10.0
 30
0.0
 11
410.0
 21
584.0
 31
0.0
  0
LINE
  5
87
330
1E
100
AcDbEntity
  8
STEMPEL
100
AcDbLine
 10
40.0
 20
10.0
 30
0.0
 11
39.99999999999989
 21
584.0
 31
0.0
  0
LINE
  5
88
330
1E
100
AcDbEntity
  8
STEMPEL
100
AcDbLine
 10
410.0
 20
584.0
 30
0.0
 11
39.99999999999989
 21
584.0
 31
0.0
  0
LINE
  5
89
330
1E
100
AcDbEntity
  8
HILF
100
AcDbLine
 10
0.0
 20
0.0
 30
0.0
 11
-0.0000000000001137
 21
594.0
 31
0.0
  0
LINE
  5
8A
330
1E
100
AcDbEntity
  8
HILF
100
AcDbLine
 10
419.9999999999999
 20
594.0000000000002
 30
0.0
 11
0.0
 21
594.0
 31
0.0
  0
LINE
  5
8B
330
1E
100
AcDbEntity
  8
HILF
100
AcDbLine
 10
420.0
 20
0.0
 30
0.0
 11
0.0
 21
0.0
 31
0.0
  0
LINE
  5
8C
330
1E
100
AcDbEntity
  8
HILF
100
AcDbLine
 10
31.08767135713856
 20
297.0
 30
0.0
 11
0.0000000000001137
 21
297.0
 31
0.0
  0
TEXT
  5
8D
330
1E
100
AcDbEntity
  8
TEXT
100
AcDbText
 10
138.622109822104
 20
73.14025471151666
 30
0.0
 40
4.0
  1
2008
 41
0.8
  7
GREEKS
100
AcDbText
  0
LINE
  5
8E
330
1E
100
AcDbEntity
  8
HILF
100
AcDbLine
 10
420.0
 20
-0.0000000000001137
 30
0.0
 11
419.9999999999999
 21
594.0
 31
0.0
  0
TEXT
  5
8F
330
1E
100
AcDbEntity
  8
VOLL
100
AcDbText
 10
78.07675471698113
 20
31.02594776470585
 30
0.0
 40
1.8
  1

  7
GREEKS
100
AcDbText
  0
TEXT
  5
90
330
1E
100
AcDbEntity
  8
TEXT
100
AcDbText
 10
41.85509950977674
 20
111.6719999999999
 30
0.0
 40
5.0
  1
Erstellt mit AUTOCAD 2004
 41
0.8
  7
GREEKS
100
AcDbText
  0
TEXT
  5
91
330
1E
100
AcDbEntity
  8
TEXT
100
AcDbText
 10
194.4216048581257
 20
63.0896391972351
 30
0.0
 40
4.0
  1
Koeh
 41
0.8
  7
GREEKS
 72
     1
 11
199.6787477152685
 21
63.0896391972351
 31
0.0
100
AcDbText
  0
TEXT
  5
92
330
1E
100
AcDbEntity
  8
TEXT
 62
     1
100
AcDbText
 10
344.3143841209336
 20
88.14901428913959
 30
0.0
 40
7.0
  1
15671070W
 41
0.8
  7
GREEKS
 72
     1
 11
367.247717454267
 21
88.14901428913959
 31
0.0
100
AcDbText
  0
TEXT
  5
93
330
1E
100
AcDbEntity
  8
TEXT
 62
     1
100
AcDbText
 10
150.5006306481887
 20
88.14901428913959
 30
0.0
 40
7.0
  1
1:2
 41
0.8
  7
GREEKS
100
AcDbText
  0
TEXT
  5
94
330
1E
100
AcDbEntity
  8
TEXT
100
AcDbText
 10
160.398997108236
 20
63.10765040825732
 30
0.0
 40
4.0
  1
28.05.
 41
0.8
  7
GREEKS
 72
     1
 11
167.4085209177598
 21
63.10765040825732
 31
0.0
100
AcDbText
  0
TEXT
  5
95
330
1E
100
AcDbEntity
  8
TEXT
 62
     1
100
AcDbText
 10
226.8935731057402
 20
87.41748789253779
 30
0.0
 40
7.0
  1
Balkonablauf DN70
 41
0.8
  7
GREEKS
100
AcDbText
  0
TEXT
  5
96
330
1E
100
AcDbEntity
  8
TEXT
100
AcDbText
 10
225.1296391125315
 20
71.50334417585288
 30
0.0
 40
5.0
  1
Kompletteinheit senkrecht
 41
0.8
  7
GREEKS
100
AcDbText
  0
TEXT
  5
98
330
1E
100
AcDbEntity
  8
TEXT
100
AcDbText
 10
225.1296391125315
 20
51.64011943042158
 30
0.0
 40
5.0
  1
EDV-Art.Nr. 15671.070X
 41
0.8
  7
GREEKS
100
AcDbText
  0
TEXT
  5
99
330
1E
100
AcDbEntity
  8
TEXT
100
AcDbText
 10
224.9837501577827
 20
42.62974153022632
 30
0.0
 40
4.0
  1
15671070W.DWG
 41
0.8
  7
GREEKS
100
AcDbText
  0
TEXT
  5
9A
330
1E
100
AcDbEntity
  8
TEXT
100
AcDbText
 10
182.626132208084
 20
90.76363841023022
 30
0.0
 40
4.0
  1
DIN EN1123-2
 41
0.8
  7
GREEKS
 72
     1
 11
199.6166083985602
 21
90.76363841023022
 31
0.0
100
AcDbText
  0
INSERT
  5
9B
330
1E
100
AcDbEntity
  8
STEMPEL
100
AcDbBlockReference
  2
LOGO
 10
140.9955485457794
 20
45.02105276448322
 30
0.0
 41
2.0
 42
2.0
 43
2.0
  0
TEXT
  5
118
330
1E
100
AcDbEntity
  8
BEM
100
AcDbText
 10
417.3022923857165
 20
10.16790107998849
 30
0.0
 40
4.0
  1
Diese Zeichnung ist urheberrechtlich geschützt und bleibt unser Eigentum. Sie darf weder ganz noch teilweise verfielfältigt und nicht an Dritte weitergegeben werden.
 50
90.0
 41
0.8
  7
GREEKS
100
AcDbText
  0
LINE
  5
AC5
102
{ACAD_REACTORS
330
107E
102
}
330
1E
100
AcDbEntity
  8
STEMPEL
100
AcDbLine
 10
324.8230904984969
 20
441.8694163442155
 30
0.0
 11
325.4450188283964
 21
443.2344090740381
 31
0.0
  0
ARC
  5
AC6
102
{ACAD_REACTORS
330
107E
102
}
330
1E
100
AcDbEntity
  8
STEMPEL
100
AcDbCircle
 10
320.9388987878054
 20
440.3424403458661
 30
0.0
 40
4.5
100
AcDbArc
 50
65.50468174750815
 51
92.36239407090849
  0
ARC
  5
AC7
102
{ACAD_REACTORS
330
107E
102
}
330
1E
100
AcDbEntity
  8
STEMPEL
100
AcDbCircle
 10
320.9388987878054
 20
440.3424403458661
 30
0.0
 40
3.0
100
AcDbArc
 50
65.50468174750815
 51
92.36239407090849
  0
LINE
  5
AC8
102
{ACAD_REACTORS
330
107E
102
}
330
1E
100
AcDbEntity
  8
STEMPEL
100
AcDbLine
 10
322.1827554476042
 20
443.0724258055113
 30
0.0
 11
324.8230904984969
 21
441.8694163442155
 31
0.0
  0
LINE
  5
AC9
102
{ACAD_REACTORS
330
107E
102
}
330
1E
100
AcDbEntity
  8
STEMPEL
100
AcDbLine
 10
322.8046837775035
 20
444.4374185353339
 30
0.0
 11
325.4450188283964
 21
443.2344090740381
 31
0.0
  0
ARC
  5
ACA
102
{ACAD_REACTORS
330
107E
102
}
330
1E
100
AcDbEntity
  8
STEMPEL
100
AcDbCircle
 10
289.4401750227692
 20
439.0429625198107
 30
0.0
 40
4.5
100
AcDbArc
 50
92.36239407090849
 51
135.0
  0
ARC
  5
ACB
102
{ACAD_REACTORS
330
107E
102
}
330
1E
100
AcDbEntity
  8
STEMPEL
100
AcDbCircle
 10
289.4401750227692
 20
439.0429625198107
 30
0.0
 40
3.0
100
AcDbArc
 50
92.36239407090849
 51
135.0
  0
LINE
  5
ACC
102
{ACAD_REACTORS
330
107E
102
}
330
1E
100
AcDbEntity
  8
STEMPEL
100
AcDbLine
 10
262.9999999999999
 20
455.1194163442156
 30
0.0
 11
264.2990381056766
 21
455.8694163442155
 31
0.0
  0
LINE
  5
ACE
102
{ACAD_REACTORS
330
107E
102
}
330
1E
100
AcDbEntity
  8
STEMPEL
100
AcDbLine
 10
278.9587338024705
 20
436.8694163442156
 30
0.0
 11
279.9093081805418
 21
435.5873626380696
 31
0.0
  0
ARC
  5
ACF
102
{ACAD_REACTORS
330
107E
102
}
330
1E
100
AcDbEntity
  8
STEMPEL
100
AcDbCircle
 10
281.1600271293757
 20
441.3694163442154
 30
0.0
 40
4.5
100
AcDbArc
 50
270.0
 51
315.0
  0
ARC
  5
AD0
102
{ACAD_REACTORS
330
107E
102
}
330
1E
100
AcDbEntity
  8
STEMPEL
100
AcDbCircle
 10
281.1600271293757
 20
441.3694163442154
 30
0.0
 40
3.0
100
AcDbArc
 50
269.9999999999968
 51
315.0
  0
ARC
  5
AD1
102
{ACAD_REACTORS
330
107E
102
}
330
1E
100
AcDbEntity
  8
STEMPEL
100
AcDbCircle
 10
276.1347186240639
 20
441.3694163442156
 30
0.0
 40
3.0
100
AcDbArc
 50
210.0000000000005
 51
269.9999999999968
  0
LINE
  5
AD2
102
{ACAD_REACTORS
330
107E
102
}
330
1E
100
AcDbEntity
  8
STEMPEL
100
AcDbLine
 10
273.2305412000662
 20
437.9320112924445
 30
0.0
 11
274.6596473514527
 21
438.7571061136481
 31
0.0
  0
ARC
  5
AD3
102
{ACAD_REACTORS
330
107E
102
}
330
1E
100
AcDbEntity
  8
STEMPEL
100
AcDbCircle
 10
276.1347186240639
 20
441.3694163442156
 30
0.0
 40
4.5
100
AcDbArc
 50
210.0000000000005
 51
269.9999999999968
  0
LINE
  5
AD4
102
{ACAD_REACTORS
330
107E
102
}
330
1E
100
AcDbEntity
  8
STEMPEL
100
AcDbLine
 10
281.1600271293756
 20
438.3694163442154
 30
0.0
 11
276.1347186240637
 21
438.3694163442156
 31
0.0
  0
LINE
  5
AD5
102
{ACAD_REACTORS
330
107E
102
}
330
1E
100
AcDbEntity
  8
STEMPEL
100
AcDbLine
 10
278.9563583977933
 20
436.8726200875946
 30
0.0
 11
269.760269374598
 21
430.0542110287491
 31
0.0
  0
LINE
  5
AD7
330
1E
100
AcDbEntity
  8
MITTEL
100
AcDbLine
 10
268.9019237886466
 20
438.8969844798802
 30
0.0
 11
275.3971143170299
 21
442.6469844798802
 31
0.0
  0
LINE
  5
AD8
102
{ACAD_REACTORS
330
107E
102
}
330
1E
100
AcDbEntity
  8
STEMPEL
100
AcDbLine
 10
269.9999999999998
 20
442.9950606912335
 30
0.0
 11
271.2990381056765
 21
443.7450606912334
 31
0.0
  0
LINE
  5
AD9
102
{ACAD_REACTORS
330
107E
102
}
330
1E
100
AcDbEntity
  8
STEMPEL
100
AcDbLine
 10
264.2990381056766
 20
455.8694163442157
 30
0.0
 11
273.5366424127105
 21
439.8694163442156
 31
0.0
  0
LINE
  5
ADA
102
{ACAD_REACTORS
330
107E
102
}
330
1E
100
AcDbEntity
  8
STEMPEL
100
AcDbLine
 10
262.9999999999999
 20
455.1194163442156
 30
0.0
 11
272.237604307034
 21
439.1194163442157
 31
0.0
  0
LINE
  5
ADB
330
1E
100
AcDbEntity
  8
HILF
100
AcDbLine
 10
287.5
 20
443.4667485277205
 30
0.0
 11
271.4597217081995
 21
443.4667485277205
 31
0.0
  0
LINE
  5
ADC
102
{ACAD_REACTORS
330
107E
102
}
330
1E
100
AcDbEntity
  8
STEMPEL
100
AcDbLine
 10
283.2813474729352
 20
439.2480960006557
 30
0.0
 11
286.2581945074298
 21
442.2249430351502
 31
0.0
  0
LINE
  5
ADD
102
{ACAD_REACTORS
330
107E
102
}
330
1E
100
AcDbEntity
  8
STEMPEL
100
AcDbLine
 10
284.342007644715
 20
438.1874358288759
 30
0.0
 11
287.3188546792095
 21
441.1642828633703
 31
0.0
  0
ARC
  5
ADF
330
1E
100
AcDbEntity
  8
STEMPEL
100
AcDbCircle
 10
264.9
 20
399.0100143112627
 30
0.0
 40
4.599999999999999
100
AcDbArc
 50
318.3664606634291
 51
0.0
  0
ARC
  5
AE0
330
1E
100
AcDbEntity
  8
STEMPEL
100
AcDbCircle
 10
264.9
 20
399.0100143112627
 30
0.0
 40
3.0
100
AcDbArc
 50
318.3664606634291
 51
0.0
  0
LINE
  5
AE2
330
1E
100
AcDbEntity
  8
STEMPEL
100
AcDbLine
 10
259.9
 20
388.8694163442156
 30
0.0
 11
267.1422279560509
 21
397.0169227947729
 31
0.0
  0
LINE
  5
AE3
102
{ACAD_REACTORS
330
10A6
102
}
330
1E
100
AcDbEntity
  8
STEMPEL
100
AcDbLine
 10
262.0407279251187
 20
388.8694163442156
 30
0.0
 11
268.3380828659448
 21
395.9539406526451
 31
0.0
  0
LINE
  5
AE4
330
1E
100
AcDbEntity
  8
STEMPEL
100
AcDbLine
 10
267.8999999999999
 20
426.3590958613646
 30
0.0
 11
267.9
 21
399.0100143112627
 31
0.0
  0
LINE
  5
AE5
330
1E
100
AcDbEntity
  8
STEMPEL
100
AcDbLine
 10
269.4999999999999
 20
426.3590958613646
 30
0.0
 11
269.4999999999999
 21
399.0100143112627
 31
0.0
  0
ARC
  5
AE6
330
1E
100
AcDbEntity
  8
STEMPEL
100
AcDbCircle
 10
272.5
 20
426.3590958613646
 30
0.0
 40
3.0
100
AcDbArc
 50
126.554961087582
 51
180.0
  0
ARC
  5
AE8
330
1E
100
AcDbEntity
  8
STEMPEL
100
AcDbCircle
 10
272.5
 20
426.3590958613646
 30
0.0
 40
4.599999999999999
100
AcDbArc
 50
126.554961087582
 51
180.0
  0
LINE
  5
AF3
330
1E
100
AcDbEntity
  8
STEMPEL
100
AcDbLine
 10
270.6654656666712
 20
444.8424403458661
 30
0.0
 11
320.9388987878054
 21
444.8424403458661
 31
0.0
  0
LINE
  5
AF7
330
1E
100
AcDbEntity
  8
STEMPEL
100
AcDbLine
 10
288.4346111120668
 20
441.8694163442155
 30
0.0
 11
324.8230904984969
 21
441.8694163442155
 31
0.0
  0
LINE
  5
AF8
102
{ACAD_REACTORS
330
107E
102
}
330
1E
100
AcDbEntity
  8
STEMPEL
100
AcDbLine
 10
289.3165154031582
 20
442.040412819395
 30
0.0
 11
320.8152391681944
 21
443.3398906454503
 31
0.0
  0
LINE
  5
AF9
102
{ACAD_REACTORS
330
107E
102
}
330
1E
100
AcDbEntity
  8
STEMPEL
100
AcDbLine
 10
289.2546855933528
 20
443.539137969187
 30
0.0
 11
320.753409358389
 21
444.8386157952424
 31
0.0
  0
LINE
  5
AFB
330
1E
100
AcDbEntity
  8
STEMPEL
100
AcDbLine
 10
186.9999999999999
 20
455.1194163442155
 30
0.0
 11
185.7009618943234
 21
455.8694163442156
 31
0.0
  0
LINE
  5
AFC
330
1E
100
AcDbEntity
  8
STEMPEL
100
AcDbLine
 10
180.0000000000002
 20
442.9950606912334
 30
0.0
 11
178.7009618943234
 21
443.7450606912333
 31
0.0
  0
ARC
  5
AFD
330
1E
100
AcDbEntity
  8
STEMPEL
100
AcDbCircle
 10
173.865281375936
 20
441.3694163442156
 30
0.0
 40
4.5
100
AcDbArc
 50
269.9999999999993
 51
330.0
  0
ARC
  5
AFE
330
1E
100
AcDbEntity
  8
STEMPEL
100
AcDbCircle
 10
173.865281375936
 20
441.3694163442156
 30
0.0
 40
3.0
100
AcDbArc
 50
269.9999999999995
 51
330.0
  0
LINE
  5
AFF
330
1E
100
AcDbEntity
  8
STEMPEL
100
AcDbLine
 10
176.7694587999337
 20
437.9320112924444
 30
0.0
 11
175.3403526485471
 21
438.757106113648
 31
0.0
  0
ARC
  5
B00
330
1E
100
AcDbEntity
  8
STEMPEL
100
AcDbCircle
 10
168.8399728706242
 20
441.3694163442157
 30
0.0
 40
4.5
100
AcDbArc
 50
225.0000000000015
 51
270.0
  0
ARC
  5
B01
330
1E
100
AcDbEntity
  8
STEMPEL
100
AcDbCircle
 10
168.8399728706242
 20
441.3694163442157
 30
0.0
 40
3.0
100
AcDbArc
 50
224.9999999999992
 51
270.0
  0
LINE
  5
B03
330
1E
100
AcDbEntity
  8
STEMPEL
100
AcDbLine
 10
171.0412661975294
 20
436.8694163442156
 30
0.0
 11
170.0906918194582
 21
435.5873626380696
 31
0.0
  0
LINE
  5
B04
330
1E
100
AcDbEntity
  8
STEMPEL
100
AcDbLine
 10
171.0436416022066
 20
436.8726200875946
 30
0.0
 11
180.239730625402
 21
430.0542110287491
 31
0.0
  0
LINE
  5
B05
330
1E
100
AcDbEntity
  8
STEMPEL
100
AcDbLine
 10
170.0906918194582
 20
435.5873626380696
 30
0.0
 11
179.2867808426535
 21
428.7689535792241
 31
0.0
  0
LINE
  5
B06
330
1E
100
AcDbEntity
  8
STEMPEL
100
AcDbLine
 10
173.865281375936
 20
438.3694163442156
 30
0.0
 11
168.8399728706242
 21
438.3694163442156
 31
0.0
  0
LINE
  5
B07
330
1E
100
AcDbEntity
  8
MITTEL
100
AcDbLine
 10
181.0980762113533
 20
438.8969844798801
 30
0.0
 11
174.60288568297
 21
442.6469844798801
 31
0.0
  0
LINE
  5
B08
330
1E
100
AcDbEntity
  8
STEMPEL
100
AcDbLine
 10
185.7009618943234
 20
455.8694163442156
 30
0.0
 11
176.4633575872894
 21
439.8694163442156
 31
0.0
  0
LINE
  5
B09
330
1E
100
AcDbEntity
  8
STEMPEL
100
AcDbLine
 10
186.9999999999999
 20
455.1194163442155
 30
0.0
 11
177.762395692966
 21
439.1194163442156
 31
0.0
  0
ARC
  5
B0A
330
1E
100
AcDbEntity
  8
STEMPEL
100
AcDbCircle
 10
160.5598249772308
 20
439.0429625198107
 30
0.0
 40
4.5
100
AcDbArc
 50
44.99999999999949
 51
87.63760592909004
  0
ARC
  5
B0B
330
1E
100
AcDbEntity
  8
STEMPEL
100
AcDbCircle
 10
160.5598249772308
 20
439.0429625198107
 30
0.0
 40
3.0
100
AcDbArc
 50
45.0
 51
87.6376059290915
  0
LINE
  5
B0C
330
1E
100
AcDbEntity
  8
HILF
100
AcDbLine
 10
162.4999999999999
 20
443.4667485277205
 30
0.0
 11
178.5402782918003
 21
443.4667485277205
 31
0.0
  0
LINE
  5
B0D
330
1E
100
AcDbEntity
  8
STEMPEL
100
AcDbLine
 10
165.6579923552848
 20
438.187435828876
 30
0.0
 11
162.6811453207903
 21
441.1642828633703
 31
0.0
  0
LINE
  5
B0E
330
1E
100
AcDbEntity
  8
STEMPEL
100
AcDbLine
 10
166.7186525270645
 20
439.248096000656
 30
0.0
 11
163.7418054925704
 21
442.2249430351502
 31
0.0
  0
ARC
  5
B10
330
1E
100
AcDbEntity
  8
STEMPEL
100
AcDbCircle
 10
185.0999999999999
 20
399.0100143112627
 30
0.0
 40
3.0
100
AcDbArc
 50
180.0
 51
221.6335393365709
  0
LINE
  5
B12
330
1E
100
AcDbEntity
  8
STEMPEL
100
AcDbLine
 10
190.0999999999999
 20
388.8694163442156
 30
0.0
 11
182.857772043949
 21
397.0169227947729
 31
0.0
  0
LINE
  5
B13
102
{ACAD_REACTORS
330
10A6
102
}
330
1E
100
AcDbEntity
  8
STEMPEL
100
AcDbLine
 10
187.9592720748813
 20
388.8694163442156
 30
0.0
 11
181.6619171340551
 21
395.9539406526451
 31
0.0
  0
ARC
  5
B14
330
1E
100
AcDbEntity
  8
STEMPEL
100
AcDbCircle
 10
185.0999999999999
 20
399.0100143112627
 30
0.0
 40
4.599999999999999
100
AcDbArc
 50
180.0
 51
221.6335393365697
  0
LINE
  5
B15
330
1E
100
AcDbEntity
  8
STEMPEL
100
AcDbLine
 10
180.4999999999999
 20
426.3590958613646
 30
0.0
 11
180.4999999999999
 21
399.0100143112627
 31
0.0
  0
LINE
  5
B16
330
1E
100
AcDbEntity
  8
STEMPEL
100
AcDbLine
 10
182.1000000000001
 20
426.3590958613646
 30
0.0
 11
182.0999999999999
 21
399.0100143112627
 31
0.0
  0
ARC
  5
B17
330
1E
100
AcDbEntity
  8
STEMPEL
100
AcDbCircle
 10
177.4999999999999
 20
426.3590958613646
 30
0.0
 40
4.599999999999999
100
AcDbArc
 50
0.0
 51
53.44503891241798
  0
ARC
  5
B18
330
1E
100
AcDbEntity
  8
STEMPEL
100
AcDbCircle
 10
177.4999999999999
 20
426.3590958613646
 30
0.0
 40
3.0
100
AcDbArc
 50
0.0
 51
53.44503891241798
  0
ARC
  5
B1A
330
1E
100
AcDbEntity
  8
STEMPEL
100
AcDbCircle
 10
129.0611012121946
 20
440.3424403458661
 30
0.0
 40
3.0
100
AcDbArc
 50
87.6376059290915
 51
114.4953182524918
  0
LINE
  5
B1B
330
1E
100
AcDbEntity
  8
STEMPEL
100
AcDbLine
 10
125.1769095015031
 20
441.8694163442155
 30
0.0
 11
124.5549811716036
 21
443.2344090740381
 31
0.0
  0
LINE
  5
B1C
330
1E
100
AcDbEntity
  8
STEMPEL
100
AcDbLine
 10
127.1953162224965
 20
444.4374185353338
 30
0.0
 11
124.5549811716036
 21
443.2344090740381
 31
0.0
  0
LINE
  5
B1D
330
1E
100
AcDbEntity
  8
STEMPEL
100
AcDbLine
 10
127.8172445523958
 20
443.0724258055113
 30
0.0
 11
125.1769095015031
 21
441.8694163442155
 31
0.0
  0
ARC
  5
B1E
330
1E
100
AcDbEntity
  8
STEMPEL
100
AcDbCircle
 10
129.0611012121946
 20
440.3424403458661
 30
0.0
 40
4.5
100
AcDbArc
 50
87.6376059290915
 51
114.4953182524918
  0
LINE
  5
B1F
330
1E
100
AcDbEntity
  8
STEMPEL
100
AcDbLine
 10
129.0611012121946
 20
444.8424403458661
 30
0.0
 11
179.3345343333287
 21
444.8424403458661
 31
0.0
  0
LINE
  5
B21
330
1E
100
AcDbEntity
  8
STEMPEL
100
AcDbLine
 10
160.6834845968416
 20
442.040412819395
 30
0.0
 11
129.1847608318055
 21
443.3398906454503
 31
0.0
  0
LINE
  5
B22
330
1E
100
AcDbEntity
  8
STEMPEL
100
AcDbLine
 10
160.7453144066471
 20
443.539137969187
 30
0.0
 11
129.2465906416109
 21
444.8386157952424
 31
0.0
  0
LINE
  5
B23
330
1E
100
AcDbEntity
  8
STEMPEL
100
AcDbLine
 10
161.5653888879332
 20
441.8694163442155
 30
0.0
 11
125.1769095015031
 21
441.8694163442155
 31
0.0
  0
LINE
  5
B29
330
1E
100
AcDbEntity
  8
STEMPEL
100
AcDbLine
 10
276.1347186240639
 20
436.8694163442155
 30
0.0
 11
262.8810803363349
 21
436.8694163442155
 31
0.0
  0
LINE
  5
B2C
102
{ACAD_REACTORS
330
ED1
330
10A6
102
}
330
1E
100
AcDbEntity
  8
STEMPEL
100
AcDbLine
 10
262.0407279251187
 20
388.8694163442156
 30
0.0
 11
187.9592720748813
 21
388.8694163442156
 31
0.0
  0
LINE
  5
B2D
330
1E
100
AcDbEntity
  8
HILF
100
AcDbLine
 10
185.0999999999998
 20
397.8694163442156
 30
0.0
 11
264.9
 21
397.8694163442156
 31
0.0
  0
LINE
  5
B2E
330
1E
100
AcDbEntity
  8
HILF
100
AcDbLine
 10
185.1000000000001
 20
427.8694163442156
 30
0.0
 11
188.4999999999999
 21
427.8694163442156
 31
0.0
  0
LINE
  5
B31
102
{ACAD_REACTORS
330
ED1
102
}
330
1E
100
AcDbEntity
  8
STEMPEL
100
AcDbLine
 10
261.4999999999999
 20
201.8694163442161
 30
0.0
 11
260.6251133647408
 21
191.8694163442156
 31
0.0
  0
LINE
  5
B32
102
{ACAD_REACTORS
330
ED1
102
}
330
1E
100
AcDbEntity
  8
STEMPEL
100
AcDbLine
 10
259.8999999999999
 20
201.9392738528682
 30
0.0
 11
259.0190016246713
 21
191.8694163442156
 31
0.0
  0
LINE
  5
B33
102
{ACAD_REACTORS
330
ED1
102
}
330
1E
100
AcDbEntity
  8
STEMPEL
100
AcDbLine
 10
190.0999999999999
 20
201.9392738528687
 30
0.0
 11
190.9809983753286
 21
191.8694163442158
 31
0.0
  0
LINE
  5
B34
102
{ACAD_REACTORS
330
ED1
102
}
330
1E
100
AcDbEntity
  8
STEMPEL
100
AcDbLine
 10
188.4999999999999
 20
201.8694163442172
 30
0.0
 11
189.3748866352592
 21
191.8694163442156
 31
0.0
  0
LINE
  5
B36
330
1E
100
AcDbEntity
  8
HILF
100
AcDbLine
 10
256.8824287473006
 20
201.8694163442156
 30
0.0
 11
193.1175712526993
 21
201.8694163442156
 31
0.0
  0
LINE
  5
B37
102
{ACAD_REACTORS
330
ED1
102
}
330
1E
100
AcDbEntity
  8
STEMPEL
100
AcDbLine
 10
260.6251133647408
 20
191.8694163442156
 30
0.0
 11
189.3748866352592
 21
191.8694163442156
 31
0.0
  0
DIMENSION
  5
B38
330
1E
100
AcDbEntity
  8
BEM
100
AcDbDimension
  2
*D1
 10
261.4999999999999
 20
170.6205106112534
 30
0.0
 11
225.0
 21
177.1205106112534
 31
0.0
 70
    32
  1
%%c<>
 71
     5
 42
73.0
  3
Standard
100
AcDbAlignedDimension
 13
188.4999999999999
 23
201.8694163442172
 33
0.0
 14
261.4999999999999
 24
201.8694163442161
 34
0.0
100
AcDbRotatedDimension
1001
ACAD
1000
DSTYLE
1002
{
1070
    40
1040
2.0
1070
    41
1040
3.5
1070
    42
1040
1.0
1070
    43
1040
7.0
1070
    44
1040
1.0
1070
    73
1070
     0
1070
    74
1070
     0
1070
    77
1070
     1
1070
    78
1070
     8
1070
    79
1070
     2
1070
   140
1040
3.5
1070
   141
1040
1.5
1070
   146
1040
0.5142857142857144
1070
   147
1040
1.5
1070
   172
1070
     1
1070
   178
1070
     1
1070
   179
1070
     2
1070
   271
1070
     2
1070
   272
1070
     2
1070
   284
1070
     8
1070
   285
1070
     8
1070
   286
1070
     8
1002
}
  0
LINE
  5
B3B
330
1E
100
AcDbEntity
  8
MITTEL
100
AcDbLine
 10
225.0
 20
471.8694163442156
 30
0.0
 11
225.0
 21
373.3497366661093
 31
0.0
  0
LINE
  5
B3C
102
{ACAD_REACTORS
330
ED1
102
}
330
1E
100
AcDbEntity
  8
STEMPEL
100
AcDbLine
 10
259.8999999999999
 20
388.8694163442156
 30
0.0
 11
259.8999999999999
 21
201.9392738528682
 31
0.0
  0
LINE
  5
B3D
102
{ACAD_REACTORS
330
ED1
330
10A6
102
}
330
1E
100
AcDbEntity
  8
STEMPEL
100
AcDbLine
 10
188.4999999999999
 20
388.8694163442156
 30
0.0
 11
188.4999999999999
 21
201.8694163442172
 31
0.0
  0
LINE
  5
B3E
102
{ACAD_REACTORS
330
ED1
330
10A6
102
}
330
1E
100
AcDbEntity
  8
STEMPEL
100
AcDbLine
 10
261.4999999999999
 20
388.8694163442156
 30
0.0
 11
261.4999999999999
 21
201.8694163442161
 31
0.0
  0
LINE
  5
B3F
102
{ACAD_REACTORS
330
ED1
102
}
330
1E
100
AcDbEntity
  8
STEMPEL
100
AcDbLine
 10
190.0999999999999
 20
388.8694163442156
 30
0.0
 11
190.0999999999999
 21
201.9392738528687
 31
0.0
  0
TEXT
  5
CE6
330
1E
100
AcDbEntity
  8
TEXT
 62
     1
100
AcDbText
 10
217.0853510013516
 20
276.3920900804124
 30
0.0
 40
7.0
  1
DN70
 50
90.0
 41
0.8
  7
GREEKS
100
AcDbText
  0
HATCH
  5
ED1
330
1E
100
AcDbEntity
  8
SCHRAFF
100
AcDbHatch
 10
0.0
 20
0.0
 30
0.0
210
0.0
220
0.0
230
1.0
  2
_USER
 70
     0
 71
     1
 91
        2
 92
        7
 72
     0
 73
     1
 93
        6
 10
261.4999999999999
 20
388.8694163442156
 10
259.8999999999999
 20
388.8694163442157
 10
259.8999999999999
 20
201.9392738528682
 10
259.0190016246713
 20
191.8694163442157
 10
260.6251133647408
 20
191.8694163442157
 10
261.4999999999999
 20
201.8694163442158
 97
        6
330
B2C
330
B3C
330
B32
330
B37
330
B31
330
B3E
 92
        7
 72
     0
 73
     1
 93
        6
 10
190.0999999999999
 20
388.8694163442156
 10
188.4999999999999
 20
388.8694163442156
 10
188.4999999999999
 20
201.8694163442175
 10
189.3748866352592
 20
191.8694163442156
 10
190.9809983753286
 20
191.8694163442156
 10
190.0999999999999
 20
201.9392738528686
 97
        6
330
B2C
330
B3D
330
B34
330
B37
330
B33
330
B3F
 75
     0
 76
     0
 52
45.0
 41
2.0
 77
     0
 78
     1
 53
45.0
 43
6.243791999010625
 44
-11.77741298882841
 45
-1.414213562373094
 46
1.414213562373095
 79
     0
 47
0.4495404224216799
 98
        2
 10
260.4173212617706
 20
300.6851493856889
 10
189.3396996710625
 20
302.4833118356983
  0
HATCH
  5
EF6
330
1E
100
AcDbEntity
  8
SCHRAFF
100
AcDbHatch
 10
0.0
 20
0.0
 30
0.0
210
0.0
220
0.0
230
1.0
  2
_USER
 70
     0
 71
     0
 91
        2
 92
        7
 72
     1
 73
     1
 93
       13
 10
269.4999999999999
 20
426.3590958613646
 42
-0.2375191990227782
 10
270.7132191573464
 20
428.768953579224
 42
0.0
 10
279.9093081805418
 20
435.5873626380696
 42
0.0
 10
278.9587338024704
 20
436.8694163442156
 42
0.0
 10
278.9520374617703
 20
436.8694163442156
 42
0.0
 10
269.760269374598
 20
430.0542110287491
 42
0.2375191990227866
 10
267.8999999999999
 20
426.3590958613646
 42
0.0
 10
267.9
 20
399.0100143112627
 42
-0.1836856211561755
 10
267.1422279560509
 20
397.0169227947729
 42
0.0
 10
259.9
 20
388.8694163442155
 42
0.0
 10
262.0407279251188
 20
388.8694163442157
 42
0.0
 10
268.3380828659448
 20
395.9539406526451
 42
0.1836856211561697
 10
269.4999999999999
 20
399.0100143112627
 42
0.0
 97
        0
 92
        7
 72
     1
 73
     1
 93
       13
 10
180.4999999999999
 20
399.0100143112627
 42
0.1836856211561718
 10
181.6619171340551
 20
395.9539406526451
 42
0.0
 10
187.9592720748814
 20
388.8694163442156
 42
0.0
 10
190.0999999999999
 20
388.8694163442155
 42
0.0
 10
182.857772043949
 20
397.0169227947729
 42
-0.1836856211561756
 10
182.0999999999999
 20
399.0100143112627
 42
0.0
 10
182.1000000000001
 20
426.3590958613646
 42
0.2375191990227849
 10
180.239730625402
 20
430.0542110287491
 42
0.0
 10
171.0479625382296
 20
436.8694163442155
 42
0.0
 10
171.0412661975293
 20
436.8694163442155
 42
0.0
 10
170.0906918194582
 20
435.5873626380695
 42
0.0
 10
179.2867808426535
 20
428.7689535792241
 42
-0.2375191990227732
 10
180.4999999999999
 20
426.3590958613647
 42
0.0
 97
        0
 75
     0
 76
     0
 52
135.0
 41
2.0
 77
     0
 78
     1
 53
135.0
 43
6.243791999010625
 44
-11.77741298882841
 45
-1.414213562373095
 46
-1.414213562373094
 79
     0
 47
0.2674256162667747
 98
        2
 10
268.7089954650805
 20
423.3987157042802
 10
181.1989691631183
 20
419.1199049154345
  0
LINE
  5
F8F
102
{ACAD_REACTORS
330
107E
102
}
330
1E
100
AcDbEntity
  8
STEMPEL
100
AcDbLine
 10
281.1600271293757
 20
436.8694163442154
 30
0.0
 11
276.1347186240636
 21
436.8694163442156
 31
0.0
  0
HATCH
  5
105A
330
1E
100
AcDbEntity
  8
SCHRAFF
100
AcDbHatch
 10
0.0
 20
0.0
 30
0.0
210
0.0
220
0.0
230
1.0
  2
_USER
 70
     0
 71
     0
 91
        2
 92
        7
 72
     0
 73
     1
 93
        4
 10
186.9999999999999
 20
455.1194163442156
 10
185.7009618943233
 20
455.8694163442157
 10
178.7009618943233
 20
443.7450606912334
 10
179.9999999999999
 20
442.9950606912335
 97
        0
 92
        7
 72
     1
 73
     1
 93
       18
 10
176.7694587999336
 20
437.9320112924444
 42
0.0
 10
175.3403526485452
 20
438.757106113649
 42
-0.1292196001266817
 10
173.8652813759359
 20
438.3694163442156
 42
0.0
 10
168.8399728706241
 20
438.3694163442156
 42
-0.1989123673796688
 10
166.7186525270644
 20
439.2480960006561
 42
0.0
 10
163.7418054925703
 20
442.2249430351503
 42
0.1882181836572872
 10
160.7453144066472
 20
443.539137969187
 42
0.0
 10
129.2465906416108
 20
444.8386157952425
 42
0.1177283015269063
 10
127.1953162224963
 20
444.4374185353338
 42
0.0
 10
124.5549811716035
 20
443.2344090740382
 42
0.0
 10
125.1769095015029
 20
441.8694163442156
 42
0.0
 10
127.8172445523957
 20
443.0724258055113
 42
-0.1177283015269051
 10
129.1847608318054
 20
443.3398906454504
 42
0.0
 10
160.6834845968415
 20
442.040412819395
 42
-0.1882181836572931
 10
162.6811453207902
 20
441.1642828633704
 42
0.0
 10
165.6579923552847
 20
438.1874358288761
 42
0.1989123673796385
 10
168.8399728706239
 20
436.8694163442157
 42
0.0
 10
173.8652813759359
 20
436.8694163442156
 42
0.1771982469998025
 97
        0
 75
     0
 76
     0
 52
45.0
 41
2.0
 77
     0
 78
     1
 53
45.0
 43
17.69036993211179
 44
-31.42814551225536
 45
-1.414213562373094
 46
1.414213562373095
 79
     0
 47
0.1466472572674691
 98
        2
 10
184.3254056070103
 20
452.2085312502869
 10
172.4385747800964
 20
437.39715850043
  0
HATCH
  5
107E
330
1E
100
AcDbEntity
  8
SCHRAFF
100
AcDbHatch
 10
0.0
 20
0.0
 30
0.0
210
0.0
220
0.0
230
1.0
  2
_USER
 70
     0
 71
     1
 91
        2
 92
        7
 72
     1
 73
     1
 93
       21
 10
320.8152391681944
 20
443.3398906454503
 42
-0.117728301526909
 10
322.1827554476041
 20
443.0724258055113
 42
0.0
 10
324.8230904984969
 20
441.8694163442155
 42
0.0
 10
325.4450188283964
 20
443.2344090740381
 42
0.0
 10
322.8046837775035
 20
444.4374185353339
 42
0.117728301526909
 10
320.753409358389
 20
444.8386157952424
 42
0.0
 10
289.2546855933528
 20
443.539137969187
 42
0.1882181836572862
 10
286.2581945074298
 20
442.2249430351502
 42
0.0
 10
283.2813474729352
 20
439.2480960006557
 42
-0.1989123673796629
 10
281.1600271293755
 20
438.3694163442154
 42
0.0
 10
276.1347186240637
 20
438.3694163442156
 42
-0.1292196001266736
 10
274.6596473514545
 20
438.757106113649
 42
0.0
 10
273.230541200066
 20
437.9320112924444
 42
0.1771982469997909
 10
276.1347186240636
 20
436.8694163442156
 42
0.0
 10
278.9520374617704
 20
436.8694163442155
 42
0.0
 10
278.9563583977933
 20
436.8726200875946
 42
0.0
 10
278.9587338024705
 20
436.8694163442154
 42
0.0
 10
281.1600271293757
 20
436.8694163442154
 42
0.1989123673796482
 10
284.342007644715
 20
438.1874358288759
 42
0.0
 10
287.3188546792095
 20
441.1642828633703
 42
-0.1882181836572907
 10
289.3165154031582
 20
442.040412819395
 42
0.0
 97
       20
330
AC7
330
AC8
330
AC5
330
AC9
330
AC6
330
AF9
330
ACA
330
ADC
330
AD0
330
AD4
330
AD1
330
AD2
330
AD3
330
F8F
330
AD5
330
ACE
330
ACF
330
ADD
330
ACB
330
AF8
 92
        7
 72
     0
 73
     1
 93
        4
 10
264.2990381056767
 20
455.8694163442156
 10
263.0
 20
455.1194163442156
 10
269.9999999999999
 20
442.9950606912335
 10
271.2990381056765
 20
443.7450606912334
 97
        4
330
ACC
330
ADA
330
AD8
330
AD9
 75
     0
 76
     0
 52
45.0
 41
2.0
 77
     0
 78
     1
 53
45.0
 43
6.243791999010625
 44
-11.77741298882841
 45
-1.414213562373094
 46
1.414213562373095
 79
     0
 47
0.286847584277201
 98
        2
 10
301.6233687303038
 20
443.2397544918684
 10
268.3255128102905
 20
447.8293152526378
  0
LINE
  5
1081
330
1E
100
AcDbEntity
  8
STEMPEL
100
AcDbLine
 10
279.9093081805419
 20
435.5873626380695
 30
0.0
 11
270.7132191573464
 21
428.768953579224
 31
0.0
  0
ARC
  5
1083
330
1E
100
AcDbEntity
  8
SCHRAFF
100
AcDbCircle
 10
279.63111196939
 20
438.1819621633235
 30
0.0
 40
3.928466779938854
100
AcDbArc
 50
251.4948235557333
 51
350.4266756258716
  0
ARC
  5
1084
330
1E
100
AcDbEntity
  8
SCHRAFF
100
AcDbCircle
 10
170.3688880306098
 20
438.1819621633235
 30
0.0
 40
3.928466779938854
100
AcDbArc
 50
189.5733243741284
 51
288.5051764442667
  0
HATCH
  5
1097
330
1E
100
AcDbEntity
  8
SCHRAFF
100
AcDbHatch
 10
0.0
 20
0.0
 30
0.0
210
0.0
220
0.0
230
1.0
  2
_USER
 70
     0
 71
     0
 91
        2
 92
        7
 72
     1
 73
     1
 93
        5
 10
283.5048692473488
 20
437.528620145277
 42
-0.1378919234461084
 10
281.1600271293756
 20
436.8694163442154
 42
0.0
 10
278.9587338024707
 20
436.8694163442154
 42
0.0
 10
279.9093081805419
 20
435.5873626380695
 42
0.0
 10
278.3842545924591
 20
434.4566168205833
 42
0.4606458172391012
 97
        0
 92
        7
 72
     1
 73
     1
 93
        5
 10
170.0906918194581
 20
435.5873626380695
 42
0.0
 10
171.0412661975293
 20
436.8694163442155
 42
0.0
 10
168.8399728706242
 20
436.8694163442155
 42
-0.137891923446106
 10
166.4951307526511
 20
437.5286201452772
 42
0.4606458172391316
 10
171.615745407541
 20
434.4566168205834
 42
0.0
 97
        0
 75
     0
 76
     0
 52
0.0
 41
0.1
 77
     0
 78
     1
 53
0.0
 43
6.243791999010625
 44
-11.77741298882841
 45
0.0
 46
0.1
 79
     0
 47
0.1912317239844965
 98
        2
 10
281.0992610970579
 20
435.6562217155826
 10
169.3409423695943
 20
435.6562217155826
  0
ARC
  5
1098
102
{ACAD_REACTORS
330
10A6
102
}
330
1E
100
AcDbEntity
  8
SCHRAFF
100
AcDbCircle
 10
261.4999999999999
 20
388.8694163442156
 30
0.0
 40
4.0
100
AcDbArc
 50
270.0
 51
42.56761389427917
  0
ARC
  5
1099
102
{ACAD_REACTORS
330
10A6
102
}
330
1E
100
AcDbEntity
  8
SCHRAFF
100
AcDbCircle
 10
188.4999999999999
 20
388.8694163442156
 30
0.0
 40
4.0
100
AcDbArc
 50
137.4323861057208
 51
270.0
  0
HATCH
  5
10A6
330
1E
100
AcDbEntity
  8
SCHRAFF
100
AcDbHatch
 10
0.0
 20
0.0
 30
0.0
210
0.0
220
0.0
230
1.0
  2
_USER
 70
     0
 71
     1
 91
        2
 92
        7
 72
     1
 73
     1
 93
        4
 10
264.4459182788308
 20
391.5752554921419
 42
0.0
 10
262.0407279251187
 20
388.8694163442156
 42
0.0
 10
261.4999999999999
 20
388.8694163442156
 42
0.0
 10
261.4999999999999
 20
384.8694163442156
 42
0.6529344477545831
 97
        4
330
AE3
330
B2C
330
B3E
330
1098
 92
        7
 72
     1
 73
     1
 93
        4
 10
188.4999999999999
 20
388.8694163442156
 42
0.0
 10
187.9592720748813
 20
388.8694163442157
 42
0.0
 10
185.5540817211691
 20
391.5752554921419
 42
0.6529344477545759
 10
188.4999999999999
 20
384.8694163442156
 42
0.0
 97
        4
330
B2C
330
B13
330
1099
330
B3D
 75
     0
 76
     0
 52
0.0
 41
0.1
 77
     0
 78
     1
 53
0.0
 43
6.243791999010625
 44
-11.77741298882841
 45
0.0
 46
0.1
 79
     0
 47
0.1718097525749831
 98
        2
 10
263.7214930314125
 20
388.1373781396824
 10
187.0401453443277
 20
387.6219497138976
  0
LINE
  5
1399
330
1E
100
AcDbEntity
  8
STEMPEL
100
AcDbLine
 10
186.6029384845719
 20
460.8694163442157
 30
0.0
 11
188.5
 21
460.8694163442157
 31
0.0
  0
LINE
  5
139D
330
1E
100
AcDbEntity
  8
STEMPEL
100
AcDbLine
 10
184.9999999999999
 20
450.3744615053065
 30
0.0
 11
184.9999999999999
 21
449.2694163442156
 31
0.0
  0
LINE
  5
139E
330
1E
100
AcDbEntity
  8
STEMPEL
100
AcDbLine
 10
188.4999999999999
 20
454.8694163442156
 30
0.0
 11
188.5
 21
433.1794098925509
 31
0.0
  0
ARC
  5
13A0
330
1E
100
AcDbEntity
  8
STEMPEL
100
AcDbCircle
 10
186.1163538211701
 20
441.9694163442157
 30
0.0
 40
0.9
100
AcDbArc
 50
4.682416862268558
 51
151.6449939715894
  0
LINE
  5
13A1
330
1E
100
AcDbEntity
  8
STEMPEL
100
AcDbLine
 10
182.7
 20
440.8694163442157
 30
0.0
 11
184.9999999999999
 21
444.8694163442157
 31
0.0
  0
LINE
  5
13A2
330
1E
100
AcDbEntity
  8
STEMPEL
100
AcDbLine
 10
182.7
 20
440.8694163442157
 30
0.0
 11
187.0278767464579
 21
440.8694163442157
 31
0.0
  0
LINE
  5
13A3
330
1E
100
AcDbEntity
  8
STEMPEL
100
AcDbLine
 10
184.4999999999999
 20
440.8694163442157
 30
0.0
 11
185.3243341958309
 21
442.3968562968145
 31
0.0
  0
LINE
  5
13A4
330
1E
100
AcDbEntity
  8
STEMPEL
100
AcDbLine
 10
183.6
 20
447.8694163442157
 30
0.0
 11
184.9999999999999
 21
449.2694163442156
 31
0.0
  0
LINE
  5
13A5
330
1E
100
AcDbEntity
  8
STEMPEL
100
AcDbLine
 10
183.6
 20
446.8694163442157
 30
0.0
 11
184.9999999999999
 21
445.4694163442157
 31
0.0
  0
LINE
  5
13A6
330
1E
100
AcDbEntity
  8
STEMPEL
100
AcDbLine
 10
183.6
 20
447.8694163442157
 30
0.0
 11
183.6
 21
446.8694163442157
 31
0.0
  0
LINE
  5
13A7
330
1E
100
AcDbEntity
  8
STEMPEL
100
AcDbLine
 10
184.9999999999999
 20
445.4694163442157
 30
0.0
 11
184.9999999999999
 21
444.8694163442157
 31
0.0
  0
ARC
  5
13AA
330
1E
100
AcDbEntity
  8
STEMPEL
100
AcDbCircle
 10
186.6029384845719
 20
459.8694163442157
 30
0.0
 40
1.0
100
AcDbArc
 50
10.00000000000021
 51
150.5880863344696
  0
LINE
  5
13AB
330
1E
100
AcDbEntity
  8
STEMPEL
100
AcDbLine
 10
186.2613941852408
 20
453.8401135462868
 30
0.0
 11
184.9999999999999
 21
450.3744615053065
 31
0.0
  0
ARC
  5
13AC
330
1E
100
AcDbEntity
  8
STEMPEL
100
AcDbCircle
 10
186.2859259966289
 20
455.3694163442157
 30
0.0
 40
0.5
100
AcDbArc
 50
346.3235567027674
 51
90.0
  0
LINE
  5
13AD
330
1E
100
AcDbEntity
  8
STEMPEL
100
AcDbLine
 10
183.2
 20
455.8694163442157
 30
0.0
 11
185.7318267672227
 21
460.3605012410481
 31
0.0
  0
LINE
  5
13AE
330
1E
100
AcDbEntity
  8
STEMPEL
100
AcDbLine
 10
183.2
 20
455.8694163442157
 30
0.0
 11
186.2859259966289
 21
455.8694163442157
 31
0.0
  0
LINE
  5
13AF
330
1E
100
AcDbEntity
  8
STEMPEL
100
AcDbLine
 10
188.4999999999999
 20
454.8694163442156
 30
0.0
 11
187.5877462375841
 21
460.0430645218826
 31
0.0
  0
LINE
  5
13B4
330
1E
100
AcDbEntity
  8
STEMPEL
100
AcDbLine
 10
265.0
 20
450.3744615053065
 30
0.0
 11
265.0
 21
449.2694163442156
 31
0.0
  0
LINE
  5
13B5
330
1E
100
AcDbEntity
  8
STEMPEL
100
AcDbLine
 10
261.5
 20
454.8694163442156
 30
0.0
 11
261.5
 21
433.1794098925508
 31
0.0
  0
LINE
  5
13B6
330
1E
100
AcDbEntity
  8
STEMPEL
100
AcDbLine
 10
267.3000000000001
 20
440.8694163442157
 30
0.0
 11
265.0000000000001
 21
444.8694163442157
 31
0.0
  0
ARC
  5
13B8
330
1E
100
AcDbEntity
  8
STEMPEL
100
AcDbCircle
 10
263.88364617883
 20
441.9694163442157
 30
0.0
 40
0.9
100
AcDbArc
 50
28.35500602841055
 51
175.3175831377314
  0
ARC
  5
13B9
330
1E
100
AcDbEntity
  8
STEMPEL
100
AcDbCircle
 10
13.69508477467423
 20
444.5421074365922
 30
0.0
 40
249.3040925710106
100
AcDbArc
 50
357.3876873862748
 51
359.4256120996519
  0
LINE
  5
13BA
330
1E
100
AcDbEntity
  8
STEMPEL
100
AcDbLine
 10
267.3000000000001
 20
440.8694163442157
 30
0.0
 11
262.9721232535421
 21
440.8694163442156
 31
0.0
  0
LINE
  5
13BB
330
1E
100
AcDbEntity
  8
STEMPEL
100
AcDbLine
 10
265.5
 20
440.8694163442157
 30
0.0
 11
264.6756658041691
 21
442.3968562968145
 31
0.0
  0
LINE
  5
13BC
330
1E
100
AcDbEntity
  8
STEMPEL
100
AcDbLine
 10
266.4000000000001
 20
446.8694163442157
 30
0.0
 11
265.0000000000001
 21
445.4694163442157
 31
0.0
  0
LINE
  5
13BD
330
1E
100
AcDbEntity
  8
STEMPEL
100
AcDbLine
 10
266.4000000000001
 20
447.8694163442157
 30
0.0
 11
266.4000000000001
 21
446.8694163442157
 31
0.0
  0
LINE
  5
13BE
330
1E
100
AcDbEntity
  8
STEMPEL
100
AcDbLine
 10
265.0000000000001
 20
445.4694163442157
 30
0.0
 11
265.0000000000001
 21
444.8694163442157
 31
0.0
  0
LINE
  5
13BF
330
1E
100
AcDbEntity
  8
STEMPEL
100
AcDbLine
 10
266.4000000000001
 20
447.8694163442157
 30
0.0
 11
265.0
 21
449.2694163442156
 31
0.0
  0
LINE
  5
13C0
330
1E
100
AcDbEntity
  8
STEMPEL
100
AcDbLine
 10
261.5
 20
454.8694163442156
 30
0.0
 11
262.4122537624158
 21
460.0430645218826
 31
0.0
  0
ARC
  5
13C1
330
1E
100
AcDbEntity
  8
STEMPEL
100
AcDbCircle
 10
263.7140740033711
 20
455.3694163442157
 30
0.0
 40
0.5
100
AcDbArc
 50
90.0
 51
193.6764432972129
  0
LINE
  5
13C2
330
1E
100
AcDbEntity
  8
STEMPEL
100
AcDbLine
 10
263.7386058147594
 20
453.8401135462863
 30
0.0
 11
265.0
 21
450.3744615053065
 31
0.0
  0
ARC
  5
13C3
330
1E
100
AcDbEntity
  8
STEMPEL
100
AcDbCircle
 10
263.397061515428
 20
459.8694163442157
 30
0.0
 40
1.0
100
AcDbArc
 50
29.41191366553042
 51
169.9999999999997
  0
LINE
  5
13C4
330
1E
100
AcDbEntity
  8
STEMPEL
100
AcDbLine
 10
266.8000000000001
 20
455.8694163442157
 30
0.0
 11
264.2681732327774
 21
460.3605012410481
 31
0.0
  0
LINE
  5
13C5
330
1E
100
AcDbEntity
  8
STEMPEL
100
AcDbLine
 10
266.8000000000001
 20
455.8694163442157
 30
0.0
 11
263.7140740033711
 21
455.8694163442157
 31
0.0
  0
LINE
  5
1574
330
1E
100
AcDbEntity
  8
STEMPEL
100
AcDbLine
 10
262.7401001377159
 20
433.1794098925509
 30
0.0
 11
261.5000000000001
 21
433.1794098925509
 31
0.0
  0
LINE
  5
1575
330
1E
100
AcDbEntity
  8
STEMPEL
100
AcDbLine
 10
187.1189196636651
 20
436.8694163442155
 30
0.0
 11
168.8399728706242
 21
436.8694163442155
 31
0.0
  0
ARC
  5
1576
330
1E
100
AcDbEntity
  8
STEMPEL
100
AcDbCircle
 10
436.3049152253258
 20
444.5421074365922
 30
0.0
 40
249.3040925710106
100
AcDbArc
 50
180.5743879003481
 51
182.6123126137252
  0
DIMENSION
  5
1577
330
1E
100
AcDbEntity
  8
BEM
100
AcDbDimension
  2
*D2
 10
269.4999999999999
 20
361.155040917597
 30
0.0
 11
225.0
 21
367.655040917597
 31
0.0
 70
    32
  1
%%c<>
 71
     5
 42
89.0
  3
Standard
100
AcDbAlignedDimension
 13
180.4999999999999
 23
399.0100143112627
 33
0.0
 14
269.4999999999999
 24
399.0100143112627
 34
0.0
100
AcDbRotatedDimension
1001
ACAD
1000
DSTYLE
1002
{
1070
    40
1040
2.0
1070
    41
1040
3.5
1070
    42
1040
1.0
1070
    43
1040
7.0
1070
    44
1040
1.0
1070
    73
1070
     0
1070
    74
1070
     0
1070
    77
1070
     1
1070
    78
1070
     8
1070
    79
1070
     2
1070
   140
1040
3.5
1070
   141
1040
1.5
1070
   146
1040
0.5142857142857144
1070
   147
1040
1.5
1070
   172
1070
     1
1070
   178
1070
     1
1070
   179
1070
     2
1070
   271
1070
     2
1070
   272
1070
     2
1070
   284
1070
     8
1070
   285
1070
     8
1070
   286
1070
     8
1002
}
  0
DIMENSION
  5
1588
330
1E
100
AcDbEntity
  8
BEM
100
AcDbDimension
  2
*D3
 10
161.9999999999999
 20
492.9730420080184
 30
0.0
 11
225.0
 21
499.4730420080184
 31
0.0
 70
    32
  1
%%c<>
 71
     5
 42
126.0
  3
Standard
100
AcDbAlignedDimension
 13
288.0
 23
443.3062823417091
 33
0.0
 14
161.9999999999999
 24
443.3062823417091
 34
0.0
100
AcDbRotatedDimension
1001
ACAD
1000
DSTYLE
1002
{
1070
    40
1040
2.0
1070
    41
1040
3.5
1070
    42
1040
1.0
1070
    43
1040
7.0
1070
    44
1040
1.0
1070
    73
1070
     0
1070
    74
1070
     0
1070
    77
1070
     1
1070
    78
1070
     8
1070
    79
1070
     2
1070
   140
1040
3.5
1070
   141
1040
1.5
1070
   146
1040
0.5142857142857144
1070
   147
1040
1.5
1070
   172
1070
     1
1070
   178
1070
     1
1070
   179
1070
     2
1070
   271
1070
     2
1070
   272
1070
     2
1070
   284
1070
     8
1070
   285
1070
     8
1070
   286
1070
     8
1002
}
  0
DIMENSION
  5
15B0
330
1E
100
AcDbEntity
  8
BEM
100
AcDbDimension
  2
*D4
 10
113.1523204168911
 20
388.8694163442157
 30
0.0
 11
106.652320416891
 21
415.3694163442156
 31
0.0
 70
    32
 71
     5
 42
52.99999999999989
  3
Standard
100
AcDbAlignedDimension
 13
125.1769095015031
 23
441.8694163442155
 33
0.0
 14
187.9592720748813
 24
388.8694163442156
 34
0.0
 50
90.0
100
AcDbRotatedDimension
1001
ACAD
1000
DSTYLE
1002
{
1070
    40
1040
2.0
1070
    41
1040
3.5
1070
    42
1040
1.0
1070
    43
1040
7.0
1070
    44
1040
1.0
1070
    73
1070
     0
1070
    74
1070
     0
1070
    77
1070
     1
1070
    78
1070
     8
1070
    79
1070
     2
1070
   140
1040
3.5
1070
   141
1040
1.5
1070
   146
1040
0.5142857142857144
1070
   147
1040
1.5
1070
   172
1070
     1
1070
   178
1070
     1
1070
   179
1070
     2
1070
   271
1070
     2
1070
   272
1070
     2
1070
   284
1070
     8
1070
   285
1070
     8
1070
   286
1070
     8
1002
}
  0
DIMENSION
  5
15BD
330
1E
100
AcDbEntity
  8
BEM
100
AcDbDimension
  2
*D5
 10
98.14973503626289
 20
191.8694163442156
 30
0.0
 11
91.64973503626285
 21
316.8694163442156
 31
0.0
 70
    32
 71
     5
 42
249.9999999999999
  3
Standard
100
AcDbAlignedDimension
 13
125.1769095015031
 23
441.8694163442155
 33
0.0
 14
189.3748866352592
 24
191.8694163442156
 34
0.0
 50
90.0
100
AcDbRotatedDimension
1001
ACAD
1000
DSTYLE
1002
{
1070
    40
1040
2.0
1070
    41
1040
3.5
1070
    42
1040
1.0
1070
    43
1040
7.0
1070
    44
1040
1.0
1070
    73
1070
     0
1070
    74
1070
     0
1070
    77
1070
     1
1070
    78
1070
     8
1070
    79
1070
     2
1070
   140
1040
3.5
1070
   141
1040
1.5
1070
   146
1040
0.5142857142857144
1070
   147
1040
1.5
1070
   172
1070
     1
1070
   178
1070
     1
1070
   179
1070
     2
1070
   271
1070
     2
1070
   272
1070
     2
1070
   284
1070
     8
1070
   285
1070
     8
1070
   286
1070
     8
1002
}
  0
DIMENSION
  5
15D9
330
1E
100
AcDbEntity
  8
BEM
100
AcDbDimension
  2
*D6
 10
113.1523204168911
 20
455.8694163442157
 30
0.0
 11
113.1523204168911
 21
448.8694163442156
 31
0.0
 70
   160
 71
     5
 42
14.00000000000023
  3
Standard
100
AcDbAlignedDimension
 13
125.1769095015031
 23
441.8694163442155
 33
0.0
 14
183.2
 24
455.8694163442157
 34
0.0
 50
90.0
100
AcDbRotatedDimension
1001
ACAD
1000
DSTYLE
1002
{
1070
    40
1040
2.0
1070
    41
1040
3.5
1070
    42
1040
1.0
1070
    43
1040
7.0
1070
    44
1040
1.0
1070
    73
1070
     0
1070
    74
1070
     0
1070
    77
1070
     1
1070
    78
1070
     8
1070
    79
1070
     2
1070
   140
1040
3.5
1070
   141
1040
1.5
1070
   146
1040
0.5142857142857144
1070
   147
1040
1.5
1070
   172
1070
     1
1070
   178
1070
     1
1070
   179
1070
     2
1070
   271
1070
     2
1070
   272
1070
     2
1070
   284
1070
     8
1070
   285
1070
     8
1070
   286
1070
     8
1002
}
  0
HATCH
  5
163D
330
1E
100
AcDbEntity
  8
SCHRAFF
100
AcDbHatch
 10
0.0
 20
0.0
 30
0.0
210
0.0
220
0.0
230
1.0
  2
NET
 70
     0
 71
     0
 91
        2
 92
        7
 72
     1
 73
     1
 93
       20
 10
263.7386058147595
 20
453.8401135462863
 42
0.0
 10
263.0
 20
455.1194163442156
 42
0.0
 10
263.2282507973734
 20
455.2511970035219
 42
-0.4859861683436503
 10
263.7140740033711
 20
455.8694163442157
 42
0.0
 10
266.8000000000001
 20
455.8694163442157
 42
0.0
 10
264.2681732327774
 20
460.3605012410481
 42
0.7040385315424561
 10
262.4122537624158
 20
460.0430645218826
 42
0.0
 10
261.5
 20
454.8694163442158
 42
0.0
 10
261.5000000000001
 20
433.1794098925509
 42
0.0
 10
262.7401001377159
 20
433.1794098925509
 42
0.0088923584128242
 10
262.986649941902
 20
442.0428857319702
 42
-0.7464811088944954
 10
264.6756658041691
 20
442.3968562968145
 42
0.0
 10
265.4999999999999
 20
440.8694163442156
 42
0.0
 10
267.3000000000001
 20
440.8694163442158
 42
0.0
 10
265.0000000000001
 20
444.8694163442159
 42
0.0
 10
265.0000000000001
 20
445.4694163442156
 42
0.0
 10
266.4000000000001
 20
446.8694163442157
 42
0.0
 10
266.4000000000001
 20
447.8694163442155
 42
0.0
 10
265.0000000000001
 20
449.2694163442158
 42
0.0
 10
264.9999999999999
 20
450.3744615053064
 42
0.0
 97
        0
 92
        7
 72
     1
 73
     1
 93
       20
 10
188.4999999999999
 20
454.8694163442156
 42
0.0
 10
187.5877462375841
 20
460.0430645218826
 42
0.7040385315423318
 10
185.7318267672227
 20
460.3605012410481
 42
0.0
 10
183.2
 20
455.8694163442157
 42
0.0
 10
186.2859259966289
 20
455.8694163442157
 42
-0.4859861683437569
 10
186.7717492026266
 20
455.2511970035218
 42
0.0
 10
186.9999999999999
 20
455.1194163442155
 42
0.0
 10
186.2613941852408
 20
453.8401135462868
 42
0.0
 10
185.0
 20
450.3744615053065
 42
0.0
 10
184.9999999999999
 20
449.2694163442155
 42
0.0
 10
183.6
 20
447.8694163442156
 42
0.0
 10
183.6
 20
446.8694163442156
 42
0.0
 10
184.9999999999999
 20
445.4694163442157
 42
0.0
 10
184.9999999999999
 20
444.8694163442157
 42
0.0
 10
182.7
 20
440.8694163442157
 42
0.0
 10
184.5
 20
440.8694163442157
 42
0.0
 10
185.3243341958309
 20
442.3968562968145
 42
-0.746481108894445
 10
187.013350058098
 20
442.0428857319708
 42
0.0088923584128248
 10
187.2598998622842
 20
433.1794098925509
 42
0.0
 10
188.4999999999999
 20
433.1794098925508
 42
0.0
 97
        0
 75
     0
 76
     1
 52
45.0
 41
15.0
 77
     0
 78
     2
 53
45.0
 43
0.0
 44
18.98558267131466
 45
-1.325825214724776
 46
1.325825214724776
 79
     0
 53
135.0
 43
0.0
 44
18.98558267131466
 45
-1.325825214724776
 46
-1.325825214724776
 79
     0
 47
0.1374415070709692
 98
        2
 10
263.3639540530207
 20
450.8557946561088
 10
187.1675041073363
 20
449.8937046394489
  0
DIMENSION
  5
163E
330
1E
100
AcDbEntity
  8
BEM
100
AcDbDimension
  2
*D7
 10
325.4450188283964
 20
506.5941171022368
 30
0.0
 11
225.0
 21
513.0941171022368
 31
0.0
 70
    32
  1
%%c201
 71
     5
 42
200.8900376567928
  3
Standard
100
AcDbAlignedDimension
 13
124.5549811716036
 23
443.2344090740381
 33
0.0
 14
325.4450188283964
 24
443.2344090740381
 34
0.0
100
AcDbRotatedDimension
1001
ACAD
1000
DSTYLE
1002
{
1070
    40
1040
2.0
1070
    41
1040
3.5
1070
    42
1040
1.0
1070
    43
1040
7.0
1070
    44
1040
1.0
1070
    73
1070
     0
1070
    74
1070
     0
1070
    77
1070
     1
1070
    78
1070
     8
1070
    79
1070
     2
1070
   140
1040
3.5
1070
   141
1040
1.5
1070
   146
1040
0.5142857142857144
1070
   147
1040
1.5
1070
   172
1070
     1
1070
   178
1070
     1
1070
   179
1070
     2
1070
   271
1070
     2
1070
   272
1070
     2
1070
   284
1070
     8
1070
   285
1070
     8
1070
   286
1070
     8
1002
}
  0
HATCH
  5
1683
330
1E
100
AcDbEntity
  8
SCHRAFF
100
AcDbHatch
 10
0.0
 20
0.0
 30
0.0
210
0.0
220
0.0
230
1.0
  2
NET
 70
     0
 71
     0
 91
        6
 92
        7
 72
     0
 73
     1
 93
       10
 10
261.4999999999999
 20
461.8694163442157
 10
266.0
 20
461.8694163442156
 10
266.0
 20
466.8694163442157
 10
260.4999999999999
 20
466.8694163442155
 10
260.5
 20
465.8694163442155
 10
251.8700576850888
 20
465.8694163442155
 10
251.8700576850888
 20
459.8694163442155
 10
257.9999999999999
 20
459.8694163442155
 10
259.2571477017028
 20
421.8694163442155
 10
261.5
 20
421.8694163442156
 97
        0
 92
        7
 72
     0
 73
     1
 93
        4
 10
241.9705627484771
 20
465.8694163442155
 10
237.7279220613579
 20
465.8694163442155
 10
237.7279220613579
 20
459.8694163442155
 10
241.9705627484771
 20
459.8694163442155
 97
        0
 92
        7
 72
     0
 73
     1
 93
        4
 10
225.0
 20
459.8694163442155
 10
229.278174593052
 20
459.8694163442155
 10
229.2781745930521
 20
465.8694163442155
 10
225.0
 20
465.8694163442155
 97
        0
 92
        7
 72
     0
 73
     1
 93
        4
 10
221.356759488335
 20
459.8694163442155
 10
225.0
 20
459.8694163442155
 10
225.0
 20
465.8694163442155
 10
221.356759488335
 20
465.8694163442155
 97
        0
 92
        7
 72
     0
 73
     1
 93
        4
 10
209.443650813896
 20
459.8694163442155
 10
213.6862915010152
 20
459.8694163442155
 10
213.6862915010152
 20
465.8694163442155
 10
209.443650813896
 20
465.8694163442156
 97
        0
 92
        7
 72
     0
 73
     1
 93
       10
 10
199.5441558772843
 20
459.8694163442155
 10
199.5441558772843
 20
465.8694163442156
 10
189.4999999999999
 20
465.8694163442156
 10
189.4999999999999
 20
466.8694163442157
 10
184.0
 20
466.8694163442157
 10
184.0
 20
461.8694163442156
 10
188.4999999999999
 20
461.8694163442157
 10
188.4999999999999
 20
421.8694163442155
 10
190.742852298297
 20
421.8694163442156
 10
191.9999999999999
 20
459.8694163442156
 97
        0
 75
     0
 76
     1
 52
45.0
 41
20.0
 77
     0
 78
     2
 53
45.0
 43
0.0
 44
18.98558267131466
 45
-1.767766952966368
 46
1.767766952966368
 79
     0
 53
135.0
 43
0.0
 44
18.98558267131466
 45
-1.767766952966368
 46
-1.767766952966368
 79
     0
 47
0.202624019147231
 98
        6
 10
260.0314622603896
 20
463.0396433627528
 10
240.160263488667
 20
463.0396433627528
 10
226.9803868099075
 20
462.431771038998
 10
222.3167386599059
 20
462.6343949057628
 10
211.1645347953961
 20
462.6343949057628
 10
196.3625191880096
 20
462.431771038998
  0
LINE
  5
1684
330
1E
100
AcDbEntity
  8
STEMPEL
100
AcDbLine
 10
188.4999999999999
 20
421.8694163442156
 30
0.0
 11
261.5
 21
421.8694163442156
 31
0.0
  0
LINE
  5
1685
330
1E
100
AcDbEntity
  8
STEMPEL
100
AcDbLine
 10
191.9999999999999
 20
459.8694163442156
 30
0.0
 11
258.0
 21
459.8694163442155
 31
0.0
  0
LINE
  5
1686
330
1E
100
AcDbEntity
  8
STEMPEL
100
AcDbLine
 10
189.4999999999999
 20
465.8694163442156
 30
0.0
 11
260.5
 21
465.8694163442155
 31
0.0
  0
LINE
  5
1687
330
1E
100
AcDbEntity
  8
STEMPEL
100
AcDbLine
 10
184.0
 20
466.8694163442157
 30
0.0
 11
266.0
 21
466.8694163442155
 31
0.0
  0
LINE
  5
1688
330
1E
100
AcDbEntity
  8
STEMPEL
100
AcDbLine
 10
188.4999999999999
 20
421.8694163442156
 30
0.0
 11
188.4999999999999
 21
461.8694163442156
 31
0.0
  0
LINE
  5
1689
330
1E
100
AcDbEntity
  8
STEMPEL
100
AcDbLine
 10
191.9999999999999
 20
459.8694163442156
 30
0.0
 11
190.742852298297
 21
421.8694163442156
 31
0.0
  0
LINE
  5
168A
330
1E
100
AcDbEntity
  8
STEMPEL
100
AcDbLine
 10
184.0
 20
461.8694163442156
 30
0.0
 11
184.0
 21
466.8694163442157
 31
0.0
  0
LINE
  5
168B
330
1E
100
AcDbEntity
  8
STEMPEL
100
AcDbLine
 10
184.0
 20
461.8694163442156
 30
0.0
 11
188.4999999999999
 21
461.8694163442156
 31
0.0
  0
POINT
  5
168C
330
1E
100
AcDbEntity
  8
SCHRAFF
  6
ByBlock
 62
     0
100
AcDbPoint
 10
184.0
 20
461.8694163442156
 30
0.0
  0
LINE
  5
168D
330
1E
100
AcDbEntity
  8
STEMPEL
100
AcDbLine
 10
189.4999999999999
 20
465.8694163442156
 30
0.0
 11
189.4999999999999
 21
466.8694163442157
 31
0.0
  0
LINE
  5
168E
330
1E
100
AcDbEntity
  8
STEMPEL
100
AcDbLine
 10
199.5441558772843
 20
459.8694163442155
 30
0.0
 11
199.5441558772843
 21
465.8694163442156
 31
0.0
  0
POINT
  5
168F
330
1E
100
AcDbEntity
  8
SCHRAFF
  6
ByBlock
 62
     0
100
AcDbPoint
 10
191.9999999999999
 20
459.8694163442156
 30
0.0
  0
LINE
  5
1690
330
1E
100
AcDbEntity
  8
STEMPEL
100
AcDbLine
 10
213.6862915010152
 20
459.8694163442156
 30
0.0
 11
213.6862915010152
 21
465.8694163442155
 31
0.0
  0
LINE
  5
1691
330
1E
100
AcDbEntity
  8
STEMPEL
100
AcDbLine
 10
209.443650813896
 20
459.8694163442155
 30
0.0
 11
209.443650813896
 21
465.8694163442156
 31
0.0
  0
LINE
  5
1692
330
1E
100
AcDbEntity
  8
STEMPEL
100
AcDbLine
 10
221.356759488335
 20
459.8694163442156
 30
0.0
 11
221.356759488335
 21
465.8694163442155
 31
0.0
  0
LINE
  5
1693
330
1E
100
AcDbEntity
  8
STEMPEL
100
AcDbLine
 10
258.0
 20
459.8694163442155
 30
0.0
 11
259.2571477017029
 21
421.8694163442155
 31
0.0
  0
LINE
  5
1694
330
1E
100
AcDbEntity
  8
STEMPEL
100
AcDbLine
 10
261.5
 20
421.8694163442156
 30
0.0
 11
261.5
 21
461.8694163442156
 31
0.0
  0
LINE
  5
1695
330
1E
100
AcDbEntity
  8
STEMPEL
100
AcDbLine
 10
229.278174593052
 20
459.8694163442155
 30
0.0
 11
229.278174593052
 21
465.8694163442155
 31
0.0
  0
LINE
  5
1696
330
1E
100
AcDbEntity
  8
STEMPEL
100
AcDbLine
 10
237.7279220613579
 20
459.8694163442155
 30
0.0
 11
237.7279220613579
 21
465.8694163442155
 31
0.0
  0
LINE
  5
1697
330
1E
100
AcDbEntity
  8
STEMPEL
100
AcDbLine
 10
241.9705627484771
 20
459.8694163442155
 30
0.0
 11
241.9705627484771
 21
465.8694163442155
 31
0.0
  0
LINE
  5
1698
330
1E
100
AcDbEntity
  8
STEMPEL
100
AcDbLine
 10
251.8700576850888
 20
459.8694163442155
 30
0.0
 11
251.8700576850888
 21
465.8694163442155
 31
0.0
  0
LINE
  5
1699
330
1E
100
AcDbEntity
  8
STEMPEL
100
AcDbLine
 10
266.0
 20
461.8694163442156
 30
0.0
 11
266.0
 21
466.8694163442155
 31
0.0
  0
LINE
  5
169A
330
1E
100
AcDbEntity
  8
STEMPEL
100
AcDbLine
 10
261.5
 20
461.8694163442156
 30
0.0
 11
266.0
 21
461.8694163442156
 31
0.0
  0
POINT
  5
169B
330
1E
100
AcDbEntity
  8
SCHRAFF
  6
ByBlock
 62
     0
100
AcDbPoint
 10
258.0
 20
459.8694163442156
 30
0.0
  0
POINT
  5
169C
330
1E
100
AcDbEntity
  8
SCHRAFF
  6
ByBlock
 62
     0
100
AcDbPoint
 10
258.0
 20
459.8694163442156
 30
0.0
  0
LINE
  5
169D
330
1E
100
AcDbEntity
  8
STEMPEL
100
AcDbLine
 10
260.5
 20
465.8694163442155
 30
0.0
 11
260.5
 21
466.8694163442155
 31
0.0
  0
LINE
  5
16A0
330
1E
100
AcDbEntity
  8
HILF
100
AcDbLine
 10
261.5
 20
427.8694163442156
 30
0.0
 11
264.8999999999999
 21
427.8694163442156
 31
0.0
  0
LINE
  5
16A1
330
1E
100
AcDbEntity
  8
STEMPEL
100
AcDbLine
 10
188.5
 20
433.1794098925509
 30
0.0
 11
187.2598998622842
 21
433.1794098925509
 31
0.0
  0
LINE
  5
16A2
330
1E
100
AcDbEntity
  8
STEMPEL
100
AcDbLine
 10
261.5
 20
460.8694163442157
 30
0.0
 11
263.397061515428
 21
460.8694163442157
 31
0.0
  0
DIMENSION
  5
16A3
330
1E
100
AcDbEntity
  8
BEM
100
AcDbDimension
  2
*D8
 10
98.14973503626294
 20
466.8694163442157
 30
0.0
 11
91.64973503626287
 21
454.3694163442157
 31
0.0
 70
    32
 71
     5
 42
25.00000000000017
  3
Standard
100
AcDbAlignedDimension
 13
125.1769095015031
 23
441.8694163442155
 33
0.0
 14
184.0
 24
466.8694163442157
 34
0.0
 50
90.0
100
AcDbRotatedDimension
1001
ACAD
1000
DSTYLE
1002
{
1070
    40
1040
2.0
1070
    41
1040
3.5
1070
    42
1040
1.0
1070
    43
1040
7.0
1070
    44
1040
1.0
1070
    73
1070
     0
1070
    74
1070
     0
1070
    77
1070
     1
1070
    78
1070
     8
1070
    79
1070
     2
1070
   140
1040
3.5
1070
   141
1040
1.5
1070
   146
1040
0.5142857142857144
1070
   147
1040
1.5
1070
   172
1070
     1
1070
   178
1070
     1
1070
   179
1070
     2
1070
   271
1070
     2
1070
   272
1070
     2
1070
   284
1070
     8
1070
   285
1070
     8
1070
   286
1070
     8
1002
}
  0
DIMENSION
  5
16B0
330
1E
100
AcDbEntity
  8
BEM
100
AcDbDimension
  2
*D9
 10
266.0
 20
478.2349529331022
 30
0.0
 11
228.9637520999449
 21
478.2349529331022
 31
0.0
 70
   160
 71
     5
 42
82.00000000000002
  3
Standard
100
AcDbAlignedDimension
 13
184.0
 23
466.8694163442157
 33
0.0
 14
266.0
 24
466.8694163442155
 34
0.0
100
AcDbRotatedDimension
1001
ACAD
1000
DSTYLE
1002
{
1070
    40
1040
2.0
1070
    41
1040
3.5
1070
    42
1040
1.0
1070
    43
1040
7.0
1070
    44
1040
1.0
1070
    73
1070
     0
1070
    74
1070
     0
1070
    77
1070
     1
1070
    78
1070
     8
1070
    79
1070
     2
1070
   140
1040
3.5
1070
   141
1040
1.5
1070
   146
1040
0.5142857142857144
1070
   147
1040
1.5
1070
   172
1070
     1
1070
   178
1070
     1
1070
   179
1070
     2
1070
   271
1070
     2
1070
   272
1070
     2
1070
   284
1070
     8
1070
   285
1070
     8
1070
   286
1070
     8
1002
}
  0
LWPOLYLINE
  5
16D9
330
1E
100
AcDbEntity
  8
BEM
 62
     1
100
AcDbPolyline
 90
        4
 70
     1
 43
0.0
 10
215.3320806628667
 20
488.2032800438435
 10
215.3320806628667
 20
481.2032800438434
 10
222.3320806628667
 20
481.2032800438434
 10
222.3320806628667
 20
488.2032800438435
  0
LINE
  5
16F8
330
1E
100
AcDbEntity
  8
MITTEL
100
AcDbLine
 10
225.0
 20
357.9708015334396
 30
0.0
 11
225.0
 21
186.8694163442157
 31
0.0
  0
TEXT
  5
1717
330
1E
100
AcDbEntity
  8
TEXT
 62
     1
100
AcDbText
 10
284.4851268063984
 20
214.2046084439754
 30
0.0
 40
7.0
  1
EDV-Art.Nr. 15679.070X
 41
0.8
  7
GREEKS
100
AcDbText
  0
LINE
  5
1718
330
1E
100
AcDbEntity
  8
TEXT
 62
     2
100
AcDbLine
 10
283.8968206921219
 20
223.0370480116096
 30
0.0
 11
389.4041753781852
 21
223.0370480116096
 31
0.0
  0
LINE
  5
1719
330
1E
100
AcDbEntity
  8
TEXT
 62
     2
100
AcDbLine
 10
283.8968206921219
 20
223.0370480116096
 30
0.0
 11
259.8903201437122
 21
237.3047855399235
 31
0.0
  0
TEXT
  5
171A
330
1E
100
AcDbEntity
  8
TEXT
 62
     1
100
AcDbText
 10
284.4851268063984
 20
227.0271072799234
 30
0.0
 40
7.0
  1
Ablauftopf DN70
 41
0.8
  7
GREEKS
100
AcDbText
  0
LWPOLYLINE
  5
171B
330
1E
100
AcDbEntity
  8
BEM
 62
     1
100
AcDbPolyline
 90
        4
 70
     1
 43
0.0
 10
314.3457914286714
 20
388.591221706522
 10
314.3457914286714
 20
381.591221706522
 10
321.3457914286714
 20
381.591221706522
 10
321.3457914286714
 20
388.591221706522
  0
TEXT
  5
171C
330
1E
100
AcDbEntity
  8
TEXT
 62
     1
100
AcDbText
 10
294.0664251544998
 20
414.774879315092
 30
0.0
 40
7.0
  1
EDV-Art.Nr. 00911.070X
 41
0.8
  7
GREEKS
100
AcDbText
  0
LINE
  5
171D
330
1E
100
AcDbEntity
  8
TEXT
 62
     2
100
AcDbLine
 10
293.4781190402233
 20
423.6073188827263
 30
0.0
 11
398.9854737262866
 21
423.6073188827263
 31
0.0
  0
LINE
  5
171E
330
1E
100
AcDbEntity
  8
TEXT
 62
     2
100
AcDbLine
 10
293.4781190402233
 20
423.6073188827263
 30
0.0
 11
263.7118573278901
 21
446.4714745043162
 31
0.0
  0
TEXT
  5
171F
330
1E
100
AcDbEntity
  8
TEXT
 62
     1
100
AcDbText
 10
294.0664251544998
 20
427.59737815104
 30
0.0
 40
7.0
  1
Dichtelement DN70
 41
0.8
  7
GREEKS
100
AcDbText
  0
TEXT
  5
1720
330
1E
100
AcDbEntity
  8
TEXT
 62
     1
100
AcDbText
 10
293.3697284718686
 20
381.7675005704163
 30
0.0
 40
7.0
  1
Sieb   82
 41
0.8
  7
GREEKS
100
AcDbText
  0
LINE
  5
1721
330
1E
100
AcDbEntity
  8
TEXT
 62
     2
100
AcDbLine
 10
292.7814223575921
 20
377.7774413021025
 30
0.0
 11
260.2269962283037
 21
428.6103622842645
 31
0.0
  0
LINE
  5
1722
330
1E
100
AcDbEntity
  8
TEXT
 62
     2
100
AcDbLine
 10
292.7814223575921
 20
377.7774413021025
 30
0.0
 11
398.2887770436554
 21
377.7774413021025
 31
0.0
  0
TEXT
  5
1723
330
1E
100
AcDbEntity
  8
TEXT
 62
     1
100
AcDbText
 10
293.3697284718686
 20
368.9450017344683
 30
0.0
 40
7.0
  1
EDV-Art.Nr. 15091.000X
 41
0.8
  7
GREEKS
100
AcDbText
  0
ENDSEC
  0
SECTION
  2
OBJECTS
  0
DICTIONARY
  5
C
330
0
100
AcDbDictionary
281
     1
  3
ACAD_COLOR
350
DF
  3
ACAD_GROUP
350
D
  3
ACAD_LAYOUT
350
19
  3
ACAD_MATERIAL
350
DE
  3
ACAD_MLINESTYLE
350
16
  3
ACAD_PLOTSETTINGS
350
18
  3
ACAD_PLOTSTYLENAME
350
E
  3
AcDbVariableDictionary
350
EA
  0
DICTIONARY
  5
A0
330
1E
100
AcDbDictionary
280
     1
281
     1
  3
ACAD_LAYOUTSELFREF
360
D4
  0
DICTIONARY
  5
A2
330
1A
100
AcDbDictionary
280
     1
281
     1
  3
ACAD_LAYOUTSELFREF
360
D3
  0
DICTIONARY
  5
DF
102
{ACAD_REACTORS
330
C
102
}
330
C
100
AcDbDictionary
281
     1
  0
DICTIONARY
  5
D
102
{ACAD_REACTORS
330
C
102
}
330
C
100
AcDbDictionary
281
     1
  0
DICTIONARY
  5
19
102
{ACAD_REACTORS
330
C
102
}
330
C
100
AcDbDictionary
281
     1
  3
Layout1
350
1D
  3
Model
350
21
  0
DICTIONARY
  5
DE
102
{ACAD_REACTORS
330
C
102
}
330
C
100
AcDbDictionary
281
     1
  0
DICTIONARY
  5
16
102
{ACAD_REACTORS
330
C
102
}
330
C
100
AcDbDictionary
281
     1
  3
Standard
350
17
  0
DICTIONARY
  5
18
102
{ACAD_REACTORS
330
C
102
}
330
C
100
AcDbDictionary
281
     1
  0
ACDBDICTIONARYWDFLT
  5
E
102
{ACAD_REACTORS
330
C
102
}
330
C
100
AcDbDictionary
281
     1
  3
Normal
350
F
100
AcDbDictionaryWithDefault
340
F
  0
DICTIONARY
  5
EA
102
{ACAD_REACTORS
330
C
102
}
330
C
100
AcDbDictionary
281
     1
  3
DIMASSOC
350
EB
  3
PROJECTNAME
350
EC
  0
XRECORD
  5
D4
102
{ACAD_REACTORS
330
A0
102
}
330
A0
100
AcDbXrecord
280
     1
340
1E
  0
XRECORD
  5
D3
102
{ACAD_REACTORS
330
A2
102
}
330
A2
100
AcDbXrecord
280
     1
340
1A
  0
LAYOUT
  5
1D
102
{ACAD_REACTORS
330
19
102
}
330
19
100
AcDbPlotSettings
  1

  2
\\NT_WORK01\HP LaserJet 5000 PCL 6
  4

  6

 40
0.0
 41
0.0
 42
0.0
 43
0.0
 44
0.0
 45
0.0
 46
0.0
 47
0.0
 48
0.0
 49
0.0
140
0.0
141
0.0
142
1.0
143
1.0
 70
   688
 72
     0
 73
     0
 74
     5
  7

 75
    16
147
1.0
 76
     0
 77
     2
 78
   300
148
0.0
149
0.0
100
AcDbLayout
  1
Layout1
 70
     0
 71
     1
 10
0.0
 20
0.0
 11
12.0
 21
9.0
 12
0.0
 22
0.0
 32
0.0
 14
1.000000000000000E+20
 24
1.000000000000000E+20
 34
1.000000000000000E+20
 15
-1.000000000000000E+20
 25
-1.000000000000000E+20
 35
-1.000000000000000E+20
146
0.0
 13
0.0
 23
0.0
 33
0.0
 16
1.0
 26
0.0
 36
0.0
 17
0.0
 27
1.0
 37
0.0
 76
     0
330
1A
  0
LAYOUT
  5
21
102
{ACAD_REACTORS
330
19
102
}
330
19
100
AcDbPlotSettings
  1

  2
none_device
  4
Letter_(8.50_x_11.00_Inches)
  6

 40
6.349999904632568
 41
6.349999904632568
 42
6.350006103515625
 43
6.350006103515625
 44
215.8999938964844
 45
279.3999938964844
 46
0.0
 47
0.0
 48
0.0
 49
0.0
140
0.0
141
0.0
142
1.0
143
1.0
 70
 11952
 72
     0
 73
     1
 74
     0
  7

 75
     0
147
1.0
 76
     0
 77
     2
 78
   300
148
2271.41488810851
149
61.61479806352971
100
AcDbLayout
  1
Model
 70
     1
 71
     0
 10
0.0
 20
0.0
 11
12.0
 21
9.0
 12
0.0
 22
0.0
 32
0.0
 14
0.0
 24
0.0
 34
0.0
 15
0.0
 25
0.0
 35
0.0
146
0.0
 13
0.0
 23
0.0
 33
0.0
 16
1.0
 26
0.0
 36
0.0
 17
0.0
 27
1.0
 37
0.0
 76
     0
330
1E
  0
MLINESTYLE
  5
17
102
{ACAD_REACTORS
330
16
102
}
330
16
100
AcDbMlineStyle
  2
STANDARD
 70
     0
  3

 62
   256
 51
90.0
 52
90.0
 71
     2
 49
0.5
 62
   256
  6
BYLAYER
 49
-0.5
 62
   256
  6
BYLAYER
  0
ACDBPLACEHOLDER
  5
F
102
{ACAD_REACTORS
330
E
102
}
330
E
  0
DICTIONARYVAR
  5
EB
102
{ACAD_REACTORS
330
EA
102
}
330
EA
100
DictionaryVariables
280
     0
  1
1
  0
DICTIONARYVAR
  5
EC
102
{ACAD_REACTORS
330
EA
102
}
330
EA
100
DictionaryVariables
280
     0
  1

  0
ENDSEC
  0
EOF
