  0
SECTION
  2
HEADER
  9
$ACADVER
  1
AC1018
  9
$ACADMAINTVER
 70
     2
  9
$DWGCODEPAGE
  3
ANSI_1252
  9
$INSBASE
 10
0.0
 20
0.0
 30
0.0
  9
$EXTMIN
 10
-0.0192209888436992
 20
-0.0271839699362317
 30
-0.0000000000000058
  9
$EXTMAX
 10
420.0192288123714
 20
594.0271950346398
 30
0.0000000000000104
  9
$LIMMIN
 10
0.0
 20
0.0
  9
$LIMMAX
 10
419.9999999999999
 20
594.0
  9
$ORTHOMODE
 70
     1
  9
$REGENMODE
 70
     1
  9
$FILLMODE
 70
     1
  9
$QTEXTMODE
 70
     0
  9
$MIRRTEXT
 70
     1
  9
$LTSCALE
 40
20.0
  9
$ATTMODE
 70
     1
  9
$TEXTSIZE
 40
3.5
  9
$TRACEWID
 40
0.5
  9
$TEXTSTYLE
  7
STANDARD
  9
$CLAYER
  8
BEM
  9
$CELTYPE
  6
ByLayer
  9
$CECOLOR
 62
   256
  9
$CELTSCALE
 40
1.0
  9
$DISPSILH
 70
     0
  9
$DIMSCALE
 40
2.0
  9
$DIMASZ
 40
3.5
  9
$DIMEXO
 40
1.0
  9
$DIMDLI
 40
7.0
  9
$DIMRND
 40
0.0
  9
$DIMDLE
 40
0.0
  9
$DIMEXE
 40
1.0
  9
$DIMTP
 40
0.0
  9
$DIMTM
 40
0.0
  9
$DIMTXT
 40
3.5
  9
$DIMCEN
 40
1.5
  9
$DIMTSZ
 40
0.0
  9
$DIMTOL
 70
     0
  9
$DIMLIM
 70
     0
  9
$DIMTIH
 70
     0
  9
$DIMTOH
 70
     0
  9
$DIMSE1
 70
     0
  9
$DIMSE2
 70
     0
  9
$DIMTAD
 70
     1
  9
$DIMZIN
 70
     8
  9
$DIMBLK
  1

  9
$DIMASO
 70
     1
  9
$DIMSHO
 70
     0
  9
$DIMPOST
  1

  9
$DIMAPOST
  1

  9
$DIMALT
 70
     0
  9
$DIMALTD
 70
     2
  9
$DIMALTF
 40
25.4
  9
$DIMLFAC
 40
1.0
  9
$DIMTOFL
 70
     1
  9
$DIMTVP
 40
0.0
  9
$DIMTIX
 70
     0
  9
$DIMSOXD
 70
     0
  9
$DIMSAH
 70
     0
  9
$DIMBLK1
  1

  9
$DIMBLK2
  1

  9
$DIMSTYLE
  2
Standard
  9
$DIMCLRD
 70
     0
  9
$DIMCLRE
 70
     0
  9
$DIMCLRT
 70
     1
  9
$DIMTFAC
 40
0.5142857142857144
  9
$DIMGAP
 40
1.5
  9
$DIMJUST
 70
     0
  9
$DIMSD1
 70
     0
  9
$DIMSD2
 70
     0
  9
$DIMTOLJ
 70
     1
  9
$DIMTZIN
 70
     8
  9
$DIMALTZ
 70
     8
  9
$DIMALTTZ
 70
     8
  9
$DIMUPT
 70
     0
  9
$DIMDEC
 70
     2
  9
$DIMTDEC
 70
     2
  9
$DIMALTU
 70
     2
  9
$DIMALTTD
 70
     2
  9
$DIMTXSTY
  7
STANDARD
  9
$DIMAUNIT
 70
     0
  9
$DIMADEC
 70
     2
  9
$DIMALTRND
 40
0.0
  9
$DIMAZIN
 70
     2
  9
$DIMDSEP
 70
    46
  9
$DIMATFIT
 70
     3
  9
$DIMFRAC
 70
     0
  9
$DIMLDRBLK
  1

  9
$DIMLUNIT
 70
     2
  9
$DIMLWD
 70
    -2
  9
$DIMLWE
 70
    -2
  9
$DIMTMOVE
 70
     0
  9
$LUNITS
 70
     2
  9
$LUPREC
 70
     2
  9
$SKETCHINC
 40
1.0
  9
$FILLETRAD
 40
0.0
  9
$AUNITS
 70
     0
  9
$AUPREC
 70
     0
  9
$MENU
  1
ACAD
  9
$ELEVATION
 40
0.0
  9
$PELEVATION
 40
0.0
  9
$THICKNESS
 40
0.0
  9
$LIMCHECK
 70
     0
  9
$CHAMFERA
 40
0.0
  9
$CHAMFERB
 40
0.0
  9
$CHAMFERC
 40
0.0
  9
$CHAMFERD
 40
0.0
  9
$SKPOLY
 70
     0
  9
$TDCREATE
 40
2455397.864709028
  9
$TDUCREATE
 40
2455397.781375695
  9
$TDUPDATE
 40
2455461.484099491
  9
$TDUUPDATE
 40
2455461.400766158
  9
$TDINDWG
 40
0.0634227083
  9
$TDUSRTIMER
 40
0.0634227083
  9
$USRTIMER
 70
     1
  9
$ANGBASE
 50
0.0
  9
$ANGDIR
 70
     0
  9
$PDMODE
 70
     0
  9
$PDSIZE
 40
0.0
  9
$PLINEWID
 40
0.0
  9
$SPLFRAME
 70
     0
  9
$SPLINETYPE
 70
     6
  9
$SPLINESEGS
 70
     8
  9
$HANDSEED
  5
F4F
  9
$SURFTAB1
 70
     6
  9
$SURFTAB2
 70
     6
  9
$SURFTYPE
 70
     6
  9
$SURFU
 70
     6
  9
$SURFV
 70
     6
  9
$UCSBASE
  2

  9
$UCSNAME
  2

  9
$UCSORG
 10
0.0
 20
0.0
 30
0.0
  9
$UCSXDIR
 10
1.0
 20
0.0
 30
0.0
  9
$UCSYDIR
 10
0.0
 20
1.0
 30
0.0
  9
$UCSORTHOREF
  2

  9
$UCSORTHOVIEW
 70
     0
  9
$UCSORGTOP
 10
0.0
 20
0.0
 30
0.0
  9
$UCSORGBOTTOM
 10
0.0
 20
0.0
 30
0.0
  9
$UCSORGLEFT
 10
0.0
 20
0.0
 30
0.0
  9
$UCSORGRIGHT
 10
0.0
 20
0.0
 30
0.0
  9
$UCSORGFRONT
 10
0.0
 20
0.0
 30
0.0
  9
$UCSORGBACK
 10
0.0
 20
0.0
 30
0.0
  9
$PUCSBASE
  2

  9
$PUCSNAME
  2

  9
$PUCSORG
 10
0.0
 20
0.0
 30
0.0
  9
$PUCSXDIR
 10
1.0
 20
0.0
 30
0.0
  9
$PUCSYDIR
 10
0.0
 20
1.0
 30
0.0
  9
$PUCSORTHOREF
  2

  9
$PUCSORTHOVIEW
 70
     0
  9
$PUCSORGTOP
 10
0.0
 20
0.0
 30
0.0
  9
$PUCSORGBOTTOM
 10
0.0
 20
0.0
 30
0.0
  9
$PUCSORGLEFT
 10
0.0
 20
0.0
 30
0.0
  9
$PUCSORGRIGHT
 10
0.0
 20
0.0
 30
0.0
  9
$PUCSORGFRONT
 10
0.0
 20
0.0
 30
0.0
  9
$PUCSORGBACK
 10
0.0
 20
0.0
 30
0.0
  9
$USERI1
 70
     0
  9
$USERI2
 70
     0
  9
$USERI3
 70
     0
  9
$USERI4
 70
     0
  9
$USERI5
 70
     0
  9
$USERR1
 40
0.0
  9
$USERR2
 40
0.0
  9
$USERR3
 40
0.0
  9
$USERR4
 40
0.0
  9
$USERR5
 40
0.0
  9
$WORLDVIEW
 70
     1
  9
$SHADEDGE
 70
     3
  9
$SHADEDIF
 70
    70
  9
$TILEMODE
 70
     1
  9
$MAXACTVP
 70
    16
  9
$PINSBASE
 10
0.0
 20
0.0
 30
0.0
  9
$PLIMCHECK
 70
     0
  9
$PEXTMIN
 10
1.000000000000000E+20
 20
1.000000000000000E+20
 30
1.000000000000000E+20
  9
$PEXTMAX
 10
-1.000000000000000E+20
 20
-1.000000000000000E+20
 30
-1.000000000000000E+20
  9
$PLIMMIN
 10
0.0
 20
0.0
  9
$PLIMMAX
 10
12.0
 20
9.0
  9
$UNITMODE
 70
     0
  9
$VISRETAIN
 70
     0
  9
$PLINEGEN
 70
     0
  9
$PSLTSCALE
 70
     0
  9
$TREEDEPTH
 70
  3020
  9
$CMLSTYLE
  2
Standard
  9
$CMLJUST
 70
     0
  9
$CMLSCALE
 40
1.0
  9
$PROXYGRAPHICS
 70
     1
  9
$MEASUREMENT
 70
     0
  9
$CELWEIGHT
370
    -1
  9
$ENDCAPS
280
     0
  9
$JOINSTYLE
280
     0
  9
$LWDISPLAY
290
     0
  9
$INSUNITS
 70
     0
  9
$HYPERLINKBASE
  1

  9
$STYLESHEET
  1
monochrome 1.ctb
  9
$XEDIT
290
     1
  9
$CEPSNTYPE
380
     0
  9
$PSTYLEMODE
290
     1
  9
$FINGERPRINTGUID
  2
{D68B0D02-A558-11D7-B632-000102183313}
  9
$VERSIONGUID
  2
{D189C5EF-8CE7-466F-8C88-BBA6BC32F8BE}
  9
$EXTNAMES
290
     1
  9
$PSVPSCALE
 40
0.0
  9
$OLESTARTUP
290
     0
  9
$SORTENTS
280
   127
  9
$INDEXCTL
280
     0
  9
$HIDETEXT
280
     0
  9
$XCLIPFRAME
290
     0
  9
$HALOGAP
280
     0
  9
$OBSCOLOR
 70
   257
  9
$OBSLTYPE
280
     0
  9
$INTERSECTIONDISPLAY
280
     0
  9
$INTERSECTIONCOLOR
 70
   257
  9
$DIMASSOC
280
     1
  9
$PROJECTNAME
  1

  0
ENDSEC
  0
SECTION
  2
CLASSES
  0
CLASS
  1
ACDBDICTIONARYWDFLT
  2
AcDbDictionaryWithDefault
  3
ObjectDBX Classes
 90
        0
 91
        1
280
     0
281
     0
  0
CLASS
  1
DICTIONARYVAR
  2
AcDbDictionaryVar
  3
ObjectDBX Classes
 90
        0
 91
        2
280
     0
281
     0
  0
ENDSEC
  0
SECTION
  2
TABLES
  0
TABLE
  2
VPORT
  5
8
330
0
100
AcDbSymbolTable
 70
     2
  0
VPORT
  5
F4E
330
8
100
AcDbSymbolTableRecord
100
AcDbViewportTableRecord
  2
*Active
 70
     0
 10
0.0
 20
0.0
 11
1.0
 21
1.0
 12
210.0000039117638
 22
297.0000055323518
 13
0.0
 23
0.0
 14
1.0
 24
1.0
 15
10.0
 25
10.0
 16
0.0
 26
0.0
 36
1.0
 17
0.0
 27
0.0
 37
0.0
 40
598.8515879871163
 41
1.336927223719676
 42
50.0
 43
0.0
 44
0.0
 50
0.0
 51
0.0
 71
     0
 72
  1500
 73
     1
 74
     0
 75
     0
 76
     0
 77
     0
 78
     0
281
     0
 65
     1
110
0.0
120
0.0
130
0.0
111
1.0
121
0.0
131
0.0
112
0.0
122
1.0
132
0.0
 79
     0
146
0.0
  0
ENDTAB
  0
TABLE
  2
LTYPE
  5
5
330
0
100
AcDbSymbolTable
 70
     2
  0
LTYPE
  5
13
330
5
100
AcDbSymbolTableRecord
100
AcDbLinetypeTableRecord
  2
ByBlock
 70
     0
  3

 72
    65
 73
     0
 40
0.0
  0
LTYPE
  5
14
330
5
100
AcDbSymbolTableRecord
100
AcDbLinetypeTableRecord
  2
ByLayer
 70
     0
  3

 72
    65
 73
     0
 40
0.0
  0
LTYPE
  5
15
330
5
100
AcDbSymbolTableRecord
100
AcDbLinetypeTableRecord
  2
Continuous
 70
     0
  3
Solid line
 72
    65
 73
     0
 40
0.0
  0
LTYPE
  5
25
330
5
100
AcDbSymbolTableRecord
100
AcDbLinetypeTableRecord
  2
STRICHPUNKT
 70
     0
  3
__ . __ . __ . __ . __ . __ . __ . __ . __ . __
 72
    65
 73
     4
 40
1.0
 49
0.5
 74
     0
 49
-0.25
 74
     0
 49
0.0
 74
     0
 49
-0.25
 74
     0
  0
ENDTAB
  0
TABLE
  2
LAYER
  5
2
330
0
100
AcDbSymbolTable
 70
     9
  0
LAYER
  5
10
330
2
100
AcDbSymbolTableRecord
100
AcDbLayerTableRecord
  2
0
 70
     0
 62
     7
  6
Continuous
370
    -3
390
F
  0
LAYER
  5
2A
330
2
100
AcDbSymbolTableRecord
100
AcDbLayerTableRecord
  2
VOLL
 70
     0
 62
     1
  6
Continuous
370
    -3
390
F
  0
LAYER
  5
2B
330
2
100
AcDbSymbolTableRecord
100
AcDbLayerTableRecord
  2
HILF
 70
     0
 62
     2
  6
Continuous
370
    -3
390
F
  0
LAYER
  5
2C
330
2
100
AcDbSymbolTableRecord
100
AcDbLayerTableRecord
  2
MITTEL
 70
     0
 62
     2
  6
STRICHPUNKT
370
    -3
390
F
  0
LAYER
  5
2F
330
2
100
AcDbSymbolTableRecord
100
AcDbLayerTableRecord
  2
BEM
 70
     0
 62
     7
  6
Continuous
370
    -3
390
F
  0
LAYER
  5
30
330
2
100
AcDbSymbolTableRecord
100
AcDbLayerTableRecord
  2
STEMPEL
 70
     0
 62
     3
  6
Continuous
370
    -3
390
F
  0
LAYER
  5
31
330
2
100
AcDbSymbolTableRecord
100
AcDbLayerTableRecord
  2
TEXT
 70
     0
 62
     7
  6
Continuous
370
    -3
390
F
  0
LAYER
  5
347
330
2
100
AcDbSymbolTableRecord
100
AcDbLayerTableRecord
  2
DEFPOINTS
 70
     0
 62
     7
  6
Continuous
290
     0
370
    -3
390
F
  0
LAYER
  5
348
330
2
100
AcDbSymbolTableRecord
100
AcDbLayerTableRecord
  2
SCHRAFF
 70
     0
 62
     7
  6
Continuous
370
    -3
390
F
  0
ENDTAB
  0
TABLE
  2
STYLE
  5
3
330
0
100
AcDbSymbolTable
 70
     2
  0
STYLE
  5
11
330
3
100
AcDbSymbolTableRecord
100
AcDbTextStyleTableRecord
  2
STANDARD
 70
     0
 40
0.0
 41
0.8
 50
0.0
 71
     0
 42
3.5
  3
simplex.shx
  4

  0
STYLE
  5
24
330
3
100
AcDbSymbolTableRecord
100
AcDbTextStyleTableRecord
  2
GREEKS
 70
     0
 40
0.0
 41
0.8
 50
0.0
 71
     0
 42
2.5
  3
SIMPLEX.shx
  4

  0
ENDTAB
  0
TABLE
  2
VIEW
  5
6
330
0
100
AcDbSymbolTable
 70
     0
  0
ENDTAB
  0
TABLE
  2
UCS
  5
7
330
0
100
AcDbSymbolTable
 70
     0
  0
ENDTAB
  0
TABLE
  2
APPID
  5
9
330
0
100
AcDbSymbolTable
 70
     1
  0
APPID
  5
12
330
9
100
AcDbSymbolTableRecord
100
AcDbRegAppTableRecord
  2
ACAD
 70
     0
  0
ENDTAB
  0
TABLE
  2
DIMSTYLE
  5
A
330
0
100
AcDbSymbolTable
 70
     1
100
AcDbDimStyleTable
 71
     1
340
9D
  0
DIMSTYLE
105
9D
102
{ACAD_REACTORS
330
44B
330
DD9
330
DE6
330
DF3
330
E12
330
E42
330
E5C
330
E7B
330
ED6
102
}
330
A
100
AcDbSymbolTableRecord
100
AcDbDimStyleTableRecord
  2
Standard
 70
     0
340
11
  0
ENDTAB
  0
TABLE
  2
BLOCK_RECORD
  5
1
330
0
100
AcDbSymbolTable
 70
    10
  0
BLOCK_RECORD
  5
1E
102
{ACAD_XDICTIONARY
360
A0
102
}
330
1
100
AcDbSymbolTableRecord
100
AcDbBlockTableRecord
  2
*Model_Space
340
21
  0
BLOCK_RECORD
  5
1A
102
{ACAD_XDICTIONARY
360
A2
102
}
330
1
100
AcDbSymbolTableRecord
100
AcDbBlockTableRecord
  2
*Paper_Space
340
1D
  0
BLOCK_RECORD
  5
22
330
1
100
AcDbSymbolTableRecord
100
AcDbBlockTableRecord
  2
LOGO
340
0
102
{BLKREFS
331
9B
102
}
  0
BLOCK_RECORD
  5
4F2
330
1
100
AcDbSymbolTableRecord
100
AcDbBlockTableRecord
  2
*D1
340
0
  0
BLOCK_RECORD
  5
DDA
330
1
100
AcDbSymbolTableRecord
100
AcDbBlockTableRecord
  2
*D2
340
0
  0
BLOCK_RECORD
  5
DE7
330
1
100
AcDbSymbolTableRecord
100
AcDbBlockTableRecord
  2
*D3
340
0
  0
BLOCK_RECORD
  5
DF4
330
1
100
AcDbSymbolTableRecord
100
AcDbBlockTableRecord
  2
*D4
340
0
  0
BLOCK_RECORD
  5
E13
330
1
100
AcDbSymbolTableRecord
100
AcDbBlockTableRecord
  2
*D5
340
0
  0
BLOCK_RECORD
  5
E43
330
1
100
AcDbSymbolTableRecord
100
AcDbBlockTableRecord
  2
*D6
340
0
  0
BLOCK_RECORD
  5
E5D
330
1
100
AcDbSymbolTableRecord
100
AcDbBlockTableRecord
  2
*D7
340
0
  0
BLOCK_RECORD
  5
E7C
330
1
100
AcDbSymbolTableRecord
100
AcDbBlockTableRecord
  2
*D8
340
0
  0
BLOCK_RECORD
  5
ED7
330
1
100
AcDbSymbolTableRecord
100
AcDbBlockTableRecord
  2
*D9
340
0
  0
ENDTAB
  0
ENDSEC
  0
SECTION
  2
BLOCKS
  0
BLOCK
  5
35
330
1E
100
AcDbEntity
  8
0
100
AcDbBlockBegin
  2
*Model_Space
 70
     0
 10
0.0
 20
0.0
 30
0.0
  3
*Model_Space
  1

  0
ENDBLK
  5
36
330
1E
100
AcDbEntity
  8
0
100
AcDbBlockEnd
  0
BLOCK
  5
33
330
1A
100
AcDbEntity
 67
     1
  8
0
100
AcDbBlockBegin
  2
*Paper_Space
 70
     0
 10
0.0
 20
0.0
 30
0.0
  3
*Paper_Space
  1

  0
ENDBLK
  5
34
330
1A
100
AcDbEntity
 67
     1
  8
0
100
AcDbBlockEnd
  0
BLOCK
  5
37
330
22
100
AcDbEntity
  8
0
100
AcDbBlockBegin
  2
LOGO
 70
     0
 10
0.0
 20
0.0
 30
0.0
  3
LOGO
  1

  0
ARC
  5
38
330
22
100
AcDbEntity
  8
0
100
AcDbCircle
 10
11.59973089678112
 20
-9.271599258481501
 30
0.0
 40
4.5
100
AcDbArc
 50
270.0
 51
231.0575587310159
  0
LINE
  5
39
330
22
100
AcDbEntity
  8
0
100
AcDbLine
 10
3.599730896781125
 20
-4.771599258481529
 30
0.0
 11
3.599730896781153
 21
-11.77159925848133
 31
0.0
  0
LINE
  5
3A
330
22
100
AcDbEntity
  8
0
100
AcDbLine
 10
2.599730896781125
 20
-4.771599258481529
 30
0.0
 11
2.599730896781153
 21
-11.77159925848133
 31
0.0
  0
CIRCLE
  5
3B
330
22
100
AcDbEntity
  8
0
100
AcDbCircle
 10
11.59973089678112
 20
-9.271599258481501
 30
0.0
 40
3.5
  0
ARC
  5
3C
330
22
100
AcDbEntity
  8
0
100
AcDbCircle
 10
31.59973089678115
 20
-9.271599258481472
 30
0.0
 40
4.5
100
AcDbArc
 50
270.0
 51
231.0575587310182
  0
LINE
  5
3D
330
22
100
AcDbEntity
  8
0
100
AcDbLine
 10
17.59973089678112
 20
-4.771599258481472
 30
0.0
 11
17.59973089678115
 21
-13.77159925848147
 31
0.0
  0
ARC
  5
3E
330
22
100
AcDbEntity
  8
0
100
AcDbCircle
 10
22.59973089678116
 20
-7.271599258481472
 30
0.0
 40
2.5
100
AcDbArc
 50
293.1161887722295
 51
90.0
  0
CIRCLE
  5
3F
330
22
100
AcDbEntity
  8
0
100
AcDbCircle
 10
31.59973089678115
 20
-9.271599258481472
 30
0.0
 40
3.5
  0
ARC
  5
40
330
22
100
AcDbEntity
  8
0
100
AcDbCircle
 10
4.599730896781153
 20
-11.77159925848133
 30
0.0
 40
1.0
100
AcDbArc
 50
180.0
 51
270.0
  0
ARC
  5
41
330
22
100
AcDbEntity
  8
0
100
AcDbCircle
 10
4.599730896781153
 20
-11.77159925848133
 30
0.0
 40
2.0
100
AcDbArc
 50
179.9999999999992
 51
270.0
  0
LINE
  5
42
330
22
100
AcDbEntity
  8
0
100
AcDbLine
 10
11.59973089678115
 20
-13.77159925848144
 30
0.0
 11
4.599730896781153
 21
-13.77159925848147
 31
0.0
  0
LINE
  5
43
330
22
100
AcDbEntity
  8
0
100
AcDbLine
 10
8.771303772034769
 20
-12.77159925848136
 30
0.0
 11
4.599730896781153
 21
-12.77159925848133
 31
0.0
  0
LINE
  5
44
330
22
100
AcDbEntity
  8
0
100
AcDbLine
 10
31.59973089678115
 20
-13.77159925848147
 30
0.0
 11
23.6715276665056
 21
-13.77159925848144
 31
0.0
  0
LINE
  5
45
330
22
100
AcDbEntity
  8
0
100
AcDbLine
 10
23.56565672307022
 20
-9.51278021337896
 30
0.0
 11
24.4388546544846
 21
-12.77159925848144
 31
0.0
  0
LINE
  5
46
330
22
100
AcDbEntity
  8
0
100
AcDbLine
 10
22.59973089678116
 20
-9.771599258481472
 30
0.0
 11
18.59973089678112
 21
-9.771599258481472
 31
0.0
  0
LINE
  5
47
330
22
100
AcDbEntity
  8
0
100
AcDbLine
 10
18.59973089678115
 20
-13.77159925848144
 30
0.0
 11
17.59973089678115
 21
-13.77159925848144
 31
0.0
  0
LINE
  5
48
330
22
100
AcDbEntity
  8
0
100
AcDbLine
 10
18.59973089678115
 20
-9.771599258481472
 30
0.0
 11
18.59973089678115
 21
-13.77159925848144
 31
0.0
  0
LINE
  5
49
330
22
100
AcDbEntity
  8
0
100
AcDbLine
 10
22.59973089678116
 20
-9.771599258481472
 30
0.0
 11
23.67152766650562
 21
-13.77159925848147
 31
0.0
  0
ARC
  5
4A
330
22
100
AcDbEntity
  8
0
100
AcDbCircle
 10
22.59973089678116
 20
-7.271599258481472
 30
0.0
 40
2.5
100
AcDbArc
 50
270.0
 51
270.0000000000007
  0
LINE
  5
4B
330
22
100
AcDbEntity
  8
0
100
AcDbLine
 10
28.77130377203494
 20
-12.77159925848147
 30
0.0
 11
24.43885465448463
 21
-12.77159925848144
 31
0.0
  0
LINE
  5
4C
330
22
100
AcDbEntity
  8
0
100
AcDbLine
 10
3.599730896781125
 20
-4.771599258481472
 30
0.0
 11
2.599730896781125
 21
-4.771599258481472
 31
0.0
  0
LINE
  5
4D
330
22
100
AcDbEntity
  8
0
100
AcDbLine
 10
22.59973089678116
 20
-8.771599258481472
 30
0.0
 11
18.59973089678115
 21
-8.771599258481472
 31
0.0
  0
LINE
  5
4E
330
22
100
AcDbEntity
  8
0
100
AcDbLine
 10
22.59973089678116
 20
-5.771599258481472
 30
0.0
 11
18.59973089678115
 21
-5.771599258481472
 31
0.0
  0
LINE
  5
4F
330
22
100
AcDbEntity
  8
0
100
AcDbLine
 10
22.59973089678116
 20
-4.771599258481472
 30
0.0
 11
17.59973089678115
 21
-4.771599258481472
 31
0.0
  0
LINE
  5
50
330
22
100
AcDbEntity
  8
0
100
AcDbLine
 10
18.59973089678115
 20
-5.771599258481472
 30
0.0
 11
18.59973089678115
 21
-8.771599258481472
 31
0.0
  0
ARC
  5
51
330
22
100
AcDbEntity
  8
0
100
AcDbCircle
 10
22.59973089678116
 20
-7.271599258481472
 30
0.0
 40
1.5
100
AcDbArc
 50
270.0
 51
90.0
  0
ENDBLK
  5
52
330
22
100
AcDbEntity
  8
0
100
AcDbBlockEnd
  0
BLOCK
  5
4FD
330
4F2
100
AcDbEntity
  8
0
100
AcDbBlockBegin
  2
*D1
 70
     1
 10
0.0
 20
0.0
 30
0.0
  3
*D1
  1

  0
LINE
  5
D65
330
4F2
100
AcDbEntity
  8
BEM
 62
     0
370
    -2
100
AcDbLine
 10
198.4999999999999
 20
197.1224584991509
 30
0.0
 11
198.4999999999999
 21
170.9548891656544
 31
0.0
  0
LINE
  5
D66
330
4F2
100
AcDbEntity
  8
BEM
 62
     0
370
    -2
100
AcDbLine
 10
251.4999999999999
 20
197.1224584991525
 30
0.0
 11
251.4999999999999
 21
170.9548891656544
 31
0.0
  0
LINE
  5
D67
330
4F2
100
AcDbEntity
  8
BEM
 62
     0
370
    -2
100
AcDbLine
 10
205.4999999999999
 20
172.9548891656544
 30
0.0
 11
244.4999999999999
 21
172.9548891656544
 31
0.0
  0
SOLID
  5
D68
330
4F2
100
AcDbEntity
  8
BEM
 62
     0
100
AcDbTrace
 10
205.4999999999999
 20
174.121555832321
 30
0.0
 11
205.4999999999999
 21
171.7882224989877
 31
0.0
 12
198.4999999999999
 22
172.9548891656544
 32
0.0
 13
198.4999999999999
 23
172.9548891656544
 33
0.0
  0
SOLID
  5
D69
330
4F2
100
AcDbEntity
  8
BEM
 62
     0
100
AcDbTrace
 10
244.4999999999999
 20
174.121555832321
 30
0.0
 11
244.4999999999999
 21
171.7882224989877
 31
0.0
 12
251.4999999999999
 22
172.9548891656544
 32
0.0
 13
251.4999999999999
 23
172.9548891656544
 33
0.0
  0
MTEXT
  5
D6A
330
4F2
100
AcDbEntity
  8
BEM
 62
     1
100
AcDbMText
 10
224.9999999999999
 20
179.4548891656543
 30
0.0
 40
7.0
 41
0.0
 71
     5
 72
     1
  1
\A1;%%c53
 73
     1
 44
1.0
  0
POINT
  5
D6B
330
4F2
100
AcDbEntity
  8
DEFPOINTS
 62
     0
100
AcDbPoint
 10
198.4999999999999
 20
199.122458499151
 30
0.0
  0
POINT
  5
D6C
330
4F2
100
AcDbEntity
  8
DEFPOINTS
 62
     0
100
AcDbPoint
 10
251.4999999999999
 20
199.1224584991526
 30
0.0
  0
POINT
  5
D6D
330
4F2
100
AcDbEntity
  8
DEFPOINTS
 62
     0
100
AcDbPoint
 10
251.4999999999999
 20
172.9548891656544
 30
0.0
  0
ENDBLK
  5
4FE
330
4F2
100
AcDbEntity
  8
0
100
AcDbBlockEnd
  0
BLOCK
  5
DE4
330
DDA
100
AcDbEntity
  8
0
100
AcDbBlockBegin
  2
*D2
 70
     1
 10
0.0
 20
0.0
 30
0.0
  3
*D2
  1

  0
LINE
  5
E00
330
DDA
100
AcDbEntity
  8
BEM
 62
     0
370
    -2
100
AcDbLine
 10
123.1769095015029
 20
443.4773328006474
 30
0.0
 11
113.6388088072967
 21
443.4773328006474
 31
0.0
  0
LINE
  5
E01
330
DDA
100
AcDbEntity
  8
BEM
 62
     0
370
    -2
100
AcDbLine
 10
197.9999999999999
 20
381.9523397412366
 30
0.0
 11
113.6388088072967
 21
381.9523397412366
 31
0.0
  0
LINE
  5
E02
330
DDA
100
AcDbEntity
  8
BEM
 62
     0
370
    -2
100
AcDbLine
 10
115.6388088072968
 20
436.4773328006474
 30
0.0
 11
115.6388088072967
 21
388.9523397412366
 31
0.0
  0
SOLID
  5
E03
330
DDA
100
AcDbEntity
  8
BEM
 62
     0
100
AcDbTrace
 10
114.4721421406301
 20
436.4773328006474
 30
0.0
 11
116.8054754739634
 21
436.4773328006474
 31
0.0
 12
115.6388088072968
 22
443.4773328006474
 32
0.0
 13
115.6388088072968
 23
443.4773328006474
 33
0.0
  0
SOLID
  5
E04
330
DDA
100
AcDbEntity
  8
BEM
 62
     0
100
AcDbTrace
 10
114.4721421406301
 20
388.9523397412366
 30
0.0
 11
116.8054754739634
 21
388.9523397412366
 31
0.0
 12
115.6388088072967
 22
381.9523397412366
 32
0.0
 13
115.6388088072967
 23
381.9523397412366
 33
0.0
  0
MTEXT
  5
E05
330
DDA
100
AcDbEntity
  8
BEM
 62
     1
100
AcDbMText
 10
109.1388088072967
 20
412.714836270942
 30
0.0
 40
7.0
 41
0.0
 71
     5
 72
     1
  1
\A1;61
 11
0.0000000000000001
 21
1.0
 31
0.0
 73
     1
 44
1.0
  0
POINT
  5
E06
330
DDA
100
AcDbEntity
  8
DEFPOINTS
 62
     0
100
AcDbPoint
 10
125.1769095015029
 20
443.4773328006474
 30
0.0
  0
POINT
  5
E07
330
DDA
100
AcDbEntity
  8
DEFPOINTS
 62
     0
100
AcDbPoint
 10
199.9999999999999
 20
381.9523397412366
 30
0.0
  0
POINT
  5
E08
330
DDA
100
AcDbEntity
  8
DEFPOINTS
 62
     0
100
AcDbPoint
 10
115.6388088072967
 20
381.9523397412366
 30
0.0
  0
ENDBLK
  5
DE5
330
DDA
100
AcDbEntity
  8
0
100
AcDbBlockEnd
  0
BLOCK
  5
DF1
330
DE7
100
AcDbEntity
  8
0
100
AcDbBlockBegin
  2
*D3
 70
     1
 10
0.0
 20
0.0
 30
0.0
  3
*D3
  1

  0
LINE
  5
E09
330
DE7
100
AcDbEntity
  8
BEM
 62
     0
370
    -2
100
AcDbLine
 10
197.0249319811554
 20
193.1224584991515
 30
0.0
 11
98.37859105691491
 21
193.1224584991515
 31
0.0
  0
LINE
  5
E0A
330
DE7
100
AcDbEntity
  8
BEM
 62
     0
370
    -2
100
AcDbLine
 10
123.1769095015029
 20
443.4773328006474
 30
0.0
 11
98.37859105691496
 21
443.4773328006474
 31
0.0
  0
LINE
  5
E0B
330
DE7
100
AcDbEntity
  8
BEM
 62
     0
370
    -2
100
AcDbLine
 10
100.3785910569149
 20
200.1224584991516
 30
0.0
 11
100.3785910569149
 21
436.4773328006474
 31
0.0
  0
SOLID
  5
E0C
330
DE7
100
AcDbEntity
  8
BEM
 62
     0
100
AcDbTrace
 10
99.21192439024823
 20
200.1224584991516
 30
0.0
 11
101.5452577235816
 21
200.1224584991516
 31
0.0
 12
100.3785910569149
 22
193.1224584991515
 32
0.0
 13
100.3785910569149
 23
193.1224584991515
 33
0.0
  0
SOLID
  5
E0D
330
DE7
100
AcDbEntity
  8
BEM
 62
     0
100
AcDbTrace
 10
99.21192439024828
 20
436.4773328006474
 30
0.0
 11
101.5452577235816
 21
436.4773328006474
 31
0.0
 12
100.3785910569149
 22
443.4773328006474
 32
0.0
 13
100.3785910569149
 23
443.4773328006474
 33
0.0
  0
MTEXT
  5
E0E
330
DE7
100
AcDbEntity
  8
BEM
 62
     1
100
AcDbMText
 10
93.87859105691488
 20
318.2998956498996
 30
0.0
 40
7.0
 41
0.0
 71
     5
 72
     1
  1
\A1;250
 11
0.0000000000000001
 21
1.0
 31
0.0
 73
     1
 44
1.0
  0
POINT
  5
E0F
330
DE7
100
AcDbEntity
  8
DEFPOINTS
 62
     0
100
AcDbPoint
 10
199.0249319811554
 20
193.1224584991515
 30
0.0
  0
POINT
  5
E10
330
DE7
100
AcDbEntity
  8
DEFPOINTS
 62
     0
100
AcDbPoint
 10
125.1769095015029
 20
443.4773328006474
 30
0.0
  0
POINT
  5
E11
330
DE7
100
AcDbEntity
  8
DEFPOINTS
 62
     0
100
AcDbPoint
 10
100.3785910569149
 20
443.4773328006474
 30
0.0
  0
ENDBLK
  5
DF2
330
DE7
100
AcDbEntity
  8
0
100
AcDbBlockEnd
  0
BLOCK
  5
DFE
330
DF4
100
AcDbEntity
  8
0
100
AcDbBlockBegin
  2
*D4
 70
     1
 10
0.0
 20
0.0
 30
0.0
  3
*D4
  1

  0
LINE
  5
DF5
330
DF4
100
AcDbEntity
  8
BEM
 62
     0
370
    -2
100
AcDbLine
 10
123.1769095015029
 20
443.4773328006474
 30
0.0
 11
98.37859105691496
 21
443.4773328006474
 31
0.0
  0
LINE
  5
DF6
330
DF4
100
AcDbEntity
  8
BEM
 62
     0
370
    -2
100
AcDbLine
 10
182.0
 20
468.4773328006476
 30
0.0
 11
98.37859105691496
 21
468.4773328006476
 31
0.0
  0
LINE
  5
DF7
330
DF4
100
AcDbEntity
  8
BEM
 62
     0
370
    -2
100
AcDbLine
 10
100.3785910569149
 20
450.4773328006474
 30
0.0
 11
100.3785910569149
 21
461.4773328006476
 31
0.0
  0
SOLID
  5
DF8
330
DF4
100
AcDbEntity
  8
BEM
 62
     0
100
AcDbTrace
 10
99.21192439024828
 20
450.4773328006474
 30
0.0
 11
101.5452577235816
 21
450.4773328006474
 31
0.0
 12
100.3785910569149
 22
443.4773328006474
 32
0.0
 13
100.3785910569149
 23
443.4773328006474
 33
0.0
  0
SOLID
  5
DF9
330
DF4
100
AcDbEntity
  8
BEM
 62
     0
100
AcDbTrace
 10
99.21192439024828
 20
461.4773328006476
 30
0.0
 11
101.5452577235816
 21
461.4773328006476
 31
0.0
 12
100.3785910569149
 22
468.4773328006476
 32
0.0
 13
100.3785910569149
 23
468.4773328006476
 33
0.0
  0
MTEXT
  5
DFA
330
DF4
100
AcDbEntity
  8
BEM
 62
     1
100
AcDbMText
 10
93.87859105691488
 20
455.9773328006476
 30
0.0
 40
7.0
 41
0.0
 71
     5
 72
     1
  1
\A1;25
 11
0.0000000000000001
 21
1.0
 31
0.0
 73
     1
 44
1.0
  0
POINT
  5
DFB
330
DF4
100
AcDbEntity
  8
DEFPOINTS
 62
     0
100
AcDbPoint
 10
125.1769095015029
 20
443.4773328006474
 30
0.0
  0
POINT
  5
DFC
330
DF4
100
AcDbEntity
  8
DEFPOINTS
 62
     0
100
AcDbPoint
 10
184.0
 20
468.4773328006476
 30
0.0
  0
POINT
  5
DFD
330
DF4
100
AcDbEntity
  8
DEFPOINTS
 62
     0
100
AcDbPoint
 10
100.3785910569149
 20
468.4773328006476
 30
0.0
  0
ENDBLK
  5
DFF
330
DF4
100
AcDbEntity
  8
0
100
AcDbBlockEnd
  0
BLOCK
  5
E1F
330
E13
100
AcDbEntity
  8
0
100
AcDbBlockBegin
  2
*D5
 70
     1
 10
0.0
 20
0.0
 30
0.0
  3
*D5
  1

  0
LINE
  5
E37
330
E13
100
AcDbEntity
  8
BEM
 62
     0
370
    -2
100
AcDbLine
 10
123.1769095015029
 20
443.4773328006474
 30
0.0
 11
113.6388088072967
 21
443.4773328006474
 31
0.0
  0
LINE
  5
E38
330
E13
100
AcDbEntity
  8
BEM
 62
     0
370
    -2
100
AcDbLine
 10
181.1999999999999
 20
457.4773328006475
 30
0.0
 11
113.6388088072967
 21
457.4773328006476
 31
0.0
  0
LINE
  5
E39
330
E13
100
AcDbEntity
  8
BEM
 62
     0
370
    -2
100
AcDbLine
 10
115.6388088072968
 20
436.4773328006474
 30
0.0
 11
115.6388088072968
 21
429.4773328006474
 31
0.0
  0
LINE
  5
E3A
330
E13
100
AcDbEntity
  8
BEM
 62
     0
370
    -2
100
AcDbLine
 10
115.6388088072968
 20
464.4773328006476
 30
0.0
 11
115.6388088072968
 21
471.4773328006476
 31
0.0
  0
LINE
  5
E3B
330
E13
100
AcDbEntity
  8
BEM
 62
     0
370
    -2
100
AcDbLine
 10
115.6388088072968
 20
443.4773328006474
 30
0.0
 11
115.6388088072968
 21
457.4773328006476
 31
0.0
  0
SOLID
  5
E3C
330
E13
100
AcDbEntity
  8
BEM
 62
     0
100
AcDbTrace
 10
114.4721421406301
 20
436.4773328006474
 30
0.0
 11
116.8054754739634
 21
436.4773328006474
 31
0.0
 12
115.6388088072968
 22
443.4773328006474
 32
0.0
 13
115.6388088072968
 23
443.4773328006474
 33
0.0
  0
SOLID
  5
E3D
330
E13
100
AcDbEntity
  8
BEM
 62
     0
100
AcDbTrace
 10
114.4721421406301
 20
464.4773328006476
 30
0.0
 11
116.8054754739634
 21
464.4773328006476
 31
0.0
 12
115.6388088072968
 22
457.4773328006476
 32
0.0
 13
115.6388088072968
 23
457.4773328006476
 33
0.0
  0
MTEXT
  5
E3E
330
E13
100
AcDbEntity
  8
BEM
 62
     1
100
AcDbMText
 10
109.1388088072967
 20
450.4773328006475
 30
0.0
 40
7.0
 41
0.0
 71
     5
 72
     1
  1
\A1;14
 11
0.0000000000000001
 21
1.0
 31
0.0
 73
     1
 44
1.0
  0
POINT
  5
E3F
330
E13
100
AcDbEntity
  8
DEFPOINTS
 62
     0
100
AcDbPoint
 10
125.1769095015029
 20
443.4773328006474
 30
0.0
  0
POINT
  5
E40
330
E13
100
AcDbEntity
  8
DEFPOINTS
 62
     0
100
AcDbPoint
 10
183.1999999999999
 20
457.4773328006475
 30
0.0
  0
POINT
  5
E41
330
E13
100
AcDbEntity
  8
DEFPOINTS
 62
     0
100
AcDbPoint
 10
115.6388088072968
 20
457.4773328006476
 30
0.0
  0
ENDBLK
  5
E20
330
E13
100
AcDbEntity
  8
0
100
AcDbBlockEnd
  0
BLOCK
  5
E4D
330
E43
100
AcDbEntity
  8
0
100
AcDbBlockBegin
  2
*D6
 70
     1
 10
0.0
 20
0.0
 30
0.0
  3
*D6
  1

  0
LINE
  5
EB6
330
E43
100
AcDbEntity
  8
BEM
 62
     0
370
    -2
100
AcDbLine
 10
276.5
 20
440.4773328006474
 30
0.0
 11
276.5
 21
497.3054037506394
 31
0.0
  0
LINE
  5
EB7
330
E43
100
AcDbEntity
  8
BEM
 62
     0
370
    -2
100
AcDbLine
 10
173.5
 20
440.4773328006474
 30
0.0
 11
173.5
 21
497.3054037506394
 31
0.0
  0
LINE
  5
EB8
330
E43
100
AcDbEntity
  8
BEM
 62
     0
370
    -2
100
AcDbLine
 10
269.5
 20
495.3054037506395
 30
0.0
 11
180.5
 21
495.3054037506395
 31
0.0
  0
SOLID
  5
EB9
330
E43
100
AcDbEntity
  8
BEM
 62
     0
100
AcDbTrace
 10
269.5
 20
496.4720704173061
 30
0.0
 11
269.5
 21
494.1387370839727
 31
0.0
 12
276.5
 22
495.3054037506395
 32
0.0
 13
276.5
 23
495.3054037506395
 33
0.0
  0
SOLID
  5
EBA
330
E43
100
AcDbEntity
  8
BEM
 62
     0
100
AcDbTrace
 10
180.5
 20
496.4720704173061
 30
0.0
 11
180.5
 21
494.1387370839727
 31
0.0
 12
173.5
 22
495.3054037506395
 32
0.0
 13
173.5
 23
495.3054037506395
 33
0.0
  0
MTEXT
  5
EBB
330
E43
100
AcDbEntity
  8
BEM
 62
     1
100
AcDbMText
 10
225.0
 20
501.8054037506394
 30
0.0
 40
7.0
 41
0.0
 71
     5
 72
     1
  1
\A1;%%c103
 73
     1
 44
1.0
  0
POINT
  5
EBC
330
E43
100
AcDbEntity
  8
DEFPOINTS
 62
     0
100
AcDbPoint
 10
276.5
 20
438.4773328006475
 30
0.0
  0
POINT
  5
EBD
330
E43
100
AcDbEntity
  8
DEFPOINTS
 62
     0
100
AcDbPoint
 10
173.5
 20
438.4773328006475
 30
0.0
  0
POINT
  5
EBE
330
E43
100
AcDbEntity
  8
DEFPOINTS
 62
     0
100
AcDbPoint
 10
173.5
 20
495.3054037506395
 30
0.0
  0
ENDBLK
  5
E4E
330
E43
100
AcDbEntity
  8
0
100
AcDbBlockEnd
  0
BLOCK
  5
E67
330
E5D
100
AcDbEntity
  8
0
100
AcDbBlockBegin
  2
*D7
 70
     1
 10
0.0
 20
0.0
 30
0.0
  3
*D7
  1

  0
LINE
  5
EBF
330
E5D
100
AcDbEntity
  8
BEM
 62
     0
370
    -2
100
AcDbLine
 10
161.85327499241
 20
445.6000696481825
 30
0.0
 11
161.85327499241
 21
511.7330732728098
 31
0.0
  0
LINE
  5
EC0
330
E5D
100
AcDbEntity
  8
BEM
 62
     0
370
    -2
100
AcDbLine
 10
288.1467250075898
 20
445.6000696481825
 30
0.0
 11
288.1467250075898
 21
511.7330732728098
 31
0.0
  0
LINE
  5
EC1
330
E5D
100
AcDbEntity
  8
BEM
 62
     0
370
    -2
100
AcDbLine
 10
168.85327499241
 20
509.7330732728099
 30
0.0
 11
281.1467250075897
 21
509.7330732728099
 31
0.0
  0
SOLID
  5
EC2
330
E5D
100
AcDbEntity
  8
BEM
 62
     0
100
AcDbTrace
 10
168.85327499241
 20
510.8997399394765
 30
0.0
 11
168.85327499241
 21
508.5664066061432
 31
0.0
 12
161.85327499241
 22
509.7330732728099
 32
0.0
 13
161.85327499241
 23
509.7330732728099
 33
0.0
  0
SOLID
  5
EC3
330
E5D
100
AcDbEntity
  8
BEM
 62
     0
100
AcDbTrace
 10
281.1467250075897
 20
510.8997399394765
 30
0.0
 11
281.1467250075897
 21
508.5664066061432
 31
0.0
 12
288.1467250075898
 22
509.7330732728099
 32
0.0
 13
288.1467250075898
 23
509.7330732728099
 33
0.0
  0
MTEXT
  5
EC4
330
E5D
100
AcDbEntity
  8
BEM
 62
     1
100
AcDbMText
 10
224.9999999999999
 20
516.2330732728098
 30
0.0
 40
7.0
 41
0.0
 71
     5
 72
     1
  1
\A1;%%c126
 73
     1
 44
1.0
  0
POINT
  5
EC5
330
E5D
100
AcDbEntity
  8
DEFPOINTS
 62
     0
100
AcDbPoint
 10
161.85327499241
 20
443.6000696481825
 30
0.0
  0
POINT
  5
EC6
330
E5D
100
AcDbEntity
  8
DEFPOINTS
 62
     0
100
AcDbPoint
 10
288.1467250075898
 20
443.6000696481825
 30
0.0
  0
POINT
  5
EC7
330
E5D
100
AcDbEntity
  8
DEFPOINTS
 62
     0
100
AcDbPoint
 10
288.1467250075898
 20
509.7330732728099
 30
0.0
  0
ENDBLK
  5
E68
330
E5D
100
AcDbEntity
  8
0
100
AcDbBlockEnd
  0
BLOCK
  5
E86
330
E7C
100
AcDbEntity
  8
0
100
AcDbBlockBegin
  2
*D8
 70
     1
 10
0.0
 20
0.0
 30
0.0
  3
*D8
  1

  0
LINE
  5
E91
330
E7C
100
AcDbEntity
  8
BEM
 62
     0
370
    -2
100
AcDbLine
 10
184.0
 20
470.4773328006476
 30
0.0
 11
184.0
 21
482.1713515027997
 31
0.0
  0
LINE
  5
E92
330
E7C
100
AcDbEntity
  8
BEM
 62
     0
370
    -2
100
AcDbLine
 10
266.0
 20
470.4773328006472
 30
0.0
 11
266.0
 21
482.1713515027997
 31
0.0
  0
LINE
  5
E93
330
E7C
100
AcDbEntity
  8
BEM
 62
     0
370
    -2
100
AcDbLine
 10
190.9999999999999
 20
480.1713515027997
 30
0.0
 11
259.0
 21
480.1713515027997
 31
0.0
  0
SOLID
  5
E94
330
E7C
100
AcDbEntity
  8
BEM
 62
     0
100
AcDbTrace
 10
190.9999999999999
 20
481.3380181694665
 30
0.0
 11
190.9999999999999
 21
479.004684836133
 31
0.0
 12
184.0
 22
480.1713515027997
 32
0.0
 13
184.0
 23
480.1713515027997
 33
0.0
  0
SOLID
  5
E95
330
E7C
100
AcDbEntity
  8
BEM
 62
     0
100
AcDbTrace
 10
259.0
 20
481.3380181694665
 30
0.0
 11
259.0
 21
479.004684836133
 31
0.0
 12
266.0
 22
480.1713515027997
 32
0.0
 13
266.0
 23
480.1713515027997
 33
0.0
  0
MTEXT
  5
E96
330
E7C
100
AcDbEntity
  8
BEM
 62
     1
100
AcDbMText
 10
230.2245152781838
 20
486.6713515027997
 30
0.0
 40
7.0
 41
0.0
 71
     5
 72
     1
  1
\A1;82
 73
     1
 44
1.0
  0
POINT
  5
E97
330
E7C
100
AcDbEntity
  8
DEFPOINTS
 62
     0
100
AcDbPoint
 10
184.0
 20
468.4773328006476
 30
0.0
  0
POINT
  5
E98
330
E7C
100
AcDbEntity
  8
DEFPOINTS
 62
     0
100
AcDbPoint
 10
266.0
 20
468.4773328006472
 30
0.0
  0
POINT
  5
E99
330
E7C
100
AcDbEntity
  8
DEFPOINTS
 62
     0
100
AcDbPoint
 10
266.0
 20
480.1713515027997
 30
0.0
  0
ENDBLK
  5
E87
330
E7C
100
AcDbEntity
  8
0
100
AcDbBlockEnd
  0
BLOCK
  5
EE1
330
ED7
100
AcDbEntity
  8
0
100
AcDbBlockBegin
  2
*D9
 70
     1
 10
0.0
 20
0.0
 30
0.0
  3
*D9
  1

  0
LINE
  5
EE3
330
ED7
100
AcDbEntity
  8
BEM
 62
     0
370
    -2
100
AcDbLine
 10
124.5549811716036
 20
446.84232553047
 30
0.0
 11
124.5549811716036
 21
526.4807675661993
 31
0.0
  0
LINE
  5
EE4
330
ED7
100
AcDbEntity
  8
BEM
 62
     0
370
    -2
100
AcDbLine
 10
325.4450188283962
 20
446.84232553047
 30
0.0
 11
325.4450188283962
 21
526.4807675661993
 31
0.0
  0
LINE
  5
EE5
330
ED7
100
AcDbEntity
  8
BEM
 62
     0
370
    -2
100
AcDbLine
 10
131.5549811716036
 20
524.4807675661993
 30
0.0
 11
318.4450188283962
 21
524.4807675661993
 31
0.0
  0
SOLID
  5
EE6
330
ED7
100
AcDbEntity
  8
BEM
 62
     0
100
AcDbTrace
 10
131.5549811716036
 20
525.6474342328659
 30
0.0
 11
131.5549811716036
 21
523.3141008995326
 31
0.0
 12
124.5549811716036
 22
524.4807675661993
 32
0.0
 13
124.5549811716036
 23
524.4807675661993
 33
0.0
  0
SOLID
  5
EE7
330
ED7
100
AcDbEntity
  8
BEM
 62
     0
100
AcDbTrace
 10
318.4450188283962
 20
525.6474342328659
 30
0.0
 11
318.4450188283962
 21
523.3141008995326
 31
0.0
 12
325.4450188283962
 22
524.4807675661993
 32
0.0
 13
325.4450188283962
 23
524.4807675661993
 33
0.0
  0
MTEXT
  5
EE8
330
ED7
100
AcDbEntity
  8
BEM
 62
     1
100
AcDbMText
 10
224.9999999999999
 20
530.9807675661993
 30
0.0
 40
7.0
 41
0.0
 71
     5
 72
     1
  1
\A1;%%c201
 73
     1
 44
1.0
  0
POINT
  5
EE9
330
ED7
100
AcDbEntity
  8
DEFPOINTS
 62
     0
100
AcDbPoint
 10
124.5549811716036
 20
444.84232553047
 30
0.0
  0
POINT
  5
EEA
330
ED7
100
AcDbEntity
  8
DEFPOINTS
 62
     0
100
AcDbPoint
 10
325.4450188283962
 20
444.84232553047
 30
0.0
  0
POINT
  5
EEB
330
ED7
100
AcDbEntity
  8
DEFPOINTS
 62
     0
100
AcDbPoint
 10
325.4450188283962
 20
524.4807675661993
 30
0.0
  0
ENDBLK
  5
EE2
330
ED7
100
AcDbEntity
  8
0
100
AcDbBlockEnd
  0
ENDSEC
  0
SECTION
  2
ENTITIES
  0
LINE
  5
57
330
1E
100
AcDbEntity
  8
STEMPEL
100
AcDbLine
 10
410.0
 20
110.0
 30
0.0
 11
39.99999999999997
 21
110.0
 31
0.0
  0
LINE
  5
58
330
1E
100
AcDbEntity
  8
STEMPEL
100
AcDbLine
 10
136.0000000000001
 20
109.9999999999999
 30
0.0
 11
136.0
 21
9.999999999999971
 31
0.0
  0
LINE
  5
59
330
1E
100
AcDbEntity
  8
STEMPEL
100
AcDbLine
 10
220.0
 20
110.0
 30
0.0
 11
220.0
 21
9.999999999999971
 31
0.0
  0
LINE
  5
5A
330
1E
100
AcDbEntity
  8
STEMPEL
100
AcDbLine
 10
332.0
 20
109.9999999999997
 30
0.0
 11
332.0
 21
40.0
 31
0.0
  0
LINE
  5
5B
330
1E
100
AcDbEntity
  8
STEMPEL
100
AcDbLine
 10
135.9999999999999
 20
29.99999999999997
 30
0.0
 11
39.99999999999997
 21
29.99999999999997
 31
0.0
  0
LINE
  5
5C
330
1E
100
AcDbEntity
  8
STEMPEL
100
AcDbLine
 10
410.0
 20
40.0
 30
0.0
 11
136.0000000000001
 21
39.99999999999997
 31
0.0
  0
LINE
  5
5D
330
1E
100
AcDbEntity
  8
STEMPEL
100
AcDbLine
 10
410.0
 20
80.0
 30
0.0
 11
136.0000000000001
 21
79.99999999999994
 31
0.0
  0
LINE
  5
5E
330
1E
100
AcDbEntity
  8
VOLL
100
AcDbLine
 10
54.00000000000009
 20
110.0
 30
0.0
 11
53.99999999999997
 21
9.999999999999971
 31
0.0
  0
LINE
  5
5F
330
1E
100
AcDbEntity
  8
VOLL
100
AcDbLine
 10
94.00000000000011
 20
109.9999999999999
 30
0.0
 11
94.0
 21
9.999999999999971
 31
0.0
  0
LINE
  5
60
330
1E
100
AcDbEntity
  8
VOLL
100
AcDbLine
 10
114.0000000000001
 20
109.9999999999999
 30
0.0
 11
114.0
 21
9.999999999999971
 31
0.0
  0
LINE
  5
61
330
1E
100
AcDbEntity
  8
VOLL
100
AcDbLine
 10
154.0000000000001
 20
79.99999999999994
 30
0.0
 11
154.0000000000001
 21
39.99999999999997
 31
0.0
  0
LINE
  5
62
330
1E
100
AcDbEntity
  8
VOLL
100
AcDbLine
 10
180.0000000000001
 20
109.9999999999998
 30
0.0
 11
180.0
 21
39.99999999999997
 31
0.0
  0
LINE
  5
63
330
1E
100
AcDbEntity
  8
HILF
100
AcDbLine
 10
40.00000000000008
 20
100.0
 30
0.0
 11
136.0000000000001
 21
100.0
 31
0.0
  0
LINE
  5
64
330
1E
100
AcDbEntity
  8
HILF
100
AcDbLine
 10
40.00000000000008
 20
90.00000000000005
 30
0.0
 11
136.0000000000001
 21
90.00000000000005
 31
0.0
  0
LINE
  5
65
330
1E
100
AcDbEntity
  8
HILF
100
AcDbLine
 10
40.00000000000008
 20
79.99999999999994
 30
0.0
 11
136.0000000000001
 21
79.99999999999994
 31
0.0
  0
LINE
  5
66
330
1E
100
AcDbEntity
  8
HILF
100
AcDbLine
 10
40.00000000000008
 20
69.99999999999994
 30
0.0
 11
136.0000000000001
 21
69.99999999999994
 31
0.0
  0
LINE
  5
67
330
1E
100
AcDbEntity
  8
HILF
100
AcDbLine
 10
40.00000000000008
 20
59.99999999999997
 30
0.0
 11
136.0000000000001
 21
59.99999999999997
 31
0.0
  0
LINE
  5
68
330
1E
100
AcDbEntity
  8
HILF
100
AcDbLine
 10
40.00000000000008
 20
49.99999999999997
 30
0.0
 11
136.0000000000001
 21
49.99999999999997
 31
0.0
  0
LINE
  5
69
330
1E
100
AcDbEntity
  8
HILF
100
AcDbLine
 10
40.00000000000008
 20
39.99999999999997
 30
0.0
 11
136.0000000000001
 21
39.99999999999997
 31
0.0
  0
LINE
  5
6A
330
1E
100
AcDbEntity
  8
HILF
100
AcDbLine
 10
136.0000000000001
 20
69.99999999999994
 30
0.0
 11
220.0
 21
69.99999999999994
 31
0.0
  0
LINE
  5
6B
330
1E
100
AcDbEntity
  8
HILF
100
AcDbLine
 10
136.0000000000001
 20
59.99999999999997
 30
0.0
 11
220.0
 21
59.99999999999997
 31
0.0
  0
LINE
  5
6C
330
1E
100
AcDbEntity
  8
HILF
100
AcDbLine
 10
136.0000000000001
 20
49.99999999999997
 30
0.0
 11
220.0
 21
49.99999999999997
 31
0.0
  0
LINE
  5
6D
330
1E
100
AcDbEntity
  8
HILF
100
AcDbLine
 10
224.7736801096948
 20
84.03758247564139
 30
0.0
 11
324.8353916556311
 21
84.03758247564139
 31
0.0
  0
LINE
  5
6E
330
1E
100
AcDbEntity
  8
HILF
100
AcDbLine
 10
224.7736801096948
 20
69.99999999999994
 30
0.0
 11
324.835391655631
 21
69.99999999999994
 31
0.0
  0
LINE
  5
6F
330
1E
100
AcDbEntity
  8
HILF
100
AcDbLine
 10
224.7736801096948
 20
59.99999999999997
 30
0.0
 11
324.835391655631
 21
59.99999999999997
 31
0.0
  0
LINE
  5
70
330
1E
100
AcDbEntity
  8
HILF
100
AcDbLine
 10
224.7736801096948
 20
49.99999999999997
 30
0.0
 11
324.835391655631
 21
49.99999999999997
 31
0.0
  0
LINE
  5
71
330
1E
100
AcDbEntity
  8
VOLL
100
AcDbLine
 10
332.0
 20
60.0
 30
0.0
 11
410.0
 21
60.0
 31
0.0
  0
LINE
  5
72
330
1E
100
AcDbEntity
  8
HILF
100
AcDbLine
 10
336.7238616296993
 20
83.77983636955827
 30
0.0
 11
404.8588839326728
 21
83.77983636955827
 31
0.0
  0
LINE
  5
73
330
1E
100
AcDbEntity
  8
HILF
100
AcDbLine
 10
223.4909699289885
 20
14.89398258028314
 30
0.0
 11
404.8588839326728
 21
14.89398258028314
 31
0.0
  0
TEXT
  5
74
330
1E
100
AcDbEntity
  8
TEXT
100
AcDbText
 10
63.86165979631819
 20
18.67381894984132
 30
0.0
 40
4.0
  1
Änderung
 41
0.8
  7
GREEKS
 72
     1
 11
74.60451693917534
 21
18.67381894984132
 31
0.0
100
AcDbText
  0
TEXT
  5
75
330
1E
100
AcDbEntity
  8
TEXT
100
AcDbText
 10
143.5163572150377
 20
102.4620895087088
 30
0.0
 40
5.0
  1
Maßstab
 41
0.8
  7
GREEKS
100
AcDbText
  0
TEXT
  5
76
330
1E
100
AcDbEntity
  8
TEXT
100
AcDbText
 10
184.2858954734051
 20
102.4184168434819
 30
0.0
 40
5.0
  1
Zul. Abw.
 41
0.8
  7
GREEKS
100
AcDbText
  0
TEXT
  5
77
330
1E
100
AcDbEntity
  8
TEXT
100
AcDbText
 10
224.877940380901
 20
102.5489328011779
 30
0.0
 40
5.0
  1
Benennung
 41
0.8
  7
GREEKS
100
AcDbText
  0
TEXT
  5
78
330
1E
100
AcDbEntity
  8
TEXT
100
AcDbText
 10
336.178754957634
 20
102.3132034537136
 30
0.0
 40
5.0
  1
Zeichnungs Nr.
 41
0.8
  7
GREEKS
100
AcDbText
  0
TEXT
  5
79
330
1E
100
AcDbEntity
  8
TEXT
100
AcDbText
 10
224.742238391136
 20
30.84560570193057
 30
0.0
 40
5.0
  1
Bauvorhaben
 41
0.8
  7
GREEKS
100
AcDbText
  0
TEXT
  5
7A
330
1E
100
AcDbEntity
  8
TEXT
100
AcDbText
 10
336.7238616296993
 20
73.1811823709997
 30
0.0
 40
5.0
  1
Ersatz für:
 41
0.8
  7
GREEKS
100
AcDbText
  0
TEXT
  5
7B
330
1E
100
AcDbEntity
  8
TEXT
100
AcDbText
 10
48.26641107045756
 20
13.65465846027192
 30
0.0
 40
4.0
  1
Index
 50
90.0
 41
0.8
  7
GREEKS
100
AcDbText
  0
TEXT
  5
7C
330
1E
100
AcDbEntity
  8
TEXT
100
AcDbText
 10
100.0934676075481
 20
18.6715626933981
 30
0.0
 40
4.0
  1
Tag
 41
0.8
  7
GREEKS
 72
     1
 11
103.8268009408814
 21
18.6715626933981
 31
0.0
100
AcDbText
  0
TEXT
  5
7D
330
1E
100
AcDbEntity
  8
TEXT
100
AcDbText
 10
119.0122744386592
 20
18.59324216966408
 30
0.0
 40
4.0
  1
Name
 41
0.8
  7
GREEKS
 72
     1
 11
125.3360839624688
 21
18.59324216966408
 31
0.0
100
AcDbText
  0
TEXT
  5
7E
330
1E
100
AcDbEntity
  8
TEXT
100
AcDbText
 10
162.3311673153651
 20
73.31880501229926
 30
0.0
 40
4.0
  1
Tag
 41
0.8
  7
GREEKS
100
AcDbText
  0
TEXT
  5
7F
330
1E
100
AcDbEntity
  8
TEXT
100
AcDbText
 10
192.4626584226295
 20
73.30961091915225
 30
0.0
 40
4.0
  1
Name
 41
0.8
  7
GREEKS
100
AcDbText
  0
TEXT
  5
80
330
1E
100
AcDbEntity
  8
TEXT
100
AcDbText
 10
137.5836127167615
 20
63.62990369617964
 30
0.0
 40
4.0
  1
Gez.
 41
0.8
  7
GREEKS
100
AcDbText
  0
TEXT
  5
81
330
1E
100
AcDbEntity
  8
TEXT
100
AcDbText
 10
137.5515086571672
 20
53.68926291428377
 30
0.0
 40
4.0
  1
Gepr.
 41
0.8
  7
GREEKS
100
AcDbText
  0
TEXT
  5
82
330
1E
100
AcDbEntity
  8
TEXT
100
AcDbText
 10
137.6006777387304
 20
43.52946389649807
 30
0.0
 40
4.0
  1
Norm.
 41
0.8
  7
GREEKS
100
AcDbText
  0
LINE
  5
83
330
1E
100
AcDbEntity
  8
STEMPEL
100
AcDbLine
 10
49.99999999999989
 20
10.0
 30
0.0
 11
410.0
 21
10.0
 31
0.0
  0
TEXT
  5
84
330
1E
100
AcDbEntity
  8
TEXT
100
AcDbText
 10
337.2400861497006
 20
52.07416177878602
 30
0.0
 40
5.0
  1
ersetzt durch:
 41
0.8
  7
GREEKS
100
AcDbText
  0
LINE
  5
85
330
1E
100
AcDbEntity
  8
STEMPEL
100
AcDbLine
 10
410.0
 20
10.0
 30
0.0
 11
39.99999999999989
 21
10.0
 31
0.0
  0
LINE
  5
86
330
1E
100
AcDbEntity
  8
STEMPEL
100
AcDbLine
 10
410.0
 20
10.0
 30
0.0
 11
410.0
 21
584.0
 31
0.0
  0
LINE
  5
87
330
1E
100
AcDbEntity
  8
STEMPEL
100
AcDbLine
 10
40.0
 20
10.0
 30
0.0
 11
39.99999999999989
 21
584.0
 31
0.0
  0
LINE
  5
88
330
1E
100
AcDbEntity
  8
STEMPEL
100
AcDbLine
 10
410.0
 20
584.0
 30
0.0
 11
39.99999999999989
 21
584.0
 31
0.0
  0
LINE
  5
89
330
1E
100
AcDbEntity
  8
HILF
100
AcDbLine
 10
0.0
 20
0.0
 30
0.0
 11
-0.0000000000001137
 21
594.0
 31
0.0
  0
LINE
  5
8A
330
1E
100
AcDbEntity
  8
HILF
100
AcDbLine
 10
419.9999999999999
 20
594.0000000000002
 30
0.0
 11
0.0
 21
594.0
 31
0.0
  0
LINE
  5
8B
330
1E
100
AcDbEntity
  8
HILF
100
AcDbLine
 10
420.0
 20
0.0
 30
0.0
 11
0.0
 21
0.0
 31
0.0
  0
LINE
  5
8C
330
1E
100
AcDbEntity
  8
HILF
100
AcDbLine
 10
31.08767135713856
 20
297.0
 30
0.0
 11
0.0000000000001137
 21
297.0
 31
0.0
  0
TEXT
  5
8D
330
1E
100
AcDbEntity
  8
TEXT
100
AcDbText
 10
138.622109822104
 20
73.14025471151666
 30
0.0
 40
4.0
  1
2008
 41
0.8
  7
GREEKS
100
AcDbText
  0
LINE
  5
8E
330
1E
100
AcDbEntity
  8
HILF
100
AcDbLine
 10
420.0
 20
-0.0000000000001137
 30
0.0
 11
419.9999999999999
 21
594.0
 31
0.0
  0
TEXT
  5
8F
330
1E
100
AcDbEntity
  8
VOLL
100
AcDbText
 10
78.07675471698113
 20
31.02594776470585
 30
0.0
 40
1.8
  1

  7
GREEKS
100
AcDbText
  0
TEXT
  5
90
330
1E
100
AcDbEntity
  8
TEXT
100
AcDbText
 10
41.85509950977674
 20
111.6719999999999
 30
0.0
 40
5.0
  1
Erstellt mit AUTOCAD 2004
 41
0.8
  7
GREEKS
100
AcDbText
  0
TEXT
  5
91
330
1E
100
AcDbEntity
  8
TEXT
100
AcDbText
 10
194.4216048581257
 20
63.0896391972351
 30
0.0
 40
4.0
  1
Koeh
 41
0.8
  7
GREEKS
 72
     1
 11
199.6787477152685
 21
63.0896391972351
 31
0.0
100
AcDbText
  0
TEXT
  5
92
330
1E
100
AcDbEntity
  8
TEXT
 62
     1
100
AcDbText
 10
344.3143841209336
 20
88.14901428913959
 30
0.0
 40
7.0
  1
15671050W
 41
0.8
  7
GREEKS
 72
     1
 11
367.247717454267
 21
88.14901428913959
 31
0.0
100
AcDbText
  0
TEXT
  5
93
330
1E
100
AcDbEntity
  8
TEXT
 62
     1
100
AcDbText
 10
150.5006306481887
 20
88.14901428913959
 30
0.0
 40
7.0
  1
1:2
 41
0.8
  7
GREEKS
100
AcDbText
  0
TEXT
  5
94
330
1E
100
AcDbEntity
  8
TEXT
100
AcDbText
 10
160.398997108236
 20
63.10765040825732
 30
0.0
 40
4.0
  1
28.05.
 41
0.8
  7
GREEKS
 72
     1
 11
167.4085209177598
 21
63.10765040825732
 31
0.0
100
AcDbText
  0
TEXT
  5
95
330
1E
100
AcDbEntity
  8
TEXT
 62
     1
100
AcDbText
 10
226.8935731057402
 20
87.41748789253779
 30
0.0
 40
7.0
  1
Balkonablauf DN50
 41
0.8
  7
GREEKS
100
AcDbText
  0
TEXT
  5
96
330
1E
100
AcDbEntity
  8
TEXT
100
AcDbText
 10
225.1296391125315
 20
71.50334417585288
 30
0.0
 40
5.0
  1
Kompletteinheit senkrecht
 41
0.8
  7
GREEKS
100
AcDbText
  0
TEXT
  5
98
330
1E
100
AcDbEntity
  8
TEXT
100
AcDbText
 10
225.1296391125315
 20
51.64011943042158
 30
0.0
 40
5.0
  1
EDV-Art.Nr. 15671.050X
 41
0.8
  7
GREEKS
100
AcDbText
  0
TEXT
  5
99
330
1E
100
AcDbEntity
  8
TEXT
100
AcDbText
 10
224.9837501577827
 20
42.62974153022632
 30
0.0
 40
4.0
  1
15671050W.DWG
 41
0.8
  7
GREEKS
100
AcDbText
  0
TEXT
  5
9A
330
1E
100
AcDbEntity
  8
TEXT
100
AcDbText
 10
182.626132208084
 20
90.76363841023022
 30
0.0
 40
4.0
  1
DIN EN1123-2
 41
0.8
  7
GREEKS
 72
     1
 11
199.6166083985602
 21
90.76363841023022
 31
0.0
100
AcDbText
  0
INSERT
  5
9B
330
1E
100
AcDbEntity
  8
STEMPEL
100
AcDbBlockReference
  2
LOGO
 10
140.9955485457794
 20
45.02105276448322
 30
0.0
 41
2.0
 42
2.0
 43
2.0
  0
TEXT
  5
118
330
1E
100
AcDbEntity
  8
BEM
100
AcDbText
 10
417.3022923857165
 20
10.16790107998849
 30
0.0
 40
4.0
  1
Diese Zeichnung ist urheberrechtlich geschützt und bleibt unser Eigentum. Sie darf weder ganz noch teilweise verfielfältigt und nicht an Dritte weitergegeben werden.
 50
90.0
 41
0.8
  7
GREEKS
100
AcDbText
  0
ARC
  5
3DA
330
1E
100
AcDbEntity
  8
STEMPEL
100
AcDbCircle
 10
320.9388987878052
 20
441.950356802298
 30
0.0
 40
4.5
100
AcDbArc
 50
65.50468174750598
 51
92.36239407091025
  0
ARC
  5
3DB
330
1E
100
AcDbEntity
  8
STEMPEL
100
AcDbCircle
 10
320.9388987878052
 20
441.950356802298
 30
0.0
 40
3.0
100
AcDbArc
 50
65.50468174750635
 51
92.36239407091025
  0
LINE
  5
3DC
330
1E
100
AcDbEntity
  8
STEMPEL
100
AcDbLine
 10
322.182755447604
 20
444.6803422619431
 30
0.0
 11
324.8230904984968
 21
443.4773328006474
 31
0.0
  0
LINE
  5
3DD
330
1E
100
AcDbEntity
  8
STEMPEL
100
AcDbLine
 10
322.8046837775033
 20
446.0453349917658
 30
0.0
 11
325.4450188283962
 21
444.84232553047
 31
0.0
  0
LINE
  5
3DE
330
1E
100
AcDbEntity
  8
STEMPEL
100
AcDbLine
 10
324.8230904984968
 20
443.4773328006474
 30
0.0
 11
325.4450188283962
 21
444.84232553047
 31
0.0
  0
ARC
  5
3E1
330
1E
100
AcDbEntity
  8
STEMPEL
100
AcDbCircle
 10
289.440175022769
 20
440.6508789762425
 30
0.0
 40
4.5
100
AcDbArc
 50
92.36239407091025
 51
134.9999999999997
  0
ARC
  5
3E2
330
1E
100
AcDbEntity
  8
STEMPEL
100
AcDbCircle
 10
289.440175022769
 20
440.6508789762425
 30
0.0
 40
3.0
100
AcDbArc
 50
92.36239407091025
 51
134.9999999999994
  0
ARC
  5
3E3
330
1E
100
AcDbEntity
  8
STEMPEL
100
AcDbCircle
 10
281.1600271293755
 20
442.9773328006473
 30
0.0
 40
4.5
100
AcDbArc
 50
270.0
 51
314.9999999999995
  0
ARC
  5
3E4
330
1E
100
AcDbEntity
  8
STEMPEL
100
AcDbCircle
 10
281.1600271293755
 20
442.9773328006473
 30
0.0
 40
3.0
100
AcDbArc
 50
269.9999999999988
 51
314.9999999999997
  0
LINE
  5
3E5
330
1E
100
AcDbEntity
  8
STEMPEL
100
AcDbLine
 10
284.342007644715
 20
439.7953522853078
 30
0.0
 11
288.1467250075898
 21
443.6000696481825
 31
0.0
  0
LINE
  5
3E6
330
1E
100
AcDbEntity
  8
STEMPEL
100
AcDbLine
 10
283.2813474729352
 20
440.8560124570876
 30
0.0
 11
286.2581945074296
 21
443.8328594915821
 31
0.0
  0
LINE
  5
3E7
330
1E
100
AcDbEntity
  8
STEMPEL
100
AcDbLine
 10
262.9999999999998
 20
456.7273328006475
 30
0.0
 11
264.2990381056764
 21
457.4773328006474
 31
0.0
  0
LINE
  5
3E8
330
1E
100
AcDbEntity
  8
MITTEL
100
AcDbLine
 10
268.9019237886464
 20
440.5049009363121
 30
0.0
 11
275.3971143170298
 21
444.2549009363121
 31
0.0
  0
LINE
  5
3E9
330
1E
100
AcDbEntity
  8
STEMPEL
100
AcDbLine
 10
269.9999999999997
 20
444.6029771476654
 30
0.0
 11
271.2990381056763
 21
445.3529771476653
 31
0.0
  0
LINE
  5
3EA
330
1E
100
AcDbEntity
  8
STEMPEL
100
AcDbLine
 10
273.2305412000661
 20
439.5399277488764
 30
0.0
 11
274.6596473514527
 21
440.36502257008
 31
0.0
  0
ARC
  5
3EB
330
1E
100
AcDbEntity
  8
STEMPEL
100
AcDbCircle
 10
276.1347186240637
 20
442.9773328006475
 30
0.0
 40
4.5
100
AcDbArc
 50
210.0000000000001
 51
269.999999999998
  0
ARC
  5
3EC
330
1E
100
AcDbEntity
  8
STEMPEL
100
AcDbCircle
 10
276.1347186240637
 20
442.9773328006475
 30
0.0
 40
3.0
100
AcDbArc
 50
210.0
 51
269.999999999998
  0
LINE
  5
3ED
330
1E
100
AcDbEntity
  8
STEMPEL
100
AcDbLine
 10
262.9999999999998
 20
456.7273328006475
 30
0.0
 11
272.2376043070338
 21
440.7273328006475
 31
0.0
  0
LINE
  5
3EE
330
1E
100
AcDbEntity
  8
STEMPEL
100
AcDbLine
 10
264.2990381056764
 20
457.4773328006475
 30
0.0
 11
273.5366424127104
 21
441.4773328006474
 31
0.0
  0
LINE
  5
3F2
330
1E
100
AcDbEntity
  8
STEMPEL
100
AcDbLine
 10
276.5
 20
426.9773328006475
 30
0.0
 11
276.5
 21
438.4773328006475
 31
0.0
  0
LINE
  5
3F3
330
1E
100
AcDbEntity
  8
STEMPEL
100
AcDbLine
 10
275.0
 20
426.9773328006481
 30
0.0
 11
274.9999999999999
 21
438.4773328006475
 31
0.0
  0
LINE
  5
3F4
330
1E
100
AcDbEntity
  8
STEMPEL
100
AcDbLine
 10
276.4999999999999
 20
429.4166441572762
 30
0.0
 11
276.4999999999998
 21
438.4773328006474
 31
0.0
  0
LINE
  5
3F5
330
1E
100
AcDbEntity
  8
STEMPEL
100
AcDbLine
 10
274.9999999999999
 20
429.4952558262006
 30
0.0
 11
274.9999999999999
 21
437.2296323156136
 31
0.0
  0
LINE
  5
3F6
330
1E
100
AcDbEntity
  8
HILF
100
AcDbLine
 10
287.4999999999999
 20
445.0746649841524
 30
0.0
 11
271.4597217081995
 21
445.0746649841524
 31
0.0
  0
LINE
  5
3F7
330
1E
100
AcDbEntity
  8
STEMPEL
100
AcDbLine
 10
281.1600271293754
 20
439.9773328006473
 30
0.0
 11
276.1347186240636
 21
439.9773328006475
 31
0.0
  0
LINE
  5
3FD
330
1E
100
AcDbEntity
  8
STEMPEL
100
AcDbLine
 10
186.9999999999999
 20
456.7273328006475
 30
0.0
 11
185.7009618943232
 21
457.4773328006474
 31
0.0
  0
LINE
  5
3FE
330
1E
100
AcDbEntity
  8
STEMPEL
100
AcDbLine
 10
180.0
 20
444.6029771476652
 30
0.0
 11
178.7009618943233
 21
445.3529771476652
 31
0.0
  0
LINE
  5
3FF
330
1E
100
AcDbEntity
  8
STEMPEL
100
AcDbLine
 10
186.9999999999999
 20
456.7273328006475
 30
0.0
 11
177.7623956929659
 21
440.7273328006475
 31
0.0
  0
ARC
  5
406
330
1E
100
AcDbEntity
  8
STEMPEL
100
AcDbCircle
 10
253.4999999999999
 20
378.3444191650277
 30
0.0
 40
3.5
100
AcDbArc
 50
173.8085564205933
 51
180.0
  0
ARC
  5
407
330
1E
100
AcDbEntity
  8
STEMPEL
100
AcDbCircle
 10
253.4999999999999
 20
378.3444191650277
 30
0.0
 40
2.0
100
AcDbArc
 50
173.8085564205933
 51
180.0
  0
LINE
  5
408
330
1E
100
AcDbEntity
  8
STEMPEL
100
AcDbLine
 10
250.3948993142533
 20
382.1738832814539
 30
0.0
 11
250.0204152155787
 21
378.7218972809811
 31
0.0
  0
LINE
  5
409
330
1E
100
AcDbEntity
  8
STEMPEL
100
AcDbLine
 10
249.9999999999998
 20
383.6760626114253
 30
0.0
 11
249.9999999999998
 21
381.9523397412366
 31
0.0
  0
LINE
  5
40A
330
1E
100
AcDbEntity
  8
STEMPEL
100
AcDbLine
 10
251.8861499361481
 20
382.0121069460452
 30
0.0
 11
251.5116658374734
 21
378.5601209455725
 31
0.0
  0
LINE
  5
40B
330
1E
100
AcDbEntity
  8
STEMPEL
100
AcDbLine
 10
250.3948993142533
 20
382.1738832814539
 30
0.0
 11
251.8861499361481
 21
382.0121069460452
 31
0.0
  0
LINE
  5
40D
330
1E
100
AcDbEntity
  8
STEMPEL
100
AcDbLine
 10
198.1138500638516
 20
382.0121069460452
 30
0.0
 11
198.4883341625264
 21
378.5601209455725
 31
0.0
  0
ARC
  5
40E
330
1E
100
AcDbEntity
  8
STEMPEL
100
AcDbCircle
 10
196.4999999999999
 20
378.3444191650277
 30
0.0
 40
2.0
100
AcDbArc
 50
0.0
 51
6.191443579406635
  0
ARC
  5
40F
330
1E
100
AcDbEntity
  8
STEMPEL
100
AcDbCircle
 10
196.4999999999999
 20
378.3444191650277
 30
0.0
 40
3.5
100
AcDbArc
 50
0.0
 51
6.191443579406635
  0
LINE
  5
410
330
1E
100
AcDbEntity
  8
STEMPEL
100
AcDbLine
 10
199.6051006857465
 20
382.1738832814539
 30
0.0
 11
199.9795847844211
 21
378.7218972809811
 31
0.0
  0
LINE
  5
411
330
1E
100
AcDbEntity
  8
STEMPEL
100
AcDbLine
 10
199.6051006857465
 20
382.1738832814539
 30
0.0
 11
198.1138500638516
 21
382.0121069460452
 31
0.0
  0
LINE
  5
412
330
1E
100
AcDbEntity
  8
STEMPEL
100
AcDbLine
 10
199.9999999999999
 20
383.6760626114253
 30
0.0
 11
199.9999999999999
 21
381.9523397412366
 31
0.0
  0
LINE
  5
415
330
1E
100
AcDbEntity
  8
STEMPEL
100
AcDbLine
 10
199.9999999999999
 20
381.9523397412366
 30
0.0
 11
249.9999999999998
 21
381.9523397412366
 31
0.0
  0
LINE
  5
416
330
1E
100
AcDbEntity
  8
STEMPEL
100
AcDbLine
 10
199.9999999999999
 20
383.6760626114253
 30
0.0
 11
249.9999999999998
 21
383.6760626114253
 31
0.0
  0
ARC
  5
418
330
1E
100
AcDbEntity
  8
STEMPEL
100
AcDbCircle
 10
224.9999999999999
 20
426.9773328006475
 30
0.0
 40
51.5
100
AcDbArc
 50
299.0411004264532
 51
0.0
  0
ARC
  5
419
330
1E
100
AcDbEntity
  8
STEMPEL
100
AcDbCircle
 10
224.9999999999999
 20
426.9773328006475
 30
0.0
 40
50.0
100
AcDbArc
 50
300.0000000000005
 51
0.0
  0
LINE
  5
41C
330
1E
100
AcDbEntity
  8
STEMPEL
100
AcDbLine
 10
270.665465666671
 20
446.450356802298
 30
0.0
 11
320.9388987878052
 21
446.450356802298
 31
0.0
  0
LINE
  5
41F
330
1E
100
AcDbEntity
  8
STEMPEL
100
AcDbLine
 10
288.4346111120666
 20
443.4773328006474
 30
0.0
 11
324.8230904984968
 21
443.4773328006474
 31
0.0
  0
LINE
  5
420
330
1E
100
AcDbEntity
  8
STEMPEL
100
AcDbLine
 10
288.1467250075898
 20
443.6000696481825
 30
0.0
 11
320.8152391681943
 21
444.9478071018822
 31
0.0
  0
LINE
  5
421
330
1E
100
AcDbEntity
  8
STEMPEL
100
AcDbLine
 10
289.2546855933527
 20
445.1470544256189
 30
0.0
 11
320.7534093583889
 21
446.4465322516742
 31
0.0
  0
LINE
  5
423
330
1E
100
AcDbEntity
  8
STEMPEL
100
AcDbLine
 10
173.8652813759359
 20
439.9773328006475
 30
0.0
 11
168.839972870624
 21
439.9773328006475
 31
0.0
  0
LINE
  5
425
330
1E
100
AcDbEntity
  8
STEMPEL
100
AcDbLine
 10
176.7694587999335
 20
439.5399277488762
 30
0.0
 11
175.340352648547
 21
440.3650225700799
 31
0.0
  0
ARC
  5
426
330
1E
100
AcDbEntity
  8
STEMPEL
100
AcDbCircle
 10
173.8652813759359
 20
442.9773328006475
 30
0.0
 40
3.0
100
AcDbArc
 50
270.0
 51
330.0000000000001
  0
LINE
  5
427
330
1E
100
AcDbEntity
  8
STEMPEL
100
AcDbLine
 10
165.6579923552846
 20
439.795352285308
 30
0.0
 11
161.85327499241
 21
443.6000696481825
 31
0.0
  0
LINE
  5
428
330
1E
100
AcDbEntity
  8
STEMPEL
100
AcDbLine
 10
166.7186525270644
 20
440.8560124570879
 30
0.0
 11
163.7418054925702
 21
443.8328594915821
 31
0.0
  0
ARC
  5
429
330
1E
100
AcDbEntity
  8
STEMPEL
100
AcDbCircle
 10
160.5598249772306
 20
440.6508789762425
 30
0.0
 40
4.5
100
AcDbArc
 50
45.00000000000057
 51
87.63760592908976
  0
ARC
  5
42A
330
1E
100
AcDbEntity
  8
STEMPEL
100
AcDbCircle
 10
160.5598249772306
 20
440.6508789762425
 30
0.0
 40
3.0
100
AcDbArc
 50
45.00000000000057
 51
87.63760592908976
  0
ARC
  5
42B
330
1E
100
AcDbEntity
  8
STEMPEL
100
AcDbCircle
 10
168.839972870624
 20
442.9773328006475
 30
0.0
 40
4.5
100
AcDbArc
 50
225.0000000000006
 51
270.0
  0
ARC
  5
42C
330
1E
100
AcDbEntity
  8
STEMPEL
100
AcDbCircle
 10
168.839972870624
 20
442.9773328006475
 30
0.0
 40
3.0
100
AcDbArc
 50
225.0000000000003
 51
270.0
  0
LINE
  5
42D
330
1E
100
AcDbEntity
  8
STEMPEL
100
AcDbLine
 10
173.4999999999999
 20
426.9773328006475
 30
0.0
 11
173.4999999999999
 21
438.4773328006475
 31
0.0
  0
LINE
  5
42E
330
1E
100
AcDbEntity
  8
STEMPEL
100
AcDbLine
 10
174.9999999999999
 20
426.9773328006475
 30
0.0
 11
174.9999999999999
 21
438.4773328006475
 31
0.0
  0
ARC
  5
42F
330
1E
100
AcDbEntity
  8
STEMPEL
100
AcDbCircle
 10
129.0611012121944
 20
441.950356802298
 30
0.0
 40
3.0
100
AcDbArc
 50
87.63760592908976
 51
114.4953182524933
  0
LINE
  5
430
330
1E
100
AcDbEntity
  8
STEMPEL
100
AcDbLine
 10
125.1769095015029
 20
443.4773328006474
 30
0.0
 11
124.5549811716036
 21
444.84232553047
 31
0.0
  0
LINE
  5
431
330
1E
100
AcDbEntity
  8
STEMPEL
100
AcDbLine
 10
127.1953162224963
 20
446.0453349917657
 30
0.0
 11
124.5549811716036
 21
444.84232553047
 31
0.0
  0
ARC
  5
432
330
1E
100
AcDbEntity
  8
STEMPEL
100
AcDbCircle
 10
129.0611012121944
 20
441.950356802298
 30
0.0
 40
4.5
100
AcDbArc
 50
87.63760592908976
 51
114.4953182524947
  0
LINE
  5
433
330
1E
100
AcDbEntity
  8
STEMPEL
100
AcDbLine
 10
127.8172445523957
 20
444.6803422619431
 30
0.0
 11
125.1769095015029
 21
443.4773328006474
 31
0.0
  0
LINE
  5
434
330
1E
100
AcDbEntity
  8
STEMPEL
100
AcDbLine
 10
161.85327499241
 20
443.6000696481825
 30
0.0
 11
129.1847608318053
 21
444.9478071018822
 31
0.0
  0
LINE
  5
435
330
1E
100
AcDbEntity
  8
STEMPEL
100
AcDbLine
 10
160.745314406647
 20
445.1470544256189
 30
0.0
 11
129.2465906416107
 21
446.4465322516742
 31
0.0
  0
LINE
  5
436
330
1E
100
AcDbEntity
  8
STEMPEL
100
AcDbLine
 10
161.5653888879331
 20
443.4773328006474
 30
0.0
 11
125.1769095015029
 21
443.4773328006474
 31
0.0
  0
LINE
  5
439
330
1E
100
AcDbEntity
  8
STEMPEL
100
AcDbLine
 10
129.0611012121944
 20
446.450356802298
 30
0.0
 11
179.3345343333286
 21
446.450356802298
 31
0.0
  0
ARC
  5
43B
330
1E
100
AcDbEntity
  8
STEMPEL
100
AcDbCircle
 10
224.9999999999999
 20
426.9773328006475
 30
0.0
 40
51.5
100
AcDbArc
 50
180.0
 51
240.9588995735468
  0
ARC
  5
43C
330
1E
100
AcDbEntity
  8
STEMPEL
100
AcDbCircle
 10
224.9999999999999
 20
426.9773328006475
 30
0.0
 40
50.0
100
AcDbArc
 50
180.0
 51
239.9999999999991
  0
LINE
  5
43E
330
1E
100
AcDbEntity
  8
STEMPEL
100
AcDbLine
 10
281.1600271293755
 20
438.4773328006475
 30
0.0
 11
262.6446368738946
 21
438.4773328006475
 31
0.0
  0
LINE
  5
440
330
1E
100
AcDbEntity
  8
HILF
100
AcDbLine
 10
162.4999999999999
 20
445.0746649841524
 30
0.0
 11
178.5402782918003
 21
445.0746649841524
 31
0.0
  0
LINE
  5
441
330
1E
100
AcDbEntity
  8
STEMPEL
100
AcDbLine
 10
185.7009618943232
 20
457.4773328006474
 30
0.0
 11
176.4633575872892
 21
441.4773328006474
 31
0.0
  0
LINE
  5
442
330
1E
100
AcDbEntity
  8
MITTEL
100
AcDbLine
 10
181.0980762113533
 20
440.504900936312
 30
0.0
 11
174.6028856829698
 21
444.254900936312
 31
0.0
  0
ARC
  5
443
330
1E
100
AcDbEntity
  8
STEMPEL
100
AcDbCircle
 10
173.8652813759359
 20
442.9773328006475
 30
0.0
 40
4.5
100
AcDbArc
 50
270.0
 51
330.0000000000001
  0
LINE
  5
447
330
1E
100
AcDbEntity
  8
STEMPEL
100
AcDbLine
 10
251.4999999999999
 20
199.1224584991526
 30
0.0
 11
250.9750680188444
 21
193.1224584991515
 31
0.0
  0
LINE
  5
448
330
1E
100
AcDbEntity
  8
STEMPEL
100
AcDbLine
 10
249.9999999999999
 20
199.1224584991528
 30
0.0
 11
249.4750680188444
 21
193.1224584991516
 31
0.0
  0
LINE
  5
449
330
1E
100
AcDbEntity
  8
STEMPEL
100
AcDbLine
 10
199.9999999999999
 20
199.12245849915
 30
0.0
 11
200.5249319811553
 21
193.1224584991516
 31
0.0
  0
LINE
  5
44A
330
1E
100
AcDbEntity
  8
STEMPEL
100
AcDbLine
 10
198.4999999999999
 20
199.122458499151
 30
0.0
 11
199.0249319811554
 21
193.1224584991515
 31
0.0
  0
DIMENSION
  5
44B
330
1E
100
AcDbEntity
  8
BEM
100
AcDbDimension
  2
*D1
 10
251.4999999999999
 20
172.9548891656544
 30
0.0
 11
224.9999999999999
 21
179.4548891656543
 31
0.0
 70
    32
  1
%%c<>
 71
     5
 42
53.0
  3
Standard
100
AcDbAlignedDimension
 13
198.4999999999999
 23
199.122458499151
 33
0.0
 14
251.4999999999999
 24
199.1224584991526
 34
0.0
100
AcDbRotatedDimension
1001
ACAD
1000
DSTYLE
1002
{
1070
    40
1040
2.0
1070
    41
1040
3.5
1070
    42
1040
1.0
1070
    43
1040
7.0
1070
    44
1040
1.0
1070
    73
1070
     0
1070
    74
1070
     0
1070
    77
1070
     1
1070
    78
1070
     8
1070
    79
1070
     2
1070
   140
1040
3.5
1070
   141
1040
1.5
1070
   146
1040
0.5142857142857144
1070
   147
1040
1.5
1070
   172
1070
     1
1070
   178
1070
     1
1070
   179
1070
     2
1070
   271
1070
     2
1070
   272
1070
     2
1070
   284
1070
     8
1070
   285
1070
     8
1070
   286
1070
     8
1002
}
  0
LINE
  5
44C
330
1E
100
AcDbEntity
  8
STEMPEL
100
AcDbLine
 10
250.9750680188444
 20
193.1224584991517
 30
0.0
 11
199.0249319811554
 21
193.1224584991515
 31
0.0
  0
LINE
  5
44D
330
1E
100
AcDbEntity
  8
HILF
100
AcDbLine
 10
249.6087500136773
 20
199.1224584991515
 30
0.0
 11
200.2037670957945
 21
199.1224584991516
 31
0.0
  0
LINE
  5
454
330
1E
100
AcDbEntity
  8
MITTEL
100
AcDbLine
 10
225.0
 20
473.4773328006474
 30
0.0
 11
224.9999999999999
 21
188.1224584991516
 31
0.0
  0
LINE
  5
455
330
1E
100
AcDbEntity
  8
STEMPEL
100
AcDbLine
 10
251.4999999999999
 20
378.4525855180739
 30
0.0
 11
251.4999999999999
 21
199.1224584991526
 31
0.0
  0
LINE
  5
456
330
1E
100
AcDbEntity
  8
STEMPEL
100
AcDbLine
 10
249.9999999999999
 20
378.4525855180739
 30
0.0
 11
249.9999999999999
 21
199.1224584991528
 31
0.0
  0
LINE
  5
457
330
1E
100
AcDbEntity
  8
STEMPEL
100
AcDbLine
 10
199.9999999999998
 20
378.3444191650277
 30
0.0
 11
199.9999999999999
 21
199.12245849915
 31
0.0
  0
LINE
  5
458
330
1E
100
AcDbEntity
  8
STEMPEL
100
AcDbLine
 10
198.4999999999999
 20
378.3444191650277
 30
0.0
 11
198.4999999999999
 21
199.122458499151
 31
0.0
  0
HATCH
  5
824
330
1E
100
AcDbEntity
  8
SCHRAFF
100
AcDbHatch
 10
0.0
 20
0.0
 30
0.0
210
0.0
220
0.0
230
1.0
  2
_USER
 70
     0
 71
     0
 91
        2
 92
        7
 72
     1
 73
     1
 93
        9
 10
251.5
 20
378.4525855180741
 42
0.0
 10
251.8861499361481
 20
382.0121069460452
 42
0.0
 10
250.3948993142533
 20
382.1738832814538
 42
0.0
 10
250.0204152155787
 20
378.7218972809811
 42
0.0270218430346072
 10
249.9999999999999
 20
378.3444191650273
 42
0.0
 10
249.9999999999999
 20
199.1224584991531
 42
0.0
 10
249.4750680188444
 20
193.1224584991517
 42
0.0
 10
250.9750680188444
 20
193.1224584991518
 42
0.0
 10
251.4999999999999
 20
199.1224584991524
 42
0.0
 97
        0
 92
        7
 72
     1
 73
     1
 93
        9
 10
199.9999999999998
 20
378.3444191650277
 42
0.0270218430345783
 10
199.9795847844211
 20
378.7218972809811
 42
0.0
 10
199.6051006857465
 20
382.1738832814538
 42
0.0
 10
198.1138500638516
 20
382.0121069460453
 42
0.0
 10
198.4999999999999
 20
378.4525855180739
 42
0.0
 10
198.4999999999999
 20
199.122458499151
 42
0.0
 10
199.0249319811555
 20
193.1224584991516
 42
0.0
 10
200.5249319811553
 20
193.1224584991516
 42
0.0
 10
200.0
 20
199.1224584991497
 42
0.0
 97
        0
 75
     0
 76
     0
 52
45.0
 41
2.0
 77
     0
 78
     1
 53
45.0
 43
17.73343128150421
 44
0.0
 45
-1.414213562373094
 46
1.414213562373095
 79
     0
 47
0.5682962119908149
 98
        2
 10
250.5000061959031
 20
362.6894541280535
 10
199.3171723742385
 20
354.7333065486512
  0
HATCH
  5
851
330
1E
100
AcDbEntity
  8
SCHRAFF
100
AcDbHatch
 10
0.0
 20
0.0
 30
0.0
210
0.0
220
0.0
230
1.0
  2
_USER
 70
     0
 71
     0
 91
        4
 92
        7
 72
     1
 73
     1
 93
       18
 10
284.342007644715
 20
439.7953522853078
 42
0.0
 10
287.3188546792095
 20
442.7721993198022
 42
-0.1882181836573042
 10
289.3165154031583
 20
443.6483292758269
 42
0.0
 10
320.8152391681943
 20
444.9478071018822
 42
-0.1177283015268956
 10
322.182755447604
 20
444.6803422619431
 42
0.0
 10
324.8230904984968
 20
443.4773328006474
 42
0.0
 10
325.4450188283962
 20
444.84232553047
 42
0.0
 10
322.8046837775033
 20
446.0453349917658
 42
0.1177283015268987
 10
320.7534093583889
 20
446.4465322516742
 42
0.0
 10
289.2546855933527
 20
445.1470544256189
 42
0.1882181836572899
 10
286.2581945074296
 20
443.8328594915821
 42
0.0
 10
283.2813474729352
 20
440.8560124570876
 42
-0.198912367379672
 10
281.1600271293754
 20
439.9773328006473
 42
0.0
 10
276.1347186240636
 20
439.9773328006475
 42
-0.1292196001266739
 10
274.6596473514544
 20
440.3650225700809
 42
0.0
 10
273.230541200066
 20
439.5399277488762
 42
0.1771982469998009
 10
276.1347186240637
 20
438.4773328006475
 42
0.0
 10
281.1600271293755
 20
438.4773328006475
 42
0.1989123673796467
 97
        0
 92
        7
 72
     0
 73
     1
 93
        4
 10
264.2990381056764
 20
457.4773328006474
 10
262.9999999999998
 20
456.7273328006475
 10
269.9999999999998
 20
444.6029771476654
 10
271.2990381056765
 20
445.3529771476653
 97
        0
 92
        7
 72
     0
 73
     1
 93
        4
 10
186.9999999999999
 20
456.7273328006475
 10
185.7009618943232
 20
457.4773328006474
 10
178.7009618943232
 20
445.3529771476653
 10
180.0
 20
444.6029771476653
 97
        0
 92
        7
 72
     1
 73
     1
 93
       18
 10
176.7694587999335
 20
439.5399277488762
 42
0.0
 10
175.3403526485451
 20
440.3650225700808
 42
-0.1292196001266748
 10
173.8652813759359
 20
439.9773328006475
 42
0.0
 10
168.839972870624
 20
439.9773328006475
 42
-0.1989123673796638
 10
166.7186525270643
 20
440.8560124570879
 42
0.0
 10
163.7418054925702
 20
443.8328594915821
 42
0.1882181836572901
 10
160.7453144066471
 20
445.1470544256189
 42
0.0
 10
129.2465906416107
 20
446.4465322516742
 42
0.1177283015269151
 10
127.1953162224961
 20
446.0453349917656
 42
0.0
 10
124.5549811716036
 20
444.84232553047
 42
0.0
 10
125.1769095015029
 20
443.4773328006475
 42
0.0
 10
127.8172445523957
 20
444.6803422619431
 42
-0.1177283015269049
 10
129.1847608318053
 20
444.9478071018822
 42
0.0
 10
160.6834845968416
 20
443.6483292758269
 42
-0.1882181836572898
 10
162.6811453207903
 20
442.7721993198022
 42
0.0
 10
165.6579923552846
 20
439.795352285308
 42
0.1989123673796553
 10
168.839972870624
 20
438.4773328006475
 42
0.0
 10
173.8652813759359
 20
438.4773328006475
 42
0.177198246999798
 97
        0
 75
     0
 76
     0
 52
45.0
 41
2.0
 77
     0
 78
     1
 53
45.0
 43
17.73343128150421
 44
0.0
 45
-1.414213562373094
 46
1.414213562373095
 79
     0
 47
0.3042393883041572
 98
        4
 10
278.9262969418787
 20
439.079372739867
 10
267.0525694805792
 20
450.6404703107998
 10
182.4141976704686
 20
449.7277521183409
 10
168.7137425715505
 20
439.3836116709
  0
HATCH
  5
85E
330
1E
100
AcDbEntity
  8
SCHRAFF
100
AcDbHatch
 10
0.0
 20
0.0
 30
0.0
210
0.0
220
0.0
230
1.0
  2
_USER
 70
     0
 71
     0
 91
        2
 92
        7
 72
     1
 73
     1
 93
        6
 10
276.5
 20
426.9773328006441
 42
0.0
 10
276.5
 20
438.4773328006475
 42
0.0
 10
274.9999999999999
 20
438.4773328006474
 42
0.0
 10
275.0
 20
426.9773328006481
 42
-0.267949192431127
 10
249.9999999999998
 20
383.6760626114255
 42
0.0
 10
249.9999999999998
 20
381.9523397412366
 42
0.2724386372896129
 97
        0
 92
        7
 72
     1
 73
     1
 93
        6
 10
174.9999999999999
 20
438.4773328006474
 42
0.0
 10
173.4999999999999
 20
438.4773328006474
 42
0.0
 10
173.4999999999999
 20
426.9773328006475
 42
0.27243863728963
 10
199.9999999999999
 20
381.9523397412366
 42
0.0
 10
199.9999999999999
 20
383.6760626114253
 42
-0.2679491924311228
 10
174.9999999999999
 20
426.9773328006472
 42
0.0
 97
        0
 75
     0
 76
     0
 52
135.0
 41
2.0
 77
     0
 78
     1
 53
135.0
 43
17.73343128150421
 44
0.0
 45
-1.414213562373095
 46
-1.414213562373094
 79
     0
 47
0.3042393883041572
 98
        2
 10
275.5772962729111
 20
426.3013180454422
 10
174.1939254844065
 20
432.3861064616214
  0
ARC
  5
85F
330
1E
100
AcDbEntity
  8
SCHRAFF
100
AcDbCircle
 10
276.4999999999998
 20
438.4773328006475
 30
0.0
 40
3.0
100
AcDbArc
 50
270.0
 51
0.0
  0
ARC
  5
860
330
1E
100
AcDbEntity
  8
SCHRAFF
100
AcDbCircle
 10
173.5
 20
438.4773328006475
 30
0.0
 40
3.0
100
AcDbArc
 50
180.0
 51
270.0
  0
HATCH
  5
867
330
1E
100
AcDbEntity
  8
SCHRAFF
100
AcDbHatch
 10
0.0
 20
0.0
 30
0.0
210
0.0
220
0.0
230
1.0
  2
_USER
 70
     0
 71
     0
 91
        2
 92
        7
 72
     1
 73
     1
 93
        3
 10
279.4999999999998
 20
438.4773328006475
 42
0.0
 10
276.4999999999998
 20
438.4773328006474
 42
0.0
 10
276.4999999999998
 20
435.4773328006475
 42
0.4142135623730951
 97
        0
 92
        7
 72
     1
 73
     1
 93
        3
 10
173.4999999999999
 20
438.4773328006475
 42
0.0
 10
170.5
 20
438.4773328006475
 42
0.4142135623730841
 10
173.4999999999999
 20
435.4773328006475
 42
0.0
 97
        0
 75
     0
 76
     0
 52
0.0
 41
0.1
 77
     0
 78
     1
 53
0.0
 43
17.73343128150421
 44
0.0
 45
0.0
 46
0.1
 79
     0
 47
0.2230651951757515
 98
        2
 10
277.6708747094795
 20
437.332886814443
 10
172.3096350284063
 20
437.332886814443
  0
ARC
  5
868
330
1E
100
AcDbEntity
  8
SCHRAFF
100
AcDbCircle
 10
249.9999999999994
 20
383.6760626114253
 30
0.0
 40
4.0
100
AcDbArc
 50
294.715939631184
 51
10.08504298720902
  0
ARC
  5
869
330
1E
100
AcDbEntity
  8
SCHRAFF
100
AcDbCircle
 10
200.0000000000004
 20
383.6760626114253
 30
0.0
 40
4.0
100
AcDbArc
 50
169.914957012791
 51
245.284060368816
  0
HATCH
  5
872
330
1E
100
AcDbEntity
  8
SCHRAFF
100
AcDbHatch
 10
0.0
 20
0.0
 30
0.0
210
0.0
220
0.0
230
1.0
  2
_USER
 70
     0
 71
     0
 91
        2
 92
        7
 72
     1
 73
     1
 93
        4
 10
253.9381957030316
 20
384.3765014771506
 42
-0.0202612604628159
 10
250.3948993142533
 20
382.1738832814539
 42
0.0
 10
251.8861499361481
 20
382.0121069460452
 42
0.0
 10
251.6724792149414
 20
380.0424950428245
 42
0.3412513386857079
 97
        0
 92
        7
 72
     1
 73
     1
 93
        4
 10
196.0618042969682
 20
384.3765014771506
 42
0.3412513386856999
 10
198.3275207850584
 20
380.0424950428245
 42
0.0
 10
198.1138500638516
 20
382.0121069460451
 42
0.0
 10
199.6051006857464
 20
382.1738832814539
 42
-0.0202612604628157
 97
        0
 75
     0
 76
     0
 52
0.0
 41
0.1
 77
     0
 78
     1
 53
0.0
 43
17.73343128150421
 44
0.0
 45
0.0
 46
0.1
 79
     0
 47
0.2072883707469252
 98
        2
 10
252.4706365130319
 20
382.2735466782015
 10
196.6706275931501
 20
382.688123700669
  0
TEXT
  5
873
330
1E
100
AcDbEntity
  8
TEXT
 62
     1
100
AcDbText
 10
217.9182441619524
 20
282.2532702472445
 30
0.0
 40
7.0
  1
DN50
 50
90.0
 41
0.8
  7
GREEKS
100
AcDbText
  0
LINE
  5
B49
330
1E
100
AcDbEntity
  8
STEMPEL
100
AcDbLine
 10
262.5560073525184
 20
437.360996810357
 30
0.0
 11
261.4999999999999
 21
437.360996810357
 31
0.0
  0
LINE
  5
B4B
330
1E
100
AcDbEntity
  8
STEMPEL
100
AcDbLine
 10
263.3970615154279
 20
462.4773328006475
 30
0.0
 11
261.4999999999999
 21
462.4773328006475
 31
0.0
  0
LINE
  5
B54
330
1E
100
AcDbEntity
  8
STEMPEL
100
AcDbLine
 10
184.9999999999999
 20
451.9823779617383
 30
0.0
 11
184.9999999999999
 21
450.8773328006475
 31
0.0
  0
LINE
  5
B55
330
1E
100
AcDbEntity
  8
STEMPEL
100
AcDbLine
 10
188.4999999999999
 20
456.4773328006475
 30
0.0
 11
188.4999999999999
 21
437.3609968103569
 31
0.0
  0
ARC
  5
B57
330
1E
100
AcDbEntity
  8
STEMPEL
100
AcDbCircle
 10
186.11635382117
 20
443.5773328006475
 30
0.0
 40
0.9
100
AcDbArc
 50
4.682416862268558
 51
151.6449939715894
  0
LINE
  5
B58
330
1E
100
AcDbEntity
  8
STEMPEL
100
AcDbLine
 10
182.6999999999999
 20
442.4773328006475
 30
0.0
 11
184.9999999999999
 21
446.4773328006475
 31
0.0
  0
LINE
  5
B59
330
1E
100
AcDbEntity
  8
STEMPEL
100
AcDbLine
 10
182.6999999999999
 20
442.4773328006475
 30
0.0
 11
184.4999999999999
 21
442.4773328006475
 31
0.0
  0
LINE
  5
B5A
330
1E
100
AcDbEntity
  8
STEMPEL
100
AcDbLine
 10
184.4999999999999
 20
442.4773328006475
 30
0.0
 11
185.3243341958308
 21
444.0047727532463
 31
0.0
  0
LINE
  5
B5B
330
1E
100
AcDbEntity
  8
STEMPEL
100
AcDbLine
 10
183.5999999999999
 20
449.4773328006475
 30
0.0
 11
184.9999999999999
 21
450.8773328006475
 31
0.0
  0
LINE
  5
B5C
330
1E
100
AcDbEntity
  8
STEMPEL
100
AcDbLine
 10
183.5999999999999
 20
448.4773328006475
 30
0.0
 11
184.9999999999999
 21
447.0773328006475
 31
0.0
  0
LINE
  5
B5D
330
1E
100
AcDbEntity
  8
STEMPEL
100
AcDbLine
 10
183.5999999999999
 20
449.4773328006475
 30
0.0
 11
183.5999999999999
 21
448.4773328006475
 31
0.0
  0
LINE
  5
B5E
330
1E
100
AcDbEntity
  8
STEMPEL
100
AcDbLine
 10
184.9999999999999
 20
447.0773328006475
 30
0.0
 11
184.9999999999999
 21
446.4773328006475
 31
0.0
  0
ARC
  5
B61
330
1E
100
AcDbEntity
  8
STEMPEL
100
AcDbCircle
 10
186.6029384845719
 20
461.4773328006475
 30
0.0
 40
1.0
100
AcDbArc
 50
10.00000000000181
 51
150.588086334471
  0
LINE
  5
B62
330
1E
100
AcDbEntity
  8
STEMPEL
100
AcDbLine
 10
186.2613941852407
 20
455.4480300027186
 30
0.0
 11
184.9999999999999
 21
451.9823779617383
 31
0.0
  0
ARC
  5
B63
330
1E
100
AcDbEntity
  8
STEMPEL
100
AcDbCircle
 10
186.2859259966289
 20
456.9773328006475
 30
0.0
 40
0.5
100
AcDbArc
 50
346.3235567027737
 51
90.0
  0
LINE
  5
B64
330
1E
100
AcDbEntity
  8
STEMPEL
100
AcDbLine
 10
183.1999999999999
 20
457.4773328006475
 30
0.0
 11
185.7318267672226
 21
461.9684176974799
 31
0.0
  0
LINE
  5
B65
330
1E
100
AcDbEntity
  8
STEMPEL
100
AcDbLine
 10
183.1999999999999
 20
457.4773328006475
 30
0.0
 11
186.2859259966289
 21
457.4773328006475
 31
0.0
  0
LINE
  5
B66
330
1E
100
AcDbEntity
  8
STEMPEL
100
AcDbLine
 10
188.4999999999999
 20
456.4773328006475
 30
0.0
 11
187.587746237584
 21
461.6509809783145
 31
0.0
  0
LINE
  5
B6B
330
1E
100
AcDbEntity
  8
STEMPEL
100
AcDbLine
 10
264.9999999999999
 20
451.9823779617383
 30
0.0
 11
264.9999999999999
 21
450.8773328006475
 31
0.0
  0
LINE
  5
B6C
330
1E
100
AcDbEntity
  8
STEMPEL
100
AcDbLine
 10
261.4999999999999
 20
456.4773328006475
 30
0.0
 11
261.4999999999999
 21
437.3609968103571
 31
0.0
  0
LINE
  5
B6D
330
1E
100
AcDbEntity
  8
STEMPEL
100
AcDbLine
 10
267.3
 20
442.4773328006475
 30
0.0
 11
265.0
 21
446.4773328006475
 31
0.0
  0
ARC
  5
B6F
330
1E
100
AcDbEntity
  8
STEMPEL
100
AcDbCircle
 10
263.8836461788299
 20
443.5773328006475
 30
0.0
 40
0.9
100
AcDbArc
 50
28.35500602841055
 51
175.3175831377314
  0
ARC
  5
B70
330
1E
100
AcDbEntity
  8
STEMPEL
100
AcDbCircle
 10
24.78861816753442
 20
456.7998043993935
 30
0.0
 40
238.5606811700688
100
AcDbArc
 50
355.326145898449
 51
356.8403665142375
  0
LINE
  5
B71
330
1E
100
AcDbEntity
  8
STEMPEL
100
AcDbLine
 10
267.3
 20
442.4773328006475
 30
0.0
 11
262.9189719816384
 21
442.4773328006475
 31
0.0
  0
LINE
  5
B72
330
1E
100
AcDbEntity
  8
STEMPEL
100
AcDbLine
 10
265.4999999999999
 20
442.4773328006475
 30
0.0
 11
264.6756658041689
 21
444.0047727532463
 31
0.0
  0
LINE
  5
B73
330
1E
100
AcDbEntity
  8
STEMPEL
100
AcDbLine
 10
266.4
 20
448.4773328006475
 30
0.0
 11
265.0
 21
447.0773328006475
 31
0.0
  0
LINE
  5
B74
330
1E
100
AcDbEntity
  8
STEMPEL
100
AcDbLine
 10
266.4
 20
449.4773328006475
 30
0.0
 11
266.4
 21
448.4773328006475
 31
0.0
  0
LINE
  5
B75
330
1E
100
AcDbEntity
  8
STEMPEL
100
AcDbLine
 10
265.0
 20
447.0773328006475
 30
0.0
 11
265.0
 21
446.4773328006475
 31
0.0
  0
LINE
  5
B76
330
1E
100
AcDbEntity
  8
STEMPEL
100
AcDbLine
 10
266.4
 20
449.4773328006475
 30
0.0
 11
264.9999999999999
 21
450.8773328006475
 31
0.0
  0
LINE
  5
B77
330
1E
100
AcDbEntity
  8
STEMPEL
100
AcDbLine
 10
261.4999999999999
 20
456.4773328006475
 30
0.0
 11
262.4122537624157
 21
461.6509809783145
 31
0.0
  0
LINE
  5
B79
330
1E
100
AcDbEntity
  8
STEMPEL
100
AcDbLine
 10
263.7386058147594
 20
455.4480300027179
 30
0.0
 11
264.9999999999999
 21
451.9823779617383
 31
0.0
  0
ARC
  5
B7A
330
1E
100
AcDbEntity
  8
STEMPEL
100
AcDbCircle
 10
263.3970615154279
 20
461.4773328006475
 30
0.0
 40
1.0
100
AcDbArc
 50
29.411913665529
 51
169.9999999999981
  0
LINE
  5
B7B
330
1E
100
AcDbEntity
  8
STEMPEL
100
AcDbLine
 10
266.8
 20
457.4773328006475
 30
0.0
 11
264.2681732327773
 21
461.9684176974799
 31
0.0
  0
LINE
  5
B7C
330
1E
100
AcDbEntity
  8
STEMPEL
100
AcDbLine
 10
266.8
 20
457.4773328006475
 30
0.0
 11
263.714074003371
 21
457.4773328006475
 31
0.0
  0
ARC
  5
D37
330
1E
100
AcDbEntity
  8
STEMPEL
100
AcDbCircle
 10
263.7140740033709
 20
456.9773328006475
 30
0.0
 40
0.5
100
AcDbArc
 50
90.0
 51
193.6764432972256
  0
ARC
  5
D38
330
1E
100
AcDbEntity
  8
STEMPEL
100
AcDbCircle
 10
425.2113818324653
 20
456.7998043993935
 30
0.0
 40
238.5606811700688
100
AcDbArc
 50
183.1596334857625
 51
184.673854101551
  0
LINE
  5
D39
330
1E
100
AcDbEntity
  8
STEMPEL
100
AcDbLine
 10
187.3553631261052
 20
438.4773328006475
 30
0.0
 11
168.839972870624
 21
438.4773328006475
 31
0.0
  0
HATCH
  5
D62
330
1E
100
AcDbEntity
  8
SCHRAFF
100
AcDbHatch
 10
0.0
 20
0.0
 30
0.0
210
0.0
220
0.0
230
1.0
  2
NET
 70
     0
 71
     0
 91
        2
 92
        7
 72
     1
 73
     1
 93
       20
 10
264.9999999999999
 20
451.9823779617382
 42
0.0
 10
263.7386058147594
 20
455.4480300027178
 42
0.0
 10
262.9999999999999
 20
456.7273328006475
 42
0.0
 10
263.2282507973731
 20
456.8591134599537
 42
-0.485986168343762
 10
263.714074003371
 20
457.4773328006475
 42
0.0
 10
266.8
 20
457.4773328006475
 42
0.0
 10
264.2681732327773
 20
461.9684176974799
 42
0.7040385315424552
 10
262.4122537624157
 20
461.6509809783145
 42
0.0
 10
261.4999999999999
 20
456.4773328006475
 42
0.0
 10
261.5
 20
437.360996810357
 42
0.0
 10
262.5560073525184
 20
437.360996810357
 42
0.0065571884227471
 10
262.9840185768613
 20
443.6032205926777
 42
-0.7673041015612464
 10
264.6756658041689
 20
444.0047727532463
 42
0.0
 10
265.4999999999999
 20
442.4773328006475
 42
0.0
 10
267.3
 20
442.4773328006475
 42
0.0
 10
265.0
 20
446.4773328006475
 42
0.0
 10
265.0
 20
447.0773328006475
 42
0.0
 10
266.4
 20
448.4773328006475
 42
0.0
 10
266.4000000000001
 20
449.4773328006474
 42
0.0
 10
264.9999999999999
 20
450.8773328006475
 42
0.0
 97
        0
 92
        7
 72
     1
 73
     1
 93
       20
 10
188.4999999999999
 20
456.4773328006475
 42
0.0
 10
187.587746237584
 20
461.6509809783145
 42
0.7040385315423309
 10
185.7318267672226
 20
461.9684176974799
 42
0.0
 10
183.1999999999999
 20
457.4773328006475
 42
0.0
 10
186.2859259966289
 20
457.4773328006475
 42
-0.4859861683436781
 10
186.7717492026266
 20
456.8591134599537
 42
0.0
 10
186.9999999999999
 20
456.7273328006475
 42
0.0
 10
186.2613941852407
 20
455.4480300027188
 42
0.0
 10
184.9999999999999
 20
451.9823779617383
 42
0.0
 10
184.9999999999999
 20
450.8773328006476
 42
0.0
 10
183.5999999999999
 20
449.4773328006474
 42
0.0
 10
183.5999999999999
 20
448.4773328006475
 42
0.0
 10
184.9999999999999
 20
447.0773328006475
 42
0.0
 10
184.9999999999999
 20
446.4773328006475
 42
0.0
 10
182.6999999999999
 20
442.4773328006475
 42
0.0
 10
184.4999999999999
 20
442.4773328006476
 42
0.0
 10
185.3243341958308
 20
444.0047727532463
 42
-0.7673041015639809
 10
187.0159814231388
 20
443.603220592672
 42
0.0065571884227412
 10
187.4439926474814
 20
437.360996810357
 42
0.0
 10
188.4999999999999
 20
437.360996810357
 42
0.0
 97
        0
 75
     0
 76
     1
 52
45.0
 41
10.0
 77
     0
 78
     2
 53
45.0
 43
0.0
 44
0.0
 45
-0.8838834764831842
 46
0.8838834764831844
 79
     0
 53
135.0
 43
0.0
 44
0.0
 45
-0.8838834764831844
 46
-0.8838834764831842
 79
     0
 47
0.1816684602659492
 98
        2
 10
262.9484339673304
 20
451.0199194112417
 10
187.5026985922445
 20
453.0182729066564
  0
HATCH
  5
D9F
330
1E
100
AcDbEntity
  8
SCHRAFF
100
AcDbHatch
 10
0.0
 20
0.0
 30
0.0
210
0.0
220
0.0
230
1.0
  2
NET
 70
     0
 71
     0
 91
        6
 92
        7
 72
     0
 73
     1
 93
       10
 10
261.4999999999999
 20
463.4773328006475
 10
266.0
 20
463.4773328006475
 10
266.0
 20
468.4773328006473
 10
260.4999999999999
 20
468.4773328006473
 10
260.4999999999999
 20
467.4773328006473
 10
251.8700576850887
 20
467.4773328006473
 10
251.8700576850888
 20
461.4773328006473
 10
258.0
 20
461.4773328006473
 10
259.2571477017029
 20
423.4773328006474
 10
261.4999999999999
 20
423.4773328006475
 97
        0
 92
        7
 72
     0
 73
     1
 93
        4
 10
241.9705627484771
 20
467.4773328006473
 10
237.7279220613578
 20
467.4773328006474
 10
237.7279220613578
 20
461.4773328006473
 10
241.970562748477
 20
461.4773328006473
 97
        0
 92
        7
 72
     0
 73
     1
 93
        4
 10
225.0
 20
461.4773328006474
 10
229.278174593052
 20
461.4773328006474
 10
229.2781745930519
 20
467.4773328006473
 10
224.9999999999999
 20
467.4773328006472
 97
        0
 92
        7
 72
     0
 73
     1
 93
        4
 10
221.356759488335
 20
461.4773328006474
 10
225.0
 20
461.4773328006474
 10
225.0
 20
467.4773328006473
 10
221.356759488335
 20
467.4773328006473
 97
        0
 92
        7
 72
     0
 73
     1
 93
        4
 10
209.443650813896
 20
461.4773328006473
 10
213.6862915010152
 20
461.4773328006473
 10
213.6862915010152
 20
467.4773328006474
 10
209.4436508138959
 20
467.4773328006473
 97
        0
 92
        7
 72
     0
 73
     1
 93
       10
 10
199.5441558772842
 20
461.4773328006474
 10
199.5441558772842
 20
467.4773328006475
 10
189.4999999999999
 20
467.4773328006475
 10
189.4999999999999
 20
468.4773328006476
 10
183.9999999999999
 20
468.4773328006474
 10
183.9999999999999
 20
463.4773328006475
 10
188.4999999999999
 20
463.4773328006475
 10
188.4999999999999
 20
423.4773328006474
 10
190.742852298297
 20
423.4773328006474
 10
191.9999999999999
 20
461.4773328006474
 97
        0
 75
     0
 76
     1
 52
45.0
 41
15.0
 77
     0
 78
     2
 53
45.0
 43
118.8701193472905
 44
199.4582439591325
 45
-1.325825214724776
 46
1.325825214724776
 79
     0
 53
135.0
 43
118.8701193472905
 44
199.4582439591325
 45
-1.325825214724776
 46
-1.325825214724776
 79
     0
 47
0.202624019147231
 98
        6
 10
260.0314622603896
 20
464.6475598191847
 10
240.1602634886669
 20
464.6475598191847
 10
226.9803868099075
 20
464.0396874954298
 10
222.3167386599059
 20
464.2423113621947
 10
211.1645347953961
 20
464.2423113621947
 10
196.3625191880096
 20
464.0396874954298
  0
LINE
  5
DA0
330
1E
100
AcDbEntity
  8
STEMPEL
100
AcDbLine
 10
188.4999999999999
 20
423.4773328006474
 30
0.0
 11
261.4999999999999
 21
423.4773328006474
 31
0.0
  0
LINE
  5
DA1
330
1E
100
AcDbEntity
  8
STEMPEL
100
AcDbLine
 10
191.9999999999999
 20
461.4773328006474
 30
0.0
 11
258.0
 21
461.4773328006473
 31
0.0
  0
LINE
  5
DA2
330
1E
100
AcDbEntity
  8
STEMPEL
100
AcDbLine
 10
189.4999999999999
 20
467.4773328006475
 30
0.0
 11
260.4999999999999
 21
467.4773328006473
 31
0.0
  0
LINE
  5
DA3
330
1E
100
AcDbEntity
  8
STEMPEL
100
AcDbLine
 10
184.0
 20
468.4773328006476
 30
0.0
 11
266.0
 21
468.4773328006472
 31
0.0
  0
LINE
  5
DA4
330
1E
100
AcDbEntity
  8
STEMPEL
100
AcDbLine
 10
188.4999999999999
 20
423.4773328006474
 30
0.0
 11
188.4999999999999
 21
463.4773328006475
 31
0.0
  0
LINE
  5
DA5
330
1E
100
AcDbEntity
  8
STEMPEL
100
AcDbLine
 10
191.9999999999999
 20
461.4773328006474
 30
0.0
 11
190.742852298297
 21
423.4773328006474
 31
0.0
  0
LINE
  5
DA6
330
1E
100
AcDbEntity
  8
STEMPEL
100
AcDbLine
 10
183.9999999999999
 20
463.4773328006475
 30
0.0
 11
183.9999999999999
 21
468.4773328006476
 31
0.0
  0
LINE
  5
DA7
330
1E
100
AcDbEntity
  8
STEMPEL
100
AcDbLine
 10
183.9999999999999
 20
463.4773328006475
 30
0.0
 11
188.4999999999999
 21
463.4773328006475
 31
0.0
  0
POINT
  5
DA8
330
1E
100
AcDbEntity
  8
SCHRAFF
  6
ByBlock
 62
     0
100
AcDbPoint
 10
183.9999999999999
 20
463.4773328006475
 30
0.0
  0
LINE
  5
DAA
330
1E
100
AcDbEntity
  8
STEMPEL
100
AcDbLine
 10
189.4999999999999
 20
467.4773328006475
 30
0.0
 11
189.4999999999999
 21
468.4773328006476
 31
0.0
  0
LINE
  5
DAB
330
1E
100
AcDbEntity
  8
STEMPEL
100
AcDbLine
 10
199.5441558772842
 20
461.4773328006473
 30
0.0
 11
199.5441558772842
 21
467.4773328006475
 31
0.0
  0
POINT
  5
DAC
330
1E
100
AcDbEntity
  8
SCHRAFF
  6
ByBlock
 62
     0
100
AcDbPoint
 10
191.9999999999999
 20
461.4773328006474
 30
0.0
  0
LINE
  5
DAD
330
1E
100
AcDbEntity
  8
STEMPEL
100
AcDbLine
 10
213.6862915010152
 20
461.4773328006474
 30
0.0
 11
213.6862915010152
 21
467.4773328006473
 31
0.0
  0
LINE
  5
DAE
330
1E
100
AcDbEntity
  8
STEMPEL
100
AcDbLine
 10
209.4436508138959
 20
461.4773328006473
 30
0.0
 11
209.4436508138959
 21
467.4773328006475
 31
0.0
  0
LINE
  5
DAF
330
1E
100
AcDbEntity
  8
STEMPEL
100
AcDbLine
 10
221.356759488335
 20
461.4773328006474
 30
0.0
 11
221.356759488335
 21
467.4773328006473
 31
0.0
  0
LINE
  5
DB1
330
1E
100
AcDbEntity
  8
STEMPEL
100
AcDbLine
 10
258.0
 20
461.4773328006473
 30
0.0
 11
259.2571477017029
 21
423.4773328006474
 31
0.0
  0
LINE
  5
DB2
330
1E
100
AcDbEntity
  8
STEMPEL
100
AcDbLine
 10
261.4999999999999
 20
423.4773328006474
 30
0.0
 11
261.4999999999999
 21
463.4773328006475
 31
0.0
  0
LINE
  5
DB3
330
1E
100
AcDbEntity
  8
STEMPEL
100
AcDbLine
 10
229.278174593052
 20
461.4773328006473
 30
0.0
 11
229.278174593052
 21
467.4773328006473
 31
0.0
  0
LINE
  5
DB4
330
1E
100
AcDbEntity
  8
STEMPEL
100
AcDbLine
 10
237.7279220613578
 20
461.4773328006473
 30
0.0
 11
237.7279220613578
 21
467.4773328006473
 31
0.0
  0
LINE
  5
DB5
330
1E
100
AcDbEntity
  8
STEMPEL
100
AcDbLine
 10
241.9705627484771
 20
461.4773328006473
 30
0.0
 11
241.9705627484771
 21
467.4773328006473
 31
0.0
  0
LINE
  5
DB6
330
1E
100
AcDbEntity
  8
STEMPEL
100
AcDbLine
 10
251.8700576850888
 20
461.4773328006473
 30
0.0
 11
251.8700576850888
 21
467.4773328006473
 31
0.0
  0
LINE
  5
DB7
330
1E
100
AcDbEntity
  8
STEMPEL
100
AcDbLine
 10
266.0
 20
463.4773328006475
 30
0.0
 11
266.0
 21
468.4773328006473
 31
0.0
  0
LINE
  5
DB8
330
1E
100
AcDbEntity
  8
STEMPEL
100
AcDbLine
 10
261.4999999999999
 20
463.4773328006475
 30
0.0
 11
266.0
 21
463.4773328006475
 31
0.0
  0
POINT
  5
DB9
330
1E
100
AcDbEntity
  8
SCHRAFF
  6
ByBlock
 62
     0
100
AcDbPoint
 10
258.0
 20
461.4773328006474
 30
0.0
  0
POINT
  5
DBA
330
1E
100
AcDbEntity
  8
SCHRAFF
  6
ByBlock
 62
     0
100
AcDbPoint
 10
258.0
 20
461.4773328006474
 30
0.0
  0
LINE
  5
DBC
330
1E
100
AcDbEntity
  8
STEMPEL
100
AcDbLine
 10
260.4999999999999
 20
467.4773328006473
 30
0.0
 11
260.4999999999999
 21
468.4773328006473
 31
0.0
  0
LINE
  5
DBE
330
1E
100
AcDbEntity
  8
STEMPEL
100
AcDbLine
 10
188.4999999999999
 20
437.360996810357
 30
0.0
 11
187.4439926474814
 21
437.360996810357
 31
0.0
  0
LINE
  5
DBF
330
1E
100
AcDbEntity
  8
STEMPEL
100
AcDbLine
 10
188.4999999999999
 20
462.4773328006475
 30
0.0
 11
186.6029384845719
 21
462.4773328006475
 31
0.0
  0
DIMENSION
  5
DD9
330
1E
100
AcDbEntity
  8
BEM
100
AcDbDimension
  2
*D2
 10
115.6388088072967
 20
381.9523397412366
 30
0.0
 11
109.1388088072967
 21
412.714836270942
 31
0.0
 70
    32
  1
61
 71
     5
 42
61.52499305941081
  3
Standard
100
AcDbAlignedDimension
 13
125.1769095015029
 23
443.4773328006474
 33
0.0
 14
199.9999999999999
 24
381.9523397412366
 34
0.0
 50
90.0
100
AcDbRotatedDimension
1001
ACAD
1000
DSTYLE
1002
{
1070
    40
1040
2.0
1070
    41
1040
3.5
1070
    42
1040
1.0
1070
    43
1040
7.0
1070
    44
1040
1.0
1070
    73
1070
     0
1070
    74
1070
     0
1070
    77
1070
     1
1070
    78
1070
     8
1070
    79
1070
     2
1070
   140
1040
3.5
1070
   141
1040
1.5
1070
   146
1040
0.5142857142857144
1070
   147
1040
1.5
1070
   172
1070
     1
1070
   178
1070
     1
1070
   179
1070
     2
1070
   271
1070
     2
1070
   272
1070
     2
1070
   284
1070
     8
1070
   285
1070
     8
1070
   286
1070
     8
1002
}
  0
DIMENSION
  5
DE6
330
1E
100
AcDbEntity
  8
BEM
100
AcDbDimension
  2
*D3
 10
100.3785910569149
 20
443.4773328006474
 30
0.0
 11
93.87859105691488
 21
318.2998956498996
 31
0.0
 70
    32
  1
250
 71
     5
 42
250.3548743014958
  3
Standard
100
AcDbAlignedDimension
 13
199.0249319811554
 23
193.1224584991515
 33
0.0
 14
125.1769095015029
 24
443.4773328006474
 34
0.0
 50
90.0
100
AcDbRotatedDimension
1001
ACAD
1000
DSTYLE
1002
{
1070
    40
1040
2.0
1070
    41
1040
3.5
1070
    42
1040
1.0
1070
    43
1040
7.0
1070
    44
1040
1.0
1070
    73
1070
     0
1070
    74
1070
     0
1070
    77
1070
     1
1070
    78
1070
     8
1070
    79
1070
     2
1070
   140
1040
3.5
1070
   141
1040
1.5
1070
   146
1040
0.5142857142857144
1070
   147
1040
1.5
1070
   172
1070
     1
1070
   178
1070
     1
1070
   179
1070
     2
1070
   271
1070
     2
1070
   272
1070
     2
1070
   284
1070
     8
1070
   285
1070
     8
1070
   286
1070
     8
1002
}
  0
DIMENSION
  5
DF3
330
1E
100
AcDbEntity
  8
BEM
100
AcDbDimension
  2
*D4
 10
100.3785910569149
 20
468.4773328006476
 30
0.0
 11
93.87859105691488
 21
455.9773328006476
 31
0.0
 70
    32
 71
     5
 42
25.00000000000023
  3
Standard
100
AcDbAlignedDimension
 13
125.1769095015029
 23
443.4773328006474
 33
0.0
 14
184.0
 24
468.4773328006476
 34
0.0
 50
90.0
100
AcDbRotatedDimension
1001
ACAD
1000
DSTYLE
1002
{
1070
   279
1070
     1
1070
    40
1040
2.0
1070
    41
1040
3.5
1070
    42
1040
1.0
1070
    43
1040
7.0
1070
    44
1040
1.0
1070
    73
1070
     0
1070
    74
1070
     0
1070
    77
1070
     1
1070
    78
1070
     8
1070
    79
1070
     2
1070
   140
1040
3.5
1070
   141
1040
1.5
1070
   146
1040
0.5142857142857144
1070
   147
1040
1.5
1070
   172
1070
     1
1070
   178
1070
     1
1070
   179
1070
     2
1070
   271
1070
     2
1070
   272
1070
     2
1070
   284
1070
     8
1070
   285
1070
     8
1070
   286
1070
     8
1002
}
  0
DIMENSION
  5
E12
330
1E
100
AcDbEntity
  8
BEM
100
AcDbDimension
  2
*D5
 10
115.6388088072968
 20
457.4773328006476
 30
0.0
 11
115.6388088072967
 21
450.4773328006475
 31
0.0
 70
   160
 71
     5
 42
14.00000000000017
  3
Standard
100
AcDbAlignedDimension
 13
125.1769095015029
 23
443.4773328006474
 33
0.0
 14
183.1999999999999
 24
457.4773328006475
 34
0.0
 50
90.0
100
AcDbRotatedDimension
1001
ACAD
1000
DSTYLE
1002
{
1070
    40
1040
2.0
1070
    41
1040
3.5
1070
    42
1040
1.0
1070
    43
1040
7.0
1070
    44
1040
1.0
1070
    73
1070
     0
1070
    74
1070
     0
1070
    77
1070
     1
1070
    78
1070
     8
1070
    79
1070
     2
1070
   140
1040
3.5
1070
   141
1040
1.5
1070
   146
1040
0.5142857142857144
1070
   147
1040
1.5
1070
   172
1070
     1
1070
   178
1070
     1
1070
   179
1070
     2
1070
   271
1070
     2
1070
   272
1070
     2
1070
   284
1070
     8
1070
   285
1070
     8
1070
   286
1070
     8
1002
}
  0
DIMENSION
  5
E42
330
1E
100
AcDbEntity
  8
BEM
100
AcDbDimension
  2
*D6
 10
173.5
 20
495.3054037506395
 30
0.0
 11
225.0
 21
501.8054037506394
 31
0.0
 70
    32
  1
%%c<>
 71
     5
 42
103.0
  3
Standard
100
AcDbAlignedDimension
 13
276.5
 23
438.4773328006475
 33
0.0
 14
173.5
 24
438.4773328006475
 34
0.0
100
AcDbRotatedDimension
1001
ACAD
1000
DSTYLE
1002
{
1070
    40
1040
2.0
1070
    41
1040
3.5
1070
    42
1040
1.0
1070
    43
1040
7.0
1070
    44
1040
1.0
1070
    73
1070
     0
1070
    74
1070
     0
1070
    77
1070
     1
1070
    78
1070
     8
1070
    79
1070
     2
1070
   140
1040
3.5
1070
   141
1040
1.5
1070
   146
1040
0.5142857142857144
1070
   147
1040
1.5
1070
   172
1070
     1
1070
   178
1070
     1
1070
   179
1070
     2
1070
   271
1070
     2
1070
   272
1070
     2
1070
   284
1070
     8
1070
   285
1070
     8
1070
   286
1070
     8
1002
}
  0
DIMENSION
  5
E5C
330
1E
100
AcDbEntity
  8
BEM
100
AcDbDimension
  2
*D7
 10
288.1467250075898
 20
509.7330732728099
 30
0.0
 11
224.9999999999999
 21
516.2330732728098
 31
0.0
 70
    32
  1
%%c126
 71
     5
 42
126.2934500151797
  3
Standard
100
AcDbAlignedDimension
 13
161.85327499241
 23
443.6000696481825
 33
0.0
 14
288.1467250075898
 24
443.6000696481825
 34
0.0
100
AcDbRotatedDimension
1001
ACAD
1000
DSTYLE
1002
{
1070
    40
1040
2.0
1070
    41
1040
3.5
1070
    42
1040
1.0
1070
    43
1040
7.0
1070
    44
1040
1.0
1070
    73
1070
     0
1070
    74
1070
     0
1070
    77
1070
     1
1070
    78
1070
     8
1070
    79
1070
     2
1070
   140
1040
3.5
1070
   141
1040
1.5
1070
   146
1040
0.5142857142857144
1070
   147
1040
1.5
1070
   172
1070
     1
1070
   178
1070
     1
1070
   179
1070
     2
1070
   271
1070
     2
1070
   272
1070
     2
1070
   284
1070
     8
1070
   285
1070
     8
1070
   286
1070
     8
1002
}
  0
DIMENSION
  5
E7B
330
1E
100
AcDbEntity
  8
BEM
100
AcDbDimension
  2
*D8
 10
266.0
 20
480.1713515027997
 30
0.0
 11
230.2245152781838
 21
480.1713515027997
 31
0.0
 70
   160
 71
     5
 42
82.00000000000002
  3
Standard
100
AcDbAlignedDimension
 13
184.0
 23
468.4773328006476
 33
0.0
 14
266.0
 24
468.4773328006472
 34
0.0
100
AcDbRotatedDimension
1001
ACAD
1000
DSTYLE
1002
{
1070
    40
1040
2.0
1070
    41
1040
3.5
1070
    42
1040
1.0
1070
    43
1040
7.0
1070
    44
1040
1.0
1070
    73
1070
     0
1070
    74
1070
     0
1070
    77
1070
     1
1070
    78
1070
     8
1070
    79
1070
     2
1070
   140
1040
3.5
1070
   141
1040
1.5
1070
   146
1040
0.5142857142857144
1070
   147
1040
1.5
1070
   172
1070
     1
1070
   178
1070
     1
1070
   179
1070
     2
1070
   271
1070
     2
1070
   272
1070
     2
1070
   284
1070
     8
1070
   285
1070
     8
1070
   286
1070
     8
1002
}
  0
LWPOLYLINE
  5
E9A
330
1E
100
AcDbEntity
  8
BEM
 62
     1
100
AcDbPolyline
 90
        4
 70
     1
 43
0.0
 10
215.4136507380945
 20
490.2075266983286
 10
215.4136507380945
 20
483.2075266983285
 10
222.4136507380945
 20
483.2075266983285
 10
222.4136507380945
 20
490.2075266983286
  0
DIMENSION
  5
ED6
330
1E
100
AcDbEntity
  8
BEM
100
AcDbDimension
  2
*D9
 10
325.4450188283962
 20
524.4807675661993
 30
0.0
 11
224.9999999999999
 21
530.9807675661993
 31
0.0
 70
    32
  1
%%c201
 71
     5
 42
200.8900376567926
  3
Standard
100
AcDbAlignedDimension
 13
124.5549811716036
 23
444.84232553047
 33
0.0
 14
325.4450188283962
 24
444.84232553047
 34
0.0
100
AcDbRotatedDimension
1001
ACAD
1000
DSTYLE
1002
{
1070
    40
1040
2.0
1070
    41
1040
3.5
1070
    42
1040
1.0
1070
    43
1040
7.0
1070
    44
1040
1.0
1070
    73
1070
     0
1070
    74
1070
     0
1070
    77
1070
     1
1070
    78
1070
     8
1070
    79
1070
     2
1070
   140
1040
3.5
1070
   141
1040
1.5
1070
   146
1040
0.5142857142857144
1070
   147
1040
1.5
1070
   172
1070
     1
1070
   178
1070
     1
1070
   179
1070
     2
1070
   271
1070
     2
1070
   272
1070
     2
1070
   284
1070
     8
1070
   285
1070
     8
1070
   286
1070
     8
1002
}
  0
TEXT
  5
EF4
330
1E
100
AcDbEntity
  8
TEXT
 62
     1
100
AcDbText
 10
292.9841464250211
 20
235.8314665518448
 30
0.0
 40
7.0
  1
Ablauftopf DN50
 41
0.8
  7
GREEKS
100
AcDbText
  0
LINE
  5
EF5
330
1E
100
AcDbEntity
  8
TEXT
 62
     2
100
AcDbLine
 10
292.3958403107446
 20
231.841407283531
 30
0.0
 11
250.5484497936657
 21
246.1091448118448
 31
0.0
  0
LINE
  5
EF6
330
1E
100
AcDbEntity
  8
TEXT
 62
     2
100
AcDbLine
 10
292.3958403107446
 20
231.841407283531
 30
0.0
 11
397.9031949968079
 21
231.841407283531
 31
0.0
  0
TEXT
  5
EF7
330
1E
100
AcDbEntity
  8
TEXT
 62
     1
100
AcDbText
 10
292.9841464250211
 20
223.0089677158968
 30
0.0
 40
7.0
  1
EDV-Art.Nr. 15679.050X
 41
0.8
  7
GREEKS
100
AcDbText
  0
TEXT
  5
EF8
330
1E
100
AcDbEntity
  8
TEXT
 62
     1
100
AcDbText
 10
292.9841464250211
 20
368.5482623902427
 30
0.0
 40
7.0
  1
EDV-Art.Nr. 15091.000X
 41
0.8
  7
GREEKS
100
AcDbText
  0
LINE
  5
EF9
330
1E
100
AcDbEntity
  8
TEXT
 62
     2
100
AcDbLine
 10
292.3958403107446
 20
377.3807019578769
 30
0.0
 11
397.9031949968079
 21
377.3807019578769
 31
0.0
  0
LINE
  5
EFA
330
1E
100
AcDbEntity
  8
TEXT
 62
     2
100
AcDbLine
 10
292.3958403107446
 20
377.3807019578769
 30
0.0
 11
259.8414141814562
 21
428.2136229400389
 31
0.0
  0
TEXT
  5
EFB
330
1E
100
AcDbEntity
  8
TEXT
 62
     1
100
AcDbText
 10
292.9841464250211
 20
381.3707612261907
 30
0.0
 40
7.0
  1
Sieb   82
 41
0.8
  7
GREEKS
100
AcDbText
  0
TEXT
  5
F00
330
1E
100
AcDbEntity
  8
TEXT
 62
     1
100
AcDbText
 10
293.6808431076523
 20
427.2006388068145
 30
0.0
 40
7.0
  1
Dichtelement DN70
 41
0.8
  7
GREEKS
100
AcDbText
  0
LINE
  5
F01
330
1E
100
AcDbEntity
  8
TEXT
 62
     2
100
AcDbLine
 10
293.0925369933758
 20
423.2105795385007
 30
0.0
 11
263.3262752810426
 21
446.0747351600906
 31
0.0
  0
LINE
  5
F02
330
1E
100
AcDbEntity
  8
TEXT
 62
     2
100
AcDbLine
 10
293.0925369933758
 20
423.2105795385007
 30
0.0
 11
398.5998916794391
 21
423.2105795385007
 31
0.0
  0
TEXT
  5
F03
330
1E
100
AcDbEntity
  8
TEXT
 62
     1
100
AcDbText
 10
293.6808431076523
 20
414.3781399708664
 30
0.0
 40
7.0
  1
EDV-Art.Nr. 00911.070X
 41
0.8
  7
GREEKS
100
AcDbText
  0
LWPOLYLINE
  5
F1C
330
1E
100
AcDbEntity
  8
BEM
 62
     1
100
AcDbPolyline
 90
        4
 70
     1
 43
0.0
 10
315.401199663378
 20
388.4001925375396
 10
315.401199663378
 20
381.4001925375396
 10
322.4011996633781
 20
381.4001925375396
 10
322.4011996633781
 20
388.4001925375396
  0
ENDSEC
  0
SECTION
  2
OBJECTS
  0
DICTIONARY
  5
C
330
0
100
AcDbDictionary
281
     1
  3
ACAD_COLOR
350
DF
  3
ACAD_GROUP
350
D
  3
ACAD_LAYOUT
350
19
  3
ACAD_MATERIAL
350
DE
  3
ACAD_MLINESTYLE
350
16
  3
ACAD_PLOTSETTINGS
350
18
  3
ACAD_PLOTSTYLENAME
350
E
  3
AcDbVariableDictionary
350
EA
  0
DICTIONARY
  5
A0
330
1E
100
AcDbDictionary
280
     1
281
     1
  3
ACAD_LAYOUTSELFREF
360
D4
  0
DICTIONARY
  5
A2
330
1A
100
AcDbDictionary
280
     1
281
     1
  3
ACAD_LAYOUTSELFREF
360
D3
  0
DICTIONARY
  5
DF
102
{ACAD_REACTORS
330
C
102
}
330
C
100
AcDbDictionary
281
     1
  0
DICTIONARY
  5
D
102
{ACAD_REACTORS
330
C
102
}
330
C
100
AcDbDictionary
281
     1
  0
DICTIONARY
  5
19
102
{ACAD_REACTORS
330
C
102
}
330
C
100
AcDbDictionary
281
     1
  3
Layout1
350
1D
  3
Model
350
21
  0
DICTIONARY
  5
DE
102
{ACAD_REACTORS
330
C
102
}
330
C
100
AcDbDictionary
281
     1
  0
DICTIONARY
  5
16
102
{ACAD_REACTORS
330
C
102
}
330
C
100
AcDbDictionary
281
     1
  3
Standard
350
17
  0
DICTIONARY
  5
18
102
{ACAD_REACTORS
330
C
102
}
330
C
100
AcDbDictionary
281
     1
  0
ACDBDICTIONARYWDFLT
  5
E
102
{ACAD_REACTORS
330
C
102
}
330
C
100
AcDbDictionary
281
     1
  3
Normal
350
F
100
AcDbDictionaryWithDefault
340
F
  0
DICTIONARY
  5
EA
102
{ACAD_REACTORS
330
C
102
}
330
C
100
AcDbDictionary
281
     1
  3
DIMASSOC
350
EB
  3
PROJECTNAME
350
EC
  0
XRECORD
  5
D4
102
{ACAD_REACTORS
330
A0
102
}
330
A0
100
AcDbXrecord
280
     1
340
1E
  0
XRECORD
  5
D3
102
{ACAD_REACTORS
330
A2
102
}
330
A2
100
AcDbXrecord
280
     1
340
1A
  0
LAYOUT
  5
1D
102
{ACAD_REACTORS
330
19
102
}
330
19
100
AcDbPlotSettings
  1

  2
\\NT_WORK01\HP LaserJet 5000 PCL 6
  4

  6

 40
0.0
 41
0.0
 42
0.0
 43
0.0
 44
0.0
 45
0.0
 46
0.0
 47
0.0
 48
0.0
 49
0.0
140
0.0
141
0.0
142
1.0
143
1.0
 70
   688
 72
     0
 73
     0
 74
     5
  7

 75
    16
147
1.0
 76
     0
 77
     2
 78
   300
148
0.0
149
0.0
100
AcDbLayout
  1
Layout1
 70
     0
 71
     1
 10
0.0
 20
0.0
 11
12.0
 21
9.0
 12
0.0
 22
0.0
 32
0.0
 14
1.000000000000000E+20
 24
1.000000000000000E+20
 34
1.000000000000000E+20
 15
-1.000000000000000E+20
 25
-1.000000000000000E+20
 35
-1.000000000000000E+20
146
0.0
 13
0.0
 23
0.0
 33
0.0
 16
1.0
 26
0.0
 36
0.0
 17
0.0
 27
1.0
 37
0.0
 76
     0
330
1A
  0
LAYOUT
  5
21
102
{ACAD_REACTORS
330
19
102
}
330
19
100
AcDbPlotSettings
  1

  2
none_device
  4
Letter_(8.50_x_11.00_Inches)
  6

 40
6.349999904632568
 41
6.349999904632568
 42
6.350006103515625
 43
6.350006103515625
 44
215.8999938964844
 45
279.3999938964844
 46
0.0
 47
0.0
 48
0.0
 49
0.0
140
0.0
141
0.0
142
1.0
143
1.0
 70
 11952
 72
     0
 73
     1
 74
     0
  7

 75
     0
147
1.0
 76
     0
 77
     2
 78
   300
148
2271.415068077575
149
61.6150269146417
100
AcDbLayout
  1
Model
 70
     1
 71
     0
 10
0.0
 20
0.0
 11
12.0
 21
9.0
 12
0.0
 22
0.0
 32
0.0
 14
0.0
 24
0.0
 34
0.0
 15
0.0
 25
0.0
 35
0.0
146
0.0
 13
0.0
 23
0.0
 33
0.0
 16
1.0
 26
0.0
 36
0.0
 17
0.0
 27
1.0
 37
0.0
 76
     0
330
1E
  0
MLINESTYLE
  5
17
102
{ACAD_REACTORS
330
16
102
}
330
16
100
AcDbMlineStyle
  2
STANDARD
 70
     0
  3

 62
   256
 51
90.0
 52
90.0
 71
     2
 49
0.5
 62
   256
  6
BYLAYER
 49
-0.5
 62
   256
  6
BYLAYER
  0
ACDBPLACEHOLDER
  5
F
102
{ACAD_REACTORS
330
E
102
}
330
E
  0
DICTIONARYVAR
  5
EB
102
{ACAD_REACTORS
330
EA
102
}
330
EA
100
DictionaryVariables
280
     0
  1
1
  0
DICTIONARYVAR
  5
EC
102
{ACAD_REACTORS
330
EA
102
}
330
EA
100
DictionaryVariables
280
     0
  1

  0
ENDSEC
  0
EOF
