  0
SECTION
  2
HEADER
  9
$ACADVER
  1
AC1018
  9
$ACADMAINTVER
 70
     2
  9
$DWGCODEPAGE
  3
ANSI_1252
  9
$INSBASE
 10
0.0
 20
0.0
 30
0.0
  9
$EXTMIN
 10
-0.0640771341750224
 20
-0.045311687738149
 30
-0.000000000000013
  9
$EXTMAX
 10
840.000003912033
 20
594.0000027663659
 30
0.0000000000000023
  9
$LIMMIN
 10
0.0
 20
0.0
  9
$LIMMAX
 10
840.0
 20
594.0
  9
$ORTHOMODE
 70
     1
  9
$REGENMODE
 70
     1
  9
$FILLMODE
 70
     1
  9
$QTEXTMODE
 70
     0
  9
$MIRRTEXT
 70
     1
  9
$LTSCALE
 40
20.0
  9
$ATTMODE
 70
     1
  9
$TEXTSIZE
 40
3.5
  9
$TRACEWID
 40
1.0
  9
$TEXTSTYLE
  7
STANDARD
  9
$CLAYER
  8
VOLL
  9
$CELTYPE
  6
ByLayer
  9
$CECOLOR
 62
   256
  9
$CELTSCALE
 40
1.0
  9
$DISPSILH
 70
     0
  9
$DIMSCALE
 40
2.0
  9
$DIMASZ
 40
3.5
  9
$DIMEXO
 40
1.0
  9
$DIMDLI
 40
7.0
  9
$DIMRND
 40
0.0
  9
$DIMDLE
 40
0.0
  9
$DIMEXE
 40
1.0
  9
$DIMTP
 40
0.0
  9
$DIMTM
 40
0.0
  9
$DIMTXT
 40
3.5
  9
$DIMCEN
 40
1.5
  9
$DIMTSZ
 40
0.0
  9
$DIMTOL
 70
     0
  9
$DIMLIM
 70
     0
  9
$DIMTIH
 70
     0
  9
$DIMTOH
 70
     0
  9
$DIMSE1
 70
     0
  9
$DIMSE2
 70
     0
  9
$DIMTAD
 70
     1
  9
$DIMZIN
 70
     8
  9
$DIMBLK
  1

  9
$DIMASO
 70
     1
  9
$DIMSHO
 70
     0
  9
$DIMPOST
  1

  9
$DIMAPOST
  1

  9
$DIMALT
 70
     0
  9
$DIMALTD
 70
     2
  9
$DIMALTF
 40
25.4
  9
$DIMLFAC
 40
1.0
  9
$DIMTOFL
 70
     1
  9
$DIMTVP
 40
0.0
  9
$DIMTIX
 70
     0
  9
$DIMSOXD
 70
     0
  9
$DIMSAH
 70
     0
  9
$DIMBLK1
  1

  9
$DIMBLK2
  1

  9
$DIMSTYLE
  2
Standard
  9
$DIMCLRD
 70
     0
  9
$DIMCLRE
 70
     0
  9
$DIMCLRT
 70
     1
  9
$DIMTFAC
 40
0.5
  9
$DIMGAP
 40
1.5
  9
$DIMJUST
 70
     0
  9
$DIMSD1
 70
     0
  9
$DIMSD2
 70
     0
  9
$DIMTOLJ
 70
     1
  9
$DIMTZIN
 70
     8
  9
$DIMALTZ
 70
     8
  9
$DIMALTTZ
 70
     8
  9
$DIMUPT
 70
     0
  9
$DIMDEC
 70
     2
  9
$DIMTDEC
 70
     2
  9
$DIMALTU
 70
     2
  9
$DIMALTTD
 70
     2
  9
$DIMTXSTY
  7
STANDARD
  9
$DIMAUNIT
 70
     0
  9
$DIMADEC
 70
     2
  9
$DIMALTRND
 40
0.0
  9
$DIMAZIN
 70
     2
  9
$DIMDSEP
 70
    46
  9
$DIMATFIT
 70
     3
  9
$DIMFRAC
 70
     0
  9
$DIMLDRBLK
  1

  9
$DIMLUNIT
 70
     2
  9
$DIMLWD
 70
    -2
  9
$DIMLWE
 70
    -2
  9
$DIMTMOVE
 70
     0
  9
$LUNITS
 70
     2
  9
$LUPREC
 70
     2
  9
$SKETCHINC
 40
1.0
  9
$FILLETRAD
 40
4.0
  9
$AUNITS
 70
     0
  9
$AUPREC
 70
     0
  9
$MENU
  1
ACAD
  9
$ELEVATION
 40
0.0
  9
$PELEVATION
 40
0.0
  9
$THICKNESS
 40
0.0
  9
$LIMCHECK
 70
     0
  9
$CHAMFERA
 40
0.0
  9
$CHAMFERB
 40
0.0
  9
$CHAMFERC
 40
0.0
  9
$CHAMFERD
 40
0.0
  9
$SKPOLY
 70
     0
  9
$TDCREATE
 40
2455397.867059838
  9
$TDUCREATE
 40
2455397.783726505
  9
$TDUPDATE
 40
2456157.305002593
  9
$TDUUPDATE
 40
2456157.221669259
  9
$TDINDWG
 40
0.1825102546
  9
$TDUSRTIMER
 40
0.1825102546
  9
$USRTIMER
 70
     1
  9
$ANGBASE
 50
0.0
  9
$ANGDIR
 70
     0
  9
$PDMODE
 70
     0
  9
$PDSIZE
 40
0.0
  9
$PLINEWID
 40
0.0
  9
$SPLFRAME
 70
     0
  9
$SPLINETYPE
 70
     6
  9
$SPLINESEGS
 70
     8
  9
$HANDSEED
  5
164F
  9
$SURFTAB1
 70
     6
  9
$SURFTAB2
 70
     6
  9
$SURFTYPE
 70
     6
  9
$SURFU
 70
     6
  9
$SURFV
 70
     6
  9
$UCSBASE
  2

  9
$UCSNAME
  2

  9
$UCSORG
 10
0.0
 20
0.0
 30
0.0
  9
$UCSXDIR
 10
1.0
 20
0.0
 30
0.0
  9
$UCSYDIR
 10
0.0
 20
1.0
 30
0.0
  9
$UCSORTHOREF
  2

  9
$UCSORTHOVIEW
 70
     0
  9
$UCSORGTOP
 10
0.0
 20
0.0
 30
0.0
  9
$UCSORGBOTTOM
 10
0.0
 20
0.0
 30
0.0
  9
$UCSORGLEFT
 10
0.0
 20
0.0
 30
0.0
  9
$UCSORGRIGHT
 10
0.0
 20
0.0
 30
0.0
  9
$UCSORGFRONT
 10
0.0
 20
0.0
 30
0.0
  9
$UCSORGBACK
 10
0.0
 20
0.0
 30
0.0
  9
$PUCSBASE
  2

  9
$PUCSNAME
  2

  9
$PUCSORG
 10
0.0
 20
0.0
 30
0.0
  9
$PUCSXDIR
 10
1.0
 20
0.0
 30
0.0
  9
$PUCSYDIR
 10
0.0
 20
1.0
 30
0.0
  9
$PUCSORTHOREF
  2

  9
$PUCSORTHOVIEW
 70
     0
  9
$PUCSORGTOP
 10
0.0
 20
0.0
 30
0.0
  9
$PUCSORGBOTTOM
 10
0.0
 20
0.0
 30
0.0
  9
$PUCSORGLEFT
 10
0.0
 20
0.0
 30
0.0
  9
$PUCSORGRIGHT
 10
0.0
 20
0.0
 30
0.0
  9
$PUCSORGFRONT
 10
0.0
 20
0.0
 30
0.0
  9
$PUCSORGBACK
 10
0.0
 20
0.0
 30
0.0
  9
$USERI1
 70
     0
  9
$USERI2
 70
     0
  9
$USERI3
 70
     0
  9
$USERI4
 70
     0
  9
$USERI5
 70
     0
  9
$USERR1
 40
0.0
  9
$USERR2
 40
0.0
  9
$USERR3
 40
0.0
  9
$USERR4
 40
0.0
  9
$USERR5
 40
0.0
  9
$WORLDVIEW
 70
     1
  9
$SHADEDGE
 70
     3
  9
$SHADEDIF
 70
    70
  9
$TILEMODE
 70
     1
  9
$MAXACTVP
 70
    16
  9
$PINSBASE
 10
0.0
 20
0.0
 30
0.0
  9
$PLIMCHECK
 70
     0
  9
$PEXTMIN
 10
1.000000000000000E+20
 20
1.000000000000000E+20
 30
1.000000000000000E+20
  9
$PEXTMAX
 10
-1.000000000000000E+20
 20
-1.000000000000000E+20
 30
-1.000000000000000E+20
  9
$PLIMMIN
 10
0.0
 20
0.0
  9
$PLIMMAX
 10
12.0
 20
9.0
  9
$UNITMODE
 70
     0
  9
$VISRETAIN
 70
     0
  9
$PLINEGEN
 70
     0
  9
$PSLTSCALE
 70
     0
  9
$TREEDEPTH
 70
  3020
  9
$CMLSTYLE
  2
Standard
  9
$CMLJUST
 70
     0
  9
$CMLSCALE
 40
1.0
  9
$PROXYGRAPHICS
 70
     1
  9
$MEASUREMENT
 70
     0
  9
$CELWEIGHT
370
    -1
  9
$ENDCAPS
280
     0
  9
$JOINSTYLE
280
     0
  9
$LWDISPLAY
290
     0
  9
$INSUNITS
 70
     0
  9
$HYPERLINKBASE
  1

  9
$STYLESHEET
  1
monochrome 1.ctb
  9
$XEDIT
290
     1
  9
$CEPSNTYPE
380
     0
  9
$PSTYLEMODE
290
     1
  9
$FINGERPRINTGUID
  2
{D68B0D0D-A558-11D7-B632-000102183313}
  9
$VERSIONGUID
  2
{45279767-EBF3-49BD-B39D-11022FE95387}
  9
$EXTNAMES
290
     1
  9
$PSVPSCALE
 40
0.0
  9
$OLESTARTUP
290
     0
  9
$SORTENTS
280
   127
  9
$INDEXCTL
280
     0
  9
$HIDETEXT
280
     0
  9
$XCLIPFRAME
290
     0
  9
$HALOGAP
280
     0
  9
$OBSCOLOR
 70
   257
  9
$OBSLTYPE
280
     0
  9
$INTERSECTIONDISPLAY
280
     0
  9
$INTERSECTIONCOLOR
 70
   257
  9
$DIMASSOC
280
     1
  9
$PROJECTNAME
  1

  0
ENDSEC
  0
SECTION
  2
CLASSES
  0
CLASS
  1
ACDBDICTIONARYWDFLT
  2
AcDbDictionaryWithDefault
  3
ObjectDBX Classes
 90
        0
 91
        1
280
     0
281
     0
  0
CLASS
  1
DICTIONARYVAR
  2
AcDbDictionaryVar
  3
ObjectDBX Classes
 90
        0
 91
        2
280
     0
281
     0
  0
ENDSEC
  0
SECTION
  2
TABLES
  0
TABLE
  2
VPORT
  5
8
330
0
100
AcDbSymbolTable
 70
     3
  0
VPORT
  5
164E
330
8
100
AcDbSymbolTableRecord
100
AcDbViewportTableRecord
  2
*Active
 70
     0
 10
0.0
 20
0.0
 11
1.0
 21
1.0
 12
419.9999999999999
 22
297.0
 13
0.0
 23
0.0
 14
1.0
 24
1.0
 15
10.0
 25
10.0
 16
0.0
 26
0.0
 36
1.0
 17
0.0
 27
0.0
 37
0.0
 40
597.9250720461094
 41
1.404858299595141
 42
50.0
 43
0.0
 44
0.0
 50
0.0
 51
0.0
 71
     0
 72
  1500
 73
     1
 74
     0
 75
     0
 76
     0
 77
     0
 78
     0
281
     0
 65
     1
110
0.0
120
0.0
130
0.0
111
1.0
121
0.0
131
0.0
112
0.0
122
1.0
132
0.0
 79
     0
146
0.0
  0
ENDTAB
  0
TABLE
  2
LTYPE
  5
5
330
0
100
AcDbSymbolTable
 70
     2
  0
LTYPE
  5
13
330
5
100
AcDbSymbolTableRecord
100
AcDbLinetypeTableRecord
  2
ByBlock
 70
     0
  3

 72
    65
 73
     0
 40
0.0
  0
LTYPE
  5
14
330
5
100
AcDbSymbolTableRecord
100
AcDbLinetypeTableRecord
  2
ByLayer
 70
     0
  3

 72
    65
 73
     0
 40
0.0
  0
LTYPE
  5
15
330
5
100
AcDbSymbolTableRecord
100
AcDbLinetypeTableRecord
  2
Continuous
 70
     0
  3
Solid line
 72
    65
 73
     0
 40
0.0
  0
LTYPE
  5
25
330
5
100
AcDbSymbolTableRecord
100
AcDbLinetypeTableRecord
  2
STRICHPUNKT
 70
     0
  3
__ . __ . __ . __ . __ . __ . __ . __ . __ . __
 72
    65
 73
     4
 40
1.0
 49
0.5
 74
     0
 49
-0.25
 74
     0
 49
0.0
 74
     0
 49
-0.25
 74
     0
  0
ENDTAB
  0
TABLE
  2
LAYER
  5
2
330
0
100
AcDbSymbolTable
 70
     9
  0
LAYER
  5
10
330
2
100
AcDbSymbolTableRecord
100
AcDbLayerTableRecord
  2
0
 70
     0
 62
     7
  6
Continuous
370
    -3
390
F
  0
LAYER
  5
2B
330
2
100
AcDbSymbolTableRecord
100
AcDbLayerTableRecord
  2
VOLL
 70
     0
 62
     1
  6
Continuous
370
    -3
390
F
  0
LAYER
  5
2C
330
2
100
AcDbSymbolTableRecord
100
AcDbLayerTableRecord
  2
HILF
 70
     0
 62
     2
  6
Continuous
370
    -3
390
F
  0
LAYER
  5
2D
330
2
100
AcDbSymbolTableRecord
100
AcDbLayerTableRecord
  2
MITTEL
 70
     0
 62
     2
  6
STRICHPUNKT
370
    -3
390
F
  0
LAYER
  5
2F
330
2
100
AcDbSymbolTableRecord
100
AcDbLayerTableRecord
  2
BEM
 70
     0
 62
     7
  6
Continuous
370
    -3
390
F
  0
LAYER
  5
30
330
2
100
AcDbSymbolTableRecord
100
AcDbLayerTableRecord
  2
STEMPEL
 70
     0
 62
     3
  6
Continuous
370
    -3
390
F
  0
LAYER
  5
33
330
2
100
AcDbSymbolTableRecord
100
AcDbLayerTableRecord
  2
TEXT
 70
     0
 62
     7
  6
Continuous
370
    -3
390
F
  0
LAYER
  5
3FF
330
2
100
AcDbSymbolTableRecord
100
AcDbLayerTableRecord
  2
DEFPOINTS
 70
     0
 62
     7
  6
Continuous
290
     0
370
    -3
390
F
  0
LAYER
  5
400
330
2
100
AcDbSymbolTableRecord
100
AcDbLayerTableRecord
  2
SCHRAFF
 70
     0
 62
     7
  6
Continuous
370
    -3
390
F
  0
ENDTAB
  0
TABLE
  2
STYLE
  5
3
330
0
100
AcDbSymbolTable
 70
     2
  0
STYLE
  5
11
330
3
100
AcDbSymbolTableRecord
100
AcDbTextStyleTableRecord
  2
STANDARD
 70
     0
 40
0.0
 41
0.8
 50
0.0
 71
     0
 42
3.5
  3
simplex.shx
  4

  0
STYLE
  5
24
330
3
100
AcDbSymbolTableRecord
100
AcDbTextStyleTableRecord
  2
GREEKS
 70
     0
 40
0.0
 41
0.8
 50
0.0
 71
     0
 42
2.5
  3
SIMPLEX.shx
  4

  0
ENDTAB
  0
TABLE
  2
VIEW
  5
6
330
0
100
AcDbSymbolTable
 70
     0
  0
ENDTAB
  0
TABLE
  2
UCS
  5
7
330
0
100
AcDbSymbolTable
 70
     0
  0
ENDTAB
  0
TABLE
  2
APPID
  5
9
330
0
100
AcDbSymbolTable
 70
     1
  0
APPID
  5
12
330
9
100
AcDbSymbolTableRecord
100
AcDbRegAppTableRecord
  2
ACAD
 70
     0
  0
ENDTAB
  0
TABLE
  2
DIMSTYLE
  5
A
330
0
100
AcDbSymbolTable
 70
     1
100
AcDbDimStyleTable
 71
     1
340
A2
  0
DIMSTYLE
105
A2
102
{ACAD_REACTORS
330
B9F
330
BAC
330
1212
330
1214
330
154E
330
154F
330
1550
330
1571
102
}
330
A
100
AcDbSymbolTableRecord
100
AcDbDimStyleTableRecord
  2
Standard
 70
     0
340
11
  0
ENDTAB
  0
TABLE
  2
BLOCK_RECORD
  5
1
330
0
100
AcDbSymbolTable
 70
    13
  0
BLOCK_RECORD
  5
1E
102
{ACAD_XDICTIONARY
360
DB
102
}
330
1
100
AcDbSymbolTableRecord
100
AcDbBlockTableRecord
  2
*Model_Space
340
21
  0
BLOCK_RECORD
  5
1A
102
{ACAD_XDICTIONARY
360
DD
102
}
330
1
100
AcDbSymbolTableRecord
100
AcDbBlockTableRecord
  2
*Paper_Space
340
1D
  0
BLOCK_RECORD
  5
22
330
1
100
AcDbSymbolTableRecord
100
AcDbBlockTableRecord
  2
LOGO
340
0
102
{BLKREFS
331
56
102
}
  0
BLOCK_RECORD
  5
23
330
1
100
AcDbSymbolTableRecord
100
AcDbBlockTableRecord
  2
LORO
340
0
102
{BLKREFS
331
9B
102
}
  0
BLOCK_RECORD
  5
BA0
330
1
100
AcDbSymbolTableRecord
100
AcDbBlockTableRecord
  2
*D2
340
0
  0
BLOCK_RECORD
  5
BAD
330
1
100
AcDbSymbolTableRecord
100
AcDbBlockTableRecord
  2
*D3
340
0
  0
BLOCK_RECORD
  5
12B5
330
1
100
AcDbSymbolTableRecord
100
AcDbBlockTableRecord
  2
*D4
340
0
  0
BLOCK_RECORD
  5
12CD
330
1
100
AcDbSymbolTableRecord
100
AcDbBlockTableRecord
  2
*D5
340
0
  0
BLOCK_RECORD
  5
13BE
330
1
100
AcDbSymbolTableRecord
100
AcDbBlockTableRecord
  2
*X6
340
0
102
{BLKREFS
331
1564
102
}
  0
BLOCK_RECORD
  5
1417
330
1
100
AcDbSymbolTableRecord
100
AcDbBlockTableRecord
  2
*X7
340
0
102
{BLKREFS
331
1560
102
}
  0
BLOCK_RECORD
  5
1452
330
1
100
AcDbSymbolTableRecord
100
AcDbBlockTableRecord
  2
*X8
340
0
102
{BLKREFS
331
1551
102
}
  0
BLOCK_RECORD
  5
1579
330
1
100
AcDbSymbolTableRecord
100
AcDbBlockTableRecord
  2
*D9
340
0
  0
BLOCK_RECORD
  5
1585
330
1
100
AcDbSymbolTableRecord
100
AcDbBlockTableRecord
  2
*D10
340
0
  0
BLOCK_RECORD
  5
1591
330
1
100
AcDbSymbolTableRecord
100
AcDbBlockTableRecord
  2
*D11
340
0
  0
BLOCK_RECORD
  5
159D
330
1
100
AcDbSymbolTableRecord
100
AcDbBlockTableRecord
  2
*D12
340
0
  0
ENDTAB
  0
ENDSEC
  0
SECTION
  2
BLOCKS
  0
BLOCK
  5
37
330
1E
100
AcDbEntity
  8
0
100
AcDbBlockBegin
  2
*Model_Space
 70
     0
 10
0.0
 20
0.0
 30
0.0
  3
*Model_Space
  1

  0
ENDBLK
  5
38
330
1E
100
AcDbEntity
  8
0
100
AcDbBlockEnd
  0
BLOCK
  5
35
330
1A
100
AcDbEntity
 67
     1
  8
0
100
AcDbBlockBegin
  2
*Paper_Space
 70
     0
 10
0.0
 20
0.0
 30
0.0
  3
*Paper_Space
  1

  0
ENDBLK
  5
36
330
1A
100
AcDbEntity
 67
     1
  8
0
100
AcDbBlockEnd
  0
BLOCK
  5
39
330
22
100
AcDbEntity
  8
0
100
AcDbBlockBegin
  2
LOGO
 70
     0
 10
0.0
 20
0.0
 30
0.0
  3
LOGO
  1

  0
ARC
  5
3A
330
22
100
AcDbEntity
  8
0
100
AcDbCircle
 10
11.59973089678112
 20
-9.271599258481501
 30
0.0
 40
4.5
100
AcDbArc
 50
270.0
 51
231.0575587310159
  0
LINE
  5
3B
330
22
100
AcDbEntity
  8
0
100
AcDbLine
 10
3.599730896781125
 20
-4.771599258481529
 30
0.0
 11
3.599730896781153
 21
-11.77159925848133
 31
0.0
  0
LINE
  5
3C
330
22
100
AcDbEntity
  8
0
100
AcDbLine
 10
2.599730896781125
 20
-4.771599258481529
 30
0.0
 11
2.599730896781153
 21
-11.77159925848133
 31
0.0
  0
CIRCLE
  5
3D
330
22
100
AcDbEntity
  8
0
100
AcDbCircle
 10
11.59973089678112
 20
-9.271599258481501
 30
0.0
 40
3.5
  0
ARC
  5
3E
330
22
100
AcDbEntity
  8
0
100
AcDbCircle
 10
31.59973089678115
 20
-9.271599258481472
 30
0.0
 40
4.5
100
AcDbArc
 50
270.0
 51
231.0575587310182
  0
LINE
  5
3F
330
22
100
AcDbEntity
  8
0
100
AcDbLine
 10
17.59973089678112
 20
-4.771599258481472
 30
0.0
 11
17.59973089678115
 21
-13.77159925848147
 31
0.0
  0
ARC
  5
40
330
22
100
AcDbEntity
  8
0
100
AcDbCircle
 10
22.59973089678116
 20
-7.271599258481472
 30
0.0
 40
2.5
100
AcDbArc
 50
293.1161887722295
 51
90.0
  0
CIRCLE
  5
41
330
22
100
AcDbEntity
  8
0
100
AcDbCircle
 10
31.59973089678115
 20
-9.271599258481472
 30
0.0
 40
3.5
  0
ARC
  5
42
330
22
100
AcDbEntity
  8
0
100
AcDbCircle
 10
4.599730896781153
 20
-11.77159925848133
 30
0.0
 40
1.0
100
AcDbArc
 50
180.0
 51
270.0
  0
ARC
  5
43
330
22
100
AcDbEntity
  8
0
100
AcDbCircle
 10
4.599730896781153
 20
-11.77159925848133
 30
0.0
 40
2.0
100
AcDbArc
 50
179.9999999999992
 51
270.0
  0
LINE
  5
44
330
22
100
AcDbEntity
  8
0
100
AcDbLine
 10
11.59973089678115
 20
-13.77159925848144
 30
0.0
 11
4.599730896781153
 21
-13.77159925848147
 31
0.0
  0
LINE
  5
45
330
22
100
AcDbEntity
  8
0
100
AcDbLine
 10
8.771303772034769
 20
-12.77159925848136
 30
0.0
 11
4.599730896781153
 21
-12.77159925848133
 31
0.0
  0
LINE
  5
46
330
22
100
AcDbEntity
  8
0
100
AcDbLine
 10
31.59973089678115
 20
-13.77159925848147
 30
0.0
 11
23.6715276665056
 21
-13.77159925848144
 31
0.0
  0
LINE
  5
47
330
22
100
AcDbEntity
  8
0
100
AcDbLine
 10
23.56565672307022
 20
-9.51278021337896
 30
0.0
 11
24.4388546544846
 21
-12.77159925848144
 31
0.0
  0
LINE
  5
48
330
22
100
AcDbEntity
  8
0
100
AcDbLine
 10
22.59973089678116
 20
-9.771599258481472
 30
0.0
 11
18.59973089678112
 21
-9.771599258481472
 31
0.0
  0
LINE
  5
49
330
22
100
AcDbEntity
  8
0
100
AcDbLine
 10
18.59973089678115
 20
-13.77159925848144
 30
0.0
 11
17.59973089678115
 21
-13.77159925848144
 31
0.0
  0
LINE
  5
4A
330
22
100
AcDbEntity
  8
0
100
AcDbLine
 10
18.59973089678115
 20
-9.771599258481472
 30
0.0
 11
18.59973089678115
 21
-13.77159925848144
 31
0.0
  0
LINE
  5
4B
330
22
100
AcDbEntity
  8
0
100
AcDbLine
 10
22.59973089678116
 20
-9.771599258481472
 30
0.0
 11
23.67152766650562
 21
-13.77159925848147
 31
0.0
  0
ARC
  5
4C
330
22
100
AcDbEntity
  8
0
100
AcDbCircle
 10
22.59973089678116
 20
-7.271599258481472
 30
0.0
 40
2.5
100
AcDbArc
 50
270.0
 51
270.0000000000007
  0
LINE
  5
4D
330
22
100
AcDbEntity
  8
0
100
AcDbLine
 10
28.77130377203494
 20
-12.77159925848147
 30
0.0
 11
24.43885465448463
 21
-12.77159925848144
 31
0.0
  0
LINE
  5
4E
330
22
100
AcDbEntity
  8
0
100
AcDbLine
 10
3.599730896781125
 20
-4.771599258481472
 30
0.0
 11
2.599730896781125
 21
-4.771599258481472
 31
0.0
  0
LINE
  5
4F
330
22
100
AcDbEntity
  8
0
100
AcDbLine
 10
22.59973089678116
 20
-8.771599258481472
 30
0.0
 11
18.59973089678115
 21
-8.771599258481472
 31
0.0
  0
LINE
  5
50
330
22
100
AcDbEntity
  8
0
100
AcDbLine
 10
22.59973089678116
 20
-5.771599258481472
 30
0.0
 11
18.59973089678115
 21
-5.771599258481472
 31
0.0
  0
LINE
  5
51
330
22
100
AcDbEntity
  8
0
100
AcDbLine
 10
22.59973089678116
 20
-4.771599258481472
 30
0.0
 11
17.59973089678115
 21
-4.771599258481472
 31
0.0
  0
LINE
  5
52
330
22
100
AcDbEntity
  8
0
100
AcDbLine
 10
18.59973089678115
 20
-5.771599258481472
 30
0.0
 11
18.59973089678115
 21
-8.771599258481472
 31
0.0
  0
ARC
  5
53
330
22
100
AcDbEntity
  8
0
100
AcDbCircle
 10
22.59973089678116
 20
-7.271599258481472
 30
0.0
 40
1.5
100
AcDbArc
 50
270.0
 51
90.0
  0
ENDBLK
  5
54
330
22
100
AcDbEntity
  8
0
100
AcDbBlockEnd
  0
BLOCK
  5
55
330
23
100
AcDbEntity
  8
0
100
AcDbBlockBegin
  2
LORO
 70
     0
 10
0.0
 20
0.0
 30
0.0
  3
LORO
  1

  0
INSERT
  5
56
330
23
100
AcDbEntity
  8
STEMPEL
100
AcDbBlockReference
  2
LOGO
 10
-1.748032802467321
 20
3.771489518552062
 30
0.0
  0
ENDBLK
  5
57
330
23
100
AcDbEntity
  8
0
100
AcDbBlockEnd
  0
BLOCK
  5
BAA
330
BA0
100
AcDbEntity
  8
0
100
AcDbBlockBegin
  2
*D2
 70
     1
 10
0.0
 20
0.0
 30
0.0
  3
*D2
  1

  0
LINE
  5
1393
330
BA0
100
AcDbEntity
  8
BEM
 62
     0
370
    -2
100
AcDbLine
 10
258.8919757877625
 20
338.9346296033758
 30
0.0
 11
258.8919757877625
 21
473.216040236092
 31
0.0
  0
LINE
  5
1394
330
BA0
100
AcDbEntity
  8
BEM
 62
     0
370
    -2
100
AcDbLine
 10
488.8919757877624
 20
338.9346296033758
 30
0.0
 11
488.8919757877624
 21
473.216040236092
 31
0.0
  0
LINE
  5
1395
330
BA0
100
AcDbEntity
  8
BEM
 62
     0
370
    -2
100
AcDbLine
 10
265.8919757877626
 20
471.2160402360921
 30
0.0
 11
481.8919757877623
 21
471.2160402360921
 31
0.0
  0
SOLID
  5
1396
330
BA0
100
AcDbEntity
  8
BEM
 62
     0
100
AcDbTrace
 10
265.8919757877626
 20
472.3827069027588
 30
0.0
 11
265.8919757877626
 21
470.0493735694254
 31
0.0
 12
258.8919757877625
 22
471.2160402360921
 32
0.0
 13
258.8919757877625
 23
471.2160402360921
 33
0.0
  0
SOLID
  5
1397
330
BA0
100
AcDbEntity
  8
BEM
 62
     0
100
AcDbTrace
 10
481.8919757877623
 20
472.3827069027588
 30
0.0
 11
481.8919757877623
 21
470.0493735694254
 31
0.0
 12
488.8919757877624
 22
471.2160402360921
 32
0.0
 13
488.8919757877624
 23
471.2160402360921
 33
0.0
  0
MTEXT
  5
1398
330
BA0
100
AcDbEntity
  8
BEM
 62
     1
100
AcDbMText
 10
373.8919757877625
 20
477.716040236092
 30
0.0
 40
7.0
 41
0.0
 71
     5
 72
     1
  1
\A1;%%c230
 73
     1
 44
1.0
  0
POINT
  5
1399
330
BA0
100
AcDbEntity
  8
DEFPOINTS
 62
     0
100
AcDbPoint
 10
258.8919757877625
 20
336.9346296033758
 30
0.0
  0
POINT
  5
139A
330
BA0
100
AcDbEntity
  8
DEFPOINTS
 62
     0
100
AcDbPoint
 10
488.8919757877624
 20
336.9346296033758
 30
0.0
  0
POINT
  5
139B
330
BA0
100
AcDbEntity
  8
DEFPOINTS
 62
     0
100
AcDbPoint
 10
488.8919757877624
 20
471.2160402360921
 30
0.0
  0
ENDBLK
  5
BAB
330
BA0
100
AcDbEntity
  8
0
100
AcDbBlockEnd
  0
BLOCK
  5
BB7
330
BAD
100
AcDbEntity
  8
0
100
AcDbBlockBegin
  2
*D3
 70
     1
 10
0.0
 20
0.0
 30
0.0
  3
*D3
  1

  0
LINE
  5
138A
330
BAD
100
AcDbEntity
  8
BEM
 62
     0
370
    -2
100
AcDbLine
 10
203.8919757877625
 20
343.4346296033759
 30
0.0
 11
203.8919757877625
 21
486.7666996069636
 31
0.0
  0
LINE
  5
138B
330
BAD
100
AcDbEntity
  8
BEM
 62
     0
370
    -2
100
AcDbLine
 10
543.8919757877624
 20
343.4346296033758
 30
0.0
 11
543.8919757877624
 21
486.7666996069636
 31
0.0
  0
LINE
  5
138C
330
BAD
100
AcDbEntity
  8
BEM
 62
     0
370
    -2
100
AcDbLine
 10
210.8919757877625
 20
484.7666996069635
 30
0.0
 11
536.8919757877624
 21
484.7666996069635
 31
0.0
  0
SOLID
  5
138D
330
BAD
100
AcDbEntity
  8
BEM
 62
     0
100
AcDbTrace
 10
210.8919757877625
 20
485.9333662736302
 30
0.0
 11
210.8919757877625
 21
483.6000329402969
 31
0.0
 12
203.8919757877625
 22
484.7666996069635
 32
0.0
 13
203.8919757877625
 23
484.7666996069635
 33
0.0
  0
SOLID
  5
138E
330
BAD
100
AcDbEntity
  8
BEM
 62
     0
100
AcDbTrace
 10
536.8919757877624
 20
485.9333662736302
 30
0.0
 11
536.8919757877624
 21
483.6000329402969
 31
0.0
 12
543.8919757877624
 22
484.7666996069635
 32
0.0
 13
543.8919757877624
 23
484.7666996069635
 33
0.0
  0
MTEXT
  5
138F
330
BAD
100
AcDbEntity
  8
BEM
 62
     1
100
AcDbMText
 10
377.0705827005083
 20
491.2666996069636
 30
0.0
 40
7.0
 41
0.0
 71
     5
 72
     1
  1
\A1;500
 73
     1
 44
1.0
  0
POINT
  5
1390
330
BAD
100
AcDbEntity
  8
DEFPOINTS
 62
     0
100
AcDbPoint
 10
203.8919757877625
 20
341.4346296033759
 30
0.0
  0
POINT
  5
1391
330
BAD
100
AcDbEntity
  8
DEFPOINTS
 62
     0
100
AcDbPoint
 10
543.8919757877624
 20
341.4346296033758
 30
0.0
  0
POINT
  5
1392
330
BAD
100
AcDbEntity
  8
DEFPOINTS
 62
     0
100
AcDbPoint
 10
543.8919757877624
 20
484.7666996069635
 30
0.0
  0
ENDBLK
  5
BB8
330
BAD
100
AcDbEntity
  8
0
100
AcDbBlockEnd
  0
BLOCK
  5
12BF
330
12B5
100
AcDbEntity
  8
0
100
AcDbBlockBegin
  2
*D4
 70
     1
 10
0.0
 20
0.0
 30
0.0
  3
*D4
  1

  0
LINE
  5
1354
330
12B5
100
AcDbEntity
  8
BEM
 62
     0
370
    -2
100
AcDbLine
 10
323.3919757877625
 20
443.4346296033758
 30
0.0
 11
323.3919757877625
 21
457.6383234083995
 31
0.0
  0
LINE
  5
1355
330
12B5
100
AcDbEntity
  8
BEM
 62
     0
370
    -2
100
AcDbLine
 10
424.3919757877624
 20
443.4346296033758
 30
0.0
 11
424.3919757877624
 21
457.6383234083995
 31
0.0
  0
LINE
  5
1356
330
12B5
100
AcDbEntity
  8
BEM
 62
     0
370
    -2
100
AcDbLine
 10
330.3919757877625
 20
455.6383234083995
 30
0.0
 11
417.3919757877625
 21
455.6383234083995
 31
0.0
  0
SOLID
  5
1357
330
12B5
100
AcDbEntity
  8
BEM
 62
     0
100
AcDbTrace
 10
330.3919757877625
 20
456.8049900750661
 30
0.0
 11
330.3919757877625
 21
454.4716567417328
 31
0.0
 12
323.3919757877625
 22
455.6383234083995
 32
0.0
 13
323.3919757877625
 23
455.6383234083995
 33
0.0
  0
SOLID
  5
1358
330
12B5
100
AcDbEntity
  8
BEM
 62
     0
100
AcDbTrace
 10
417.3919757877625
 20
456.8049900750661
 30
0.0
 11
417.3919757877625
 21
454.4716567417328
 31
0.0
 12
424.3919757877624
 22
455.6383234083995
 32
0.0
 13
424.3919757877624
 23
455.6383234083995
 33
0.0
  0
MTEXT
  5
1359
330
12B5
100
AcDbEntity
  8
BEM
 62
     1
100
AcDbMText
 10
376.6482228601094
 20
462.1383234083995
 30
0.0
 40
7.0
 41
0.0
 71
     5
 72
     1
  1
\A1;101
 73
     1
 44
1.0
  0
POINT
  5
135A
330
12B5
100
AcDbEntity
  8
DEFPOINTS
 62
     0
100
AcDbPoint
 10
323.3919757877625
 20
441.4346296033758
 30
0.0
  0
POINT
  5
135B
330
12B5
100
AcDbEntity
  8
DEFPOINTS
 62
     0
100
AcDbPoint
 10
424.3919757877624
 20
441.4346296033758
 30
0.0
  0
POINT
  5
135C
330
12B5
100
AcDbEntity
  8
DEFPOINTS
 62
     0
100
AcDbPoint
 10
424.3919757877624
 20
455.6383234083995
 30
0.0
  0
ENDBLK
  5
12C0
330
12B5
100
AcDbEntity
  8
0
100
AcDbBlockEnd
  0
BLOCK
  5
12D9
330
12CD
100
AcDbEntity
  8
0
100
AcDbBlockBegin
  2
*D5
 70
     1
 10
0.0
 20
0.0
 30
0.0
  3
*D5
  1

  0
LINE
  5
1349
330
12CD
100
AcDbEntity
  8
BEM
 62
     0
370
    -2
100
AcDbLine
 10
321.3919757877625
 20
441.4346296033758
 30
0.0
 11
308.8097371666183
 21
441.4346296033758
 31
0.0
  0
LINE
  5
134A
330
12CD
100
AcDbEntity
  8
BEM
 62
     0
370
    -2
100
AcDbLine
 10
321.3919757877625
 20
432.4346296033756
 30
0.0
 11
308.8097371666183
 21
432.4346296033756
 31
0.0
  0
LINE
  5
134B
330
12CD
100
AcDbEntity
  8
BEM
 62
     0
370
    -2
100
AcDbLine
 10
310.8097371666183
 20
448.4346296033757
 30
0.0
 11
310.8097371666183
 21
455.4346296033758
 31
0.0
  0
LINE
  5
134C
330
12CD
100
AcDbEntity
  8
BEM
 62
     0
370
    -2
100
AcDbLine
 10
310.8097371666183
 20
425.4346296033757
 30
0.0
 11
310.8097371666183
 21
408.967962936709
 31
0.0
  0
LINE
  5
134D
330
12CD
100
AcDbEntity
  8
BEM
 62
     0
370
    -2
100
AcDbLine
 10
310.8097371666183
 20
441.4346296033758
 30
0.0
 11
310.8097371666183
 21
432.4346296033756
 31
0.0
  0
SOLID
  5
134E
330
12CD
100
AcDbEntity
  8
BEM
 62
     0
100
AcDbTrace
 10
309.6430704999516
 20
448.4346296033757
 30
0.0
 11
311.976403833285
 21
448.4346296033757
 31
0.0
 12
310.8097371666183
 22
441.4346296033758
 32
0.0
 13
310.8097371666183
 23
441.4346296033758
 33
0.0
  0
SOLID
  5
134F
330
12CD
100
AcDbEntity
  8
BEM
 62
     0
100
AcDbTrace
 10
309.6430704999516
 20
425.4346296033757
 30
0.0
 11
311.976403833285
 21
425.4346296033757
 31
0.0
 12
310.8097371666183
 22
432.4346296033756
 32
0.0
 13
310.8097371666183
 23
432.4346296033756
 33
0.0
  0
MTEXT
  5
1350
330
12CD
100
AcDbEntity
  8
BEM
 62
     1
100
AcDbMText
 10
304.3097371666182
 20
413.7012962700423
 30
0.0
 40
7.0
 41
0.0
 71
     5
 72
     1
  1
\A1;9
 11
0.0000000000000001
 21
1.0
 31
0.0
 73
     1
 44
1.0
  0
POINT
  5
1351
330
12CD
100
AcDbEntity
  8
DEFPOINTS
 62
     0
100
AcDbPoint
 10
323.3919757877625
 20
441.4346296033758
 30
0.0
  0
POINT
  5
1352
330
12CD
100
AcDbEntity
  8
DEFPOINTS
 62
     0
100
AcDbPoint
 10
323.3919757877625
 20
432.4346296033756
 30
0.0
  0
POINT
  5
1353
330
12CD
100
AcDbEntity
  8
DEFPOINTS
 62
     0
100
AcDbPoint
 10
310.8097371666183
 20
432.4346296033756
 30
0.0
  0
ENDBLK
  5
12DA
330
12CD
100
AcDbEntity
  8
0
100
AcDbBlockEnd
  0
BLOCK
  5
13BF
330
13BE
100
AcDbEntity
  8
0
100
AcDbBlockBegin
  2
*X6
 70
     1
 10
0.0
 20
0.0
 30
0.0
  3
*X6
  1

  0
LINE
  5
13C0
330
13BE
100
AcDbEntity
  8
0
 62
     0
100
AcDbLine
 10
287.1203419627699
 20
376.1458187902117
 30
0.0
 11
287.1055530559067
 21
376.1606076970749
 31
0.0
  0
LINE
  5
13C1
330
13BE
100
AcDbEntity
  8
0
 62
     0
100
AcDbLine
 10
287.245207148155
 20
375.8795322485893
 30
0.0
 11
287.0595096899236
 21
376.0652297068206
 31
0.0
  0
LINE
  5
13C2
330
13BE
100
AcDbEntity
  8
0
 62
     0
100
AcDbLine
 10
287.3895446145551
 20
375.5937734259519
 30
0.0
 11
287.0162691776874
 21
375.9670488628196
 31
0.0
  0
LINE
  5
13C3
330
13BE
100
AcDbEntity
  8
0
 62
     0
100
AcDbLine
 10
287.5597193977039
 20
375.2821772865658
 30
0.0
 11
286.9759488146223
 21
375.8659478696474
 31
0.0
  0
LINE
  5
13C4
330
13BE
100
AcDbEntity
  8
0
 62
     0
100
AcDbLine
 10
287.7667259860596
 20
374.9337493419727
 30
0.0
 11
286.9386861306585
 21
375.7617891973739
 31
0.0
  0
LINE
  5
13C5
330
13BE
100
AcDbEntity
  8
0
 62
     0
100
AcDbLine
 10
288.0330125982715
 20
374.5260413735236
 30
0.0
 11
286.9046426811308
 21
375.6544112906642
 31
0.0
  0
LINE
  5
13C6
330
13BE
100
AcDbEntity
  8
0
 62
     0
100
AcDbLine
 10
288.4232186327327
 20
373.9944139828251
 30
0.0
 11
286.8740089460409
 21
375.5436236695169
 31
0.0
  0
LINE
  5
13C7
330
13BE
100
AcDbEntity
  8
0
 62
     0
100
AcDbLine
 10
289.5538483749516
 20
372.7223628843688
 30
0.0
 11
286.8470107443851
 21
375.4292005149352
 31
0.0
  0
LINE
  5
13C8
330
13BE
100
AcDbEntity
  8
0
 62
     0
100
AcDbLine
 10
289.4124270187142
 20
372.7223628843689
 30
0.0
 11
286.8239177628853
 21
375.3108721401977
 31
0.0
  0
LINE
  5
13C9
330
13BE
100
AcDbEntity
  8
0
 62
     0
100
AcDbLine
 10
289.271005662477
 20
372.7223628843689
 30
0.0
 11
286.8050551044376
 21
375.1883134424082
 31
0.0
  0
LINE
  5
13CA
330
13BE
100
AcDbEntity
  8
0
 62
     0
100
AcDbLine
 10
289.1295843062396
 20
372.7223628843689
 30
0.0
 11
286.7908192632437
 21
375.0611279273649
 31
0.0
  0
LINE
  5
13CB
330
13BE
100
AcDbEntity
  8
0
 62
     0
100
AcDbLine
 10
288.9881629500024
 20
372.7223628843689
 30
0.0
 11
286.781700786422
 21
374.9288250479492
 31
0.0
  0
LINE
  5
13CC
330
13BE
100
AcDbEntity
  8
0
 62
     0
100
AcDbLine
 10
288.846741593765
 20
372.7223628843689
 30
0.0
 11
286.7783173941827
 21
374.7907870839511
 31
0.0
  0
LINE
  5
13CD
330
13BE
100
AcDbEntity
  8
0
 62
     0
100
AcDbLine
 10
288.7053202375276
 20
372.7223628843689
 30
0.0
 11
286.7814641487628
 21
374.6462189731337
 31
0.0
  0
LINE
  5
13CE
330
13BE
100
AcDbEntity
  8
0
 62
     0
100
AcDbLine
 10
288.5638988812904
 20
372.7223628843689
 30
0.0
 11
286.7921928355539
 21
374.4940689301053
 31
0.0
  0
LINE
  5
13CF
330
13BE
100
AcDbEntity
  8
0
 62
     0
100
AcDbLine
 10
288.422477525053
 20
372.7223628843689
 30
0.0
 11
286.811944573003
 21
374.332895836419
 31
0.0
  0
LINE
  5
13D0
330
13BE
100
AcDbEntity
  8
0
 62
     0
100
AcDbLine
 10
288.2810561688157
 20
372.7223628843689
 30
0.0
 11
286.842787287575
 21
374.1606317656096
 31
0.0
  0
LINE
  5
13D1
330
13BE
100
AcDbEntity
  8
0
 62
     0
100
AcDbLine
 10
288.1396348125784
 20
372.7223628843689
 30
0.0
 11
286.8878821716178
 21
373.9741155253295
 31
0.0
  0
LINE
  5
13D2
330
13BE
100
AcDbEntity
  8
0
 62
     0
100
AcDbLine
 10
288.1017374443489
 20
372.6188388963611
 30
0.0
 11
286.9525271136755
 21
373.7680492270345
 31
0.0
  0
LINE
  5
13D3
330
13BE
100
AcDbEntity
  8
0
 62
     0
100
AcDbLine
 10
288.1017374443489
 20
372.4774175401238
 30
0.0
 11
287.0470065163199
 21
373.5321484681528
 31
0.0
  0
LINE
  5
13D4
330
13BE
100
AcDbEntity
  8
0
 62
     0
100
AcDbLine
 10
288.1017374443489
 20
372.3359961838865
 30
0.0
 11
287.1977928805879
 21
373.2399407476474
 31
0.0
  0
LINE
  5
13D5
330
13BE
100
AcDbEntity
  8
0
 62
     0
100
AcDbLine
 10
391.244261997531
 20
366.9156287906852
 30
0.0
 11
391.1017374443488
 21
367.0581533438673
 31
0.0
  0
LINE
  5
13D6
330
13BE
100
AcDbEntity
  8
0
 62
     0
100
AcDbLine
 10
391.3935048397004
 20
366.9078073047532
 30
0.0
 11
391.1017374443488
 21
367.1995747001047
 31
0.0
  0
LINE
  5
13D7
330
13BE
100
AcDbEntity
  8
0
 62
     0
100
AcDbLine
 10
391.5427476818697
 20
366.8999858188212
 30
0.0
 11
391.1017374443488
 21
367.340996056342
 31
0.0
  0
LINE
  5
13D8
330
13BE
100
AcDbEntity
  8
0
 62
     0
100
AcDbLine
 10
391.691990524039
 20
366.8921643328892
 30
0.0
 11
391.1017374443488
 21
367.4824174125793
 31
0.0
  0
LINE
  5
13D9
330
13BE
100
AcDbEntity
  8
0
 62
     0
100
AcDbLine
 10
391.8412333662083
 20
366.8843428469572
 30
0.0
 11
391.1017374443488
 21
367.6238387688167
 31
0.0
  0
LINE
  5
13DA
330
13BE
100
AcDbEntity
  8
0
 62
     0
100
AcDbLine
 10
391.9904762083775
 20
366.8765213610253
 30
0.0
 11
391.1017374443488
 21
367.7652601250539
 31
0.0
  0
LINE
  5
13DB
330
13BE
100
AcDbEntity
  8
0
 62
     0
100
AcDbLine
 10
392.1397190505468
 20
366.8686998750933
 30
0.0
 11
391.1017374443488
 21
367.9066814812912
 31
0.0
  0
LINE
  5
13DC
330
13BE
100
AcDbEntity
  8
0
 62
     0
100
AcDbLine
 10
392.2889618927161
 20
366.8608783891613
 30
0.0
 11
391.1017374443488
 21
368.0481028375285
 31
0.0
  0
LINE
  5
13DD
330
13BE
100
AcDbEntity
  8
0
 62
     0
100
AcDbLine
 10
392.4382047348855
 20
366.8530569032293
 30
0.0
 11
391.1017374443488
 21
368.1895241937659
 31
0.0
  0
LINE
  5
13DE
330
13BE
100
AcDbEntity
  8
0
 62
     0
100
AcDbLine
 10
392.5874475770548
 20
366.8452354172973
 30
0.0
 11
391.1017374443488
 21
368.3309455500032
 31
0.0
  0
LINE
  5
13DF
330
13BE
100
AcDbEntity
  8
0
 62
     0
100
AcDbLine
 10
392.736690419224
 20
366.8374139313653
 30
0.0
 11
391.1017374443488
 21
368.4723669062404
 31
0.0
  0
LINE
  5
13E0
330
13BE
100
AcDbEntity
  8
0
 62
     0
100
AcDbLine
 10
392.8859332613933
 20
366.8295924454333
 30
0.0
 11
391.1017374443488
 21
368.6137882624777
 31
0.0
  0
LINE
  5
13E1
330
13BE
100
AcDbEntity
  8
0
 62
     0
100
AcDbLine
 10
393.0351761035626
 20
366.8217709595014
 30
0.0
 11
391.1017374443488
 21
368.7552096187151
 31
0.0
  0
LINE
  5
13E2
330
13BE
100
AcDbEntity
  8
0
 62
     0
100
AcDbLine
 10
393.1844189457319
 20
366.8139494735694
 30
0.0
 11
391.1017374443488
 21
368.8966309749524
 31
0.0
  0
LINE
  5
13E3
330
13BE
100
AcDbEntity
  8
0
 62
     0
100
AcDbLine
 10
393.1112383319247
 20
367.028551443614
 30
0.0
 11
391.1017374443488
 21
369.0380523311898
 31
0.0
  0
LINE
  5
13E4
330
13BE
100
AcDbEntity
  8
0
 62
     0
100
AcDbLine
 10
393.0124655682921
 20
367.2687455634837
 30
0.0
 11
391.1017374443488
 21
369.1794736874269
 31
0.0
  0
LINE
  5
13E5
330
13BE
100
AcDbEntity
  8
0
 62
     0
100
AcDbLine
 10
392.871315811142
 20
367.5513166768711
 30
0.0
 11
391.3220444016714
 21
369.1005880863418
 31
0.0
  0
LINE
  5
13E6
330
13BE
100
AcDbEntity
  8
0
 62
     0
100
AcDbLine
 10
392.6331657472042
 20
367.9308880970463
 30
0.0
 11
391.7016158218466
 21
368.8624380224039
 31
0.0
  0
LINE
  5
13E7
330
13BE
100
AcDbEntity
  8
0
 62
     0
100
AcDbLine
 10
389.6801685909665
 20
372.722362884369
 30
0.0
 11
389.6425962053465
 21
372.759935269989
 31
0.0
  0
LINE
  5
13E8
330
13BE
100
AcDbEntity
  8
0
 62
     0
100
AcDbLine
 10
389.8215899472038
 20
372.722362884369
 30
0.0
 11
389.7157451700767
 21
372.8282076614962
 31
0.0
  0
LINE
  5
13E9
330
13BE
100
AcDbEntity
  8
0
 62
     0
100
AcDbLine
 10
389.9630113034411
 20
372.722362884369
 30
0.0
 11
389.7882197923875
 21
372.8971543954226
 31
0.0
  0
LINE
  5
13EA
330
13BE
100
AcDbEntity
  8
0
 62
     0
100
AcDbLine
 10
390.1044326596785
 20
372.722362884369
 30
0.0
 11
389.860020552938
 21
372.9667749911095
 31
0.0
  0
LINE
  5
13EB
330
13BE
100
AcDbEntity
  8
0
 62
     0
100
AcDbLine
 10
390.2458540159159
 20
372.722362884369
 30
0.0
 11
389.931147748537
 21
373.0370691517479
 31
0.0
  0
LINE
  5
13EC
330
13BE
100
AcDbEntity
  8
0
 62
     0
100
AcDbLine
 10
390.387275372153
 20
372.722362884369
 30
0.0
 11
390.0016014925487
 21
373.1080367639733
 31
0.0
  0
LINE
  5
13ED
330
13BE
100
AcDbEntity
  8
0
 62
     0
100
AcDbLine
 10
391.1641566737532
 20
372.0869029390062
 30
0.0
 11
391.1017374443489
 21
372.1493221684105
 31
0.0
  0
LINE
  5
13EE
330
13BE
100
AcDbEntity
  8
0
 62
     0
100
AcDbLine
 10
390.5286967283903
 20
372.722362884369
 30
0.0
 11
390.0713817150461
 21
373.1796778977133
 31
0.0
  0
LINE
  5
13EF
330
13BE
100
AcDbEntity
  8
0
 62
     0
100
AcDbLine
 10
391.2368438064569
 20
372.1556371625398
 30
0.0
 11
391.1017374443489
 21
372.2907435246479
 31
0.0
  0
LINE
  5
13F0
330
13BE
100
AcDbEntity
  8
0
 62
     0
100
AcDbLine
 10
390.6701180846277
 20
372.722362884369
 30
0.0
 11
390.1404881627162
 21
373.2519928062806
 31
0.0
  0
LINE
  5
13F1
330
13BE
100
AcDbEntity
  8
0
 62
     0
100
AcDbLine
 10
391.3076140460025
 20
372.2262882792316
 30
0.0
 11
391.1017374443489
 21
372.4321648808852
 31
0.0
  0
LINE
  5
13F2
330
13BE
100
AcDbEntity
  8
0
 62
     0
100
AcDbLine
 10
390.8115394408651
 20
372.722362884369
 30
0.0
 11
390.2089203985145
 21
373.3249819267196
 31
0.0
  0
LINE
  5
13F3
330
13BE
100
AcDbEntity
  8
0
 62
     0
100
AcDbLine
 10
391.3764675237435
 20
372.2988561577279
 30
0.0
 11
391.1017374443489
 21
372.5735862371225
 31
0.0
  0
LINE
  5
13F4
330
13BE
100
AcDbEntity
  8
0
 62
     0
100
AcDbLine
 10
390.9529607971024
 20
372.722362884369
 30
0.0
 11
390.2766778010697
 21
373.3986458804017
 31
0.0
  0
LINE
  5
13F5
330
13BE
100
AcDbEntity
  8
0
 62
     0
100
AcDbLine
 10
391.4434001382534
 20
372.3733448994551
 30
0.0
 11
391.1017374443489
 21
372.7150075933597
 31
0.0
  0
LINE
  5
13F6
330
13BE
100
AcDbEntity
  8
0
 62
     0
100
AcDbLine
 10
391.0943821533395
 20
372.722362884369
 30
0.0
 11
390.3437595638347
 21
373.4729854738739
 31
0.0
  0
LINE
  5
13F7
330
13BE
100
AcDbEntity
  8
0
 62
     0
100
AcDbLine
 10
391.5084035098733
 20
372.4497628840726
 30
0.0
 11
390.4101646939823
 21
373.5480016999636
 31
0.0
  0
LINE
  5
13F8
330
13BE
100
AcDbEntity
  8
0
 62
     0
100
AcDbLine
 10
391.5714648871733
 20
372.52812286301
 30
0.0
 11
390.4758920110418
 21
373.6236957391415
 31
0.0
  0
LINE
  5
13F9
330
13BE
100
AcDbEntity
  8
0
 62
     0
100
AcDbLine
 10
391.6325670028716
 20
372.608442103549
 30
0.0
 11
390.540940145272
 21
373.7000689611486
 31
0.0
  0
LINE
  5
13FA
330
13BE
100
AcDbEntity
  8
0
 62
     0
100
AcDbLine
 10
391.6916878753644
 20
372.6907425872935
 30
0.0
 11
390.6053075357665
 21
373.7771229268915
 31
0.0
  0
LINE
  5
13FB
330
13BE
100
AcDbEntity
  8
0
 62
     0
100
AcDbLine
 10
391.7488005504377
 20
372.7750512684575
 30
0.0
 11
390.6689924282821
 21
373.854859390613
 31
0.0
  0
LINE
  5
13FC
330
13BE
100
AcDbEntity
  8
0
 62
     0
100
AcDbLine
 10
391.8038727758832
 20
372.8614003992492
 30
0.0
 11
390.7319928727878
 21
373.9332803023446
 31
0.0
  0
LINE
  5
13FD
330
13BE
100
AcDbEntity
  8
0
 62
     0
100
AcDbLine
 10
391.8568665995063
 20
372.9498279318635
 30
0.0
 11
390.7943067207212
 21
374.0123878106486
 31
0.0
  0
LINE
  5
13FE
330
13BE
100
AcDbEntity
  8
0
 62
     0
100
AcDbLine
 10
391.9077378782641
 20
373.0403780093431
 30
0.0
 11
390.8559316219474
 21
374.0921842656597
 31
0.0
  0
LINE
  5
13FF
330
13BE
100
AcDbEntity
  8
0
 62
     0
100
AcDbLine
 10
391.9564356828178
 20
373.1331015610266
 30
0.0
 11
390.9168650214081
 21
374.1726722224364
 31
0.0
  0
LINE
  5
1400
330
13BE
100
AcDbEntity
  8
0
 62
     0
100
AcDbLine
 10
392.0029015773731
 20
373.2280570227086
 30
0.0
 11
390.9771041554496
 21
374.2538544446321
 31
0.0
  0
LINE
  5
1401
330
13BE
100
AcDbEntity
  8
0
 62
     0
100
AcDbLine
 10
392.0470687489708
 20
373.3253112073482
 30
0.0
 11
391.0366460478179
 21
374.3357339085011
 31
0.0
  0
LINE
  5
1402
330
13BE
100
AcDbEntity
  8
0
 62
     0
100
AcDbLine
 10
392.0888609528916
 20
373.4249403596647
 30
0.0
 11
391.0954875053064
 21
374.4183138072499
 31
0.0
  0
LINE
  5
1403
330
13BE
100
AcDbEntity
  8
0
 62
     0
100
AcDbLine
 10
392.1281912308561
 20
373.5270314379376
 30
0.0
 11
391.1536251130412
 21
374.5015975557525
 31
0.0
  0
LINE
  5
1404
330
13BE
100
AcDbEntity
  8
0
 62
     0
100
AcDbLine
 10
392.1649603452414
 20
373.6316836797897
 30
0.0
 11
391.211055229387
 21
374.5855887956441
 31
0.0
  0
LINE
  5
1405
330
13BE
100
AcDbEntity
  8
0
 62
     0
100
AcDbLine
 10
392.1990548541243
 20
373.739010527144
 30
0.0
 11
391.2677739804559
 21
374.6702914008123
 31
0.0
  0
LINE
  5
1406
330
13BE
100
AcDbEntity
  8
0
 62
     0
100
AcDbLine
 10
392.2303447264002
 20
373.8491420111054
 30
0.0
 11
391.3237772541984
 21
374.7557094833071
 31
0.0
  0
LINE
  5
1407
330
13BE
100
AcDbEntity
  8
0
 62
     0
100
AcDbLine
 10
392.2586803601807
 20
373.9622277335622
 30
0.0
 11
391.3790606940548
 21
374.8418473996882
 31
0.0
  0
LINE
  5
1408
330
13BE
100
AcDbEntity
  8
0
 62
     0
100
AcDbLine
 10
392.2838888159507
 20
374.0784406340295
 30
0.0
 11
391.4336196921427
 21
374.9287097578376
 31
0.0
  0
LINE
  5
1409
330
13BE
100
AcDbEntity
  8
0
 62
     0
100
AcDbLine
 10
392.3057690003292
 20
374.1979818058883
 30
0.0
 11
391.4874493819562
 21
375.0163014242614
 31
0.0
  0
LINE
  5
140A
330
13BE
100
AcDbEntity
  8
0
 62
     0
100
AcDbLine
 10
392.3240854233382
 20
374.3210867391165
 30
0.0
 11
391.540544630546
 21
375.1046275319088
 31
0.0
  0
LINE
  5
140B
330
13BE
100
AcDbEntity
  8
0
 62
     0
100
AcDbLine
 10
392.3385599794598
 20
374.4480335392324
 30
0.0
 11
391.5929000301509
 21
375.1936934885412
 31
0.0
  0
LINE
  5
140C
330
13BE
100
AcDbEntity
  8
0
 62
     0
100
AcDbLine
 10
392.3488609318994
 20
374.57915394303
 30
0.0
 11
391.6445098892463
 21
375.2835049856832
 31
0.0
  0
LINE
  5
140D
330
13BE
100
AcDbEntity
  8
0
 62
     0
100
AcDbLine
 10
392.3545878416658
 20
374.7148483895009
 30
0.0
 11
391.695368222973
 21
375.3740680081938
 31
0.0
  0
LINE
  5
140E
330
13BE
100
AcDbEntity
  8
0
 62
     0
100
AcDbLine
 10
392.3552504509483
 20
374.8556071364558
 30
0.0
 11
391.745468742906
 21
375.4653888444981
 31
0.0
  0
LINE
  5
140F
330
13BE
100
AcDbEntity
  8
0
 62
     0
100
AcDbLine
 10
392.3502382569208
 20
375.0020406867205
 30
0.0
 11
391.7948048461191
 21
375.5574740975222
 31
0.0
  0
LINE
  5
1410
330
13BE
100
AcDbEntity
  8
0
 62
     0
100
AcDbLine
 10
392.3387751931228
 20
375.1549251067558
 30
0.0
 11
391.8433696034984
 21
375.6503306963803
 31
0.0
  0
LINE
  5
1411
330
13BE
100
AcDbEntity
  8
0
 62
     0
100
AcDbLine
 10
392.3198493749179
 20
375.3152722811981
 30
0.0
 11
391.89115574725
 21
375.743965908866
 31
0.0
  0
LINE
  5
1412
330
13BE
100
AcDbEntity
  8
0
 62
     0
100
AcDbLine
 10
392.2920986976056
 20
375.4844443147477
 30
0.0
 11
391.9381556575475
 21
375.8383873548059
 31
0.0
  0
LINE
  5
1413
330
13BE
100
AcDbEntity
  8
0
 62
     0
100
AcDbLine
 10
392.253612619911
 20
375.6643517486797
 30
0.0
 11
391.9843613482543
 21
375.9336030203364
 31
0.0
  0
LINE
  5
1414
330
13BE
100
AcDbEntity
  8
0
 62
     0
100
AcDbLine
 10
392.2015597669313
 20
375.8578259578966
 30
0.0
 11
392.0297644516538
 21
376.029621273174
 31
0.0
  0
LINE
  5
1415
330
13BE
100
AcDbEntity
  8
0
 62
     0
100
AcDbLine
 10
392.1314063985133
 20
376.0694006825519
 30
0.0
 11
392.0743562021107
 21
376.1264508789545
 31
0.0
  0
ENDBLK
  5
1416
330
13BE
100
AcDbEntity
  8
0
100
AcDbBlockEnd
  0
BLOCK
  5
1418
330
1417
100
AcDbEntity
  8
0
100
AcDbBlockBegin
  2
*X7
 70
     1
 10
0.0
 20
0.0
 30
0.0
  3
*X7
  1

  0
LINE
  5
1419
330
1417
100
AcDbEntity
  8
0
 62
     0
100
AcDbLine
 10
234.4775813385072
 20
395.69792744904
 30
0.0
 11
235.5483888269965
 21
396.7687349375293
 31
0.0
  0
LINE
  5
141A
330
1417
100
AcDbEntity
  8
0
 62
     0
100
AcDbLine
 10
232.8983027981761
 20
396.9470760334551
 30
0.0
 11
233.964085727923
 21
398.0128589632021
 31
0.0
  0
LINE
  5
141B
330
1417
100
AcDbEntity
  8
0
 62
     0
100
AcDbLine
 10
231.3747434370224
 20
398.2519437970477
 30
0.0
 11
232.4372241668936
 21
399.3144245269188
 31
0.0
  0
LINE
  5
141C
330
1417
100
AcDbEntity
  8
0
 62
     0
100
AcDbLine
 10
229.906401241113
 20
399.6120287258844
 30
0.0
 11
230.9672549815127
 21
400.672882466284
 31
0.0
  0
LINE
  5
141D
330
1417
100
AcDbEntity
  8
0
 62
     0
100
AcDbLine
 10
228.4930299363982
 20
401.0270845459157
 30
0.0
 11
229.5539089545008
 21
402.0879635640183
 31
0.0
  0
LINE
  5
141E
330
1417
100
AcDbEntity
  8
0
 62
     0
100
AcDbLine
 10
227.1346333437286
 20
402.4971150779923
 30
0.0
 11
228.1971902617261
 21
403.5596719959898
 31
0.0
  0
LINE
  5
141F
330
1417
100
AcDbEntity
  8
0
 62
     0
100
AcDbLine
 10
225.8314654660034
 20
404.0223743250134
 30
0.0
 11
226.8973765733012
 21
405.0882854323111
 31
0.0
  0
LINE
  5
1420
330
1417
100
AcDbEntity
  8
0
 62
     0
100
AcDbLine
 10
224.5840363121301
 20
405.6033722958862
 30
0.0
 11
225.6550258135109
 21
406.6743617972671
 31
0.0
  0
LINE
  5
1421
330
1417
100
AcDbEntity
  8
0
 62
     0
100
AcDbLine
 10
223.3931237727735
 20
407.2408868812758
 30
0.0
 11
224.470989968014
 21
408.3187530765163
 31
0.0
  0
LINE
  5
1422
330
1417
100
AcDbEntity
  8
0
 62
     0
100
AcDbLine
 10
222.2597922042713
 20
408.9359824375198
 30
0.0
 11
223.3464367502332
 21
410.0226269834817
 31
0.0
  0
LINE
  5
1423
330
1417
100
AcDbEntity
  8
0
 62
     0
100
AcDbLine
 10
221.185418785139
 20
410.6900361431336
 30
0.0
 11
222.2828804501402
 21
411.7874978081348
 31
0.0
  0
LINE
  5
1424
330
1417
100
AcDbEntity
  8
0
 62
     0
100
AcDbLine
 10
220.1717292307305
 20
412.5047737134714
 30
0.0
 11
221.2822239501131
 21
413.615268432854
 31
0.0
  0
LINE
  5
1425
330
1417
100
AcDbEntity
  8
0
 62
     0
100
AcDbLine
 10
219.2208451518076
 20
414.3823167592946
 30
0.0
 11
220.346814794306
 21
415.508286401793
 31
0.0
  0
LINE
  5
1426
330
1417
100
AcDbEntity
  8
0
 62
     0
100
AcDbLine
 10
218.3353463211718
 20
416.325245053405
 30
0.0
 11
219.4795194779728
 21
417.4694182102061
 31
0.0
  0
LINE
  5
1427
330
1417
100
AcDbEntity
  8
0
 62
     0
100
AcDbLine
 10
217.5183525244136
 20
418.336678381393
 30
0.0
 11
218.6838220018776
 21
419.5021478588571
 31
0.0
  0
LINE
  5
1428
330
1417
100
AcDbEntity
  8
0
 62
     0
100
AcDbLine
 10
216.7736317679669
 20
420.4203847496925
 30
0.0
 11
217.9639555792069
 21
421.6107085609325
 31
0.0
  0
LINE
  5
1429
330
1417
100
AcDbEntity
  8
0
 62
     0
100
AcDbLine
 10
216.1057448212962
 20
422.5809249277681
 30
0.0
 11
217.3250808135392
 21
423.8002609200109
 31
0.0
  0
LINE
  5
142A
330
1417
100
AcDbEntity
  8
0
 62
     0
100
AcDbLine
 10
215.5202411090665
 20
424.8238483402845
 30
0.0
 11
216.7735307967807
 21
426.0771380279988
 31
0.0
  0
LINE
  5
142B
330
1417
100
AcDbEntity
  8
0
 62
     0
100
AcDbLine
 10
215.0239291509426
 20
427.1559635069068
 30
0.0
 11
216.3171554572476
 21
428.4491898132118
 31
0.0
  0
LINE
  5
142C
330
1417
100
AcDbEntity
  8
0
 62
     0
100
AcDbLine
 10
214.6252585134139
 20
429.5857199941242
 30
0.0
 11
215.9658180855938
 21
430.9262795663041
 31
0.0
  0
LINE
  5
142D
330
1417
100
AcDbEntity
  8
0
 62
     0
100
AcDbLine
 10
214.3348743686701
 20
432.1237629741267
 30
0.0
 11
215.7321343536148
 21
433.5210229590713
 31
0.0
  0
LINE
  5
142E
330
1417
100
AcDbEntity
  8
0
 62
     0
100
AcDbLine
 10
214.1664501217026
 20
434.7837658519053
 30
0.0
 11
215.6326157964406
 21
436.2499315266433
 31
0.0
  0
LINE
  5
142F
330
1417
100
AcDbEntity
  8
0
 62
     0
100
AcDbLine
 10
214.1305266405216
 20
437.5762694954706
 30
0.0
 11
215.6305266405217
 21
439.0762694954706
 31
0.0
  0
LINE
  5
1430
330
1417
100
AcDbEntity
  8
0
 62
     0
100
AcDbLine
 10
214.1305266405216
 20
440.4046966202168
 30
0.0
 11
215.6305266405217
 21
441.9046966202168
 31
0.0
  0
LINE
  5
1431
330
1417
100
AcDbEntity
  8
0
 62
     0
100
AcDbLine
 10
214.1305266405216
 20
443.233123744963
 30
0.0
 11
215.6305266405217
 21
444.733123744963
 31
0.0
  0
LINE
  5
1432
330
1417
100
AcDbEntity
  8
0
 62
     0
100
AcDbLine
 10
214.1305266405216
 20
446.0615508697092
 30
0.0
 11
215.6305266405217
 21
447.5615508697092
 31
0.0
  0
LINE
  5
1433
330
1417
100
AcDbEntity
  8
0
 62
     0
100
AcDbLine
 10
214.1305266405216
 20
448.8899779944553
 30
0.0
 11
215.6305266405217
 21
450.3899779944553
 31
0.0
  0
LINE
  5
1434
330
1417
100
AcDbEntity
  8
0
 62
     0
100
AcDbLine
 10
214.1305266405216
 20
451.7184051192016
 30
0.0
 11
215.6305266405217
 21
453.2184051192016
 31
0.0
  0
LINE
  5
1435
330
1417
100
AcDbEntity
  8
0
 62
     0
100
AcDbLine
 10
214.1305266405216
 20
454.5468322439478
 30
0.0
 11
215.6305266405217
 21
456.0468322439478
 31
0.0
  0
LINE
  5
1436
330
1417
100
AcDbEntity
  8
0
 62
     0
100
AcDbLine
 10
214.1305266405216
 20
457.3752593686939
 30
0.0
 11
215.6305266405217
 21
458.8752593686939
 31
0.0
  0
LINE
  5
1437
330
1417
100
AcDbEntity
  8
0
 62
     0
100
AcDbLine
 10
214.1305266405216
 20
460.2036864934401
 30
0.0
 11
215.6305266405217
 21
461.7036864934402
 31
0.0
  0
LINE
  5
1438
330
1417
100
AcDbEntity
  8
0
 62
     0
100
AcDbLine
 10
214.1305266405216
 20
463.0321136181863
 30
0.0
 11
215.6305266405217
 21
464.5321136181864
 31
0.0
  0
LINE
  5
1439
330
1417
100
AcDbEntity
  8
0
 62
     0
100
AcDbLine
 10
214.1305266405216
 20
465.8605407429325
 30
0.0
 11
215.6305266405217
 21
467.3605407429326
 31
0.0
  0
LINE
  5
143A
330
1417
100
AcDbEntity
  8
0
 62
     0
100
AcDbLine
 10
236.1133484941137
 20
394.5052674799003
 30
0.0
 11
237.1909761529789
 21
395.5828951387656
 31
0.0
  0
LINE
  5
143B
330
1417
100
AcDbEntity
  8
0
 62
     0
100
AcDbLine
 10
237.8066594879542
 20
393.3701513489947
 30
0.0
 11
238.8930053298337
 21
394.4564971908742
 31
0.0
  0
LINE
  5
143C
330
1417
100
AcDbEntity
  8
0
 62
     0
100
AcDbLine
 10
239.5588814274655
 20
392.2939461637597
 30
0.0
 11
240.6559794581944
 21
393.3910441944886
 31
0.0
  0
LINE
  5
143D
330
1417
100
AcDbEntity
  8
0
 62
     0
100
AcDbLine
 10
241.3717766698242
 20
391.2784142813722
 30
0.0
 11
242.4848503650764
 21
392.3914879766245
 31
0.0
  0
LINE
  5
143E
330
1417
100
AcDbEntity
  8
0
 62
     0
100
AcDbLine
 10
315.6305266405216
 20
465.5371642520697
 30
0.0
 11
317.1305266405216
 21
467.0371642520696
 31
0.0
  0
LINE
  5
143F
330
1417
100
AcDbEntity
  8
0
 62
     0
100
AcDbLine
 10
243.2962422215025
 20
390.3744527083044
 30
0.0
 11
244.4533676930446
 21
391.5315781798464
 31
0.0
  0
LINE
  5
1440
330
1417
100
AcDbEntity
  8
0
 62
     0
100
AcDbLine
 10
315.6305266405216
 20
462.7087371273234
 30
0.0
 11
317.1305266405216
 21
464.2087371273235
 31
0.0
  0
LINE
  5
1441
330
1417
100
AcDbEntity
  8
0
 62
     0
100
AcDbLine
 10
245.3889710419755
 20
389.6387544040312
 30
0.0
 11
246.6106633550995
 21
390.8604467171552
 31
0.0
  0
LINE
  5
1442
330
1417
100
AcDbEntity
  8
0
 62
     0
100
AcDbLine
 10
247.6773882396074
 20
389.0987444769169
 30
0.0
 11
248.9943892682685
 21
390.415745505578
 31
0.0
  0
LINE
  5
1443
330
1417
100
AcDbEntity
  8
0
 62
     0
100
AcDbLine
 10
250.2065811116823
 20
388.7995102242456
 30
0.0
 11
251.6698007154035
 21
390.2627298279668
 31
0.0
  0
LINE
  5
1444
330
1417
100
AcDbEntity
  8
0
 62
     0
100
AcDbLine
 10
252.9982278401497
 20
388.7627298279668
 30
0.0
 11
254.4982278401497
 21
390.2627298279668
 31
0.0
  0
LINE
  5
1445
330
1417
100
AcDbEntity
  8
0
 62
     0
100
AcDbLine
 10
255.8266549648959
 20
388.7627298279668
 30
0.0
 11
257.3266549648959
 21
390.2627298279668
 31
0.0
  0
LINE
  5
1446
330
1417
100
AcDbEntity
  8
0
 62
     0
100
AcDbLine
 10
258.655082089642
 20
388.7627298279668
 30
0.0
 11
260.1550820896421
 21
390.2627298279668
 31
0.0
  0
LINE
  5
1447
330
1417
100
AcDbEntity
  8
0
 62
     0
100
AcDbLine
 10
261.4835092143883
 20
388.7627298279668
 30
0.0
 11
262.9835092143883
 21
390.2627298279668
 31
0.0
  0
LINE
  5
1448
330
1417
100
AcDbEntity
  8
0
 62
     0
100
AcDbLine
 10
264.3119363391345
 20
388.7627298279668
 30
0.0
 11
265.6305266405216
 21
390.081320129354
 31
0.0
  0
LINE
  5
1449
330
1417
100
AcDbEntity
  8
0
 62
     0
100
AcDbLine
 10
265.6305266405216
 20
390.081320129354
 30
0.0
 11
265.8119363391344
 21
390.2627298279668
 31
0.0
  0
LINE
  5
144A
330
1417
100
AcDbEntity
  8
0
 62
     0
100
AcDbLine
 10
267.1403634638806
 20
388.7627298279668
 30
0.0
 11
268.6403634638806
 21
390.2627298279668
 31
0.0
  0
LINE
  5
144B
330
1417
100
AcDbEntity
  8
0
 62
     0
100
AcDbLine
 10
269.9687905886268
 20
388.7627298279668
 30
0.0
 11
271.4687905886268
 21
390.2627298279668
 31
0.0
  0
LINE
  5
144C
330
1417
100
AcDbEntity
  8
0
 62
     0
100
AcDbLine
 10
272.797217713373
 20
388.7627298279668
 30
0.0
 11
274.297217713373
 21
390.2627298279668
 31
0.0
  0
LINE
  5
144D
330
1417
100
AcDbEntity
  8
0
 62
     0
100
AcDbLine
 10
275.6256448381192
 20
388.7627298279668
 30
0.0
 11
277.1256448381192
 21
390.2627298279668
 31
0.0
  0
LINE
  5
144E
330
1417
100
AcDbEntity
  8
0
 62
     0
100
AcDbLine
 10
278.4540719628654
 20
388.7627298279668
 30
0.0
 11
279.9546903972098
 21
390.2633482623112
 31
0.0
  0
LINE
  5
144F
330
1417
100
AcDbEntity
  8
0
 62
     0
100
AcDbLine
 10
281.3377477254594
 20
388.8179784658146
 30
0.0
 11
282.9278395236776
 21
390.4080702640328
 31
0.0
  0
LINE
  5
1450
330
1417
100
AcDbEntity
  8
0
 62
     0
100
AcDbLine
 10
284.6704518282752
 20
389.3222554438843
 30
0.0
 11
285.6154166971123
 21
390.2672203127213
 31
0.0
  0
ENDBLK
  5
1451
330
1417
100
AcDbEntity
  8
0
100
AcDbBlockEnd
  0
BLOCK
  5
1453
330
1452
100
AcDbEntity
  8
0
100
AcDbBlockBegin
  2
*X8
 70
     1
 10
0.0
 20
0.0
 30
0.0
  3
*X8
  1

  0
LINE
  5
1454
330
1452
100
AcDbEntity
  8
0
 62
     0
100
AcDbLine
 10
440.9455820080329
 20
382.1267112931083
 30
0.0
 11
439.2547748036593
 21
383.817518497482
 31
0.0
  0
LINE
  5
1455
330
1452
100
AcDbEntity
  8
0
 62
     0
100
AcDbLine
 10
365.4933105128581
 20
457.5789827882831
 30
0.0
 11
363.8025033084844
 21
459.2697899926568
 31
0.0
  0
LINE
  5
1456
330
1452
100
AcDbEntity
  8
0
 62
     0
100
AcDbLine
 10
437.960725164647
 20
382.2831410117479
 30
0.0
 11
436.2699179602734
 21
383.9739482161216
 31
0.0
  0
LINE
  5
1457
330
1452
100
AcDbEntity
  8
0
 62
     0
100
AcDbLine
 10
362.5084536694723
 20
457.7354125069227
 30
0.0
 11
360.8176464650985
 21
459.4262197112964
 31
0.0
  0
LINE
  5
1458
330
1452
100
AcDbEntity
  8
0
 62
     0
100
AcDbLine
 10
434.9758683212613
 20
382.4395707303876
 30
0.0
 11
433.2850611168876
 21
384.1303779347612
 31
0.0
  0
LINE
  5
1459
330
1452
100
AcDbEntity
  8
0
 62
     0
100
AcDbLine
 10
359.5235968260865
 20
457.8918422255624
 30
0.0
 11
357.8327896217127
 21
459.582649429936
 31
0.0
  0
LINE
  5
145A
330
1452
100
AcDbEntity
  8
0
 62
     0
100
AcDbLine
 10
431.9910114778754
 20
382.5960004490273
 30
0.0
 11
430.3002042735018
 21
384.2868076534008
 31
0.0
  0
LINE
  5
145B
330
1452
100
AcDbEntity
  8
0
 62
     0
100
AcDbLine
 10
356.5387399827006
 20
458.0482719442019
 30
0.0
 11
354.8479327783269
 21
459.7390791485756
 31
0.0
  0
LINE
  5
145C
330
1452
100
AcDbEntity
  8
0
 62
     0
100
AcDbLine
 10
429.0061546344896
 20
382.7524301676669
 30
0.0
 11
427.3153474301159
 21
384.4432373720406
 31
0.0
  0
LINE
  5
145D
330
1452
100
AcDbEntity
  8
0
 62
     0
100
AcDbLine
 10
353.5538831393148
 20
458.2047016628416
 30
0.0
 11
351.8630759349411
 21
459.8955088672154
 31
0.0
  0
LINE
  5
145E
330
1452
100
AcDbEntity
  8
0
 62
     0
100
AcDbLine
 10
426.0212977911037
 20
382.9088598863065
 30
0.0
 11
424.3304905867301
 21
384.5996670906801
 31
0.0
  0
LINE
  5
145F
330
1452
100
AcDbEntity
  8
0
 62
     0
100
AcDbLine
 10
350.5690262959289
 20
458.3611313814812
 30
0.0
 11
348.8782190915553
 21
460.0519385858549
 31
0.0
  0
LINE
  5
1460
330
1452
100
AcDbEntity
  8
0
 62
     0
100
AcDbLine
 10
423.0364409477179
 20
383.0652896049461
 30
0.0
 11
421.3456337433442
 21
384.7560968093198
 31
0.0
  0
LINE
  5
1461
330
1452
100
AcDbEntity
  8
0
 62
     0
100
AcDbLine
 10
347.5841694525432
 20
458.5175611001209
 30
0.0
 11
345.8933622481694
 21
460.2083683044946
 31
0.0
  0
LINE
  5
1462
330
1452
100
AcDbEntity
  8
0
 62
     0
100
AcDbLine
 10
420.0515841043321
 20
383.2217193235858
 30
0.0
 11
418.3607768999585
 21
384.9125265279594
 31
0.0
  0
LINE
  5
1463
330
1452
100
AcDbEntity
  8
0
 62
     0
100
AcDbLine
 10
344.5993126091573
 20
458.6739908187605
 30
0.0
 11
342.9085054047836
 21
460.3647980231342
 31
0.0
  0
LINE
  5
1464
330
1452
100
AcDbEntity
  8
0
 62
     0
100
AcDbLine
 10
417.0667272609462
 20
383.3781490422254
 30
0.0
 11
415.3759200565726
 21
385.0689562465991
 31
0.0
  0
LINE
  5
1465
330
1452
100
AcDbEntity
  8
0
 62
     0
100
AcDbLine
 10
341.6144557657715
 20
458.8304205374002
 30
0.0
 11
339.9236485613978
 21
460.5212277417739
 31
0.0
  0
LINE
  5
1466
330
1452
100
AcDbEntity
  8
0
 62
     0
100
AcDbLine
 10
414.0818704175605
 20
383.5345787608651
 30
0.0
 11
412.3910632131868
 21
385.2253859652387
 31
0.0
  0
LINE
  5
1467
330
1452
100
AcDbEntity
  8
0
 62
     0
100
AcDbLine
 10
338.6295989223857
 20
458.9868502560398
 30
0.0
 11
336.9387917180119
 21
460.6776574604135
 31
0.0
  0
LINE
  5
1468
330
1452
100
AcDbEntity
  8
0
 62
     0
100
AcDbLine
 10
411.0970135741746
 20
383.6910084795047
 30
0.0
 11
409.4062063698009
 21
385.3818156838784
 31
0.0
  0
LINE
  5
1469
330
1452
100
AcDbEntity
  8
0
 62
     0
100
AcDbLine
 10
335.6447420789998
 20
459.1432799746795
 30
0.0
 11
333.9539348746261
 21
460.8340871790532
 31
0.0
  0
LINE
  5
146A
330
1452
100
AcDbEntity
  8
0
 62
     0
100
AcDbLine
 10
408.1121567307888
 20
383.8474381981443
 30
0.0
 11
406.4213495264151
 21
385.538245402518
 31
0.0
  0
LINE
  5
146B
330
1452
100
AcDbEntity
  8
0
 62
     0
100
AcDbLine
 10
332.659885235614
 20
459.2997096933191
 30
0.0
 11
330.9690780312402
 21
460.9905168976928
 31
0.0
  0
LINE
  5
146C
330
1452
100
AcDbEntity
  8
0
 62
     0
100
AcDbLine
 10
405.127299887403
 20
384.003867916784
 30
0.0
 11
403.4364926830293
 21
385.6946751211576
 31
0.0
  0
LINE
  5
146D
330
1452
100
AcDbEntity
  8
0
 62
     0
100
AcDbLine
 10
329.6750283922282
 20
459.4561394119587
 30
0.0
 11
327.9842211878544
 21
461.1469466163324
 31
0.0
  0
LINE
  5
146E
330
1452
100
AcDbEntity
  8
0
 62
     0
100
AcDbLine
 10
402.1424430440172
 20
384.1602976354236
 30
0.0
 11
400.4516358396434
 21
385.8511048397972
 31
0.0
  0
LINE
  5
146F
330
1452
100
AcDbEntity
  8
0
 62
     0
100
AcDbLine
 10
326.6901715488423
 20
459.6125691305983
 30
0.0
 11
324.9993643444686
 21
461.303376334972
 31
0.0
  0
LINE
  5
1470
330
1452
100
AcDbEntity
  8
0
 62
     0
100
AcDbLine
 10
399.1575862006314
 20
384.3167273540633
 30
0.0
 11
397.4667789962577
 21
386.0075345584369
 31
0.0
  0
LINE
  5
1471
330
1452
100
AcDbEntity
  8
0
 62
     0
100
AcDbLine
 10
323.7053147054565
 20
459.768998849238
 30
0.0
 11
322.0145075010828
 21
461.4598060536117
 31
0.0
  0
LINE
  5
1472
330
1452
100
AcDbEntity
  8
0
 62
     0
100
AcDbLine
 10
396.1727293572455
 20
384.4731570727029
 30
0.0
 11
394.4819221528718
 21
386.1639642770766
 31
0.0
  0
LINE
  5
1473
330
1452
100
AcDbEntity
  8
0
 62
     0
100
AcDbLine
 10
320.7204578620707
 20
459.9254285678776
 30
0.0
 11
319.029650657697
 21
461.6162357722513
 31
0.0
  0
LINE
  5
1474
330
1452
100
AcDbEntity
  8
0
 62
     0
100
AcDbLine
 10
393.1878725138597
 20
384.6295867913426
 30
0.0
 11
391.4970653094861
 21
386.3203939957162
 31
0.0
  0
LINE
  5
1475
330
1452
100
AcDbEntity
  8
0
 62
     0
100
AcDbLine
 10
317.7356010186849
 20
460.0818582865173
 30
0.0
 11
316.0447938143111
 21
461.772665490891
 31
0.0
  0
LINE
  5
1476
330
1452
100
AcDbEntity
  8
0
 62
     0
100
AcDbLine
 10
390.2030156704739
 20
384.7860165099822
 30
0.0
 11
388.5122084661002
 21
386.4768237143558
 31
0.0
  0
LINE
  5
1477
330
1452
100
AcDbEntity
  8
0
 62
     0
100
AcDbLine
 10
314.750744175299
 20
460.2382880051569
 30
0.0
 11
313.0599369709253
 21
461.9290952095306
 31
0.0
  0
LINE
  5
1478
330
1452
100
AcDbEntity
  8
0
 62
     0
100
AcDbLine
 10
387.218158827088
 20
384.9424462286219
 30
0.0
 11
385.5273516227144
 21
386.6332534329954
 31
0.0
  0
LINE
  5
1479
330
1452
100
AcDbEntity
  8
0
 62
     0
100
AcDbLine
 10
311.7658873319132
 20
460.3947177237966
 30
0.0
 11
310.0750801275395
 21
462.0855249281702
 31
0.0
  0
LINE
  5
147A
330
1452
100
AcDbEntity
  8
0
 62
     0
100
AcDbLine
 10
384.2333019837022
 20
385.0988759472615
 30
0.0
 11
382.5424947793285
 21
386.7896831516351
 31
0.0
  0
LINE
  5
147B
330
1452
100
AcDbEntity
  8
0
 62
     0
100
AcDbLine
 10
308.7810304885274
 20
460.5511474424361
 30
0.0
 11
307.0902232841536
 21
462.2419546468099
 31
0.0
  0
LINE
  5
147C
330
1452
100
AcDbEntity
  8
0
 62
     0
100
AcDbLine
 10
381.2484451403163
 20
385.2553056659011
 30
0.0
 11
379.5576379359427
 21
386.9461128702747
 31
0.0
  0
LINE
  5
147D
330
1452
100
AcDbEntity
  8
0
 62
     0
100
AcDbLine
 10
305.7961736451416
 20
460.7075771610759
 30
0.0
 11
304.1053664407678
 21
462.3983843654496
 31
0.0
  0
LINE
  5
147E
330
1452
100
AcDbEntity
  8
0
 62
     0
100
AcDbLine
 10
378.2635882969306
 20
385.4117353845408
 30
0.0
 11
376.5727810925569
 21
387.1025425889144
 31
0.0
  0
LINE
  5
147F
330
1452
100
AcDbEntity
  8
0
 62
     0
100
AcDbLine
 10
302.8113168017557
 20
460.8640068797155
 30
0.0
 11
301.1205095973819
 21
462.5548140840892
 31
0.0
  0
LINE
  5
1480
330
1452
100
AcDbEntity
  8
0
 62
     0
100
AcDbLine
 10
375.2787314535447
 20
385.5681651031804
 30
0.0
 11
373.5879242491711
 21
387.258972307554
 31
0.0
  0
LINE
  5
1481
330
1452
100
AcDbEntity
  8
0
 62
     0
100
AcDbLine
 10
299.8264599583699
 20
461.0204365983551
 30
0.0
 11
298.2263796853725
 21
462.6205168713524
 31
0.0
  0
LINE
  5
1482
330
1452
100
AcDbEntity
  8
0
 62
     0
100
AcDbLine
 10
372.2938746101589
 20
385.7245948218201
 30
0.0
 11
370.6030674057852
 21
387.4154020261936
 31
0.0
  0
LINE
  5
1483
330
1452
100
AcDbEntity
  8
0
 62
     0
100
AcDbLine
 10
297.0880267119168
 20
460.9304427200619
 30
0.0
 11
295.6255000444063
 21
462.3929693875726
 31
0.0
  0
LINE
  5
1484
330
1452
100
AcDbEntity
  8
0
 62
     0
100
AcDbLine
 10
369.309017766773
 20
385.8810245404597
 30
0.0
 11
367.6182105623994
 21
387.5718317448333
 31
0.0
  0
LINE
  5
1485
330
1452
100
AcDbEntity
  8
0
 62
     0
100
AcDbLine
 10
294.4871470709505
 20
460.7028952362821
 30
0.0
 11
293.02462040344
 21
462.1654219037925
 31
0.0
  0
LINE
  5
1486
330
1452
100
AcDbEntity
  8
0
 62
     0
100
AcDbLine
 10
366.3241609233872
 20
386.0374542590993
 30
0.0
 11
364.6333537190135
 21
387.7282614634729
 31
0.0
  0
LINE
  5
1487
330
1452
100
AcDbEntity
  8
0
 62
     0
100
AcDbLine
 10
363.3393040800014
 20
386.193883977739
 30
0.0
 11
361.6484968756278
 21
387.8846911821126
 31
0.0
  0
LINE
  5
1488
330
1452
100
AcDbEntity
  8
0
 62
     0
100
AcDbLine
 10
360.3544472366156
 20
386.3503136963786
 30
0.0
 11
358.6636400322419
 21
388.0411209007522
 31
0.0
  0
LINE
  5
1489
330
1452
100
AcDbEntity
  8
0
 62
     0
100
AcDbLine
 10
357.3695903932297
 20
386.5067434150183
 30
0.0
 11
355.6787831888561
 21
388.1975506193919
 31
0.0
  0
LINE
  5
148A
330
1452
100
AcDbEntity
  8
0
 62
     0
100
AcDbLine
 10
354.3847335498439
 20
386.6631731336579
 30
0.0
 11
352.6939263454702
 21
388.3539803380315
 31
0.0
  0
LINE
  5
148B
330
1452
100
AcDbEntity
  8
0
 62
     0
100
AcDbLine
 10
351.399876706458
 20
386.8196028522975
 30
0.0
 11
349.7090695020844
 21
388.5104100566711
 31
0.0
  0
LINE
  5
148C
330
1452
100
AcDbEntity
  8
0
 62
     0
100
AcDbLine
 10
348.4150198630723
 20
386.9760325709372
 30
0.0
 11
346.7242126586986
 21
388.6668397753108
 31
0.0
  0
LINE
  5
148D
330
1452
100
AcDbEntity
  8
0
 62
     0
100
AcDbLine
 10
345.4301630196864
 20
387.1324622895768
 30
0.0
 11
343.7393558153128
 21
388.8232694939504
 31
0.0
  0
LINE
  5
148E
330
1452
100
AcDbEntity
  8
0
 62
     0
100
AcDbLine
 10
342.4453061763006
 20
387.2888920082164
 30
0.0
 11
340.7544989719269
 21
388.9796992125901
 31
0.0
  0
LINE
  5
148F
330
1452
100
AcDbEntity
  8
0
 62
     0
100
AcDbLine
 10
339.4604493329147
 20
387.4453217268561
 30
0.0
 11
337.7696421285411
 21
389.1361289312297
 31
0.0
  0
LINE
  5
1490
330
1452
100
AcDbEntity
  8
0
 62
     0
100
AcDbLine
 10
336.4755924895289
 20
387.6017514454957
 30
0.0
 11
334.7847852851553
 21
389.2925586498693
 31
0.0
  0
LINE
  5
1491
330
1452
100
AcDbEntity
  8
0
 62
     0
100
AcDbLine
 10
333.4907356461431
 20
387.7581811641353
 30
0.0
 11
331.7999284417695
 21
389.4489883685089
 31
0.0
  0
LINE
  5
1492
330
1452
100
AcDbEntity
  8
0
 62
     0
100
AcDbLine
 10
330.5058788027573
 20
387.914610882775
 30
0.0
 11
328.8150715983836
 21
389.6054180871486
 31
0.0
  0
LINE
  5
1493
330
1452
100
AcDbEntity
  8
0
 62
     0
100
AcDbLine
 10
327.5210219593714
 20
388.0710406014146
 30
0.0
 11
325.8302147549978
 21
389.7618478057882
 31
0.0
  0
LINE
  5
1494
330
1452
100
AcDbEntity
  8
0
 62
     0
100
AcDbLine
 10
324.5361651159856
 20
388.2274703200543
 30
0.0
 11
322.8453579116119
 21
389.9182775244279
 31
0.0
  0
LINE
  5
1495
330
1452
100
AcDbEntity
  8
0
 62
     0
100
AcDbLine
 10
321.5513082725997
 20
388.3839000386939
 30
0.0
 11
319.8605010682261
 21
390.0747072430675
 31
0.0
  0
LINE
  5
1496
330
1452
100
AcDbEntity
  8
0
 62
     0
100
AcDbLine
 10
318.566451429214
 20
388.5403297573335
 30
0.0
 11
317.1305266405216
 21
389.9762545460258
 31
0.0
  0
LINE
  5
1497
330
1452
100
AcDbEntity
  8
0
 62
     0
100
AcDbLine
 10
317.1305266405216
 20
389.9762545460258
 30
0.0
 11
316.8756442248402
 21
390.2311369617072
 31
0.0
  0
LINE
  5
1498
330
1452
100
AcDbEntity
  8
0
 62
     0
100
AcDbLine
 10
315.581594585828
 20
388.6967594759732
 30
0.0
 11
313.8907873814544
 21
390.3875666803468
 31
0.0
  0
LINE
  5
1499
330
1452
100
AcDbEntity
  8
0
 62
     0
100
AcDbLine
 10
312.5967377424422
 20
388.8531891946129
 30
0.0
 11
310.9059305380686
 21
390.5439963989865
 31
0.0
  0
LINE
  5
149A
330
1452
100
AcDbEntity
  8
0
 62
     0
100
AcDbLine
 10
309.6118808990564
 20
389.0096189132525
 30
0.0
 11
307.9210736946827
 21
390.7004261176261
 31
0.0
  0
LINE
  5
149B
330
1452
100
AcDbEntity
  8
0
 62
     0
100
AcDbLine
 10
306.6270240556705
 20
389.1660486318921
 30
0.0
 11
304.9362168512969
 21
390.8568558362658
 31
0.0
  0
LINE
  5
149C
330
1452
100
AcDbEntity
  8
0
 62
     0
100
AcDbLine
 10
303.6421672122847
 20
389.3224783505317
 30
0.0
 11
301.9513600079111
 21
391.0132855549054
 31
0.0
  0
LINE
  5
149D
330
1452
100
AcDbEntity
  8
0
 62
     0
100
AcDbLine
 10
300.6573103688988
 20
389.4789080691714
 30
0.0
 11
298.9665031645253
 21
391.169715273545
 31
0.0
  0
LINE
  5
149E
330
1452
100
AcDbEntity
  8
0
 62
     0
100
AcDbLine
 10
297.672453525513
 20
389.6353377878111
 30
0.0
 11
295.9816463211394
 21
391.3261449921847
 31
0.0
  0
LINE
  5
149F
330
1452
100
AcDbEntity
  8
0
 62
     0
100
AcDbLine
 10
294.6534698346281
 20
389.8258943539498
 30
0.0
 11
292.7806923217949
 21
391.698671866783
 31
0.0
  0
LINE
  5
14A0
330
1452
100
AcDbEntity
  8
0
 62
     0
100
AcDbLine
 10
291.3625314876425
 20
390.2884055761892
 30
0.0
 11
289.4897539748093
 21
392.1611830890225
 31
0.0
  0
LINE
  5
14A1
330
1452
100
AcDbEntity
  8
0
 62
     0
100
AcDbLine
 10
443.9304388514187
 20
381.9702815744687
 30
0.0
 11
442.2396316470451
 21
383.6610887788424
 31
0.0
  0
LINE
  5
14A2
330
1452
100
AcDbEntity
  8
0
 62
     0
100
AcDbLine
 10
368.478167356244
 20
457.4225530696434
 30
0.0
 11
366.7873601518703
 21
459.1133602740171
 31
0.0
  0
LINE
  5
14A3
330
1452
100
AcDbEntity
  8
0
 62
     0
100
AcDbLine
 10
446.9152956948046
 20
381.8138518558291
 30
0.0
 11
445.224488490431
 21
383.5046590602027
 31
0.0
  0
LINE
  5
14A4
330
1452
100
AcDbEntity
  8
0
 62
     0
100
AcDbLine
 10
371.4630241996298
 20
457.2661233510038
 30
0.0
 11
369.7722169952561
 21
458.9569305553775
 31
0.0
  0
LINE
  5
14A5
330
1452
100
AcDbEntity
  8
0
 62
     0
100
AcDbLine
 10
449.9001525381904
 20
381.6574221371894
 30
0.0
 11
448.2093453338167
 21
383.348229341563
 31
0.0
  0
LINE
  5
14A6
330
1452
100
AcDbEntity
  8
0
 62
     0
100
AcDbLine
 10
374.4478810430156
 20
457.1096936323641
 30
0.0
 11
372.7570738386419
 21
458.8005008367378
 31
0.0
  0
LINE
  5
14A7
330
1452
100
AcDbEntity
  8
0
 62
     0
100
AcDbLine
 10
452.8850093815762
 20
381.5009924185497
 30
0.0
 11
451.1942021772026
 21
383.1917996229234
 31
0.0
  0
LINE
  5
14A8
330
1452
100
AcDbEntity
  8
0
 62
     0
100
AcDbLine
 10
377.4327378864015
 20
456.9532639137245
 30
0.0
 11
375.7419306820277
 21
458.6440711180982
 31
0.0
  0
LINE
  5
14A9
330
1452
100
AcDbEntity
  8
0
 62
     0
100
AcDbLine
 10
455.8698662249621
 20
381.3445626999101
 30
0.0
 11
454.1790590205884
 21
383.0353699042838
 31
0.0
  0
LINE
  5
14AA
330
1452
100
AcDbEntity
  8
0
 62
     0
100
AcDbLine
 10
380.4175947297872
 20
456.7968341950849
 30
0.0
 11
378.7267875254136
 21
458.4876413994585
 31
0.0
  0
LINE
  5
14AB
330
1452
100
AcDbEntity
  8
0
 62
     0
100
AcDbLine
 10
458.8547230683479
 20
381.1881329812705
 30
0.0
 11
457.1639158639743
 21
382.8789401856441
 31
0.0
  0
LINE
  5
14AC
330
1452
100
AcDbEntity
  8
0
 62
     0
100
AcDbLine
 10
383.4024515731731
 20
456.6404044764452
 30
0.0
 11
381.7116443687994
 21
458.331211680819
 31
0.0
  0
LINE
  5
14AD
330
1452
100
AcDbEntity
  8
0
 62
     0
100
AcDbLine
 10
461.8395799117337
 20
381.0317032626309
 30
0.0
 11
460.1487727073601
 21
382.7225104670045
 31
0.0
  0
LINE
  5
14AE
330
1452
100
AcDbEntity
  8
0
 62
     0
100
AcDbLine
 10
386.3873084165589
 20
456.4839747578055
 30
0.0
 11
384.6965012121852
 21
458.1747819621792
 31
0.0
  0
LINE
  5
14AF
330
1452
100
AcDbEntity
  8
0
 62
     0
100
AcDbLine
 10
464.8244367551195
 20
380.8752735439912
 30
0.0
 11
463.1336295507459
 21
382.5660807483648
 31
0.0
  0
LINE
  5
14B0
330
1452
100
AcDbEntity
  8
0
 62
     0
100
AcDbLine
 10
389.3721652599448
 20
456.3275450391659
 30
0.0
 11
387.681358055571
 21
458.0183522435397
 31
0.0
  0
LINE
  5
14B1
330
1452
100
AcDbEntity
  8
0
 62
     0
100
AcDbLine
 10
467.8092935985054
 20
380.7188438253515
 30
0.0
 11
466.1184863941318
 21
382.4096510297252
 31
0.0
  0
LINE
  5
14B2
330
1452
100
AcDbEntity
  8
0
 62
     0
100
AcDbLine
 10
392.3570221033306
 20
456.1711153205263
 30
0.0
 11
390.6662148989568
 21
457.8619225249
 31
0.0
  0
LINE
  5
14B3
330
1452
100
AcDbEntity
  8
0
 62
     0
100
AcDbLine
 10
470.7941504418912
 20
380.5624141067119
 30
0.0
 11
469.1033432375176
 21
382.2532213110855
 31
0.0
  0
LINE
  5
14B4
330
1452
100
AcDbEntity
  8
0
 62
     0
100
AcDbLine
 10
395.3418789467164
 20
456.0146856018866
 30
0.0
 11
393.6510717423427
 21
457.7054928062604
 31
0.0
  0
LINE
  5
14B5
330
1452
100
AcDbEntity
  8
0
 62
     0
100
AcDbLine
 10
473.7790072852771
 20
380.4059843880723
 30
0.0
 11
472.0882000809034
 21
382.0967915924459
 31
0.0
  0
LINE
  5
14B6
330
1452
100
AcDbEntity
  8
0
 62
     0
100
AcDbLine
 10
398.3267357901023
 20
455.858255883247
 30
0.0
 11
396.6359285857286
 21
457.5490630876207
 31
0.0
  0
LINE
  5
14B7
330
1452
100
AcDbEntity
  8
0
 62
     0
100
AcDbLine
 10
476.7638641286628
 20
380.2495546694326
 30
0.0
 11
475.0730569242892
 21
381.9403618738063
 31
0.0
  0
LINE
  5
14B8
330
1452
100
AcDbEntity
  8
0
 62
     0
100
AcDbLine
 10
401.311592633488
 20
455.7018261646073
 30
0.0
 11
399.6207854291144
 21
457.3926333689811
 31
0.0
  0
LINE
  5
14B9
330
1452
100
AcDbEntity
  8
0
 62
     0
100
AcDbLine
 10
479.7487209720487
 20
380.093124950793
 30
0.0
 11
478.0579137676751
 21
381.7839321551666
 31
0.0
  0
LINE
  5
14BA
330
1452
100
AcDbEntity
  8
0
 62
     0
100
AcDbLine
 10
404.2964494768739
 20
455.5453964459677
 30
0.0
 11
402.6056422725002
 21
457.2362036503414
 31
0.0
  0
LINE
  5
14BB
330
1452
100
AcDbEntity
  8
0
 62
     0
100
AcDbLine
 10
482.7335778154346
 20
379.9366952321534
 30
0.0
 11
481.0427706110608
 21
381.627502436527
 31
0.0
  0
LINE
  5
14BC
330
1452
100
AcDbEntity
  8
0
 62
     0
100
AcDbLine
 10
407.2813063202597
 20
455.388966727328
 30
0.0
 11
405.5904991158859
 21
457.0797739317018
 31
0.0
  0
LINE
  5
14BD
330
1452
100
AcDbEntity
  8
0
 62
     0
100
AcDbLine
 10
485.7184346588204
 20
379.7802655135137
 30
0.0
 11
484.0276274544467
 21
381.4710727178873
 31
0.0
  0
LINE
  5
14BE
330
1452
100
AcDbEntity
  8
0
 62
     0
100
AcDbLine
 10
410.2661631636455
 20
455.2325370086885
 30
0.0
 11
408.5753559592718
 21
456.9233442130622
 31
0.0
  0
LINE
  5
14BF
330
1452
100
AcDbEntity
  8
0
 62
     0
100
AcDbLine
 10
488.7032915022062
 20
379.6238357948741
 30
0.0
 11
487.0124842978325
 21
381.3146429992477
 31
0.0
  0
LINE
  5
14C0
330
1452
100
AcDbEntity
  8
0
 62
     0
100
AcDbLine
 10
413.2510200070313
 20
455.0761072900488
 30
0.0
 11
411.5602128026576
 21
456.7669144944225
 31
0.0
  0
LINE
  5
14C1
330
1452
100
AcDbEntity
  8
0
 62
     0
100
AcDbLine
 10
491.688148345592
 20
379.4674060762344
 30
0.0
 11
489.9973411412183
 21
381.1582132806081
 31
0.0
  0
LINE
  5
14C2
330
1452
100
AcDbEntity
  8
0
 62
     0
100
AcDbLine
 10
416.2358768504172
 20
454.9196775714092
 30
0.0
 11
414.5450696460435
 21
456.6104847757828
 31
0.0
  0
LINE
  5
14C3
330
1452
100
AcDbEntity
  8
0
 62
     0
100
AcDbLine
 10
494.6730051889779
 20
379.3109763575948
 30
0.0
 11
492.9821979846042
 21
381.0017835619685
 31
0.0
  0
LINE
  5
14C4
330
1452
100
AcDbEntity
  8
0
 62
     0
100
AcDbLine
 10
419.2207336938031
 20
454.7632478527695
 30
0.0
 11
417.5299264894293
 21
456.4540550571432
 31
0.0
  0
LINE
  5
14C5
330
1452
100
AcDbEntity
  8
0
 62
     0
100
AcDbLine
 10
497.6578620323636
 20
379.1545466389552
 30
0.0
 11
495.96705482799
 21
380.8453538433288
 31
0.0
  0
LINE
  5
14C6
330
1452
100
AcDbEntity
  8
0
 62
     0
100
AcDbLine
 10
422.2055905371889
 20
454.6068181341299
 30
0.0
 11
420.5147833328151
 21
456.2976253385036
 31
0.0
  0
LINE
  5
14C7
330
1452
100
AcDbEntity
  8
0
 62
     0
100
AcDbLine
 10
500.6427188757495
 20
378.9981169203155
 30
0.0
 11
498.9519116713759
 21
380.6889241246892
 31
0.0
  0
LINE
  5
14C8
330
1452
100
AcDbEntity
  8
0
 62
     0
100
AcDbLine
 10
425.1904473805747
 20
454.4503884154902
 30
0.0
 11
423.499640176201
 21
456.1411956198639
 31
0.0
  0
LINE
  5
14C9
330
1452
100
AcDbEntity
  8
0
 62
     0
100
AcDbLine
 10
503.6275757191353
 20
378.8416872016758
 30
0.0
 11
501.9367685147617
 21
380.5324944060495
 31
0.0
  0
LINE
  5
14CA
330
1452
100
AcDbEntity
  8
0
 62
     0
100
AcDbLine
 10
428.1753042239605
 20
454.2939586968507
 30
0.0
 11
426.4844970195868
 21
455.9847659012243
 31
0.0
  0
LINE
  5
14CB
330
1452
100
AcDbEntity
  8
0
 62
     0
100
AcDbLine
 10
506.6124325625212
 20
378.6852574830362
 30
0.0
 11
504.9216253581475
 21
380.3760646874099
 31
0.0
  0
LINE
  5
14CC
330
1452
100
AcDbEntity
  8
0
 62
     0
100
AcDbLine
 10
431.1601610673464
 20
454.1375289782109
 30
0.0
 11
429.4693538629727
 21
455.8283361825846
 31
0.0
  0
LINE
  5
14CD
330
1452
100
AcDbEntity
  8
0
 62
     0
100
AcDbLine
 10
509.4395963686021
 20
378.6865208017015
 30
0.0
 11
507.8985285655006
 21
380.2275886048031
 31
0.0
  0
LINE
  5
14CE
330
1452
100
AcDbEntity
  8
0
 62
     0
100
AcDbLine
 10
434.1450179107322
 20
453.9810992595713
 30
0.0
 11
432.4542107063584
 21
455.671906463945
 31
0.0
  0
LINE
  5
14CF
330
1452
100
AcDbEntity
  8
0
 62
     0
100
AcDbLine
 10
512.1725854129086
 20
378.7819588821412
 30
0.0
 11
510.631517609807
 21
380.3230266852428
 31
0.0
  0
LINE
  5
14D0
330
1452
100
AcDbEntity
  8
0
 62
     0
100
AcDbLine
 10
437.1298747541181
 20
453.8246695409317
 30
0.0
 11
435.4390675497443
 21
455.5154767453053
 31
0.0
  0
LINE
  5
14D1
330
1452
100
AcDbEntity
  8
0
 62
     0
100
AcDbLine
 10
513.807408476545
 20
379.9755629432509
 30
0.0
 11
513.3645066541135
 21
380.4184647656825
 31
0.0
  0
LINE
  5
14D2
330
1452
100
AcDbEntity
  8
0
 62
     0
100
AcDbLine
 10
440.1147315975038
 20
453.6682398222921
 30
0.0
 11
438.4239243931301
 21
455.3590470266658
 31
0.0
  0
LINE
  5
14D3
330
1452
100
AcDbEntity
  8
0
 62
     0
100
AcDbLine
 10
443.0995884408897
 20
453.5118101036524
 30
0.0
 11
441.408781236516
 21
455.2026173080261
 31
0.0
  0
LINE
  5
14D4
330
1452
100
AcDbEntity
  8
0
 62
     0
100
AcDbLine
 10
446.0844452842755
 20
453.3553803850128
 30
0.0
 11
444.3936380799018
 21
455.0461875893865
 31
0.0
  0
LINE
  5
14D5
330
1452
100
AcDbEntity
  8
0
 62
     0
100
AcDbLine
 10
449.0693021276613
 20
453.1989506663731
 30
0.0
 11
447.3784949232876
 21
454.8897578707468
 31
0.0
  0
LINE
  5
14D6
330
1452
100
AcDbEntity
  8
0
 62
     0
100
AcDbLine
 10
452.0541589710472
 20
453.0425209477335
 30
0.0
 11
450.3633517666735
 21
454.7333281521072
 31
0.0
  0
LINE
  5
14D7
330
1452
100
AcDbEntity
  8
0
 62
     0
100
AcDbLine
 10
455.039015814433
 20
452.8860912290938
 30
0.0
 11
453.3482086100593
 21
454.5768984334675
 31
0.0
  0
LINE
  5
14D8
330
1452
100
AcDbEntity
  8
0
 62
     0
100
AcDbLine
 10
458.0238726578188
 20
452.7296615104543
 30
0.0
 11
456.3330654534452
 21
454.4204687148279
 31
0.0
  0
LINE
  5
14D9
330
1452
100
AcDbEntity
  8
0
 62
     0
100
AcDbLine
 10
461.0087295012046
 20
452.5732317918145
 30
0.0
 11
459.3179222968309
 21
454.2640389961882
 31
0.0
  0
LINE
  5
14DA
330
1452
100
AcDbEntity
  8
0
 62
     0
100
AcDbLine
 10
463.9935863445905
 20
452.4168020731749
 30
0.0
 11
462.3027791402168
 21
454.1076092775486
 31
0.0
  0
LINE
  5
14DB
330
1452
100
AcDbEntity
  8
0
 62
     0
100
AcDbLine
 10
466.9784431879763
 20
452.2603723545353
 30
0.0
 11
465.2876359836026
 21
453.951179558909
 31
0.0
  0
LINE
  5
14DC
330
1452
100
AcDbEntity
  8
0
 62
     0
100
AcDbLine
 10
469.9633000313621
 20
452.1039426358957
 30
0.0
 11
468.2724928269884
 21
453.7947498402694
 31
0.0
  0
LINE
  5
14DD
330
1452
100
AcDbEntity
  8
0
 62
     0
100
AcDbLine
 10
472.948156874748
 20
451.947512917256
 30
0.0
 11
471.2573496703742
 21
453.6383201216297
 31
0.0
  0
LINE
  5
14DE
330
1452
100
AcDbEntity
  8
0
 62
     0
100
AcDbLine
 10
475.9330137181338
 20
451.7910831986164
 30
0.0
 11
474.2422065137601
 21
453.4818904029901
 31
0.0
  0
LINE
  5
14DF
330
1452
100
AcDbEntity
  8
0
 62
     0
100
AcDbLine
 10
478.9178705615197
 20
451.6346534799767
 30
0.0
 11
477.2270633571459
 21
453.3254606843504
 31
0.0
  0
LINE
  5
14E0
330
1452
100
AcDbEntity
  8
0
 62
     0
100
AcDbLine
 10
481.9027274049055
 20
451.4782237613371
 30
0.0
 11
480.2119202005317
 21
453.1690309657108
 31
0.0
  0
LINE
  5
14E1
330
1452
100
AcDbEntity
  8
0
 62
     0
100
AcDbLine
 10
484.8875842482913
 20
451.3217940426975
 30
0.0
 11
483.1967770439176
 21
453.0126012470711
 31
0.0
  0
LINE
  5
14E2
330
1452
100
AcDbEntity
  8
0
 62
     0
100
AcDbLine
 10
487.8724410916771
 20
451.1653643240578
 30
0.0
 11
486.1816338873034
 21
452.8561715284316
 31
0.0
  0
LINE
  5
14E3
330
1452
100
AcDbEntity
  8
0
 62
     0
100
AcDbLine
 10
490.857297935063
 20
451.0089346054181
 30
0.0
 11
489.1664907306893
 21
452.6997418097918
 31
0.0
  0
LINE
  5
14E4
330
1452
100
AcDbEntity
  8
0
 62
     0
100
AcDbLine
 10
493.8421547784488
 20
450.8525048867785
 30
0.0
 11
492.151347574075
 21
452.5433120911522
 31
0.0
  0
LINE
  5
14E5
330
1452
100
AcDbEntity
  8
0
 62
     0
100
AcDbLine
 10
496.8270116218347
 20
450.6960751681389
 30
0.0
 11
495.1362044174609
 21
452.3868823725126
 31
0.0
  0
LINE
  5
14E6
330
1452
100
AcDbEntity
  8
0
 62
     0
100
AcDbLine
 10
499.8118684652204
 20
450.5396454494992
 30
0.0
 11
498.1210612608467
 21
452.230452653873
 31
0.0
  0
LINE
  5
14E7
330
1452
100
AcDbEntity
  8
0
 62
     0
100
AcDbLine
 10
502.7967253086063
 20
450.3832157308596
 30
0.0
 11
501.1059181042326
 21
452.0740229352333
 31
0.0
  0
LINE
  5
14E8
330
1452
100
AcDbEntity
  8
0
 62
     0
100
AcDbLine
 10
505.7815821519922
 20
450.2267860122199
 30
0.0
 11
504.0907749476184
 21
451.9175932165937
 31
0.0
  0
LINE
  5
14E9
330
1452
100
AcDbEntity
  8
0
 62
     0
100
AcDbLine
 10
508.7664389953779
 20
450.0703562935803
 30
0.0
 11
507.0756317910042
 21
451.761163497954
 31
0.0
  0
LINE
  5
14EA
330
1452
100
AcDbEntity
  8
0
 62
     0
100
AcDbLine
 10
511.7806258554945
 20
449.88459655821
 30
0.0
 11
510.0604886343901
 21
451.6047337793144
 31
0.0
  0
LINE
  5
14EB
330
1452
100
AcDbEntity
  8
0
 62
     0
100
AcDbLine
 10
515.0715642024802
 20
449.4220853359705
 30
0.0
 11
513.1987866896468
 21
451.2948628488039
 31
0.0
  0
LINE
  5
14EC
330
1452
100
AcDbEntity
  8
0
 62
     0
100
AcDbLine
 10
517.4695072106443
 20
449.8525694525524
 30
0.0
 11
516.4897250366325
 21
450.8323516265644
 31
0.0
  0
ENDBLK
  5
14ED
330
1452
100
AcDbEntity
  8
0
100
AcDbBlockEnd
  0
BLOCK
  5
1583
330
1579
100
AcDbEntity
  8
0
100
AcDbBlockBegin
  2
*D9
 70
     1
 10
0.0
 20
0.0
 30
0.0
  3
*D9
  1

  0
LINE
  5
15A9
330
1579
100
AcDbEntity
  8
BEM
 62
     0
370
    -2
100
AcDbLine
 10
545.8919757877624
 20
340.4346296033758
 30
0.0
 11
665.2348333862199
 21
340.4346296033757
 31
0.0
  0
LINE
  5
15AA
330
1579
100
AcDbEntity
  8
BEM
 62
     0
370
    -2
100
AcDbLine
 10
645.4498777061405
 20
260.4346296033759
 30
0.0
 11
665.2348333862199
 21
260.4346296033759
 31
0.0
  0
LINE
  5
15AB
330
1579
100
AcDbEntity
  8
BEM
 62
     0
370
    -2
100
AcDbLine
 10
663.2348333862198
 20
333.4346296033757
 30
0.0
 11
663.2348333862198
 21
267.4346296033759
 31
0.0
  0
SOLID
  5
15AC
330
1579
100
AcDbEntity
  8
BEM
 62
     0
100
AcDbTrace
 10
662.0681667195532
 20
333.4346296033757
 30
0.0
 11
664.4015000528865
 21
333.4346296033757
 31
0.0
 12
663.2348333862198
 22
340.4346296033757
 32
0.0
 13
663.2348333862198
 23
340.4346296033757
 33
0.0
  0
SOLID
  5
15AD
330
1579
100
AcDbEntity
  8
BEM
 62
     0
100
AcDbTrace
 10
662.0681667195532
 20
267.4346296033759
 30
0.0
 11
664.4015000528865
 21
267.4346296033759
 31
0.0
 12
663.2348333862198
 22
260.4346296033759
 32
0.0
 13
663.2348333862198
 23
260.4346296033759
 33
0.0
  0
MTEXT
  5
15AE
330
1579
100
AcDbEntity
  8
BEM
 62
     1
100
AcDbMText
 10
656.7348333862197
 20
300.4346296033759
 30
0.0
 40
7.0
 41
0.0
 71
     5
 72
     1
  1
\A1;80
 11
0.0000000000000001
 21
1.0
 31
0.0
 73
     1
 44
1.0
  0
POINT
  5
15AF
330
1579
100
AcDbEntity
  8
DEFPOINTS
 62
     0
100
AcDbPoint
 10
543.8919757877624
 20
340.4346296033758
 30
0.0
  0
POINT
  5
15B0
330
1579
100
AcDbEntity
  8
DEFPOINTS
 62
     0
100
AcDbPoint
 10
643.4498777061405
 20
260.4346296033759
 30
0.0
  0
POINT
  5
15B1
330
1579
100
AcDbEntity
  8
DEFPOINTS
 62
     0
100
AcDbPoint
 10
663.2348333862198
 20
260.4346296033759
 30
0.0
  0
ENDBLK
  5
1584
330
1579
100
AcDbEntity
  8
0
100
AcDbBlockEnd
  0
BLOCK
  5
158F
330
1585
100
AcDbEntity
  8
0
100
AcDbBlockBegin
  2
*D10
 70
     1
 10
0.0
 20
0.0
 30
0.0
  3
*D10
  1

  0
LINE
  5
15B2
330
1585
100
AcDbEntity
  8
BEM
 62
     0
370
    -2
100
AcDbLine
 10
621.8077200516119
 20
297.0939514468897
 30
0.0
 11
647.3406114320416
 21
295.7558293109662
 31
0.0
  0
LINE
  5
15B3
330
1585
100
AcDbEntity
  8
BEM
 62
     0
370
    -2
100
AcDbLine
 10
617.9871952458768
 20
224.1939954098057
 30
0.0
 11
643.5200866263065
 21
222.8558732738822
 31
0.0
  0
LINE
  5
15B4
330
1585
100
AcDbEntity
  8
BEM
 62
     0
370
    -2
100
AcDbLine
 10
644.9770006688318
 20
288.87009448017
 30
0.0
 11
641.889179250498
 21
229.9509519296502
 31
0.0
  0
SOLID
  5
15B5
330
1585
100
AcDbEntity
  8
BEM
 62
     0
100
AcDbTrace
 10
643.8119328782849
 20
288.9311530957868
 30
0.0
 11
646.1420684593788
 21
288.8090358645533
 31
0.0
 12
645.3433523625325
 22
295.860501223452
 32
0.0
 13
645.3433523625325
 23
295.860501223452
 33
0.0
  0
SOLID
  5
15B6
330
1585
100
AcDbEntity
  8
BEM
 62
     0
100
AcDbTrace
 10
640.7241114599511
 20
230.0120105452669
 30
0.0
 11
643.0542470410451
 21
229.8898933140334
 31
0.0
 12
641.5228275567974
 22
222.9605451863681
 32
0.0
 13
641.5228275567974
 23
222.9605451863681
 33
0.0
  0
MTEXT
  5
15B7
330
1585
100
AcDbEntity
  8
BEM
 62
     1
100
AcDbMText
 10
636.9419979837601
 20
259.7507069204891
 30
0.0
 40
7.0
 41
0.0
 71
     5
 72
     1
  1
\A1;%%c73
 11
0.052335956242946
 21
0.9986295347545739
 31
0.0
 73
     1
 44
1.0
  0
POINT
  5
15B8
330
1585
100
AcDbEntity
  8
DEFPOINTS
 62
     0
100
AcDbPoint
 10
619.8104609821028
 20
297.1986233593755
 30
0.0
  0
POINT
  5
15B9
330
1585
100
AcDbEntity
  8
DEFPOINTS
 62
     0
100
AcDbPoint
 10
615.9899361763677
 20
224.2986673222916
 30
0.0
  0
POINT
  5
15BA
330
1585
100
AcDbEntity
  8
DEFPOINTS
 62
     0
100
AcDbPoint
 10
641.5228275567974
 20
222.9605451863681
 30
0.0
  0
ENDBLK
  5
1590
330
1585
100
AcDbEntity
  8
0
100
AcDbBlockEnd
  0
BLOCK
  5
159B
330
1591
100
AcDbEntity
  8
0
100
AcDbBlockBegin
  2
*D11
 70
     1
 10
0.0
 20
0.0
 30
0.0
  3
*D11
  1

  0
LINE
  5
15BB
330
1591
100
AcDbEntity
  8
BEM
 62
     0
370
    -2
100
AcDbLine
 10
373.8919757877624
 20
227.4346296033758
 30
0.0
 11
373.8919757877624
 21
197.630290362265
 31
0.0
  0
LINE
  5
15BC
330
1591
100
AcDbEntity
  8
BEM
 62
     0
370
    -2
100
AcDbLine
 10
623.8919757877625
 20
258.4346296033759
 30
0.0
 11
623.8919757877625
 21
197.630290362265
 31
0.0
  0
LINE
  5
15BD
330
1591
100
AcDbEntity
  8
BEM
 62
     0
370
    -2
100
AcDbLine
 10
380.8919757877624
 20
199.630290362265
 30
0.0
 11
616.8919757877626
 21
199.630290362265
 31
0.0
  0
SOLID
  5
15BE
330
1591
100
AcDbEntity
  8
BEM
 62
     0
100
AcDbTrace
 10
380.8919757877624
 20
200.7969570289316
 30
0.0
 11
380.8919757877624
 21
198.4636236955983
 31
0.0
 12
373.8919757877624
 22
199.630290362265
 32
0.0
 13
373.8919757877624
 23
199.630290362265
 33
0.0
  0
SOLID
  5
15BF
330
1591
100
AcDbEntity
  8
BEM
 62
     0
100
AcDbTrace
 10
616.8919757877626
 20
200.7969570289316
 30
0.0
 11
616.8919757877626
 21
198.4636236955983
 31
0.0
 12
623.8919757877625
 22
199.630290362265
 32
0.0
 13
623.8919757877625
 23
199.630290362265
 33
0.0
  0
MTEXT
  5
15C0
330
1591
100
AcDbEntity
  8
BEM
 62
     1
100
AcDbMText
 10
498.8919757877624
 20
206.130290362265
 30
0.0
 40
7.0
 41
0.0
 71
     5
 72
     1
  1
\A1;250
 73
     1
 44
1.0
  0
POINT
  5
15C1
330
1591
100
AcDbEntity
  8
DEFPOINTS
 62
     0
100
AcDbPoint
 10
373.8919757877624
 20
229.4346296033758
 30
0.0
  0
POINT
  5
15C2
330
1591
100
AcDbEntity
  8
DEFPOINTS
 62
     0
100
AcDbPoint
 10
623.8919757877625
 20
260.4346296033759
 30
0.0
  0
POINT
  5
15C3
330
1591
100
AcDbEntity
  8
DEFPOINTS
 62
     0
100
AcDbPoint
 10
623.8919757877625
 20
199.630290362265
 30
0.0
  0
ENDBLK
  5
159C
330
1591
100
AcDbEntity
  8
0
100
AcDbBlockEnd
  0
BLOCK
  5
15A7
330
159D
100
AcDbEntity
  8
0
100
AcDbBlockBegin
  2
*D12
 70
     1
 10
0.0
 20
0.0
 30
0.0
  3
*D12
  1

  0
LINE
  5
15C4
330
159D
100
AcDbEntity
  8
BEM
 62
     0
370
    -2
100
AcDbLine
 10
264.397750009546
 20
340.4346296033759
 30
0.0
 11
245.0632819242008
 21
340.4346296033759
 31
0.0
  0
LINE
  5
15C5
330
159D
100
AcDbEntity
  8
BEM
 62
     0
370
    -2
100
AcDbLine
 10
357.7250920085749
 20
234.4346296033759
 30
0.0
 11
245.0632819242007
 21
234.4346296033759
 31
0.0
  0
LINE
  5
15C6
330
159D
100
AcDbEntity
  8
BEM
 62
     0
370
    -2
100
AcDbLine
 10
247.0632819242008
 20
333.4346296033759
 30
0.0
 11
247.0632819242007
 21
241.4346296033759
 31
0.0
  0
SOLID
  5
15C7
330
159D
100
AcDbEntity
  8
BEM
 62
     0
100
AcDbTrace
 10
245.8966152575341
 20
333.4346296033759
 30
0.0
 11
248.2299485908674
 21
333.4346296033759
 31
0.0
 12
247.0632819242008
 22
340.4346296033759
 32
0.0
 13
247.0632819242008
 23
340.4346296033759
 33
0.0
  0
SOLID
  5
15C8
330
159D
100
AcDbEntity
  8
BEM
 62
     0
100
AcDbTrace
 10
245.8966152575341
 20
241.4346296033759
 30
0.0
 11
248.2299485908674
 21
241.4346296033759
 31
0.0
 12
247.0632819242007
 22
234.4346296033759
 32
0.0
 13
247.0632819242007
 23
234.4346296033759
 33
0.0
  0
MTEXT
  5
15C9
330
159D
100
AcDbEntity
  8
BEM
 62
     1
100
AcDbMText
 10
240.5632819242007
 20
287.4346296033759
 30
0.0
 40
7.0
 41
0.0
 71
     5
 72
     1
  1
\A1;106
 11
0.0000000000000001
 21
1.0
 31
0.0
 73
     1
 44
1.0
  0
POINT
  5
15CA
330
159D
100
AcDbEntity
  8
DEFPOINTS
 62
     0
100
AcDbPoint
 10
266.397750009546
 20
340.4346296033759
 30
0.0
  0
POINT
  5
15CB
330
159D
100
AcDbEntity
  8
DEFPOINTS
 62
     0
100
AcDbPoint
 10
359.7250920085749
 20
234.4346296033759
 30
0.0
  0
POINT
  5
15CC
330
159D
100
AcDbEntity
  8
DEFPOINTS
 62
     0
100
AcDbPoint
 10
247.0632819242007
 20
234.4346296033759
 30
0.0
  0
ENDBLK
  5
15A8
330
159D
100
AcDbEntity
  8
0
100
AcDbBlockEnd
  0
ENDSEC
  0
SECTION
  2
ENTITIES
  0
LINE
  5
58
330
1E
100
AcDbEntity
  8
STEMPEL
100
AcDbLine
 10
830.0000000000002
 20
110.0
 30
0.0
 11
470.0000000000001
 21
110.0
 31
0.0
  0
LINE
  5
59
330
1E
100
AcDbEntity
  8
STEMPEL
100
AcDbLine
 10
470.0000000000001
 20
110.0
 30
0.0
 11
470.0000000000001
 21
10.0
 31
0.0
  0
LINE
  5
5A
330
1E
100
AcDbEntity
  8
STEMPEL
100
AcDbLine
 10
566.0000000000002
 20
109.9999999999999
 30
0.0
 11
566.0000000000001
 21
9.999999999999886
 31
0.0
  0
LINE
  5
5B
330
1E
100
AcDbEntity
  8
STEMPEL
100
AcDbLine
 10
650.0
 20
110.0
 30
0.0
 11
650.0
 21
10.0
 31
0.0
  0
LINE
  5
5C
330
1E
100
AcDbEntity
  8
STEMPEL
100
AcDbLine
 10
752.0000000000002
 20
109.9999999999997
 30
0.0
 11
752.0000000000002
 21
40.0
 31
0.0
  0
LINE
  5
5D
330
1E
100
AcDbEntity
  8
STEMPEL
100
AcDbLine
 10
566.0
 20
30.0
 30
0.0
 11
470.0000000000001
 21
30.0
 31
0.0
  0
LINE
  5
5E
330
1E
100
AcDbEntity
  8
STEMPEL
100
AcDbLine
 10
830.0000000000002
 20
40.0
 30
0.0
 11
566.0000000000001
 21
40.0
 31
0.0
  0
LINE
  5
5F
330
1E
100
AcDbEntity
  8
STEMPEL
100
AcDbLine
 10
830.0000000000002
 20
80.0
 30
0.0
 11
566.0000000000002
 21
80.0
 31
0.0
  0
LINE
  5
60
330
1E
100
AcDbEntity
  8
VOLL
100
AcDbLine
 10
484.0000000000002
 20
110.0
 30
0.0
 11
484.0000000000001
 21
9.999999999999985
 31
0.0
  0
LINE
  5
61
330
1E
100
AcDbEntity
  8
VOLL
100
AcDbLine
 10
524.0000000000001
 20
109.9999999999999
 30
0.0
 11
524.0000000000001
 21
9.999999999999943
 31
0.0
  0
LINE
  5
62
330
1E
100
AcDbEntity
  8
VOLL
100
AcDbLine
 10
544.0000000000002
 20
109.9999999999999
 30
0.0
 11
544.0000000000001
 21
9.999999999999914
 31
0.0
  0
LINE
  5
63
330
1E
100
AcDbEntity
  8
VOLL
100
AcDbLine
 10
584.0000000000002
 20
80.0
 30
0.0
 11
584.0000000000002
 21
40.0
 31
0.0
  0
LINE
  5
64
330
1E
100
AcDbEntity
  8
VOLL
100
AcDbLine
 10
610.0000000000002
 20
109.9999999999998
 30
0.0
 11
610.0000000000001
 21
40.0
 31
0.0
  0
LINE
  5
65
330
1E
100
AcDbEntity
  8
HILF
100
AcDbLine
 10
470.0000000000001
 20
100.0
 30
0.0
 11
566.0000000000002
 21
100.0
 31
0.0
  0
LINE
  5
66
330
1E
100
AcDbEntity
  8
HILF
100
AcDbLine
 10
470.0000000000001
 20
90.0
 30
0.0
 11
566.0000000000002
 21
90.0
 31
0.0
  0
LINE
  5
67
330
1E
100
AcDbEntity
  8
HILF
100
AcDbLine
 10
470.0000000000001
 20
80.0
 30
0.0
 11
566.0000000000002
 21
80.0
 31
0.0
  0
LINE
  5
68
330
1E
100
AcDbEntity
  8
HILF
100
AcDbLine
 10
470.0000000000001
 20
70.0
 30
0.0
 11
566.0000000000002
 21
70.0
 31
0.0
  0
LINE
  5
69
330
1E
100
AcDbEntity
  8
HILF
100
AcDbLine
 10
470.0000000000001
 20
60.0
 30
0.0
 11
566.0000000000002
 21
60.0
 31
0.0
  0
LINE
  5
6A
330
1E
100
AcDbEntity
  8
HILF
100
AcDbLine
 10
470.0000000000001
 20
50.0
 30
0.0
 11
566.0000000000002
 21
50.0
 31
0.0
  0
LINE
  5
6B
330
1E
100
AcDbEntity
  8
HILF
100
AcDbLine
 10
470.0000000000001
 20
40.0
 30
0.0
 11
566.0000000000002
 21
40.0
 31
0.0
  0
LINE
  5
6C
330
1E
100
AcDbEntity
  8
HILF
100
AcDbLine
 10
566.0000000000002
 20
70.0
 30
0.0
 11
650.0
 21
70.0
 31
0.0
  0
LINE
  5
6D
330
1E
100
AcDbEntity
  8
HILF
100
AcDbLine
 10
566.0000000000002
 20
60.0
 30
0.0
 11
650.0
 21
60.0
 31
0.0
  0
LINE
  5
6E
330
1E
100
AcDbEntity
  8
HILF
100
AcDbLine
 10
566.0000000000002
 20
50.0
 30
0.0
 11
650.0
 21
50.0
 31
0.0
  0
LINE
  5
6F
330
1E
100
AcDbEntity
  8
HILF
100
AcDbLine
 10
654.7736801096948
 20
84.03758247564136
 30
0.0
 11
746.6297842514811
 21
84.03758247564136
 31
0.0
  0
LINE
  5
70
330
1E
100
AcDbEntity
  8
HILF
100
AcDbLine
 10
654.7736801096948
 20
70.0
 30
0.0
 11
746.6297842514811
 21
70.0
 31
0.0
  0
LINE
  5
71
330
1E
100
AcDbEntity
  8
HILF
100
AcDbLine
 10
654.7736801096948
 20
60.0
 30
0.0
 11
746.6297842514811
 21
60.0
 31
0.0
  0
LINE
  5
72
330
1E
100
AcDbEntity
  8
HILF
100
AcDbLine
 10
654.7736801096948
 20
50.0
 30
0.0
 11
746.6297842514811
 21
50.0
 31
0.0
  0
LINE
  5
73
330
1E
100
AcDbEntity
  8
VOLL
100
AcDbLine
 10
752.0000000000002
 20
60.0
 30
0.0
 11
830.0000000000002
 21
60.0
 31
0.0
  0
LINE
  5
74
330
1E
100
AcDbEntity
  8
HILF
100
AcDbLine
 10
756.7238616296995
 20
83.77983636955823
 30
0.0
 11
824.858883932673
 21
83.77983636955823
 31
0.0
  0
LINE
  5
75
330
1E
100
AcDbEntity
  8
HILF
100
AcDbLine
 10
654.7736801096948
 20
14.89398258028305
 30
0.0
 11
824.858883932673
 21
14.89398258028305
 31
0.0
  0
TEXT
  5
76
330
1E
100
AcDbEntity
  8
TEXT
100
AcDbText
 10
492.3998239263297
 20
18.67381894984129
 30
0.0
 40
4.0
  1
Änderung
 41
0.8
  7
GREEKS
 72
     1
 11
503.1426810691868
 21
18.67381894984129
 31
0.0
100
AcDbText
  0
TEXT
  5
78
330
1E
100
AcDbEntity
  8
TEXT
100
AcDbText
 10
573.5163572150378
 20
102.4620895087088
 30
0.0
 40
5.0
  1
Maßstab
 41
0.8
  7
GREEKS
100
AcDbText
  0
TEXT
  5
79
330
1E
100
AcDbEntity
  8
TEXT
100
AcDbText
 10
654.8779403809011
 20
102.5489328011779
 30
0.0
 40
5.0
  1
Benennung
 41
0.8
  7
GREEKS
100
AcDbText
  0
TEXT
  5
7A
330
1E
100
AcDbEntity
  8
TEXT
100
AcDbText
 10
756.1787549576343
 20
102.3132034537135
 30
0.0
 40
5.0
  1
Zeichnungs Nr.
 41
0.8
  7
GREEKS
100
AcDbText
  0
TEXT
  5
7B
330
1E
100
AcDbEntity
  8
TEXT
100
AcDbText
 10
654.742238391136
 20
30.84560570193055
 30
0.0
 40
5.0
  1
Bauvorhaben
 41
0.8
  7
GREEKS
100
AcDbText
  0
TEXT
  5
7C
330
1E
100
AcDbEntity
  8
TEXT
100
AcDbText
 10
756.7238616296995
 20
73.18118237099965
 30
0.0
 40
5.0
  1
Ersatz für:
 41
0.8
  7
GREEKS
100
AcDbText
  0
TEXT
  5
7D
330
1E
100
AcDbEntity
  8
TEXT
100
AcDbText
 10
478.2664110704577
 20
13.65465846027187
 30
0.0
 40
4.0
  1
Index
 50
90.0
 41
0.8
  7
GREEKS
100
AcDbText
  0
TEXT
  5
7E
330
1E
100
AcDbEntity
  8
TEXT
100
AcDbText
 10
529.8990113186979
 20
18.67156269339808
 30
0.0
 40
4.0
  1
Tag
 41
0.8
  7
GREEKS
 72
     1
 11
533.6323446520313
 21
18.67156269339808
 31
0.0
100
AcDbText
  0
TEXT
  5
7F
330
1E
100
AcDbEntity
  8
TEXT
100
AcDbText
 10
548.9795678138293
 20
18.59324216966404
 30
0.0
 40
4.0
  1
Name
 41
0.8
  7
GREEKS
 72
     1
 11
555.3033773376388
 21
18.59324216966404
 31
0.0
100
AcDbText
  0
TEXT
  5
80
330
1E
100
AcDbEntity
  8
TEXT
100
AcDbText
 10
592.3311673153651
 20
73.31880501229919
 30
0.0
 40
4.0
  1
Tag
 41
0.8
  7
GREEKS
100
AcDbText
  0
TEXT
  5
81
330
1E
100
AcDbEntity
  8
TEXT
100
AcDbText
 10
622.4626584226296
 20
73.3096109191522
 30
0.0
 40
4.0
  1
Name
 41
0.8
  7
GREEKS
100
AcDbText
  0
TEXT
  5
82
330
1E
100
AcDbEntity
  8
TEXT
100
AcDbText
 10
567.5836127167616
 20
63.62990369617961
 30
0.0
 40
4.0
  1
Gez.
 41
0.8
  7
GREEKS
100
AcDbText
  0
TEXT
  5
83
330
1E
100
AcDbEntity
  8
TEXT
100
AcDbText
 10
567.5515086571673
 20
53.68926291428373
 30
0.0
 40
4.0
  1
Gepr.
 41
0.8
  7
GREEKS
100
AcDbText
  0
TEXT
  5
84
330
1E
100
AcDbEntity
  8
TEXT
100
AcDbText
 10
567.6006777387304
 20
43.52946389649804
 30
0.0
 40
4.0
  1
Norm.
 41
0.8
  7
GREEKS
100
AcDbText
  0
TEXT
  5
85
330
1E
100
AcDbEntity
  8
TEXT
100
AcDbText
 10
757.2400861497007
 20
52.07416177878596
 30
0.0
 40
5.0
  1
ersetzt durch:
 41
0.8
  7
GREEKS
100
AcDbText
  0
TEXT
  5
86
330
1E
100
AcDbEntity
  8
TEXT
100
AcDbText
 10
568.8693027807324
 20
72.96682596523723
 30
0.0
 40
4.0
  1
2012
 41
0.8
  7
GREEKS
100
AcDbText
  0
LINE
  5
87
330
1E
100
AcDbEntity
  8
HILF
100
AcDbLine
 10
0.0
 20
0.0
 30
0.0
 11
840.0
 21
0.0
 31
0.0
  0
LINE
  5
88
330
1E
100
AcDbEntity
  8
HILF
100
AcDbLine
 10
840.0
 20
0.0
 30
0.0
 11
840.0
 21
594.0
 31
0.0
  0
LINE
  5
89
330
1E
100
AcDbEntity
  8
HILF
100
AcDbLine
 10
840.0
 20
594.0
 30
0.0
 11
0.0
 21
594.0
 31
0.0
  0
LINE
  5
8B
330
1E
100
AcDbEntity
  8
STEMPEL
100
AcDbLine
 10
830.0
 20
584.0
 30
0.0
 11
40.0
 21
584.0
 31
0.0
  0
LINE
  5
8D
330
1E
100
AcDbEntity
  8
STEMPEL
100
AcDbLine
 10
40.0
 20
10.0
 30
0.0
 11
830.0
 21
10.0
 31
0.0
  0
LINE
  5
8E
330
1E
100
AcDbEntity
  8
STEMPEL
100
AcDbLine
 10
830.0
 20
10.0
 30
0.0
 11
830.0
 21
584.0
 31
0.0
  0
TEXT
  5
8F
330
1E
100
AcDbEntity
  8
TEXT
 62
     1
100
AcDbText
 10
655.0390572473189
 20
87.37343075652544
 30
0.0
 40
7.0
  1
Balkonablauf DN70
 41
0.8
  7
GREEKS
100
AcDbText
  0
TEXT
  5
90
330
1E
100
AcDbEntity
  8
TEXT
 62
     1
100
AcDbText
 10
766.6628088850802
 20
87.37343075652544
 30
0.0
 40
7.0
  1
15476070W
 41
0.8
  7
GREEKS
 72
     1
 11
790.1294755517469
 21
87.37343075652544
 31
0.0
100
AcDbText
  0
TEXT
  5
91
330
1E
100
AcDbEntity
  8
TEXT
100
AcDbText
 10
618.509022641583
 20
102.83989611379
 30
0.0
 40
5.0
  1
Zul.Abw.
 41
0.8
  7
GREEKS
100
AcDbText
  0
TEXT
  5
93
330
1E
100
AcDbEntity
  8
TEXT
100
AcDbText
 10
590.4612856559488
 20
63.1508587612022
 30
0.0
 40
4.0
  1
17.08.
 41
0.8
  7
GREEKS
 72
     1
 11
597.1660475607107
 21
63.1508587612022
 31
0.0
100
AcDbText
  0
TEXT
  5
94
330
1E
100
AcDbEntity
  8
TEXT
100
AcDbText
 10
624.023175322661
 20
62.94297655165468
 30
0.0
 40
4.0
  1
Koeh
 41
0.8
  7
GREEKS
 72
     1
 11
629.2803181798038
 21
62.94297655165468
 31
0.0
100
AcDbText
  0
TEXT
  5
95
330
1E
100
AcDbEntity
  8
TEXT
100
AcDbText
 10
654.3410940884992
 20
72.10021383107525
 30
0.0
 40
5.0
  1
Kompletteinheit
 41
0.8
  7
GREEKS
100
AcDbText
  0
TEXT
  5
97
330
1E
100
AcDbEntity
  8
TEXT
100
AcDbText
 10
654.3410940884992
 20
52.59097337846058
 30
0.0
 40
5.0
  1
EDV-Art.Nr. 15476.070X
 41
0.8
  7
GREEKS
100
AcDbText
  0
TEXT
  5
98
330
1E
100
AcDbEntity
  8
TEXT
100
AcDbText
 10
654.1676050109348
 20
43.31127624791508
 30
0.0
 40
4.0
  1
15476070W.DWG
 41
0.8
  7
GREEKS
100
AcDbText
  0
TEXT
  5
99
330
1E
100
AcDbEntity
  8
TEXT
 62
     1
100
AcDbText
 10
582.7034912034222
 20
87.47077088414977
 30
0.0
 40
7.0
  1
1:2
 41
0.8
  7
GREEKS
100
AcDbText
  0
TEXT
  5
9A
330
1E
100
AcDbEntity
  8
TEXT
100
AcDbText
 10
470.0441139350127
 20
114.1143585051043
 30
0.0
 40
5.0
  1
Erstellt mit AUTOCAD 2004
 41
0.8
  7
GREEKS
100
AcDbText
  0
INSERT
  5
9B
330
1E
100
AcDbEntity
  8
HILF
100
AcDbBlockReference
  2
LORO
 10
573.0624985962354
 20
36.9805930029896
 30
0.0
 41
2.0
 42
2.0
 43
2.0
  0
LINE
  5
9C
330
1E
100
AcDbEntity
  8
BEM
100
AcDbLine
 10
456.0
 20
0.0
 30
0.0
 11
456.0
 21
10.0
 31
0.0
  0
LINE
  5
13E
330
1E
100
AcDbEntity
  8
HILF
100
AcDbLine
 10
0.0
 20
0.0
 30
0.0
 11
0.0
 21
594.0
 31
0.0
  0
LINE
  5
13F
330
1E
100
AcDbEntity
  8
STEMPEL
100
AcDbLine
 10
40.0
 20
10.0
 30
0.0
 11
40.0
 21
584.0
 31
0.0
  0
LINE
  5
14A
330
1E
100
AcDbEntity
  8
HILF
100
AcDbLine
 10
0.0
 20
297.0
 30
0.0
 11
40.0
 21
297.0
 31
0.0
  0
TEXT
  5
15B
330
1E
100
AcDbEntity
  8
BEM
100
AcDbText
 10
837.3022923857165
 20
10.16790107998861
 30
0.0
 40
4.0
  1
Diese Zeichnung ist urheberrechtlich geschützt und bleibt unser Eigentum. Sie darf weder ganz noch teilweise verfielfältigt und nicht an Dritte weitergegeben werden.
 50
90.0
 41
0.8
  7
GREEKS
100
AcDbText
  0
LINE
  5
4D8
330
1E
100
AcDbEntity
  8
STEMPEL
100
AcDbLine
 10
423.8919757877624
 20
313.1869291183419
 30
0.0
 11
425.3919757877624
 21
313.1869291183419
 31
0.0
  0
LINE
  5
4D9
330
1E
100
AcDbEntity
  8
STEMPEL
100
AcDbLine
 10
323.8919757877625
 20
313.1869291183419
 30
0.0
 11
322.3919757877625
 21
313.1869291183419
 31
0.0
  0
LINE
  5
4ED
330
1E
100
AcDbEntity
  8
STEMPEL
100
AcDbLine
 10
488.8919757877624
 20
336.9346296033758
 30
0.0
 11
488.2580483951514
 21
335.5751679228208
 31
0.0
  0
LINE
  5
4F0
330
1E
100
AcDbEntity
  8
STEMPEL
100
AcDbLine
 10
488.8919757877624
 20
336.9346296033758
 30
0.0
 11
481.386201565979
 21
340.4346296033758
 31
0.0
  0
LINE
  5
4F1
330
1E
100
AcDbEntity
  8
STEMPEL
100
AcDbLine
 10
488.2580483951514
 20
335.5751679228208
 30
0.0
 11
481.0536595720146
 21
338.9346296033758
 31
0.0
  0
ARC
  5
4F2
330
1E
100
AcDbEntity
  8
STEMPEL
100
AcDbCircle
 10
444.9213335628575
 20
336.9346296033758
 30
0.0
 40
2.0
100
AcDbArc
 50
90.0
 51
134.9999999999997
  0
POINT
  5
4F3
330
1E
100
AcDbEntity
  8
STEMPEL
100
AcDbPoint
 10
438.2056842867471
 20
340.4346296033758
 30
0.0
  0
LINE
  5
4F4
330
1E
100
AcDbEntity
  8
STEMPEL
100
AcDbLine
 10
443.5071200004844
 20
338.3488431657489
 30
0.0
 11
441.5922462663314
 21
336.4339694315961
 31
0.0
  0
LINE
  5
4F5
330
1E
100
AcDbEntity
  8
MITTEL
100
AcDbLine
 10
437.5315860945517
 20
345.4346296033758
 30
0.0
 11
437.5315860945517
 21
330.5751679228209
 31
0.0
  0
LINE
  5
4F7
330
1E
100
AcDbEntity
  8
STEMPEL
100
AcDbLine
 10
438.2056842867471
 20
338.9346296033759
 30
0.0
 11
481.0536595720146
 21
338.9346296033758
 31
0.0
  0
ARC
  5
4FB
330
1E
100
AcDbEntity
  8
STEMPEL
100
AcDbCircle
 10
438.2056842867471
 20
332.4346296033758
 30
0.0
 40
8.0
100
AcDbArc
 50
134.9999999999997
 51
134.9999999999997
  0
POINT
  5
4FC
330
1E
100
AcDbEntity
  8
STEMPEL
100
AcDbPoint
 10
432.5488300372548
 20
338.0914838528682
 30
0.0
  0
POINT
  5
4FD
330
1E
100
AcDbEntity
  8
STEMPEL
100
AcDbPoint
 10
430.8919757877624
 20
336.4346296033758
 30
0.0
  0
LINE
  5
4FE
330
1E
100
AcDbEntity
  8
STEMPEL
100
AcDbLine
 10
433.241780941157
 20
336.6631144132107
 30
0.0
 11
433.4709259227716
 21
336.433969431596
 31
0.0
  0
LINE
  5
4FF
330
1E
100
AcDbEntity
  8
STEMPEL
100
AcDbLine
 10
433.6094902090346
 20
337.0308236810883
 30
0.0
 11
431.4802349948066
 21
334.9015684668604
 31
0.0
  0
LINE
  5
500
330
1E
100
AcDbEntity
  8
STEMPEL
100
AcDbLine
 10
432.5488300372548
 20
338.0914838528682
 30
0.0
 11
430.8919757877624
 21
336.4346296033757
 31
0.0
  0
ARC
  5
501
330
1E
100
AcDbEntity
  8
STEMPEL
100
AcDbCircle
 10
403.8919757877624
 20
322.4346296033758
 30
0.0
 40
23.5
100
AcDbArc
 50
353.3741904351755
 51
16.65737706073938
  0
LINE
  5
502
330
1E
100
AcDbEntity
  8
STEMPEL
100
AcDbLine
 10
424.4968857869144
 20
330.3180098382017
 30
0.0
 11
424.9687677952244
 21
328.7408835369078
 31
0.0
  0
LINE
  5
503
330
1E
100
AcDbEntity
  8
STEMPEL
100
AcDbLine
 10
424.3919757877624
 20
331.1207702650129
 30
0.0
 11
424.3919757877624
 21
331.0346296033758
 31
0.0
  0
ARC
  5
504
330
1E
100
AcDbEntity
  8
STEMPEL
100
AcDbCircle
 10
426.8919757877624
 20
331.0346296033758
 30
0.0
 40
2.5
100
AcDbArc
 50
180.0
 51
196.6573770607382
  0
ARC
  5
505
330
1E
100
AcDbEntity
  8
STEMPEL
100
AcDbCircle
 10
426.8919757877624
 20
331.1207702650129
 30
0.0
 40
2.5
100
AcDbArc
 50
160.2500772043241
 51
180.0
  0
ARC
  5
506
330
1E
100
AcDbEntity
  8
STEMPEL
100
AcDbCircle
 10
426.8919757877624
 20
331.0346296033758
 30
0.0
 40
1.0
100
AcDbArc
 50
184.5397086345389
 51
196.6573770607393
  0
ARC
  5
507
330
1E
100
AcDbEntity
  8
STEMPEL
100
AcDbCircle
 10
428.3919757877624
 20
330.8302735271179
 30
0.0
 40
2.5
100
AcDbArc
 50
155.3800226712837
 51
177.1292868703559
  0
LINE
  5
508
330
1E
100
AcDbEntity
  8
STEMPEL
100
AcDbLine
 10
426.4058217957331
 20
329.1708553960122
 30
0.0
 11
425.9339397874232
 21
330.7479816973061
 31
0.0
  0
ARC
  5
509
330
1E
100
AcDbEntity
  8
STEMPEL
100
AcDbCircle
 10
403.8919757877624
 20
322.4346296033758
 30
0.0
 40
22.0
100
AcDbArc
 50
353.3741904351755
 51
16.65737706073938
  0
ARC
  5
50A
330
1E
100
AcDbEntity
  8
STEMPEL
100
AcDbCircle
 10
430.8919757877624
 20
329.6846296033758
 30
0.0
 40
6.75
100
AcDbArc
 50
90.0
 51
160.2500772043246
  0
ARC
  5
50B
330
1E
100
AcDbEntity
  8
STEMPEL
100
AcDbCircle
 10
430.8919757877624
 20
329.6846296033758
 30
0.0
 40
5.25
100
AcDbArc
 50
83.56653354842034
 51
155.3800226712831
  0
POINT
  5
511
330
1E
100
AcDbEntity
  8
STEMPEL
100
AcDbPoint
 10
422.8984503501847
 20
314.3110611811203
 30
0.0
  0
LINE
  5
512
330
1E
100
AcDbEntity
  8
STEMPEL
100
AcDbLine
 10
422.8919757877624
 20
314.3051107923686
 30
0.0
 11
422.8919757877624
 21
312.378899379397
 31
0.0
  0
POINT
  5
513
330
1E
100
AcDbEntity
  8
STEMPEL
100
AcDbPoint
 10
422.8984503501847
 20
314.3110611811203
 30
0.0
  0
LINE
  5
514
330
1E
100
AcDbEntity
  8
STEMPEL
100
AcDbLine
 10
422.8919757877624
 20
314.3051107923681
 30
0.0
 11
422.8919757877624
 21
312.378899379397
 31
0.0
  0
ARC
  5
517
330
1E
100
AcDbEntity
  8
SCHRAFF
100
AcDbCircle
 10
423.5466494144033
 20
315.1999416862941
 30
0.0
 40
3.214052882874523
100
AcDbArc
 50
305.0396469351304
 51
27.31704230804165
  0
ARC
  5
51B
330
1E
100
AcDbEntity
  8
STEMPEL
100
AcDbCircle
 10
416.8051473579072
 20
320.9346296033758
 30
0.0
 40
10.5
100
AcDbArc
 50
305.4293005533256
 51
353.3741904351755
  0
ARC
  5
51C
330
1E
100
AcDbEntity
  8
STEMPEL
100
AcDbCircle
 10
416.8051473579072
 20
320.9346296033758
 30
0.0
 40
9.0
100
AcDbArc
 50
312.5562941594319
 51
353.3741904351755
  0
LINE
  5
52F
330
1E
100
AcDbEntity
  8
STEMPEL
100
AcDbLine
 10
324.8919757877626
 20
314.3051107923681
 30
0.0
 11
324.8919757877625
 21
312.378899379397
 31
0.0
  0
ARC
  5
530
330
1E
100
AcDbEntity
  8
SCHRAFF
100
AcDbCircle
 10
324.6262645623542
 20
315.1173083806615
 30
0.0
 40
3.458881841076094
100
AcDbArc
 50
156.3279041877065
 51
229.762537516556
  0
LINE
  5
533
330
1E
100
AcDbEntity
  8
STEMPEL
100
AcDbLine
 10
324.8919757877625
 20
314.3051107923681
 30
0.0
 11
324.8919757877625
 21
312.3788993793969
 31
0.0
  0
LINE
  5
538
330
1E
100
AcDbEntity
  8
STEMPEL
100
AcDbLine
 10
422.8919757877624
 20
314.3051107923681
 30
0.0
 11
410.3919757877624
 21
314.3051107923681
 31
0.0
  0
LINE
  5
53B
330
1E
100
AcDbEntity
  8
STEMPEL
100
AcDbLine
 10
430.8919757877624
 20
336.4346296033758
 30
0.0
 11
429.0951748242918
 21
336.4346296033759
 31
0.0
  0
LINE
  5
53D
330
1E
100
AcDbEntity
  8
STEMPEL
100
AcDbLine
 10
422.8919757877624
 20
314.305110792368
 30
0.0
 11
410.3919757877624
 21
314.3051107923681
 31
0.0
  0
LINE
  5
53E
330
1E
100
AcDbEntity
  8
STEMPEL
100
AcDbLine
 10
422.8919757877624
 20
312.378899379397
 30
0.0
 11
410.3919757877624
 21
312.378899379397
 31
0.0
  0
LINE
  5
540
330
1E
100
AcDbEntity
  8
STEMPEL
100
AcDbLine
 10
432.153834450767
 20
335.5751679228208
 30
0.0
 11
488.2580483951514
 21
335.5751679228208
 31
0.0
  0
LINE
  5
541
330
1E
100
AcDbEntity
  8
STEMPEL
100
AcDbLine
 10
433.4715860945517
 20
336.4346296033759
 30
0.0
 11
441.5915860945516
 21
336.4346296033759
 31
0.0
  0
ARC
  5
542
330
1E
100
AcDbEntity
  8
STEMPEL
100
AcDbCircle
 10
438.2056842867471
 20
332.4346296033758
 30
0.0
 40
8.0
100
AcDbArc
 50
90.0
 51
135.0
  0
ARC
  5
543
330
1E
100
AcDbEntity
  8
STEMPEL
100
AcDbCircle
 10
438.2056842867471
 20
332.4346296033758
 30
0.0
 40
6.5
100
AcDbArc
 50
90.0
 51
135.0
  0
LINE
  5
551
330
1E
100
AcDbEntity
  8
MITTEL
100
AcDbLine
 10
283.8919757877625
 20
345.4346296033757
 30
0.0
 11
283.8919757877625
 21
330.5751679228208
 31
0.0
  0
LINE
  5
567
330
1E
100
AcDbEntity
  8
STEMPEL
100
AcDbLine
 10
543.8919757877624
 20
340.4346296033758
 30
0.0
 11
522.8872509679982
 21
340.4346296033758
 31
0.0
  0
LINE
  5
56E
330
1E
100
AcDbEntity
  8
MITTEL
100
AcDbLine
 10
373.8919757877625
 20
446.4346296033757
 30
0.0
 11
373.8919757877625
 21
229.4346296033759
 31
0.0
  0
HATCH
  5
7F4
330
1E
100
AcDbEntity
  8
SCHRAFF
100
AcDbHatch
 10
0.0
 20
0.0
 30
0.0
210
0.0
220
0.0
230
1.0
  2
_USER
 70
     0
 71
     0
 91
        4
 92
        7
 72
     1
 73
     1
 93
        3
 10
426.4022735965666
 20
316.6749150637345
 42
-0.0489139296699631
 10
425.3919757877624
 20
314.8917513557005
 42
0.0
 10
425.3919757877624
 20
312.5684199763895
 42
0.3752648671072384
 97
        0
 92
        7
 72
     1
 73
     1
 93
        3
 10
321.4584191224322
 20
316.5060556072264
 42
0.3318545218697995
 10
322.3919757877625
 20
312.4768884780211
 42
0.0
 10
322.3919757877625
 20
314.8917513557003
 42
-0.0444880500239099
 97
        0
 92
        7
 72
     1
 73
     1
 93
        3
 10
323.8919757877625
 20
313.1869291183419
 42
-0.0542250436313249
 10
322.3919757877625
 20
314.8917513557003
 42
0.0
 10
322.3919757877625
 20
313.1869291183419
 42
0.0
 97
        0
 92
        7
 72
     1
 73
     1
 93
        3
 10
425.3919757877624
 20
314.8917513557004
 42
-0.0542250436313268
 10
423.8919757877623
 20
313.1869291183419
 42
0.0
 10
425.3919757877624
 20
313.1869291183418
 42
0.0
 97
        0
 75
     0
 76
     0
 52
0.0
 41
0.1
 77
     0
 78
     1
 53
0.0
 43
145.6431894750449
 44
-147.9065923803425
 45
0.0
 46
0.1
 79
     0
 47
0.1817110238822445
 98
        4
 10
426.1441290407037
 20
314.7172307668638
 10
321.9500679399252
 20
315.2623638715663
 10
322.677427896705
 20
313.445253522558
 10
425.0530901971451
 20
313.6269645574589
  0
LINE
  5
91A
330
1E
100
AcDbEntity
  8
STEMPEL
100
AcDbLine
 10
309.5782672887778
 20
338.9346296033759
 30
0.0
 11
291.2817232560683
 21
338.9346296033758
 31
0.0
  0
LINE
  5
91B
330
1E
100
AcDbEntity
  8
STEMPEL
100
AcDbLine
 10
259.5259031803735
 20
335.5751679228208
 30
0.0
 11
266.7302920035104
 21
338.9346296033758
 31
0.0
  0
LINE
  5
91C
330
1E
100
AcDbEntity
  8
STEMPEL
100
AcDbLine
 10
258.8919757877625
 20
336.9346296033758
 30
0.0
 11
266.397750009546
 21
340.4346296033758
 31
0.0
  0
LINE
  5
91D
330
1E
100
AcDbEntity
  8
STEMPEL
100
AcDbLine
 10
258.8919757877625
 20
336.9346296033758
 30
0.0
 11
259.5259031803735
 21
335.5751679228208
 31
0.0
  0
ARC
  5
91E
330
1E
100
AcDbEntity
  8
STEMPEL
100
AcDbCircle
 10
309.5782672887778
 20
332.4346296033758
 30
0.0
 40
6.5
100
AcDbArc
 50
44.99999999999752
 51
90.00000000000024
  0
ARC
  5
91F
330
1E
100
AcDbEntity
  8
STEMPEL
100
AcDbCircle
 10
309.5782672887778
 20
332.4346296033758
 30
0.0
 40
8.0
100
AcDbArc
 50
45.00000000000001
 51
90.0
  0
LINE
  5
920
330
1E
100
AcDbEntity
  8
STEMPEL
100
AcDbLine
 10
315.2351215382702
 20
338.0914838528682
 30
0.0
 11
316.8919757877625
 21
336.4346296033757
 31
0.0
  0
POINT
  5
921
330
1E
100
AcDbEntity
  8
STEMPEL
100
AcDbPoint
 10
315.2351215382701
 20
338.0914838528682
 30
0.0
  0
ARC
  5
922
330
1E
100
AcDbEntity
  8
STEMPEL
100
AcDbCircle
 10
309.5782672887778
 20
332.4346296033758
 30
0.0
 40
8.0
100
AcDbArc
 50
45.00000000000029
 51
45.00000000000029
  0
ARC
  5
923
330
1E
100
AcDbEntity
  8
STEMPEL
100
AcDbCircle
 10
316.8919757877625
 20
329.6846296033758
 30
0.0
 40
5.25
100
AcDbArc
 50
24.61997732871691
 51
96.43346645157615
  0
ARC
  5
924
330
1E
100
AcDbEntity
  8
STEMPEL
100
AcDbCircle
 10
316.8919757877625
 20
329.6846296033758
 30
0.0
 40
6.75
100
AcDbArc
 50
19.74992279567537
 51
90.0
  0
LINE
  5
925
330
1E
100
AcDbEntity
  8
STEMPEL
100
AcDbLine
 10
321.3781297797918
 20
329.1708553960122
 30
0.0
 11
321.8500117881017
 21
330.7479816973061
 31
0.0
  0
ARC
  5
926
330
1E
100
AcDbEntity
  8
STEMPEL
100
AcDbCircle
 10
319.3919757877625
 20
330.8302735271179
 30
0.0
 40
2.5
100
AcDbArc
 50
2.870713129644066
 51
24.61997732871628
  0
ARC
  5
927
330
1E
100
AcDbEntity
  8
STEMPEL
100
AcDbCircle
 10
320.8919757877625
 20
331.0346296033758
 30
0.0
 40
1.0
100
AcDbArc
 50
343.3426229392606
 51
355.4602913654612
  0
ARC
  5
928
330
1E
100
AcDbEntity
  8
STEMPEL
100
AcDbCircle
 10
320.8919757877625
 20
331.1207702650129
 30
0.0
 40
2.5
100
AcDbArc
 50
0.000000000000007
 51
19.74992279567586
  0
ARC
  5
929
330
1E
100
AcDbEntity
  8
STEMPEL
100
AcDbCircle
 10
320.8919757877625
 20
331.0346296033758
 30
0.0
 40
2.5
100
AcDbArc
 50
343.3426229392618
 51
0.000000000000007
  0
LINE
  5
92A
330
1E
100
AcDbEntity
  8
STEMPEL
100
AcDbLine
 10
323.3919757877625
 20
331.1207702650129
 30
0.0
 11
323.3919757877625
 21
331.0346296033758
 31
0.0
  0
LINE
  5
92B
330
1E
100
AcDbEntity
  8
STEMPEL
100
AcDbLine
 10
323.2870657886105
 20
330.3180098382017
 30
0.0
 11
322.8151837803005
 21
328.7408835369078
 31
0.0
  0
POINT
  5
92C
330
1E
100
AcDbEntity
  8
STEMPEL
100
AcDbPoint
 10
316.8919757877625
 20
336.4346296033758
 30
0.0
  0
ARC
  5
92D
330
1E
100
AcDbEntity
  8
STEMPEL
100
AcDbCircle
 10
343.8919757877625
 20
322.4346296033758
 30
0.0
 40
22.0
100
AcDbArc
 50
163.3426229392606
 51
186.6258095648245
  0
ARC
  5
92E
330
1E
100
AcDbEntity
  8
STEMPEL
100
AcDbCircle
 10
343.8919757877625
 20
322.4346296033758
 30
0.0
 40
23.5
100
AcDbArc
 50
163.3426229392606
 51
186.6258095648245
  0
ARC
  5
92F
330
1E
100
AcDbEntity
  8
STEMPEL
100
AcDbCircle
 10
330.9788042176178
 20
320.9346296033758
 30
0.0
 40
9.0
100
AcDbArc
 50
186.6258095648245
 51
227.4437058405681
  0
ARC
  5
930
330
1E
100
AcDbEntity
  8
STEMPEL
100
AcDbCircle
 10
330.9788042176178
 20
320.9346296033758
 30
0.0
 40
10.5
100
AcDbArc
 50
186.6258095648245
 51
234.5706994466745
  0
LINE
  5
931
330
1E
100
AcDbEntity
  8
STEMPEL
100
AcDbLine
 10
324.8919757877625
 20
314.3051107923681
 30
0.0
 11
324.8919757877625
 21
312.378899379397
 31
0.0
  0
POINT
  5
932
330
1E
100
AcDbEntity
  8
STEMPEL
100
AcDbPoint
 10
324.8855012253402
 20
314.3110611811203
 30
0.0
  0
LINE
  5
933
330
1E
100
AcDbEntity
  8
STEMPEL
100
AcDbLine
 10
324.8919757877625
 20
314.3051107923686
 30
0.0
 11
324.8919757877625
 21
312.378899379397
 31
0.0
  0
POINT
  5
934
330
1E
100
AcDbEntity
  8
STEMPEL
100
AcDbPoint
 10
324.8855012253401
 20
314.3110611811203
 30
0.0
  0
LINE
  5
936
330
1E
100
AcDbEntity
  8
STEMPEL
100
AcDbLine
 10
314.1744613664906
 20
337.0308236810881
 30
0.0
 11
316.3037165807188
 21
334.9015684668597
 31
0.0
  0
LINE
  5
937
330
1E
100
AcDbEntity
  8
STEMPEL
100
AcDbLine
 10
279.8319757877625
 20
336.4346296033758
 30
0.0
 11
287.9519757877624
 21
336.4346296033758
 31
0.0
  0
LINE
  5
938
330
1E
100
AcDbEntity
  8
STEMPEL
100
AcDbLine
 10
289.8675096936953
 20
338.3488431657489
 30
0.0
 11
287.9526359595423
 21
336.433969431596
 31
0.0
  0
ARC
  5
939
330
1E
100
AcDbEntity
  8
STEMPEL
100
AcDbCircle
 10
291.2817232560683
 20
336.9346296033757
 30
0.0
 40
2.0
100
AcDbArc
 50
90.0
 51
134.9999999999977
  0
ARC
  5
93A
330
1E
100
AcDbEntity
  8
STEMPEL
100
AcDbCircle
 10
276.5022283194566
 20
336.9346296033757
 30
0.0
 40
2.0
100
AcDbArc
 50
45.00000000000029
 51
90.0
  0
LINE
  5
93B
330
1E
100
AcDbEntity
  8
STEMPEL
100
AcDbLine
 10
277.9164418818298
 20
338.3488431657488
 30
0.0
 11
279.8313156159827
 21
336.433969431596
 31
0.0
  0
LINE
  5
93C
330
1E
100
AcDbEntity
  8
STEMPEL
100
AcDbLine
 10
288.8068495219154
 20
339.4095033375287
 30
0.0
 11
286.8919757877625
 21
337.4946296033758
 31
0.0
  0
ARC
  5
93D
330
1E
100
AcDbEntity
  8
STEMPEL
100
AcDbCircle
 10
291.2817232560683
 20
336.9346296033757
 30
0.0
 40
3.5
100
AcDbArc
 50
90.0
 51
134.9999999999997
  0
LINE
  5
93E
330
1E
100
AcDbEntity
  8
STEMPEL
100
AcDbLine
 10
278.9771020536095
 20
339.4095033375287
 30
0.0
 11
280.8919757877625
 21
337.4946296033758
 31
0.0
  0
ARC
  5
93F
330
1E
100
AcDbEntity
  8
STEMPEL
100
AcDbCircle
 10
276.5022283194566
 20
336.9346296033757
 30
0.0
 40
3.5
100
AcDbArc
 50
45.00000000000029
 51
90.0
  0
LINE
  5
940
330
1E
100
AcDbEntity
  8
STEMPEL
100
AcDbLine
 10
279.8313156159827
 20
336.433969431596
 30
0.0
 11
280.8919757877625
 21
337.4946296033758
 31
0.0
  0
LINE
  5
941
330
1E
100
AcDbEntity
  8
STEMPEL
100
AcDbLine
 10
280.8919757877625
 20
337.4946296033758
 30
0.0
 11
286.8919757877625
 21
337.4946296033758
 31
0.0
  0
LINE
  5
942
330
1E
100
AcDbEntity
  8
STEMPEL
100
AcDbLine
 10
286.8919757877625
 20
337.4946296033758
 30
0.0
 11
287.9526359595423
 21
336.433969431596
 31
0.0
  0
LINE
  5
944
330
1E
100
AcDbEntity
  8
STEMPEL
100
AcDbLine
 10
276.5022283194566
 20
338.9346296033758
 30
0.0
 11
266.7302920035104
 21
338.9346296033758
 31
0.0
  0
HATCH
  5
9A5
330
1E
100
AcDbEntity
  8
SCHRAFF
100
AcDbHatch
 10
0.0
 20
0.0
 30
0.0
210
0.0
220
0.0
230
1.0
  2
_USER
 70
     0
 71
     0
 91
        3
 92
        7
 72
     1
 73
     1
 93
        8
 10
481.386201565979
 20
340.4346296033758
 42
0.0
 10
438.2056842867471
 20
340.4346296033758
 42
0.0210937042129262
 10
437.5315860945517
 20
340.4061784884595
 42
0.0
 10
437.5315860945517
 20
338.8995806184476
 42
-0.0259793971817303
 10
438.2056842867474
 20
338.9346296033759
 42
0.0
 10
481.0536595720143
 20
338.9346296033758
 42
0.0
 10
488.2580483951514
 20
335.5751679228208
 42
0.0
 10
488.8919757877624
 20
336.9346296033758
 42
0.0
 97
        0
 92
        7
 72
     1
 73
     1
 93
       16
 10
437.5315860945518
 20
340.4061784884595
 42
0.1770756892303729
 10
432.5488300372546
 20
338.091483852868
 42
0.0
 10
430.8919757877624
 20
336.4346296033757
 42
0.3164988464831926
 10
424.5390346112931
 20
331.9655588895049
 42
0.0907302820398373
 10
424.3923468259755
 20
331.0776999341962
 42
0.0771412373566204
 10
424.4968857869143
 20
330.318009838202
 42
0.0
 10
424.9687677952244
 20
328.7408835369078
 42
-0.0728097721655519
 10
425.8919757877625
 20
322.4346296033758
 42
0.0
 10
427.3919757877624
 20
322.4346296033758
 42
0.0728097721655456
 10
426.4058217957333
 20
329.1708553960116
 42
0.0
 10
425.9339397874232
 20
330.7479816973061
 42
-0.0529226287086391
 10
425.8951130692362
 20
330.955479616562
 42
-0.0951853383424353
 10
426.1192499975687
 20
331.8717712383917
 42
-0.3240200234877804
 10
431.4802349948066
 20
334.9015684668604
 42
0.0
 10
433.6094902090346
 20
337.0308236810883
 42
-0.172043912052787
 10
437.5315860945517
 20
338.8995806184476
 42
0.0
 97
        0
 92
        7
 72
     1
 73
     1
 93
        6
 10
427.2350167030242
 20
319.7230911418371
 42
0.0289186054923408
 10
427.3919757877623
 20
322.4346296033758
 42
0.0
 10
425.8919757877625
 20
322.4346296033758
 42
-0.0289186054923377
 10
425.745035368008
 20
319.8961680649142
 42
-0.1800090156599683
 10
422.8919757877624
 20
314.3051107923681
 42
0.0
 10
422.8919757877624
 20
312.378899379397
 42
0.2123052470571922
 97
        0
 75
     0
 76
     0
 52
135.0
 41
2.0
 77
     0
 78
     1
 53
135.0
 43
145.6431894750449
 44
-147.9065923803425
 45
-1.414213562373095
 46
-1.414213562373094
 79
     0
 47
0.1180195295744155
 98
        3
 10
470.5683633943672
 20
339.7315396740289
 10
436.0822851909456
 20
339.1414409490906
 10
425.9254269906
 20
319.5501988248752
  0
LINE
  5
9A8
330
1E
100
AcDbEntity
  8
SCHRAFF
100
AcDbLine
 10
261.0686056447027
 20
336.294541896192
 30
0.0
 11
259.9398746657441
 21
337.4232728751506
 31
0.0
  0
LINE
  5
9A9
330
1E
100
AcDbEntity
  8
SCHRAFF
100
AcDbLine
 10
262.9975508486753
 20
337.1940238169657
 30
0.0
 11
261.8688198697165
 21
338.3227547959244
 31
0.0
  0
LINE
  5
9AA
330
1E
100
AcDbEntity
  8
SCHRAFF
100
AcDbLine
 10
264.9264960526476
 20
338.0935057377394
 30
0.0
 11
263.797765073689
 21
339.222236716698
 31
0.0
  0
LINE
  5
9AB
330
1E
100
AcDbEntity
  8
SCHRAFF
100
AcDbLine
 10
266.9137993117574
 20
338.9346296033758
 30
0.0
 11
265.7267102776615
 21
340.1217186374718
 31
0.0
  0
LINE
  5
9AC
330
1E
100
AcDbEntity
  8
SCHRAFF
100
AcDbLine
 10
269.7422264365036
 20
338.9346296033758
 30
0.0
 11
268.2422264365037
 21
340.4346296033757
 31
0.0
  0
LINE
  5
9AD
330
1E
100
AcDbEntity
  8
SCHRAFF
100
AcDbLine
 10
272.5706535612498
 20
338.9346296033758
 30
0.0
 11
271.0706535612499
 21
340.4346296033757
 31
0.0
  0
LINE
  5
9AE
330
1E
100
AcDbEntity
  8
SCHRAFF
100
AcDbLine
 10
275.3990806859961
 20
338.9346296033758
 30
0.0
 11
273.8990806859961
 21
340.4346296033758
 31
0.0
  0
LINE
  5
9AF
330
1E
100
AcDbEntity
  8
SCHRAFF
100
AcDbLine
 10
280.2797417992523
 20
336.8823956148656
 30
0.0
 11
276.7275078107423
 21
340.4346296033758
 31
0.0
  0
LINE
  5
9B2
330
1E
100
AcDbEntity
  8
SCHRAFF
100
AcDbLine
 10
288.5830426581515
 20
337.0643761302052
 30
0.0
 11
287.5223824863716
 21
338.125036301985
 31
0.0
  0
LINE
  5
9B3
330
1E
100
AcDbEntity
  8
SCHRAFF
100
AcDbLine
 10
290.0032205724325
 20
338.4726253406702
 30
0.0
 11
288.939999402987
 21
339.5358465101157
 31
0.0
  0
LINE
  5
9B4
330
1E
100
AcDbEntity
  8
SCHRAFF
100
AcDbLine
 10
292.3696434344731
 20
338.9346296033758
 30
0.0
 11
290.8696434344731
 21
340.4346296033758
 31
0.0
  0
LINE
  5
9B5
330
1E
100
AcDbEntity
  8
SCHRAFF
100
AcDbLine
 10
295.1980705592193
 20
338.9346296033758
 30
0.0
 11
293.6980705592193
 21
340.4346296033758
 31
0.0
  0
LINE
  5
9B6
330
1E
100
AcDbEntity
  8
SCHRAFF
100
AcDbLine
 10
298.0264976839655
 20
338.9346296033758
 30
0.0
 11
296.5264976839655
 21
340.4346296033758
 31
0.0
  0
LINE
  5
9B7
330
1E
100
AcDbEntity
  8
SCHRAFF
100
AcDbLine
 10
322.9796275582266
 20
316.8099268538609
 30
0.0
 11
320.6299207277185
 21
319.159633684369
 31
0.0
  0
LINE
  5
9B8
330
1E
100
AcDbEntity
  8
SCHRAFF
100
AcDbLine
 10
300.8549248087117
 20
338.9346296033758
 30
0.0
 11
299.3549248087118
 21
340.4346296033758
 31
0.0
  0
LINE
  5
9B9
330
1E
100
AcDbEntity
  8
SCHRAFF
100
AcDbLine
 10
321.96416949501
 20
320.6538120418237
 30
0.0
 11
320.3929101606056
 21
322.2250713762282
 31
0.0
  0
LINE
  5
9BA
330
1E
100
AcDbEntity
  8
SCHRAFF
100
AcDbLine
 10
303.6833519334579
 20
338.9346296033759
 30
0.0
 11
302.183351933458
 21
340.4346296033758
 31
0.0
  0
LINE
  5
9BB
330
1E
100
AcDbEntity
  8
SCHRAFF
100
AcDbLine
 10
321.9191264010573
 20
323.5272822605226
 30
0.0
 11
320.5240258561631
 21
324.9223828054168
 31
0.0
  0
LINE
  5
9BC
330
1E
100
AcDbEntity
  8
SCHRAFF
100
AcDbLine
 10
306.511779058204
 20
338.9346296033758
 30
0.0
 11
305.0117790582041
 21
340.4346296033758
 31
0.0
  0
LINE
  5
9BD
330
1E
100
AcDbEntity
  8
SCHRAFF
100
AcDbLine
 10
322.1959132623055
 20
326.0789225240206
 30
0.0
 11
320.9140874183523
 21
327.3607483679738
 31
0.0
  0
LINE
  5
9BE
330
1E
100
AcDbEntity
  8
SCHRAFF
100
AcDbLine
 10
309.3402061829502
 20
338.9346296033759
 30
0.0
 11
307.8402061829503
 21
340.4346296033758
 31
0.0
  0
LINE
  5
9BF
330
1E
100
AcDbEntity
  8
SCHRAFF
100
AcDbLine
 10
322.7133424362745
 20
328.3899204747978
 30
0.0
 11
321.5057786964184
 21
329.5974842146539
 31
0.0
  0
LINE
  5
9C0
330
1E
100
AcDbEntity
  8
SCHRAFF
100
AcDbLine
 10
313.4405803175513
 20
337.6626825935209
 30
0.0
 11
310.7557639395448
 21
340.3474989715274
 31
0.0
  0
LINE
  5
9C1
330
1E
100
AcDbEntity
  8
SCHRAFF
100
AcDbLine
 10
323.3505088009784
 20
330.58118123484
 30
0.0
 11
321.076403173404
 21
332.8552868624145
 31
0.0
  0
LINE
  5
9C2
330
1E
100
AcDbEntity
  8
SCHRAFF
100
AcDbLine
 10
320.0626330468002
 20
333.8690569890183
 30
0.0
 11
317.5269973677909
 21
336.4046926680276
 31
0.0
  0
TEXT
  5
A54
330
1E
100
AcDbEntity
  8
TEXT
100
AcDbText
 10
612.2898419893276
 20
90.20963860687919
 30
0.0
 40
4.0
  1
DIN EN1123-2
 41
0.8
  7
GREEKS
 72
     1
 11
629.2803181798038
 21
90.20963860687919
 31
0.0
100
AcDbText
  0
LINE
  5
A7C
330
1E
100
AcDbEntity
  8
STEMPEL
100
AcDbLine
 10
328.8919757877624
 20
315.3051107923681
 30
0.0
 11
328.8919757877624
 21
314.305110792368
 31
0.0
  0
LINE
  5
A7D
330
1E
100
AcDbEntity
  8
STEMPEL
100
AcDbLine
 10
418.8919757877624
 20
315.3051107923681
 30
0.0
 11
418.8919757877625
 21
314.305110792368
 31
0.0
  0
LINE
  5
A7E
330
1E
100
AcDbEntity
  8
STEMPEL
100
AcDbLine
 10
543.8919757877624
 20
341.4346296033758
 30
0.0
 11
523.1552001604294
 21
341.4346296033758
 31
0.0
  0
LINE
  5
A7F
330
1E
100
AcDbEntity
  8
STEMPEL
100
AcDbLine
 10
203.8919757877625
 20
341.4346296033759
 30
0.0
 11
203.8919757877624
 21
340.4346296033758
 31
0.0
  0
LINE
  5
A80
330
1E
100
AcDbEntity
  8
STEMPEL
100
AcDbLine
 10
543.8919757877624
 20
341.4346296033758
 30
0.0
 11
543.8919757877624
 21
340.4346296033758
 31
0.0
  0
LINE
  5
A87
330
1E
100
AcDbEntity
  8
HILF
100
AcDbLine
 10
523.6910985452916
 20
343.4346296033758
 30
0.0
 11
522.3513525831361
 21
338.4346296033758
 31
0.0
  0
LINE
  5
A88
330
1E
100
AcDbEntity
  8
HILF
100
AcDbLine
 10
522.6910985452916
 20
343.4346296033758
 30
0.0
 11
521.351352583136
 21
338.4346296033758
 31
0.0
  0
LINE
  5
A89
330
1E
100
AcDbEntity
  8
STEMPEL
100
AcDbLine
 10
522.1552001604294
 20
341.4346296033757
 30
0.0
 11
410.3919757877624
 21
341.4346296033758
 31
0.0
  0
LINE
  5
A8A
330
1E
100
AcDbEntity
  8
STEMPEL
100
AcDbLine
 10
521.8872509679982
 20
340.4346296033758
 30
0.0
 11
438.2056842867471
 21
340.4346296033758
 31
0.0
  0
LINE
  5
A93
330
1E
100
AcDbEntity
  8
HILF
100
AcDbLine
 10
523.6910985452916
 20
343.4346296033758
 30
0.0
 11
522.3513525831361
 21
338.4346296033758
 31
0.0
  0
LINE
  5
A94
330
1E
100
AcDbEntity
  8
HILF
100
AcDbLine
 10
522.6910985452916
 20
343.4346296033758
 30
0.0
 11
521.351352583136
 21
338.4346296033758
 31
0.0
  0
LINE
  5
A95
330
1E
100
AcDbEntity
  8
HILF
100
AcDbLine
 10
226.1262187544869
 20
343.4346296033758
 30
0.0
 11
224.7864727923313
 21
338.4346296033758
 31
0.0
  0
LINE
  5
A96
330
1E
100
AcDbEntity
  8
HILF
100
AcDbLine
 10
225.1262187544869
 20
343.4346296033758
 30
0.0
 11
223.7864727923313
 21
338.4346296033758
 31
0.0
  0
LINE
  5
A97
330
1E
100
AcDbEntity
  8
STEMPEL
100
AcDbLine
 10
224.5903203696247
 20
341.4346296033759
 30
0.0
 11
203.8919757877625
 21
341.4346296033759
 31
0.0
  0
LINE
  5
A98
330
1E
100
AcDbEntity
  8
STEMPEL
100
AcDbLine
 10
224.3223711771936
 20
340.4346296033759
 30
0.0
 11
203.8919757877625
 21
340.4346296033758
 31
0.0
  0
HATCH
  5
AEA
330
1E
100
AcDbEntity
  8
SCHRAFF
100
AcDbHatch
 10
0.0
 20
0.0
 30
0.0
210
0.0
220
0.0
230
1.0
  2
NET
 70
     0
 71
     1
 91
        2
 92
        7
 72
     1
 73
     1
 93
        2
 10
418.1419757877624
 20
321.4346296033757
 42
1.0
 10
425.1419757877624
 20
321.4346296033757
 42
1.0
 97
        1
330
B00
 92
        7
 72
     1
 73
     1
 93
        2
 10
322.6419757877625
 20
321.4346296033758
 42
1.0
 10
329.6419757877625
 20
321.4346296033758
 42
1.0
 97
        1
330
B26
 75
     0
 76
     1
 52
45.0
 41
10.0
 77
     0
 78
     2
 53
45.0
 43
261.3919757877625
 44
98.67246165014092
 45
-0.8838834764831842
 46
0.8838834764831844
 79
     0
 53
135.0
 43
261.3919757877625
 44
98.67246165014092
 45
-0.8838834764831844
 46
-0.8838834764831842
 79
     0
 47
0.1673277598288079
 98
        2
 10
421.4428745529455
 20
322.1711549245031
 10
327.8405010507368
 20
322.5058104816458
  0
HATCH
  5
AEB
330
1E
100
AcDbEntity
  8
SCHRAFF
100
AcDbHatch
 10
0.0
 20
0.0
 30
0.0
210
0.0
220
0.0
230
1.0
  2
NET
 70
     0
 71
     0
 91
        3
 92
        7
 72
     1
 73
     1
 93
        5
 10
426.8919757877625
 20
341.4346296033758
 42
0.0
 10
425.8919757877624
 20
340.4346296033758
 42
0.0
 10
425.8919757877625
 20
336.8644140958393
 42
-0.222066610227725
 10
428.8919757877624
 20
338.4346296033758
 42
0.0
 10
431.8919757877623
 20
341.4346296033758
 42
0.0
 97
        0
 92
        7
 72
     1
 73
     1
 93
       19
 10
412.3919757877624
 20
336.3346296033757
 42
0.0
 10
412.3919757877624
 20
335.3346296033756
 42
0.0
 10
414.3919757877625
 20
329.8396747644665
 42
0.0
 10
414.3919757877625
 20
315.4346296033758
 42
0.0
 10
420.1419757877625
 20
315.4346296033758
 42
0.4142135623730868
 10
422.1419757877624
 20
317.4346296033757
 42
0.0
 10
419.1419757877624
 20
317.4346296033758
 42
-0.4142135623730951
 10
418.1419757877624
 20
318.4346296033758
 42
0.0
 10
418.1419757877624
 20
324.4346296033757
 42
-0.4142135623730951
 10
419.1419757877624
 20
325.4346296033757
 42
0.0
 10
422.1419757877624
 20
325.4346296033757
 42
0.0
 10
422.1419757877624
 20
330.4346296033758
 42
0.0
 10
423.8919757877623
 20
333.4657185166212
 42
0.0
 10
423.8919757877624
 20
340.4346296033758
 42
0.0
 10
422.8919757877624
 20
341.4346296033758
 42
0.0
 10
418.9419757877624
 20
341.4346296033758
 42
0.0
 10
418.9419757877624
 20
340.4346296033756
 42
0.0
 10
419.1419757877624
 20
340.088219441862
 42
0.0
 10
419.1419757877624
 20
336.3346296033758
 42
0.0
 97
        0
 92
        7
 72
     1
 73
     1
 93
       19
 10
335.3919757877624
 20
335.3346296033758
 42
0.0
 10
335.3919757877624
 20
336.3346296033758
 42
0.0
 10
328.6419757877624
 20
336.3346296033757
 42
0.0
 10
328.6419757877624
 20
340.088219441862
 42
0.0
 10
328.8419757877625
 20
340.4346296033758
 42
0.0
 10
328.8419757877625
 20
341.4346296033758
 42
0.0
 10
315.8919757877625
 20
341.4346296033758
 42
0.0
 10
318.8919757877624
 20
338.4346296033758
 42
-0.2558860185809181
 10
322.1755202055191
 20
336.438706794002
 42
0.0
 10
325.6419757877625
 20
330.4346296033756
 42
0.0
 10
325.6419757877625
 20
325.4346296033758
 42
0.0
 10
328.6419757877625
 20
325.4346296033757
 42
-0.4142135623730951
 10
329.6419757877625
 20
324.4346296033757
 42
0.0
 10
329.6419757877625
 20
318.4346296033757
 42
-0.4142135623730784
 10
328.6419757877625
 20
317.4346296033757
 42
0.0
 10
325.6419757877625
 20
317.4346296033758
 42
0.4142135623731117
 10
327.6419757877625
 20
315.4346296033757
 42
0.0
 10
333.3919757877625
 20
315.4346296033756
 42
0.0
 10
333.3919757877625
 20
329.8396747644665
 42
0.0
 97
        0
 75
     0
 76
     1
 52
45.0
 41
15.0
 77
     0
 78
     2
 53
45.0
 43
261.3919757877625
 44
98.67246165014092
 45
-1.325825214724776
 46
1.325825214724776
 79
     0
 53
135.0
 43
261.3919757877625
 44
98.67246165014092
 45
-1.325825214724776
 46
-1.325825214724776
 79
     0
 47
0.1673277598288079
 98
        3
 10
428.977949417607
 20
340.5772084687229
 10
417.7590601148153
 20
334.88806469684
 10
330.0173002466035
 20
331.3741816966129
  0
LINE
  5
AEC
330
1E
100
AcDbEntity
  8
STEMPEL
100
AcDbLine
 10
425.8919757877625
 20
340.4346296033758
 30
0.0
 11
426.8919757877625
 21
341.4346296033758
 31
0.0
  0
LINE
  5
AED
330
1E
100
AcDbEntity
  8
STEMPEL
100
AcDbLine
 10
431.8919757877624
 20
341.4346296033758
 30
0.0
 11
426.8919757877625
 21
341.4346296033758
 31
0.0
  0
LINE
  5
AEE
330
1E
100
AcDbEntity
  8
STEMPEL
100
AcDbLine
 10
423.8919757877624
 20
340.4346296033758
 30
0.0
 11
422.8919757877624
 21
341.4346296033758
 31
0.0
  0
POINT
  5
AEF
330
1E
100
AcDbEntity
  8
STEMPEL
100
AcDbPoint
 10
419.1419757877624
 20
340.088219441862
 30
0.0
  0
POINT
  5
AF0
330
1E
100
AcDbEntity
  8
STEMPEL
100
AcDbPoint
 10
418.9419757877624
 20
341.4346296033758
 30
0.0
  0
LINE
  5
AF1
330
1E
100
AcDbEntity
  8
STEMPEL
100
AcDbLine
 10
418.9419757877624
 20
341.4346296033758
 30
0.0
 11
418.9419757877624
 21
340.4346296033757
 31
0.0
  0
LINE
  5
AF2
330
1E
100
AcDbEntity
  8
STEMPEL
100
AcDbLine
 10
418.9419757877624
 20
340.4346296033757
 30
0.0
 11
419.1419757877624
 21
340.088219441862
 31
0.0
  0
LINE
  5
AF3
330
1E
100
AcDbEntity
  8
STEMPEL
100
AcDbLine
 10
422.8919757877624
 20
341.4346296033758
 30
0.0
 11
418.9419757877624
 21
341.4346296033758
 31
0.0
  0
LINE
  5
AF4
330
1E
100
AcDbEntity
  8
STEMPEL
100
AcDbLine
 10
426.8919757877625
 20
341.4346296033758
 30
0.0
 11
422.8919757877624
 21
341.4346296033758
 31
0.0
  0
LINE
  5
AF5
330
1E
100
AcDbEntity
  8
STEMPEL
100
AcDbLine
 10
425.8919757877625
 20
340.4346296033758
 30
0.0
 11
423.8919757877624
 21
340.4346296033758
 31
0.0
  0
ARC
  5
AF6
330
1E
100
AcDbEntity
  8
STEMPEL
100
AcDbCircle
 10
429.0725329851435
 20
334.438706794002
 30
0.0
 40
4.0
100
AcDbArc
 50
92.58717043466431
 51
142.6684147984943
  0
LINE
  5
AF7
330
1E
100
AcDbEntity
  8
STEMPEL
100
AcDbLine
 10
422.1419757877624
 20
330.4346296033758
 30
0.0
 11
423.8919757877624
 21
333.4657185166212
 31
0.0
  0
LINE
  5
AF8
330
1E
100
AcDbEntity
  8
STEMPEL
100
AcDbLine
 10
423.8919757877624
 20
333.4657185166212
 30
0.0
 11
425.5192115440396
 21
336.2841735223861
 31
0.0
  0
POINT
  5
AF9
330
1E
100
AcDbEntity
  8
STEMPEL
100
AcDbPoint
 10
422.1419757877624
 20
317.4346296033757
 30
0.0
  0
ARC
  5
AFA
330
1E
100
AcDbEntity
  8
STEMPEL
100
AcDbCircle
 10
419.1419757877624
 20
324.4346296033757
 30
0.0
 40
1.0
100
AcDbArc
 50
90.0
 51
180.0
  0
POINT
  5
AFB
330
1E
100
AcDbEntity
  8
STEMPEL
100
AcDbPoint
 10
420.1419757877625
 20
317.4346296033758
 30
0.0
  0
POINT
  5
AFC
330
1E
100
AcDbEntity
  8
STEMPEL
100
AcDbPoint
 10
420.1419757877625
 20
317.4346296033757
 30
0.0
  0
POINT
  5
AFD
330
1E
100
AcDbEntity
  8
STEMPEL
100
AcDbPoint
 10
420.1419757877625
 20
317.4346296033757
 30
0.0
  0
ARC
  5
AFE
330
1E
100
AcDbEntity
  8
STEMPEL
100
AcDbCircle
 10
419.1419757877624
 20
318.4346296033758
 30
0.0
 40
1.0
100
AcDbArc
 50
180.0
 51
270.0
  0
LINE
  5
AFF
330
1E
100
AcDbEntity
  8
STEMPEL
100
AcDbLine
 10
418.1419757877624
 20
324.4346296033757
 30
0.0
 11
418.1419757877624
 21
318.4346296033758
 31
0.0
  0
CIRCLE
  5
B00
102
{ACAD_REACTORS
330
AEA
102
}
330
1E
100
AcDbEntity
  8
STEMPEL
100
AcDbCircle
 10
421.6419757877624
 20
321.4346296033757
 30
0.0
 40
3.5
  0
LINE
  5
B01
330
1E
100
AcDbEntity
  8
STEMPEL
100
AcDbLine
 10
422.1419757877624
 20
325.4346296033757
 30
0.0
 11
419.1419757877624
 21
325.4346296033757
 31
0.0
  0
LINE
  5
B02
330
1E
100
AcDbEntity
  8
STEMPEL
100
AcDbLine
 10
422.1419757877624
 20
317.4346296033757
 30
0.0
 11
419.1419757877624
 21
317.4346296033758
 31
0.0
  0
LINE
  5
B03
330
1E
100
AcDbEntity
  8
STEMPEL
100
AcDbLine
 10
422.1419757877624
 20
330.4346296033758
 30
0.0
 11
422.1419757877624
 21
325.4346296033757
 31
0.0
  0
LINE
  5
B04
330
1E
100
AcDbEntity
  8
STEMPEL
100
AcDbLine
 10
412.3919757877624
 20
336.3346296033758
 30
0.0
 11
412.3919757877624
 21
335.3346296033758
 31
0.0
  0
LINE
  5
B05
330
1E
100
AcDbEntity
  8
STEMPEL
100
AcDbLine
 10
412.3919757877624
 20
335.3346296033758
 30
0.0
 11
414.3919757877625
 21
329.8396747644665
 31
0.0
  0
LINE
  5
B06
330
1E
100
AcDbEntity
  8
STEMPEL
100
AcDbLine
 10
419.1419757877624
 20
336.3346296033758
 30
0.0
 11
412.3919757877624
 21
336.3346296033758
 31
0.0
  0
POINT
  5
B07
330
1E
100
AcDbEntity
  8
STEMPEL
100
AcDbPoint
 10
421.5008549841707
 20
315.9671667147244
 30
0.0
  0
POINT
  5
B08
330
1E
100
AcDbEntity
  8
STEMPEL
100
AcDbPoint
 10
421.595509523516
 20
316.0608611807418
 30
0.0
  0
POINT
  5
B09
330
1E
100
AcDbEntity
  8
STEMPEL
100
AcDbPoint
 10
421.5453191717028
 20
316.0096287799545
 30
0.0
  0
POINT
  5
B0A
330
1E
100
AcDbEntity
  8
STEMPEL
100
AcDbPoint
 10
420.1419757877625
 20
315.4346296033758
 30
0.0
  0
POINT
  5
B0B
330
1E
100
AcDbEntity
  8
STEMPEL
100
AcDbPoint
 10
420.1419757877625
 20
315.4346296033758
 30
0.0
  0
LINE
  5
B0C
330
1E
100
AcDbEntity
  8
STEMPEL
100
AcDbLine
 10
420.1419757877625
 20
315.4346296033758
 30
0.0
 11
414.3919757877624
 21
315.4346296033758
 31
0.0
  0
ARC
  5
B0D
330
1E
100
AcDbEntity
  8
STEMPEL
100
AcDbCircle
 10
420.1419757877625
 20
317.4346296033757
 30
0.0
 40
2.0
100
AcDbArc
 50
270.0
 51
0.0
  0
LINE
  5
B0E
330
1E
100
AcDbEntity
  8
STEMPEL
100
AcDbLine
 10
414.3919757877625
 20
329.8396747644665
 30
0.0
 11
414.3919757877624
 21
315.4346296033758
 31
0.0
  0
ARC
  5
B0F
330
1E
100
AcDbEntity
  8
STEMPEL
100
AcDbCircle
 10
429.0725329851435
 20
334.438706794002
 30
0.0
 40
4.0
100
AcDbArc
 50
142.6684147984943
 51
152.5871704346633
  0
LINE
  5
B10
330
1E
100
AcDbEntity
  8
MITTEL
100
AcDbLine
 10
424.8919757877624
 20
344.4346296033758
 30
0.0
 11
424.8919757877624
 21
332.9509395811435
 31
0.0
  0
LINE
  5
B12
330
1E
100
AcDbEntity
  8
STEMPEL
100
AcDbLine
 10
425.8919757877625
 20
340.4346296033758
 30
0.0
 11
425.8919757877625
 21
336.8644140958393
 31
0.0
  0
LINE
  5
B13
330
1E
100
AcDbEntity
  8
STEMPEL
100
AcDbLine
 10
423.8919757877624
 20
340.4346296033758
 30
0.0
 11
423.8919757877624
 21
333.4657185166212
 31
0.0
  0
LINE
  5
B14
330
1E
100
AcDbEntity
  8
STEMPEL
100
AcDbLine
 10
431.8919757877624
 20
341.4346296033758
 30
0.0
 11
428.8919757877624
 21
338.4346296033758
 31
0.0
  0
LINE
  5
B15
330
1E
100
AcDbEntity
  8
STEMPEL
100
AcDbLine
 10
419.1419757877624
 20
340.088219441862
 30
0.0
 11
419.1419757877624
 21
336.3346296033758
 31
0.0
  0
POINT
  5
B16
330
1E
100
AcDbEntity
  8
STEMPEL
100
AcDbPoint
 10
328.8419757877625
 20
341.4346296033758
 30
0.0
  0
POINT
  5
B17
330
1E
100
AcDbEntity
  8
STEMPEL
100
AcDbPoint
 10
328.6419757877625
 20
340.088219441862
 30
0.0
  0
LINE
  5
B18
330
1E
100
AcDbEntity
  8
STEMPEL
100
AcDbLine
 10
328.8419757877625
 20
340.4346296033758
 30
0.0
 11
328.6419757877625
 21
340.0882194418621
 31
0.0
  0
LINE
  5
B19
330
1E
100
AcDbEntity
  8
STEMPEL
100
AcDbLine
 10
328.8419757877625
 20
341.4346296033758
 30
0.0
 11
328.8419757877625
 21
340.4346296033758
 31
0.0
  0
LINE
  5
B1A
330
1E
100
AcDbEntity
  8
STEMPEL
100
AcDbLine
 10
335.3919757877624
 20
336.3346296033758
 30
0.0
 11
335.3919757877624
 21
335.3346296033758
 31
0.0
  0
LINE
  5
B1B
330
1E
100
AcDbEntity
  8
STEMPEL
100
AcDbLine
 10
335.3919757877624
 20
335.3346296033758
 30
0.0
 11
333.3919757877625
 21
329.8396747644665
 31
0.0
  0
LINE
  5
B1C
330
1E
100
AcDbEntity
  8
STEMPEL
100
AcDbLine
 10
329.6419757877625
 20
324.4346296033757
 30
0.0
 11
329.6419757877625
 21
318.4346296033757
 31
0.0
  0
POINT
  5
B1D
330
1E
100
AcDbEntity
  8
STEMPEL
100
AcDbPoint
 10
325.6419757877625
 20
330.4346296033758
 30
0.0
  0
POINT
  5
B1E
330
1E
100
AcDbEntity
  8
STEMPEL
100
AcDbPoint
 10
325.6419757877625
 20
330.4346296033758
 30
0.0
  0
POINT
  5
B1F
330
1E
100
AcDbEntity
  8
STEMPEL
100
AcDbPoint
 10
322.2647400314853
 20
336.2841735223861
 30
0.0
  0
LINE
  5
B20
330
1E
100
AcDbEntity
  8
STEMPEL
100
AcDbLine
 10
325.6419757877625
 20
330.4346296033757
 30
0.0
 11
322.1755202055191
 21
336.438706794002
 31
0.0
  0
POINT
  5
B21
330
1E
100
AcDbEntity
  8
STEMPEL
100
AcDbPoint
 10
325.6419757877625
 20
325.4346296033757
 30
0.0
  0
LINE
  5
B22
330
1E
100
AcDbEntity
  8
STEMPEL
100
AcDbLine
 10
328.6419757877625
 20
325.4346296033757
 30
0.0
 11
325.6419757877625
 21
325.4346296033757
 31
0.0
  0
POINT
  5
B23
330
1E
100
AcDbEntity
  8
STEMPEL
100
AcDbPoint
 10
325.6419757877625
 20
317.4346296033758
 30
0.0
  0
LINE
  5
B24
330
1E
100
AcDbEntity
  8
STEMPEL
100
AcDbLine
 10
328.6419757877624
 20
317.4346296033757
 30
0.0
 11
325.6419757877625
 21
317.4346296033758
 31
0.0
  0
LINE
  5
B25
330
1E
100
AcDbEntity
  8
STEMPEL
100
AcDbLine
 10
325.6419757877625
 20
330.4346296033757
 30
0.0
 11
325.6419757877625
 21
325.4346296033757
 31
0.0
  0
CIRCLE
  5
B26
102
{ACAD_REACTORS
330
AEA
102
}
330
1E
100
AcDbEntity
  8
STEMPEL
100
AcDbCircle
 10
326.1419757877625
 20
321.4346296033758
 30
0.0
 40
3.5
  0
ARC
  5
B27
330
1E
100
AcDbEntity
  8
STEMPEL
100
AcDbCircle
 10
328.6419757877625
 20
318.4346296033758
 30
0.0
 40
1.0
100
AcDbArc
 50
270.0
 51
0.0
  0
ARC
  5
B28
330
1E
100
AcDbEntity
  8
STEMPEL
100
AcDbCircle
 10
328.6419757877625
 20
324.4346296033757
 30
0.0
 40
1.0
100
AcDbArc
 50
0.0
 51
90.0
  0
ARC
  5
B29
330
1E
100
AcDbEntity
  8
STEMPEL
100
AcDbCircle
 10
327.6419757877625
 20
317.4346296033757
 30
0.0
 40
2.0
100
AcDbArc
 50
179.9999999999967
 51
270.0
  0
LINE
  5
B2A
330
1E
100
AcDbEntity
  8
STEMPEL
100
AcDbLine
 10
333.3919757877625
 20
329.8396747644665
 30
0.0
 11
333.3919757877625
 21
315.4346296033757
 31
0.0
  0
ARC
  5
B2B
330
1E
100
AcDbEntity
  8
STEMPEL
100
AcDbCircle
 10
318.7114185903813
 20
334.438706794002
 30
0.0
 40
4.0
100
AcDbArc
 50
30.00000000000055
 51
87.41282956533897
  0
LINE
  5
B2C
330
1E
100
AcDbEntity
  8
STEMPEL
100
AcDbLine
 10
315.8919757877625
 20
341.4346296033758
 30
0.0
 11
318.8919757877624
 21
338.4346296033758
 31
0.0
  0
LINE
  5
B2D
330
1E
100
AcDbEntity
  8
STEMPEL
100
AcDbLine
 10
328.6419757877625
 20
340.0882194418621
 30
0.0
 11
328.6419757877625
 21
336.3346296033758
 31
0.0
  0
LINE
  5
B2E
330
1E
100
AcDbEntity
  8
STEMPEL
100
AcDbLine
 10
414.3919757877624
 20
315.4346296033758
 30
0.0
 11
410.3919757877624
 21
315.4346296033758
 31
0.0
  0
LINE
  5
B2F
330
1E
100
AcDbEntity
  8
STEMPEL
100
AcDbLine
 10
335.3919757877624
 20
336.3346296033758
 30
0.0
 11
328.6419757877625
 21
336.3346296033758
 31
0.0
  0
LINE
  5
B30
330
1E
100
AcDbEntity
  8
STEMPEL
100
AcDbLine
 10
418.9419757877624
 20
341.4346296033758
 30
0.0
 11
410.3919757877624
 21
341.4346296033758
 31
0.0
  0
LINE
  5
B33
330
1E
100
AcDbEntity
  8
STEMPEL
100
AcDbLine
 10
328.6419757877625
 20
340.088219441862
 30
0.0
 11
334.2080433849164
 21
340.0882194418619
 31
0.0
  0
LINE
  5
B34
330
1E
100
AcDbEntity
  8
STEMPEL
100
AcDbLine
 10
418.9419757877624
 20
340.4346296033757
 30
0.0
 11
413.3806211854626
 21
340.4346296033758
 31
0.0
  0
LINE
  5
B35
330
1E
100
AcDbEntity
  8
STEMPEL
100
AcDbLine
 10
309.5782672887778
 20
340.4346296033758
 30
0.0
 11
225.3223711771935
 21
340.4346296033759
 31
0.0
  0
ARC
  5
B36
330
1E
100
AcDbEntity
  8
STEMPEL
100
AcDbCircle
 10
403.8919757877624
 20
322.4346296033758
 30
0.0
 40
21.0
100
AcDbArc
 50
0.8309537544566484
 51
16.65737706073938
  0
LINE
  5
B37
330
1E
100
AcDbEntity
  8
STEMPEL
100
AcDbLine
 10
423.5388497865752
 20
330.031361932132
 30
0.0
 11
424.0107317948853
 21
328.4542356308381
 31
0.0
  0
ARC
  5
B38
330
1E
100
AcDbEntity
  8
STEMPEL
100
AcDbCircle
 10
426.8919757877624
 20
331.0346296033758
 30
0.0
 40
3.5
100
AcDbArc
 50
180.0
 51
196.6573770607382
  0
ARC
  5
B39
330
1E
100
AcDbEntity
  8
STEMPEL
100
AcDbCircle
 10
426.8919757877624
 20
331.1207702650129
 30
0.0
 40
3.5
100
AcDbArc
 50
160.2500772043241
 51
180.0
  0
ARC
  5
B3A
330
1E
100
AcDbEntity
  8
STEMPEL
100
AcDbCircle
 10
430.8919757877624
 20
329.6846296033758
 30
0.0
 40
7.75
100
AcDbArc
 50
119.8121253911327
 51
160.2500772043246
  0
ARC
  5
B3B
330
1E
100
AcDbEntity
  8
STEMPEL
100
AcDbCircle
 10
438.2056842867471
 20
332.4346296033758
 30
0.0
 40
9.0
100
AcDbArc
 50
90.0
 51
119.8121253911325
  0
LINE
  5
B3C
330
1E
100
AcDbEntity
  8
STEMPEL
100
AcDbLine
 10
433.7312659464775
 20
340.2435719463733
 30
0.0
 11
427.0390044391969
 21
336.408996620957
 31
0.0
  0
LINE
  5
B3D
330
1E
100
AcDbEntity
  8
STEMPEL
100
AcDbLine
 10
434.2284235398408
 20
339.3759116860402
 30
0.0
 11
427.5361620325601
 21
335.5413363606239
 31
0.0
  0
LINE
  5
B3E
330
1E
100
AcDbEntity
  8
STEMPEL
100
AcDbLine
 10
318.6887767512333
 20
336.4346296033758
 30
0.0
 11
316.8919757877625
 21
336.4346296033758
 31
0.0
  0
ARC
  5
B3F
330
1E
100
AcDbEntity
  8
STEMPEL
100
AcDbCircle
 10
416.8051473579072
 20
320.9346296033758
 30
0.0
 40
8.0
100
AcDbArc
 50
335.9596622329144
 51
353.3741904351755
  0
LINE
  5
B40
330
1E
100
AcDbEntity
  8
STEMPEL
100
AcDbLine
 10
420.4581828688995
 20
315.3051107923681
 30
0.0
 11
410.3919757877624
 21
315.3051107923681
 31
0.0
  0
ARC
  5
B41
330
1E
100
AcDbEntity
  8
STEMPEL
100
AcDbCircle
 10
420.4581828688995
 20
319.3051107923681
 30
0.0
 40
4.0
100
AcDbArc
 50
270.0
 51
335.9596622329146
  0
ARC
  5
B42
330
1E
100
AcDbEntity
  8
STEMPEL
100
AcDbCircle
 10
420.4581828688995
 20
319.3051107923681
 30
0.0
 40
5.0
100
AcDbArc
 50
270.0
 51
335.9596622329146
  0
ARC
  5
B43
330
1E
100
AcDbEntity
  8
STEMPEL
100
AcDbCircle
 10
309.5782672887778
 20
332.4346296033758
 30
0.0
 40
9.0
100
AcDbArc
 50
60.18787460886742
 51
90.0
  0
ARC
  5
B45
330
1E
100
AcDbEntity
  8
STEMPEL
100
AcDbCircle
 10
316.8919757877625
 20
329.6846296033758
 30
0.0
 40
7.75
100
AcDbArc
 50
19.74992279567537
 51
60.18787460886752
  0
LINE
  5
B46
330
1E
100
AcDbEntity
  8
STEMPEL
100
AcDbLine
 10
314.0526856290474
 20
340.2435719463733
 30
0.0
 11
320.744947136328
 21
336.408996620957
 31
0.0
  0
LINE
  5
B47
330
1E
100
AcDbEntity
  8
STEMPEL
100
AcDbLine
 10
313.5555280356841
 20
339.3759116860402
 30
0.0
 11
320.2477895429648
 21
335.5413363606239
 31
0.0
  0
LINE
  5
B48
330
1E
100
AcDbEntity
  8
STEMPEL
100
AcDbLine
 10
522.1552001604295
 20
341.4346296033758
 30
0.0
 11
438.2056842867471
 21
341.4346296033758
 31
0.0
  0
ARC
  5
B49
330
1E
100
AcDbEntity
  8
STEMPEL
100
AcDbCircle
 10
320.8919757877625
 20
331.1207702650129
 30
0.0
 40
3.5
100
AcDbArc
 50
0.000000000000007
 51
19.74992279567586
  0
ARC
  5
B4A
330
1E
100
AcDbEntity
  8
STEMPEL
100
AcDbCircle
 10
320.8919757877625
 20
331.0346296033758
 30
0.0
 40
3.5
100
AcDbArc
 50
343.3426229392618
 51
0.000000000000007
  0
LINE
  5
B4B
330
1E
100
AcDbEntity
  8
STEMPEL
100
AcDbLine
 10
324.2451017889497
 20
330.031361932132
 30
0.0
 11
323.7732197806397
 21
328.4542356308381
 31
0.0
  0
ARC
  5
B4C
330
1E
100
AcDbEntity
  8
STEMPEL
100
AcDbCircle
 10
343.8919757877625
 20
322.4346296033758
 30
0.0
 40
21.0
100
AcDbArc
 50
163.3426229392606
 51
179.169046245543
  0
ARC
  5
B4D
330
1E
100
AcDbEntity
  8
STEMPEL
100
AcDbCircle
 10
330.9788042176178
 20
320.9346296033758
 30
0.0
 40
8.0
100
AcDbArc
 50
186.6258095648245
 51
204.0403377670855
  0
ARC
  5
B4E
330
1E
100
AcDbEntity
  8
STEMPEL
100
AcDbCircle
 10
327.3257687066253
 20
319.3051107923681
 30
0.0
 40
4.0
100
AcDbArc
 50
204.0403377670857
 51
270.0
  0
ARC
  5
B4F
330
1E
100
AcDbEntity
  8
STEMPEL
100
AcDbCircle
 10
327.3257687066253
 20
319.3051107923681
 30
0.0
 40
5.0
100
AcDbArc
 50
204.0403377670857
 51
270.0
  0
HATCH
  5
B9E
330
1E
100
AcDbEntity
  8
SCHRAFF
100
AcDbHatch
 10
0.0
 20
0.0
 30
0.0
210
0.0
220
0.0
230
1.0
  2
NET
 70
     0
 71
     0
 91
        4
 92
        7
 72
     0
 73
     1
 93
        4
 10
543.8919757877624
 20
340.4346296033758
 10
543.8919757877624
 20
341.4346296033759
 10
523.1552001604293
 20
341.4346296033758
 10
522.8872509679982
 20
340.4346296033758
 97
        0
 92
        7
 72
     1
 73
     1
 93
       27
 10
521.8872509679983
 20
340.4346296033758
 42
0.0
 10
522.1552001604294
 20
341.4346296033758
 42
0.0
 10
438.2056842867471
 20
341.4346296033758
 42
0.1308186214179442
 10
433.7312659464775
 20
340.2435719463733
 42
0.0
 10
427.0390044391969
 20
336.408996620957
 42
0.178297985477242
 10
423.5978581407051
 20
332.3034743393017
 42
0.0894895723998248
 10
423.3922408054239
 20
331.0776999341933
 42
0.0759033142298033
 10
423.5388497865752
 20
330.031361932132
 42
0.0
 10
424.0107317948853
 20
328.4542356308381
 42
-0.0691657775375908
 10
424.8897673247459
 20
322.7391793848324
 42
-0.0957781917611653
 10
425.1419757877624
 20
321.4346296033757
 42
-0.1247310581123101
 10
424.7196010640657
 20
319.7678294777881
 42
-0.0684091467547773
 10
424.111218379892
 20
317.6755919813605
 42
-0.2960220549713827
 10
420.4581828688994
 20
315.3051107923681
 42
0.0
 10
418.8919757877625
 20
315.3051107923681
 42
0.0
 10
418.8919757877625
 20
314.305110792368
 42
0.0
 10
420.4581828688996
 20
314.305110792368
 42
0.2960220549713651
 10
425.0244772576401
 20
317.2682122786083
 42
0.0761317921794737
 10
425.7450353680074
 20
319.896168064914
 42
0.1019430245146344
 10
424.9687677952244
 20
328.7408835369078
 42
0.0
 10
424.4968857869144
 20
330.3180098382017
 42
-0.0728097721655565
 10
424.3919757877624
 20
331.0346296033758
 42
0.0
 10
424.3919757877624
 20
331.1207702650129
 42
-0.0863895110096339
 10
424.5390354924289
 20
331.9655613436803
 42
-0.1782978858307108
 10
427.5361620325602
 20
335.541336360624
 42
0.0
 10
434.2284235398409
 20
339.3759116860402
 42
-0.1308186214179428
 10
438.2056842867471
 20
340.4346296033758
 42
0.0
 97
        0
 92
        7
 72
     1
 73
     1
 93
       27
 10
309.5782672887778
 20
340.4346296033758
 42
-0.1308186214179428
 10
313.555528035684
 20
339.3759116860402
 42
0.0
 10
320.2477895429647
 20
335.541336360624
 42
-0.1782978828563625
 10
323.244916056795
 20
331.965561416935
 42
-0.0863895188510103
 10
323.3919757877625
 20
331.1207702650131
 42
0.0
 10
323.3919757877625
 20
331.0346296033758
 42
-0.0728097721655507
 10
323.2870657886105
 20
330.3180098382018
 42
0.0
 10
322.8151837803005
 20
328.7408835369078
 42
0.1019430245146386
 10
322.0389162075172
 20
319.8961680649137
 42
0.076131792179475
 10
322.7594743178848
 20
317.2682122786079
 42
0.2960220549713463
 10
327.3257687066252
 20
314.305110792368
 42
0.0
 10
328.8919757877625
 20
314.305110792368
 42
0.0
 10
328.8919757877624
 20
315.3051107923681
 42
0.0
 10
327.3257687066253
 20
315.3051107923681
 42
-0.2960220549713771
 10
323.6727331956329
 20
317.6755919813605
 42
-0.0684091467547823
 10
323.0643505114591
 20
319.7678294777883
 42
-0.1247310581123008
 10
322.6419757877625
 20
321.4346296033758
 42
-0.0957781917611702
 10
322.894184250779
 20
322.7391793848326
 42
-0.0691657775375887
 10
323.7732197806397
 20
328.4542356308381
 42
0.0
 10
324.2451017889497
 20
330.031361932132
 42
0.0759033142297424
 10
324.391710770101
 20
331.0776999341925
 42
0.0894893294871543
 10
324.1860945748648
 20
332.3034711639979
 42
0.1782980977679703
 10
320.744947136328
 20
336.408996620957
 42
0.0
 10
314.0526856290474
 20
340.2435719463733
 42
0.130818621417948
 10
309.5782672887777
 20
341.4346296033758
 42
0.0
 10
225.5903203696247
 20
341.4346296033759
 42
0.0
 10
225.3223711771935
 20
340.4346296033758
 42
0.0
 97
        0
 92
        7
 72
     0
 73
     1
 93
        4
 10
224.3223711771936
 20
340.4346296033759
 10
224.5903203696247
 20
341.4346296033759
 10
203.8919757877625
 20
341.4346296033759
 10
203.8919757877624
 20
340.4346296033758
 97
        0
 75
     0
 76
     1
 52
45.0
 41
8.0
 77
     0
 78
     2
 53
45.0
 43
20.1294135448702
 44
-42.59686680221989
 45
-0.7071067811865475
 46
0.7071067811865476
 79
     0
 53
135.0
 43
20.1294135448702
 44
-42.59686680221989
 45
-0.7071067811865476
 46
-0.7071067811865475
 79
     0
 47
0.4361338005267785
 98
        4
 10
535.4617126821688
 20
340.8037262148837
 10
516.2582526647286
 20
340.8037262148837
 10
238.6809711265694
 20
340.8037262148837
 10
215.9859715346472
 20
340.8037262148837
  0
DIMENSION
  5
B9F
330
1E
100
AcDbEntity
  8
BEM
100
AcDbDimension
  2
*D2
 10
488.8919757877624
 20
471.2160402360921
 30
0.0
 11
373.8919757877625
 21
477.716040236092
 31
0.0
 70
    32
  1
%%c<>
 71
     5
 42
229.9999999999999
  3
Standard
100
AcDbAlignedDimension
 13
258.8919757877625
 23
336.9346296033758
 33
0.0
 14
488.8919757877624
 24
336.9346296033758
 34
0.0
100
AcDbRotatedDimension
1001
ACAD
1000
DSTYLE
1002
{
1070
    40
1040
2.0
1070
    41
1040
3.5
1070
    42
1040
1.0
1070
    43
1040
7.0
1070
    44
1040
1.0
1070
    73
1070
     0
1070
    74
1070
     0
1070
    77
1070
     1
1070
    78
1070
     8
1070
    79
1070
     2
1070
   140
1040
3.5
1070
   141
1040
1.5
1070
   146
1040
0.5
1070
   147
1040
1.5
1070
   172
1070
     1
1070
   178
1070
     1
1070
   179
1070
     2
1070
   271
1070
     2
1070
   272
1070
     2
1070
   284
1070
     8
1070
   285
1070
     8
1070
   286
1070
     8
1002
}
  0
DIMENSION
  5
BAC
330
1E
100
AcDbEntity
  8
BEM
100
AcDbDimension
  2
*D3
 10
543.8919757877624
 20
484.7666996069635
 30
0.0
 11
377.0705827005083
 21
484.7666996069635
 31
0.0
 70
   160
  1
500
 71
     5
 42
340.0
  3
Standard
100
AcDbAlignedDimension
 13
203.8919757877625
 23
341.4346296033759
 33
0.0
 14
543.8919757877624
 24
341.4346296033758
 34
0.0
100
AcDbRotatedDimension
1001
ACAD
1000
DSTYLE
1002
{
1070
    40
1040
2.0
1070
    41
1040
3.5
1070
    42
1040
1.0
1070
    43
1040
7.0
1070
    44
1040
1.0
1070
    73
1070
     0
1070
    74
1070
     0
1070
    77
1070
     1
1070
    78
1070
     8
1070
    79
1070
     2
1070
   140
1040
3.5
1070
   141
1040
1.5
1070
   146
1040
0.5
1070
   147
1040
1.5
1070
   172
1070
     1
1070
   178
1070
     1
1070
   179
1070
     2
1070
   271
1070
     2
1070
   272
1070
     2
1070
   284
1070
     8
1070
   285
1070
     8
1070
   286
1070
     8
1002
}
  0
LWPOLYLINE
  5
BE6
330
1E
100
AcDbEntity
  8
VOLL
100
AcDbPolyline
 90
        4
 70
     1
 43
0.0
 10
359.4970021230295
 20
494.8033657452513
 10
359.4970021230295
 20
487.8033657452513
 10
366.4970021230295
 20
487.8033657452513
 10
366.4970021230295
 20
494.8033657452513
  0
LINE
  5
C06
330
1E
100
AcDbEntity
  8
STEMPEL
100
AcDbLine
 10
259.5259031803735
 20
335.5751679228208
 30
0.0
 11
315.6301171247577
 21
335.5751679228208
 31
0.0
  0
LINE
  5
C72
330
1E
100
AcDbEntity
  8
TEXT
 62
     2
100
AcDbLine
 10
472.4725710103805
 20
508.2181271736455
 30
0.0
 11
458.5992249330542
 21
487.9222279275113
 31
0.0
  0
LINE
  5
C73
330
1E
100
AcDbEntity
  8
TEXT
 62
     2
100
AcDbLine
 10
472.4725710103805
 20
508.2181271736455
 30
0.0
 11
577.4901094425738
 21
508.2181271736455
 31
0.0
  0
TEXT
  5
C74
330
1E
100
AcDbEntity
  8
TEXT
 62
     1
100
AcDbText
 10
472.678008241681
 20
511.1746655378574
 30
0.0
 40
7.0
  1
Siebeinheit
 41
0.8
  7
GREEKS
100
AcDbText
  0
TEXT
  5
C75
330
1E
100
AcDbEntity
  8
TEXT
 62
     1
100
AcDbText
 10
472.678008241681
 20
498.9438510088982
 30
0.0
 40
7.0
  1
EDV-Art.Nr. 15087.000X
 41
0.8
  7
GREEKS
100
AcDbText
  0
TEXT
  5
C76
330
1E
100
AcDbEntity
  8
TEXT
 62
     1
100
AcDbText
 10
208.1689901564026
 20
187.8871651695511
 30
0.0
 40
7.0
  1
Grundeinheit DN70
 41
0.8
  7
GREEKS
100
AcDbText
  0
LINE
  5
C77
330
1E
100
AcDbEntity
  8
TEXT
 62
     2
100
AcDbLine
 10
207.963552925102
 20
184.9306268053392
 30
0.0
 11
312.9810913572956
 21
184.9306268053392
 31
0.0
  0
TEXT
  5
C78
330
1E
100
AcDbEntity
  8
TEXT
 62
     1
100
AcDbText
 10
208.1689901564026
 20
175.6563506405919
 30
0.0
 40
7.0
  1
EDV-Art.Nr. 15430.070X
 41
0.8
  7
GREEKS
100
AcDbText
  0
TEXT
  5
C7D
330
1E
100
AcDbEntity
  8
TEXT
100
AcDbText
 10
654.3410940884992
 20
62.10021383107525
 30
0.0
 40
5.0
  1

 41
0.8
  7
GREEKS
100
AcDbText
  0
LINE
  5
F1F
330
1E
100
AcDbEntity
  8
STEMPEL
100
AcDbLine
 10
336.5422180537042
 20
316.6990970059459
 30
0.0
 11
337.3919757877625
 21
316.699097005946
 31
0.0
  0
LINE
  5
F21
330
1E
100
AcDbEntity
  8
STEMPEL
100
AcDbLine
 10
335.4949142723344
 20
341.3346296033757
 30
0.0
 11
337.3919757877625
 21
341.3346296033758
 31
0.0
  0
LINE
  5
F26
330
1E
100
AcDbEntity
  8
STEMPEL
100
AcDbLine
 10
337.3919757877625
 20
335.3346296033757
 30
0.0
 11
337.3919757877625
 21
316.6990970059459
 31
0.0
  0
LINE
  5
F27
330
1E
100
AcDbEntity
  8
STEMPEL
100
AcDbLine
 10
333.3919757877625
 20
320.0072531983116
 30
0.0
 11
335.9885355562191
 21
320.0072531983116
 31
0.0
  0
ARC
  5
F28
330
1E
100
AcDbEntity
  8
STEMPEL
100
AcDbCircle
 10
335.2545076088318
 20
322.5889027114882
 30
0.0
 40
0.6558152322664971
100
AcDbArc
 50
352.9225388552967
 51
170.8761771301685
  0
LINE
  5
F2B
330
1E
100
AcDbEntity
  8
STEMPEL
100
AcDbLine
 10
334.1829202430892
 20
320.0072531983116
 30
0.0
 11
334.6069897762959
 21
322.6928944199118
 31
0.0
  0
ARC
  5
F31
330
1E
100
AcDbEntity
  8
STEMPEL
100
AcDbCircle
 10
438.9853745976141
 20
330.8702603544562
 30
0.0
 40
103.4186742969093
100
AcDbArc
 50
184.6378487189676
 51
187.8758549402648
  0
ARC
  5
F32
330
1E
100
AcDbEntity
  8
STEMPEL
100
AcDbCircle
 10
335.4949142723344
 20
340.3346296033757
 30
0.0
 40
1.0
100
AcDbArc
 50
10.00000000000021
 51
150.588086334468
  0
LINE
  5
F35
330
1E
100
AcDbEntity
  8
STEMPEL
100
AcDbLine
 10
332.0919757877625
 20
336.3346296033757
 30
0.0
 11
334.6238025549852
 21
340.8257145002081
 31
0.0
  0
LINE
  5
F37
330
1E
100
AcDbEntity
  8
STEMPEL
100
AcDbLine
 10
337.3919757877625
 20
335.3346296033757
 30
0.0
 11
336.4797220253466
 21
340.5082777810426
 31
0.0
  0
LINE
  5
10FC
330
1E
100
AcDbEntity
  8
STEMPEL
100
AcDbLine
 10
334.4033303900624
 20
340.4346296033757
 30
0.0
 11
328.8419757877625
 21
340.4346296033758
 31
0.0
  0
LINE
  5
10FD
330
1E
100
AcDbEntity
  8
STEMPEL
100
AcDbLine
 10
413.5759081906085
 20
340.088219441862
 30
0.0
 11
419.1419757877624
 21
340.088219441862
 31
0.0
  0
LINE
  5
10FE
330
1E
100
AcDbEntity
  8
STEMPEL
100
AcDbLine
 10
415.6919757877624
 20
336.3346296033757
 30
0.0
 11
413.1601490205397
 21
340.8257145002081
 31
0.0
  0
ARC
  5
10FF
330
1E
100
AcDbEntity
  8
STEMPEL
100
AcDbCircle
 10
412.2890373031905
 20
340.3346296033757
 30
0.0
 40
1.0
100
AcDbArc
 50
29.41191366553203
 51
169.9999999999997
  0
LINE
  5
1100
330
1E
100
AcDbEntity
  8
STEMPEL
100
AcDbLine
 10
410.3919757877624
 20
335.3346296033757
 30
0.0
 11
411.3042295501784
 21
340.5082777810426
 31
0.0
  0
ARC
  5
1101
330
1E
100
AcDbEntity
  8
STEMPEL
100
AcDbCircle
 10
308.7985769779109
 20
330.8702603544562
 30
0.0
 40
103.4186742969093
100
AcDbArc
 50
352.1241450597352
 51
355.3621512810324
  0
LINE
  5
1102
330
1E
100
AcDbEntity
  8
STEMPEL
100
AcDbLine
 10
413.6010313324358
 20
320.0072531983116
 30
0.0
 11
413.1769617992291
 21
322.6928944199118
 31
0.0
  0
ARC
  5
1103
330
1E
100
AcDbEntity
  8
STEMPEL
100
AcDbCircle
 10
412.5294439666931
 20
322.5889027114882
 30
0.0
 40
0.6558152322664971
100
AcDbArc
 50
9.123822869831478
 51
187.0774611447032
  0
LINE
  5
1104
330
1E
100
AcDbEntity
  8
STEMPEL
100
AcDbLine
 10
414.3919757877625
 20
320.0072531983116
 30
0.0
 11
411.7954160193059
 21
320.0072531983116
 31
0.0
  0
LINE
  5
1105
330
1E
100
AcDbEntity
  8
STEMPEL
100
AcDbLine
 10
410.3919757877624
 20
335.3346296033757
 30
0.0
 11
410.3919757877624
 21
316.6990970059459
 31
0.0
  0
HATCH
  5
1121
330
1E
100
AcDbEntity
  8
SCHRAFF
100
AcDbHatch
 10
0.0
 20
0.0
 30
0.0
210
0.0
220
0.0
230
1.0
  2
NET
 70
     0
 71
     0
 91
        2
 92
        7
 72
     1
 73
     1
 93
       13
 10
410.3919757877624
 20
316.6990970059459
 42
0.0
 10
411.2417335218209
 20
316.6990970059459
 42
0.0141294075935353
 10
411.8786257296646
 20
322.5080989911301
 42
-0.9848881567541043
 10
413.1775000914887
 20
322.6894854037754
 42
0.0
 10
413.6010313324359
 20
320.0072531983116
 42
0.0
 10
414.3919757877625
 20
320.0072531983117
 42
0.0
 10
414.3919757877625
 20
329.8396747644663
 42
0.0
 10
412.3919757877624
 20
335.3346296033756
 42
0.0
 10
412.3919757877625
 20
336.3346296033758
 42
0.0
 10
415.6919757877624
 20
336.3346296033758
 42
0.0
 10
413.1601490205397
 20
340.8257145002081
 42
0.7040385315423109
 10
411.3042295501784
 20
340.5082777810426
 42
0.0
 10
410.3919757877624
 20
335.3346296033759
 42
0.0
 97
        0
 92
        7
 72
     1
 73
     1
 93
       13
 10
337.3919757877625
 20
335.3346296033756
 42
0.0
 10
336.4797220253466
 20
340.5082777810426
 42
0.7040385315423109
 10
334.6238025549852
 20
340.8257145002081
 42
0.0
 10
332.0919757877626
 20
336.3346296033758
 42
0.0
 10
335.3919757877624
 20
336.3346296033757
 42
0.0
 10
335.3919757877624
 20
335.3346296033758
 42
0.0
 10
333.3919757877624
 20
329.8396747644664
 42
0.0
 10
333.3919757877625
 20
320.0072531983116
 42
0.0
 10
334.1829202430893
 20
320.0072531983116
 42
0.0
 10
334.6064514840393
 20
322.6894854037947
 42
-0.9848881567385136
 10
335.9053258458605
 20
322.5080989911309
 42
0.0141294075935372
 10
336.5422180537042
 20
316.6990970059459
 42
0.0
 10
337.3919757877625
 20
316.699097005946
 42
0.0
 97
        0
 75
     0
 76
     1
 52
45.0
 41
10.0
 77
     0
 78
     2
 53
45.0
 43
20.1294135448702
 44
-42.59686680221989
 45
-0.8838834764831842
 46
0.8838834764831844
 79
     0
 53
135.0
 43
20.1294135448702
 44
-42.59686680221989
 45
-0.8838834764831844
 46
-0.8838834764831842
 79
     0
 47
0.1350868049240448
 98
        2
 10
411.2633244829473
 20
331.2884883491704
 10
335.5612084140341
 20
327.6411437291983
  0
HATCH
  5
1207
330
1E
100
AcDbEntity
  8
SCHRAFF
100
AcDbHatch
 10
0.0
 20
0.0
 30
0.0
210
0.0
220
0.0
230
1.0
  2
_USER
 70
     0
 71
     0
 91
        7
 92
        7
 72
     1
 73
     1
 93
       11
 10
416.8919757877624
 20
439.9346296033757
 42
-0.4142135623730951
 10
419.3919757877624
 20
437.4346296033756
 42
0.0
 10
419.3919757877624
 20
435.4346296033756
 42
0.0
 10
420.8919757877624
 20
435.4346296033757
 42
0.0
 10
420.8919757877624
 20
437.4346296033757
 42
0.4142135623730992
 10
416.8919757877624
 20
441.4346296033758
 42
0.0
 10
407.5904605975972
 20
441.4346296033758
 42
0.4142135623731076
 10
403.5904605975972
 20
437.4346296033756
 42
0.0
 10
404.4670511274582
 20
437.4346296033756
 42
0.0
 10
405.0904605975975
 20
437.4346296033756
 42
-0.4142135623730984
 10
407.5904605975974
 20
439.9346296033757
 42
0.0
 97
        0
 92
        7
 72
     1
 73
     1
 93
        8
 10
391.105179223359
 20
441.4346296033758
 42
0.0
 10
390.6198978491204
 20
441.4346296033758
 42
0.4142135623731074
 10
386.6198978491204
 20
437.4346296033756
 42
0.0
 10
388.1198978491204
 20
437.4346296033756
 42
-0.4142135623730251
 10
390.6198978491198
 20
439.9346296033756
 42
0.0
 10
391.1051792233591
 20
439.9346296033757
 42
-0.4142135623731084
 10
393.6051792233591
 20
437.4346296033756
 42
0.0
 10
395.1051792233591
 20
437.4346296033756
 42
0.4142135623731097
 97
        0
 92
        7
 72
     1
 73
     1
 93
        6
 10
375.3772571620011
 20
441.4346296033758
 42
0.0
 10
373.8919757877625
 20
441.4346296033758
 42
0.0
 10
373.8919757877625
 20
439.9346296033757
 42
0.0
 10
375.3772571620009
 20
439.9346296033757
 42
-0.4142135623731084
 10
377.8772571620009
 20
437.4346296033756
 42
0.0
 10
379.3772571620011
 20
437.4346296033756
 42
0.4142135623731011
 97
        0
 92
        7
 72
     1
 73
     1
 93
        6
 10
368.4066944135238
 20
437.4346296033756
 42
0.0
 10
369.9066944135239
 20
437.4346296033756
 42
-0.4142135623731017
 10
372.4066944135238
 20
439.9346296033757
 42
0.0
 10
373.8919757877625
 20
439.9346296033757
 42
0.0
 10
373.8919757877625
 20
441.4346296033758
 42
0.0
 10
372.4066944135238
 20
441.4346296033758
 42
0.4142135623731034
 97
        0
 92
        7
 72
     1
 73
     1
 93
        8
 10
357.1640537264046
 20
441.4346296033758
 42
0.0
 10
356.6787723521661
 20
441.4346296033758
 42
0.4142135623731036
 10
352.6787723521661
 20
437.4346296033756
 42
0.0
 10
354.1787723521661
 20
437.4346296033756
 42
-0.4142135623730618
 10
356.6787723521658
 20
439.9346296033757
 42
0.0
 10
357.1640537264047
 20
439.9346296033757
 42
-0.4142135623731017
 10
359.6640537264047
 20
437.4346296033756
 42
0.0
 10
361.1640537264047
 20
437.4346296033756
 42
0.4142135623731054
 97
        0
 92
        7
 72
     1
 73
     1
 93
        6
 10
340.1934909779278
 20
441.4346296033758
 42
0.0
 10
338.8919757877625
 20
441.4346296033758
 42
0.0
 10
338.8919757877625
 20
439.9346296033756
 42
0.0
 10
340.1934909779275
 20
439.9346296033756
 42
-0.4142135623730885
 10
342.6934909779275
 20
437.4346296033756
 42
0.0
 10
344.1934909779275
 20
437.4346296033756
 42
0.4142135623730847
 97
        0
 92
        7
 72
     1
 73
     1
 93
        8
 10
330.8919757877625
 20
441.4346296033758
 42
0.4142135623731077
 10
326.8919757877625
 20
437.4346296033756
 42
0.0
 10
326.8919757877625
 20
435.4346296033758
 42
0.0
 10
328.3919757877625
 20
435.4346296033758
 42
0.0
 10
328.3919757877625
 20
437.4346296033756
 42
-0.4142135623730951
 10
330.8919757877625
 20
439.9346296033756
 42
0.0
 10
338.8919757877625
 20
439.9346296033756
 42
0.0
 10
338.8919757877625
 20
441.4346296033757
 42
0.0
 97
        0
 75
     0
 76
     0
 52
45.0
 41
2.0
 77
     0
 78
     1
 53
45.0
 43
173.018009656198
 44
-9.636169205714281
 45
-1.414213562373094
 46
1.414213562373095
 79
     0
 47
0.164329733208832
 98
        7
 10
411.384940728351
 20
440.5684426244569
 10
391.6514237009173
 20
440.897101776845
 10
376.3579504607806
 20
440.897101776845
 10
372.0823556506416
 20
440.897101776845
 10
358.5977862277009
 20
440.5684426244569
 10
340.5087305899697
 20
440.7327722006511
 10
336.7264739784196
 20
440.7327722006511
  0
LINE
  5
120B
330
1E
100
AcDbEntity
  8
STEMPEL
100
AcDbLine
 10
404.4670511274582
 20
437.4346296033756
 30
0.0
 11
334.9050556884999
 21
437.4346296033756
 31
0.0
  0
LINE
  5
120C
330
1E
100
AcDbEntity
  8
STEMPEL
100
AcDbLine
 10
334.9050556884999
 20
437.4346296033757
 30
0.0
 11
340.62673945285
 21
437.4346296033756
 31
0.0
  0
LINE
  5
120D
330
1E
100
AcDbEntity
  8
STEMPEL
100
AcDbLine
 10
330.8919757877625
 20
439.9346296033756
 30
0.0
 11
340.1934909779275
 21
439.9346296033756
 31
0.0
  0
LINE
  5
120E
102
{ACAD_REACTORS
330
1627
102
}
330
1E
100
AcDbEntity
  8
STEMPEL
100
AcDbLine
 10
337.3919757877626
 20
425.4346296033758
 30
0.0
 11
330.3919757877627
 21
432.4346296033757
 31
0.0
  0
LINE
  5
120F
102
{ACAD_REACTORS
330
1627
102
}
330
1E
100
AcDbEntity
  8
STEMPEL
100
AcDbLine
 10
331.8919757877625
 20
435.4346296033758
 30
0.0
 11
341.8919757877625
 21
425.4346296033757
 31
0.0
  0
LINE
  5
1210
102
{ACAD_REACTORS
330
1627
102
}
330
1E
100
AcDbEntity
  8
STEMPEL
100
AcDbLine
 10
323.3919757877625
 20
441.4346296033758
 30
0.0
 11
424.3919757877624
 21
441.4346296033758
 31
0.0
  0
LINE
  5
1211
102
{ACAD_REACTORS
330
1627
102
}
330
1E
100
AcDbEntity
  8
STEMPEL
100
AcDbLine
 10
326.3919757877625
 20
435.4346296033758
 30
0.0
 11
421.3919757877624
 21
435.4346296033757
 31
0.0
  0
DIMENSION
  5
1212
330
1E
100
AcDbEntity
  8
BEM
100
AcDbDimension
  2
*D4
 10
424.3919757877624
 20
455.6383234083995
 30
0.0
 11
376.6482228601094
 21
455.6383234083995
 31
0.0
 70
   160
 71
     5
 42
101.0
  3
Standard
100
AcDbAlignedDimension
 13
323.3919757877625
 23
441.4346296033758
 33
0.0
 14
424.3919757877624
 24
441.4346296033758
 34
0.0
100
AcDbRotatedDimension
1001
ACAD
1000
DSTYLE
1002
{
1070
    40
1040
2.0
1070
    41
1040
3.5
1070
    42
1040
1.0
1070
    43
1040
7.0
1070
    44
1040
1.0
1070
    73
1070
     0
1070
    74
1070
     0
1070
    77
1070
     1
1070
    78
1070
     8
1070
    79
1070
     2
1070
   140
1040
3.5
1070
   141
1040
1.5
1070
   146
1040
0.5142857142857144
1070
   147
1040
1.5
1070
   172
1070
     1
1070
   178
1070
     1
1070
   179
1070
     2
1070
   271
1070
     2
1070
   272
1070
     2
1070
   284
1070
     8
1070
   285
1070
     8
1070
   286
1070
     8
1002
}
  0
DIMENSION
  5
1214
330
1E
100
AcDbEntity
  8
BEM
100
AcDbDimension
  2
*D5
 10
310.8097371666183
 20
432.4346296033756
 30
0.0
 11
304.3097371666182
 21
413.7012962700423
 31
0.0
 70
    32
 71
     5
 42
9.000000000000113
  3
Standard
100
AcDbAlignedDimension
 13
323.3919757877625
 23
441.4346296033758
 33
0.0
 14
323.3919757877625
 24
432.4346296033756
 34
0.0
 50
90.0
100
AcDbRotatedDimension
1001
ACAD
1000
DSTYLE
1002
{
1070
    40
1040
2.0
1070
    41
1040
3.5
1070
    42
1040
1.0
1070
    43
1040
7.0
1070
    44
1040
1.0
1070
    73
1070
     0
1070
    74
1070
     0
1070
    77
1070
     1
1070
    78
1070
     8
1070
    79
1070
     2
1070
   140
1040
3.5
1070
   141
1040
1.5
1070
   146
1040
0.5142857142857144
1070
   147
1040
1.5
1070
   172
1070
     1
1070
   178
1070
     1
1070
   179
1070
     2
1070
   271
1070
     2
1070
   272
1070
     2
1070
   284
1070
     8
1070
   285
1070
     8
1070
   286
1070
     8
1002
}
  0
LINE
  5
1215
330
1E
100
AcDbEntity
  8
STEMPEL
100
AcDbLine
 10
334.9050556884999
 20
437.4346296033756
 30
0.0
 11
334.9050556884999
 21
439.9346296033757
 31
0.0
  0
ARC
  5
1216
330
1E
100
AcDbEntity
  8
STEMPEL
100
AcDbCircle
 10
330.8919757877625
 20
437.4346296033756
 30
0.0
 40
4.0
100
AcDbArc
 50
90.0
 51
180.0
  0
ARC
  5
1217
330
1E
100
AcDbEntity
  8
STEMPEL
100
AcDbCircle
 10
330.8919757877625
 20
437.4346296033756
 30
0.0
 40
2.5
100
AcDbArc
 50
90.0
 51
180.0
  0
LINE
  5
1218
330
1E
100
AcDbEntity
  8
STEMPEL
100
AcDbLine
 10
334.6419757877625
 20
435.4346296033757
 30
0.0
 11
334.6419757877625
 21
439.9346296033757
 31
0.0
  0
LINE
  5
1219
102
{ACAD_REACTORS
330
1627
102
}
330
1E
100
AcDbEntity
  8
STEMPEL
100
AcDbLine
 10
326.3919757877625
 20
441.4346296033758
 30
0.0
 11
326.3919757877625
 21
435.4346296033758
 31
0.0
  0
LINE
  5
121A
102
{ACAD_REACTORS
330
1627
102
}
330
1E
100
AcDbEntity
  8
STEMPEL
100
AcDbLine
 10
323.3919757877625
 20
441.4346296033758
 30
0.0
 11
323.3919757877625
 21
432.4346296033756
 31
0.0
  0
LINE
  5
121B
102
{ACAD_REACTORS
330
1627
102
}
330
1E
100
AcDbEntity
  8
STEMPEL
100
AcDbLine
 10
330.3919757877627
 20
432.4346296033757
 30
0.0
 11
323.3919757877625
 21
432.4346296033756
 31
0.0
  0
LINE
  5
121C
330
1E
100
AcDbEntity
  8
STEMPEL
100
AcDbLine
 10
328.3919757877625
 20
435.4346296033756
 30
0.0
 11
328.3919757877625
 21
437.4346296033756
 31
0.0
  0
LINE
  5
121D
330
1E
100
AcDbEntity
  8
STEMPEL
100
AcDbLine
 10
326.8919757877625
 20
435.4346296033756
 30
0.0
 11
326.8919757877625
 21
437.4346296033756
 31
0.0
  0
LINE
  5
121E
330
1E
100
AcDbEntity
  8
STEMPEL
100
AcDbLine
 10
326.8919757877625
 20
435.4346296033756
 30
0.0
 11
328.3919757877625
 21
435.4346296033756
 31
0.0
  0
LINE
  5
121F
330
1E
100
AcDbEntity
  8
STEMPEL
100
AcDbLine
 10
327.1919757877626
 20
438.9544980187328
 30
0.0
 11
327.1919757877626
 21
441.4346296033758
 31
0.0
  0
LINE
  5
1220
102
{ACAD_REACTORS
330
1627
102
}
330
1E
100
AcDbEntity
  8
STEMPEL
100
AcDbLine
 10
410.3919757877624
 20
380.4346296033759
 30
0.0
 11
410.3919757877624
 21
368.4346296033759
 31
0.0
  0
LINE
  5
1221
102
{ACAD_REACTORS
330
1627
102
}
330
1E
100
AcDbEntity
  8
STEMPEL
100
AcDbLine
 10
337.3919757877626
 20
380.4346296033759
 30
0.0
 11
337.3919757877626
 21
368.4346296033759
 31
0.0
  0
LINE
  5
1222
102
{ACAD_REACTORS
330
1627
102
}
330
1E
100
AcDbEntity
  8
STEMPEL
100
AcDbLine
 10
341.8919757877625
 20
425.4346296033757
 30
0.0
 11
339.7065364685675
 21
308.2950820945261
 31
0.0
  0
LINE
  5
1223
102
{ACAD_REACTORS
330
1627
102
}
330
1E
100
AcDbEntity
  8
STEMPEL
100
AcDbLine
 10
405.8919757877625
 20
425.4346296033757
 30
0.0
 11
408.0774151069574
 21
308.2950820945262
 31
0.0
  0
LINE
  5
1224
102
{ACAD_REACTORS
330
1627
102
}
330
1E
100
AcDbEntity
  8
STEMPEL
100
AcDbLine
 10
337.3919757877625
 20
308.295082094526
 30
0.0
 11
410.3919757877624
 21
308.2950820945262
 31
0.0
  0
LINE
  5
1225
102
{ACAD_REACTORS
330
1627
102
}
330
1E
100
AcDbEntity
  8
STEMPEL
100
AcDbLine
 10
337.3919757877625
 20
335.4346296033759
 30
0.0
 11
337.3919757877625
 21
323.4346296033759
 31
0.0
  0
LINE
  5
1226
102
{ACAD_REACTORS
330
1627
102
}
330
1E
100
AcDbEntity
  8
STEMPEL
100
AcDbLine
 10
337.3919757877625
 20
320.4346296033758
 30
0.0
 11
337.3919757877625
 21
308.295082094526
 31
0.0
  0
LINE
  5
122C
102
{ACAD_REACTORS
330
1627
102
}
330
1E
100
AcDbEntity
  8
STEMPEL
100
AcDbLine
 10
337.8919757877626
 20
323.4346296033758
 30
0.0
 11
337.8919757877626
 21
320.4346296033758
 31
0.0
  0
LINE
  5
122D
102
{ACAD_REACTORS
330
1627
102
}
330
1E
100
AcDbEntity
  8
STEMPEL
100
AcDbLine
 10
337.8919757877626
 20
320.4346296033758
 30
0.0
 11
337.3919757877625
 21
320.4346296033758
 31
0.0
  0
LINE
  5
122E
102
{ACAD_REACTORS
330
1627
102
}
330
1E
100
AcDbEntity
  8
STEMPEL
100
AcDbLine
 10
337.8919757877626
 20
323.4346296033759
 30
0.0
 11
337.3919757877625
 21
323.4346296033759
 31
0.0
  0
LINE
  5
122F
102
{ACAD_REACTORS
330
1627
102
}
330
1E
100
AcDbEntity
  8
STEMPEL
100
AcDbLine
 10
337.3919757877626
 20
365.4346296033759
 30
0.0
 11
337.3919757877626
 21
353.4346296033759
 31
0.0
  0
LINE
  5
1230
102
{ACAD_REACTORS
330
1627
102
}
330
1E
100
AcDbEntity
  8
STEMPEL
100
AcDbLine
 10
337.3919757877626
 20
350.4346296033759
 30
0.0
 11
337.3919757877625
 21
338.4346296033759
 31
0.0
  0
LINE
  5
1231
102
{ACAD_REACTORS
330
1627
102
}
330
1E
100
AcDbEntity
  8
STEMPEL
100
AcDbLine
 10
337.8919757877626
 20
335.4346296033759
 30
0.0
 11
337.3919757877625
 21
335.4346296033759
 31
0.0
  0
LINE
  5
1232
102
{ACAD_REACTORS
330
1627
102
}
330
1E
100
AcDbEntity
  8
STEMPEL
100
AcDbLine
 10
337.8919757877626
 20
338.4346296033759
 30
0.0
 11
337.3919757877625
 21
338.4346296033759
 31
0.0
  0
LINE
  5
1233
102
{ACAD_REACTORS
330
1627
102
}
330
1E
100
AcDbEntity
  8
STEMPEL
100
AcDbLine
 10
337.8919757877626
 20
338.4346296033759
 30
0.0
 11
337.8919757877626
 21
335.4346296033759
 31
0.0
  0
LINE
  5
1234
102
{ACAD_REACTORS
330
1627
102
}
330
1E
100
AcDbEntity
  8
STEMPEL
100
AcDbLine
 10
337.8919757877626
 20
353.4346296033759
 30
0.0
 11
337.3919757877625
 21
353.4346296033759
 31
0.0
  0
LINE
  5
1235
102
{ACAD_REACTORS
330
1627
102
}
330
1E
100
AcDbEntity
  8
STEMPEL
100
AcDbLine
 10
337.8919757877626
 20
350.4346296033759
 30
0.0
 11
337.3919757877625
 21
350.4346296033759
 31
0.0
  0
LINE
  5
1236
102
{ACAD_REACTORS
330
1627
102
}
330
1E
100
AcDbEntity
  8
STEMPEL
100
AcDbLine
 10
337.8919757877626
 20
353.4346296033759
 30
0.0
 11
337.8919757877626
 21
350.4346296033759
 31
0.0
  0
LINE
  5
1237
102
{ACAD_REACTORS
330
1627
102
}
330
1E
100
AcDbEntity
  8
STEMPEL
100
AcDbLine
 10
337.8919757877626
 20
368.4346296033759
 30
0.0
 11
337.3919757877625
 21
368.4346296033759
 31
0.0
  0
LINE
  5
1238
102
{ACAD_REACTORS
330
1627
102
}
330
1E
100
AcDbEntity
  8
STEMPEL
100
AcDbLine
 10
337.8919757877626
 20
365.4346296033759
 30
0.0
 11
337.3919757877625
 21
365.4346296033759
 31
0.0
  0
LINE
  5
1239
102
{ACAD_REACTORS
330
1627
102
}
330
1E
100
AcDbEntity
  8
STEMPEL
100
AcDbLine
 10
337.8919757877626
 20
368.4346296033759
 30
0.0
 11
337.8919757877626
 21
365.4346296033759
 31
0.0
  0
LINE
  5
123A
102
{ACAD_REACTORS
330
1627
102
}
330
1E
100
AcDbEntity
  8
STEMPEL
100
AcDbLine
 10
410.3919757877624
 20
335.4346296033759
 30
0.0
 11
410.3919757877624
 21
323.4346296033759
 31
0.0
  0
LINE
  5
123B
102
{ACAD_REACTORS
330
1627
102
}
330
1E
100
AcDbEntity
  8
STEMPEL
100
AcDbLine
 10
410.3919757877624
 20
320.4346296033758
 30
0.0
 11
410.3919757877624
 21
308.2950820945262
 31
0.0
  0
LINE
  5
1241
102
{ACAD_REACTORS
330
1627
102
}
330
1E
100
AcDbEntity
  8
STEMPEL
100
AcDbLine
 10
409.8919757877625
 20
323.4346296033758
 30
0.0
 11
409.8919757877625
 21
320.4346296033758
 31
0.0
  0
LINE
  5
1242
102
{ACAD_REACTORS
330
1627
102
}
330
1E
100
AcDbEntity
  8
STEMPEL
100
AcDbLine
 10
409.8919757877625
 20
320.4346296033758
 30
0.0
 11
410.3919757877624
 21
320.4346296033758
 31
0.0
  0
LINE
  5
1243
102
{ACAD_REACTORS
330
1627
102
}
330
1E
100
AcDbEntity
  8
STEMPEL
100
AcDbLine
 10
409.8919757877625
 20
323.4346296033759
 30
0.0
 11
410.3919757877624
 21
323.4346296033759
 31
0.0
  0
LINE
  5
1244
102
{ACAD_REACTORS
330
1627
102
}
330
1E
100
AcDbEntity
  8
STEMPEL
100
AcDbLine
 10
410.3919757877624
 20
365.4346296033759
 30
0.0
 11
410.3919757877624
 21
353.4346296033759
 31
0.0
  0
LINE
  5
1245
102
{ACAD_REACTORS
330
1627
102
}
330
1E
100
AcDbEntity
  8
STEMPEL
100
AcDbLine
 10
410.3919757877624
 20
350.4346296033759
 30
0.0
 11
410.3919757877624
 21
338.4346296033759
 31
0.0
  0
LINE
  5
1246
102
{ACAD_REACTORS
330
1627
102
}
330
1E
100
AcDbEntity
  8
STEMPEL
100
AcDbLine
 10
409.8919757877625
 20
338.4346296033759
 30
0.0
 11
409.8919757877625
 21
335.4346296033759
 31
0.0
  0
LINE
  5
1247
102
{ACAD_REACTORS
330
1627
102
}
330
1E
100
AcDbEntity
  8
STEMPEL
100
AcDbLine
 10
409.8919757877625
 20
338.4346296033759
 30
0.0
 11
410.3919757877624
 21
338.4346296033759
 31
0.0
  0
LINE
  5
1248
102
{ACAD_REACTORS
330
1627
102
}
330
1E
100
AcDbEntity
  8
STEMPEL
100
AcDbLine
 10
409.8919757877625
 20
335.4346296033759
 30
0.0
 11
410.3919757877624
 21
335.4346296033759
 31
0.0
  0
LINE
  5
1249
102
{ACAD_REACTORS
330
1627
102
}
330
1E
100
AcDbEntity
  8
STEMPEL
100
AcDbLine
 10
409.8919757877625
 20
353.4346296033759
 30
0.0
 11
410.3919757877624
 21
353.4346296033759
 31
0.0
  0
LINE
  5
124A
102
{ACAD_REACTORS
330
1627
102
}
330
1E
100
AcDbEntity
  8
STEMPEL
100
AcDbLine
 10
409.8919757877625
 20
350.4346296033759
 30
0.0
 11
410.3919757877624
 21
350.4346296033759
 31
0.0
  0
LINE
  5
124B
102
{ACAD_REACTORS
330
1627
102
}
330
1E
100
AcDbEntity
  8
STEMPEL
100
AcDbLine
 10
409.8919757877625
 20
353.4346296033759
 30
0.0
 11
409.8919757877625
 21
350.4346296033759
 31
0.0
  0
LINE
  5
124C
102
{ACAD_REACTORS
330
1627
102
}
330
1E
100
AcDbEntity
  8
STEMPEL
100
AcDbLine
 10
409.8919757877625
 20
368.4346296033759
 30
0.0
 11
409.8919757877625
 21
365.4346296033759
 31
0.0
  0
LINE
  5
124D
102
{ACAD_REACTORS
330
1627
102
}
330
1E
100
AcDbEntity
  8
STEMPEL
100
AcDbLine
 10
409.8919757877625
 20
365.4346296033759
 30
0.0
 11
410.3919757877624
 21
365.4346296033759
 31
0.0
  0
LINE
  5
124E
102
{ACAD_REACTORS
330
1627
102
}
330
1E
100
AcDbEntity
  8
STEMPEL
100
AcDbLine
 10
409.8919757877625
 20
368.4346296033759
 30
0.0
 11
410.3919757877624
 21
368.4346296033759
 31
0.0
  0
LINE
  5
124F
330
1E
100
AcDbEntity
  8
STEMPEL
100
AcDbLine
 10
341.8919757877625
 20
425.4346296033757
 30
0.0
 11
405.8919757877625
 21
425.4346296033757
 31
0.0
  0
LINE
  5
1250
102
{ACAD_REACTORS
330
1627
102
}
330
1E
100
AcDbEntity
  8
STEMPEL
100
AcDbLine
 10
337.3919757877626
 20
410.4346296033758
 30
0.0
 11
337.3919757877626
 21
398.4346296033758
 31
0.0
  0
LINE
  5
1251
102
{ACAD_REACTORS
330
1627
102
}
330
1E
100
AcDbEntity
  8
STEMPEL
100
AcDbLine
 10
337.3919757877626
 20
395.4346296033759
 30
0.0
 11
337.3919757877626
 21
383.4346296033759
 31
0.0
  0
LINE
  5
1252
102
{ACAD_REACTORS
330
1627
102
}
330
1E
100
AcDbEntity
  8
STEMPEL
100
AcDbLine
 10
337.8919757877626
 20
383.4346296033759
 30
0.0
 11
337.3919757877625
 21
383.4346296033759
 31
0.0
  0
LINE
  5
1253
102
{ACAD_REACTORS
330
1627
102
}
330
1E
100
AcDbEntity
  8
STEMPEL
100
AcDbLine
 10
337.8919757877626
 20
380.4346296033759
 30
0.0
 11
337.3919757877625
 21
380.4346296033759
 31
0.0
  0
LINE
  5
1254
102
{ACAD_REACTORS
330
1627
102
}
330
1E
100
AcDbEntity
  8
STEMPEL
100
AcDbLine
 10
337.8919757877626
 20
383.4346296033759
 30
0.0
 11
337.8919757877626
 21
380.4346296033759
 31
0.0
  0
LINE
  5
1255
102
{ACAD_REACTORS
330
1627
102
}
330
1E
100
AcDbEntity
  8
STEMPEL
100
AcDbLine
 10
337.8919757877626
 20
398.4346296033759
 30
0.0
 11
337.3919757877625
 21
398.4346296033759
 31
0.0
  0
LINE
  5
1256
102
{ACAD_REACTORS
330
1627
102
}
330
1E
100
AcDbEntity
  8
STEMPEL
100
AcDbLine
 10
337.8919757877626
 20
395.4346296033759
 30
0.0
 11
337.3919757877625
 21
395.4346296033759
 31
0.0
  0
LINE
  5
1257
102
{ACAD_REACTORS
330
1627
102
}
330
1E
100
AcDbEntity
  8
STEMPEL
100
AcDbLine
 10
337.8919757877626
 20
395.4346296033759
 30
0.0
 11
337.8919757877626
 21
398.4346296033759
 31
0.0
  0
LINE
  5
1258
102
{ACAD_REACTORS
330
1627
102
}
330
1E
100
AcDbEntity
  8
STEMPEL
100
AcDbLine
 10
337.3919757877626
 20
425.4346296033758
 30
0.0
 11
337.3919757877626
 21
413.4346296033759
 31
0.0
  0
LINE
  5
1259
102
{ACAD_REACTORS
330
1627
102
}
330
1E
100
AcDbEntity
  8
STEMPEL
100
AcDbLine
 10
337.8919757877626
 20
410.4346296033758
 30
0.0
 11
337.3919757877625
 21
410.4346296033758
 31
0.0
  0
LINE
  5
125A
102
{ACAD_REACTORS
330
1627
102
}
330
1E
100
AcDbEntity
  8
STEMPEL
100
AcDbLine
 10
337.8919757877626
 20
413.4346296033759
 30
0.0
 11
337.3919757877625
 21
413.4346296033759
 31
0.0
  0
LINE
  5
125B
102
{ACAD_REACTORS
330
1627
102
}
330
1E
100
AcDbEntity
  8
STEMPEL
100
AcDbLine
 10
337.8919757877626
 20
413.4346296033759
 30
0.0
 11
337.8919757877626
 21
410.4346296033758
 31
0.0
  0
LINE
  5
125C
330
1E
100
AcDbEntity
  8
STEMPEL
100
AcDbLine
 10
368.4066944135238
 20
437.4346296033756
 30
0.0
 11
369.9066944135239
 21
437.4346296033756
 31
0.0
  0
ARC
  5
125D
330
1E
100
AcDbEntity
  8
STEMPEL
100
AcDbCircle
 10
372.4066944135238
 20
437.4346296033756
 30
0.0
 40
4.0
100
AcDbArc
 50
90.0
 51
180.0
  0
LINE
  5
125E
330
1E
100
AcDbEntity
  8
BEM
 62
     1
100
AcDbLine
 10
360.9407481845624
 20
458.6664352127967
 30
0.0
 11
367.9407481845624
 21
458.6664352127968
 31
0.0
  0
LINE
  5
125F
330
1E
100
AcDbEntity
  8
BEM
 62
     1
100
AcDbLine
 10
360.9407481845624
 20
465.6664352127968
 30
0.0
 11
367.9407481845624
 21
465.6664352127968
 31
0.0
  0
ARC
  5
1260
330
1E
100
AcDbEntity
  8
STEMPEL
100
AcDbCircle
 10
340.1934909779275
 20
437.4346296033756
 30
0.0
 40
4.0
100
AcDbArc
 50
0.0
 51
90.0
  0
ARC
  5
1261
330
1E
100
AcDbEntity
  8
STEMPEL
100
AcDbCircle
 10
340.1934909779275
 20
437.4346296033756
 30
0.0
 40
2.5
100
AcDbArc
 50
0.0
 51
90.0
  0
LINE
  5
1262
330
1E
100
AcDbEntity
  8
STEMPEL
100
AcDbLine
 10
343.1419757877625
 20
435.4346296033757
 30
0.0
 11
343.1419757877625
 21
437.4346296033757
 31
0.0
  0
LINE
  5
1263
330
1E
100
AcDbEntity
  8
MITTEL
100
AcDbLine
 10
338.8919757877625
 20
430.4346296033757
 30
0.0
 11
338.8919757877625
 21
444.9346296033758
 31
0.0
  0
LINE
  5
1264
330
1E
100
AcDbEntity
  8
STEMPEL
100
AcDbLine
 10
342.6934909779275
 20
437.4346296033756
 30
0.0
 11
344.1934909779275
 21
437.4346296033756
 31
0.0
  0
ARC
  5
1265
330
1E
100
AcDbEntity
  8
STEMPEL
100
AcDbCircle
 10
356.6787723521661
 20
437.4346296033756
 30
0.0
 40
4.0
100
AcDbArc
 50
90.0
 51
180.0
  0
ARC
  5
1266
330
1E
100
AcDbEntity
  8
STEMPEL
100
AcDbCircle
 10
356.6787723521661
 20
437.4346296033756
 30
0.0
 40
2.5
100
AcDbArc
 50
90.0
 51
180.0
  0
ARC
  5
1267
330
1E
100
AcDbEntity
  8
STEMPEL
100
AcDbCircle
 10
357.1640537264047
 20
437.4346296033756
 30
0.0
 40
4.0
100
AcDbArc
 50
0.0
 51
90.0
  0
ARC
  5
1268
330
1E
100
AcDbEntity
  8
STEMPEL
100
AcDbCircle
 10
357.1640537264047
 20
437.4346296033757
 30
0.0
 40
2.5
100
AcDbArc
 50
0.0
 51
90.0
  0
LINE
  5
1269
330
1E
100
AcDbEntity
  8
STEMPEL
100
AcDbLine
 10
359.6640537264047
 20
437.4346296033756
 30
0.0
 11
361.1640537264047
 21
437.4346296033756
 31
0.0
  0
LINE
  5
126A
330
1E
100
AcDbEntity
  8
STEMPEL
100
AcDbLine
 10
352.6787723521661
 20
437.4346296033756
 30
0.0
 11
354.1787723521661
 21
437.4346296033756
 31
0.0
  0
LINE
  5
126B
330
1E
100
AcDbEntity
  8
STEMPEL
100
AcDbLine
 10
356.6787723521661
 20
439.9346296033757
 30
0.0
 11
357.1640537264047
 21
439.9346296033757
 31
0.0
  0
LINE
  5
126C
330
1E
100
AcDbEntity
  8
BEM
 62
     1
100
AcDbLine
 10
360.9407481845624
 20
465.6664352127968
 30
0.0
 11
360.9407481845624
 21
458.6664352127967
 31
0.0
  0
ARC
  5
126D
330
1E
100
AcDbEntity
  8
STEMPEL
100
AcDbCircle
 10
375.3772571620009
 20
437.4346296033757
 30
0.0
 40
2.5
100
AcDbArc
 50
0.0
 51
90.0
  0
ARC
  5
126E
330
1E
100
AcDbEntity
  8
STEMPEL
100
AcDbCircle
 10
372.4066944135238
 20
437.4346296033757
 30
0.0
 40
2.5
100
AcDbArc
 50
90.0
 51
180.0
  0
ARC
  5
126F
330
1E
100
AcDbEntity
  8
STEMPEL
100
AcDbCircle
 10
375.3772571620011
 20
437.4346296033756
 30
0.0
 40
4.0
100
AcDbArc
 50
0.0
 51
90.0
  0
LINE
  5
1270
330
1E
100
AcDbEntity
  8
STEMPEL
100
AcDbLine
 10
377.8772571620009
 20
437.4346296033756
 30
0.0
 11
379.3772571620011
 21
437.4346296033756
 31
0.0
  0
LINE
  5
1271
330
1E
100
AcDbEntity
  8
STEMPEL
100
AcDbLine
 10
372.4066944135238
 20
439.9346296033757
 30
0.0
 11
375.3772571620009
 21
439.9346296033757
 31
0.0
  0
ARC
  5
1272
330
1E
100
AcDbEntity
  8
STEMPEL
100
AcDbCircle
 10
390.6198978491204
 20
437.4346296033757
 30
0.0
 40
4.0
100
AcDbArc
 50
90.0
 51
180.0
  0
ARC
  5
1273
330
1E
100
AcDbEntity
  8
STEMPEL
100
AcDbCircle
 10
390.6198978491204
 20
437.4346296033756
 30
0.0
 40
2.5
100
AcDbArc
 50
90.0
 51
180.0
  0
ARC
  5
1274
330
1E
100
AcDbEntity
  8
STEMPEL
100
AcDbCircle
 10
391.1051792233591
 20
437.4346296033757
 30
0.0
 40
2.5
100
AcDbArc
 50
0.0
 51
90.0
  0
ARC
  5
1275
330
1E
100
AcDbEntity
  8
STEMPEL
100
AcDbCircle
 10
391.1051792233591
 20
437.4346296033757
 30
0.0
 40
4.0
100
AcDbArc
 50
0.0
 51
90.0
  0
LINE
  5
1276
330
1E
100
AcDbEntity
  8
STEMPEL
100
AcDbLine
 10
393.6051792233591
 20
437.4346296033756
 30
0.0
 11
395.1051792233591
 21
437.4346296033756
 31
0.0
  0
LINE
  5
1277
330
1E
100
AcDbEntity
  8
STEMPEL
100
AcDbLine
 10
386.6198978491204
 20
437.4346296033756
 30
0.0
 11
388.1198978491204
 21
437.4346296033756
 31
0.0
  0
LINE
  5
1278
330
1E
100
AcDbEntity
  8
STEMPEL
100
AcDbLine
 10
390.6198978491204
 20
439.9346296033756
 30
0.0
 11
391.1051792233591
 21
439.9346296033757
 31
0.0
  0
LINE
  5
1279
330
1E
100
AcDbEntity
  8
BEM
 62
     1
100
AcDbLine
 10
367.9407481845624
 20
465.6664352127968
 30
0.0
 11
367.9407481845624
 21
458.6664352127968
 31
0.0
  0
LINE
  5
127A
102
{ACAD_REACTORS
330
1627
102
}
330
1E
100
AcDbEntity
  8
STEMPEL
100
AcDbLine
 10
410.3919757877624
 20
425.4346296033758
 30
0.0
 11
417.3919757877623
 21
432.4346296033757
 31
0.0
  0
LINE
  5
127B
102
{ACAD_REACTORS
330
1627
102
}
330
1E
100
AcDbEntity
  8
STEMPEL
100
AcDbLine
 10
415.8919757877624
 20
435.4346296033758
 30
0.0
 11
405.8919757877625
 21
425.4346296033757
 31
0.0
  0
LINE
  5
127C
102
{ACAD_REACTORS
330
1627
102
}
330
1E
100
AcDbEntity
  8
STEMPEL
100
AcDbLine
 10
410.3919757877624
 20
410.4346296033758
 30
0.0
 11
410.3919757877624
 21
398.4346296033758
 31
0.0
  0
LINE
  5
127D
102
{ACAD_REACTORS
330
1627
102
}
330
1E
100
AcDbEntity
  8
STEMPEL
100
AcDbLine
 10
410.3919757877624
 20
395.4346296033759
 30
0.0
 11
410.3919757877624
 21
383.4346296033759
 31
0.0
  0
LINE
  5
127E
102
{ACAD_REACTORS
330
1627
102
}
330
1E
100
AcDbEntity
  8
STEMPEL
100
AcDbLine
 10
409.8919757877625
 20
383.4346296033759
 30
0.0
 11
409.8919757877625
 21
380.4346296033759
 31
0.0
  0
LINE
  5
127F
102
{ACAD_REACTORS
330
1627
102
}
330
1E
100
AcDbEntity
  8
STEMPEL
100
AcDbLine
 10
409.8919757877625
 20
380.4346296033759
 30
0.0
 11
410.3919757877624
 21
380.4346296033759
 31
0.0
  0
LINE
  5
1280
102
{ACAD_REACTORS
330
1627
102
}
330
1E
100
AcDbEntity
  8
STEMPEL
100
AcDbLine
 10
409.8919757877625
 20
383.4346296033759
 30
0.0
 11
410.3919757877624
 21
383.4346296033759
 31
0.0
  0
LINE
  5
1281
102
{ACAD_REACTORS
330
1627
102
}
330
1E
100
AcDbEntity
  8
STEMPEL
100
AcDbLine
 10
409.8919757877625
 20
395.4346296033759
 30
0.0
 11
409.8919757877625
 21
398.4346296033759
 31
0.0
  0
LINE
  5
1282
102
{ACAD_REACTORS
330
1627
102
}
330
1E
100
AcDbEntity
  8
STEMPEL
100
AcDbLine
 10
409.8919757877625
 20
395.4346296033759
 30
0.0
 11
410.3919757877624
 21
395.4346296033759
 31
0.0
  0
LINE
  5
1283
102
{ACAD_REACTORS
330
1627
102
}
330
1E
100
AcDbEntity
  8
STEMPEL
100
AcDbLine
 10
409.8919757877625
 20
398.4346296033759
 30
0.0
 11
410.3919757877624
 21
398.4346296033759
 31
0.0
  0
LINE
  5
1284
102
{ACAD_REACTORS
330
1627
102
}
330
1E
100
AcDbEntity
  8
STEMPEL
100
AcDbLine
 10
410.3919757877624
 20
425.4346296033758
 30
0.0
 11
410.3919757877624
 21
413.4346296033759
 31
0.0
  0
LINE
  5
1285
102
{ACAD_REACTORS
330
1627
102
}
330
1E
100
AcDbEntity
  8
STEMPEL
100
AcDbLine
 10
409.8919757877625
 20
413.4346296033759
 30
0.0
 11
409.8919757877625
 21
410.4346296033758
 31
0.0
  0
LINE
  5
1286
102
{ACAD_REACTORS
330
1627
102
}
330
1E
100
AcDbEntity
  8
STEMPEL
100
AcDbLine
 10
409.8919757877625
 20
413.4346296033759
 30
0.0
 11
410.3919757877624
 21
413.4346296033759
 31
0.0
  0
LINE
  5
1287
102
{ACAD_REACTORS
330
1627
102
}
330
1E
100
AcDbEntity
  8
STEMPEL
100
AcDbLine
 10
409.8919757877625
 20
410.4346296033758
 30
0.0
 11
410.3919757877624
 21
410.4346296033758
 31
0.0
  0
ARC
  5
1288
330
1E
100
AcDbEntity
  8
STEMPEL
100
AcDbCircle
 10
416.8919757877624
 20
437.4346296033756
 30
0.0
 40
2.500000000000002
100
AcDbArc
 50
0.0
 51
90.0
  0
ARC
  5
1289
330
1E
100
AcDbEntity
  8
STEMPEL
100
AcDbCircle
 10
416.8919757877624
 20
437.4346296033756
 30
0.0
 40
2.5
100
AcDbArc
 50
0.0
 51
90.0
  0
ARC
  5
128A
330
1E
100
AcDbEntity
  8
STEMPEL
100
AcDbCircle
 10
416.8919757877624
 20
437.4346296033757
 30
0.0
 40
4.0
100
AcDbArc
 50
0.0
 51
90.0
  0
ARC
  5
128B
330
1E
100
AcDbEntity
  8
STEMPEL
100
AcDbCircle
 10
416.8919757877624
 20
437.4346296033757
 30
0.0
 40
4.0
100
AcDbArc
 50
0.0
 51
90.0
  0
ARC
  5
128C
330
1E
100
AcDbEntity
  8
STEMPEL
100
AcDbCircle
 10
416.8919757877624
 20
437.4346296033756
 30
0.0
 40
2.5
100
AcDbArc
 50
0.0
 51
90.0
  0
ARC
  5
128D
330
1E
100
AcDbEntity
  8
STEMPEL
100
AcDbCircle
 10
416.8919757877624
 20
437.4346296033757
 30
0.0
 40
4.0
100
AcDbArc
 50
0.0
 51
90.0
  0
LINE
  5
128E
102
{ACAD_REACTORS
330
1627
102
}
330
1E
100
AcDbEntity
  8
STEMPEL
100
AcDbLine
 10
417.3919757877623
 20
432.4346296033757
 30
0.0
 11
424.3919757877624
 21
432.4346296033757
 31
0.0
  0
LINE
  5
128F
330
1E
100
AcDbEntity
  8
STEMPEL
100
AcDbLine
 10
412.9385198088698
 20
437.4346296033756
 30
0.0
 11
412.9385198088698
 21
439.9346296033757
 31
0.0
  0
ARC
  5
1290
330
1E
100
AcDbEntity
  8
STEMPEL
100
AcDbCircle
 10
407.5904605975974
 20
437.4346296033756
 30
0.0
 40
2.5
100
AcDbArc
 50
90.0
 51
180.0
  0
ARC
  5
1291
330
1E
100
AcDbEntity
  8
STEMPEL
100
AcDbCircle
 10
407.5904605975974
 20
437.4346296033756
 30
0.0
 40
2.5
100
AcDbArc
 50
90.0
 51
180.0
  0
ARC
  5
1292
330
1E
100
AcDbEntity
  8
STEMPEL
100
AcDbCircle
 10
407.5904605975972
 20
437.4346296033756
 30
0.0
 40
4.000000000000002
100
AcDbArc
 50
90.0
 51
180.0
  0
ARC
  5
1293
330
1E
100
AcDbEntity
  8
STEMPEL
100
AcDbCircle
 10
407.5904605975972
 20
437.4346296033756
 30
0.0
 40
4.0
100
AcDbArc
 50
90.0
 51
180.0
  0
ARC
  5
1294
330
1E
100
AcDbEntity
  8
STEMPEL
100
AcDbCircle
 10
407.5904605975973
 20
437.4346296033756
 30
0.0
 40
4.0
100
AcDbArc
 50
90.0
 51
180.0
  0
ARC
  5
1295
330
1E
100
AcDbEntity
  8
STEMPEL
100
AcDbCircle
 10
407.5904605975974
 20
437.4346296033756
 30
0.0
 40
2.500000000000028
100
AcDbArc
 50
90.0
 51
180.0
  0
LINE
  5
1296
330
1E
100
AcDbEntity
  8
STEMPEL
100
AcDbLine
 10
405.0904605975975
 20
437.4346296033756
 30
0.0
 11
412.9385198088698
 21
437.4346296033756
 31
0.0
  0
LINE
  5
1297
330
1E
100
AcDbEntity
  8
STEMPEL
100
AcDbLine
 10
403.5904605975972
 20
437.4346296033756
 30
0.0
 11
405.0904605975975
 21
437.4346296033756
 31
0.0
  0
LINE
  5
1298
330
1E
100
AcDbEntity
  8
STEMPEL
100
AcDbLine
 10
403.5904605975972
 20
437.4346296033756
 30
0.0
 11
405.0904605975975
 21
437.4346296033756
 31
0.0
  0
LINE
  5
1299
330
1E
100
AcDbEntity
  8
STEMPEL
100
AcDbLine
 10
403.5904605975972
 20
437.4346296033756
 30
0.0
 11
405.0904605975975
 21
437.4346296033756
 31
0.0
  0
LINE
  5
129A
330
1E
100
AcDbEntity
  8
STEMPEL
100
AcDbLine
 10
407.5904605975974
 20
439.9346296033757
 30
0.0
 11
416.8919757877624
 21
439.9346296033757
 31
0.0
  0
LINE
  5
129B
330
1E
100
AcDbEntity
  8
STEMPEL
100
AcDbLine
 10
407.5904605975974
 20
439.9346296033757
 30
0.0
 11
416.8919757877624
 21
439.9346296033757
 31
0.0
  0
LINE
  5
129C
330
1E
100
AcDbEntity
  8
STEMPEL
100
AcDbLine
 10
407.5904605975974
 20
439.9346296033757
 30
0.0
 11
416.8919757877624
 21
439.9346296033757
 31
0.0
  0
LINE
  5
129D
102
{ACAD_REACTORS
330
1627
102
}
330
1E
100
AcDbEntity
  8
STEMPEL
100
AcDbLine
 10
421.3919757877624
 20
441.4346296033758
 30
0.0
 11
421.3919757877624
 21
435.4346296033757
 31
0.0
  0
LINE
  5
129E
102
{ACAD_REACTORS
330
1627
102
}
330
1E
100
AcDbEntity
  8
STEMPEL
100
AcDbLine
 10
424.3919757877624
 20
441.4346296033758
 30
0.0
 11
424.3919757877624
 21
432.4346296033757
 31
0.0
  0
LINE
  5
129F
330
1E
100
AcDbEntity
  8
STEMPEL
100
AcDbLine
 10
420.8919757877624
 20
435.4346296033757
 30
0.0
 11
420.8919757877624
 21
437.4346296033757
 31
0.0
  0
LINE
  5
12A0
330
1E
100
AcDbEntity
  8
STEMPEL
100
AcDbLine
 10
420.8919757877624
 20
435.4346296033757
 30
0.0
 11
420.8919757877624
 21
437.4346296033757
 31
0.0
  0
LINE
  5
12A1
330
1E
100
AcDbEntity
  8
STEMPEL
100
AcDbLine
 10
420.8919757877624
 20
435.4346296033757
 30
0.0
 11
420.8919757877624
 21
437.4346296033757
 31
0.0
  0
LINE
  5
12A2
330
1E
100
AcDbEntity
  8
STEMPEL
100
AcDbLine
 10
419.3919757877624
 20
435.4346296033757
 30
0.0
 11
419.3919757877624
 21
437.4346296033756
 31
0.0
  0
LINE
  5
12A3
330
1E
100
AcDbEntity
  8
STEMPEL
100
AcDbLine
 10
419.3919757877624
 20
437.4346296033756
 30
0.0
 11
419.3919757877624
 21
435.4346296033756
 31
0.0
  0
LINE
  5
12A4
330
1E
100
AcDbEntity
  8
STEMPEL
100
AcDbLine
 10
419.3919757877624
 20
437.4346296033756
 30
0.0
 11
419.3919757877624
 21
435.4346296033756
 31
0.0
  0
LINE
  5
12A5
330
1E
100
AcDbEntity
  8
STEMPEL
100
AcDbLine
 10
419.3919757877624
 20
435.4346296033757
 30
0.0
 11
420.8919757877624
 21
435.4346296033756
 31
0.0
  0
LINE
  5
12A6
330
1E
100
AcDbEntity
  8
STEMPEL
100
AcDbLine
 10
419.3919757877624
 20
435.4346296033756
 30
0.0
 11
420.8919757877624
 21
435.4346296033757
 31
0.0
  0
LINE
  5
12A7
330
1E
100
AcDbEntity
  8
STEMPEL
100
AcDbLine
 10
419.3919757877624
 20
435.4346296033756
 30
0.0
 11
420.8919757877624
 21
435.4346296033757
 31
0.0
  0
LINE
  5
12A8
330
1E
100
AcDbEntity
  8
STEMPEL
100
AcDbLine
 10
420.5919757877624
 20
438.9544980187327
 30
0.0
 11
420.5919757877625
 21
441.4346296033758
 31
0.0
  0
LINE
  5
1315
330
1E
100
AcDbEntity
  8
STEMPEL
100
AcDbLine
 10
410.3919757877624
 20
341.3346296033758
 30
0.0
 11
412.2890373031905
 21
341.3346296033757
 31
0.0
  0
LINE
  5
1316
330
1E
100
AcDbEntity
  8
STEMPEL
100
AcDbLine
 10
337.3919757877625
 20
341.4346296033758
 30
0.0
 11
315.8919757877625
 21
341.4346296033758
 31
0.0
  0
LINE
  5
1317
330
1E
100
AcDbEntity
  8
STEMPEL
100
AcDbLine
 10
337.3919757877625
 20
341.4346296033758
 30
0.0
 11
225.5903203696246
 21
341.4346296033759
 31
0.0
  0
LINE
  5
1318
330
1E
100
AcDbEntity
  8
STEMPEL
100
AcDbLine
 10
337.3919757877625
 20
312.378899379397
 30
0.0
 11
324.8919757877625
 21
312.378899379397
 31
0.0
  0
LINE
  5
1319
330
1E
100
AcDbEntity
  8
STEMPEL
100
AcDbLine
 10
337.3919757877625
 20
314.3051107923681
 30
0.0
 11
324.8919757877625
 21
314.305110792368
 31
0.0
  0
LINE
  5
131A
330
1E
100
AcDbEntity
  8
STEMPEL
100
AcDbLine
 10
337.3919757877625
 20
314.3051107923681
 30
0.0
 11
324.8919757877626
 21
314.3051107923681
 31
0.0
  0
LINE
  5
131B
330
1E
100
AcDbEntity
  8
STEMPEL
100
AcDbLine
 10
337.3919757877625
 20
315.3051107923681
 30
0.0
 11
327.3257687066253
 21
315.3051107923681
 31
0.0
  0
LINE
  5
131C
330
1E
100
AcDbEntity
  8
STEMPEL
100
AcDbLine
 10
337.3919757877625
 20
315.4346296033757
 30
0.0
 11
327.6419757877625
 21
315.4346296033757
 31
0.0
  0
LINE
  5
131D
330
1E
100
AcDbEntity
  8
STEMPEL
100
AcDbLine
 10
410.3919757877624
 20
316.699097005946
 30
0.0
 11
411.2417335218209
 21
316.6990970059459
 31
0.0
  0
LINE
  5
1347
330
1E
100
AcDbEntity
  8
TEXT
 62
     2
100
AcDbLine
 10
455.2019188602802
 20
482.9521665323019
 30
0.0
 11
448.788685295432
 21
473.5699784467027
 31
0.0
  0
LINE
  5
1348
330
1E
100
AcDbEntity
  8
TEXT
 62
     2
100
AcDbLine
 10
444.7398004132726
 20
467.6466951111991
 30
0.0
 11
423.9842639008665
 21
437.2825511255086
 31
0.0
  0
DIMENSION
  5
154E
330
1E
100
AcDbEntity
  8
BEM
100
AcDbDimension
  2
*D9
 10
663.2348333862198
 20
260.4346296033759
 30
0.0
 11
656.7348333862197
 21
300.4346296033759
 31
0.0
 70
    32
 71
     5
 42
79.99999999999983
  3
Standard
100
AcDbAlignedDimension
 13
543.8919757877624
 23
340.4346296033758
 33
0.0
 14
643.4498777061405
 24
260.4346296033759
 34
0.0
 50
90.0
100
AcDbRotatedDimension
1001
ACAD
1000
DSTYLE
1002
{
1070
    40
1040
2.0
1070
    41
1040
3.5
1070
    42
1040
1.0
1070
    43
1040
7.0
1070
    44
1040
1.0
1070
    73
1070
     0
1070
    74
1070
     0
1070
    77
1070
     1
1070
    78
1070
     8
1070
    79
1070
     2
1070
   140
1040
3.5
1070
   141
1040
1.5
1070
   146
1040
0.5
1070
   147
1040
1.5
1070
   172
1070
     1
1070
   178
1070
     1
1070
   179
1070
     2
1070
   271
1070
     2
1070
   272
1070
     2
1070
   284
1070
     8
1070
   285
1070
     8
1070
   286
1070
     8
1002
}
  0
DIMENSION
  5
154F
330
1E
100
AcDbEntity
  8
BEM
100
AcDbDimension
  2
*D10
 10
641.5228275567974
 20
222.9605451863681
 30
0.0
 11
636.9419979837601
 21
259.7507069204891
 31
0.0
 70
    33
  1
%%c<>
 71
     5
 42
73.00000000000006
  3
Standard
100
AcDbAlignedDimension
 13
619.8104609821026
 23
297.1986233593755
 33
0.0
 14
615.9899361763676
 24
224.2986673222916
 34
0.0
1001
ACAD
1000
DSTYLE
1002
{
1070
    40
1040
2.0
1070
    41
1040
3.5
1070
    42
1040
1.0
1070
    43
1040
7.0
1070
    44
1040
1.0
1070
    73
1070
     0
1070
    74
1070
     0
1070
    77
1070
     1
1070
    78
1070
     8
1070
    79
1070
     2
1070
   140
1040
3.5
1070
   141
1040
1.5
1070
   146
1040
0.5
1070
   147
1040
1.5
1070
   172
1070
     1
1070
   178
1070
     1
1070
   179
1070
     2
1070
   271
1070
     2
1070
   272
1070
     2
1070
   284
1070
     8
1070
   285
1070
     8
1070
   286
1070
     8
1002
}
  0
DIMENSION
  5
1550
330
1E
100
AcDbEntity
  8
BEM
100
AcDbDimension
  2
*D11
 10
623.8919757877625
 20
199.630290362265
 30
0.0
 11
498.8919757877624
 21
206.130290362265
 31
0.0
 70
    32
 71
     5
 42
250.0000000000002
  3
Standard
100
AcDbAlignedDimension
 13
373.8919757877624
 23
229.4346296033758
 33
0.0
 14
623.8919757877625
 24
260.4346296033759
 34
0.0
100
AcDbRotatedDimension
1001
ACAD
1000
DSTYLE
1002
{
1070
    40
1040
2.0
1070
    41
1040
3.5
1070
    42
1040
1.0
1070
    43
1040
7.0
1070
    44
1040
1.0
1070
    73
1070
     0
1070
    74
1070
     0
1070
    77
1070
     1
1070
    78
1070
     8
1070
    79
1070
     2
1070
   140
1040
3.5
1070
   141
1040
1.5
1070
   146
1040
0.5
1070
   147
1040
1.5
1070
   172
1070
     1
1070
   178
1070
     1
1070
   179
1070
     2
1070
   271
1070
     2
1070
   272
1070
     2
1070
   284
1070
     8
1070
   285
1070
     8
1070
   286
1070
     8
1002
}
  0
INSERT
  5
1551
330
1E
100
AcDbEntity
  8
SCHRAFF
100
AcDbBlockReference
  2
*X8
 10
108.2614491472409
 20
-154.3281002245909
 30
0.0
1001
ACAD
1000
HATCH
1002
{
1070
    16
1000
_U,I
1040
2.0
1040
2.356194490192344
1070
     0
1002
}
  0
LINE
  5
1552
330
1E
100
AcDbEntity
  8
STEMPEL
100
AcDbLine
 10
619.7267234521139
 20
295.6008161037682
 30
0.0
 11
625.6910278434451
 21
294.7625877861913
 31
0.0
  0
LINE
  5
1553
330
1E
100
AcDbEntity
  8
STEMPEL
100
AcDbLine
 10
619.8104609821026
 20
297.1986233593755
 30
0.0
 11
625.7747653734338
 21
296.3603950417986
 31
0.0
  0
LINE
  5
1554
330
1E
100
AcDbEntity
  8
STEMPEL
100
AcDbLine
 10
619.7267234521139
 20
295.6008161037682
 30
0.0
 11
407.0186325493897
 21
306.7483747835153
 31
0.0
  0
LINE
  5
1555
330
1E
100
AcDbEntity
  8
STEMPEL
100
AcDbLine
 10
619.8104609821026
 20
297.1986233593755
 30
0.0
 11
407.1023700793784
 21
308.3461820391226
 31
0.0
  0
LINE
  5
1556
330
1E
100
AcDbEntity
  8
STEMPEL
100
AcDbLine
 10
615.9899361763676
 20
224.2986673222916
 30
0.0
 11
622.0091862020913
 21
224.5088641649531
 31
0.0
  0
LINE
  5
1557
330
1E
100
AcDbEntity
  8
STEMPEL
100
AcDbLine
 10
616.0736737063562
 20
225.8964745778989
 30
0.0
 11
622.0929237320799
 21
226.1066714205604
 31
0.0
  0
LINE
  5
1558
330
1E
100
AcDbEntity
  8
STEMPEL
100
AcDbLine
 10
615.9899361763676
 20
224.2986673222916
 30
0.0
 11
568.8919757877625
 21
226.766966835019
 31
0.0
  0
LINE
  5
1559
330
1E
100
AcDbEntity
  8
STEMPEL
100
AcDbLine
 10
616.0736737063562
 20
225.8964745778989
 30
0.0
 11
403.365582803632
 21
237.044033257646
 31
0.0
  0
LINE
  5
155A
330
1E
100
AcDbEntity
  8
MITTEL
100
AcDbLine
 10
629.5763883018756
 20
260.1367221669824
 30
0.0
 11
373.8919757877625
 21
273.5365744241362
 31
0.0
  0
LINE
  5
155B
330
1E
100
AcDbEntity
  8
STEMPEL
100
AcDbLine
 10
625.7747653734338
 20
296.3603950417986
 30
0.0
 11
622.0091862020913
 21
224.5088641649531
 31
0.0
  0
LINE
  5
155C
330
1E
100
AcDbEntity
  8
HILF
100
AcDbLine
 10
619.6832394084363
 20
294.7710911226215
 30
0.0
 11
616.1085469703187
 21
226.5618960943146
 31
0.0
  0
TEXT
  5
155D
330
1E
100
AcDbEntity
  8
TEXT
 62
     1
100
AcDbText
 10
517.5621089855913
 20
276.978930868882
 30
0.0
 40
7.0
  1
DN70
 50
357.0000000000009
 41
0.8
  7
GREEKS
100
AcDbText
  0
LINE
  5
155E
330
1E
100
AcDbEntity
  8
STEMPEL
100
AcDbLine
 10
568.8919757877625
 20
226.766966835019
 30
0.0
 11
403.2818452736433
 21
235.4462260020387
 31
0.0
  0
HATCH
  5
155F
330
1E
100
AcDbEntity
  8
SCHRAFF
100
AcDbHatch
 10
0.0
 20
0.0
 30
0.0
210
0.0
220
0.0
230
1.0
  2
_USER
 70
     0
 71
     1
 91
        1
 92
        7
 72
     1
 73
     1
 93
        4
 10
397.3175408823122
 20
236.2844543196155
 42
0.0
 10
397.3307574979251
 20
236.5366423686759
 42
-0.0414867685975289
 10
394.0010636419975
 20
235.272098037024
 42
0.3696817945015159
 10
399.9733564851659
 20
235.9112037779748
 42
0.0
 97
        4
330
156F
330
1568
330
1569
330
156D
 75
     0
 76
     0
 52
0.0
 41
0.1
 77
     0
 78
     1
 53
0.0
 43
20.1294135448702
 44
-42.59686680221989
 45
0.0
 46
0.1
 79
     0
 47
0.1886513960111014
 98
        1
 10
397.5492740711727
 20
235.9592115293112
  0
INSERT
  5
1560
330
1E
100
AcDbEntity
  8
SCHRAFF
100
AcDbBlockReference
  2
*X7
 10
108.2614491472409
 20
-154.3281002245909
 30
0.0
1001
ACAD
1000
HATCH
1002
{
1070
    16
1000
_U,I
1040
2.0
1040
0.7853981633974483
1070
     0
1002
}
  0
ARC
  5
1561
330
1E
100
AcDbEntity
  8
SCHRAFF
100
AcDbCircle
 10
423.7132475895458
 20
306.1168477553048
 30
0.0
 40
3.936642311443149
100
AcDbArc
 50
17.16305418078655
 51
64.75837320879818
  0
LINE
  5
1562
330
1E
100
AcDbEntity
  8
STEMPEL
100
AcDbLine
 10
423.8919757877625
 20
307.4662760889083
 30
0.0
 11
423.8919757877625
 21
313.186929118342
 31
0.0
  0
LINE
  5
1563
330
1E
100
AcDbEntity
  8
STEMPEL
100
AcDbLine
 10
425.3919757877625
 20
307.3876644199837
 30
0.0
 11
425.3919757877625
 21
313.186929118342
 31
0.0
  0
INSERT
  5
1564
330
1E
100
AcDbEntity
  8
SCHRAFF
100
AcDbBlockReference
  2
*X6
 10
34.29023834341365
 20
-59.53543376602699
 30
0.0
1001
ACAD
1000
HATCH
1002
{
1070
    16
1000
_U,I
1040
0.1
1040
2.356194490192344
1070
     0
1002
}
  0
LINE
  5
1565
330
1E
100
AcDbEntity
  8
STEMPEL
100
AcDbLine
 10
407.0186325493897
 20
306.7483747835149
 30
0.0
 11
400.9827233070102
 21
306.2203011507353
 31
0.0
  0
LINE
  5
1566
330
1E
100
AcDbEntity
  8
STEMPEL
100
AcDbLine
 10
407.1023700793784
 20
308.3461820391226
 30
0.0
 11
401.0664608369989
 21
307.818108406343
 31
0.0
  0
ARC
  5
1567
330
1E
100
AcDbEntity
  8
STEMPEL
100
AcDbCircle
 10
388.0588595669502
 20
255.9346296033758
 30
0.0
 40
20.0
100
AcDbArc
 50
270.0
 51
297.9119474377829
  0
ARC
  5
1568
102
{ACAD_REACTORS
330
155F
102
}
330
1E
100
AcDbEntity
  8
STEMPEL
100
AcDbCircle
 10
388.0588595669502
 20
255.9346296033758
 30
0.0
 40
21.5
100
AcDbArc
 50
270.0
 51
295.5469821985793
  0
ARC
  5
1569
102
{ACAD_REACTORS
330
155F
102
}
330
1E
100
AcDbEntity
  8
SCHRAFF
100
AcDbCircle
 10
396.6140766011961
 20
239.0784953593068
 30
0.0
 40
4.616979239721739
100
AcDbArc
 50
235.5312078222866
 51
316.6849502481245
  0
LINE
  5
156A
330
1E
100
AcDbEntity
  8
STEMPEL
100
AcDbLine
 10
395.7122091935613
 20
235.8429338189765
 30
0.0
 11
390.6774409785742
 21
236.1067948403289
 31
0.0
  0
LINE
  5
156B
330
1E
100
AcDbEntity
  8
STEMPEL
100
AcDbLine
 10
388.0588595669502
 20
234.4346296033759
 30
0.0
 11
359.7250920085749
 21
234.4346296033759
 31
0.0
  0
LINE
  5
156C
330
1E
100
AcDbEntity
  8
STEMPEL
100
AcDbLine
 10
388.0588595669502
 20
235.9346296033759
 30
0.0
 11
359.7250920085749
 21
235.9346296033759
 31
0.0
  0
LINE
  5
156D
102
{ACAD_REACTORS
330
155F
102
}
330
1E
100
AcDbEntity
  8
STEMPEL
100
AcDbLine
 10
403.2818452736433
 20
235.4462260020387
 30
0.0
 11
397.3175408823122
 21
236.2844543196155
 31
0.0
  0
LINE
  5
156E
330
1E
100
AcDbEntity
  8
STEMPEL
100
AcDbLine
 10
403.365582803632
 20
237.044033257646
 30
0.0
 11
397.4012784123008
 21
237.8822615752227
 31
0.0
  0
LINE
  5
156F
102
{ACAD_REACTORS
330
155F
102
}
330
1E
100
AcDbEntity
  8
STEMPEL
100
AcDbLine
 10
401.0664608369989
 20
307.818108406343
 30
0.0
 11
397.3175408823122
 21
236.2844543196155
 31
0.0
  0
LINE
  5
1570
330
1E
100
AcDbEntity
  8
HILF
100
AcDbLine
 10
406.9746235450917
 20
305.9086329570153
 30
0.0
 11
403.4040407174842
 21
237.7778539685843
 31
0.0
  0
DIMENSION
  5
1571
330
1E
100
AcDbEntity
  8
BEM
100
AcDbDimension
  2
*D12
 10
247.0632819242007
 20
234.4346296033759
 30
0.0
 11
240.5632819242007
 21
287.4346296033759
 31
0.0
 70
    32
 71
     5
 42
106.0
  3
Standard
100
AcDbAlignedDimension
 13
266.397750009546
 23
340.4346296033759
 33
0.0
 14
359.7250920085749
 24
234.4346296033759
 34
0.0
 50
90.0
100
AcDbRotatedDimension
1001
ACAD
1000
DSTYLE
1002
{
1070
    40
1040
2.0
1070
    41
1040
3.5
1070
    42
1040
1.0
1070
    43
1040
7.0
1070
    44
1040
1.0
1070
    73
1070
     0
1070
    74
1070
     0
1070
    77
1070
     1
1070
    78
1070
     8
1070
    79
1070
     2
1070
   140
1040
3.5
1070
   141
1040
1.5
1070
   146
1040
0.5
1070
   147
1040
1.5
1070
   172
1070
     1
1070
   178
1070
     1
1070
   179
1070
     2
1070
   271
1070
     2
1070
   272
1070
     2
1070
   284
1070
     8
1070
   285
1070
     8
1070
   286
1070
     8
1002
}
  0
LINE
  5
1572
330
1E
100
AcDbEntity
  8
STEMPEL
100
AcDbLine
 10
322.3919757877625
 20
282.378899379397
 30
0.0
 11
322.3919757877625
 21
313.186929118342
 31
0.0
  0
LINE
  5
1573
330
1E
100
AcDbEntity
  8
STEMPEL
100
AcDbLine
 10
323.8919757877626
 20
282.378899379397
 30
0.0
 11
323.8919757877626
 21
313.1869291183419
 31
0.0
  0
ARC
  5
1574
330
1E
100
AcDbEntity
  8
STEMPEL
100
AcDbCircle
 10
359.7250920085749
 20
255.9346296033758
 30
0.0
 40
20.0
100
AcDbArc
 50
241.8208868511799
 51
270.0
  0
ARC
  5
1575
330
1E
100
AcDbEntity
  8
STEMPEL
100
AcDbCircle
 10
359.7250920085749
 20
255.9346296033758
 30
0.0
 40
21.5
100
AcDbArc
 50
241.8208868511799
 51
270.0
  0
ARC
  5
1576
330
1E
100
AcDbEntity
  8
STEMPEL
100
AcDbCircle
 10
373.8919757877625
 20
282.378899379397
 30
0.0
 40
51.5
100
AcDbArc
 50
180.0
 51
241.8208868511799
  0
ARC
  5
1577
330
1E
100
AcDbEntity
  8
STEMPEL
100
AcDbCircle
 10
373.8919757877625
 20
282.378899379397
 30
0.0
 40
50.0
100
AcDbArc
 50
180.0
 51
241.8208868511799
  0
LINE
  5
1578
330
1E
100
AcDbEntity
  8
TEXT
 62
     2
100
AcDbLine
 10
353.1516938921768
 20
235.3791648402346
 30
0.0
 11
312.9810913572956
 21
184.9306268053392
 31
0.0
  0
HATCH
  5
1627
330
1E
100
AcDbEntity
  8
SCHRAFF
100
AcDbHatch
 10
0.0
 20
0.0
 30
0.0
210
0.0
220
0.0
230
1.0
  2
NET
 70
     0
 71
     1
 91
        2
 92
        7
 72
     0
 73
     1
 93
       38
 10
410.3919757877624
 20
365.4346296033759
 10
409.8919757877625
 20
365.4346296033759
 10
409.8919757877625
 20
368.4346296033759
 10
410.3919757877624
 20
368.4346296033758
 10
410.3919757877624
 20
380.4346296033759
 10
409.8919757877625
 20
380.434629603376
 10
409.8919757877624
 20
383.4346296033758
 10
410.3919757877624
 20
383.4346296033759
 10
410.3919757877624
 20
395.4346296033759
 10
409.8919757877625
 20
395.4346296033758
 10
409.8919757877625
 20
398.4346296033759
 10
410.3919757877624
 20
398.4346296033758
 10
410.3919757877624
 20
410.4346296033758
 10
409.8919757877625
 20
410.4346296033758
 10
409.8919757877625
 20
413.434629603376
 10
410.3919757877624
 20
413.4346296033759
 10
410.3919757877624
 20
425.4346296033758
 10
417.3919757877623
 20
432.4346296033756
 10
424.3919757877625
 20
432.4346296033758
 10
424.3919757877624
 20
441.4346296033757
 10
421.3919757877624
 20
441.4346296033757
 10
421.3919757877623
 20
435.4346296033756
 10
415.8919757877624
 20
435.4346296033757
 10
405.8919757877624
 20
425.4346296033756
 10
408.0774151069574
 20
308.2950820945262
 10
410.3919757877624
 20
308.2950820945262
 10
410.3919757877624
 20
320.4346296033758
 10
409.8919757877625
 20
320.4346296033758
 10
409.8919757877625
 20
323.4346296033759
 10
410.3919757877624
 20
323.4346296033759
 10
410.3919757877624
 20
335.4346296033759
 10
409.8919757877625
 20
335.4346296033759
 10
409.8919757877625
 20
338.4346296033758
 10
410.3919757877624
 20
338.4346296033759
 10
410.3919757877624
 20
350.4346296033758
 10
409.8919757877625
 20
350.4346296033758
 10
409.8919757877625
 20
353.4346296033759
 10
410.3919757877624
 20
353.4346296033759
 97
       38
330
124D
330
124C
330
124E
330
1220
330
127F
330
127E
330
1280
330
127D
330
1282
330
1281
330
1283
330
127C
330
1287
330
1285
330
1286
330
1284
330
127A
330
128E
330
129E
330
1210
330
129D
330
1211
330
127B
330
1223
330
1224
330
123B
330
1242
330
1241
330
1243
330
123A
330
1248
330
1246
330
1247
330
1245
330
124A
330
124B
330
1249
330
1244
 92
        7
 72
     0
 73
     1
 93
       38
 10
337.3919757877626
 20
398.4346296033759
 10
337.8919757877626
 20
398.4346296033758
 10
337.8919757877626
 20
395.4346296033759
 10
337.3919757877626
 20
395.4346296033759
 10
337.3919757877626
 20
383.4346296033759
 10
337.8919757877626
 20
383.4346296033758
 10
337.8919757877626
 20
380.4346296033759
 10
337.3919757877626
 20
380.4346296033758
 10
337.3919757877625
 20
368.4346296033758
 10
337.8919757877626
 20
368.4346296033759
 10
337.8919757877626
 20
365.4346296033759
 10
337.3919757877626
 20
365.4346296033759
 10
337.3919757877626
 20
353.4346296033759
 10
337.8919757877626
 20
353.4346296033758
 10
337.8919757877626
 20
350.4346296033759
 10
337.3919757877625
 20
350.4346296033759
 10
337.3919757877624
 20
338.4346296033759
 10
337.8919757877626
 20
338.4346296033759
 10
337.8919757877626
 20
335.4346296033759
 10
337.3919757877625
 20
335.4346296033759
 10
337.3919757877625
 20
323.4346296033759
 10
337.8919757877626
 20
323.4346296033759
 10
337.8919757877626
 20
320.4346296033758
 10
337.3919757877625
 20
320.4346296033758
 10
337.3919757877624
 20
308.295082094526
 10
339.7065364685674
 20
308.295082094526
 10
341.8919757877625
 20
425.4346296033757
 10
331.8919757877623
 20
435.4346296033758
 10
326.3919757877626
 20
435.4346296033758
 10
326.3919757877626
 20
441.4346296033759
 10
323.3919757877625
 20
441.4346296033758
 10
323.3919757877625
 20
432.4346296033756
 10
330.3919757877626
 20
432.4346296033757
 10
337.3919757877626
 20
425.4346296033757
 10
337.3919757877626
 20
413.4346296033759
 10
337.8919757877626
 20
413.4346296033759
 10
337.8919757877626
 20
410.4346296033758
 10
337.3919757877626
 20
410.4346296033758
 97
       38
330
120F
330
1211
330
1219
330
1210
330
121A
330
121B
330
120E
330
1258
330
125A
330
125B
330
1259
330
1250
330
1255
330
1257
330
1256
330
1251
330
1252
330
1254
330
1253
330
1221
330
1237
330
1239
330
1238
330
122F
330
1234
330
1236
330
1235
330
1230
330
1232
330
1233
330
1231
330
1225
330
122E
330
122C
330
122D
330
1226
330
1224
330
1222
 75
     0
 76
     1
 52
45.0
 41
15.0
 77
     0
 78
     2
 53
45.0
 43
0.0
 44
0.0
 45
-1.325825214724776
 46
1.325825214724776
 79
     0
 53
135.0
 43
0.0
 44
0.0
 45
-1.325825214724776
 46
-1.325825214724776
 79
     0
 47
0.293455478127283
 98
        2
 10
408.9410289366797
 20
364.0406073434192
 10
338.7555645055227
 20
406.298196590462
  0
ENDSEC
  0
SECTION
  2
OBJECTS
  0
DICTIONARY
  5
C
330
0
100
AcDbDictionary
281
     1
  3
ACAD_COLOR
350
11A
  3
ACAD_GROUP
350
D
  3
ACAD_LAYOUT
350
19
  3
ACAD_MATERIAL
350
119
  3
ACAD_MLINESTYLE
350
16
  3
ACAD_PLOTSETTINGS
350
18
  3
ACAD_PLOTSTYLENAME
350
E
  3
AcDbVariableDictionary
350
125
  0
DICTIONARY
  5
DB
330
1E
100
AcDbDictionary
280
     1
281
     1
  3
ACAD_LAYOUTSELFREF
360
10F
  0
DICTIONARY
  5
DD
330
1A
100
AcDbDictionary
280
     1
281
     1
  3
ACAD_LAYOUTSELFREF
360
10E
  0
DICTIONARY
  5
11A
102
{ACAD_REACTORS
330
C
102
}
330
C
100
AcDbDictionary
281
     1
  0
DICTIONARY
  5
D
102
{ACAD_REACTORS
330
C
102
}
330
C
100
AcDbDictionary
281
     1
  0
DICTIONARY
  5
19
102
{ACAD_REACTORS
330
C
102
}
330
C
100
AcDbDictionary
281
     1
  3
Layout1
350
1D
  3
Model
350
21
  0
DICTIONARY
  5
119
102
{ACAD_REACTORS
330
C
102
}
330
C
100
AcDbDictionary
281
     1
  0
DICTIONARY
  5
16
102
{ACAD_REACTORS
330
C
102
}
330
C
100
AcDbDictionary
281
     1
  3
Standard
350
17
  0
DICTIONARY
  5
18
102
{ACAD_REACTORS
330
C
102
}
330
C
100
AcDbDictionary
281
     1
  0
ACDBDICTIONARYWDFLT
  5
E
102
{ACAD_REACTORS
330
C
102
}
330
C
100
AcDbDictionary
281
     1
  3
Normal
350
F
100
AcDbDictionaryWithDefault
340
F
  0
DICTIONARY
  5
125
102
{ACAD_REACTORS
330
C
102
}
330
C
100
AcDbDictionary
281
     1
  3
DIMASSOC
350
126
  3
PROJECTNAME
350
127
  0
XRECORD
  5
10F
102
{ACAD_REACTORS
330
DB
102
}
330
DB
100
AcDbXrecord
280
     1
340
1E
  0
XRECORD
  5
10E
102
{ACAD_REACTORS
330
DD
102
}
330
DD
100
AcDbXrecord
280
     1
340
1A
  0
LAYOUT
  5
1D
102
{ACAD_REACTORS
330
19
102
}
330
19
100
AcDbPlotSettings
  1

  2
\\NT_WORK01\HP LaserJet 5000 PCL 6
  4

  6

 40
0.0
 41
0.0
 42
0.0
 43
0.0
 44
0.0
 45
0.0
 46
0.0
 47
0.0
 48
0.0
 49
0.0
140
0.0
141
0.0
142
1.0
143
1.0
 70
   688
 72
     0
 73
     0
 74
     5
  7

 75
    16
147
1.0
 76
     0
 77
     2
 78
   300
148
0.0
149
0.0
100
AcDbLayout
  1
Layout1
 70
     0
 71
     1
 10
0.0
 20
0.0
 11
12.0
 21
9.0
 12
0.0
 22
0.0
 32
0.0
 14
1.000000000000000E+20
 24
1.000000000000000E+20
 34
1.000000000000000E+20
 15
-1.000000000000000E+20
 25
-1.000000000000000E+20
 35
-1.000000000000000E+20
146
0.0
 13
0.0
 23
0.0
 33
0.0
 16
1.0
 26
0.0
 36
0.0
 17
0.0
 27
1.0
 37
0.0
 76
     0
330
1A
  0
LAYOUT
  5
21
102
{ACAD_REACTORS
330
19
102
}
330
19
100
AcDbPlotSettings
  1

  2
none_device
  4
Letter_(8.50_x_11.00_Inches)
  6

 40
6.349999904632568
 41
6.349999904632568
 42
6.350006103515625
 43
6.350006103515625
 44
215.8999938964844
 45
279.3999938964844
 46
0.0
 47
0.0
 48
0.0
 49
0.0
140
0.0
141
0.0
142
1.0
143
1.0
 70
 11952
 72
     0
 73
     1
 74
     0
  7

 75
     0
147
1.0
 76
     0
 77
     2
 78
   300
148
-3074.351585014408
149
49.84841498558999
100
AcDbLayout
  1
Model
 70
     1
 71
     0
 10
0.0
 20
0.0
 11
12.0
 21
9.0
 12
0.0
 22
0.0
 32
0.0
 14
0.0
 24
0.0
 34
0.0
 15
0.0
 25
0.0
 35
0.0
146
0.0
 13
0.0
 23
0.0
 33
0.0
 16
1.0
 26
0.0
 36
0.0
 17
0.0
 27
1.0
 37
0.0
 76
     0
330
1E
  0
MLINESTYLE
  5
17
102
{ACAD_REACTORS
330
16
102
}
330
16
100
AcDbMlineStyle
  2
STANDARD
 70
     0
  3

 62
   256
 51
90.0
 52
90.0
 71
     2
 49
0.5
 62
   256
  6
BYLAYER
 49
-0.5
 62
   256
  6
BYLAYER
  0
ACDBPLACEHOLDER
  5
F
102
{ACAD_REACTORS
330
E
102
}
330
E
  0
DICTIONARYVAR
  5
126
102
{ACAD_REACTORS
330
125
102
}
330
125
100
DictionaryVariables
280
     0
  1
1
  0
DICTIONARYVAR
  5
127
102
{ACAD_REACTORS
330
125
102
}
330
125
100
DictionaryVariables
280
     0
  1

  0
ENDSEC
  0
EOF
