  0
SECTION
  2
HEADER
  9
$ACADVER
  1
AC1018
  9
$ACADMAINTVER
 70
     2
  9
$DWGCODEPAGE
  3
ANSI_1252
  9
$INSBASE
 10
0.0
 20
0.0
 30
0.0
  9
$EXTMIN
 10
-0.038441977687171
 20
-0.0271839699360044
 30
-0.0000000000000058
  9
$EXTMAX
 10
840.038457624743
 20
594.0271950346393
 30
0.0000000000000104
  9
$LIMMIN
 10
0.0
 20
0.0
  9
$LIMMAX
 10
840.0
 20
594.0
  9
$ORTHOMODE
 70
     1
  9
$REGENMODE
 70
     1
  9
$FILLMODE
 70
     1
  9
$QTEXTMODE
 70
     0
  9
$MIRRTEXT
 70
     1
  9
$LTSCALE
 40
20.0
  9
$ATTMODE
 70
     1
  9
$TEXTSIZE
 40
3.5
  9
$TRACEWID
 40
1.0
  9
$TEXTSTYLE
  7
STANDARD
  9
$CLAYER
  8
VOLL
  9
$CELTYPE
  6
ByLayer
  9
$CECOLOR
 62
   256
  9
$CELTSCALE
 40
1.0
  9
$DISPSILH
 70
     0
  9
$DIMSCALE
 40
2.0
  9
$DIMASZ
 40
3.5
  9
$DIMEXO
 40
1.0
  9
$DIMDLI
 40
7.0
  9
$DIMRND
 40
0.0
  9
$DIMDLE
 40
0.0
  9
$DIMEXE
 40
1.0
  9
$DIMTP
 40
0.0
  9
$DIMTM
 40
0.0
  9
$DIMTXT
 40
3.5
  9
$DIMCEN
 40
1.5
  9
$DIMTSZ
 40
0.0
  9
$DIMTOL
 70
     0
  9
$DIMLIM
 70
     0
  9
$DIMTIH
 70
     0
  9
$DIMTOH
 70
     0
  9
$DIMSE1
 70
     0
  9
$DIMSE2
 70
     0
  9
$DIMTAD
 70
     1
  9
$DIMZIN
 70
     8
  9
$DIMBLK
  1

  9
$DIMASO
 70
     1
  9
$DIMSHO
 70
     0
  9
$DIMPOST
  1

  9
$DIMAPOST
  1

  9
$DIMALT
 70
     0
  9
$DIMALTD
 70
     2
  9
$DIMALTF
 40
25.4
  9
$DIMLFAC
 40
1.0
  9
$DIMTOFL
 70
     1
  9
$DIMTVP
 40
0.0
  9
$DIMTIX
 70
     0
  9
$DIMSOXD
 70
     0
  9
$DIMSAH
 70
     0
  9
$DIMBLK1
  1

  9
$DIMBLK2
  1

  9
$DIMSTYLE
  2
Standard
  9
$DIMCLRD
 70
     0
  9
$DIMCLRE
 70
     0
  9
$DIMCLRT
 70
     1
  9
$DIMTFAC
 40
0.5
  9
$DIMGAP
 40
1.5
  9
$DIMJUST
 70
     0
  9
$DIMSD1
 70
     0
  9
$DIMSD2
 70
     0
  9
$DIMTOLJ
 70
     1
  9
$DIMTZIN
 70
     8
  9
$DIMALTZ
 70
     8
  9
$DIMALTTZ
 70
     8
  9
$DIMUPT
 70
     0
  9
$DIMDEC
 70
     2
  9
$DIMTDEC
 70
     2
  9
$DIMALTU
 70
     2
  9
$DIMALTTD
 70
     2
  9
$DIMTXSTY
  7
STANDARD
  9
$DIMAUNIT
 70
     0
  9
$DIMADEC
 70
     2
  9
$DIMALTRND
 40
0.0
  9
$DIMAZIN
 70
     2
  9
$DIMDSEP
 70
    46
  9
$DIMATFIT
 70
     3
  9
$DIMFRAC
 70
     0
  9
$DIMLDRBLK
  1

  9
$DIMLUNIT
 70
     2
  9
$DIMLWD
 70
    -2
  9
$DIMLWE
 70
    -2
  9
$DIMTMOVE
 70
     0
  9
$LUNITS
 70
     2
  9
$LUPREC
 70
     2
  9
$SKETCHINC
 40
1.0
  9
$FILLETRAD
 40
4.0
  9
$AUNITS
 70
     0
  9
$AUPREC
 70
     0
  9
$MENU
  1
ACAD
  9
$ELEVATION
 40
0.0
  9
$PELEVATION
 40
0.0
  9
$THICKNESS
 40
0.0
  9
$LIMCHECK
 70
     0
  9
$CHAMFERA
 40
0.0
  9
$CHAMFERB
 40
0.0
  9
$CHAMFERC
 40
0.0
  9
$CHAMFERD
 40
0.0
  9
$SKPOLY
 70
     0
  9
$TDCREATE
 40
2455397.867059838
  9
$TDUCREATE
 40
2455397.783726505
  9
$TDUPDATE
 40
2456157.303896111
  9
$TDUUPDATE
 40
2456157.220562778
  9
$TDINDWG
 40
0.1699803125
  9
$TDUSRTIMER
 40
0.1699803125
  9
$USRTIMER
 70
     1
  9
$ANGBASE
 50
0.0
  9
$ANGDIR
 70
     0
  9
$PDMODE
 70
     0
  9
$PDSIZE
 40
0.0
  9
$PLINEWID
 40
0.0
  9
$SPLFRAME
 70
     0
  9
$SPLINETYPE
 70
     6
  9
$SPLINESEGS
 70
     8
  9
$HANDSEED
  5
13D8
  9
$SURFTAB1
 70
     6
  9
$SURFTAB2
 70
     6
  9
$SURFTYPE
 70
     6
  9
$SURFU
 70
     6
  9
$SURFV
 70
     6
  9
$UCSBASE
  2

  9
$UCSNAME
  2

  9
$UCSORG
 10
0.0
 20
0.0
 30
0.0
  9
$UCSXDIR
 10
1.0
 20
0.0
 30
0.0
  9
$UCSYDIR
 10
0.0
 20
1.0
 30
0.0
  9
$UCSORTHOREF
  2

  9
$UCSORTHOVIEW
 70
     0
  9
$UCSORGTOP
 10
0.0
 20
0.0
 30
0.0
  9
$UCSORGBOTTOM
 10
0.0
 20
0.0
 30
0.0
  9
$UCSORGLEFT
 10
0.0
 20
0.0
 30
0.0
  9
$UCSORGRIGHT
 10
0.0
 20
0.0
 30
0.0
  9
$UCSORGFRONT
 10
0.0
 20
0.0
 30
0.0
  9
$UCSORGBACK
 10
0.0
 20
0.0
 30
0.0
  9
$PUCSBASE
  2

  9
$PUCSNAME
  2

  9
$PUCSORG
 10
0.0
 20
0.0
 30
0.0
  9
$PUCSXDIR
 10
1.0
 20
0.0
 30
0.0
  9
$PUCSYDIR
 10
0.0
 20
1.0
 30
0.0
  9
$PUCSORTHOREF
  2

  9
$PUCSORTHOVIEW
 70
     0
  9
$PUCSORGTOP
 10
0.0
 20
0.0
 30
0.0
  9
$PUCSORGBOTTOM
 10
0.0
 20
0.0
 30
0.0
  9
$PUCSORGLEFT
 10
0.0
 20
0.0
 30
0.0
  9
$PUCSORGRIGHT
 10
0.0
 20
0.0
 30
0.0
  9
$PUCSORGFRONT
 10
0.0
 20
0.0
 30
0.0
  9
$PUCSORGBACK
 10
0.0
 20
0.0
 30
0.0
  9
$USERI1
 70
     0
  9
$USERI2
 70
     0
  9
$USERI3
 70
     0
  9
$USERI4
 70
     0
  9
$USERI5
 70
     0
  9
$USERR1
 40
0.0
  9
$USERR2
 40
0.0
  9
$USERR3
 40
0.0
  9
$USERR4
 40
0.0
  9
$USERR5
 40
0.0
  9
$WORLDVIEW
 70
     1
  9
$SHADEDGE
 70
     3
  9
$SHADEDIF
 70
    70
  9
$TILEMODE
 70
     1
  9
$MAXACTVP
 70
    16
  9
$PINSBASE
 10
0.0
 20
0.0
 30
0.0
  9
$PLIMCHECK
 70
     0
  9
$PEXTMIN
 10
1.000000000000000E+20
 20
1.000000000000000E+20
 30
1.000000000000000E+20
  9
$PEXTMAX
 10
-1.000000000000000E+20
 20
-1.000000000000000E+20
 30
-1.000000000000000E+20
  9
$PLIMMIN
 10
0.0
 20
0.0
  9
$PLIMMAX
 10
12.0
 20
9.0
  9
$UNITMODE
 70
     0
  9
$VISRETAIN
 70
     0
  9
$PLINEGEN
 70
     0
  9
$PSLTSCALE
 70
     0
  9
$TREEDEPTH
 70
  3020
  9
$CMLSTYLE
  2
Standard
  9
$CMLJUST
 70
     0
  9
$CMLSCALE
 40
1.0
  9
$PROXYGRAPHICS
 70
     1
  9
$MEASUREMENT
 70
     0
  9
$CELWEIGHT
370
    -1
  9
$ENDCAPS
280
     0
  9
$JOINSTYLE
280
     0
  9
$LWDISPLAY
290
     0
  9
$INSUNITS
 70
     0
  9
$HYPERLINKBASE
  1

  9
$STYLESHEET
  1
monochrome 1.ctb
  9
$XEDIT
290
     1
  9
$CEPSNTYPE
380
     0
  9
$PSTYLEMODE
290
     1
  9
$FINGERPRINTGUID
  2
{D68B0D0D-A558-11D7-B632-000102183313}
  9
$VERSIONGUID
  2
{032FC2EC-B4F1-4145-BB69-513ED351D3E7}
  9
$EXTNAMES
290
     1
  9
$PSVPSCALE
 40
0.0
  9
$OLESTARTUP
290
     0
  9
$SORTENTS
280
   127
  9
$INDEXCTL
280
     0
  9
$HIDETEXT
280
     0
  9
$XCLIPFRAME
290
     0
  9
$HALOGAP
280
     0
  9
$OBSCOLOR
 70
   257
  9
$OBSLTYPE
280
     0
  9
$INTERSECTIONDISPLAY
280
     0
  9
$INTERSECTIONCOLOR
 70
   257
  9
$DIMASSOC
280
     1
  9
$PROJECTNAME
  1

  0
ENDSEC
  0
SECTION
  2
CLASSES
  0
CLASS
  1
ACDBDICTIONARYWDFLT
  2
AcDbDictionaryWithDefault
  3
ObjectDBX Classes
 90
        0
 91
        1
280
     0
281
     0
  0
CLASS
  1
DICTIONARYVAR
  2
AcDbDictionaryVar
  3
ObjectDBX Classes
 90
        0
 91
        2
280
     0
281
     0
  0
ENDSEC
  0
SECTION
  2
TABLES
  0
TABLE
  2
VPORT
  5
8
330
0
100
AcDbSymbolTable
 70
     3
  0
VPORT
  5
13D7
330
8
100
AcDbSymbolTableRecord
100
AcDbViewportTableRecord
  2
*Active
 70
     0
 10
0.0
 20
0.0
 11
1.0
 21
1.0
 12
419.9999999999999
 22
297.0
 13
0.0
 23
0.0
 14
1.0
 24
1.0
 15
10.0
 25
10.0
 16
0.0
 26
0.0
 36
1.0
 17
0.0
 27
0.0
 37
0.0
 40
597.9250720461094
 41
1.404858299595141
 42
50.0
 43
0.0
 44
0.0
 50
0.0
 51
0.0
 71
     0
 72
  1500
 73
     1
 74
     0
 75
     0
 76
     0
 77
     0
 78
     0
281
     0
 65
     1
110
0.0
120
0.0
130
0.0
111
1.0
121
0.0
131
0.0
112
0.0
122
1.0
132
0.0
 79
     0
146
0.0
  0
ENDTAB
  0
TABLE
  2
LTYPE
  5
5
330
0
100
AcDbSymbolTable
 70
     2
  0
LTYPE
  5
13
330
5
100
AcDbSymbolTableRecord
100
AcDbLinetypeTableRecord
  2
ByBlock
 70
     0
  3

 72
    65
 73
     0
 40
0.0
  0
LTYPE
  5
14
330
5
100
AcDbSymbolTableRecord
100
AcDbLinetypeTableRecord
  2
ByLayer
 70
     0
  3

 72
    65
 73
     0
 40
0.0
  0
LTYPE
  5
15
330
5
100
AcDbSymbolTableRecord
100
AcDbLinetypeTableRecord
  2
Continuous
 70
     0
  3
Solid line
 72
    65
 73
     0
 40
0.0
  0
LTYPE
  5
25
330
5
100
AcDbSymbolTableRecord
100
AcDbLinetypeTableRecord
  2
STRICHPUNKT
 70
     0
  3
__ . __ . __ . __ . __ . __ . __ . __ . __ . __
 72
    65
 73
     4
 40
1.0
 49
0.5
 74
     0
 49
-0.25
 74
     0
 49
0.0
 74
     0
 49
-0.25
 74
     0
  0
ENDTAB
  0
TABLE
  2
LAYER
  5
2
330
0
100
AcDbSymbolTable
 70
     9
  0
LAYER
  5
10
330
2
100
AcDbSymbolTableRecord
100
AcDbLayerTableRecord
  2
0
 70
     0
 62
     7
  6
Continuous
370
    -3
390
F
  0
LAYER
  5
2B
330
2
100
AcDbSymbolTableRecord
100
AcDbLayerTableRecord
  2
VOLL
 70
     0
 62
     1
  6
Continuous
370
    -3
390
F
  0
LAYER
  5
2C
330
2
100
AcDbSymbolTableRecord
100
AcDbLayerTableRecord
  2
HILF
 70
     0
 62
     2
  6
Continuous
370
    -3
390
F
  0
LAYER
  5
2D
330
2
100
AcDbSymbolTableRecord
100
AcDbLayerTableRecord
  2
MITTEL
 70
     0
 62
     2
  6
STRICHPUNKT
370
    -3
390
F
  0
LAYER
  5
2F
330
2
100
AcDbSymbolTableRecord
100
AcDbLayerTableRecord
  2
BEM
 70
     0
 62
     7
  6
Continuous
370
    -3
390
F
  0
LAYER
  5
30
330
2
100
AcDbSymbolTableRecord
100
AcDbLayerTableRecord
  2
STEMPEL
 70
     0
 62
     3
  6
Continuous
370
    -3
390
F
  0
LAYER
  5
33
330
2
100
AcDbSymbolTableRecord
100
AcDbLayerTableRecord
  2
TEXT
 70
     0
 62
     7
  6
Continuous
370
    -3
390
F
  0
LAYER
  5
3FF
330
2
100
AcDbSymbolTableRecord
100
AcDbLayerTableRecord
  2
DEFPOINTS
 70
     0
 62
     7
  6
Continuous
290
     0
370
    -3
390
F
  0
LAYER
  5
400
330
2
100
AcDbSymbolTableRecord
100
AcDbLayerTableRecord
  2
SCHRAFF
 70
     0
 62
     7
  6
Continuous
370
    -3
390
F
  0
ENDTAB
  0
TABLE
  2
STYLE
  5
3
330
0
100
AcDbSymbolTable
 70
     2
  0
STYLE
  5
11
330
3
100
AcDbSymbolTableRecord
100
AcDbTextStyleTableRecord
  2
STANDARD
 70
     0
 40
0.0
 41
0.8
 50
0.0
 71
     0
 42
3.5
  3
simplex.shx
  4

  0
STYLE
  5
24
330
3
100
AcDbSymbolTableRecord
100
AcDbTextStyleTableRecord
  2
GREEKS
 70
     0
 40
0.0
 41
0.8
 50
0.0
 71
     0
 42
2.5
  3
SIMPLEX.shx
  4

  0
ENDTAB
  0
TABLE
  2
VIEW
  5
6
330
0
100
AcDbSymbolTable
 70
     0
  0
ENDTAB
  0
TABLE
  2
UCS
  5
7
330
0
100
AcDbSymbolTable
 70
     0
  0
ENDTAB
  0
TABLE
  2
APPID
  5
9
330
0
100
AcDbSymbolTable
 70
     1
  0
APPID
  5
12
330
9
100
AcDbSymbolTableRecord
100
AcDbRegAppTableRecord
  2
ACAD
 70
     0
  0
ENDTAB
  0
TABLE
  2
DIMSTYLE
  5
A
330
0
100
AcDbSymbolTable
 70
     1
100
AcDbDimStyleTable
 71
     1
340
A2
  0
DIMSTYLE
105
A2
102
{ACAD_REACTORS
330
B9F
330
BAC
330
BE7
330
C07
330
C14
330
C21
330
C37
330
1212
330
1214
102
}
330
A
100
AcDbSymbolTableRecord
100
AcDbDimStyleTableRecord
  2
Standard
 70
     0
340
11
  0
ENDTAB
  0
TABLE
  2
BLOCK_RECORD
  5
1
330
0
100
AcDbSymbolTable
 70
    11
  0
BLOCK_RECORD
  5
1E
102
{ACAD_XDICTIONARY
360
DB
102
}
330
1
100
AcDbSymbolTableRecord
100
AcDbBlockTableRecord
  2
*Model_Space
340
21
  0
BLOCK_RECORD
  5
1A
102
{ACAD_XDICTIONARY
360
DD
102
}
330
1
100
AcDbSymbolTableRecord
100
AcDbBlockTableRecord
  2
*Paper_Space
340
1D
  0
BLOCK_RECORD
  5
22
330
1
100
AcDbSymbolTableRecord
100
AcDbBlockTableRecord
  2
LOGO
340
0
102
{BLKREFS
331
56
102
}
  0
BLOCK_RECORD
  5
23
330
1
100
AcDbSymbolTableRecord
100
AcDbBlockTableRecord
  2
LORO
340
0
102
{BLKREFS
331
9B
102
}
  0
BLOCK_RECORD
  5
BA0
330
1
100
AcDbSymbolTableRecord
100
AcDbBlockTableRecord
  2
*D2
340
0
  0
BLOCK_RECORD
  5
BAD
330
1
100
AcDbSymbolTableRecord
100
AcDbBlockTableRecord
  2
*D3
340
0
  0
BLOCK_RECORD
  5
BE8
330
1
100
AcDbSymbolTableRecord
100
AcDbBlockTableRecord
  2
*D4
340
0
  0
BLOCK_RECORD
  5
C08
330
1
100
AcDbSymbolTableRecord
100
AcDbBlockTableRecord
  2
*D5
340
0
  0
BLOCK_RECORD
  5
C15
330
1
100
AcDbSymbolTableRecord
100
AcDbBlockTableRecord
  2
*D6
340
0
  0
BLOCK_RECORD
  5
C22
330
1
100
AcDbSymbolTableRecord
100
AcDbBlockTableRecord
  2
*D7
340
0
  0
BLOCK_RECORD
  5
C38
330
1
100
AcDbSymbolTableRecord
100
AcDbBlockTableRecord
  2
*D8
340
0
  0
BLOCK_RECORD
  5
12B5
330
1
100
AcDbSymbolTableRecord
100
AcDbBlockTableRecord
  2
*D9
340
0
  0
BLOCK_RECORD
  5
12CD
330
1
100
AcDbSymbolTableRecord
100
AcDbBlockTableRecord
  2
*D10
340
0
  0
ENDTAB
  0
ENDSEC
  0
SECTION
  2
BLOCKS
  0
BLOCK
  5
37
330
1E
100
AcDbEntity
  8
0
100
AcDbBlockBegin
  2
*Model_Space
 70
     0
 10
0.0
 20
0.0
 30
0.0
  3
*Model_Space
  1

  0
ENDBLK
  5
38
330
1E
100
AcDbEntity
  8
0
100
AcDbBlockEnd
  0
BLOCK
  5
35
330
1A
100
AcDbEntity
 67
     1
  8
0
100
AcDbBlockBegin
  2
*Paper_Space
 70
     0
 10
0.0
 20
0.0
 30
0.0
  3
*Paper_Space
  1

  0
ENDBLK
  5
36
330
1A
100
AcDbEntity
 67
     1
  8
0
100
AcDbBlockEnd
  0
BLOCK
  5
39
330
22
100
AcDbEntity
  8
0
100
AcDbBlockBegin
  2
LOGO
 70
     0
 10
0.0
 20
0.0
 30
0.0
  3
LOGO
  1

  0
ARC
  5
3A
330
22
100
AcDbEntity
  8
0
100
AcDbCircle
 10
11.59973089678112
 20
-9.271599258481501
 30
0.0
 40
4.5
100
AcDbArc
 50
270.0
 51
231.0575587310159
  0
LINE
  5
3B
330
22
100
AcDbEntity
  8
0
100
AcDbLine
 10
3.599730896781125
 20
-4.771599258481529
 30
0.0
 11
3.599730896781153
 21
-11.77159925848133
 31
0.0
  0
LINE
  5
3C
330
22
100
AcDbEntity
  8
0
100
AcDbLine
 10
2.599730896781125
 20
-4.771599258481529
 30
0.0
 11
2.599730896781153
 21
-11.77159925848133
 31
0.0
  0
CIRCLE
  5
3D
330
22
100
AcDbEntity
  8
0
100
AcDbCircle
 10
11.59973089678112
 20
-9.271599258481501
 30
0.0
 40
3.5
  0
ARC
  5
3E
330
22
100
AcDbEntity
  8
0
100
AcDbCircle
 10
31.59973089678115
 20
-9.271599258481472
 30
0.0
 40
4.5
100
AcDbArc
 50
270.0
 51
231.0575587310182
  0
LINE
  5
3F
330
22
100
AcDbEntity
  8
0
100
AcDbLine
 10
17.59973089678112
 20
-4.771599258481472
 30
0.0
 11
17.59973089678115
 21
-13.77159925848147
 31
0.0
  0
ARC
  5
40
330
22
100
AcDbEntity
  8
0
100
AcDbCircle
 10
22.59973089678116
 20
-7.271599258481472
 30
0.0
 40
2.5
100
AcDbArc
 50
293.1161887722295
 51
90.0
  0
CIRCLE
  5
41
330
22
100
AcDbEntity
  8
0
100
AcDbCircle
 10
31.59973089678115
 20
-9.271599258481472
 30
0.0
 40
3.5
  0
ARC
  5
42
330
22
100
AcDbEntity
  8
0
100
AcDbCircle
 10
4.599730896781153
 20
-11.77159925848133
 30
0.0
 40
1.0
100
AcDbArc
 50
180.0
 51
270.0
  0
ARC
  5
43
330
22
100
AcDbEntity
  8
0
100
AcDbCircle
 10
4.599730896781153
 20
-11.77159925848133
 30
0.0
 40
2.0
100
AcDbArc
 50
179.9999999999992
 51
270.0
  0
LINE
  5
44
330
22
100
AcDbEntity
  8
0
100
AcDbLine
 10
11.59973089678115
 20
-13.77159925848144
 30
0.0
 11
4.599730896781153
 21
-13.77159925848147
 31
0.0
  0
LINE
  5
45
330
22
100
AcDbEntity
  8
0
100
AcDbLine
 10
8.771303772034769
 20
-12.77159925848136
 30
0.0
 11
4.599730896781153
 21
-12.77159925848133
 31
0.0
  0
LINE
  5
46
330
22
100
AcDbEntity
  8
0
100
AcDbLine
 10
31.59973089678115
 20
-13.77159925848147
 30
0.0
 11
23.6715276665056
 21
-13.77159925848144
 31
0.0
  0
LINE
  5
47
330
22
100
AcDbEntity
  8
0
100
AcDbLine
 10
23.56565672307022
 20
-9.51278021337896
 30
0.0
 11
24.4388546544846
 21
-12.77159925848144
 31
0.0
  0
LINE
  5
48
330
22
100
AcDbEntity
  8
0
100
AcDbLine
 10
22.59973089678116
 20
-9.771599258481472
 30
0.0
 11
18.59973089678112
 21
-9.771599258481472
 31
0.0
  0
LINE
  5
49
330
22
100
AcDbEntity
  8
0
100
AcDbLine
 10
18.59973089678115
 20
-13.77159925848144
 30
0.0
 11
17.59973089678115
 21
-13.77159925848144
 31
0.0
  0
LINE
  5
4A
330
22
100
AcDbEntity
  8
0
100
AcDbLine
 10
18.59973089678115
 20
-9.771599258481472
 30
0.0
 11
18.59973089678115
 21
-13.77159925848144
 31
0.0
  0
LINE
  5
4B
330
22
100
AcDbEntity
  8
0
100
AcDbLine
 10
22.59973089678116
 20
-9.771599258481472
 30
0.0
 11
23.67152766650562
 21
-13.77159925848147
 31
0.0
  0
ARC
  5
4C
330
22
100
AcDbEntity
  8
0
100
AcDbCircle
 10
22.59973089678116
 20
-7.271599258481472
 30
0.0
 40
2.5
100
AcDbArc
 50
270.0
 51
270.0000000000007
  0
LINE
  5
4D
330
22
100
AcDbEntity
  8
0
100
AcDbLine
 10
28.77130377203494
 20
-12.77159925848147
 30
0.0
 11
24.43885465448463
 21
-12.77159925848144
 31
0.0
  0
LINE
  5
4E
330
22
100
AcDbEntity
  8
0
100
AcDbLine
 10
3.599730896781125
 20
-4.771599258481472
 30
0.0
 11
2.599730896781125
 21
-4.771599258481472
 31
0.0
  0
LINE
  5
4F
330
22
100
AcDbEntity
  8
0
100
AcDbLine
 10
22.59973089678116
 20
-8.771599258481472
 30
0.0
 11
18.59973089678115
 21
-8.771599258481472
 31
0.0
  0
LINE
  5
50
330
22
100
AcDbEntity
  8
0
100
AcDbLine
 10
22.59973089678116
 20
-5.771599258481472
 30
0.0
 11
18.59973089678115
 21
-5.771599258481472
 31
0.0
  0
LINE
  5
51
330
22
100
AcDbEntity
  8
0
100
AcDbLine
 10
22.59973089678116
 20
-4.771599258481472
 30
0.0
 11
17.59973089678115
 21
-4.771599258481472
 31
0.0
  0
LINE
  5
52
330
22
100
AcDbEntity
  8
0
100
AcDbLine
 10
18.59973089678115
 20
-5.771599258481472
 30
0.0
 11
18.59973089678115
 21
-8.771599258481472
 31
0.0
  0
ARC
  5
53
330
22
100
AcDbEntity
  8
0
100
AcDbCircle
 10
22.59973089678116
 20
-7.271599258481472
 30
0.0
 40
1.5
100
AcDbArc
 50
270.0
 51
90.0
  0
ENDBLK
  5
54
330
22
100
AcDbEntity
  8
0
100
AcDbBlockEnd
  0
BLOCK
  5
55
330
23
100
AcDbEntity
  8
0
100
AcDbBlockBegin
  2
LORO
 70
     0
 10
0.0
 20
0.0
 30
0.0
  3
LORO
  1

  0
INSERT
  5
56
330
23
100
AcDbEntity
  8
STEMPEL
100
AcDbBlockReference
  2
LOGO
 10
-1.748032802467321
 20
3.771489518552062
 30
0.0
  0
ENDBLK
  5
57
330
23
100
AcDbEntity
  8
0
100
AcDbBlockEnd
  0
BLOCK
  5
BAA
330
BA0
100
AcDbEntity
  8
0
100
AcDbBlockBegin
  2
*D2
 70
     1
 10
0.0
 20
0.0
 30
0.0
  3
*D2
  1

  0
LINE
  5
1393
330
BA0
100
AcDbEntity
  8
BEM
 62
     0
370
    -2
100
AcDbLine
 10
258.8919757877625
 20
338.9346296033758
 30
0.0
 11
258.8919757877625
 21
473.216040236092
 31
0.0
  0
LINE
  5
1394
330
BA0
100
AcDbEntity
  8
BEM
 62
     0
370
    -2
100
AcDbLine
 10
488.8919757877624
 20
338.9346296033758
 30
0.0
 11
488.8919757877624
 21
473.216040236092
 31
0.0
  0
LINE
  5
1395
330
BA0
100
AcDbEntity
  8
BEM
 62
     0
370
    -2
100
AcDbLine
 10
265.8919757877626
 20
471.2160402360921
 30
0.0
 11
481.8919757877623
 21
471.2160402360921
 31
0.0
  0
SOLID
  5
1396
330
BA0
100
AcDbEntity
  8
BEM
 62
     0
100
AcDbTrace
 10
265.8919757877626
 20
472.3827069027588
 30
0.0
 11
265.8919757877626
 21
470.0493735694254
 31
0.0
 12
258.8919757877625
 22
471.2160402360921
 32
0.0
 13
258.8919757877625
 23
471.2160402360921
 33
0.0
  0
SOLID
  5
1397
330
BA0
100
AcDbEntity
  8
BEM
 62
     0
100
AcDbTrace
 10
481.8919757877623
 20
472.3827069027588
 30
0.0
 11
481.8919757877623
 21
470.0493735694254
 31
0.0
 12
488.8919757877624
 22
471.2160402360921
 32
0.0
 13
488.8919757877624
 23
471.2160402360921
 33
0.0
  0
MTEXT
  5
1398
330
BA0
100
AcDbEntity
  8
BEM
 62
     1
100
AcDbMText
 10
373.8919757877625
 20
477.716040236092
 30
0.0
 40
7.0
 41
0.0
 71
     5
 72
     1
  1
\A1;%%c230
 73
     1
 44
1.0
  0
POINT
  5
1399
330
BA0
100
AcDbEntity
  8
DEFPOINTS
 62
     0
100
AcDbPoint
 10
258.8919757877625
 20
336.9346296033758
 30
0.0
  0
POINT
  5
139A
330
BA0
100
AcDbEntity
  8
DEFPOINTS
 62
     0
100
AcDbPoint
 10
488.8919757877624
 20
336.9346296033758
 30
0.0
  0
POINT
  5
139B
330
BA0
100
AcDbEntity
  8
DEFPOINTS
 62
     0
100
AcDbPoint
 10
488.8919757877624
 20
471.2160402360921
 30
0.0
  0
ENDBLK
  5
BAB
330
BA0
100
AcDbEntity
  8
0
100
AcDbBlockEnd
  0
BLOCK
  5
BB7
330
BAD
100
AcDbEntity
  8
0
100
AcDbBlockBegin
  2
*D3
 70
     1
 10
0.0
 20
0.0
 30
0.0
  3
*D3
  1

  0
LINE
  5
138A
330
BAD
100
AcDbEntity
  8
BEM
 62
     0
370
    -2
100
AcDbLine
 10
203.8919757877625
 20
343.4346296033759
 30
0.0
 11
203.8919757877625
 21
486.7666996069636
 31
0.0
  0
LINE
  5
138B
330
BAD
100
AcDbEntity
  8
BEM
 62
     0
370
    -2
100
AcDbLine
 10
543.8919757877624
 20
343.4346296033758
 30
0.0
 11
543.8919757877624
 21
486.7666996069636
 31
0.0
  0
LINE
  5
138C
330
BAD
100
AcDbEntity
  8
BEM
 62
     0
370
    -2
100
AcDbLine
 10
210.8919757877625
 20
484.7666996069635
 30
0.0
 11
536.8919757877624
 21
484.7666996069635
 31
0.0
  0
SOLID
  5
138D
330
BAD
100
AcDbEntity
  8
BEM
 62
     0
100
AcDbTrace
 10
210.8919757877625
 20
485.9333662736302
 30
0.0
 11
210.8919757877625
 21
483.6000329402969
 31
0.0
 12
203.8919757877625
 22
484.7666996069635
 32
0.0
 13
203.8919757877625
 23
484.7666996069635
 33
0.0
  0
SOLID
  5
138E
330
BAD
100
AcDbEntity
  8
BEM
 62
     0
100
AcDbTrace
 10
536.8919757877624
 20
485.9333662736302
 30
0.0
 11
536.8919757877624
 21
483.6000329402969
 31
0.0
 12
543.8919757877624
 22
484.7666996069635
 32
0.0
 13
543.8919757877624
 23
484.7666996069635
 33
0.0
  0
MTEXT
  5
138F
330
BAD
100
AcDbEntity
  8
BEM
 62
     1
100
AcDbMText
 10
377.0705827005083
 20
491.2666996069636
 30
0.0
 40
7.0
 41
0.0
 71
     5
 72
     1
  1
\A1;500
 73
     1
 44
1.0
  0
POINT
  5
1390
330
BAD
100
AcDbEntity
  8
DEFPOINTS
 62
     0
100
AcDbPoint
 10
203.8919757877625
 20
341.4346296033759
 30
0.0
  0
POINT
  5
1391
330
BAD
100
AcDbEntity
  8
DEFPOINTS
 62
     0
100
AcDbPoint
 10
543.8919757877624
 20
341.4346296033758
 30
0.0
  0
POINT
  5
1392
330
BAD
100
AcDbEntity
  8
DEFPOINTS
 62
     0
100
AcDbPoint
 10
543.8919757877624
 20
484.7666996069635
 30
0.0
  0
ENDBLK
  5
BB8
330
BAD
100
AcDbEntity
  8
0
100
AcDbBlockEnd
  0
BLOCK
  5
BF2
330
BE8
100
AcDbEntity
  8
0
100
AcDbBlockBegin
  2
*D4
 70
     1
 10
0.0
 20
0.0
 30
0.0
  3
*D4
  1

  0
LINE
  5
1381
330
BE8
100
AcDbEntity
  8
BEM
 62
     0
370
    -2
100
AcDbLine
 10
621.2843604891824
 20
295.1076560993439
 30
0.0
 11
644.7200449150535
 21
293.8794439226058
 31
0.0
  0
LINE
  5
1382
330
BE8
100
AcDbEntity
  8
BEM
 62
     0
370
    -2
100
AcDbLine
 10
618.5105548083062
 20
242.1802907573514
 30
0.0
 11
641.9462392341772
 21
240.9520785806133
 31
0.0
  0
LINE
  5
1383
330
BE8
100
AcDbEntity
  8
BEM
 62
     0
370
    -2
100
AcDbLine
 10
642.3564341518437
 20
286.9937090918097
 30
0.0
 11
640.3153318583687
 21
248.0471572363812
 31
0.0
  0
SOLID
  5
1384
330
BE8
100
AcDbEntity
  8
BEM
 62
     0
100
AcDbTrace
 10
641.1913663612968
 20
287.0547677074264
 30
0.0
 11
643.5215019423906
 21
286.9326504761929
 31
0.0
 12
642.7227858455442
 22
293.9841158350916
 32
0.0
 13
642.7227858455442
 23
293.9841158350916
 33
0.0
  0
SOLID
  5
1385
330
BE8
100
AcDbEntity
  8
BEM
 62
     0
100
AcDbTrace
 10
639.1502640678218
 20
248.108215851998
 30
0.0
 11
641.4803996489156
 21
247.9860986207644
 31
0.0
 12
639.9489801646681
 22
241.0567504930992
 32
0.0
 13
639.9489801646681
 23
241.0567504930992
 33
0.0
  0
MTEXT
  5
1386
330
BE8
100
AcDbEntity
  8
BEM
 62
     1
100
AcDbMText
 10
634.8447910292015
 20
267.8606168796745
 30
0.0
 40
7.0
 41
0.0
 71
     5
 72
     1
  1
\A1;%%c53
 11
0.0523359562429469
 21
0.9986295347545738
 31
0.0
 73
     1
 44
1.0
  0
POINT
  5
1387
330
BE8
100
AcDbEntity
  8
DEFPOINTS
 62
     0
100
AcDbPoint
 10
619.2871014196732
 20
295.2123280118298
 30
0.0
  0
POINT
  5
1388
330
BE8
100
AcDbEntity
  8
DEFPOINTS
 62
     0
100
AcDbPoint
 10
616.5132957387969
 20
242.2849626698373
 30
0.0
  0
POINT
  5
1389
330
BE8
100
AcDbEntity
  8
DEFPOINTS
 62
     0
100
AcDbPoint
 10
639.9489801646681
 20
241.0567504930992
 30
0.0
  0
ENDBLK
  5
BF3
330
BE8
100
AcDbEntity
  8
0
100
AcDbBlockEnd
  0
BLOCK
  5
C12
330
C08
100
AcDbEntity
  8
0
100
AcDbBlockBegin
  2
*D5
 70
     1
 10
0.0
 20
0.0
 30
0.0
  3
*D5
  1

  0
LINE
  5
1378
330
C08
100
AcDbEntity
  8
BEM
 62
     0
370
    -2
100
AcDbLine
 10
264.397750009546
 20
340.4346296033759
 30
0.0
 11
245.3750884075614
 21
340.4346296033759
 31
0.0
  0
LINE
  5
1379
330
C08
100
AcDbEntity
  8
BEM
 62
     0
370
    -2
100
AcDbLine
 10
371.8919757877625
 20
251.4346296033759
 30
0.0
 11
245.3750884075614
 21
251.4346296033759
 31
0.0
  0
LINE
  5
137A
330
C08
100
AcDbEntity
  8
BEM
 62
     0
370
    -2
100
AcDbLine
 10
247.3750884075614
 20
333.4346296033759
 30
0.0
 11
247.3750884075614
 21
258.4346296033759
 31
0.0
  0
SOLID
  5
137B
330
C08
100
AcDbEntity
  8
BEM
 62
     0
100
AcDbTrace
 10
246.2084217408948
 20
333.4346296033759
 30
0.0
 11
248.5417550742281
 21
333.4346296033759
 31
0.0
 12
247.3750884075614
 22
340.4346296033759
 32
0.0
 13
247.3750884075614
 23
340.4346296033759
 33
0.0
  0
SOLID
  5
137C
330
C08
100
AcDbEntity
  8
BEM
 62
     0
100
AcDbTrace
 10
246.2084217408948
 20
258.4346296033759
 30
0.0
 11
248.5417550742281
 21
258.4346296033759
 31
0.0
 12
247.3750884075614
 22
251.4346296033759
 32
0.0
 13
247.3750884075614
 23
251.4346296033759
 33
0.0
  0
MTEXT
  5
137D
330
C08
100
AcDbEntity
  8
BEM
 62
     1
100
AcDbMText
 10
240.8750884075614
 20
295.9346296033759
 30
0.0
 40
7.0
 41
0.0
 71
     5
 72
     1
  1
\A1;89
 11
0.0000000000000001
 21
1.0
 31
0.0
 73
     1
 44
1.0
  0
POINT
  5
137E
330
C08
100
AcDbEntity
  8
DEFPOINTS
 62
     0
100
AcDbPoint
 10
266.397750009546
 20
340.4346296033759
 30
0.0
  0
POINT
  5
137F
330
C08
100
AcDbEntity
  8
DEFPOINTS
 62
     0
100
AcDbPoint
 10
373.8919757877625
 20
251.4346296033759
 30
0.0
  0
POINT
  5
1380
330
C08
100
AcDbEntity
  8
DEFPOINTS
 62
     0
100
AcDbPoint
 10
247.3750884075614
 20
251.4346296033759
 30
0.0
  0
ENDBLK
  5
C13
330
C08
100
AcDbEntity
  8
0
100
AcDbBlockEnd
  0
BLOCK
  5
C1F
330
C15
100
AcDbEntity
  8
0
100
AcDbBlockBegin
  2
*D6
 70
     1
 10
0.0
 20
0.0
 30
0.0
  3
*D6
  1

  0
LINE
  5
136F
330
C15
100
AcDbEntity
  8
BEM
 62
     0
370
    -2
100
AcDbLine
 10
373.8919757877625
 20
244.4346296033759
 30
0.0
 11
373.8919757877625
 21
219.2003142655708
 31
0.0
  0
LINE
  5
1370
330
C15
100
AcDbEntity
  8
BEM
 62
     0
370
    -2
100
AcDbLine
 10
623.8919757877624
 20
266.4346296033758
 30
0.0
 11
623.8919757877624
 21
219.2003142655708
 31
0.0
  0
LINE
  5
1371
330
C15
100
AcDbEntity
  8
BEM
 62
     0
370
    -2
100
AcDbLine
 10
380.8919757877625
 20
221.2003142655708
 30
0.0
 11
616.8919757877624
 21
221.2003142655708
 31
0.0
  0
SOLID
  5
1372
330
C15
100
AcDbEntity
  8
BEM
 62
     0
100
AcDbTrace
 10
380.8919757877625
 20
222.3669809322375
 30
0.0
 11
380.8919757877625
 21
220.0336475989042
 31
0.0
 12
373.8919757877625
 22
221.2003142655708
 32
0.0
 13
373.8919757877625
 23
221.2003142655708
 33
0.0
  0
SOLID
  5
1373
330
C15
100
AcDbEntity
  8
BEM
 62
     0
100
AcDbTrace
 10
616.8919757877624
 20
222.3669809322375
 30
0.0
 11
616.8919757877624
 21
220.0336475989042
 31
0.0
 12
623.8919757877624
 22
221.2003142655708
 32
0.0
 13
623.8919757877624
 23
221.2003142655708
 33
0.0
  0
MTEXT
  5
1374
330
C15
100
AcDbEntity
  8
BEM
 62
     1
100
AcDbMText
 10
498.8919757877624
 20
227.7003142655708
 30
0.0
 40
7.0
 41
0.0
 71
     5
 72
     1
  1
\A1;250
 73
     1
 44
1.0
  0
POINT
  5
1375
330
C15
100
AcDbEntity
  8
DEFPOINTS
 62
     0
100
AcDbPoint
 10
373.8919757877625
 20
246.4346296033759
 30
0.0
  0
POINT
  5
1376
330
C15
100
AcDbEntity
  8
DEFPOINTS
 62
     0
100
AcDbPoint
 10
623.8919757877624
 20
268.4346296033758
 30
0.0
  0
POINT
  5
1377
330
C15
100
AcDbEntity
  8
DEFPOINTS
 62
     0
100
AcDbPoint
 10
623.8919757877624
 20
221.2003142655708
 30
0.0
  0
ENDBLK
  5
C20
330
C15
100
AcDbEntity
  8
0
100
AcDbBlockEnd
  0
BLOCK
  5
C2C
330
C22
100
AcDbEntity
  8
0
100
AcDbBlockBegin
  2
*D7
 70
     1
 10
0.0
 20
0.0
 30
0.0
  3
*D7
  1

  0
LINE
  5
1366
330
C22
100
AcDbEntity
  8
BEM
 62
     0
370
    -2
100
AcDbLine
 10
545.8919757877624
 20
340.4346296033758
 30
0.0
 11
659.8273003753923
 21
340.4346296033757
 31
0.0
  0
LINE
  5
1367
330
C22
100
AcDbEntity
  8
BEM
 62
     0
370
    -2
100
AcDbLine
 10
643.2420501530903
 20
268.4346296033758
 30
0.0
 11
659.8273003753923
 21
268.4346296033758
 31
0.0
  0
LINE
  5
1368
330
C22
100
AcDbEntity
  8
BEM
 62
     0
370
    -2
100
AcDbLine
 10
657.8273003753922
 20
333.4346296033757
 30
0.0
 11
657.8273003753922
 21
275.4346296033758
 31
0.0
  0
SOLID
  5
1369
330
C22
100
AcDbEntity
  8
BEM
 62
     0
100
AcDbTrace
 10
656.6606337087256
 20
333.4346296033757
 30
0.0
 11
658.9939670420589
 21
333.4346296033757
 31
0.0
 12
657.8273003753922
 22
340.4346296033757
 32
0.0
 13
657.8273003753922
 23
340.4346296033757
 33
0.0
  0
SOLID
  5
136A
330
C22
100
AcDbEntity
  8
BEM
 62
     0
100
AcDbTrace
 10
656.6606337087256
 20
275.4346296033758
 30
0.0
 11
658.9939670420589
 21
275.4346296033758
 31
0.0
 12
657.8273003753922
 22
268.4346296033758
 32
0.0
 13
657.8273003753922
 23
268.4346296033758
 33
0.0
  0
MTEXT
  5
136B
330
C22
100
AcDbEntity
  8
BEM
 62
     1
100
AcDbMText
 10
651.3273003753921
 20
304.4346296033759
 30
0.0
 40
7.0
 41
0.0
 71
     5
 72
     1
  1
\A1;72
 11
0.0000000000000001
 21
1.0
 31
0.0
 73
     1
 44
1.0
  0
POINT
  5
136C
330
C22
100
AcDbEntity
  8
DEFPOINTS
 62
     0
100
AcDbPoint
 10
543.8919757877624
 20
340.4346296033758
 30
0.0
  0
POINT
  5
136D
330
C22
100
AcDbEntity
  8
DEFPOINTS
 62
     0
100
AcDbPoint
 10
641.2420501530903
 20
268.4346296033758
 30
0.0
  0
POINT
  5
136E
330
C22
100
AcDbEntity
  8
DEFPOINTS
 62
     0
100
AcDbPoint
 10
657.8273003753922
 20
268.4346296033758
 30
0.0
  0
ENDBLK
  5
C2D
330
C22
100
AcDbEntity
  8
0
100
AcDbBlockEnd
  0
BLOCK
  5
C42
330
C38
100
AcDbEntity
  8
0
100
AcDbBlockBegin
  2
*D8
 70
     1
 10
0.0
 20
0.0
 30
0.0
  3
*D8
  1

  0
ARC
  5
13A5
330
C38
100
AcDbEntity
  8
BEM
 62
     0
370
    -2
100
AcDbCircle
 10
373.8919757877625
 20
281.5365744241362
 30
0.0
 40
27.29026688160799
100
AcDbArc
 50
11.73705492242514
 51
75.26294507757484
  0
SOLID
  5
13A6
330
C38
100
AcDbEntity
  8
BEM
 62
     0
100
AcDbTrace
 10
401.7749201553162
 20
287.1768419741755
 30
0.0
 11
399.4483657537635
 21
286.9991088566652
 31
0.0
 12
401.1448423070707
 22
280.1083122107621
 32
0.0
 13
401.1448423070707
 23
280.1083122107621
 33
0.0
  0
SOLID
  5
13A7
330
C38
100
AcDbEntity
  8
BEM
 62
     0
100
AcDbTrace
 10
380.684542113688
 20
306.7720532828538
 30
0.0
 11
380.9837941034944
 21
309.0861173897966
 31
0.0
 12
373.8919757877625
 22
308.8268413057442
 32
0.0
 13
373.8919757877625
 23
308.8268413057442
 33
0.0
  0
MTEXT
  5
13A8
330
C38
100
AcDbEntity
  8
BEM
 62
     1
100
AcDbMText
 10
395.7059556314996
 20
307.3422408427219
 30
0.0
 40
7.0
 41
0.0
 71
     5
 72
     1
  1
\A1;93°
 11
0.7637011719677098
 21
-0.6455699187037346
 31
0.0
 73
     1
 44
1.0
  0
POINT
  5
13A9
330
C38
100
AcDbEntity
  8
DEFPOINTS
 62
     0
100
AcDbPoint
 10
397.987851239356
 20
294.3485786658887
 30
0.0
  0
POINT
  5
13AA
330
C38
100
AcDbEntity
  8
DEFPOINTS
 62
     0
100
AcDbPoint
 10
373.8919757877625
 20
345.4346296033759
 30
0.0
  0
POINT
  5
13AB
330
C38
100
AcDbEntity
  8
DEFPOINTS
 62
     0
100
AcDbPoint
 10
628.8171160378866
 20
268.1765139402094
 30
0.0
  0
POINT
  5
13AC
330
C38
100
AcDbEntity
  8
DEFPOINTS
 62
     0
100
AcDbPoint
 10
373.8919757877625
 20
281.5365744241362
 30
0.0
  0
POINT
  5
13AD
330
C38
100
AcDbEntity
  8
DEFPOINTS
 62
     0
100
AcDbPoint
 10
373.8919757877625
 20
246.4346296033759
 30
0.0
  0
ENDBLK
  5
C43
330
C38
100
AcDbEntity
  8
0
100
AcDbBlockEnd
  0
BLOCK
  5
12BF
330
12B5
100
AcDbEntity
  8
0
100
AcDbBlockBegin
  2
*D9
 70
     1
 10
0.0
 20
0.0
 30
0.0
  3
*D9
  1

  0
LINE
  5
1354
330
12B5
100
AcDbEntity
  8
BEM
 62
     0
370
    -2
100
AcDbLine
 10
323.3919757877625
 20
443.4346296033758
 30
0.0
 11
323.3919757877625
 21
457.6383234083995
 31
0.0
  0
LINE
  5
1355
330
12B5
100
AcDbEntity
  8
BEM
 62
     0
370
    -2
100
AcDbLine
 10
424.3919757877624
 20
443.4346296033758
 30
0.0
 11
424.3919757877624
 21
457.6383234083995
 31
0.0
  0
LINE
  5
1356
330
12B5
100
AcDbEntity
  8
BEM
 62
     0
370
    -2
100
AcDbLine
 10
330.3919757877625
 20
455.6383234083995
 30
0.0
 11
417.3919757877625
 21
455.6383234083995
 31
0.0
  0
SOLID
  5
1357
330
12B5
100
AcDbEntity
  8
BEM
 62
     0
100
AcDbTrace
 10
330.3919757877625
 20
456.8049900750661
 30
0.0
 11
330.3919757877625
 21
454.4716567417328
 31
0.0
 12
323.3919757877625
 22
455.6383234083995
 32
0.0
 13
323.3919757877625
 23
455.6383234083995
 33
0.0
  0
SOLID
  5
1358
330
12B5
100
AcDbEntity
  8
BEM
 62
     0
100
AcDbTrace
 10
417.3919757877625
 20
456.8049900750661
 30
0.0
 11
417.3919757877625
 21
454.4716567417328
 31
0.0
 12
424.3919757877624
 22
455.6383234083995
 32
0.0
 13
424.3919757877624
 23
455.6383234083995
 33
0.0
  0
MTEXT
  5
1359
330
12B5
100
AcDbEntity
  8
BEM
 62
     1
100
AcDbMText
 10
376.6482228601094
 20
462.1383234083995
 30
0.0
 40
7.0
 41
0.0
 71
     5
 72
     1
  1
\A1;101
 73
     1
 44
1.0
  0
POINT
  5
135A
330
12B5
100
AcDbEntity
  8
DEFPOINTS
 62
     0
100
AcDbPoint
 10
323.3919757877625
 20
441.4346296033758
 30
0.0
  0
POINT
  5
135B
330
12B5
100
AcDbEntity
  8
DEFPOINTS
 62
     0
100
AcDbPoint
 10
424.3919757877624
 20
441.4346296033758
 30
0.0
  0
POINT
  5
135C
330
12B5
100
AcDbEntity
  8
DEFPOINTS
 62
     0
100
AcDbPoint
 10
424.3919757877624
 20
455.6383234083995
 30
0.0
  0
ENDBLK
  5
12C0
330
12B5
100
AcDbEntity
  8
0
100
AcDbBlockEnd
  0
BLOCK
  5
12D9
330
12CD
100
AcDbEntity
  8
0
100
AcDbBlockBegin
  2
*D10
 70
     1
 10
0.0
 20
0.0
 30
0.0
  3
*D10
  1

  0
LINE
  5
1349
330
12CD
100
AcDbEntity
  8
BEM
 62
     0
370
    -2
100
AcDbLine
 10
321.3919757877625
 20
441.4346296033758
 30
0.0
 11
308.8097371666183
 21
441.4346296033758
 31
0.0
  0
LINE
  5
134A
330
12CD
100
AcDbEntity
  8
BEM
 62
     0
370
    -2
100
AcDbLine
 10
321.3919757877625
 20
432.4346296033756
 30
0.0
 11
308.8097371666183
 21
432.4346296033756
 31
0.0
  0
LINE
  5
134B
330
12CD
100
AcDbEntity
  8
BEM
 62
     0
370
    -2
100
AcDbLine
 10
310.8097371666183
 20
448.4346296033757
 30
0.0
 11
310.8097371666183
 21
455.4346296033758
 31
0.0
  0
LINE
  5
134C
330
12CD
100
AcDbEntity
  8
BEM
 62
     0
370
    -2
100
AcDbLine
 10
310.8097371666183
 20
425.4346296033757
 30
0.0
 11
310.8097371666183
 21
408.967962936709
 31
0.0
  0
LINE
  5
134D
330
12CD
100
AcDbEntity
  8
BEM
 62
     0
370
    -2
100
AcDbLine
 10
310.8097371666183
 20
441.4346296033758
 30
0.0
 11
310.8097371666183
 21
432.4346296033756
 31
0.0
  0
SOLID
  5
134E
330
12CD
100
AcDbEntity
  8
BEM
 62
     0
100
AcDbTrace
 10
309.6430704999516
 20
448.4346296033757
 30
0.0
 11
311.976403833285
 21
448.4346296033757
 31
0.0
 12
310.8097371666183
 22
441.4346296033758
 32
0.0
 13
310.8097371666183
 23
441.4346296033758
 33
0.0
  0
SOLID
  5
134F
330
12CD
100
AcDbEntity
  8
BEM
 62
     0
100
AcDbTrace
 10
309.6430704999516
 20
425.4346296033757
 30
0.0
 11
311.976403833285
 21
425.4346296033757
 31
0.0
 12
310.8097371666183
 22
432.4346296033756
 32
0.0
 13
310.8097371666183
 23
432.4346296033756
 33
0.0
  0
MTEXT
  5
1350
330
12CD
100
AcDbEntity
  8
BEM
 62
     1
100
AcDbMText
 10
304.3097371666182
 20
413.7012962700423
 30
0.0
 40
7.0
 41
0.0
 71
     5
 72
     1
  1
\A1;9
 11
0.0000000000000001
 21
1.0
 31
0.0
 73
     1
 44
1.0
  0
POINT
  5
1351
330
12CD
100
AcDbEntity
  8
DEFPOINTS
 62
     0
100
AcDbPoint
 10
323.3919757877625
 20
441.4346296033758
 30
0.0
  0
POINT
  5
1352
330
12CD
100
AcDbEntity
  8
DEFPOINTS
 62
     0
100
AcDbPoint
 10
323.3919757877625
 20
432.4346296033756
 30
0.0
  0
POINT
  5
1353
330
12CD
100
AcDbEntity
  8
DEFPOINTS
 62
     0
100
AcDbPoint
 10
310.8097371666183
 20
432.4346296033756
 30
0.0
  0
ENDBLK
  5
12DA
330
12CD
100
AcDbEntity
  8
0
100
AcDbBlockEnd
  0
ENDSEC
  0
SECTION
  2
ENTITIES
  0
LINE
  5
58
330
1E
100
AcDbEntity
  8
STEMPEL
100
AcDbLine
 10
830.0000000000002
 20
110.0
 30
0.0
 11
470.0000000000001
 21
110.0
 31
0.0
  0
LINE
  5
59
330
1E
100
AcDbEntity
  8
STEMPEL
100
AcDbLine
 10
470.0000000000001
 20
110.0
 30
0.0
 11
470.0000000000001
 21
10.0
 31
0.0
  0
LINE
  5
5A
330
1E
100
AcDbEntity
  8
STEMPEL
100
AcDbLine
 10
566.0000000000002
 20
109.9999999999999
 30
0.0
 11
566.0000000000001
 21
9.999999999999886
 31
0.0
  0
LINE
  5
5B
330
1E
100
AcDbEntity
  8
STEMPEL
100
AcDbLine
 10
650.0
 20
110.0
 30
0.0
 11
650.0
 21
10.0
 31
0.0
  0
LINE
  5
5C
330
1E
100
AcDbEntity
  8
STEMPEL
100
AcDbLine
 10
752.0000000000002
 20
109.9999999999997
 30
0.0
 11
752.0000000000002
 21
40.0
 31
0.0
  0
LINE
  5
5D
330
1E
100
AcDbEntity
  8
STEMPEL
100
AcDbLine
 10
566.0
 20
30.0
 30
0.0
 11
470.0000000000001
 21
30.0
 31
0.0
  0
LINE
  5
5E
330
1E
100
AcDbEntity
  8
STEMPEL
100
AcDbLine
 10
830.0000000000002
 20
40.0
 30
0.0
 11
566.0000000000001
 21
40.0
 31
0.0
  0
LINE
  5
5F
330
1E
100
AcDbEntity
  8
STEMPEL
100
AcDbLine
 10
830.0000000000002
 20
80.0
 30
0.0
 11
566.0000000000002
 21
80.0
 31
0.0
  0
LINE
  5
60
330
1E
100
AcDbEntity
  8
VOLL
100
AcDbLine
 10
484.0000000000002
 20
110.0
 30
0.0
 11
484.0000000000001
 21
9.999999999999985
 31
0.0
  0
LINE
  5
61
330
1E
100
AcDbEntity
  8
VOLL
100
AcDbLine
 10
524.0000000000001
 20
109.9999999999999
 30
0.0
 11
524.0000000000001
 21
9.999999999999943
 31
0.0
  0
LINE
  5
62
330
1E
100
AcDbEntity
  8
VOLL
100
AcDbLine
 10
544.0000000000002
 20
109.9999999999999
 30
0.0
 11
544.0000000000001
 21
9.999999999999914
 31
0.0
  0
LINE
  5
63
330
1E
100
AcDbEntity
  8
VOLL
100
AcDbLine
 10
584.0000000000002
 20
80.0
 30
0.0
 11
584.0000000000002
 21
40.0
 31
0.0
  0
LINE
  5
64
330
1E
100
AcDbEntity
  8
VOLL
100
AcDbLine
 10
610.0000000000002
 20
109.9999999999998
 30
0.0
 11
610.0000000000001
 21
40.0
 31
0.0
  0
LINE
  5
65
330
1E
100
AcDbEntity
  8
HILF
100
AcDbLine
 10
470.0000000000001
 20
100.0
 30
0.0
 11
566.0000000000002
 21
100.0
 31
0.0
  0
LINE
  5
66
330
1E
100
AcDbEntity
  8
HILF
100
AcDbLine
 10
470.0000000000001
 20
90.0
 30
0.0
 11
566.0000000000002
 21
90.0
 31
0.0
  0
LINE
  5
67
330
1E
100
AcDbEntity
  8
HILF
100
AcDbLine
 10
470.0000000000001
 20
80.0
 30
0.0
 11
566.0000000000002
 21
80.0
 31
0.0
  0
LINE
  5
68
330
1E
100
AcDbEntity
  8
HILF
100
AcDbLine
 10
470.0000000000001
 20
70.0
 30
0.0
 11
566.0000000000002
 21
70.0
 31
0.0
  0
LINE
  5
69
330
1E
100
AcDbEntity
  8
HILF
100
AcDbLine
 10
470.0000000000001
 20
60.0
 30
0.0
 11
566.0000000000002
 21
60.0
 31
0.0
  0
LINE
  5
6A
330
1E
100
AcDbEntity
  8
HILF
100
AcDbLine
 10
470.0000000000001
 20
50.0
 30
0.0
 11
566.0000000000002
 21
50.0
 31
0.0
  0
LINE
  5
6B
330
1E
100
AcDbEntity
  8
HILF
100
AcDbLine
 10
470.0000000000001
 20
40.0
 30
0.0
 11
566.0000000000002
 21
40.0
 31
0.0
  0
LINE
  5
6C
330
1E
100
AcDbEntity
  8
HILF
100
AcDbLine
 10
566.0000000000002
 20
70.0
 30
0.0
 11
650.0
 21
70.0
 31
0.0
  0
LINE
  5
6D
330
1E
100
AcDbEntity
  8
HILF
100
AcDbLine
 10
566.0000000000002
 20
60.0
 30
0.0
 11
650.0
 21
60.0
 31
0.0
  0
LINE
  5
6E
330
1E
100
AcDbEntity
  8
HILF
100
AcDbLine
 10
566.0000000000002
 20
50.0
 30
0.0
 11
650.0
 21
50.0
 31
0.0
  0
LINE
  5
6F
330
1E
100
AcDbEntity
  8
HILF
100
AcDbLine
 10
654.7736801096948
 20
84.03758247564136
 30
0.0
 11
746.6297842514811
 21
84.03758247564136
 31
0.0
  0
LINE
  5
70
330
1E
100
AcDbEntity
  8
HILF
100
AcDbLine
 10
654.7736801096948
 20
70.0
 30
0.0
 11
746.6297842514811
 21
70.0
 31
0.0
  0
LINE
  5
71
330
1E
100
AcDbEntity
  8
HILF
100
AcDbLine
 10
654.7736801096948
 20
60.0
 30
0.0
 11
746.6297842514811
 21
60.0
 31
0.0
  0
LINE
  5
72
330
1E
100
AcDbEntity
  8
HILF
100
AcDbLine
 10
654.7736801096948
 20
50.0
 30
0.0
 11
746.6297842514811
 21
50.0
 31
0.0
  0
LINE
  5
73
330
1E
100
AcDbEntity
  8
VOLL
100
AcDbLine
 10
752.0000000000002
 20
60.0
 30
0.0
 11
830.0000000000002
 21
60.0
 31
0.0
  0
LINE
  5
74
330
1E
100
AcDbEntity
  8
HILF
100
AcDbLine
 10
756.7238616296995
 20
83.77983636955823
 30
0.0
 11
824.858883932673
 21
83.77983636955823
 31
0.0
  0
LINE
  5
75
330
1E
100
AcDbEntity
  8
HILF
100
AcDbLine
 10
654.7736801096948
 20
14.89398258028305
 30
0.0
 11
824.858883932673
 21
14.89398258028305
 31
0.0
  0
TEXT
  5
76
330
1E
100
AcDbEntity
  8
TEXT
100
AcDbText
 10
492.3998239263297
 20
18.67381894984129
 30
0.0
 40
4.0
  1
Änderung
 41
0.8
  7
GREEKS
 72
     1
 11
503.1426810691868
 21
18.67381894984129
 31
0.0
100
AcDbText
  0
TEXT
  5
78
330
1E
100
AcDbEntity
  8
TEXT
100
AcDbText
 10
573.5163572150378
 20
102.4620895087088
 30
0.0
 40
5.0
  1
Maßstab
 41
0.8
  7
GREEKS
100
AcDbText
  0
TEXT
  5
79
330
1E
100
AcDbEntity
  8
TEXT
100
AcDbText
 10
654.8779403809011
 20
102.5489328011779
 30
0.0
 40
5.0
  1
Benennung
 41
0.8
  7
GREEKS
100
AcDbText
  0
TEXT
  5
7A
330
1E
100
AcDbEntity
  8
TEXT
100
AcDbText
 10
756.1787549576343
 20
102.3132034537135
 30
0.0
 40
5.0
  1
Zeichnungs Nr.
 41
0.8
  7
GREEKS
100
AcDbText
  0
TEXT
  5
7B
330
1E
100
AcDbEntity
  8
TEXT
100
AcDbText
 10
654.742238391136
 20
30.84560570193055
 30
0.0
 40
5.0
  1
Bauvorhaben
 41
0.8
  7
GREEKS
100
AcDbText
  0
TEXT
  5
7C
330
1E
100
AcDbEntity
  8
TEXT
100
AcDbText
 10
756.7238616296995
 20
73.18118237099965
 30
0.0
 40
5.0
  1
Ersatz für:
 41
0.8
  7
GREEKS
100
AcDbText
  0
TEXT
  5
7D
330
1E
100
AcDbEntity
  8
TEXT
100
AcDbText
 10
478.2664110704577
 20
13.65465846027187
 30
0.0
 40
4.0
  1
Index
 50
90.0
 41
0.8
  7
GREEKS
100
AcDbText
  0
TEXT
  5
7E
330
1E
100
AcDbEntity
  8
TEXT
100
AcDbText
 10
529.8990113186979
 20
18.67156269339808
 30
0.0
 40
4.0
  1
Tag
 41
0.8
  7
GREEKS
 72
     1
 11
533.6323446520313
 21
18.67156269339808
 31
0.0
100
AcDbText
  0
TEXT
  5
7F
330
1E
100
AcDbEntity
  8
TEXT
100
AcDbText
 10
548.9795678138293
 20
18.59324216966404
 30
0.0
 40
4.0
  1
Name
 41
0.8
  7
GREEKS
 72
     1
 11
555.3033773376388
 21
18.59324216966404
 31
0.0
100
AcDbText
  0
TEXT
  5
80
330
1E
100
AcDbEntity
  8
TEXT
100
AcDbText
 10
592.3311673153651
 20
73.31880501229919
 30
0.0
 40
4.0
  1
Tag
 41
0.8
  7
GREEKS
100
AcDbText
  0
TEXT
  5
81
330
1E
100
AcDbEntity
  8
TEXT
100
AcDbText
 10
622.4626584226296
 20
73.3096109191522
 30
0.0
 40
4.0
  1
Name
 41
0.8
  7
GREEKS
100
AcDbText
  0
TEXT
  5
82
330
1E
100
AcDbEntity
  8
TEXT
100
AcDbText
 10
567.5836127167616
 20
63.62990369617961
 30
0.0
 40
4.0
  1
Gez.
 41
0.8
  7
GREEKS
100
AcDbText
  0
TEXT
  5
83
330
1E
100
AcDbEntity
  8
TEXT
100
AcDbText
 10
567.5515086571673
 20
53.68926291428373
 30
0.0
 40
4.0
  1
Gepr.
 41
0.8
  7
GREEKS
100
AcDbText
  0
TEXT
  5
84
330
1E
100
AcDbEntity
  8
TEXT
100
AcDbText
 10
567.6006777387304
 20
43.52946389649804
 30
0.0
 40
4.0
  1
Norm.
 41
0.8
  7
GREEKS
100
AcDbText
  0
TEXT
  5
85
330
1E
100
AcDbEntity
  8
TEXT
100
AcDbText
 10
757.2400861497007
 20
52.07416177878596
 30
0.0
 40
5.0
  1
ersetzt durch:
 41
0.8
  7
GREEKS
100
AcDbText
  0
TEXT
  5
86
330
1E
100
AcDbEntity
  8
TEXT
100
AcDbText
 10
568.8693027807324
 20
72.96682596523723
 30
0.0
 40
4.0
  1
2012
 41
0.8
  7
GREEKS
100
AcDbText
  0
LINE
  5
87
330
1E
100
AcDbEntity
  8
HILF
100
AcDbLine
 10
0.0
 20
0.0
 30
0.0
 11
840.0
 21
0.0
 31
0.0
  0
LINE
  5
88
330
1E
100
AcDbEntity
  8
HILF
100
AcDbLine
 10
840.0
 20
0.0
 30
0.0
 11
840.0
 21
594.0
 31
0.0
  0
LINE
  5
89
330
1E
100
AcDbEntity
  8
HILF
100
AcDbLine
 10
840.0
 20
594.0
 30
0.0
 11
0.0
 21
594.0
 31
0.0
  0
LINE
  5
8B
330
1E
100
AcDbEntity
  8
STEMPEL
100
AcDbLine
 10
830.0
 20
584.0
 30
0.0
 11
40.0
 21
584.0
 31
0.0
  0
LINE
  5
8D
330
1E
100
AcDbEntity
  8
STEMPEL
100
AcDbLine
 10
40.0
 20
10.0
 30
0.0
 11
830.0
 21
10.0
 31
0.0
  0
LINE
  5
8E
330
1E
100
AcDbEntity
  8
STEMPEL
100
AcDbLine
 10
830.0
 20
10.0
 30
0.0
 11
830.0
 21
584.0
 31
0.0
  0
TEXT
  5
8F
330
1E
100
AcDbEntity
  8
TEXT
 62
     1
100
AcDbText
 10
655.0390572473189
 20
87.37343075652544
 30
0.0
 40
7.0
  1
Balkonablauf DN50
 41
0.8
  7
GREEKS
100
AcDbText
  0
TEXT
  5
90
330
1E
100
AcDbEntity
  8
TEXT
 62
     1
100
AcDbText
 10
766.6628088850802
 20
87.37343075652544
 30
0.0
 40
7.0
  1
15476050W
 41
0.8
  7
GREEKS
 72
     1
 11
790.1294755517469
 21
87.37343075652544
 31
0.0
100
AcDbText
  0
TEXT
  5
91
330
1E
100
AcDbEntity
  8
TEXT
100
AcDbText
 10
618.509022641583
 20
102.83989611379
 30
0.0
 40
5.0
  1
Zul.Abw.
 41
0.8
  7
GREEKS
100
AcDbText
  0
TEXT
  5
93
330
1E
100
AcDbEntity
  8
TEXT
100
AcDbText
 10
590.4612856559488
 20
63.1508587612022
 30
0.0
 40
4.0
  1
17.08.
 41
0.8
  7
GREEKS
 72
     1
 11
597.1660475607107
 21
63.1508587612022
 31
0.0
100
AcDbText
  0
TEXT
  5
94
330
1E
100
AcDbEntity
  8
TEXT
100
AcDbText
 10
624.023175322661
 20
62.94297655165468
 30
0.0
 40
4.0
  1
Koeh
 41
0.8
  7
GREEKS
 72
     1
 11
629.2803181798038
 21
62.94297655165468
 31
0.0
100
AcDbText
  0
TEXT
  5
95
330
1E
100
AcDbEntity
  8
TEXT
100
AcDbText
 10
654.3410940884992
 20
72.10021383107525
 30
0.0
 40
5.0
  1
Kompletteinheit
 41
0.8
  7
GREEKS
100
AcDbText
  0
TEXT
  5
97
330
1E
100
AcDbEntity
  8
TEXT
100
AcDbText
 10
654.3410940884992
 20
52.59097337846058
 30
0.0
 40
5.0
  1
EDV-Art.Nr. 15476.050X
 41
0.8
  7
GREEKS
100
AcDbText
  0
TEXT
  5
98
330
1E
100
AcDbEntity
  8
TEXT
100
AcDbText
 10
654.1676050109348
 20
43.31127624791508
 30
0.0
 40
4.0
  1
15476050W.DWG
 41
0.8
  7
GREEKS
100
AcDbText
  0
TEXT
  5
99
330
1E
100
AcDbEntity
  8
TEXT
 62
     1
100
AcDbText
 10
582.7034912034222
 20
87.47077088414977
 30
0.0
 40
7.0
  1
1:2
 41
0.8
  7
GREEKS
100
AcDbText
  0
TEXT
  5
9A
330
1E
100
AcDbEntity
  8
TEXT
100
AcDbText
 10
470.0441139350127
 20
114.1143585051043
 30
0.0
 40
5.0
  1
Erstellt mit AUTOCAD 2004
 41
0.8
  7
GREEKS
100
AcDbText
  0
INSERT
  5
9B
330
1E
100
AcDbEntity
  8
HILF
100
AcDbBlockReference
  2
LORO
 10
573.0624985962354
 20
36.9805930029896
 30
0.0
 41
2.0
 42
2.0
 43
2.0
  0
LINE
  5
9C
330
1E
100
AcDbEntity
  8
BEM
100
AcDbLine
 10
456.0
 20
0.0
 30
0.0
 11
456.0
 21
10.0
 31
0.0
  0
LINE
  5
13E
330
1E
100
AcDbEntity
  8
HILF
100
AcDbLine
 10
0.0
 20
0.0
 30
0.0
 11
0.0
 21
594.0
 31
0.0
  0
LINE
  5
13F
330
1E
100
AcDbEntity
  8
STEMPEL
100
AcDbLine
 10
40.0
 20
10.0
 30
0.0
 11
40.0
 21
584.0
 31
0.0
  0
LINE
  5
14A
330
1E
100
AcDbEntity
  8
HILF
100
AcDbLine
 10
0.0
 20
297.0
 30
0.0
 11
40.0
 21
297.0
 31
0.0
  0
TEXT
  5
15B
330
1E
100
AcDbEntity
  8
BEM
100
AcDbText
 10
837.3022923857165
 20
10.16790107998861
 30
0.0
 40
4.0
  1
Diese Zeichnung ist urheberrechtlich geschützt und bleibt unser Eigentum. Sie darf weder ganz noch teilweise verfielfältigt und nicht an Dritte weitergegeben werden.
 50
90.0
 41
0.8
  7
GREEKS
100
AcDbText
  0
LINE
  5
4D8
330
1E
100
AcDbEntity
  8
STEMPEL
100
AcDbLine
 10
423.8919757877624
 20
313.1869291183419
 30
0.0
 11
425.3919757877624
 21
313.1869291183419
 31
0.0
  0
LINE
  5
4D9
330
1E
100
AcDbEntity
  8
STEMPEL
100
AcDbLine
 10
323.8919757877625
 20
313.1869291183419
 30
0.0
 11
322.3919757877625
 21
313.1869291183419
 31
0.0
  0
LINE
  5
4E0
102
{ACAD_REACTORS
330
81A
102
}
330
1E
100
AcDbEntity
  8
STEMPEL
100
AcDbLine
 10
619.2085974853086
 20
293.7143837096979
 30
0.0
 11
625.1729018766398
 21
292.8761553921211
 31
0.0
  0
LINE
  5
4E1
102
{ACAD_REACTORS
330
81A
102
}
330
1E
100
AcDbEntity
  8
STEMPEL
100
AcDbLine
 10
619.287101419673
 20
295.2123280118298
 30
0.0
 11
625.2514058110043
 21
294.3740996942529
 31
0.0
  0
LINE
  5
4E3
102
{ACAD_REACTORS
330
81A
102
}
330
1E
100
AcDbEntity
  8
STEMPEL
100
AcDbLine
 10
619.2871014196732
 20
295.2123280118298
 30
0.0
 11
581.1419757877624
 21
297.2114293366707
 31
0.0
  0
LINE
  5
4E7
102
{ACAD_REACTORS
330
81A
102
}
330
1E
100
AcDbEntity
  8
STEMPEL
100
AcDbLine
 10
616.5917996731614
 20
243.7829069719691
 30
0.0
 11
622.6110496988852
 21
243.9931038146307
 31
0.0
  0
LINE
  5
4E8
102
{ACAD_REACTORS
330
81A
102
}
330
1E
100
AcDbEntity
  8
STEMPEL
100
AcDbLine
 10
616.513295738797
 20
242.2849626698373
 30
0.0
 11
622.5325457645208
 21
242.4951595124989
 31
0.0
  0
LINE
  5
4E9
102
{ACAD_REACTORS
330
81A
102
}
330
1E
100
AcDbEntity
  8
STEMPEL
100
AcDbLine
 10
616.513295738797
 20
242.2849626698373
 30
0.0
 11
581.1419757877624
 21
244.138694998781
 31
0.0
  0
LINE
  5
4EB
102
{ACAD_REACTORS
330
81A
102
}
330
1E
100
AcDbEntity
  8
STEMPEL
100
AcDbLine
 10
625.2514058110041
 20
294.3740996942529
 30
0.0
 11
622.5325457645208
 21
242.4951595124989
 31
0.0
  0
LINE
  5
4EC
330
1E
100
AcDbEntity
  8
HILF
100
AcDbLine
 10
619.1297936786686
 20
292.2107175036829
 30
0.0
 11
616.6706034798017
 21
245.2865731779841
 31
0.0
  0
LINE
  5
4ED
330
1E
100
AcDbEntity
  8
STEMPEL
100
AcDbLine
 10
488.8919757877624
 20
336.9346296033758
 30
0.0
 11
488.2580483951514
 21
335.5751679228208
 31
0.0
  0
LINE
  5
4F0
330
1E
100
AcDbEntity
  8
STEMPEL
100
AcDbLine
 10
488.8919757877624
 20
336.9346296033758
 30
0.0
 11
481.386201565979
 21
340.4346296033758
 31
0.0
  0
LINE
  5
4F1
330
1E
100
AcDbEntity
  8
STEMPEL
100
AcDbLine
 10
488.2580483951514
 20
335.5751679228208
 30
0.0
 11
481.0536595720146
 21
338.9346296033758
 31
0.0
  0
ARC
  5
4F2
330
1E
100
AcDbEntity
  8
STEMPEL
100
AcDbCircle
 10
444.9213335628575
 20
336.9346296033758
 30
0.0
 40
2.0
100
AcDbArc
 50
90.0
 51
134.9999999999997
  0
POINT
  5
4F3
330
1E
100
AcDbEntity
  8
STEMPEL
100
AcDbPoint
 10
438.2056842867471
 20
340.4346296033758
 30
0.0
  0
LINE
  5
4F4
330
1E
100
AcDbEntity
  8
STEMPEL
100
AcDbLine
 10
443.5071200004844
 20
338.3488431657489
 30
0.0
 11
441.5922462663314
 21
336.4339694315961
 31
0.0
  0
LINE
  5
4F5
330
1E
100
AcDbEntity
  8
MITTEL
100
AcDbLine
 10
437.5315860945517
 20
345.4346296033758
 30
0.0
 11
437.5315860945517
 21
330.5751679228209
 31
0.0
  0
LINE
  5
4F7
330
1E
100
AcDbEntity
  8
STEMPEL
100
AcDbLine
 10
438.2056842867471
 20
338.9346296033759
 30
0.0
 11
481.0536595720146
 21
338.9346296033758
 31
0.0
  0
ARC
  5
4FB
330
1E
100
AcDbEntity
  8
STEMPEL
100
AcDbCircle
 10
438.2056842867471
 20
332.4346296033758
 30
0.0
 40
8.0
100
AcDbArc
 50
134.9999999999997
 51
134.9999999999997
  0
POINT
  5
4FC
330
1E
100
AcDbEntity
  8
STEMPEL
100
AcDbPoint
 10
432.5488300372548
 20
338.0914838528682
 30
0.0
  0
POINT
  5
4FD
330
1E
100
AcDbEntity
  8
STEMPEL
100
AcDbPoint
 10
430.8919757877624
 20
336.4346296033758
 30
0.0
  0
LINE
  5
4FE
330
1E
100
AcDbEntity
  8
STEMPEL
100
AcDbLine
 10
433.241780941157
 20
336.6631144132107
 30
0.0
 11
433.4709259227716
 21
336.433969431596
 31
0.0
  0
LINE
  5
4FF
330
1E
100
AcDbEntity
  8
STEMPEL
100
AcDbLine
 10
433.6094902090346
 20
337.0308236810883
 30
0.0
 11
431.4802349948066
 21
334.9015684668604
 31
0.0
  0
LINE
  5
500
330
1E
100
AcDbEntity
  8
STEMPEL
100
AcDbLine
 10
432.5488300372548
 20
338.0914838528682
 30
0.0
 11
430.8919757877624
 21
336.4346296033757
 31
0.0
  0
ARC
  5
501
330
1E
100
AcDbEntity
  8
STEMPEL
100
AcDbCircle
 10
403.8919757877624
 20
322.4346296033758
 30
0.0
 40
23.5
100
AcDbArc
 50
353.3741904351755
 51
16.65737706073938
  0
LINE
  5
502
330
1E
100
AcDbEntity
  8
STEMPEL
100
AcDbLine
 10
424.4968857869144
 20
330.3180098382017
 30
0.0
 11
424.9687677952244
 21
328.7408835369078
 31
0.0
  0
LINE
  5
503
330
1E
100
AcDbEntity
  8
STEMPEL
100
AcDbLine
 10
424.3919757877624
 20
331.1207702650129
 30
0.0
 11
424.3919757877624
 21
331.0346296033758
 31
0.0
  0
ARC
  5
504
330
1E
100
AcDbEntity
  8
STEMPEL
100
AcDbCircle
 10
426.8919757877624
 20
331.0346296033758
 30
0.0
 40
2.5
100
AcDbArc
 50
180.0
 51
196.6573770607382
  0
ARC
  5
505
330
1E
100
AcDbEntity
  8
STEMPEL
100
AcDbCircle
 10
426.8919757877624
 20
331.1207702650129
 30
0.0
 40
2.5
100
AcDbArc
 50
160.2500772043241
 51
180.0
  0
ARC
  5
506
330
1E
100
AcDbEntity
  8
STEMPEL
100
AcDbCircle
 10
426.8919757877624
 20
331.0346296033758
 30
0.0
 40
1.0
100
AcDbArc
 50
184.5397086345389
 51
196.6573770607393
  0
ARC
  5
507
330
1E
100
AcDbEntity
  8
STEMPEL
100
AcDbCircle
 10
428.3919757877624
 20
330.8302735271179
 30
0.0
 40
2.5
100
AcDbArc
 50
155.3800226712837
 51
177.1292868703559
  0
LINE
  5
508
330
1E
100
AcDbEntity
  8
STEMPEL
100
AcDbLine
 10
426.4058217957331
 20
329.1708553960122
 30
0.0
 11
425.9339397874232
 21
330.7479816973061
 31
0.0
  0
ARC
  5
509
330
1E
100
AcDbEntity
  8
STEMPEL
100
AcDbCircle
 10
403.8919757877624
 20
322.4346296033758
 30
0.0
 40
22.0
100
AcDbArc
 50
353.3741904351755
 51
16.65737706073938
  0
ARC
  5
50A
330
1E
100
AcDbEntity
  8
STEMPEL
100
AcDbCircle
 10
430.8919757877624
 20
329.6846296033758
 30
0.0
 40
6.75
100
AcDbArc
 50
90.0
 51
160.2500772043246
  0
ARC
  5
50B
330
1E
100
AcDbEntity
  8
STEMPEL
100
AcDbCircle
 10
430.8919757877624
 20
329.6846296033758
 30
0.0
 40
5.25
100
AcDbArc
 50
83.56653354842034
 51
155.3800226712831
  0
LINE
  5
50F
102
{ACAD_REACTORS
330
7FB
102
}
330
1E
100
AcDbEntity
  8
STEMPEL
100
AcDbLine
 10
425.3919757877624
 20
305.3739409600045
 30
0.0
 11
425.3919757877624
 21
314.8917513557003
 31
0.0
  0
LINE
  5
510
330
1E
100
AcDbEntity
  8
STEMPEL
100
AcDbLine
 10
423.8919757877624
 20
305.452552628929
 30
0.0
 11
423.8919757877624
 21
313.186929118342
 31
0.0
  0
POINT
  5
511
330
1E
100
AcDbEntity
  8
STEMPEL
100
AcDbPoint
 10
422.8984503501847
 20
314.3110611811203
 30
0.0
  0
LINE
  5
512
330
1E
100
AcDbEntity
  8
STEMPEL
100
AcDbLine
 10
422.8919757877624
 20
314.3051107923686
 30
0.0
 11
422.8919757877624
 21
312.378899379397
 31
0.0
  0
POINT
  5
513
330
1E
100
AcDbEntity
  8
STEMPEL
100
AcDbPoint
 10
422.8984503501847
 20
314.3110611811203
 30
0.0
  0
LINE
  5
514
330
1E
100
AcDbEntity
  8
STEMPEL
100
AcDbLine
 10
422.8919757877624
 20
314.3051107923681
 30
0.0
 11
422.8919757877624
 21
312.378899379397
 31
0.0
  0
ARC
  5
515
102
{ACAD_REACTORS
330
7FB
102
}
330
1E
100
AcDbEntity
  8
SCHRAFF
100
AcDbCircle
 10
425.3919757877624
 20
305.3739409600044
 30
0.0
 40
3.0
100
AcDbArc
 50
357.000000000001
 51
90.0
  0
ARC
  5
517
330
1E
100
AcDbEntity
  8
SCHRAFF
100
AcDbCircle
 10
423.5466494144033
 20
315.1999416862941
 30
0.0
 40
3.214052882874523
100
AcDbArc
 50
305.0396469351304
 51
27.31704230804165
  0
ARC
  5
51B
330
1E
100
AcDbEntity
  8
STEMPEL
100
AcDbCircle
 10
416.8051473579072
 20
320.9346296033758
 30
0.0
 40
10.5
100
AcDbArc
 50
305.4293005533256
 51
353.3741904351755
  0
ARC
  5
51C
330
1E
100
AcDbEntity
  8
STEMPEL
100
AcDbCircle
 10
416.8051473579072
 20
320.9346296033758
 30
0.0
 40
9.0
100
AcDbArc
 50
312.5562941594319
 51
353.3741904351755
  0
LINE
  5
52D
330
1E
100
AcDbEntity
  8
STEMPEL
100
AcDbLine
 10
323.8919757877625
 20
302.9346296033759
 30
0.0
 11
323.8919757877625
 21
313.186929118342
 31
0.0
  0
LINE
  5
52E
330
1E
100
AcDbEntity
  8
STEMPEL
100
AcDbLine
 10
322.3919757877625
 20
302.9346296033759
 30
0.0
 11
322.3919757877625
 21
314.8917513557005
 31
0.0
  0
LINE
  5
52F
330
1E
100
AcDbEntity
  8
STEMPEL
100
AcDbLine
 10
324.8919757877626
 20
314.3051107923681
 30
0.0
 11
324.8919757877625
 21
312.378899379397
 31
0.0
  0
ARC
  5
530
330
1E
100
AcDbEntity
  8
SCHRAFF
100
AcDbCircle
 10
324.6262645623542
 20
315.1173083806615
 30
0.0
 40
3.458881841076094
100
AcDbArc
 50
156.3279041877065
 51
229.762537516556
  0
LINE
  5
533
330
1E
100
AcDbEntity
  8
STEMPEL
100
AcDbLine
 10
324.8919757877625
 20
314.3051107923681
 30
0.0
 11
324.8919757877625
 21
312.3788993793969
 31
0.0
  0
LINE
  5
538
330
1E
100
AcDbEntity
  8
STEMPEL
100
AcDbLine
 10
422.8919757877624
 20
314.3051107923681
 30
0.0
 11
410.3919757877624
 21
314.3051107923681
 31
0.0
  0
LINE
  5
53B
330
1E
100
AcDbEntity
  8
STEMPEL
100
AcDbLine
 10
430.8919757877624
 20
336.4346296033758
 30
0.0
 11
429.0951748242918
 21
336.4346296033759
 31
0.0
  0
LINE
  5
53D
330
1E
100
AcDbEntity
  8
STEMPEL
100
AcDbLine
 10
422.8919757877624
 20
314.305110792368
 30
0.0
 11
410.3919757877624
 21
314.3051107923681
 31
0.0
  0
LINE
  5
53E
330
1E
100
AcDbEntity
  8
STEMPEL
100
AcDbLine
 10
422.8919757877624
 20
312.378899379397
 30
0.0
 11
410.3919757877624
 21
312.378899379397
 31
0.0
  0
LINE
  5
540
330
1E
100
AcDbEntity
  8
STEMPEL
100
AcDbLine
 10
432.153834450767
 20
335.5751679228208
 30
0.0
 11
488.2580483951514
 21
335.5751679228208
 31
0.0
  0
LINE
  5
541
330
1E
100
AcDbEntity
  8
STEMPEL
100
AcDbLine
 10
433.4715860945517
 20
336.4346296033759
 30
0.0
 11
441.5915860945516
 21
336.4346296033759
 31
0.0
  0
ARC
  5
542
330
1E
100
AcDbEntity
  8
STEMPEL
100
AcDbCircle
 10
438.2056842867471
 20
332.4346296033758
 30
0.0
 40
8.0
100
AcDbArc
 50
90.0
 51
135.0
  0
ARC
  5
543
330
1E
100
AcDbEntity
  8
STEMPEL
100
AcDbCircle
 10
438.2056842867471
 20
332.4346296033758
 30
0.0
 40
6.5
100
AcDbArc
 50
90.0
 51
135.0
  0
LINE
  5
551
330
1E
100
AcDbEntity
  8
MITTEL
100
AcDbLine
 10
283.8919757877625
 20
345.4346296033757
 30
0.0
 11
283.8919757877625
 21
330.5751679228208
 31
0.0
  0
LINE
  5
567
330
1E
100
AcDbEntity
  8
STEMPEL
100
AcDbLine
 10
543.8919757877624
 20
340.4346296033758
 30
0.0
 11
522.8872509679982
 21
340.4346296033758
 31
0.0
  0
ARC
  5
568
102
{ACAD_REACTORS
330
7FB
102
}
330
1E
100
AcDbEntity
  8
SCHRAFF
100
AcDbCircle
 10
389.7161537381455
 20
255.9094381486078
 30
0.0
 40
3.688215779727094
100
AcDbArc
 50
227.4977429553032
 51
328.9182280035324
  0
ARC
  5
56A
102
{ACAD_REACTORS
330
7FB
102
}
330
1E
100
AcDbEntity
  8
STEMPEL
100
AcDbCircle
 10
373.8919757877625
 20
302.9346296033759
 30
0.0
 40
51.5
100
AcDbArc
 50
180.0
 51
288.6445610304392
  0
ARC
  5
56B
330
1E
100
AcDbEntity
  8
STEMPEL
100
AcDbCircle
 10
373.8919757877625
 20
302.9346296033759
 30
0.0
 40
50.0
100
AcDbArc
 50
180.0
 51
286.3446251865985
  0
LINE
  5
56D
102
{ACAD_REACTORS
330
81A
102
}
330
1E
100
AcDbEntity
  8
STEMPEL
100
AcDbLine
 10
387.5277609874697
 20
254.285586034094
 30
0.0
 11
420.8591952960427
 21
305.6114939195529
 31
0.0
  0
LINE
  5
56E
330
1E
100
AcDbEntity
  8
MITTEL
100
AcDbLine
 10
373.8919757877625
 20
446.4346296033757
 30
0.0
 11
373.8919757877625
 21
246.4346296033759
 31
0.0
  0
LINE
  5
56F
102
{ACAD_REACTORS
330
81A
102
}
330
1E
100
AcDbEntity
  8
STEMPEL
100
AcDbLine
 10
390.3563366299855
 20
254.1373466661357
 30
0.0
 11
385.8093888059499
 21
254.3756421041092
 31
0.0
  0
LINE
  5
572
102
{ACAD_REACTORS
330
81A
102
}
330
1E
100
AcDbEntity
  8
STEMPEL
100
AcDbLine
 10
619.2085974853086
 20
293.7143837096979
 30
0.0
 11
419.9158528156115
 21
304.1588738850589
 31
0.0
  0
LINE
  5
573
102
{ACAD_REACTORS
330
81A
102
}
330
1E
100
AcDbEntity
  8
STEMPEL
100
AcDbLine
 10
616.5917996731614
 20
243.7829069719691
 30
0.0
 11
388.4711034679011
 21
255.7382060685881
 31
0.0
  0
LINE
  5
574
330
1E
100
AcDbEntity
  8
MITTEL
100
AcDbLine
 10
628.8171160378865
 20
268.1765139402093
 30
0.0
 11
373.8919757877625
 21
281.5365744241361
 31
0.0
  0
LINE
  5
575
102
{ACAD_REACTORS
330
7FB
330
81A
102
}
330
1E
100
AcDbEntity
  8
STEMPEL
100
AcDbLine
 10
581.1419757877624
 20
297.2114293366707
 30
0.0
 11
420.8591952960427
 21
305.6114939195529
 31
0.0
  0
LINE
  5
576
102
{ACAD_REACTORS
330
7FB
330
81A
102
}
330
1E
100
AcDbEntity
  8
STEMPEL
100
AcDbLine
 10
581.1419757877624
 20
244.138694998781
 30
0.0
 11
390.3563366299855
 21
254.1373466661357
 31
0.0
  0
HATCH
  5
7F4
330
1E
100
AcDbEntity
  8
SCHRAFF
100
AcDbHatch
 10
0.0
 20
0.0
 30
0.0
210
0.0
220
0.0
230
1.0
  2
_USER
 70
     0
 71
     0
 91
        4
 92
        7
 72
     1
 73
     1
 93
        3
 10
426.4022735965666
 20
316.6749150637345
 42
-0.0489139296699631
 10
425.3919757877624
 20
314.8917513557005
 42
0.0
 10
425.3919757877624
 20
312.5684199763895
 42
0.3752648671072384
 97
        0
 92
        7
 72
     1
 73
     1
 93
        3
 10
321.4584191224322
 20
316.5060556072264
 42
0.3318545218697995
 10
322.3919757877625
 20
312.4768884780211
 42
0.0
 10
322.3919757877625
 20
314.8917513557003
 42
-0.0444880500239099
 97
        0
 92
        7
 72
     1
 73
     1
 93
        3
 10
323.8919757877625
 20
313.1869291183419
 42
-0.0542250436313249
 10
322.3919757877625
 20
314.8917513557003
 42
0.0
 10
322.3919757877625
 20
313.1869291183419
 42
0.0
 97
        0
 92
        7
 72
     1
 73
     1
 93
        3
 10
425.3919757877624
 20
314.8917513557004
 42
-0.0542250436313268
 10
423.8919757877623
 20
313.1869291183419
 42
0.0
 10
425.3919757877624
 20
313.1869291183418
 42
0.0
 97
        0
 75
     0
 76
     0
 52
0.0
 41
0.1
 77
     0
 78
     1
 53
0.0
 43
145.6431894750449
 44
-147.9065923803425
 45
0.0
 46
0.1
 79
     0
 47
0.1817110238822445
 98
        4
 10
426.1441290407037
 20
314.7172307668638
 10
321.9500679399252
 20
315.2623638715663
 10
322.677427896705
 20
313.445253522558
 10
425.0530901971451
 20
313.6269645574589
  0
HATCH
  5
7FB
330
1E
100
AcDbEntity
  8
SCHRAFF
100
AcDbHatch
 10
0.0
 20
0.0
 30
0.0
210
0.0
220
0.0
230
1.0
  2
_USER
 70
     0
 71
     1
 91
        2
 92
        7
 72
     1
 73
     1
 93
        3
 10
425.3919757877624
 20
308.3739409600044
 42
0.0
 10
425.3919757877624
 20
305.3739409600044
 42
0.0
 10
428.3878643920261
 20
305.2169330912755
 42
0.4296339059668312
 97
        3
330
50F
330
575
330
515
 92
        7
 72
     1
 73
     1
 93
        3
 10
392.8748574330601
 20
254.0053565837684
 42
0.0
 10
390.3563366299855
 20
254.1373466661357
 42
-0.0158878150574416
 10
387.2243241571599
 20
253.1902983991368
 42
0.4738753808361831
 97
        3
330
576
330
56A
330
568
 75
     0
 76
     0
 52
0.0
 41
0.1
 77
     0
 78
     1
 53
0.0
 43
145.6431894750449
 44
-147.9065923803425
 45
0.0
 46
0.1
 79
     0
 47
0.1817110238822445
 98
        2
 10
427.4170040528193
 20
306.3585231614259
 10
390.1398974173662
 20
252.7537706644021
  0
HATCH
  5
80A
330
1E
100
AcDbEntity
  8
SCHRAFF
100
AcDbHatch
 10
0.0
 20
0.0
 30
0.0
210
0.0
220
0.0
230
1.0
  2
_USER
 70
     0
 71
     0
 91
        3
 92
        7
 72
     0
 73
     1
 93
        4
 10
423.8919757877624
 20
305.452552628929
 10
425.3919757877624
 20
305.3739409600044
 10
425.3919757877624
 20
313.186929118342
 10
423.8919757877624
 20
313.186929118342
 97
        0
 92
        7
 72
     1
 73
     1
 93
        4
 10
390.3563366299854
 20
254.1373466661357
 42
0.0
 10
385.8093888059499
 20
254.3756421041092
 42
-0.0602388900209463
 10
373.8919757877625
 20
252.9346296033759
 42
0.0
 10
373.8919757877625
 20
251.4346296033759
 42
0.0815321889103924
 97
        0
 92
        7
 72
     1
 73
     1
 93
        6
 10
323.8919757877625
 20
302.9346296033758
 42
0.0
 10
323.8919757877625
 20
313.1869291183419
 42
0.0
 10
322.3919757877625
 20
313.1869291183419
 42
0.0
 10
322.3919757877625
 20
302.9346296033759
 42
0.4142135623730951
 10
373.8919757877625
 20
251.4346296033759
 42
0.0
 10
373.8919757877625
 20
252.9346296033759
 42
-0.4142135623730948
 97
        0
 75
     0
 76
     0
 52
45.0
 41
2.0
 77
     0
 78
     1
 53
45.0
 43
145.6431894750449
 44
-147.9065923803425
 45
-1.414213562373094
 46
1.414213562373095
 79
     0
 47
0.1817110238822445
 98
        3
 10
424.5075729585874
 20
310.7195879990456
 10
380.3205631078899
 20
252.2086375596996
 10
368.1373127595179
 20
252.5720596295012
  0
HATCH
  5
81A
330
1E
100
AcDbEntity
  8
SCHRAFF
100
AcDbHatch
 10
0.0
 20
0.0
 30
0.0
210
0.0
220
0.0
230
1.0
  2
_USER
 70
     0
 71
     1
 91
        2
 92
        7
 72
     0
 73
     1
 93
        7
 10
420.8591952960427
 20
305.6114939195529
 10
419.9158528156115
 20
304.1588738850589
 10
619.2085974853084
 20
293.7143837096979
 10
625.1729018766397
 20
292.8761553921212
 10
625.251405811004
 20
294.3740996942529
 10
619.2871014196732
 20
295.2123280118298
 10
581.1419757877624
 20
297.2114293366707
 97
        7
330
56D
330
572
330
4E0
330
4EB
330
4E1
330
4E3
330
575
 92
        7
 72
     0
 73
     1
 93
        8
 10
581.1419757877624
 20
244.138694998781
 10
616.5132957387973
 20
242.2849626698373
 10
622.5325457645206
 20
242.4951595124988
 10
622.6110496988852
 20
243.9931038146307
 10
616.5917996731614
 20
243.7829069719691
 10
388.4711034679011
 20
255.7382060685881
 10
387.5277609874697
 20
254.285586034094
 10
390.3563366299855
 20
254.1373466661357
 97
        8
330
56D
330
56F
330
576
330
4E9
330
4E8
330
4EB
330
4E7
330
573
 75
     0
 76
     0
 52
135.0
 41
2.0
 77
     0
 78
     1
 53
135.0
 43
145.6431894750449
 44
-147.9065923803425
 45
-1.414213562373095
 46
-1.414213562373094
 79
     0
 47
0.5139078261329404
 98
        2
 10
524.9727350682515
 20
299.4816505530678
 10
420.0613895788174
 20
253.2299461294824
  0
LINE
  5
91A
330
1E
100
AcDbEntity
  8
STEMPEL
100
AcDbLine
 10
309.5782672887778
 20
338.9346296033759
 30
0.0
 11
291.2817232560683
 21
338.9346296033758
 31
0.0
  0
LINE
  5
91B
330
1E
100
AcDbEntity
  8
STEMPEL
100
AcDbLine
 10
259.5259031803735
 20
335.5751679228208
 30
0.0
 11
266.7302920035104
 21
338.9346296033758
 31
0.0
  0
LINE
  5
91C
330
1E
100
AcDbEntity
  8
STEMPEL
100
AcDbLine
 10
258.8919757877625
 20
336.9346296033758
 30
0.0
 11
266.397750009546
 21
340.4346296033758
 31
0.0
  0
LINE
  5
91D
330
1E
100
AcDbEntity
  8
STEMPEL
100
AcDbLine
 10
258.8919757877625
 20
336.9346296033758
 30
0.0
 11
259.5259031803735
 21
335.5751679228208
 31
0.0
  0
ARC
  5
91E
330
1E
100
AcDbEntity
  8
STEMPEL
100
AcDbCircle
 10
309.5782672887778
 20
332.4346296033758
 30
0.0
 40
6.5
100
AcDbArc
 50
44.99999999999752
 51
90.00000000000024
  0
ARC
  5
91F
330
1E
100
AcDbEntity
  8
STEMPEL
100
AcDbCircle
 10
309.5782672887778
 20
332.4346296033758
 30
0.0
 40
8.0
100
AcDbArc
 50
45.00000000000001
 51
90.0
  0
LINE
  5
920
330
1E
100
AcDbEntity
  8
STEMPEL
100
AcDbLine
 10
315.2351215382702
 20
338.0914838528682
 30
0.0
 11
316.8919757877625
 21
336.4346296033757
 31
0.0
  0
POINT
  5
921
330
1E
100
AcDbEntity
  8
STEMPEL
100
AcDbPoint
 10
315.2351215382701
 20
338.0914838528682
 30
0.0
  0
ARC
  5
922
330
1E
100
AcDbEntity
  8
STEMPEL
100
AcDbCircle
 10
309.5782672887778
 20
332.4346296033758
 30
0.0
 40
8.0
100
AcDbArc
 50
45.00000000000029
 51
45.00000000000029
  0
ARC
  5
923
330
1E
100
AcDbEntity
  8
STEMPEL
100
AcDbCircle
 10
316.8919757877625
 20
329.6846296033758
 30
0.0
 40
5.25
100
AcDbArc
 50
24.61997732871691
 51
96.43346645157615
  0
ARC
  5
924
330
1E
100
AcDbEntity
  8
STEMPEL
100
AcDbCircle
 10
316.8919757877625
 20
329.6846296033758
 30
0.0
 40
6.75
100
AcDbArc
 50
19.74992279567537
 51
90.0
  0
LINE
  5
925
330
1E
100
AcDbEntity
  8
STEMPEL
100
AcDbLine
 10
321.3781297797918
 20
329.1708553960122
 30
0.0
 11
321.8500117881017
 21
330.7479816973061
 31
0.0
  0
ARC
  5
926
330
1E
100
AcDbEntity
  8
STEMPEL
100
AcDbCircle
 10
319.3919757877625
 20
330.8302735271179
 30
0.0
 40
2.5
100
AcDbArc
 50
2.870713129644066
 51
24.61997732871628
  0
ARC
  5
927
330
1E
100
AcDbEntity
  8
STEMPEL
100
AcDbCircle
 10
320.8919757877625
 20
331.0346296033758
 30
0.0
 40
1.0
100
AcDbArc
 50
343.3426229392606
 51
355.4602913654612
  0
ARC
  5
928
330
1E
100
AcDbEntity
  8
STEMPEL
100
AcDbCircle
 10
320.8919757877625
 20
331.1207702650129
 30
0.0
 40
2.5
100
AcDbArc
 50
0.000000000000007
 51
19.74992279567586
  0
ARC
  5
929
330
1E
100
AcDbEntity
  8
STEMPEL
100
AcDbCircle
 10
320.8919757877625
 20
331.0346296033758
 30
0.0
 40
2.5
100
AcDbArc
 50
343.3426229392618
 51
0.000000000000007
  0
LINE
  5
92A
330
1E
100
AcDbEntity
  8
STEMPEL
100
AcDbLine
 10
323.3919757877625
 20
331.1207702650129
 30
0.0
 11
323.3919757877625
 21
331.0346296033758
 31
0.0
  0
LINE
  5
92B
330
1E
100
AcDbEntity
  8
STEMPEL
100
AcDbLine
 10
323.2870657886105
 20
330.3180098382017
 30
0.0
 11
322.8151837803005
 21
328.7408835369078
 31
0.0
  0
POINT
  5
92C
330
1E
100
AcDbEntity
  8
STEMPEL
100
AcDbPoint
 10
316.8919757877625
 20
336.4346296033758
 30
0.0
  0
ARC
  5
92D
330
1E
100
AcDbEntity
  8
STEMPEL
100
AcDbCircle
 10
343.8919757877625
 20
322.4346296033758
 30
0.0
 40
22.0
100
AcDbArc
 50
163.3426229392606
 51
186.6258095648245
  0
ARC
  5
92E
330
1E
100
AcDbEntity
  8
STEMPEL
100
AcDbCircle
 10
343.8919757877625
 20
322.4346296033758
 30
0.0
 40
23.5
100
AcDbArc
 50
163.3426229392606
 51
186.6258095648245
  0
ARC
  5
92F
330
1E
100
AcDbEntity
  8
STEMPEL
100
AcDbCircle
 10
330.9788042176178
 20
320.9346296033758
 30
0.0
 40
9.0
100
AcDbArc
 50
186.6258095648245
 51
227.4437058405681
  0
ARC
  5
930
330
1E
100
AcDbEntity
  8
STEMPEL
100
AcDbCircle
 10
330.9788042176178
 20
320.9346296033758
 30
0.0
 40
10.5
100
AcDbArc
 50
186.6258095648245
 51
234.5706994466745
  0
LINE
  5
931
330
1E
100
AcDbEntity
  8
STEMPEL
100
AcDbLine
 10
324.8919757877625
 20
314.3051107923681
 30
0.0
 11
324.8919757877625
 21
312.378899379397
 31
0.0
  0
POINT
  5
932
330
1E
100
AcDbEntity
  8
STEMPEL
100
AcDbPoint
 10
324.8855012253402
 20
314.3110611811203
 30
0.0
  0
LINE
  5
933
330
1E
100
AcDbEntity
  8
STEMPEL
100
AcDbLine
 10
324.8919757877625
 20
314.3051107923686
 30
0.0
 11
324.8919757877625
 21
312.378899379397
 31
0.0
  0
POINT
  5
934
330
1E
100
AcDbEntity
  8
STEMPEL
100
AcDbPoint
 10
324.8855012253401
 20
314.3110611811203
 30
0.0
  0
LINE
  5
936
330
1E
100
AcDbEntity
  8
STEMPEL
100
AcDbLine
 10
314.1744613664906
 20
337.0308236810881
 30
0.0
 11
316.3037165807188
 21
334.9015684668597
 31
0.0
  0
LINE
  5
937
330
1E
100
AcDbEntity
  8
STEMPEL
100
AcDbLine
 10
279.8319757877625
 20
336.4346296033758
 30
0.0
 11
287.9519757877624
 21
336.4346296033758
 31
0.0
  0
LINE
  5
938
330
1E
100
AcDbEntity
  8
STEMPEL
100
AcDbLine
 10
289.8675096936953
 20
338.3488431657489
 30
0.0
 11
287.9526359595423
 21
336.433969431596
 31
0.0
  0
ARC
  5
939
330
1E
100
AcDbEntity
  8
STEMPEL
100
AcDbCircle
 10
291.2817232560683
 20
336.9346296033757
 30
0.0
 40
2.0
100
AcDbArc
 50
90.0
 51
134.9999999999977
  0
ARC
  5
93A
330
1E
100
AcDbEntity
  8
STEMPEL
100
AcDbCircle
 10
276.5022283194566
 20
336.9346296033757
 30
0.0
 40
2.0
100
AcDbArc
 50
45.00000000000029
 51
90.0
  0
LINE
  5
93B
330
1E
100
AcDbEntity
  8
STEMPEL
100
AcDbLine
 10
277.9164418818298
 20
338.3488431657488
 30
0.0
 11
279.8313156159827
 21
336.433969431596
 31
0.0
  0
LINE
  5
93C
330
1E
100
AcDbEntity
  8
STEMPEL
100
AcDbLine
 10
288.8068495219154
 20
339.4095033375287
 30
0.0
 11
286.8919757877625
 21
337.4946296033758
 31
0.0
  0
ARC
  5
93D
330
1E
100
AcDbEntity
  8
STEMPEL
100
AcDbCircle
 10
291.2817232560683
 20
336.9346296033757
 30
0.0
 40
3.5
100
AcDbArc
 50
90.0
 51
134.9999999999997
  0
LINE
  5
93E
330
1E
100
AcDbEntity
  8
STEMPEL
100
AcDbLine
 10
278.9771020536095
 20
339.4095033375287
 30
0.0
 11
280.8919757877625
 21
337.4946296033758
 31
0.0
  0
ARC
  5
93F
330
1E
100
AcDbEntity
  8
STEMPEL
100
AcDbCircle
 10
276.5022283194566
 20
336.9346296033757
 30
0.0
 40
3.5
100
AcDbArc
 50
45.00000000000029
 51
90.0
  0
LINE
  5
940
330
1E
100
AcDbEntity
  8
STEMPEL
100
AcDbLine
 10
279.8313156159827
 20
336.433969431596
 30
0.0
 11
280.8919757877625
 21
337.4946296033758
 31
0.0
  0
LINE
  5
941
330
1E
100
AcDbEntity
  8
STEMPEL
100
AcDbLine
 10
280.8919757877625
 20
337.4946296033758
 30
0.0
 11
286.8919757877625
 21
337.4946296033758
 31
0.0
  0
LINE
  5
942
330
1E
100
AcDbEntity
  8
STEMPEL
100
AcDbLine
 10
286.8919757877625
 20
337.4946296033758
 30
0.0
 11
287.9526359595423
 21
336.433969431596
 31
0.0
  0
LINE
  5
944
330
1E
100
AcDbEntity
  8
STEMPEL
100
AcDbLine
 10
276.5022283194566
 20
338.9346296033758
 30
0.0
 11
266.7302920035104
 21
338.9346296033758
 31
0.0
  0
HATCH
  5
9A5
330
1E
100
AcDbEntity
  8
SCHRAFF
100
AcDbHatch
 10
0.0
 20
0.0
 30
0.0
210
0.0
220
0.0
230
1.0
  2
_USER
 70
     0
 71
     0
 91
        3
 92
        7
 72
     1
 73
     1
 93
        8
 10
481.386201565979
 20
340.4346296033758
 42
0.0
 10
438.2056842867471
 20
340.4346296033758
 42
0.0210937042129262
 10
437.5315860945517
 20
340.4061784884595
 42
0.0
 10
437.5315860945517
 20
338.8995806184476
 42
-0.0259793971817303
 10
438.2056842867474
 20
338.9346296033759
 42
0.0
 10
481.0536595720143
 20
338.9346296033758
 42
0.0
 10
488.2580483951514
 20
335.5751679228208
 42
0.0
 10
488.8919757877624
 20
336.9346296033758
 42
0.0
 97
        0
 92
        7
 72
     1
 73
     1
 93
       16
 10
437.5315860945518
 20
340.4061784884595
 42
0.1770756892303729
 10
432.5488300372546
 20
338.091483852868
 42
0.0
 10
430.8919757877624
 20
336.4346296033757
 42
0.3164988464831926
 10
424.5390346112931
 20
331.9655588895049
 42
0.0907302820398373
 10
424.3923468259755
 20
331.0776999341962
 42
0.0771412373566204
 10
424.4968857869143
 20
330.318009838202
 42
0.0
 10
424.9687677952244
 20
328.7408835369078
 42
-0.0728097721655519
 10
425.8919757877625
 20
322.4346296033758
 42
0.0
 10
427.3919757877624
 20
322.4346296033758
 42
0.0728097721655456
 10
426.4058217957333
 20
329.1708553960116
 42
0.0
 10
425.9339397874232
 20
330.7479816973061
 42
-0.0529226287086391
 10
425.8951130692362
 20
330.955479616562
 42
-0.0951853383424353
 10
426.1192499975687
 20
331.8717712383917
 42
-0.3240200234877804
 10
431.4802349948066
 20
334.9015684668604
 42
0.0
 10
433.6094902090346
 20
337.0308236810883
 42
-0.172043912052787
 10
437.5315860945517
 20
338.8995806184476
 42
0.0
 97
        0
 92
        7
 72
     1
 73
     1
 93
        6
 10
427.2350167030242
 20
319.7230911418371
 42
0.0289186054923408
 10
427.3919757877623
 20
322.4346296033758
 42
0.0
 10
425.8919757877625
 20
322.4346296033758
 42
-0.0289186054923377
 10
425.745035368008
 20
319.8961680649142
 42
-0.1800090156599683
 10
422.8919757877624
 20
314.3051107923681
 42
0.0
 10
422.8919757877624
 20
312.378899379397
 42
0.2123052470571922
 97
        0
 75
     0
 76
     0
 52
135.0
 41
2.0
 77
     0
 78
     1
 53
135.0
 43
145.6431894750449
 44
-147.9065923803425
 45
-1.414213562373095
 46
-1.414213562373094
 79
     0
 47
0.1180195295744155
 98
        3
 10
470.5683633943672
 20
339.7315396740289
 10
436.0822851909456
 20
339.1414409490906
 10
425.9254269906
 20
319.5501988248752
  0
LINE
  5
9A8
330
1E
100
AcDbEntity
  8
SCHRAFF
100
AcDbLine
 10
261.0686056447027
 20
336.294541896192
 30
0.0
 11
259.9398746657441
 21
337.4232728751506
 31
0.0
  0
LINE
  5
9A9
330
1E
100
AcDbEntity
  8
SCHRAFF
100
AcDbLine
 10
262.9975508486753
 20
337.1940238169657
 30
0.0
 11
261.8688198697165
 21
338.3227547959244
 31
0.0
  0
LINE
  5
9AA
330
1E
100
AcDbEntity
  8
SCHRAFF
100
AcDbLine
 10
264.9264960526476
 20
338.0935057377394
 30
0.0
 11
263.797765073689
 21
339.222236716698
 31
0.0
  0
LINE
  5
9AB
330
1E
100
AcDbEntity
  8
SCHRAFF
100
AcDbLine
 10
266.9137993117574
 20
338.9346296033758
 30
0.0
 11
265.7267102776615
 21
340.1217186374718
 31
0.0
  0
LINE
  5
9AC
330
1E
100
AcDbEntity
  8
SCHRAFF
100
AcDbLine
 10
269.7422264365036
 20
338.9346296033758
 30
0.0
 11
268.2422264365037
 21
340.4346296033757
 31
0.0
  0
LINE
  5
9AD
330
1E
100
AcDbEntity
  8
SCHRAFF
100
AcDbLine
 10
272.5706535612498
 20
338.9346296033758
 30
0.0
 11
271.0706535612499
 21
340.4346296033757
 31
0.0
  0
LINE
  5
9AE
330
1E
100
AcDbEntity
  8
SCHRAFF
100
AcDbLine
 10
275.3990806859961
 20
338.9346296033758
 30
0.0
 11
273.8990806859961
 21
340.4346296033758
 31
0.0
  0
LINE
  5
9AF
330
1E
100
AcDbEntity
  8
SCHRAFF
100
AcDbLine
 10
280.2797417992523
 20
336.8823956148656
 30
0.0
 11
276.7275078107423
 21
340.4346296033758
 31
0.0
  0
LINE
  5
9B2
330
1E
100
AcDbEntity
  8
SCHRAFF
100
AcDbLine
 10
288.5830426581515
 20
337.0643761302052
 30
0.0
 11
287.5223824863716
 21
338.125036301985
 31
0.0
  0
LINE
  5
9B3
330
1E
100
AcDbEntity
  8
SCHRAFF
100
AcDbLine
 10
290.0032205724325
 20
338.4726253406702
 30
0.0
 11
288.939999402987
 21
339.5358465101157
 31
0.0
  0
LINE
  5
9B4
330
1E
100
AcDbEntity
  8
SCHRAFF
100
AcDbLine
 10
292.3696434344731
 20
338.9346296033758
 30
0.0
 11
290.8696434344731
 21
340.4346296033758
 31
0.0
  0
LINE
  5
9B5
330
1E
100
AcDbEntity
  8
SCHRAFF
100
AcDbLine
 10
295.1980705592193
 20
338.9346296033758
 30
0.0
 11
293.6980705592193
 21
340.4346296033758
 31
0.0
  0
LINE
  5
9B6
330
1E
100
AcDbEntity
  8
SCHRAFF
100
AcDbLine
 10
298.0264976839655
 20
338.9346296033758
 30
0.0
 11
296.5264976839655
 21
340.4346296033758
 31
0.0
  0
LINE
  5
9B7
330
1E
100
AcDbEntity
  8
SCHRAFF
100
AcDbLine
 10
322.9796275582266
 20
316.8099268538609
 30
0.0
 11
320.6299207277185
 21
319.159633684369
 31
0.0
  0
LINE
  5
9B8
330
1E
100
AcDbEntity
  8
SCHRAFF
100
AcDbLine
 10
300.8549248087117
 20
338.9346296033758
 30
0.0
 11
299.3549248087118
 21
340.4346296033758
 31
0.0
  0
LINE
  5
9B9
330
1E
100
AcDbEntity
  8
SCHRAFF
100
AcDbLine
 10
321.96416949501
 20
320.6538120418237
 30
0.0
 11
320.3929101606056
 21
322.2250713762282
 31
0.0
  0
LINE
  5
9BA
330
1E
100
AcDbEntity
  8
SCHRAFF
100
AcDbLine
 10
303.6833519334579
 20
338.9346296033759
 30
0.0
 11
302.183351933458
 21
340.4346296033758
 31
0.0
  0
LINE
  5
9BB
330
1E
100
AcDbEntity
  8
SCHRAFF
100
AcDbLine
 10
321.9191264010573
 20
323.5272822605226
 30
0.0
 11
320.5240258561631
 21
324.9223828054168
 31
0.0
  0
LINE
  5
9BC
330
1E
100
AcDbEntity
  8
SCHRAFF
100
AcDbLine
 10
306.511779058204
 20
338.9346296033758
 30
0.0
 11
305.0117790582041
 21
340.4346296033758
 31
0.0
  0
LINE
  5
9BD
330
1E
100
AcDbEntity
  8
SCHRAFF
100
AcDbLine
 10
322.1959132623055
 20
326.0789225240206
 30
0.0
 11
320.9140874183523
 21
327.3607483679738
 31
0.0
  0
LINE
  5
9BE
330
1E
100
AcDbEntity
  8
SCHRAFF
100
AcDbLine
 10
309.3402061829502
 20
338.9346296033759
 30
0.0
 11
307.8402061829503
 21
340.4346296033758
 31
0.0
  0
LINE
  5
9BF
330
1E
100
AcDbEntity
  8
SCHRAFF
100
AcDbLine
 10
322.7133424362745
 20
328.3899204747978
 30
0.0
 11
321.5057786964184
 21
329.5974842146539
 31
0.0
  0
LINE
  5
9C0
330
1E
100
AcDbEntity
  8
SCHRAFF
100
AcDbLine
 10
313.4405803175513
 20
337.6626825935209
 30
0.0
 11
310.7557639395448
 21
340.3474989715274
 31
0.0
  0
LINE
  5
9C1
330
1E
100
AcDbEntity
  8
SCHRAFF
100
AcDbLine
 10
323.3505088009784
 20
330.58118123484
 30
0.0
 11
321.076403173404
 21
332.8552868624145
 31
0.0
  0
LINE
  5
9C2
330
1E
100
AcDbEntity
  8
SCHRAFF
100
AcDbLine
 10
320.0626330468002
 20
333.8690569890183
 30
0.0
 11
317.5269973677909
 21
336.4046926680276
 31
0.0
  0
TEXT
  5
A54
330
1E
100
AcDbEntity
  8
TEXT
100
AcDbText
 10
612.2898419893276
 20
90.20963860687919
 30
0.0
 40
4.0
  1
DIN EN1123-2
 41
0.8
  7
GREEKS
 72
     1
 11
629.2803181798038
 21
90.20963860687919
 31
0.0
100
AcDbText
  0
TEXT
  5
A55
330
1E
100
AcDbEntity
  8
TEXT
 62
     1
100
AcDbText
 10
790.1294755517469
 20
62.94704596956687
 30
0.0
 40
7.0
  1

 41
0.8
  7
GREEKS
 72
     1
 11
790.1294755517469
 21
62.94704596956687
 31
0.0
100
AcDbText
  0
TEXT
  5
A71
330
1E
100
AcDbEntity
  8
TEXT
 62
     1
100
AcDbText
 10
519.976304491703
 20
281.7783001241279
 30
0.0
 40
7.0
  1
DN50
 50
357.0
 41
0.8
  7
GREEKS
100
AcDbText
  0
LINE
  5
A7C
330
1E
100
AcDbEntity
  8
STEMPEL
100
AcDbLine
 10
328.8919757877624
 20
315.3051107923681
 30
0.0
 11
328.8919757877624
 21
314.305110792368
 31
0.0
  0
LINE
  5
A7D
330
1E
100
AcDbEntity
  8
STEMPEL
100
AcDbLine
 10
418.8919757877624
 20
315.3051107923681
 30
0.0
 11
418.8919757877625
 21
314.305110792368
 31
0.0
  0
LINE
  5
A7E
330
1E
100
AcDbEntity
  8
STEMPEL
100
AcDbLine
 10
543.8919757877624
 20
341.4346296033758
 30
0.0
 11
523.1552001604294
 21
341.4346296033758
 31
0.0
  0
LINE
  5
A7F
330
1E
100
AcDbEntity
  8
STEMPEL
100
AcDbLine
 10
203.8919757877625
 20
341.4346296033759
 30
0.0
 11
203.8919757877624
 21
340.4346296033758
 31
0.0
  0
LINE
  5
A80
330
1E
100
AcDbEntity
  8
STEMPEL
100
AcDbLine
 10
543.8919757877624
 20
341.4346296033758
 30
0.0
 11
543.8919757877624
 21
340.4346296033758
 31
0.0
  0
LINE
  5
A87
330
1E
100
AcDbEntity
  8
HILF
100
AcDbLine
 10
523.6910985452916
 20
343.4346296033758
 30
0.0
 11
522.3513525831361
 21
338.4346296033758
 31
0.0
  0
LINE
  5
A88
330
1E
100
AcDbEntity
  8
HILF
100
AcDbLine
 10
522.6910985452916
 20
343.4346296033758
 30
0.0
 11
521.351352583136
 21
338.4346296033758
 31
0.0
  0
LINE
  5
A89
330
1E
100
AcDbEntity
  8
STEMPEL
100
AcDbLine
 10
522.1552001604294
 20
341.4346296033757
 30
0.0
 11
410.3919757877624
 21
341.4346296033758
 31
0.0
  0
LINE
  5
A8A
330
1E
100
AcDbEntity
  8
STEMPEL
100
AcDbLine
 10
521.8872509679982
 20
340.4346296033758
 30
0.0
 11
438.2056842867471
 21
340.4346296033758
 31
0.0
  0
LINE
  5
A93
330
1E
100
AcDbEntity
  8
HILF
100
AcDbLine
 10
523.6910985452916
 20
343.4346296033758
 30
0.0
 11
522.3513525831361
 21
338.4346296033758
 31
0.0
  0
LINE
  5
A94
330
1E
100
AcDbEntity
  8
HILF
100
AcDbLine
 10
522.6910985452916
 20
343.4346296033758
 30
0.0
 11
521.351352583136
 21
338.4346296033758
 31
0.0
  0
LINE
  5
A95
330
1E
100
AcDbEntity
  8
HILF
100
AcDbLine
 10
226.1262187544869
 20
343.4346296033758
 30
0.0
 11
224.7864727923313
 21
338.4346296033758
 31
0.0
  0
LINE
  5
A96
330
1E
100
AcDbEntity
  8
HILF
100
AcDbLine
 10
225.1262187544869
 20
343.4346296033758
 30
0.0
 11
223.7864727923313
 21
338.4346296033758
 31
0.0
  0
LINE
  5
A97
330
1E
100
AcDbEntity
  8
STEMPEL
100
AcDbLine
 10
224.5903203696247
 20
341.4346296033759
 30
0.0
 11
203.8919757877625
 21
341.4346296033759
 31
0.0
  0
LINE
  5
A98
330
1E
100
AcDbEntity
  8
STEMPEL
100
AcDbLine
 10
224.3223711771936
 20
340.4346296033759
 30
0.0
 11
203.8919757877625
 21
340.4346296033758
 31
0.0
  0
HATCH
  5
AEA
330
1E
100
AcDbEntity
  8
SCHRAFF
100
AcDbHatch
 10
0.0
 20
0.0
 30
0.0
210
0.0
220
0.0
230
1.0
  2
NET
 70
     0
 71
     1
 91
        2
 92
        7
 72
     1
 73
     1
 93
        2
 10
418.1419757877624
 20
321.4346296033757
 42
1.0
 10
425.1419757877624
 20
321.4346296033757
 42
1.0
 97
        1
330
B00
 92
        7
 72
     1
 73
     1
 93
        2
 10
322.6419757877625
 20
321.4346296033758
 42
1.0
 10
329.6419757877625
 20
321.4346296033758
 42
1.0
 97
        1
330
B26
 75
     0
 76
     1
 52
45.0
 41
10.0
 77
     0
 78
     2
 53
45.0
 43
261.3919757877625
 44
98.67246165014092
 45
-0.8838834764831842
 46
0.8838834764831844
 79
     0
 53
135.0
 43
261.3919757877625
 44
98.67246165014092
 45
-0.8838834764831844
 46
-0.8838834764831842
 79
     0
 47
0.1673277598288079
 98
        2
 10
421.4428745529455
 20
322.1711549245031
 10
327.8405010507368
 20
322.5058104816458
  0
HATCH
  5
AEB
330
1E
100
AcDbEntity
  8
SCHRAFF
100
AcDbHatch
 10
0.0
 20
0.0
 30
0.0
210
0.0
220
0.0
230
1.0
  2
NET
 70
     0
 71
     0
 91
        3
 92
        7
 72
     1
 73
     1
 93
        5
 10
426.8919757877625
 20
341.4346296033758
 42
0.0
 10
425.8919757877624
 20
340.4346296033758
 42
0.0
 10
425.8919757877625
 20
336.8644140958393
 42
-0.222066610227725
 10
428.8919757877624
 20
338.4346296033758
 42
0.0
 10
431.8919757877623
 20
341.4346296033758
 42
0.0
 97
        0
 92
        7
 72
     1
 73
     1
 93
       19
 10
412.3919757877624
 20
336.3346296033757
 42
0.0
 10
412.3919757877624
 20
335.3346296033756
 42
0.0
 10
414.3919757877625
 20
329.8396747644665
 42
0.0
 10
414.3919757877625
 20
315.4346296033758
 42
0.0
 10
420.1419757877625
 20
315.4346296033758
 42
0.4142135623730868
 10
422.1419757877624
 20
317.4346296033757
 42
0.0
 10
419.1419757877624
 20
317.4346296033758
 42
-0.4142135623730951
 10
418.1419757877624
 20
318.4346296033758
 42
0.0
 10
418.1419757877624
 20
324.4346296033757
 42
-0.4142135623730951
 10
419.1419757877624
 20
325.4346296033757
 42
0.0
 10
422.1419757877624
 20
325.4346296033757
 42
0.0
 10
422.1419757877624
 20
330.4346296033758
 42
0.0
 10
423.8919757877623
 20
333.4657185166212
 42
0.0
 10
423.8919757877624
 20
340.4346296033758
 42
0.0
 10
422.8919757877624
 20
341.4346296033758
 42
0.0
 10
418.9419757877624
 20
341.4346296033758
 42
0.0
 10
418.9419757877624
 20
340.4346296033756
 42
0.0
 10
419.1419757877624
 20
340.088219441862
 42
0.0
 10
419.1419757877624
 20
336.3346296033758
 42
0.0
 97
        0
 92
        7
 72
     1
 73
     1
 93
       19
 10
335.3919757877624
 20
335.3346296033758
 42
0.0
 10
335.3919757877624
 20
336.3346296033758
 42
0.0
 10
328.6419757877624
 20
336.3346296033757
 42
0.0
 10
328.6419757877624
 20
340.088219441862
 42
0.0
 10
328.8419757877625
 20
340.4346296033758
 42
0.0
 10
328.8419757877625
 20
341.4346296033758
 42
0.0
 10
315.8919757877625
 20
341.4346296033758
 42
0.0
 10
318.8919757877624
 20
338.4346296033758
 42
-0.2558860185809181
 10
322.1755202055191
 20
336.438706794002
 42
0.0
 10
325.6419757877625
 20
330.4346296033756
 42
0.0
 10
325.6419757877625
 20
325.4346296033758
 42
0.0
 10
328.6419757877625
 20
325.4346296033757
 42
-0.4142135623730951
 10
329.6419757877625
 20
324.4346296033757
 42
0.0
 10
329.6419757877625
 20
318.4346296033757
 42
-0.4142135623730784
 10
328.6419757877625
 20
317.4346296033757
 42
0.0
 10
325.6419757877625
 20
317.4346296033758
 42
0.4142135623731117
 10
327.6419757877625
 20
315.4346296033757
 42
0.0
 10
333.3919757877625
 20
315.4346296033756
 42
0.0
 10
333.3919757877625
 20
329.8396747644665
 42
0.0
 97
        0
 75
     0
 76
     1
 52
45.0
 41
15.0
 77
     0
 78
     2
 53
45.0
 43
261.3919757877625
 44
98.67246165014092
 45
-1.325825214724776
 46
1.325825214724776
 79
     0
 53
135.0
 43
261.3919757877625
 44
98.67246165014092
 45
-1.325825214724776
 46
-1.325825214724776
 79
     0
 47
0.1673277598288079
 98
        3
 10
428.977949417607
 20
340.5772084687229
 10
417.7590601148153
 20
334.88806469684
 10
330.0173002466035
 20
331.3741816966129
  0
LINE
  5
AEC
330
1E
100
AcDbEntity
  8
STEMPEL
100
AcDbLine
 10
425.8919757877625
 20
340.4346296033758
 30
0.0
 11
426.8919757877625
 21
341.4346296033758
 31
0.0
  0
LINE
  5
AED
330
1E
100
AcDbEntity
  8
STEMPEL
100
AcDbLine
 10
431.8919757877624
 20
341.4346296033758
 30
0.0
 11
426.8919757877625
 21
341.4346296033758
 31
0.0
  0
LINE
  5
AEE
330
1E
100
AcDbEntity
  8
STEMPEL
100
AcDbLine
 10
423.8919757877624
 20
340.4346296033758
 30
0.0
 11
422.8919757877624
 21
341.4346296033758
 31
0.0
  0
POINT
  5
AEF
330
1E
100
AcDbEntity
  8
STEMPEL
100
AcDbPoint
 10
419.1419757877624
 20
340.088219441862
 30
0.0
  0
POINT
  5
AF0
330
1E
100
AcDbEntity
  8
STEMPEL
100
AcDbPoint
 10
418.9419757877624
 20
341.4346296033758
 30
0.0
  0
LINE
  5
AF1
330
1E
100
AcDbEntity
  8
STEMPEL
100
AcDbLine
 10
418.9419757877624
 20
341.4346296033758
 30
0.0
 11
418.9419757877624
 21
340.4346296033757
 31
0.0
  0
LINE
  5
AF2
330
1E
100
AcDbEntity
  8
STEMPEL
100
AcDbLine
 10
418.9419757877624
 20
340.4346296033757
 30
0.0
 11
419.1419757877624
 21
340.088219441862
 31
0.0
  0
LINE
  5
AF3
330
1E
100
AcDbEntity
  8
STEMPEL
100
AcDbLine
 10
422.8919757877624
 20
341.4346296033758
 30
0.0
 11
418.9419757877624
 21
341.4346296033758
 31
0.0
  0
LINE
  5
AF4
330
1E
100
AcDbEntity
  8
STEMPEL
100
AcDbLine
 10
426.8919757877625
 20
341.4346296033758
 30
0.0
 11
422.8919757877624
 21
341.4346296033758
 31
0.0
  0
LINE
  5
AF5
330
1E
100
AcDbEntity
  8
STEMPEL
100
AcDbLine
 10
425.8919757877625
 20
340.4346296033758
 30
0.0
 11
423.8919757877624
 21
340.4346296033758
 31
0.0
  0
ARC
  5
AF6
330
1E
100
AcDbEntity
  8
STEMPEL
100
AcDbCircle
 10
429.0725329851435
 20
334.438706794002
 30
0.0
 40
4.0
100
AcDbArc
 50
92.58717043466431
 51
142.6684147984943
  0
LINE
  5
AF7
330
1E
100
AcDbEntity
  8
STEMPEL
100
AcDbLine
 10
422.1419757877624
 20
330.4346296033758
 30
0.0
 11
423.8919757877624
 21
333.4657185166212
 31
0.0
  0
LINE
  5
AF8
330
1E
100
AcDbEntity
  8
STEMPEL
100
AcDbLine
 10
423.8919757877624
 20
333.4657185166212
 30
0.0
 11
425.5192115440396
 21
336.2841735223861
 31
0.0
  0
POINT
  5
AF9
330
1E
100
AcDbEntity
  8
STEMPEL
100
AcDbPoint
 10
422.1419757877624
 20
317.4346296033757
 30
0.0
  0
ARC
  5
AFA
330
1E
100
AcDbEntity
  8
STEMPEL
100
AcDbCircle
 10
419.1419757877624
 20
324.4346296033757
 30
0.0
 40
1.0
100
AcDbArc
 50
90.0
 51
180.0
  0
POINT
  5
AFB
330
1E
100
AcDbEntity
  8
STEMPEL
100
AcDbPoint
 10
420.1419757877625
 20
317.4346296033758
 30
0.0
  0
POINT
  5
AFC
330
1E
100
AcDbEntity
  8
STEMPEL
100
AcDbPoint
 10
420.1419757877625
 20
317.4346296033757
 30
0.0
  0
POINT
  5
AFD
330
1E
100
AcDbEntity
  8
STEMPEL
100
AcDbPoint
 10
420.1419757877625
 20
317.4346296033757
 30
0.0
  0
ARC
  5
AFE
330
1E
100
AcDbEntity
  8
STEMPEL
100
AcDbCircle
 10
419.1419757877624
 20
318.4346296033758
 30
0.0
 40
1.0
100
AcDbArc
 50
180.0
 51
270.0
  0
LINE
  5
AFF
330
1E
100
AcDbEntity
  8
STEMPEL
100
AcDbLine
 10
418.1419757877624
 20
324.4346296033757
 30
0.0
 11
418.1419757877624
 21
318.4346296033758
 31
0.0
  0
CIRCLE
  5
B00
102
{ACAD_REACTORS
330
AEA
102
}
330
1E
100
AcDbEntity
  8
STEMPEL
100
AcDbCircle
 10
421.6419757877624
 20
321.4346296033757
 30
0.0
 40
3.5
  0
LINE
  5
B01
330
1E
100
AcDbEntity
  8
STEMPEL
100
AcDbLine
 10
422.1419757877624
 20
325.4346296033757
 30
0.0
 11
419.1419757877624
 21
325.4346296033757
 31
0.0
  0
LINE
  5
B02
330
1E
100
AcDbEntity
  8
STEMPEL
100
AcDbLine
 10
422.1419757877624
 20
317.4346296033757
 30
0.0
 11
419.1419757877624
 21
317.4346296033758
 31
0.0
  0
LINE
  5
B03
330
1E
100
AcDbEntity
  8
STEMPEL
100
AcDbLine
 10
422.1419757877624
 20
330.4346296033758
 30
0.0
 11
422.1419757877624
 21
325.4346296033757
 31
0.0
  0
LINE
  5
B04
330
1E
100
AcDbEntity
  8
STEMPEL
100
AcDbLine
 10
412.3919757877624
 20
336.3346296033758
 30
0.0
 11
412.3919757877624
 21
335.3346296033758
 31
0.0
  0
LINE
  5
B05
330
1E
100
AcDbEntity
  8
STEMPEL
100
AcDbLine
 10
412.3919757877624
 20
335.3346296033758
 30
0.0
 11
414.3919757877625
 21
329.8396747644665
 31
0.0
  0
LINE
  5
B06
330
1E
100
AcDbEntity
  8
STEMPEL
100
AcDbLine
 10
419.1419757877624
 20
336.3346296033758
 30
0.0
 11
412.3919757877624
 21
336.3346296033758
 31
0.0
  0
POINT
  5
B07
330
1E
100
AcDbEntity
  8
STEMPEL
100
AcDbPoint
 10
421.5008549841707
 20
315.9671667147244
 30
0.0
  0
POINT
  5
B08
330
1E
100
AcDbEntity
  8
STEMPEL
100
AcDbPoint
 10
421.595509523516
 20
316.0608611807418
 30
0.0
  0
POINT
  5
B09
330
1E
100
AcDbEntity
  8
STEMPEL
100
AcDbPoint
 10
421.5453191717028
 20
316.0096287799545
 30
0.0
  0
POINT
  5
B0A
330
1E
100
AcDbEntity
  8
STEMPEL
100
AcDbPoint
 10
420.1419757877625
 20
315.4346296033758
 30
0.0
  0
POINT
  5
B0B
330
1E
100
AcDbEntity
  8
STEMPEL
100
AcDbPoint
 10
420.1419757877625
 20
315.4346296033758
 30
0.0
  0
LINE
  5
B0C
330
1E
100
AcDbEntity
  8
STEMPEL
100
AcDbLine
 10
420.1419757877625
 20
315.4346296033758
 30
0.0
 11
414.3919757877624
 21
315.4346296033758
 31
0.0
  0
ARC
  5
B0D
330
1E
100
AcDbEntity
  8
STEMPEL
100
AcDbCircle
 10
420.1419757877625
 20
317.4346296033757
 30
0.0
 40
2.0
100
AcDbArc
 50
270.0
 51
0.0
  0
LINE
  5
B0E
330
1E
100
AcDbEntity
  8
STEMPEL
100
AcDbLine
 10
414.3919757877625
 20
329.8396747644665
 30
0.0
 11
414.3919757877624
 21
315.4346296033758
 31
0.0
  0
ARC
  5
B0F
330
1E
100
AcDbEntity
  8
STEMPEL
100
AcDbCircle
 10
429.0725329851435
 20
334.438706794002
 30
0.0
 40
4.0
100
AcDbArc
 50
142.6684147984943
 51
152.5871704346633
  0
LINE
  5
B10
330
1E
100
AcDbEntity
  8
MITTEL
100
AcDbLine
 10
424.8919757877624
 20
344.4346296033758
 30
0.0
 11
424.8919757877624
 21
332.9509395811435
 31
0.0
  0
LINE
  5
B12
330
1E
100
AcDbEntity
  8
STEMPEL
100
AcDbLine
 10
425.8919757877625
 20
340.4346296033758
 30
0.0
 11
425.8919757877625
 21
336.8644140958393
 31
0.0
  0
LINE
  5
B13
330
1E
100
AcDbEntity
  8
STEMPEL
100
AcDbLine
 10
423.8919757877624
 20
340.4346296033758
 30
0.0
 11
423.8919757877624
 21
333.4657185166212
 31
0.0
  0
LINE
  5
B14
330
1E
100
AcDbEntity
  8
STEMPEL
100
AcDbLine
 10
431.8919757877624
 20
341.4346296033758
 30
0.0
 11
428.8919757877624
 21
338.4346296033758
 31
0.0
  0
LINE
  5
B15
330
1E
100
AcDbEntity
  8
STEMPEL
100
AcDbLine
 10
419.1419757877624
 20
340.088219441862
 30
0.0
 11
419.1419757877624
 21
336.3346296033758
 31
0.0
  0
POINT
  5
B16
330
1E
100
AcDbEntity
  8
STEMPEL
100
AcDbPoint
 10
328.8419757877625
 20
341.4346296033758
 30
0.0
  0
POINT
  5
B17
330
1E
100
AcDbEntity
  8
STEMPEL
100
AcDbPoint
 10
328.6419757877625
 20
340.088219441862
 30
0.0
  0
LINE
  5
B18
330
1E
100
AcDbEntity
  8
STEMPEL
100
AcDbLine
 10
328.8419757877625
 20
340.4346296033758
 30
0.0
 11
328.6419757877625
 21
340.0882194418621
 31
0.0
  0
LINE
  5
B19
330
1E
100
AcDbEntity
  8
STEMPEL
100
AcDbLine
 10
328.8419757877625
 20
341.4346296033758
 30
0.0
 11
328.8419757877625
 21
340.4346296033758
 31
0.0
  0
LINE
  5
B1A
330
1E
100
AcDbEntity
  8
STEMPEL
100
AcDbLine
 10
335.3919757877624
 20
336.3346296033758
 30
0.0
 11
335.3919757877624
 21
335.3346296033758
 31
0.0
  0
LINE
  5
B1B
330
1E
100
AcDbEntity
  8
STEMPEL
100
AcDbLine
 10
335.3919757877624
 20
335.3346296033758
 30
0.0
 11
333.3919757877625
 21
329.8396747644665
 31
0.0
  0
LINE
  5
B1C
330
1E
100
AcDbEntity
  8
STEMPEL
100
AcDbLine
 10
329.6419757877625
 20
324.4346296033757
 30
0.0
 11
329.6419757877625
 21
318.4346296033757
 31
0.0
  0
POINT
  5
B1D
330
1E
100
AcDbEntity
  8
STEMPEL
100
AcDbPoint
 10
325.6419757877625
 20
330.4346296033758
 30
0.0
  0
POINT
  5
B1E
330
1E
100
AcDbEntity
  8
STEMPEL
100
AcDbPoint
 10
325.6419757877625
 20
330.4346296033758
 30
0.0
  0
POINT
  5
B1F
330
1E
100
AcDbEntity
  8
STEMPEL
100
AcDbPoint
 10
322.2647400314853
 20
336.2841735223861
 30
0.0
  0
LINE
  5
B20
330
1E
100
AcDbEntity
  8
STEMPEL
100
AcDbLine
 10
325.6419757877625
 20
330.4346296033757
 30
0.0
 11
322.1755202055191
 21
336.438706794002
 31
0.0
  0
POINT
  5
B21
330
1E
100
AcDbEntity
  8
STEMPEL
100
AcDbPoint
 10
325.6419757877625
 20
325.4346296033757
 30
0.0
  0
LINE
  5
B22
330
1E
100
AcDbEntity
  8
STEMPEL
100
AcDbLine
 10
328.6419757877625
 20
325.4346296033757
 30
0.0
 11
325.6419757877625
 21
325.4346296033757
 31
0.0
  0
POINT
  5
B23
330
1E
100
AcDbEntity
  8
STEMPEL
100
AcDbPoint
 10
325.6419757877625
 20
317.4346296033758
 30
0.0
  0
LINE
  5
B24
330
1E
100
AcDbEntity
  8
STEMPEL
100
AcDbLine
 10
328.6419757877624
 20
317.4346296033757
 30
0.0
 11
325.6419757877625
 21
317.4346296033758
 31
0.0
  0
LINE
  5
B25
330
1E
100
AcDbEntity
  8
STEMPEL
100
AcDbLine
 10
325.6419757877625
 20
330.4346296033757
 30
0.0
 11
325.6419757877625
 21
325.4346296033757
 31
0.0
  0
CIRCLE
  5
B26
102
{ACAD_REACTORS
330
AEA
102
}
330
1E
100
AcDbEntity
  8
STEMPEL
100
AcDbCircle
 10
326.1419757877625
 20
321.4346296033758
 30
0.0
 40
3.5
  0
ARC
  5
B27
330
1E
100
AcDbEntity
  8
STEMPEL
100
AcDbCircle
 10
328.6419757877625
 20
318.4346296033758
 30
0.0
 40
1.0
100
AcDbArc
 50
270.0
 51
0.0
  0
ARC
  5
B28
330
1E
100
AcDbEntity
  8
STEMPEL
100
AcDbCircle
 10
328.6419757877625
 20
324.4346296033757
 30
0.0
 40
1.0
100
AcDbArc
 50
0.0
 51
90.0
  0
ARC
  5
B29
330
1E
100
AcDbEntity
  8
STEMPEL
100
AcDbCircle
 10
327.6419757877625
 20
317.4346296033757
 30
0.0
 40
2.0
100
AcDbArc
 50
179.9999999999967
 51
270.0
  0
LINE
  5
B2A
330
1E
100
AcDbEntity
  8
STEMPEL
100
AcDbLine
 10
333.3919757877625
 20
329.8396747644665
 30
0.0
 11
333.3919757877625
 21
315.4346296033757
 31
0.0
  0
ARC
  5
B2B
330
1E
100
AcDbEntity
  8
STEMPEL
100
AcDbCircle
 10
318.7114185903813
 20
334.438706794002
 30
0.0
 40
4.0
100
AcDbArc
 50
30.00000000000055
 51
87.41282956533897
  0
LINE
  5
B2C
330
1E
100
AcDbEntity
  8
STEMPEL
100
AcDbLine
 10
315.8919757877625
 20
341.4346296033758
 30
0.0
 11
318.8919757877624
 21
338.4346296033758
 31
0.0
  0
LINE
  5
B2D
330
1E
100
AcDbEntity
  8
STEMPEL
100
AcDbLine
 10
328.6419757877625
 20
340.0882194418621
 30
0.0
 11
328.6419757877625
 21
336.3346296033758
 31
0.0
  0
LINE
  5
B2E
330
1E
100
AcDbEntity
  8
STEMPEL
100
AcDbLine
 10
414.3919757877624
 20
315.4346296033758
 30
0.0
 11
410.3919757877624
 21
315.4346296033758
 31
0.0
  0
LINE
  5
B2F
330
1E
100
AcDbEntity
  8
STEMPEL
100
AcDbLine
 10
335.3919757877624
 20
336.3346296033758
 30
0.0
 11
328.6419757877625
 21
336.3346296033758
 31
0.0
  0
LINE
  5
B30
330
1E
100
AcDbEntity
  8
STEMPEL
100
AcDbLine
 10
418.9419757877624
 20
341.4346296033758
 30
0.0
 11
410.3919757877624
 21
341.4346296033758
 31
0.0
  0
LINE
  5
B33
330
1E
100
AcDbEntity
  8
STEMPEL
100
AcDbLine
 10
328.6419757877625
 20
340.088219441862
 30
0.0
 11
334.2080433849164
 21
340.0882194418619
 31
0.0
  0
LINE
  5
B34
330
1E
100
AcDbEntity
  8
STEMPEL
100
AcDbLine
 10
418.9419757877624
 20
340.4346296033757
 30
0.0
 11
413.3806211854626
 21
340.4346296033758
 31
0.0
  0
LINE
  5
B35
330
1E
100
AcDbEntity
  8
STEMPEL
100
AcDbLine
 10
309.5782672887778
 20
340.4346296033758
 30
0.0
 11
225.3223711771935
 21
340.4346296033759
 31
0.0
  0
ARC
  5
B36
330
1E
100
AcDbEntity
  8
STEMPEL
100
AcDbCircle
 10
403.8919757877624
 20
322.4346296033758
 30
0.0
 40
21.0
100
AcDbArc
 50
0.8309537544566484
 51
16.65737706073938
  0
LINE
  5
B37
330
1E
100
AcDbEntity
  8
STEMPEL
100
AcDbLine
 10
423.5388497865752
 20
330.031361932132
 30
0.0
 11
424.0107317948853
 21
328.4542356308381
 31
0.0
  0
ARC
  5
B38
330
1E
100
AcDbEntity
  8
STEMPEL
100
AcDbCircle
 10
426.8919757877624
 20
331.0346296033758
 30
0.0
 40
3.5
100
AcDbArc
 50
180.0
 51
196.6573770607382
  0
ARC
  5
B39
330
1E
100
AcDbEntity
  8
STEMPEL
100
AcDbCircle
 10
426.8919757877624
 20
331.1207702650129
 30
0.0
 40
3.5
100
AcDbArc
 50
160.2500772043241
 51
180.0
  0
ARC
  5
B3A
330
1E
100
AcDbEntity
  8
STEMPEL
100
AcDbCircle
 10
430.8919757877624
 20
329.6846296033758
 30
0.0
 40
7.75
100
AcDbArc
 50
119.8121253911327
 51
160.2500772043246
  0
ARC
  5
B3B
330
1E
100
AcDbEntity
  8
STEMPEL
100
AcDbCircle
 10
438.2056842867471
 20
332.4346296033758
 30
0.0
 40
9.0
100
AcDbArc
 50
90.0
 51
119.8121253911325
  0
LINE
  5
B3C
330
1E
100
AcDbEntity
  8
STEMPEL
100
AcDbLine
 10
433.7312659464775
 20
340.2435719463733
 30
0.0
 11
427.0390044391969
 21
336.408996620957
 31
0.0
  0
LINE
  5
B3D
330
1E
100
AcDbEntity
  8
STEMPEL
100
AcDbLine
 10
434.2284235398408
 20
339.3759116860402
 30
0.0
 11
427.5361620325601
 21
335.5413363606239
 31
0.0
  0
LINE
  5
B3E
330
1E
100
AcDbEntity
  8
STEMPEL
100
AcDbLine
 10
318.6887767512333
 20
336.4346296033758
 30
0.0
 11
316.8919757877625
 21
336.4346296033758
 31
0.0
  0
ARC
  5
B3F
330
1E
100
AcDbEntity
  8
STEMPEL
100
AcDbCircle
 10
416.8051473579072
 20
320.9346296033758
 30
0.0
 40
8.0
100
AcDbArc
 50
335.9596622329144
 51
353.3741904351755
  0
LINE
  5
B40
330
1E
100
AcDbEntity
  8
STEMPEL
100
AcDbLine
 10
420.4581828688995
 20
315.3051107923681
 30
0.0
 11
410.3919757877624
 21
315.3051107923681
 31
0.0
  0
ARC
  5
B41
330
1E
100
AcDbEntity
  8
STEMPEL
100
AcDbCircle
 10
420.4581828688995
 20
319.3051107923681
 30
0.0
 40
4.0
100
AcDbArc
 50
270.0
 51
335.9596622329146
  0
ARC
  5
B42
330
1E
100
AcDbEntity
  8
STEMPEL
100
AcDbCircle
 10
420.4581828688995
 20
319.3051107923681
 30
0.0
 40
5.0
100
AcDbArc
 50
270.0
 51
335.9596622329146
  0
ARC
  5
B43
330
1E
100
AcDbEntity
  8
STEMPEL
100
AcDbCircle
 10
309.5782672887778
 20
332.4346296033758
 30
0.0
 40
9.0
100
AcDbArc
 50
60.18787460886742
 51
90.0
  0
ARC
  5
B45
330
1E
100
AcDbEntity
  8
STEMPEL
100
AcDbCircle
 10
316.8919757877625
 20
329.6846296033758
 30
0.0
 40
7.75
100
AcDbArc
 50
19.74992279567537
 51
60.18787460886752
  0
LINE
  5
B46
330
1E
100
AcDbEntity
  8
STEMPEL
100
AcDbLine
 10
314.0526856290474
 20
340.2435719463733
 30
0.0
 11
320.744947136328
 21
336.408996620957
 31
0.0
  0
LINE
  5
B47
330
1E
100
AcDbEntity
  8
STEMPEL
100
AcDbLine
 10
313.5555280356841
 20
339.3759116860402
 30
0.0
 11
320.2477895429648
 21
335.5413363606239
 31
0.0
  0
LINE
  5
B48
330
1E
100
AcDbEntity
  8
STEMPEL
100
AcDbLine
 10
522.1552001604295
 20
341.4346296033758
 30
0.0
 11
438.2056842867471
 21
341.4346296033758
 31
0.0
  0
ARC
  5
B49
330
1E
100
AcDbEntity
  8
STEMPEL
100
AcDbCircle
 10
320.8919757877625
 20
331.1207702650129
 30
0.0
 40
3.5
100
AcDbArc
 50
0.000000000000007
 51
19.74992279567586
  0
ARC
  5
B4A
330
1E
100
AcDbEntity
  8
STEMPEL
100
AcDbCircle
 10
320.8919757877625
 20
331.0346296033758
 30
0.0
 40
3.5
100
AcDbArc
 50
343.3426229392618
 51
0.000000000000007
  0
LINE
  5
B4B
330
1E
100
AcDbEntity
  8
STEMPEL
100
AcDbLine
 10
324.2451017889497
 20
330.031361932132
 30
0.0
 11
323.7732197806397
 21
328.4542356308381
 31
0.0
  0
ARC
  5
B4C
330
1E
100
AcDbEntity
  8
STEMPEL
100
AcDbCircle
 10
343.8919757877625
 20
322.4346296033758
 30
0.0
 40
21.0
100
AcDbArc
 50
163.3426229392606
 51
179.169046245543
  0
ARC
  5
B4D
330
1E
100
AcDbEntity
  8
STEMPEL
100
AcDbCircle
 10
330.9788042176178
 20
320.9346296033758
 30
0.0
 40
8.0
100
AcDbArc
 50
186.6258095648245
 51
204.0403377670855
  0
ARC
  5
B4E
330
1E
100
AcDbEntity
  8
STEMPEL
100
AcDbCircle
 10
327.3257687066253
 20
319.3051107923681
 30
0.0
 40
4.0
100
AcDbArc
 50
204.0403377670857
 51
270.0
  0
ARC
  5
B4F
330
1E
100
AcDbEntity
  8
STEMPEL
100
AcDbCircle
 10
327.3257687066253
 20
319.3051107923681
 30
0.0
 40
5.0
100
AcDbArc
 50
204.0403377670857
 51
270.0
  0
HATCH
  5
B9E
330
1E
100
AcDbEntity
  8
SCHRAFF
100
AcDbHatch
 10
0.0
 20
0.0
 30
0.0
210
0.0
220
0.0
230
1.0
  2
NET
 70
     0
 71
     0
 91
        4
 92
        7
 72
     0
 73
     1
 93
        4
 10
543.8919757877624
 20
340.4346296033758
 10
543.8919757877624
 20
341.4346296033759
 10
523.1552001604293
 20
341.4346296033758
 10
522.8872509679982
 20
340.4346296033758
 97
        0
 92
        7
 72
     1
 73
     1
 93
       27
 10
521.8872509679983
 20
340.4346296033758
 42
0.0
 10
522.1552001604294
 20
341.4346296033758
 42
0.0
 10
438.2056842867471
 20
341.4346296033758
 42
0.1308186214179442
 10
433.7312659464775
 20
340.2435719463733
 42
0.0
 10
427.0390044391969
 20
336.408996620957
 42
0.178297985477242
 10
423.5978581407051
 20
332.3034743393017
 42
0.0894895723998248
 10
423.3922408054239
 20
331.0776999341933
 42
0.0759033142298033
 10
423.5388497865752
 20
330.031361932132
 42
0.0
 10
424.0107317948853
 20
328.4542356308381
 42
-0.0691657775375908
 10
424.8897673247459
 20
322.7391793848324
 42
-0.0957781917611653
 10
425.1419757877624
 20
321.4346296033757
 42
-0.1247310581123101
 10
424.7196010640657
 20
319.7678294777881
 42
-0.0684091467547773
 10
424.111218379892
 20
317.6755919813605
 42
-0.2960220549713827
 10
420.4581828688994
 20
315.3051107923681
 42
0.0
 10
418.8919757877625
 20
315.3051107923681
 42
0.0
 10
418.8919757877625
 20
314.305110792368
 42
0.0
 10
420.4581828688996
 20
314.305110792368
 42
0.2960220549713651
 10
425.0244772576401
 20
317.2682122786083
 42
0.0761317921794737
 10
425.7450353680074
 20
319.896168064914
 42
0.1019430245146344
 10
424.9687677952244
 20
328.7408835369078
 42
0.0
 10
424.4968857869144
 20
330.3180098382017
 42
-0.0728097721655565
 10
424.3919757877624
 20
331.0346296033758
 42
0.0
 10
424.3919757877624
 20
331.1207702650129
 42
-0.0863895110096339
 10
424.5390354924289
 20
331.9655613436803
 42
-0.1782978858307108
 10
427.5361620325602
 20
335.541336360624
 42
0.0
 10
434.2284235398409
 20
339.3759116860402
 42
-0.1308186214179428
 10
438.2056842867471
 20
340.4346296033758
 42
0.0
 97
        0
 92
        7
 72
     1
 73
     1
 93
       27
 10
309.5782672887778
 20
340.4346296033758
 42
-0.1308186214179428
 10
313.555528035684
 20
339.3759116860402
 42
0.0
 10
320.2477895429647
 20
335.541336360624
 42
-0.1782978828563625
 10
323.244916056795
 20
331.965561416935
 42
-0.0863895188510103
 10
323.3919757877625
 20
331.1207702650131
 42
0.0
 10
323.3919757877625
 20
331.0346296033758
 42
-0.0728097721655507
 10
323.2870657886105
 20
330.3180098382018
 42
0.0
 10
322.8151837803005
 20
328.7408835369078
 42
0.1019430245146386
 10
322.0389162075172
 20
319.8961680649137
 42
0.076131792179475
 10
322.7594743178848
 20
317.2682122786079
 42
0.2960220549713463
 10
327.3257687066252
 20
314.305110792368
 42
0.0
 10
328.8919757877625
 20
314.305110792368
 42
0.0
 10
328.8919757877624
 20
315.3051107923681
 42
0.0
 10
327.3257687066253
 20
315.3051107923681
 42
-0.2960220549713771
 10
323.6727331956329
 20
317.6755919813605
 42
-0.0684091467547823
 10
323.0643505114591
 20
319.7678294777883
 42
-0.1247310581123008
 10
322.6419757877625
 20
321.4346296033758
 42
-0.0957781917611702
 10
322.894184250779
 20
322.7391793848326
 42
-0.0691657775375887
 10
323.7732197806397
 20
328.4542356308381
 42
0.0
 10
324.2451017889497
 20
330.031361932132
 42
0.0759033142297424
 10
324.391710770101
 20
331.0776999341925
 42
0.0894893294871543
 10
324.1860945748648
 20
332.3034711639979
 42
0.1782980977679703
 10
320.744947136328
 20
336.408996620957
 42
0.0
 10
314.0526856290474
 20
340.2435719463733
 42
0.130818621417948
 10
309.5782672887777
 20
341.4346296033758
 42
0.0
 10
225.5903203696247
 20
341.4346296033759
 42
0.0
 10
225.3223711771935
 20
340.4346296033758
 42
0.0
 97
        0
 92
        7
 72
     0
 73
     1
 93
        4
 10
224.3223711771936
 20
340.4346296033759
 10
224.5903203696247
 20
341.4346296033759
 10
203.8919757877625
 20
341.4346296033759
 10
203.8919757877624
 20
340.4346296033758
 97
        0
 75
     0
 76
     1
 52
45.0
 41
8.0
 77
     0
 78
     2
 53
45.0
 43
20.1294135448702
 44
-42.59686680221989
 45
-0.7071067811865475
 46
0.7071067811865476
 79
     0
 53
135.0
 43
20.1294135448702
 44
-42.59686680221989
 45
-0.7071067811865476
 46
-0.7071067811865475
 79
     0
 47
0.4361338005267785
 98
        4
 10
535.4617126821688
 20
340.8037262148837
 10
516.2582526647286
 20
340.8037262148837
 10
238.6809711265694
 20
340.8037262148837
 10
215.9859715346472
 20
340.8037262148837
  0
DIMENSION
  5
B9F
330
1E
100
AcDbEntity
  8
BEM
100
AcDbDimension
  2
*D2
 10
488.8919757877624
 20
471.2160402360921
 30
0.0
 11
373.8919757877625
 21
477.716040236092
 31
0.0
 70
    32
  1
%%c<>
 71
     5
 42
229.9999999999999
  3
Standard
100
AcDbAlignedDimension
 13
258.8919757877625
 23
336.9346296033758
 33
0.0
 14
488.8919757877624
 24
336.9346296033758
 34
0.0
100
AcDbRotatedDimension
1001
ACAD
1000
DSTYLE
1002
{
1070
    40
1040
2.0
1070
    41
1040
3.5
1070
    42
1040
1.0
1070
    43
1040
7.0
1070
    44
1040
1.0
1070
    73
1070
     0
1070
    74
1070
     0
1070
    77
1070
     1
1070
    78
1070
     8
1070
    79
1070
     2
1070
   140
1040
3.5
1070
   141
1040
1.5
1070
   146
1040
0.5
1070
   147
1040
1.5
1070
   172
1070
     1
1070
   178
1070
     1
1070
   179
1070
     2
1070
   271
1070
     2
1070
   272
1070
     2
1070
   284
1070
     8
1070
   285
1070
     8
1070
   286
1070
     8
1002
}
  0
DIMENSION
  5
BAC
330
1E
100
AcDbEntity
  8
BEM
100
AcDbDimension
  2
*D3
 10
543.8919757877624
 20
484.7666996069635
 30
0.0
 11
377.0705827005083
 21
484.7666996069635
 31
0.0
 70
   160
  1
500
 71
     5
 42
340.0
  3
Standard
100
AcDbAlignedDimension
 13
203.8919757877625
 23
341.4346296033759
 33
0.0
 14
543.8919757877624
 24
341.4346296033758
 34
0.0
100
AcDbRotatedDimension
1001
ACAD
1000
DSTYLE
1002
{
1070
    40
1040
2.0
1070
    41
1040
3.5
1070
    42
1040
1.0
1070
    43
1040
7.0
1070
    44
1040
1.0
1070
    73
1070
     0
1070
    74
1070
     0
1070
    77
1070
     1
1070
    78
1070
     8
1070
    79
1070
     2
1070
   140
1040
3.5
1070
   141
1040
1.5
1070
   146
1040
0.5
1070
   147
1040
1.5
1070
   172
1070
     1
1070
   178
1070
     1
1070
   179
1070
     2
1070
   271
1070
     2
1070
   272
1070
     2
1070
   284
1070
     8
1070
   285
1070
     8
1070
   286
1070
     8
1002
}
  0
LWPOLYLINE
  5
BE6
330
1E
100
AcDbEntity
  8
VOLL
100
AcDbPolyline
 90
        4
 70
     1
 43
0.0
 10
359.4970021230295
 20
494.8033657452513
 10
359.4970021230295
 20
487.8033657452513
 10
366.4970021230295
 20
487.8033657452513
 10
366.4970021230295
 20
494.8033657452513
  0
DIMENSION
  5
BE7
330
1E
100
AcDbEntity
  8
BEM
100
AcDbDimension
  2
*D4
 10
639.9489801646681
 20
241.0567504930992
 30
0.0
 11
634.8447910292015
 21
267.8606168796745
 31
0.0
 70
    33
  1
%%c<>
 71
     5
 42
53.00000000000011
  3
Standard
100
AcDbAlignedDimension
 13
619.2871014196732
 23
295.2123280118298
 33
0.0
 14
616.513295738797
 24
242.2849626698373
 34
0.0
1001
ACAD
1000
DSTYLE
1002
{
1070
    40
1040
2.0
1070
    41
1040
3.5
1070
    42
1040
1.0
1070
    43
1040
7.0
1070
    44
1040
1.0
1070
    73
1070
     0
1070
    74
1070
     0
1070
    77
1070
     1
1070
    78
1070
     8
1070
    79
1070
     2
1070
   140
1040
3.5
1070
   141
1040
1.5
1070
   146
1040
0.5
1070
   147
1040
1.5
1070
   172
1070
     1
1070
   178
1070
     1
1070
   179
1070
     2
1070
   271
1070
     2
1070
   272
1070
     2
1070
   284
1070
     8
1070
   285
1070
     8
1070
   286
1070
     8
1002
}
  0
LINE
  5
C06
330
1E
100
AcDbEntity
  8
STEMPEL
100
AcDbLine
 10
259.5259031803735
 20
335.5751679228208
 30
0.0
 11
315.6301171247577
 21
335.5751679228208
 31
0.0
  0
DIMENSION
  5
C07
330
1E
100
AcDbEntity
  8
BEM
100
AcDbDimension
  2
*D5
 10
247.3750884075614
 20
251.4346296033759
 30
0.0
 11
240.8750884075614
 21
295.9346296033759
 31
0.0
 70
    32
 71
     5
 42
88.99999999999996
  3
Standard
100
AcDbAlignedDimension
 13
266.397750009546
 23
340.4346296033759
 33
0.0
 14
373.8919757877625
 24
251.4346296033759
 34
0.0
 50
90.0
100
AcDbRotatedDimension
1001
ACAD
1000
DSTYLE
1002
{
1070
    40
1040
2.0
1070
    41
1040
3.5
1070
    42
1040
1.0
1070
    43
1040
7.0
1070
    44
1040
1.0
1070
    73
1070
     0
1070
    74
1070
     0
1070
    77
1070
     1
1070
    78
1070
     8
1070
    79
1070
     2
1070
   140
1040
3.5
1070
   141
1040
1.5
1070
   146
1040
0.5
1070
   147
1040
1.5
1070
   172
1070
     1
1070
   178
1070
     1
1070
   179
1070
     2
1070
   271
1070
     2
1070
   272
1070
     2
1070
   284
1070
     8
1070
   285
1070
     8
1070
   286
1070
     8
1002
}
  0
DIMENSION
  5
C14
330
1E
100
AcDbEntity
  8
BEM
100
AcDbDimension
  2
*D6
 10
623.8919757877624
 20
221.2003142655708
 30
0.0
 11
498.8919757877624
 21
227.7003142655708
 31
0.0
 70
    32
 71
     5
 42
250.0
  3
Standard
100
AcDbAlignedDimension
 13
373.8919757877625
 23
246.4346296033759
 33
0.0
 14
623.8919757877624
 24
268.4346296033758
 34
0.0
100
AcDbRotatedDimension
1001
ACAD
1000
DSTYLE
1002
{
1070
    40
1040
2.0
1070
    41
1040
3.5
1070
    42
1040
1.0
1070
    43
1040
7.0
1070
    44
1040
1.0
1070
    73
1070
     0
1070
    74
1070
     0
1070
    77
1070
     1
1070
    78
1070
     8
1070
    79
1070
     2
1070
   140
1040
3.5
1070
   141
1040
1.5
1070
   146
1040
0.5
1070
   147
1040
1.5
1070
   172
1070
     1
1070
   178
1070
     1
1070
   179
1070
     2
1070
   271
1070
     2
1070
   272
1070
     2
1070
   284
1070
     8
1070
   285
1070
     8
1070
   286
1070
     8
1002
}
  0
DIMENSION
  5
C21
330
1E
100
AcDbEntity
  8
BEM
100
AcDbDimension
  2
*D7
 10
657.8273003753922
 20
268.4346296033758
 30
0.0
 11
651.3273003753921
 21
304.4346296033759
 31
0.0
 70
    32
 71
     5
 42
71.99999999999988
  3
Standard
100
AcDbAlignedDimension
 13
543.8919757877624
 23
340.4346296033758
 33
0.0
 14
641.2420501530903
 24
268.4346296033758
 34
0.0
 50
90.0
100
AcDbRotatedDimension
1001
ACAD
1000
DSTYLE
1002
{
1070
    40
1040
2.0
1070
    41
1040
3.5
1070
    42
1040
1.0
1070
    43
1040
7.0
1070
    44
1040
1.0
1070
    73
1070
     0
1070
    74
1070
     0
1070
    77
1070
     1
1070
    78
1070
     8
1070
    79
1070
     2
1070
   140
1040
3.5
1070
   141
1040
1.5
1070
   146
1040
0.5
1070
   147
1040
1.5
1070
   172
1070
     1
1070
   178
1070
     1
1070
   179
1070
     2
1070
   271
1070
     2
1070
   272
1070
     2
1070
   284
1070
     8
1070
   285
1070
     8
1070
   286
1070
     8
1002
}
  0
DIMENSION
  5
C37
330
1E
100
AcDbEntity
  8
BEM
100
AcDbDimension
  2
*D8
 10
373.8919757877625
 20
246.4346296033759
 30
0.0
 11
391.5097511599254
 21
302.3781832249318
 31
0.0
 70
   162
 71
     5
 42
1.623156204354727
  3
Standard
100
AcDb2LineAngularDimension
 13
628.8171160378865
 23
268.1765139402093
 33
0.0
 14
373.8919757877625
 24
281.5365744241361
 34
0.0
 15
373.8919757877625
 25
345.4346296033758
 35
0.0
 16
397.987851239356
 26
294.3485786658887
 36
0.0
1001
ACAD
1000
DSTYLE
1002
{
1070
    40
1040
2.0
1070
    41
1040
3.5
1070
    42
1040
1.0
1070
    43
1040
7.0
1070
    44
1040
1.0
1070
    73
1070
     0
1070
    74
1070
     0
1070
    77
1070
     1
1070
    78
1070
     8
1070
    79
1070
     2
1070
   140
1040
3.5
1070
   141
1040
1.5
1070
   146
1040
0.5
1070
   147
1040
1.5
1070
   172
1070
     1
1070
   178
1070
     1
1070
   179
1070
     2
1070
   271
1070
     2
1070
   272
1070
     2
1070
   284
1070
     8
1070
   285
1070
     8
1070
   286
1070
     8
1002
}
  0
LINE
  5
C72
330
1E
100
AcDbEntity
  8
TEXT
 62
     2
100
AcDbLine
 10
472.4725710103805
 20
508.2181271736455
 30
0.0
 11
458.5992249330542
 21
487.9222279275113
 31
0.0
  0
LINE
  5
C73
330
1E
100
AcDbEntity
  8
TEXT
 62
     2
100
AcDbLine
 10
472.4725710103805
 20
508.2181271736455
 30
0.0
 11
577.4901094425738
 21
508.2181271736455
 31
0.0
  0
TEXT
  5
C74
330
1E
100
AcDbEntity
  8
TEXT
 62
     1
100
AcDbText
 10
472.678008241681
 20
511.1746655378574
 30
0.0
 40
7.0
  1
Siebeinheit
 41
0.8
  7
GREEKS
100
AcDbText
  0
TEXT
  5
C75
330
1E
100
AcDbEntity
  8
TEXT
 62
     1
100
AcDbText
 10
472.678008241681
 20
498.9438510088982
 30
0.0
 40
7.0
  1
EDV-Art.Nr. 15087.000X
 41
0.8
  7
GREEKS
100
AcDbText
  0
TEXT
  5
C76
330
1E
100
AcDbEntity
  8
TEXT
 62
     1
100
AcDbText
 10
210.9424961834986
 20
208.0798524557295
 30
0.0
 40
7.0
  1
Grundeinheit DN50
 41
0.8
  7
GREEKS
100
AcDbText
  0
LINE
  5
C77
330
1E
100
AcDbEntity
  8
TEXT
 62
     2
100
AcDbLine
 10
210.7370589521982
 20
205.1233140915176
 30
0.0
 11
315.7545973843917
 21
205.1233140915176
 31
0.0
  0
TEXT
  5
C78
330
1E
100
AcDbEntity
  8
TEXT
 62
     1
100
AcDbText
 10
210.9424961834986
 20
195.8490379267703
 30
0.0
 40
7.0
  1
EDV-Art.Nr. 15430.050X
 41
0.8
  7
GREEKS
100
AcDbText
  0
LINE
  5
C79
330
1E
100
AcDbEntity
  8
TEXT
 62
     2
100
AcDbLine
 10
355.9251999192729
 20
255.571852126413
 30
0.0
 11
315.7545973843917
 21
205.1233140915176
 31
0.0
  0
TEXT
  5
C7D
330
1E
100
AcDbEntity
  8
TEXT
100
AcDbText
 10
654.3410940884992
 20
62.10021383107525
 30
0.0
 40
5.0
  1

 41
0.8
  7
GREEKS
100
AcDbText
  0
LINE
  5
F1F
330
1E
100
AcDbEntity
  8
STEMPEL
100
AcDbLine
 10
336.5422180537042
 20
316.6990970059459
 30
0.0
 11
337.3919757877625
 21
316.699097005946
 31
0.0
  0
LINE
  5
F21
330
1E
100
AcDbEntity
  8
STEMPEL
100
AcDbLine
 10
335.4949142723344
 20
341.3346296033757
 30
0.0
 11
337.3919757877625
 21
341.3346296033758
 31
0.0
  0
LINE
  5
F26
330
1E
100
AcDbEntity
  8
STEMPEL
100
AcDbLine
 10
337.3919757877625
 20
335.3346296033757
 30
0.0
 11
337.3919757877625
 21
316.6990970059459
 31
0.0
  0
LINE
  5
F27
330
1E
100
AcDbEntity
  8
STEMPEL
100
AcDbLine
 10
333.3919757877625
 20
320.0072531983116
 30
0.0
 11
335.9885355562191
 21
320.0072531983116
 31
0.0
  0
ARC
  5
F28
330
1E
100
AcDbEntity
  8
STEMPEL
100
AcDbCircle
 10
335.2545076088318
 20
322.5889027114882
 30
0.0
 40
0.6558152322664971
100
AcDbArc
 50
352.9225388552967
 51
170.8761771301685
  0
LINE
  5
F2B
330
1E
100
AcDbEntity
  8
STEMPEL
100
AcDbLine
 10
334.1829202430892
 20
320.0072531983116
 30
0.0
 11
334.6069897762959
 21
322.6928944199118
 31
0.0
  0
ARC
  5
F31
330
1E
100
AcDbEntity
  8
STEMPEL
100
AcDbCircle
 10
438.9853745976141
 20
330.8702603544562
 30
0.0
 40
103.4186742969093
100
AcDbArc
 50
184.6378487189676
 51
187.8758549402648
  0
ARC
  5
F32
330
1E
100
AcDbEntity
  8
STEMPEL
100
AcDbCircle
 10
335.4949142723344
 20
340.3346296033757
 30
0.0
 40
1.0
100
AcDbArc
 50
10.00000000000021
 51
150.588086334468
  0
LINE
  5
F35
330
1E
100
AcDbEntity
  8
STEMPEL
100
AcDbLine
 10
332.0919757877625
 20
336.3346296033757
 30
0.0
 11
334.6238025549852
 21
340.8257145002081
 31
0.0
  0
LINE
  5
F37
330
1E
100
AcDbEntity
  8
STEMPEL
100
AcDbLine
 10
337.3919757877625
 20
335.3346296033757
 30
0.0
 11
336.4797220253466
 21
340.5082777810426
 31
0.0
  0
LINE
  5
10FC
330
1E
100
AcDbEntity
  8
STEMPEL
100
AcDbLine
 10
334.4033303900624
 20
340.4346296033757
 30
0.0
 11
328.8419757877625
 21
340.4346296033758
 31
0.0
  0
LINE
  5
10FD
330
1E
100
AcDbEntity
  8
STEMPEL
100
AcDbLine
 10
413.5759081906085
 20
340.088219441862
 30
0.0
 11
419.1419757877624
 21
340.088219441862
 31
0.0
  0
LINE
  5
10FE
330
1E
100
AcDbEntity
  8
STEMPEL
100
AcDbLine
 10
415.6919757877624
 20
336.3346296033757
 30
0.0
 11
413.1601490205397
 21
340.8257145002081
 31
0.0
  0
ARC
  5
10FF
330
1E
100
AcDbEntity
  8
STEMPEL
100
AcDbCircle
 10
412.2890373031905
 20
340.3346296033757
 30
0.0
 40
1.0
100
AcDbArc
 50
29.41191366553203
 51
169.9999999999997
  0
LINE
  5
1100
330
1E
100
AcDbEntity
  8
STEMPEL
100
AcDbLine
 10
410.3919757877624
 20
335.3346296033757
 30
0.0
 11
411.3042295501784
 21
340.5082777810426
 31
0.0
  0
ARC
  5
1101
330
1E
100
AcDbEntity
  8
STEMPEL
100
AcDbCircle
 10
308.7985769779109
 20
330.8702603544562
 30
0.0
 40
103.4186742969093
100
AcDbArc
 50
352.1241450597352
 51
355.3621512810324
  0
LINE
  5
1102
330
1E
100
AcDbEntity
  8
STEMPEL
100
AcDbLine
 10
413.6010313324358
 20
320.0072531983116
 30
0.0
 11
413.1769617992291
 21
322.6928944199118
 31
0.0
  0
ARC
  5
1103
330
1E
100
AcDbEntity
  8
STEMPEL
100
AcDbCircle
 10
412.5294439666931
 20
322.5889027114882
 30
0.0
 40
0.6558152322664971
100
AcDbArc
 50
9.123822869831478
 51
187.0774611447032
  0
LINE
  5
1104
330
1E
100
AcDbEntity
  8
STEMPEL
100
AcDbLine
 10
414.3919757877625
 20
320.0072531983116
 30
0.0
 11
411.7954160193059
 21
320.0072531983116
 31
0.0
  0
LINE
  5
1105
330
1E
100
AcDbEntity
  8
STEMPEL
100
AcDbLine
 10
410.3919757877624
 20
335.3346296033757
 30
0.0
 11
410.3919757877624
 21
316.6990970059459
 31
0.0
  0
HATCH
  5
1121
330
1E
100
AcDbEntity
  8
SCHRAFF
100
AcDbHatch
 10
0.0
 20
0.0
 30
0.0
210
0.0
220
0.0
230
1.0
  2
NET
 70
     0
 71
     0
 91
        2
 92
        7
 72
     1
 73
     1
 93
       13
 10
410.3919757877624
 20
316.6990970059459
 42
0.0
 10
411.2417335218209
 20
316.6990970059459
 42
0.0141294075935353
 10
411.8786257296646
 20
322.5080989911301
 42
-0.9848881567541043
 10
413.1775000914887
 20
322.6894854037754
 42
0.0
 10
413.6010313324359
 20
320.0072531983116
 42
0.0
 10
414.3919757877625
 20
320.0072531983117
 42
0.0
 10
414.3919757877625
 20
329.8396747644663
 42
0.0
 10
412.3919757877624
 20
335.3346296033756
 42
0.0
 10
412.3919757877625
 20
336.3346296033758
 42
0.0
 10
415.6919757877624
 20
336.3346296033758
 42
0.0
 10
413.1601490205397
 20
340.8257145002081
 42
0.7040385315423109
 10
411.3042295501784
 20
340.5082777810426
 42
0.0
 10
410.3919757877624
 20
335.3346296033759
 42
0.0
 97
        0
 92
        7
 72
     1
 73
     1
 93
       13
 10
337.3919757877625
 20
335.3346296033756
 42
0.0
 10
336.4797220253466
 20
340.5082777810426
 42
0.7040385315423109
 10
334.6238025549852
 20
340.8257145002081
 42
0.0
 10
332.0919757877626
 20
336.3346296033758
 42
0.0
 10
335.3919757877624
 20
336.3346296033757
 42
0.0
 10
335.3919757877624
 20
335.3346296033758
 42
0.0
 10
333.3919757877624
 20
329.8396747644664
 42
0.0
 10
333.3919757877625
 20
320.0072531983116
 42
0.0
 10
334.1829202430893
 20
320.0072531983116
 42
0.0
 10
334.6064514840393
 20
322.6894854037947
 42
-0.9848881567385136
 10
335.9053258458605
 20
322.5080989911309
 42
0.0141294075935372
 10
336.5422180537042
 20
316.6990970059459
 42
0.0
 10
337.3919757877625
 20
316.699097005946
 42
0.0
 97
        0
 75
     0
 76
     1
 52
45.0
 41
10.0
 77
     0
 78
     2
 53
45.0
 43
20.1294135448702
 44
-42.59686680221989
 45
-0.8838834764831842
 46
0.8838834764831844
 79
     0
 53
135.0
 43
20.1294135448702
 44
-42.59686680221989
 45
-0.8838834764831844
 46
-0.8838834764831842
 79
     0
 47
0.1350868049240448
 98
        2
 10
411.2633244829473
 20
331.2884883491704
 10
335.5612084140341
 20
327.6411437291983
  0
HATCH
  5
1207
330
1E
100
AcDbEntity
  8
SCHRAFF
100
AcDbHatch
 10
0.0
 20
0.0
 30
0.0
210
0.0
220
0.0
230
1.0
  2
_USER
 70
     0
 71
     0
 91
        7
 92
        7
 72
     1
 73
     1
 93
       11
 10
416.8919757877624
 20
439.9346296033757
 42
-0.4142135623730951
 10
419.3919757877624
 20
437.4346296033756
 42
0.0
 10
419.3919757877624
 20
435.4346296033756
 42
0.0
 10
420.8919757877624
 20
435.4346296033757
 42
0.0
 10
420.8919757877624
 20
437.4346296033757
 42
0.4142135623730992
 10
416.8919757877624
 20
441.4346296033758
 42
0.0
 10
407.5904605975972
 20
441.4346296033758
 42
0.4142135623731076
 10
403.5904605975972
 20
437.4346296033756
 42
0.0
 10
404.4670511274582
 20
437.4346296033756
 42
0.0
 10
405.0904605975975
 20
437.4346296033756
 42
-0.4142135623730984
 10
407.5904605975974
 20
439.9346296033757
 42
0.0
 97
        0
 92
        7
 72
     1
 73
     1
 93
        8
 10
391.105179223359
 20
441.4346296033758
 42
0.0
 10
390.6198978491204
 20
441.4346296033758
 42
0.4142135623731074
 10
386.6198978491204
 20
437.4346296033756
 42
0.0
 10
388.1198978491204
 20
437.4346296033756
 42
-0.4142135623730251
 10
390.6198978491198
 20
439.9346296033756
 42
0.0
 10
391.1051792233591
 20
439.9346296033757
 42
-0.4142135623731084
 10
393.6051792233591
 20
437.4346296033756
 42
0.0
 10
395.1051792233591
 20
437.4346296033756
 42
0.4142135623731097
 97
        0
 92
        7
 72
     1
 73
     1
 93
        6
 10
375.3772571620011
 20
441.4346296033758
 42
0.0
 10
373.8919757877625
 20
441.4346296033758
 42
0.0
 10
373.8919757877625
 20
439.9346296033757
 42
0.0
 10
375.3772571620009
 20
439.9346296033757
 42
-0.4142135623731084
 10
377.8772571620009
 20
437.4346296033756
 42
0.0
 10
379.3772571620011
 20
437.4346296033756
 42
0.4142135623731011
 97
        0
 92
        7
 72
     1
 73
     1
 93
        6
 10
368.4066944135238
 20
437.4346296033756
 42
0.0
 10
369.9066944135239
 20
437.4346296033756
 42
-0.4142135623731017
 10
372.4066944135238
 20
439.9346296033757
 42
0.0
 10
373.8919757877625
 20
439.9346296033757
 42
0.0
 10
373.8919757877625
 20
441.4346296033758
 42
0.0
 10
372.4066944135238
 20
441.4346296033758
 42
0.4142135623731034
 97
        0
 92
        7
 72
     1
 73
     1
 93
        8
 10
357.1640537264046
 20
441.4346296033758
 42
0.0
 10
356.6787723521661
 20
441.4346296033758
 42
0.4142135623731036
 10
352.6787723521661
 20
437.4346296033756
 42
0.0
 10
354.1787723521661
 20
437.4346296033756
 42
-0.4142135623730618
 10
356.6787723521658
 20
439.9346296033757
 42
0.0
 10
357.1640537264047
 20
439.9346296033757
 42
-0.4142135623731017
 10
359.6640537264047
 20
437.4346296033756
 42
0.0
 10
361.1640537264047
 20
437.4346296033756
 42
0.4142135623731054
 97
        0
 92
        7
 72
     1
 73
     1
 93
        6
 10
340.1934909779278
 20
441.4346296033758
 42
0.0
 10
338.8919757877625
 20
441.4346296033758
 42
0.0
 10
338.8919757877625
 20
439.9346296033756
 42
0.0
 10
340.1934909779275
 20
439.9346296033756
 42
-0.4142135623730885
 10
342.6934909779275
 20
437.4346296033756
 42
0.0
 10
344.1934909779275
 20
437.4346296033756
 42
0.4142135623730847
 97
        0
 92
        7
 72
     1
 73
     1
 93
        8
 10
330.8919757877625
 20
441.4346296033758
 42
0.4142135623731077
 10
326.8919757877625
 20
437.4346296033756
 42
0.0
 10
326.8919757877625
 20
435.4346296033758
 42
0.0
 10
328.3919757877625
 20
435.4346296033758
 42
0.0
 10
328.3919757877625
 20
437.4346296033756
 42
-0.4142135623730951
 10
330.8919757877625
 20
439.9346296033756
 42
0.0
 10
338.8919757877625
 20
439.9346296033756
 42
0.0
 10
338.8919757877625
 20
441.4346296033757
 42
0.0
 97
        0
 75
     0
 76
     0
 52
45.0
 41
2.0
 77
     0
 78
     1
 53
45.0
 43
173.018009656198
 44
-9.636169205714281
 45
-1.414213562373094
 46
1.414213562373095
 79
     0
 47
0.164329733208832
 98
        7
 10
411.384940728351
 20
440.5684426244569
 10
391.6514237009173
 20
440.897101776845
 10
376.3579504607806
 20
440.897101776845
 10
372.0823556506416
 20
440.897101776845
 10
358.5977862277009
 20
440.5684426244569
 10
340.5087305899697
 20
440.7327722006511
 10
336.7264739784196
 20
440.7327722006511
  0
HATCH
  5
1208
330
1E
100
AcDbEntity
  8
SCHRAFF
100
AcDbHatch
 10
0.0
 20
0.0
 30
0.0
210
0.0
220
0.0
230
1.0
  2
NET
 70
     0
 71
     0
 91
        2
 92
        7
 72
     0
 73
     1
 93
       43
 10
409.8919757877625
 20
398.4346296033759
 10
410.3919757877624
 20
398.4346296033759
 10
410.3919757877624
 20
410.4346296033758
 10
409.8919757877625
 20
410.4346296033758
 10
409.8919757877625
 20
413.434629603376
 10
410.3919757877624
 20
413.4346296033759
 10
410.3919757877624
 20
425.4346296033759
 10
417.3919757877622
 20
432.4346296033757
 10
424.3919757877624
 20
432.4346296033757
 10
424.3919757877624
 20
441.4346296033758
 10
421.554216147023
 20
441.4346296033758
 10
421.3919757877624
 20
441.356149079623
 10
421.3919757877624
 20
435.4346296033756
 10
415.8919757877623
 20
435.4346296033756
 10
405.8919757877625
 20
425.4346296033757
 10
408.3919757877624
 20
291.4346296033759
 10
410.3919757877624
 20
291.4346296033758
 10
410.3919757877624
 20
305.4346296033759
 10
409.8919757877625
 20
305.4346296033759
 10
409.8919757877625
 20
308.4346296033759
 10
410.3919757877624
 20
308.4346296033759
 10
410.3919757877624
 20
320.4346296033758
 10
409.8919757877625
 20
320.4346296033758
 10
409.8919757877625
 20
323.4346296033759
 10
410.3919757877624
 20
323.4346296033759
 10
410.3919757877624
 20
335.4346296033759
 10
409.8919757877625
 20
335.4346296033759
 10
409.8919757877625
 20
338.4346296033759
 10
410.3919757877624
 20
338.4346296033759
 10
410.3919757877624
 20
350.4346296033759
 10
409.8919757877625
 20
350.4346296033759
 10
409.8919757877625
 20
353.4346296033759
 10
410.3919757877624
 20
353.4346296033759
 10
410.3919757877624
 20
365.4346296033759
 10
409.8919757877625
 20
365.4346296033759
 10
409.8919757877625
 20
368.4346296033759
 10
410.3919757877624
 20
368.4346296033759
 10
410.3919757877624
 20
380.4346296033759
 10
409.8919757877625
 20
380.4346296033759
 10
409.8919757877625
 20
383.4346296033759
 10
410.3919757877624
 20
383.4346296033759
 10
410.3919757877624
 20
395.4346296033759
 10
409.8919757877625
 20
395.4346296033759
 97
        0
 92
        7
 72
     0
 73
     1
 93
       42
 10
341.8919757877625
 20
425.4346296033757
 10
331.8919757877626
 20
435.4346296033758
 10
326.3919757877625
 20
435.4346296033757
 10
326.3919757877625
 20
441.4346296033758
 10
323.3919757877625
 20
441.4346296033758
 10
323.3919757877625
 20
432.4346296033756
 10
330.3919757877628
 20
432.4346296033757
 10
337.3919757877625
 20
425.4346296033758
 10
337.3919757877626
 20
413.4346296033759
 10
337.8919757877626
 20
413.4346296033759
 10
337.8919757877626
 20
410.4346296033758
 10
337.3919757877626
 20
410.4346296033758
 10
337.3919757877626
 20
398.4346296033759
 10
337.8919757877625
 20
398.4346296033759
 10
337.8919757877626
 20
395.4346296033759
 10
337.3919757877626
 20
395.4346296033759
 10
337.3919757877626
 20
383.4346296033759
 10
337.8919757877625
 20
383.4346296033759
 10
337.8919757877626
 20
380.4346296033758
 10
337.3919757877626
 20
380.4346296033759
 10
337.3919757877626
 20
368.4346296033759
 10
337.8919757877626
 20
368.4346296033759
 10
337.8919757877626
 20
365.4346296033759
 10
337.3919757877626
 20
365.4346296033759
 10
337.3919757877626
 20
353.4346296033759
 10
337.8919757877625
 20
353.4346296033759
 10
337.8919757877626
 20
350.4346296033759
 10
337.3919757877625
 20
350.4346296033758
 10
337.3919757877625
 20
338.4346296033759
 10
337.8919757877626
 20
338.4346296033759
 10
337.8919757877626
 20
335.4346296033759
 10
337.3919757877625
 20
335.4346296033759
 10
337.3919757877625
 20
323.4346296033759
 10
337.8919757877626
 20
323.4346296033758
 10
337.8919757877626
 20
320.4346296033758
 10
337.3919757877625
 20
320.4346296033758
 10
337.3919757877625
 20
308.4346296033758
 10
337.8919757877626
 20
308.4346296033759
 10
337.8919757877626
 20
305.4346296033759
 10
337.3919757877625
 20
305.4346296033759
 10
337.3919757877625
 20
291.4346296033758
 10
339.3919757877625
 20
291.4346296033759
 97
        0
 75
     0
 76
     1
 52
45.0
 41
15.0
 77
     0
 78
     2
 53
45.0
 43
173.018009656198
 44
-9.636169205714281
 45
-1.325825214724776
 46
1.325825214724776
 79
     0
 53
135.0
 43
173.018009656198
 44
-9.636169205714281
 45
-1.325825214724776
 46
-1.325825214724776
 79
     0
 47
0.356349673968721
 98
        2
 10
408.9205792327611
 20
398.0732916821009
 10
339.7398480043712
 20
414.4653768113756
  0
LINE
  5
120B
330
1E
100
AcDbEntity
  8
STEMPEL
100
AcDbLine
 10
404.4670511274582
 20
437.4346296033756
 30
0.0
 11
334.9050556884999
 21
437.4346296033756
 31
0.0
  0
LINE
  5
120C
330
1E
100
AcDbEntity
  8
STEMPEL
100
AcDbLine
 10
334.9050556884999
 20
437.4346296033757
 30
0.0
 11
340.62673945285
 21
437.4346296033756
 31
0.0
  0
LINE
  5
120D
330
1E
100
AcDbEntity
  8
STEMPEL
100
AcDbLine
 10
330.8919757877625
 20
439.9346296033756
 30
0.0
 11
340.1934909779275
 21
439.9346296033756
 31
0.0
  0
LINE
  5
120E
330
1E
100
AcDbEntity
  8
STEMPEL
100
AcDbLine
 10
337.3919757877626
 20
425.4346296033758
 30
0.0
 11
330.3919757877627
 21
432.4346296033757
 31
0.0
  0
LINE
  5
120F
330
1E
100
AcDbEntity
  8
STEMPEL
100
AcDbLine
 10
331.8919757877625
 20
435.4346296033758
 30
0.0
 11
341.8919757877625
 21
425.4346296033757
 31
0.0
  0
LINE
  5
1210
330
1E
100
AcDbEntity
  8
STEMPEL
100
AcDbLine
 10
323.3919757877625
 20
441.4346296033758
 30
0.0
 11
424.3919757877624
 21
441.4346296033758
 31
0.0
  0
LINE
  5
1211
330
1E
100
AcDbEntity
  8
STEMPEL
100
AcDbLine
 10
326.3919757877625
 20
435.4346296033758
 30
0.0
 11
421.3919757877624
 21
435.4346296033757
 31
0.0
  0
DIMENSION
  5
1212
330
1E
100
AcDbEntity
  8
BEM
100
AcDbDimension
  2
*D9
 10
424.3919757877624
 20
455.6383234083995
 30
0.0
 11
376.6482228601094
 21
455.6383234083995
 31
0.0
 70
   160
 71
     5
 42
101.0
  3
Standard
100
AcDbAlignedDimension
 13
323.3919757877625
 23
441.4346296033758
 33
0.0
 14
424.3919757877624
 24
441.4346296033758
 34
0.0
100
AcDbRotatedDimension
1001
ACAD
1000
DSTYLE
1002
{
1070
    40
1040
2.0
1070
    41
1040
3.5
1070
    42
1040
1.0
1070
    43
1040
7.0
1070
    44
1040
1.0
1070
    73
1070
     0
1070
    74
1070
     0
1070
    77
1070
     1
1070
    78
1070
     8
1070
    79
1070
     2
1070
   140
1040
3.5
1070
   141
1040
1.5
1070
   146
1040
0.5142857142857144
1070
   147
1040
1.5
1070
   172
1070
     1
1070
   178
1070
     1
1070
   179
1070
     2
1070
   271
1070
     2
1070
   272
1070
     2
1070
   284
1070
     8
1070
   285
1070
     8
1070
   286
1070
     8
1002
}
  0
DIMENSION
  5
1214
330
1E
100
AcDbEntity
  8
BEM
100
AcDbDimension
  2
*D10
 10
310.8097371666183
 20
432.4346296033756
 30
0.0
 11
304.3097371666182
 21
413.7012962700423
 31
0.0
 70
    32
 71
     5
 42
9.000000000000113
  3
Standard
100
AcDbAlignedDimension
 13
323.3919757877625
 23
441.4346296033758
 33
0.0
 14
323.3919757877625
 24
432.4346296033756
 34
0.0
 50
90.0
100
AcDbRotatedDimension
1001
ACAD
1000
DSTYLE
1002
{
1070
    40
1040
2.0
1070
    41
1040
3.5
1070
    42
1040
1.0
1070
    43
1040
7.0
1070
    44
1040
1.0
1070
    73
1070
     0
1070
    74
1070
     0
1070
    77
1070
     1
1070
    78
1070
     8
1070
    79
1070
     2
1070
   140
1040
3.5
1070
   141
1040
1.5
1070
   146
1040
0.5142857142857144
1070
   147
1040
1.5
1070
   172
1070
     1
1070
   178
1070
     1
1070
   179
1070
     2
1070
   271
1070
     2
1070
   272
1070
     2
1070
   284
1070
     8
1070
   285
1070
     8
1070
   286
1070
     8
1002
}
  0
LINE
  5
1215
330
1E
100
AcDbEntity
  8
STEMPEL
100
AcDbLine
 10
334.9050556884999
 20
437.4346296033756
 30
0.0
 11
334.9050556884999
 21
439.9346296033757
 31
0.0
  0
ARC
  5
1216
330
1E
100
AcDbEntity
  8
STEMPEL
100
AcDbCircle
 10
330.8919757877625
 20
437.4346296033756
 30
0.0
 40
4.0
100
AcDbArc
 50
90.0
 51
180.0
  0
ARC
  5
1217
330
1E
100
AcDbEntity
  8
STEMPEL
100
AcDbCircle
 10
330.8919757877625
 20
437.4346296033756
 30
0.0
 40
2.5
100
AcDbArc
 50
90.0
 51
180.0
  0
LINE
  5
1218
330
1E
100
AcDbEntity
  8
STEMPEL
100
AcDbLine
 10
334.6419757877625
 20
435.4346296033757
 30
0.0
 11
334.6419757877625
 21
439.9346296033757
 31
0.0
  0
LINE
  5
1219
330
1E
100
AcDbEntity
  8
STEMPEL
100
AcDbLine
 10
326.3919757877625
 20
441.4346296033758
 30
0.0
 11
326.3919757877625
 21
435.4346296033758
 31
0.0
  0
LINE
  5
121A
330
1E
100
AcDbEntity
  8
STEMPEL
100
AcDbLine
 10
323.3919757877625
 20
441.4346296033758
 30
0.0
 11
323.3919757877625
 21
432.4346296033756
 31
0.0
  0
LINE
  5
121B
330
1E
100
AcDbEntity
  8
STEMPEL
100
AcDbLine
 10
330.3919757877627
 20
432.4346296033757
 30
0.0
 11
323.3919757877625
 21
432.4346296033756
 31
0.0
  0
LINE
  5
121C
330
1E
100
AcDbEntity
  8
STEMPEL
100
AcDbLine
 10
328.3919757877625
 20
435.4346296033756
 30
0.0
 11
328.3919757877625
 21
437.4346296033756
 31
0.0
  0
LINE
  5
121D
330
1E
100
AcDbEntity
  8
STEMPEL
100
AcDbLine
 10
326.8919757877625
 20
435.4346296033756
 30
0.0
 11
326.8919757877625
 21
437.4346296033756
 31
0.0
  0
LINE
  5
121E
330
1E
100
AcDbEntity
  8
STEMPEL
100
AcDbLine
 10
326.8919757877625
 20
435.4346296033756
 30
0.0
 11
328.3919757877625
 21
435.4346296033756
 31
0.0
  0
LINE
  5
121F
330
1E
100
AcDbEntity
  8
STEMPEL
100
AcDbLine
 10
327.1919757877626
 20
438.9544980187328
 30
0.0
 11
327.1919757877626
 21
441.4346296033758
 31
0.0
  0
LINE
  5
1220
330
1E
100
AcDbEntity
  8
STEMPEL
100
AcDbLine
 10
410.3919757877624
 20
380.4346296033759
 30
0.0
 11
410.3919757877624
 21
368.4346296033759
 31
0.0
  0
LINE
  5
1221
330
1E
100
AcDbEntity
  8
STEMPEL
100
AcDbLine
 10
337.3919757877626
 20
380.4346296033759
 30
0.0
 11
337.3919757877626
 21
368.4346296033759
 31
0.0
  0
LINE
  5
1222
330
1E
100
AcDbEntity
  8
STEMPEL
100
AcDbLine
 10
341.8919757877625
 20
425.4346296033757
 30
0.0
 11
339.3919757877625
 21
291.4346296033759
 31
0.0
  0
LINE
  5
1223
330
1E
100
AcDbEntity
  8
STEMPEL
100
AcDbLine
 10
405.8919757877625
 20
425.4346296033757
 30
0.0
 11
408.3919757877624
 21
291.4346296033759
 31
0.0
  0
LINE
  5
1224
330
1E
100
AcDbEntity
  8
STEMPEL
100
AcDbLine
 10
339.3919757877625
 20
291.4346296033757
 30
0.0
 11
408.3919757877624
 21
291.4346296033759
 31
0.0
  0
LINE
  5
1225
330
1E
100
AcDbEntity
  8
STEMPEL
100
AcDbLine
 10
337.3919757877625
 20
335.4346296033759
 30
0.0
 11
337.3919757877625
 21
323.4346296033759
 31
0.0
  0
LINE
  5
1226
330
1E
100
AcDbEntity
  8
STEMPEL
100
AcDbLine
 10
337.3919757877625
 20
320.4346296033758
 30
0.0
 11
337.3919757877625
 21
308.4346296033758
 31
0.0
  0
LINE
  5
1227
330
1E
100
AcDbEntity
  8
STEMPEL
100
AcDbLine
 10
337.3919757877625
 20
305.4346296033759
 30
0.0
 11
337.3919757877625
 21
291.4346296033759
 31
0.0
  0
LINE
  5
1228
330
1E
100
AcDbEntity
  8
STEMPEL
100
AcDbLine
 10
339.3919757877625
 20
291.4346296033759
 30
0.0
 11
337.3919757877625
 21
291.4346296033759
 31
0.0
  0
LINE
  5
1229
330
1E
100
AcDbEntity
  8
STEMPEL
100
AcDbLine
 10
337.8919757877626
 20
308.4346296033759
 30
0.0
 11
337.3919757877625
 21
308.4346296033759
 31
0.0
  0
LINE
  5
122A
330
1E
100
AcDbEntity
  8
STEMPEL
100
AcDbLine
 10
337.8919757877626
 20
305.4346296033759
 30
0.0
 11
337.3919757877625
 21
305.4346296033759
 31
0.0
  0
LINE
  5
122B
330
1E
100
AcDbEntity
  8
STEMPEL
100
AcDbLine
 10
337.8919757877626
 20
308.4346296033759
 30
0.0
 11
337.8919757877626
 21
305.4346296033759
 31
0.0
  0
LINE
  5
122C
330
1E
100
AcDbEntity
  8
STEMPEL
100
AcDbLine
 10
337.8919757877626
 20
323.4346296033758
 30
0.0
 11
337.8919757877626
 21
320.4346296033758
 31
0.0
  0
LINE
  5
122D
330
1E
100
AcDbEntity
  8
STEMPEL
100
AcDbLine
 10
337.8919757877626
 20
320.4346296033758
 30
0.0
 11
337.3919757877625
 21
320.4346296033758
 31
0.0
  0
LINE
  5
122E
330
1E
100
AcDbEntity
  8
STEMPEL
100
AcDbLine
 10
337.8919757877626
 20
323.4346296033759
 30
0.0
 11
337.3919757877625
 21
323.4346296033759
 31
0.0
  0
LINE
  5
122F
330
1E
100
AcDbEntity
  8
STEMPEL
100
AcDbLine
 10
337.3919757877626
 20
365.4346296033759
 30
0.0
 11
337.3919757877626
 21
353.4346296033759
 31
0.0
  0
LINE
  5
1230
330
1E
100
AcDbEntity
  8
STEMPEL
100
AcDbLine
 10
337.3919757877626
 20
350.4346296033759
 30
0.0
 11
337.3919757877625
 21
338.4346296033759
 31
0.0
  0
LINE
  5
1231
330
1E
100
AcDbEntity
  8
STEMPEL
100
AcDbLine
 10
337.8919757877626
 20
335.4346296033759
 30
0.0
 11
337.3919757877625
 21
335.4346296033759
 31
0.0
  0
LINE
  5
1232
330
1E
100
AcDbEntity
  8
STEMPEL
100
AcDbLine
 10
337.8919757877626
 20
338.4346296033759
 30
0.0
 11
337.3919757877625
 21
338.4346296033759
 31
0.0
  0
LINE
  5
1233
330
1E
100
AcDbEntity
  8
STEMPEL
100
AcDbLine
 10
337.8919757877626
 20
338.4346296033759
 30
0.0
 11
337.8919757877626
 21
335.4346296033759
 31
0.0
  0
LINE
  5
1234
330
1E
100
AcDbEntity
  8
STEMPEL
100
AcDbLine
 10
337.8919757877626
 20
353.4346296033759
 30
0.0
 11
337.3919757877625
 21
353.4346296033759
 31
0.0
  0
LINE
  5
1235
330
1E
100
AcDbEntity
  8
STEMPEL
100
AcDbLine
 10
337.8919757877626
 20
350.4346296033759
 30
0.0
 11
337.3919757877625
 21
350.4346296033759
 31
0.0
  0
LINE
  5
1236
330
1E
100
AcDbEntity
  8
STEMPEL
100
AcDbLine
 10
337.8919757877626
 20
353.4346296033759
 30
0.0
 11
337.8919757877626
 21
350.4346296033759
 31
0.0
  0
LINE
  5
1237
330
1E
100
AcDbEntity
  8
STEMPEL
100
AcDbLine
 10
337.8919757877626
 20
368.4346296033759
 30
0.0
 11
337.3919757877625
 21
368.4346296033759
 31
0.0
  0
LINE
  5
1238
330
1E
100
AcDbEntity
  8
STEMPEL
100
AcDbLine
 10
337.8919757877626
 20
365.4346296033759
 30
0.0
 11
337.3919757877625
 21
365.4346296033759
 31
0.0
  0
LINE
  5
1239
330
1E
100
AcDbEntity
  8
STEMPEL
100
AcDbLine
 10
337.8919757877626
 20
368.4346296033759
 30
0.0
 11
337.8919757877626
 21
365.4346296033759
 31
0.0
  0
LINE
  5
123A
330
1E
100
AcDbEntity
  8
STEMPEL
100
AcDbLine
 10
410.3919757877624
 20
335.4346296033759
 30
0.0
 11
410.3919757877624
 21
323.4346296033759
 31
0.0
  0
LINE
  5
123B
330
1E
100
AcDbEntity
  8
STEMPEL
100
AcDbLine
 10
410.3919757877624
 20
320.4346296033758
 30
0.0
 11
410.3919757877624
 21
308.4346296033758
 31
0.0
  0
LINE
  5
123C
330
1E
100
AcDbEntity
  8
STEMPEL
100
AcDbLine
 10
410.3919757877624
 20
305.4346296033759
 30
0.0
 11
410.3919757877624
 21
291.4346296033759
 31
0.0
  0
LINE
  5
123D
330
1E
100
AcDbEntity
  8
STEMPEL
100
AcDbLine
 10
408.3919757877624
 20
291.4346296033759
 30
0.0
 11
410.3919757877624
 21
291.4346296033759
 31
0.0
  0
LINE
  5
123E
330
1E
100
AcDbEntity
  8
STEMPEL
100
AcDbLine
 10
409.8919757877625
 20
308.4346296033759
 30
0.0
 11
410.3919757877624
 21
308.4346296033759
 31
0.0
  0
LINE
  5
123F
330
1E
100
AcDbEntity
  8
STEMPEL
100
AcDbLine
 10
409.8919757877625
 20
305.4346296033759
 30
0.0
 11
410.3919757877624
 21
305.4346296033759
 31
0.0
  0
LINE
  5
1240
330
1E
100
AcDbEntity
  8
STEMPEL
100
AcDbLine
 10
409.8919757877625
 20
308.4346296033759
 30
0.0
 11
409.8919757877625
 21
305.4346296033759
 31
0.0
  0
LINE
  5
1241
330
1E
100
AcDbEntity
  8
STEMPEL
100
AcDbLine
 10
409.8919757877625
 20
323.4346296033758
 30
0.0
 11
409.8919757877625
 21
320.4346296033758
 31
0.0
  0
LINE
  5
1242
330
1E
100
AcDbEntity
  8
STEMPEL
100
AcDbLine
 10
409.8919757877625
 20
320.4346296033758
 30
0.0
 11
410.3919757877624
 21
320.4346296033758
 31
0.0
  0
LINE
  5
1243
330
1E
100
AcDbEntity
  8
STEMPEL
100
AcDbLine
 10
409.8919757877625
 20
323.4346296033759
 30
0.0
 11
410.3919757877624
 21
323.4346296033759
 31
0.0
  0
LINE
  5
1244
330
1E
100
AcDbEntity
  8
STEMPEL
100
AcDbLine
 10
410.3919757877624
 20
365.4346296033759
 30
0.0
 11
410.3919757877624
 21
353.4346296033759
 31
0.0
  0
LINE
  5
1245
330
1E
100
AcDbEntity
  8
STEMPEL
100
AcDbLine
 10
410.3919757877624
 20
350.4346296033759
 30
0.0
 11
410.3919757877624
 21
338.4346296033759
 31
0.0
  0
LINE
  5
1246
330
1E
100
AcDbEntity
  8
STEMPEL
100
AcDbLine
 10
409.8919757877625
 20
338.4346296033759
 30
0.0
 11
409.8919757877625
 21
335.4346296033759
 31
0.0
  0
LINE
  5
1247
330
1E
100
AcDbEntity
  8
STEMPEL
100
AcDbLine
 10
409.8919757877625
 20
338.4346296033759
 30
0.0
 11
410.3919757877624
 21
338.4346296033759
 31
0.0
  0
LINE
  5
1248
330
1E
100
AcDbEntity
  8
STEMPEL
100
AcDbLine
 10
409.8919757877625
 20
335.4346296033759
 30
0.0
 11
410.3919757877624
 21
335.4346296033759
 31
0.0
  0
LINE
  5
1249
330
1E
100
AcDbEntity
  8
STEMPEL
100
AcDbLine
 10
409.8919757877625
 20
353.4346296033759
 30
0.0
 11
410.3919757877624
 21
353.4346296033759
 31
0.0
  0
LINE
  5
124A
330
1E
100
AcDbEntity
  8
STEMPEL
100
AcDbLine
 10
409.8919757877625
 20
350.4346296033759
 30
0.0
 11
410.3919757877624
 21
350.4346296033759
 31
0.0
  0
LINE
  5
124B
330
1E
100
AcDbEntity
  8
STEMPEL
100
AcDbLine
 10
409.8919757877625
 20
353.4346296033759
 30
0.0
 11
409.8919757877625
 21
350.4346296033759
 31
0.0
  0
LINE
  5
124C
330
1E
100
AcDbEntity
  8
STEMPEL
100
AcDbLine
 10
409.8919757877625
 20
368.4346296033759
 30
0.0
 11
409.8919757877625
 21
365.4346296033759
 31
0.0
  0
LINE
  5
124D
330
1E
100
AcDbEntity
  8
STEMPEL
100
AcDbLine
 10
409.8919757877625
 20
365.4346296033759
 30
0.0
 11
410.3919757877624
 21
365.4346296033759
 31
0.0
  0
LINE
  5
124E
330
1E
100
AcDbEntity
  8
STEMPEL
100
AcDbLine
 10
409.8919757877625
 20
368.4346296033759
 30
0.0
 11
410.3919757877624
 21
368.4346296033759
 31
0.0
  0
LINE
  5
124F
330
1E
100
AcDbEntity
  8
STEMPEL
100
AcDbLine
 10
341.8919757877625
 20
425.4346296033757
 30
0.0
 11
405.8919757877625
 21
425.4346296033757
 31
0.0
  0
LINE
  5
1250
330
1E
100
AcDbEntity
  8
STEMPEL
100
AcDbLine
 10
337.3919757877626
 20
410.4346296033758
 30
0.0
 11
337.3919757877626
 21
398.4346296033758
 31
0.0
  0
LINE
  5
1251
330
1E
100
AcDbEntity
  8
STEMPEL
100
AcDbLine
 10
337.3919757877626
 20
395.4346296033759
 30
0.0
 11
337.3919757877626
 21
383.4346296033759
 31
0.0
  0
LINE
  5
1252
330
1E
100
AcDbEntity
  8
STEMPEL
100
AcDbLine
 10
337.8919757877626
 20
383.4346296033759
 30
0.0
 11
337.3919757877625
 21
383.4346296033759
 31
0.0
  0
LINE
  5
1253
330
1E
100
AcDbEntity
  8
STEMPEL
100
AcDbLine
 10
337.8919757877626
 20
380.4346296033759
 30
0.0
 11
337.3919757877625
 21
380.4346296033759
 31
0.0
  0
LINE
  5
1254
330
1E
100
AcDbEntity
  8
STEMPEL
100
AcDbLine
 10
337.8919757877626
 20
383.4346296033759
 30
0.0
 11
337.8919757877626
 21
380.4346296033759
 31
0.0
  0
LINE
  5
1255
330
1E
100
AcDbEntity
  8
STEMPEL
100
AcDbLine
 10
337.8919757877626
 20
398.4346296033759
 30
0.0
 11
337.3919757877625
 21
398.4346296033759
 31
0.0
  0
LINE
  5
1256
330
1E
100
AcDbEntity
  8
STEMPEL
100
AcDbLine
 10
337.8919757877626
 20
395.4346296033759
 30
0.0
 11
337.3919757877625
 21
395.4346296033759
 31
0.0
  0
LINE
  5
1257
330
1E
100
AcDbEntity
  8
STEMPEL
100
AcDbLine
 10
337.8919757877626
 20
395.4346296033759
 30
0.0
 11
337.8919757877626
 21
398.4346296033759
 31
0.0
  0
LINE
  5
1258
330
1E
100
AcDbEntity
  8
STEMPEL
100
AcDbLine
 10
337.3919757877626
 20
425.4346296033758
 30
0.0
 11
337.3919757877626
 21
413.4346296033759
 31
0.0
  0
LINE
  5
1259
330
1E
100
AcDbEntity
  8
STEMPEL
100
AcDbLine
 10
337.8919757877626
 20
410.4346296033758
 30
0.0
 11
337.3919757877625
 21
410.4346296033758
 31
0.0
  0
LINE
  5
125A
330
1E
100
AcDbEntity
  8
STEMPEL
100
AcDbLine
 10
337.8919757877626
 20
413.4346296033759
 30
0.0
 11
337.3919757877625
 21
413.4346296033759
 31
0.0
  0
LINE
  5
125B
330
1E
100
AcDbEntity
  8
STEMPEL
100
AcDbLine
 10
337.8919757877626
 20
413.4346296033759
 30
0.0
 11
337.8919757877626
 21
410.4346296033758
 31
0.0
  0
LINE
  5
125C
330
1E
100
AcDbEntity
  8
STEMPEL
100
AcDbLine
 10
368.4066944135238
 20
437.4346296033756
 30
0.0
 11
369.9066944135239
 21
437.4346296033756
 31
0.0
  0
ARC
  5
125D
330
1E
100
AcDbEntity
  8
STEMPEL
100
AcDbCircle
 10
372.4066944135238
 20
437.4346296033756
 30
0.0
 40
4.0
100
AcDbArc
 50
90.0
 51
180.0
  0
LINE
  5
125E
330
1E
100
AcDbEntity
  8
BEM
 62
     1
100
AcDbLine
 10
360.9407481845624
 20
458.6664352127967
 30
0.0
 11
367.9407481845624
 21
458.6664352127968
 31
0.0
  0
LINE
  5
125F
330
1E
100
AcDbEntity
  8
BEM
 62
     1
100
AcDbLine
 10
360.9407481845624
 20
465.6664352127968
 30
0.0
 11
367.9407481845624
 21
465.6664352127968
 31
0.0
  0
ARC
  5
1260
330
1E
100
AcDbEntity
  8
STEMPEL
100
AcDbCircle
 10
340.1934909779275
 20
437.4346296033756
 30
0.0
 40
4.0
100
AcDbArc
 50
0.0
 51
90.0
  0
ARC
  5
1261
330
1E
100
AcDbEntity
  8
STEMPEL
100
AcDbCircle
 10
340.1934909779275
 20
437.4346296033756
 30
0.0
 40
2.5
100
AcDbArc
 50
0.0
 51
90.0
  0
LINE
  5
1262
330
1E
100
AcDbEntity
  8
STEMPEL
100
AcDbLine
 10
343.1419757877625
 20
435.4346296033757
 30
0.0
 11
343.1419757877625
 21
437.4346296033757
 31
0.0
  0
LINE
  5
1263
330
1E
100
AcDbEntity
  8
MITTEL
100
AcDbLine
 10
338.8919757877625
 20
430.4346296033757
 30
0.0
 11
338.8919757877625
 21
444.9346296033758
 31
0.0
  0
LINE
  5
1264
330
1E
100
AcDbEntity
  8
STEMPEL
100
AcDbLine
 10
342.6934909779275
 20
437.4346296033756
 30
0.0
 11
344.1934909779275
 21
437.4346296033756
 31
0.0
  0
ARC
  5
1265
330
1E
100
AcDbEntity
  8
STEMPEL
100
AcDbCircle
 10
356.6787723521661
 20
437.4346296033756
 30
0.0
 40
4.0
100
AcDbArc
 50
90.0
 51
180.0
  0
ARC
  5
1266
330
1E
100
AcDbEntity
  8
STEMPEL
100
AcDbCircle
 10
356.6787723521661
 20
437.4346296033756
 30
0.0
 40
2.5
100
AcDbArc
 50
90.0
 51
180.0
  0
ARC
  5
1267
330
1E
100
AcDbEntity
  8
STEMPEL
100
AcDbCircle
 10
357.1640537264047
 20
437.4346296033756
 30
0.0
 40
4.0
100
AcDbArc
 50
0.0
 51
90.0
  0
ARC
  5
1268
330
1E
100
AcDbEntity
  8
STEMPEL
100
AcDbCircle
 10
357.1640537264047
 20
437.4346296033757
 30
0.0
 40
2.5
100
AcDbArc
 50
0.0
 51
90.0
  0
LINE
  5
1269
330
1E
100
AcDbEntity
  8
STEMPEL
100
AcDbLine
 10
359.6640537264047
 20
437.4346296033756
 30
0.0
 11
361.1640537264047
 21
437.4346296033756
 31
0.0
  0
LINE
  5
126A
330
1E
100
AcDbEntity
  8
STEMPEL
100
AcDbLine
 10
352.6787723521661
 20
437.4346296033756
 30
0.0
 11
354.1787723521661
 21
437.4346296033756
 31
0.0
  0
LINE
  5
126B
330
1E
100
AcDbEntity
  8
STEMPEL
100
AcDbLine
 10
356.6787723521661
 20
439.9346296033757
 30
0.0
 11
357.1640537264047
 21
439.9346296033757
 31
0.0
  0
LINE
  5
126C
330
1E
100
AcDbEntity
  8
BEM
 62
     1
100
AcDbLine
 10
360.9407481845624
 20
465.6664352127968
 30
0.0
 11
360.9407481845624
 21
458.6664352127967
 31
0.0
  0
ARC
  5
126D
330
1E
100
AcDbEntity
  8
STEMPEL
100
AcDbCircle
 10
375.3772571620009
 20
437.4346296033757
 30
0.0
 40
2.5
100
AcDbArc
 50
0.0
 51
90.0
  0
ARC
  5
126E
330
1E
100
AcDbEntity
  8
STEMPEL
100
AcDbCircle
 10
372.4066944135238
 20
437.4346296033757
 30
0.0
 40
2.5
100
AcDbArc
 50
90.0
 51
180.0
  0
ARC
  5
126F
330
1E
100
AcDbEntity
  8
STEMPEL
100
AcDbCircle
 10
375.3772571620011
 20
437.4346296033756
 30
0.0
 40
4.0
100
AcDbArc
 50
0.0
 51
90.0
  0
LINE
  5
1270
330
1E
100
AcDbEntity
  8
STEMPEL
100
AcDbLine
 10
377.8772571620009
 20
437.4346296033756
 30
0.0
 11
379.3772571620011
 21
437.4346296033756
 31
0.0
  0
LINE
  5
1271
330
1E
100
AcDbEntity
  8
STEMPEL
100
AcDbLine
 10
372.4066944135238
 20
439.9346296033757
 30
0.0
 11
375.3772571620009
 21
439.9346296033757
 31
0.0
  0
ARC
  5
1272
330
1E
100
AcDbEntity
  8
STEMPEL
100
AcDbCircle
 10
390.6198978491204
 20
437.4346296033757
 30
0.0
 40
4.0
100
AcDbArc
 50
90.0
 51
180.0
  0
ARC
  5
1273
330
1E
100
AcDbEntity
  8
STEMPEL
100
AcDbCircle
 10
390.6198978491204
 20
437.4346296033756
 30
0.0
 40
2.5
100
AcDbArc
 50
90.0
 51
180.0
  0
ARC
  5
1274
330
1E
100
AcDbEntity
  8
STEMPEL
100
AcDbCircle
 10
391.1051792233591
 20
437.4346296033757
 30
0.0
 40
2.5
100
AcDbArc
 50
0.0
 51
90.0
  0
ARC
  5
1275
330
1E
100
AcDbEntity
  8
STEMPEL
100
AcDbCircle
 10
391.1051792233591
 20
437.4346296033757
 30
0.0
 40
4.0
100
AcDbArc
 50
0.0
 51
90.0
  0
LINE
  5
1276
330
1E
100
AcDbEntity
  8
STEMPEL
100
AcDbLine
 10
393.6051792233591
 20
437.4346296033756
 30
0.0
 11
395.1051792233591
 21
437.4346296033756
 31
0.0
  0
LINE
  5
1277
330
1E
100
AcDbEntity
  8
STEMPEL
100
AcDbLine
 10
386.6198978491204
 20
437.4346296033756
 30
0.0
 11
388.1198978491204
 21
437.4346296033756
 31
0.0
  0
LINE
  5
1278
330
1E
100
AcDbEntity
  8
STEMPEL
100
AcDbLine
 10
390.6198978491204
 20
439.9346296033756
 30
0.0
 11
391.1051792233591
 21
439.9346296033757
 31
0.0
  0
LINE
  5
1279
330
1E
100
AcDbEntity
  8
BEM
 62
     1
100
AcDbLine
 10
367.9407481845624
 20
465.6664352127968
 30
0.0
 11
367.9407481845624
 21
458.6664352127968
 31
0.0
  0
LINE
  5
127A
330
1E
100
AcDbEntity
  8
STEMPEL
100
AcDbLine
 10
410.3919757877624
 20
425.4346296033758
 30
0.0
 11
417.3919757877623
 21
432.4346296033757
 31
0.0
  0
LINE
  5
127B
330
1E
100
AcDbEntity
  8
STEMPEL
100
AcDbLine
 10
415.8919757877624
 20
435.4346296033758
 30
0.0
 11
405.8919757877625
 21
425.4346296033757
 31
0.0
  0
LINE
  5
127C
330
1E
100
AcDbEntity
  8
STEMPEL
100
AcDbLine
 10
410.3919757877624
 20
410.4346296033758
 30
0.0
 11
410.3919757877624
 21
398.4346296033758
 31
0.0
  0
LINE
  5
127D
330
1E
100
AcDbEntity
  8
STEMPEL
100
AcDbLine
 10
410.3919757877624
 20
395.4346296033759
 30
0.0
 11
410.3919757877624
 21
383.4346296033759
 31
0.0
  0
LINE
  5
127E
330
1E
100
AcDbEntity
  8
STEMPEL
100
AcDbLine
 10
409.8919757877625
 20
383.4346296033759
 30
0.0
 11
409.8919757877625
 21
380.4346296033759
 31
0.0
  0
LINE
  5
127F
330
1E
100
AcDbEntity
  8
STEMPEL
100
AcDbLine
 10
409.8919757877625
 20
380.4346296033759
 30
0.0
 11
410.3919757877624
 21
380.4346296033759
 31
0.0
  0
LINE
  5
1280
330
1E
100
AcDbEntity
  8
STEMPEL
100
AcDbLine
 10
409.8919757877625
 20
383.4346296033759
 30
0.0
 11
410.3919757877624
 21
383.4346296033759
 31
0.0
  0
LINE
  5
1281
330
1E
100
AcDbEntity
  8
STEMPEL
100
AcDbLine
 10
409.8919757877625
 20
395.4346296033759
 30
0.0
 11
409.8919757877625
 21
398.4346296033759
 31
0.0
  0
LINE
  5
1282
330
1E
100
AcDbEntity
  8
STEMPEL
100
AcDbLine
 10
409.8919757877625
 20
395.4346296033759
 30
0.0
 11
410.3919757877624
 21
395.4346296033759
 31
0.0
  0
LINE
  5
1283
330
1E
100
AcDbEntity
  8
STEMPEL
100
AcDbLine
 10
409.8919757877625
 20
398.4346296033759
 30
0.0
 11
410.3919757877624
 21
398.4346296033759
 31
0.0
  0
LINE
  5
1284
330
1E
100
AcDbEntity
  8
STEMPEL
100
AcDbLine
 10
410.3919757877624
 20
425.4346296033758
 30
0.0
 11
410.3919757877624
 21
413.4346296033759
 31
0.0
  0
LINE
  5
1285
330
1E
100
AcDbEntity
  8
STEMPEL
100
AcDbLine
 10
409.8919757877625
 20
413.4346296033759
 30
0.0
 11
409.8919757877625
 21
410.4346296033758
 31
0.0
  0
LINE
  5
1286
330
1E
100
AcDbEntity
  8
STEMPEL
100
AcDbLine
 10
409.8919757877625
 20
413.4346296033759
 30
0.0
 11
410.3919757877624
 21
413.4346296033759
 31
0.0
  0
LINE
  5
1287
330
1E
100
AcDbEntity
  8
STEMPEL
100
AcDbLine
 10
409.8919757877625
 20
410.4346296033758
 30
0.0
 11
410.3919757877624
 21
410.4346296033758
 31
0.0
  0
ARC
  5
1288
330
1E
100
AcDbEntity
  8
STEMPEL
100
AcDbCircle
 10
416.8919757877624
 20
437.4346296033756
 30
0.0
 40
2.500000000000002
100
AcDbArc
 50
0.0
 51
90.0
  0
ARC
  5
1289
330
1E
100
AcDbEntity
  8
STEMPEL
100
AcDbCircle
 10
416.8919757877624
 20
437.4346296033756
 30
0.0
 40
2.5
100
AcDbArc
 50
0.0
 51
90.0
  0
ARC
  5
128A
330
1E
100
AcDbEntity
  8
STEMPEL
100
AcDbCircle
 10
416.8919757877624
 20
437.4346296033757
 30
0.0
 40
4.0
100
AcDbArc
 50
0.0
 51
90.0
  0
ARC
  5
128B
330
1E
100
AcDbEntity
  8
STEMPEL
100
AcDbCircle
 10
416.8919757877624
 20
437.4346296033757
 30
0.0
 40
4.0
100
AcDbArc
 50
0.0
 51
90.0
  0
ARC
  5
128C
330
1E
100
AcDbEntity
  8
STEMPEL
100
AcDbCircle
 10
416.8919757877624
 20
437.4346296033756
 30
0.0
 40
2.5
100
AcDbArc
 50
0.0
 51
90.0
  0
ARC
  5
128D
330
1E
100
AcDbEntity
  8
STEMPEL
100
AcDbCircle
 10
416.8919757877624
 20
437.4346296033757
 30
0.0
 40
4.0
100
AcDbArc
 50
0.0
 51
90.0
  0
LINE
  5
128E
330
1E
100
AcDbEntity
  8
STEMPEL
100
AcDbLine
 10
417.3919757877623
 20
432.4346296033757
 30
0.0
 11
424.3919757877624
 21
432.4346296033757
 31
0.0
  0
LINE
  5
128F
330
1E
100
AcDbEntity
  8
STEMPEL
100
AcDbLine
 10
412.9385198088698
 20
437.4346296033756
 30
0.0
 11
412.9385198088698
 21
439.9346296033757
 31
0.0
  0
ARC
  5
1290
330
1E
100
AcDbEntity
  8
STEMPEL
100
AcDbCircle
 10
407.5904605975974
 20
437.4346296033756
 30
0.0
 40
2.5
100
AcDbArc
 50
90.0
 51
180.0
  0
ARC
  5
1291
330
1E
100
AcDbEntity
  8
STEMPEL
100
AcDbCircle
 10
407.5904605975974
 20
437.4346296033756
 30
0.0
 40
2.5
100
AcDbArc
 50
90.0
 51
180.0
  0
ARC
  5
1292
330
1E
100
AcDbEntity
  8
STEMPEL
100
AcDbCircle
 10
407.5904605975972
 20
437.4346296033756
 30
0.0
 40
4.000000000000002
100
AcDbArc
 50
90.0
 51
180.0
  0
ARC
  5
1293
330
1E
100
AcDbEntity
  8
STEMPEL
100
AcDbCircle
 10
407.5904605975972
 20
437.4346296033756
 30
0.0
 40
4.0
100
AcDbArc
 50
90.0
 51
180.0
  0
ARC
  5
1294
330
1E
100
AcDbEntity
  8
STEMPEL
100
AcDbCircle
 10
407.5904605975973
 20
437.4346296033756
 30
0.0
 40
4.0
100
AcDbArc
 50
90.0
 51
180.0
  0
ARC
  5
1295
330
1E
100
AcDbEntity
  8
STEMPEL
100
AcDbCircle
 10
407.5904605975974
 20
437.4346296033756
 30
0.0
 40
2.500000000000028
100
AcDbArc
 50
90.0
 51
180.0
  0
LINE
  5
1296
330
1E
100
AcDbEntity
  8
STEMPEL
100
AcDbLine
 10
405.0904605975975
 20
437.4346296033756
 30
0.0
 11
412.9385198088698
 21
437.4346296033756
 31
0.0
  0
LINE
  5
1297
330
1E
100
AcDbEntity
  8
STEMPEL
100
AcDbLine
 10
403.5904605975972
 20
437.4346296033756
 30
0.0
 11
405.0904605975975
 21
437.4346296033756
 31
0.0
  0
LINE
  5
1298
330
1E
100
AcDbEntity
  8
STEMPEL
100
AcDbLine
 10
403.5904605975972
 20
437.4346296033756
 30
0.0
 11
405.0904605975975
 21
437.4346296033756
 31
0.0
  0
LINE
  5
1299
330
1E
100
AcDbEntity
  8
STEMPEL
100
AcDbLine
 10
403.5904605975972
 20
437.4346296033756
 30
0.0
 11
405.0904605975975
 21
437.4346296033756
 31
0.0
  0
LINE
  5
129A
330
1E
100
AcDbEntity
  8
STEMPEL
100
AcDbLine
 10
407.5904605975974
 20
439.9346296033757
 30
0.0
 11
416.8919757877624
 21
439.9346296033757
 31
0.0
  0
LINE
  5
129B
330
1E
100
AcDbEntity
  8
STEMPEL
100
AcDbLine
 10
407.5904605975974
 20
439.9346296033757
 30
0.0
 11
416.8919757877624
 21
439.9346296033757
 31
0.0
  0
LINE
  5
129C
330
1E
100
AcDbEntity
  8
STEMPEL
100
AcDbLine
 10
407.5904605975974
 20
439.9346296033757
 30
0.0
 11
416.8919757877624
 21
439.9346296033757
 31
0.0
  0
LINE
  5
129D
330
1E
100
AcDbEntity
  8
STEMPEL
100
AcDbLine
 10
421.3919757877624
 20
441.4346296033758
 30
0.0
 11
421.3919757877624
 21
435.4346296033757
 31
0.0
  0
LINE
  5
129E
330
1E
100
AcDbEntity
  8
STEMPEL
100
AcDbLine
 10
424.3919757877624
 20
441.4346296033758
 30
0.0
 11
424.3919757877624
 21
432.4346296033757
 31
0.0
  0
LINE
  5
129F
330
1E
100
AcDbEntity
  8
STEMPEL
100
AcDbLine
 10
420.8919757877624
 20
435.4346296033757
 30
0.0
 11
420.8919757877624
 21
437.4346296033757
 31
0.0
  0
LINE
  5
12A0
330
1E
100
AcDbEntity
  8
STEMPEL
100
AcDbLine
 10
420.8919757877624
 20
435.4346296033757
 30
0.0
 11
420.8919757877624
 21
437.4346296033757
 31
0.0
  0
LINE
  5
12A1
330
1E
100
AcDbEntity
  8
STEMPEL
100
AcDbLine
 10
420.8919757877624
 20
435.4346296033757
 30
0.0
 11
420.8919757877624
 21
437.4346296033757
 31
0.0
  0
LINE
  5
12A2
330
1E
100
AcDbEntity
  8
STEMPEL
100
AcDbLine
 10
419.3919757877624
 20
435.4346296033757
 30
0.0
 11
419.3919757877624
 21
437.4346296033756
 31
0.0
  0
LINE
  5
12A3
330
1E
100
AcDbEntity
  8
STEMPEL
100
AcDbLine
 10
419.3919757877624
 20
437.4346296033756
 30
0.0
 11
419.3919757877624
 21
435.4346296033756
 31
0.0
  0
LINE
  5
12A4
330
1E
100
AcDbEntity
  8
STEMPEL
100
AcDbLine
 10
419.3919757877624
 20
437.4346296033756
 30
0.0
 11
419.3919757877624
 21
435.4346296033756
 31
0.0
  0
LINE
  5
12A5
330
1E
100
AcDbEntity
  8
STEMPEL
100
AcDbLine
 10
419.3919757877624
 20
435.4346296033757
 30
0.0
 11
420.8919757877624
 21
435.4346296033756
 31
0.0
  0
LINE
  5
12A6
330
1E
100
AcDbEntity
  8
STEMPEL
100
AcDbLine
 10
419.3919757877624
 20
435.4346296033756
 30
0.0
 11
420.8919757877624
 21
435.4346296033757
 31
0.0
  0
LINE
  5
12A7
330
1E
100
AcDbEntity
  8
STEMPEL
100
AcDbLine
 10
419.3919757877624
 20
435.4346296033756
 30
0.0
 11
420.8919757877624
 21
435.4346296033757
 31
0.0
  0
LINE
  5
12A8
330
1E
100
AcDbEntity
  8
STEMPEL
100
AcDbLine
 10
420.5919757877624
 20
438.9544980187327
 30
0.0
 11
420.5919757877625
 21
441.4346296033758
 31
0.0
  0
LINE
  5
1315
330
1E
100
AcDbEntity
  8
STEMPEL
100
AcDbLine
 10
410.3919757877624
 20
341.3346296033758
 30
0.0
 11
412.2890373031905
 21
341.3346296033757
 31
0.0
  0
LINE
  5
1316
330
1E
100
AcDbEntity
  8
STEMPEL
100
AcDbLine
 10
337.3919757877625
 20
341.4346296033758
 30
0.0
 11
315.8919757877625
 21
341.4346296033758
 31
0.0
  0
LINE
  5
1317
330
1E
100
AcDbEntity
  8
STEMPEL
100
AcDbLine
 10
337.3919757877625
 20
341.4346296033758
 30
0.0
 11
225.5903203696246
 21
341.4346296033759
 31
0.0
  0
LINE
  5
1318
330
1E
100
AcDbEntity
  8
STEMPEL
100
AcDbLine
 10
337.3919757877625
 20
312.378899379397
 30
0.0
 11
324.8919757877625
 21
312.378899379397
 31
0.0
  0
LINE
  5
1319
330
1E
100
AcDbEntity
  8
STEMPEL
100
AcDbLine
 10
337.3919757877625
 20
314.3051107923681
 30
0.0
 11
324.8919757877625
 21
314.305110792368
 31
0.0
  0
LINE
  5
131A
330
1E
100
AcDbEntity
  8
STEMPEL
100
AcDbLine
 10
337.3919757877625
 20
314.3051107923681
 30
0.0
 11
324.8919757877626
 21
314.3051107923681
 31
0.0
  0
LINE
  5
131B
330
1E
100
AcDbEntity
  8
STEMPEL
100
AcDbLine
 10
337.3919757877625
 20
315.3051107923681
 30
0.0
 11
327.3257687066253
 21
315.3051107923681
 31
0.0
  0
LINE
  5
131C
330
1E
100
AcDbEntity
  8
STEMPEL
100
AcDbLine
 10
337.3919757877625
 20
315.4346296033757
 30
0.0
 11
327.6419757877625
 21
315.4346296033757
 31
0.0
  0
LINE
  5
131D
330
1E
100
AcDbEntity
  8
STEMPEL
100
AcDbLine
 10
410.3919757877624
 20
316.699097005946
 30
0.0
 11
411.2417335218209
 21
316.6990970059459
 31
0.0
  0
LINE
  5
1347
330
1E
100
AcDbEntity
  8
TEXT
 62
     2
100
AcDbLine
 10
455.2019188602802
 20
482.9521665323019
 30
0.0
 11
448.788685295432
 21
473.5699784467027
 31
0.0
  0
LINE
  5
1348
330
1E
100
AcDbEntity
  8
TEXT
 62
     2
100
AcDbLine
 10
444.7398004132726
 20
467.6466951111991
 30
0.0
 11
423.9842639008665
 21
437.2825511255086
 31
0.0
  0
ENDSEC
  0
SECTION
  2
OBJECTS
  0
DICTIONARY
  5
C
330
0
100
AcDbDictionary
281
     1
  3
ACAD_COLOR
350
11A
  3
ACAD_GROUP
350
D
  3
ACAD_LAYOUT
350
19
  3
ACAD_MATERIAL
350
119
  3
ACAD_MLINESTYLE
350
16
  3
ACAD_PLOTSETTINGS
350
18
  3
ACAD_PLOTSTYLENAME
350
E
  3
AcDbVariableDictionary
350
125
  0
DICTIONARY
  5
DB
330
1E
100
AcDbDictionary
280
     1
281
     1
  3
ACAD_LAYOUTSELFREF
360
10F
  0
DICTIONARY
  5
DD
330
1A
100
AcDbDictionary
280
     1
281
     1
  3
ACAD_LAYOUTSELFREF
360
10E
  0
DICTIONARY
  5
11A
102
{ACAD_REACTORS
330
C
102
}
330
C
100
AcDbDictionary
281
     1
  0
DICTIONARY
  5
D
102
{ACAD_REACTORS
330
C
102
}
330
C
100
AcDbDictionary
281
     1
  0
DICTIONARY
  5
19
102
{ACAD_REACTORS
330
C
102
}
330
C
100
AcDbDictionary
281
     1
  3
Layout1
350
1D
  3
Model
350
21
  0
DICTIONARY
  5
119
102
{ACAD_REACTORS
330
C
102
}
330
C
100
AcDbDictionary
281
     1
  0
DICTIONARY
  5
16
102
{ACAD_REACTORS
330
C
102
}
330
C
100
AcDbDictionary
281
     1
  3
Standard
350
17
  0
DICTIONARY
  5
18
102
{ACAD_REACTORS
330
C
102
}
330
C
100
AcDbDictionary
281
     1
  0
ACDBDICTIONARYWDFLT
  5
E
102
{ACAD_REACTORS
330
C
102
}
330
C
100
AcDbDictionary
281
     1
  3
Normal
350
F
100
AcDbDictionaryWithDefault
340
F
  0
DICTIONARY
  5
125
102
{ACAD_REACTORS
330
C
102
}
330
C
100
AcDbDictionary
281
     1
  3
DIMASSOC
350
126
  3
PROJECTNAME
350
127
  0
XRECORD
  5
10F
102
{ACAD_REACTORS
330
DB
102
}
330
DB
100
AcDbXrecord
280
     1
340
1E
  0
XRECORD
  5
10E
102
{ACAD_REACTORS
330
DD
102
}
330
DD
100
AcDbXrecord
280
     1
340
1A
  0
LAYOUT
  5
1D
102
{ACAD_REACTORS
330
19
102
}
330
19
100
AcDbPlotSettings
  1

  2
\\NT_WORK01\HP LaserJet 5000 PCL 6
  4

  6

 40
0.0
 41
0.0
 42
0.0
 43
0.0
 44
0.0
 45
0.0
 46
0.0
 47
0.0
 48
0.0
 49
0.0
140
0.0
141
0.0
142
1.0
143
1.0
 70
   688
 72
     0
 73
     0
 74
     5
  7

 75
    16
147
1.0
 76
     0
 77
     2
 78
   300
148
0.0
149
0.0
100
AcDbLayout
  1
Layout1
 70
     0
 71
     1
 10
0.0
 20
0.0
 11
12.0
 21
9.0
 12
0.0
 22
0.0
 32
0.0
 14
1.000000000000000E+20
 24
1.000000000000000E+20
 34
1.000000000000000E+20
 15
-1.000000000000000E+20
 25
-1.000000000000000E+20
 35
-1.000000000000000E+20
146
0.0
 13
0.0
 23
0.0
 33
0.0
 16
1.0
 26
0.0
 36
0.0
 17
0.0
 27
1.0
 37
0.0
 76
     0
330
1A
  0
LAYOUT
  5
21
102
{ACAD_REACTORS
330
19
102
}
330
19
100
AcDbPlotSettings
  1

  2
none_device
  4
Letter_(8.50_x_11.00_Inches)
  6

 40
6.349999904632568
 41
6.349999904632568
 42
6.350006103515625
 43
6.350006103515625
 44
215.8999938964844
 45
279.3999938964844
 46
0.0
 47
0.0
 48
0.0
 49
0.0
140
0.0
141
0.0
142
1.0
143
1.0
 70
 11952
 72
     0
 73
     1
 74
     0
  7

 75
     0
147
1.0
 76
     0
 77
     2
 78
   300
148
-3074.351585014408
149
49.84841498558999
100
AcDbLayout
  1
Model
 70
     1
 71
     0
 10
0.0
 20
0.0
 11
12.0
 21
9.0
 12
0.0
 22
0.0
 32
0.0
 14
0.0
 24
0.0
 34
0.0
 15
0.0
 25
0.0
 35
0.0
146
0.0
 13
0.0
 23
0.0
 33
0.0
 16
1.0
 26
0.0
 36
0.0
 17
0.0
 27
1.0
 37
0.0
 76
     0
330
1E
  0
MLINESTYLE
  5
17
102
{ACAD_REACTORS
330
16
102
}
330
16
100
AcDbMlineStyle
  2
STANDARD
 70
     0
  3

 62
   256
 51
90.0
 52
90.0
 71
     2
 49
0.5
 62
   256
  6
BYLAYER
 49
-0.5
 62
   256
  6
BYLAYER
  0
ACDBPLACEHOLDER
  5
F
102
{ACAD_REACTORS
330
E
102
}
330
E
  0
DICTIONARYVAR
  5
126
102
{ACAD_REACTORS
330
125
102
}
330
125
100
DictionaryVariables
280
     0
  1
1
  0
DICTIONARYVAR
  5
127
102
{ACAD_REACTORS
330
125
102
}
330
125
100
DictionaryVariables
280
     0
  1

  0
ENDSEC
  0
EOF
