  0
SECTION
  2
HEADER
  9
$ACADVER
  1
AC1018
  9
$ACADMAINTVER
 70
     2
  9
$DWGCODEPAGE
  3
ANSI_1252
  9
$INSBASE
 10
0.0
 20
0.0
 30
0.0
  9
$EXTMIN
 10
-0.0096047733477462
 20
-0.0135838937349036
 30
-0.000000000000013
  9
$EXTMAX
 10
420.0160233910885
 20
594.0226616531108
 30
0.0000000000000023
  9
$LIMMIN
 10
0.0
 20
0.0
  9
$LIMMAX
 10
419.9999999999999
 20
594.0
  9
$ORTHOMODE
 70
     1
  9
$REGENMODE
 70
     1
  9
$FILLMODE
 70
     1
  9
$QTEXTMODE
 70
     0
  9
$MIRRTEXT
 70
     1
  9
$LTSCALE
 40
20.0
  9
$ATTMODE
 70
     1
  9
$TEXTSIZE
 40
3.5
  9
$TRACEWID
 40
0.5
  9
$TEXTSTYLE
  7
STANDARD
  9
$CLAYER
  8
SCHRAFF
  9
$CELTYPE
  6
ByLayer
  9
$CECOLOR
 62
   256
  9
$CELTSCALE
 40
1.0
  9
$DISPSILH
 70
     0
  9
$DIMSCALE
 40
2.0
  9
$DIMASZ
 40
3.5
  9
$DIMEXO
 40
1.0
  9
$DIMDLI
 40
7.0
  9
$DIMRND
 40
0.0
  9
$DIMDLE
 40
0.0
  9
$DIMEXE
 40
1.0
  9
$DIMTP
 40
0.0
  9
$DIMTM
 40
0.0
  9
$DIMTXT
 40
3.5
  9
$DIMCEN
 40
1.5
  9
$DIMTSZ
 40
0.0
  9
$DIMTOL
 70
     0
  9
$DIMLIM
 70
     0
  9
$DIMTIH
 70
     0
  9
$DIMTOH
 70
     0
  9
$DIMSE1
 70
     0
  9
$DIMSE2
 70
     0
  9
$DIMTAD
 70
     1
  9
$DIMZIN
 70
     8
  9
$DIMBLK
  1

  9
$DIMASO
 70
     1
  9
$DIMSHO
 70
     0
  9
$DIMPOST
  1

  9
$DIMAPOST
  1

  9
$DIMALT
 70
     0
  9
$DIMALTD
 70
     2
  9
$DIMALTF
 40
25.4
  9
$DIMLFAC
 40
1.0
  9
$DIMTOFL
 70
     1
  9
$DIMTVP
 40
0.0
  9
$DIMTIX
 70
     0
  9
$DIMSOXD
 70
     0
  9
$DIMSAH
 70
     0
  9
$DIMBLK1
  1

  9
$DIMBLK2
  1

  9
$DIMSTYLE
  2
Standard
  9
$DIMCLRD
 70
     0
  9
$DIMCLRE
 70
     0
  9
$DIMCLRT
 70
     1
  9
$DIMTFAC
 40
0.5142857142857144
  9
$DIMGAP
 40
1.5
  9
$DIMJUST
 70
     0
  9
$DIMSD1
 70
     0
  9
$DIMSD2
 70
     0
  9
$DIMTOLJ
 70
     1
  9
$DIMTZIN
 70
     8
  9
$DIMALTZ
 70
     8
  9
$DIMALTTZ
 70
     8
  9
$DIMUPT
 70
     0
  9
$DIMDEC
 70
     2
  9
$DIMTDEC
 70
     2
  9
$DIMALTU
 70
     2
  9
$DIMALTTD
 70
     2
  9
$DIMTXSTY
  7
STANDARD
  9
$DIMAUNIT
 70
     0
  9
$DIMADEC
 70
     2
  9
$DIMALTRND
 40
0.0
  9
$DIMAZIN
 70
     2
  9
$DIMDSEP
 70
    46
  9
$DIMATFIT
 70
     3
  9
$DIMFRAC
 70
     0
  9
$DIMLDRBLK
  1

  9
$DIMLUNIT
 70
     2
  9
$DIMLWD
 70
    -2
  9
$DIMLWE
 70
    -2
  9
$DIMTMOVE
 70
     0
  9
$LUNITS
 70
     2
  9
$LUPREC
 70
     2
  9
$SKETCHINC
 40
1.0
  9
$FILLETRAD
 40
8.0
  9
$AUNITS
 70
     0
  9
$AUPREC
 70
     0
  9
$MENU
  1
ACAD
  9
$ELEVATION
 40
0.0
  9
$PELEVATION
 40
0.0
  9
$THICKNESS
 40
0.0
  9
$LIMCHECK
 70
     0
  9
$CHAMFERA
 40
0.0
  9
$CHAMFERB
 40
0.0
  9
$CHAMFERC
 40
0.0
  9
$CHAMFERD
 40
0.0
  9
$SKPOLY
 70
     0
  9
$TDCREATE
 40
2455397.864709028
  9
$TDUCREATE
 40
2455397.781375695
  9
$TDUPDATE
 40
2455460.453400267
  9
$TDUUPDATE
 40
2455460.370066933
  9
$TDINDWG
 40
0.0431248495
  9
$TDUSRTIMER
 40
0.0431248495
  9
$USRTIMER
 70
     1
  9
$ANGBASE
 50
0.0
  9
$ANGDIR
 70
     0
  9
$PDMODE
 70
     0
  9
$PDSIZE
 40
0.0
  9
$PLINEWID
 40
0.0
  9
$SPLFRAME
 70
     0
  9
$SPLINETYPE
 70
     6
  9
$SPLINESEGS
 70
     8
  9
$HANDSEED
  5
ED5
  9
$SURFTAB1
 70
     6
  9
$SURFTAB2
 70
     6
  9
$SURFTYPE
 70
     6
  9
$SURFU
 70
     6
  9
$SURFV
 70
     6
  9
$UCSBASE
  2

  9
$UCSNAME
  2

  9
$UCSORG
 10
0.0
 20
0.0
 30
0.0
  9
$UCSXDIR
 10
1.0
 20
0.0
 30
0.0
  9
$UCSYDIR
 10
0.0
 20
1.0
 30
0.0
  9
$UCSORTHOREF
  2

  9
$UCSORTHOVIEW
 70
     0
  9
$UCSORGTOP
 10
0.0
 20
0.0
 30
0.0
  9
$UCSORGBOTTOM
 10
0.0
 20
0.0
 30
0.0
  9
$UCSORGLEFT
 10
0.0
 20
0.0
 30
0.0
  9
$UCSORGRIGHT
 10
0.0
 20
0.0
 30
0.0
  9
$UCSORGFRONT
 10
0.0
 20
0.0
 30
0.0
  9
$UCSORGBACK
 10
0.0
 20
0.0
 30
0.0
  9
$PUCSBASE
  2

  9
$PUCSNAME
  2

  9
$PUCSORG
 10
0.0
 20
0.0
 30
0.0
  9
$PUCSXDIR
 10
1.0
 20
0.0
 30
0.0
  9
$PUCSYDIR
 10
0.0
 20
1.0
 30
0.0
  9
$PUCSORTHOREF
  2

  9
$PUCSORTHOVIEW
 70
     0
  9
$PUCSORGTOP
 10
0.0
 20
0.0
 30
0.0
  9
$PUCSORGBOTTOM
 10
0.0
 20
0.0
 30
0.0
  9
$PUCSORGLEFT
 10
0.0
 20
0.0
 30
0.0
  9
$PUCSORGRIGHT
 10
0.0
 20
0.0
 30
0.0
  9
$PUCSORGFRONT
 10
0.0
 20
0.0
 30
0.0
  9
$PUCSORGBACK
 10
0.0
 20
0.0
 30
0.0
  9
$USERI1
 70
     0
  9
$USERI2
 70
     0
  9
$USERI3
 70
     0
  9
$USERI4
 70
     0
  9
$USERI5
 70
     0
  9
$USERR1
 40
0.0
  9
$USERR2
 40
0.0
  9
$USERR3
 40
0.0
  9
$USERR4
 40
0.0
  9
$USERR5
 40
0.0
  9
$WORLDVIEW
 70
     1
  9
$SHADEDGE
 70
     3
  9
$SHADEDIF
 70
    70
  9
$TILEMODE
 70
     1
  9
$MAXACTVP
 70
    16
  9
$PINSBASE
 10
0.0
 20
0.0
 30
0.0
  9
$PLIMCHECK
 70
     0
  9
$PEXTMIN
 10
1.000000000000000E+20
 20
1.000000000000000E+20
 30
1.000000000000000E+20
  9
$PEXTMAX
 10
-1.000000000000000E+20
 20
-1.000000000000000E+20
 30
-1.000000000000000E+20
  9
$PLIMMIN
 10
0.0
 20
0.0
  9
$PLIMMAX
 10
12.0
 20
9.0
  9
$UNITMODE
 70
     0
  9
$VISRETAIN
 70
     0
  9
$PLINEGEN
 70
     0
  9
$PSLTSCALE
 70
     0
  9
$TREEDEPTH
 70
  3020
  9
$CMLSTYLE
  2
Standard
  9
$CMLJUST
 70
     0
  9
$CMLSCALE
 40
1.0
  9
$PROXYGRAPHICS
 70
     1
  9
$MEASUREMENT
 70
     0
  9
$CELWEIGHT
370
    -1
  9
$ENDCAPS
280
     0
  9
$JOINSTYLE
280
     0
  9
$LWDISPLAY
290
     0
  9
$INSUNITS
 70
     0
  9
$HYPERLINKBASE
  1

  9
$STYLESHEET
  1
monochrome 1.ctb
  9
$XEDIT
290
     1
  9
$CEPSNTYPE
380
     0
  9
$PSTYLEMODE
290
     1
  9
$FINGERPRINTGUID
  2
{D68B0D02-A558-11D7-B632-000102183313}
  9
$VERSIONGUID
  2
{FDEFEA72-2FF9-438D-8863-4D18F2403FEE}
  9
$EXTNAMES
290
     1
  9
$PSVPSCALE
 40
0.0
  9
$OLESTARTUP
290
     0
  9
$SORTENTS
280
   127
  9
$INDEXCTL
280
     0
  9
$HIDETEXT
280
     0
  9
$XCLIPFRAME
290
     0
  9
$HALOGAP
280
     0
  9
$OBSCOLOR
 70
   257
  9
$OBSLTYPE
280
     0
  9
$INTERSECTIONDISPLAY
280
     0
  9
$INTERSECTIONCOLOR
 70
   257
  9
$DIMASSOC
280
     1
  9
$PROJECTNAME
  1

  0
ENDSEC
  0
SECTION
  2
CLASSES
  0
CLASS
  1
ACDBDICTIONARYWDFLT
  2
AcDbDictionaryWithDefault
  3
ObjectDBX Classes
 90
        0
 91
        1
280
     0
281
     0
  0
CLASS
  1
DICTIONARYVAR
  2
AcDbDictionaryVar
  3
ObjectDBX Classes
 90
        0
 91
        2
280
     0
281
     0
  0
ENDSEC
  0
SECTION
  2
TABLES
  0
TABLE
  2
VPORT
  5
8
330
0
100
AcDbSymbolTable
 70
     2
  0
VPORT
  5
ED4
330
8
100
AcDbSymbolTableRecord
100
AcDbViewportTableRecord
  2
*Active
 70
     0
 10
0.0
 20
0.0
 11
1.0
 21
1.0
 12
210.0032093088703
 22
297.004538879688
 13
0.0
 23
0.0
 14
1.0
 24
1.0
 15
10.0
 25
10.0
 16
0.0
 26
0.0
 36
1.0
 17
0.0
 27
0.0
 37
0.0
 40
598.8333080950033
 41
1.336927223719676
 42
50.0
 43
0.0
 44
0.0
 50
0.0
 51
0.0
 71
     0
 72
  1500
 73
     1
 74
     0
 75
     0
 76
     0
 77
     0
 78
     0
281
     0
 65
     1
110
0.0
120
0.0
130
0.0
111
1.0
121
0.0
131
0.0
112
0.0
122
1.0
132
0.0
 79
     0
146
0.0
  0
ENDTAB
  0
TABLE
  2
LTYPE
  5
5
330
0
100
AcDbSymbolTable
 70
     2
  0
LTYPE
  5
13
330
5
100
AcDbSymbolTableRecord
100
AcDbLinetypeTableRecord
  2
ByBlock
 70
     0
  3

 72
    65
 73
     0
 40
0.0
  0
LTYPE
  5
14
330
5
100
AcDbSymbolTableRecord
100
AcDbLinetypeTableRecord
  2
ByLayer
 70
     0
  3

 72
    65
 73
     0
 40
0.0
  0
LTYPE
  5
15
330
5
100
AcDbSymbolTableRecord
100
AcDbLinetypeTableRecord
  2
Continuous
 70
     0
  3
Solid line
 72
    65
 73
     0
 40
0.0
  0
LTYPE
  5
25
330
5
100
AcDbSymbolTableRecord
100
AcDbLinetypeTableRecord
  2
STRICHPUNKT
 70
     0
  3
__ . __ . __ . __ . __ . __ . __ . __ . __ . __
 72
    65
 73
     4
 40
1.0
 49
0.5
 74
     0
 49
-0.25
 74
     0
 49
0.0
 74
     0
 49
-0.25
 74
     0
  0
ENDTAB
  0
TABLE
  2
LAYER
  5
2
330
0
100
AcDbSymbolTable
 70
     9
  0
LAYER
  5
10
330
2
100
AcDbSymbolTableRecord
100
AcDbLayerTableRecord
  2
0
 70
     0
 62
     7
  6
Continuous
370
    -3
390
F
  0
LAYER
  5
2A
330
2
100
AcDbSymbolTableRecord
100
AcDbLayerTableRecord
  2
VOLL
 70
     0
 62
     1
  6
Continuous
370
    -3
390
F
  0
LAYER
  5
2B
330
2
100
AcDbSymbolTableRecord
100
AcDbLayerTableRecord
  2
HILF
 70
     0
 62
     2
  6
Continuous
370
    -3
390
F
  0
LAYER
  5
2C
330
2
100
AcDbSymbolTableRecord
100
AcDbLayerTableRecord
  2
MITTEL
 70
     0
 62
     2
  6
STRICHPUNKT
370
    -3
390
F
  0
LAYER
  5
2F
330
2
100
AcDbSymbolTableRecord
100
AcDbLayerTableRecord
  2
BEM
 70
     0
 62
     7
  6
Continuous
370
    -3
390
F
  0
LAYER
  5
30
330
2
100
AcDbSymbolTableRecord
100
AcDbLayerTableRecord
  2
STEMPEL
 70
     0
 62
     3
  6
Continuous
370
    -3
390
F
  0
LAYER
  5
31
330
2
100
AcDbSymbolTableRecord
100
AcDbLayerTableRecord
  2
TEXT
 70
     0
 62
     7
  6
Continuous
370
    -3
390
F
  0
LAYER
  5
430
330
2
100
AcDbSymbolTableRecord
100
AcDbLayerTableRecord
  2
DEFPOINTS
 70
     0
 62
     7
  6
Continuous
290
     0
370
    -3
390
F
  0
LAYER
  5
431
330
2
100
AcDbSymbolTableRecord
100
AcDbLayerTableRecord
  2
SCHRAFF
 70
     0
 62
     7
  6
Continuous
370
    -3
390
F
  0
ENDTAB
  0
TABLE
  2
STYLE
  5
3
330
0
100
AcDbSymbolTable
 70
     2
  0
STYLE
  5
11
330
3
100
AcDbSymbolTableRecord
100
AcDbTextStyleTableRecord
  2
STANDARD
 70
     0
 40
0.0
 41
0.8
 50
0.0
 71
     0
 42
3.5
  3
simplex.shx
  4

  0
STYLE
  5
24
330
3
100
AcDbSymbolTableRecord
100
AcDbTextStyleTableRecord
  2
GREEKS
 70
     0
 40
0.0
 41
0.8
 50
0.0
 71
     0
 42
2.5
  3
SIMPLEX.shx
  4

  0
ENDTAB
  0
TABLE
  2
VIEW
  5
6
330
0
100
AcDbSymbolTable
 70
     0
  0
ENDTAB
  0
TABLE
  2
UCS
  5
7
330
0
100
AcDbSymbolTable
 70
     0
  0
ENDTAB
  0
TABLE
  2
APPID
  5
9
330
0
100
AcDbSymbolTable
 70
     1
  0
APPID
  5
12
330
9
100
AcDbSymbolTableRecord
100
AcDbRegAppTableRecord
  2
ACAD
 70
     0
  0
ENDTAB
  0
TABLE
  2
DIMSTYLE
  5
A
330
0
100
AcDbSymbolTable
 70
     1
100
AcDbDimStyleTable
 71
     1
340
9D
  0
DIMSTYLE
105
9D
102
{ACAD_REACTORS
330
DBB
330
DAE
330
DA2
330
DA0
102
}
330
A
100
AcDbSymbolTableRecord
100
AcDbDimStyleTableRecord
  2
Standard
 70
     0
340
11
  0
ENDTAB
  0
TABLE
  2
BLOCK_RECORD
  5
1
330
0
100
AcDbSymbolTable
 70
     5
  0
BLOCK_RECORD
  5
1E
102
{ACAD_XDICTIONARY
360
A0
102
}
330
1
100
AcDbSymbolTableRecord
100
AcDbBlockTableRecord
  2
*Model_Space
340
21
  0
BLOCK_RECORD
  5
1A
102
{ACAD_XDICTIONARY
360
A2
102
}
330
1
100
AcDbSymbolTableRecord
100
AcDbBlockTableRecord
  2
*Paper_Space
340
1D
  0
BLOCK_RECORD
  5
22
330
1
100
AcDbSymbolTableRecord
100
AcDbBlockTableRecord
  2
LOGO
340
0
102
{BLKREFS
331
9B
102
}
  0
BLOCK_RECORD
  5
DBD
330
1
100
AcDbSymbolTableRecord
100
AcDbBlockTableRecord
  2
*D1
340
0
  0
BLOCK_RECORD
  5
DCA
330
1
100
AcDbSymbolTableRecord
100
AcDbBlockTableRecord
  2
*D2
340
0
  0
BLOCK_RECORD
  5
DD7
330
1
100
AcDbSymbolTableRecord
100
AcDbBlockTableRecord
  2
*D3
340
0
  0
BLOCK_RECORD
  5
DE4
330
1
100
AcDbSymbolTableRecord
100
AcDbBlockTableRecord
  2
*D4
340
0
  0
ENDTAB
  0
ENDSEC
  0
SECTION
  2
BLOCKS
  0
BLOCK
  5
35
330
1E
100
AcDbEntity
  8
0
100
AcDbBlockBegin
  2
*Model_Space
 70
     0
 10
0.0
 20
0.0
 30
0.0
  3
*Model_Space
  1

  0
ENDBLK
  5
36
330
1E
100
AcDbEntity
  8
0
100
AcDbBlockEnd
  0
BLOCK
  5
33
330
1A
100
AcDbEntity
 67
     1
  8
0
100
AcDbBlockBegin
  2
*Paper_Space
 70
     0
 10
0.0
 20
0.0
 30
0.0
  3
*Paper_Space
  1

  0
ENDBLK
  5
34
330
1A
100
AcDbEntity
 67
     1
  8
0
100
AcDbBlockEnd
  0
BLOCK
  5
37
330
22
100
AcDbEntity
  8
0
100
AcDbBlockBegin
  2
LOGO
 70
     0
 10
0.0
 20
0.0
 30
0.0
  3
LOGO
  1

  0
ARC
  5
38
330
22
100
AcDbEntity
  8
0
100
AcDbCircle
 10
11.59973089678112
 20
-9.271599258481501
 30
0.0
 40
4.5
100
AcDbArc
 50
270.0
 51
231.0575587310159
  0
LINE
  5
39
330
22
100
AcDbEntity
  8
0
100
AcDbLine
 10
3.599730896781125
 20
-4.771599258481529
 30
0.0
 11
3.599730896781153
 21
-11.77159925848133
 31
0.0
  0
LINE
  5
3A
330
22
100
AcDbEntity
  8
0
100
AcDbLine
 10
2.599730896781125
 20
-4.771599258481529
 30
0.0
 11
2.599730896781153
 21
-11.77159925848133
 31
0.0
  0
CIRCLE
  5
3B
330
22
100
AcDbEntity
  8
0
100
AcDbCircle
 10
11.59973089678112
 20
-9.271599258481501
 30
0.0
 40
3.5
  0
ARC
  5
3C
330
22
100
AcDbEntity
  8
0
100
AcDbCircle
 10
31.59973089678115
 20
-9.271599258481472
 30
0.0
 40
4.5
100
AcDbArc
 50
270.0
 51
231.0575587310182
  0
LINE
  5
3D
330
22
100
AcDbEntity
  8
0
100
AcDbLine
 10
17.59973089678112
 20
-4.771599258481472
 30
0.0
 11
17.59973089678115
 21
-13.77159925848147
 31
0.0
  0
ARC
  5
3E
330
22
100
AcDbEntity
  8
0
100
AcDbCircle
 10
22.59973089678116
 20
-7.271599258481472
 30
0.0
 40
2.5
100
AcDbArc
 50
293.1161887722295
 51
90.0
  0
CIRCLE
  5
3F
330
22
100
AcDbEntity
  8
0
100
AcDbCircle
 10
31.59973089678115
 20
-9.271599258481472
 30
0.0
 40
3.5
  0
ARC
  5
40
330
22
100
AcDbEntity
  8
0
100
AcDbCircle
 10
4.599730896781153
 20
-11.77159925848133
 30
0.0
 40
1.0
100
AcDbArc
 50
180.0
 51
270.0
  0
ARC
  5
41
330
22
100
AcDbEntity
  8
0
100
AcDbCircle
 10
4.599730896781153
 20
-11.77159925848133
 30
0.0
 40
2.0
100
AcDbArc
 50
179.9999999999992
 51
270.0
  0
LINE
  5
42
330
22
100
AcDbEntity
  8
0
100
AcDbLine
 10
11.59973089678115
 20
-13.77159925848144
 30
0.0
 11
4.599730896781153
 21
-13.77159925848147
 31
0.0
  0
LINE
  5
43
330
22
100
AcDbEntity
  8
0
100
AcDbLine
 10
8.771303772034769
 20
-12.77159925848136
 30
0.0
 11
4.599730896781153
 21
-12.77159925848133
 31
0.0
  0
LINE
  5
44
330
22
100
AcDbEntity
  8
0
100
AcDbLine
 10
31.59973089678115
 20
-13.77159925848147
 30
0.0
 11
23.6715276665056
 21
-13.77159925848144
 31
0.0
  0
LINE
  5
45
330
22
100
AcDbEntity
  8
0
100
AcDbLine
 10
23.56565672307022
 20
-9.51278021337896
 30
0.0
 11
24.4388546544846
 21
-12.77159925848144
 31
0.0
  0
LINE
  5
46
330
22
100
AcDbEntity
  8
0
100
AcDbLine
 10
22.59973089678116
 20
-9.771599258481472
 30
0.0
 11
18.59973089678112
 21
-9.771599258481472
 31
0.0
  0
LINE
  5
47
330
22
100
AcDbEntity
  8
0
100
AcDbLine
 10
18.59973089678115
 20
-13.77159925848144
 30
0.0
 11
17.59973089678115
 21
-13.77159925848144
 31
0.0
  0
LINE
  5
48
330
22
100
AcDbEntity
  8
0
100
AcDbLine
 10
18.59973089678115
 20
-9.771599258481472
 30
0.0
 11
18.59973089678115
 21
-13.77159925848144
 31
0.0
  0
LINE
  5
49
330
22
100
AcDbEntity
  8
0
100
AcDbLine
 10
22.59973089678116
 20
-9.771599258481472
 30
0.0
 11
23.67152766650562
 21
-13.77159925848147
 31
0.0
  0
ARC
  5
4A
330
22
100
AcDbEntity
  8
0
100
AcDbCircle
 10
22.59973089678116
 20
-7.271599258481472
 30
0.0
 40
2.5
100
AcDbArc
 50
270.0
 51
270.0000000000007
  0
LINE
  5
4B
330
22
100
AcDbEntity
  8
0
100
AcDbLine
 10
28.77130377203494
 20
-12.77159925848147
 30
0.0
 11
24.43885465448463
 21
-12.77159925848144
 31
0.0
  0
LINE
  5
4C
330
22
100
AcDbEntity
  8
0
100
AcDbLine
 10
3.599730896781125
 20
-4.771599258481472
 30
0.0
 11
2.599730896781125
 21
-4.771599258481472
 31
0.0
  0
LINE
  5
4D
330
22
100
AcDbEntity
  8
0
100
AcDbLine
 10
22.59973089678116
 20
-8.771599258481472
 30
0.0
 11
18.59973089678115
 21
-8.771599258481472
 31
0.0
  0
LINE
  5
4E
330
22
100
AcDbEntity
  8
0
100
AcDbLine
 10
22.59973089678116
 20
-5.771599258481472
 30
0.0
 11
18.59973089678115
 21
-5.771599258481472
 31
0.0
  0
LINE
  5
4F
330
22
100
AcDbEntity
  8
0
100
AcDbLine
 10
22.59973089678116
 20
-4.771599258481472
 30
0.0
 11
17.59973089678115
 21
-4.771599258481472
 31
0.0
  0
LINE
  5
50
330
22
100
AcDbEntity
  8
0
100
AcDbLine
 10
18.59973089678115
 20
-5.771599258481472
 30
0.0
 11
18.59973089678115
 21
-8.771599258481472
 31
0.0
  0
ARC
  5
51
330
22
100
AcDbEntity
  8
0
100
AcDbCircle
 10
22.59973089678116
 20
-7.271599258481472
 30
0.0
 40
1.5
100
AcDbArc
 50
270.0
 51
90.0
  0
ENDBLK
  5
52
330
22
100
AcDbEntity
  8
0
100
AcDbBlockEnd
  0
BLOCK
  5
DC8
330
DBD
100
AcDbEntity
  8
0
100
AcDbBlockBegin
  2
*D1
 70
     1
 10
0.0
 20
0.0
 30
0.0
  3
*D1
  1

  0
LINE
  5
E3D
330
DBD
100
AcDbEntity
  8
BEM
 62
     0
370
    -2
100
AcDbLine
 10
62.18282777819968
 20
463.3445708814333
 30
0.0
 11
62.18282777819968
 21
496.4720854114792
 31
0.0
  0
LINE
  5
E3E
330
DBD
100
AcDbEntity
  8
BEM
 62
     0
370
    -2
100
AcDbLine
 10
402.1828277781996
 20
463.3445708814331
 30
0.0
 11
402.1828277781996
 21
496.4720854114792
 31
0.0
  0
LINE
  5
E3F
330
DBD
100
AcDbEntity
  8
BEM
 62
     0
370
    -2
100
AcDbLine
 10
69.18282777819968
 20
494.4720854114791
 30
0.0
 11
395.1828277781997
 21
494.4720854114791
 31
0.0
  0
SOLID
  5
E40
330
DBD
100
AcDbEntity
  8
BEM
 62
     0
100
AcDbTrace
 10
69.18282777819968
 20
495.6387520781458
 30
0.0
 11
69.18282777819968
 21
493.3054187448124
 31
0.0
 12
62.18282777819968
 22
494.4720854114791
 32
0.0
 13
62.18282777819968
 23
494.4720854114791
 33
0.0
  0
SOLID
  5
E41
330
DBD
100
AcDbEntity
  8
BEM
 62
     0
100
AcDbTrace
 10
395.1828277781997
 20
495.6387520781458
 30
0.0
 11
395.1828277781997
 21
493.3054187448124
 31
0.0
 12
402.1828277781996
 22
494.4720854114791
 32
0.0
 13
402.1828277781996
 23
494.4720854114791
 33
0.0
  0
MTEXT
  5
E42
330
DBD
100
AcDbEntity
  8
BEM
 62
     1
100
AcDbMText
 10
237.4248110641397
 20
500.9720854114791
 30
0.0
 40
7.0
 41
0.0
 71
     5
 72
     1
  1
\A1;500
 73
     1
 44
1.0
  0
POINT
  5
E43
330
DBD
100
AcDbEntity
  8
DEFPOINTS
 62
     0
100
AcDbPoint
 10
62.18282777819968
 20
461.3445708814333
 30
0.0
  0
POINT
  5
E44
330
DBD
100
AcDbEntity
  8
DEFPOINTS
 62
     0
100
AcDbPoint
 10
402.1828277781996
 20
461.3445708814332
 30
0.0
  0
POINT
  5
E45
330
DBD
100
AcDbEntity
  8
DEFPOINTS
 62
     0
100
AcDbPoint
 10
402.1828277781996
 20
494.4720854114791
 30
0.0
  0
ENDBLK
  5
DC9
330
DBD
100
AcDbEntity
  8
0
100
AcDbBlockEnd
  0
BLOCK
  5
DD5
330
DCA
100
AcDbEntity
  8
0
100
AcDbBlockBegin
  2
*D2
 70
     1
 10
0.0
 20
0.0
 30
0.0
  3
*D2
  1

  0
LINE
  5
E2B
330
DCA
100
AcDbEntity
  8
BEM
 62
     0
370
    -2
100
AcDbLine
 10
117.1828277781997
 20
458.8445708814332
 30
0.0
 11
117.1828277781997
 21
478.4518145480944
 31
0.0
  0
LINE
  5
E2C
330
DCA
100
AcDbEntity
  8
BEM
 62
     0
370
    -2
100
AcDbLine
 10
347.1828277781997
 20
458.8445708814332
 30
0.0
 11
347.1828277781997
 21
478.4518145480944
 31
0.0
  0
LINE
  5
E2D
330
DCA
100
AcDbEntity
  8
BEM
 62
     0
370
    -2
100
AcDbLine
 10
124.1828277781997
 20
476.4518145480945
 30
0.0
 11
340.1828277781997
 21
476.4518145480945
 31
0.0
  0
SOLID
  5
E2E
330
DCA
100
AcDbEntity
  8
BEM
 62
     0
100
AcDbTrace
 10
124.1828277781997
 20
477.6184812147612
 30
0.0
 11
124.1828277781997
 21
475.2851478814277
 31
0.0
 12
117.1828277781997
 22
476.4518145480945
 32
0.0
 13
117.1828277781997
 23
476.4518145480945
 33
0.0
  0
SOLID
  5
E2F
330
DCA
100
AcDbEntity
  8
BEM
 62
     0
100
AcDbTrace
 10
340.1828277781997
 20
477.6184812147612
 30
0.0
 11
340.1828277781997
 21
475.2851478814277
 31
0.0
 12
347.1828277781997
 22
476.4518145480945
 32
0.0
 13
347.1828277781997
 23
476.4518145480945
 33
0.0
  0
MTEXT
  5
E30
330
DCA
100
AcDbEntity
  8
BEM
 62
     1
100
AcDbMText
 10
232.1828277781997
 20
482.9518145480944
 30
0.0
 40
7.0
 41
0.0
 71
     5
 72
     1
  1
\A1;%%c230
 73
     1
 44
1.0
  0
POINT
  5
E31
330
DCA
100
AcDbEntity
  8
DEFPOINTS
 62
     0
100
AcDbPoint
 10
117.1828277781997
 20
456.8445708814333
 30
0.0
  0
POINT
  5
E32
330
DCA
100
AcDbEntity
  8
DEFPOINTS
 62
     0
100
AcDbPoint
 10
347.1828277781997
 20
456.8445708814333
 30
0.0
  0
POINT
  5
E33
330
DCA
100
AcDbEntity
  8
DEFPOINTS
 62
     0
100
AcDbPoint
 10
347.1828277781997
 20
476.4518145480945
 30
0.0
  0
ENDBLK
  5
DD6
330
DCA
100
AcDbEntity
  8
0
100
AcDbBlockEnd
  0
BLOCK
  5
DE2
330
DD7
100
AcDbEntity
  8
0
100
AcDbBlockBegin
  2
*D3
 70
     1
 10
0.0
 20
0.0
 30
0.0
  3
*D3
  1

  0
LINE
  5
E22
330
DD7
100
AcDbEntity
  8
BEM
 62
     0
370
    -2
100
AcDbLine
 10
195.6828277781997
 20
218.3445708814334
 30
0.0
 11
195.6828277781997
 21
182.8789309150578
 31
0.0
  0
LINE
  5
E23
330
DD7
100
AcDbEntity
  8
BEM
 62
     0
370
    -2
100
AcDbLine
 10
268.6828277781997
 20
218.3445708814334
 30
0.0
 11
268.6828277781997
 21
182.8789309150578
 31
0.0
  0
LINE
  5
E24
330
DD7
100
AcDbEntity
  8
BEM
 62
     0
370
    -2
100
AcDbLine
 10
202.6828277781997
 20
184.8789309150578
 30
0.0
 11
261.6828277781997
 21
184.8789309150578
 31
0.0
  0
SOLID
  5
E25
330
DD7
100
AcDbEntity
  8
BEM
 62
     0
100
AcDbTrace
 10
202.6828277781997
 20
186.0455975817244
 30
0.0
 11
202.6828277781997
 21
183.7122642483912
 31
0.0
 12
195.6828277781997
 22
184.8789309150578
 32
0.0
 13
195.6828277781997
 23
184.8789309150578
 33
0.0
  0
SOLID
  5
E26
330
DD7
100
AcDbEntity
  8
BEM
 62
     0
100
AcDbTrace
 10
261.6828277781997
 20
186.0455975817244
 30
0.0
 11
261.6828277781997
 21
183.7122642483912
 31
0.0
 12
268.6828277781997
 22
184.8789309150578
 32
0.0
 13
268.6828277781997
 23
184.8789309150578
 33
0.0
  0
MTEXT
  5
E27
330
DD7
100
AcDbEntity
  8
BEM
 62
     1
100
AcDbMText
 10
232.1828277781997
 20
191.3789309150578
 30
0.0
 40
7.0
 41
0.0
 71
     5
 72
     1
  1
\A1;%%C73
 73
     1
 44
1.0
  0
POINT
  5
E28
330
DD7
100
AcDbEntity
  8
DEFPOINTS
 62
     0
100
AcDbPoint
 10
195.6828277781997
 20
220.3445708814334
 30
0.0
  0
POINT
  5
E29
330
DD7
100
AcDbEntity
  8
DEFPOINTS
 62
     0
100
AcDbPoint
 10
268.6828277781997
 20
220.3445708814334
 30
0.0
  0
POINT
  5
E2A
330
DD7
100
AcDbEntity
  8
DEFPOINTS
 62
     0
100
AcDbPoint
 10
268.6828277781997
 20
184.8789309150578
 30
0.0
  0
ENDBLK
  5
DE3
330
DD7
100
AcDbEntity
  8
0
100
AcDbBlockEnd
  0
BLOCK
  5
DEF
330
DE4
100
AcDbEntity
  8
0
100
AcDbBlockBegin
  2
*D4
 70
     1
 10
0.0
 20
0.0
 30
0.0
  3
*D4
  1

  0
LINE
  5
E19
330
DE4
100
AcDbEntity
  8
BEM
 62
     0
370
    -2
100
AcDbLine
 10
194.20690557103
 20
210.3445708814333
 30
0.0
 11
91.17198672792801
 21
210.3445708814333
 31
0.0
  0
LINE
  5
E1A
330
DE4
100
AcDbEntity
  8
BEM
 62
     0
370
    -2
100
AcDbLine
 10
94.26681787996505
 20
460.3445708814332
 30
0.0
 11
91.17198672792808
 21
460.3445708814332
 31
0.0
  0
LINE
  5
E1B
330
DE4
100
AcDbEntity
  8
BEM
 62
     0
370
    -2
100
AcDbLine
 10
93.17198672792802
 20
217.3445708814333
 30
0.0
 11
93.17198672792807
 21
453.3445708814332
 31
0.0
  0
SOLID
  5
E1C
330
DE4
100
AcDbEntity
  8
BEM
 62
     0
100
AcDbTrace
 10
92.00532006126135
 20
217.3445708814333
 30
0.0
 11
94.33865339459469
 21
217.3445708814333
 31
0.0
 12
93.17198672792802
 22
210.3445708814333
 32
0.0
 13
93.17198672792802
 23
210.3445708814333
 33
0.0
  0
SOLID
  5
E1D
330
DE4
100
AcDbEntity
  8
BEM
 62
     0
100
AcDbTrace
 10
92.0053200612614
 20
453.3445708814332
 30
0.0
 11
94.33865339459474
 21
453.3445708814332
 31
0.0
 12
93.17198672792807
 22
460.3445708814332
 32
0.0
 13
93.17198672792807
 23
460.3445708814332
 33
0.0
  0
MTEXT
  5
E1E
330
DE4
100
AcDbEntity
  8
BEM
 62
     1
100
AcDbMText
 10
86.67198672792798
 20
335.3445708814333
 30
0.0
 40
7.0
 41
0.0
 71
     5
 72
     1
  1
\A1;250
 11
0.0000000000000001
 21
1.0
 31
0.0
 73
     1
 44
1.0
  0
POINT
  5
E1F
330
DE4
100
AcDbEntity
  8
DEFPOINTS
 62
     0
100
AcDbPoint
 10
196.20690557103
 20
210.3445708814333
 30
0.0
  0
POINT
  5
E20
330
DE4
100
AcDbEntity
  8
DEFPOINTS
 62
     0
100
AcDbPoint
 10
96.26681787996506
 20
460.3445708814332
 30
0.0
  0
POINT
  5
E21
330
DE4
100
AcDbEntity
  8
DEFPOINTS
 62
     0
100
AcDbPoint
 10
93.17198672792807
 20
460.3445708814332
 30
0.0
  0
ENDBLK
  5
DF0
330
DE4
100
AcDbEntity
  8
0
100
AcDbBlockEnd
  0
ENDSEC
  0
SECTION
  2
ENTITIES
  0
LINE
  5
57
330
1E
100
AcDbEntity
  8
STEMPEL
100
AcDbLine
 10
410.0
 20
110.0
 30
0.0
 11
39.99999999999997
 21
110.0
 31
0.0
  0
LINE
  5
58
330
1E
100
AcDbEntity
  8
STEMPEL
100
AcDbLine
 10
136.0000000000001
 20
109.9999999999999
 30
0.0
 11
136.0
 21
9.999999999999971
 31
0.0
  0
LINE
  5
59
330
1E
100
AcDbEntity
  8
STEMPEL
100
AcDbLine
 10
220.0
 20
110.0
 30
0.0
 11
220.0
 21
9.999999999999971
 31
0.0
  0
LINE
  5
5A
330
1E
100
AcDbEntity
  8
STEMPEL
100
AcDbLine
 10
332.0
 20
109.9999999999997
 30
0.0
 11
332.0
 21
40.0
 31
0.0
  0
LINE
  5
5B
330
1E
100
AcDbEntity
  8
STEMPEL
100
AcDbLine
 10
135.9999999999999
 20
29.99999999999997
 30
0.0
 11
39.99999999999997
 21
29.99999999999997
 31
0.0
  0
LINE
  5
5C
330
1E
100
AcDbEntity
  8
STEMPEL
100
AcDbLine
 10
410.0
 20
40.0
 30
0.0
 11
136.0000000000001
 21
39.99999999999997
 31
0.0
  0
LINE
  5
5D
330
1E
100
AcDbEntity
  8
STEMPEL
100
AcDbLine
 10
410.0
 20
80.0
 30
0.0
 11
136.0000000000001
 21
79.99999999999994
 31
0.0
  0
LINE
  5
5E
330
1E
100
AcDbEntity
  8
VOLL
100
AcDbLine
 10
54.00000000000009
 20
110.0
 30
0.0
 11
53.99999999999997
 21
9.999999999999971
 31
0.0
  0
LINE
  5
5F
330
1E
100
AcDbEntity
  8
VOLL
100
AcDbLine
 10
94.00000000000011
 20
109.9999999999999
 30
0.0
 11
94.0
 21
9.999999999999971
 31
0.0
  0
LINE
  5
60
330
1E
100
AcDbEntity
  8
VOLL
100
AcDbLine
 10
114.0000000000001
 20
109.9999999999999
 30
0.0
 11
114.0
 21
9.999999999999971
 31
0.0
  0
LINE
  5
61
330
1E
100
AcDbEntity
  8
VOLL
100
AcDbLine
 10
154.0000000000001
 20
79.99999999999994
 30
0.0
 11
154.0000000000001
 21
39.99999999999997
 31
0.0
  0
LINE
  5
62
330
1E
100
AcDbEntity
  8
VOLL
100
AcDbLine
 10
180.0000000000001
 20
109.9999999999998
 30
0.0
 11
180.0
 21
39.99999999999997
 31
0.0
  0
LINE
  5
63
330
1E
100
AcDbEntity
  8
HILF
100
AcDbLine
 10
40.00000000000008
 20
100.0
 30
0.0
 11
136.0000000000001
 21
100.0
 31
0.0
  0
LINE
  5
64
330
1E
100
AcDbEntity
  8
HILF
100
AcDbLine
 10
40.00000000000008
 20
90.00000000000005
 30
0.0
 11
136.0000000000001
 21
90.00000000000005
 31
0.0
  0
LINE
  5
65
330
1E
100
AcDbEntity
  8
HILF
100
AcDbLine
 10
40.00000000000008
 20
79.99999999999994
 30
0.0
 11
136.0000000000001
 21
79.99999999999994
 31
0.0
  0
LINE
  5
66
330
1E
100
AcDbEntity
  8
HILF
100
AcDbLine
 10
40.00000000000008
 20
69.99999999999994
 30
0.0
 11
136.0000000000001
 21
69.99999999999994
 31
0.0
  0
LINE
  5
67
330
1E
100
AcDbEntity
  8
HILF
100
AcDbLine
 10
40.00000000000008
 20
59.99999999999997
 30
0.0
 11
136.0000000000001
 21
59.99999999999997
 31
0.0
  0
LINE
  5
68
330
1E
100
AcDbEntity
  8
HILF
100
AcDbLine
 10
40.00000000000008
 20
49.99999999999997
 30
0.0
 11
136.0000000000001
 21
49.99999999999997
 31
0.0
  0
LINE
  5
69
330
1E
100
AcDbEntity
  8
HILF
100
AcDbLine
 10
40.00000000000008
 20
39.99999999999997
 30
0.0
 11
136.0000000000001
 21
39.99999999999997
 31
0.0
  0
LINE
  5
6A
330
1E
100
AcDbEntity
  8
HILF
100
AcDbLine
 10
136.0000000000001
 20
69.99999999999994
 30
0.0
 11
220.0
 21
69.99999999999994
 31
0.0
  0
LINE
  5
6B
330
1E
100
AcDbEntity
  8
HILF
100
AcDbLine
 10
136.0000000000001
 20
59.99999999999997
 30
0.0
 11
220.0
 21
59.99999999999997
 31
0.0
  0
LINE
  5
6C
330
1E
100
AcDbEntity
  8
HILF
100
AcDbLine
 10
136.0000000000001
 20
49.99999999999997
 30
0.0
 11
220.0
 21
49.99999999999997
 31
0.0
  0
LINE
  5
6D
330
1E
100
AcDbEntity
  8
HILF
100
AcDbLine
 10
224.7736801096948
 20
84.03758247564139
 30
0.0
 11
324.8353916556311
 21
84.03758247564139
 31
0.0
  0
LINE
  5
6E
330
1E
100
AcDbEntity
  8
HILF
100
AcDbLine
 10
224.7736801096948
 20
69.99999999999994
 30
0.0
 11
324.835391655631
 21
69.99999999999994
 31
0.0
  0
LINE
  5
6F
330
1E
100
AcDbEntity
  8
HILF
100
AcDbLine
 10
224.7736801096948
 20
59.99999999999997
 30
0.0
 11
324.835391655631
 21
59.99999999999997
 31
0.0
  0
LINE
  5
70
330
1E
100
AcDbEntity
  8
HILF
100
AcDbLine
 10
224.7736801096948
 20
49.99999999999997
 30
0.0
 11
324.835391655631
 21
49.99999999999997
 31
0.0
  0
LINE
  5
71
330
1E
100
AcDbEntity
  8
VOLL
100
AcDbLine
 10
332.0
 20
60.0
 30
0.0
 11
410.0
 21
60.0
 31
0.0
  0
LINE
  5
72
330
1E
100
AcDbEntity
  8
HILF
100
AcDbLine
 10
336.7238616296993
 20
83.77983636955827
 30
0.0
 11
404.8588839326728
 21
83.77983636955827
 31
0.0
  0
LINE
  5
73
330
1E
100
AcDbEntity
  8
HILF
100
AcDbLine
 10
223.4909699289885
 20
14.89398258028314
 30
0.0
 11
404.8588839326728
 21
14.89398258028314
 31
0.0
  0
TEXT
  5
74
330
1E
100
AcDbEntity
  8
TEXT
100
AcDbText
 10
63.86165979631819
 20
18.67381894984132
 30
0.0
 40
4.0
  1
Änderung
 41
0.8
  7
GREEKS
 72
     1
 11
74.60451693917534
 21
18.67381894984132
 31
0.0
100
AcDbText
  0
TEXT
  5
75
330
1E
100
AcDbEntity
  8
TEXT
100
AcDbText
 10
143.5163572150377
 20
102.4620895087088
 30
0.0
 40
5.0
  1
Maßstab
 41
0.8
  7
GREEKS
100
AcDbText
  0
TEXT
  5
76
330
1E
100
AcDbEntity
  8
TEXT
100
AcDbText
 10
184.2858954734051
 20
102.4184168434819
 30
0.0
 40
5.0
  1
Zul. Abw.
 41
0.8
  7
GREEKS
100
AcDbText
  0
TEXT
  5
77
330
1E
100
AcDbEntity
  8
TEXT
100
AcDbText
 10
224.877940380901
 20
102.5489328011779
 30
0.0
 40
5.0
  1
Benennung
 41
0.8
  7
GREEKS
100
AcDbText
  0
TEXT
  5
78
330
1E
100
AcDbEntity
  8
TEXT
100
AcDbText
 10
336.178754957634
 20
102.3132034537136
 30
0.0
 40
5.0
  1
Zeichnungs Nr.
 41
0.8
  7
GREEKS
100
AcDbText
  0
TEXT
  5
79
330
1E
100
AcDbEntity
  8
TEXT
100
AcDbText
 10
224.742238391136
 20
30.84560570193057
 30
0.0
 40
5.0
  1
Bauvorhaben
 41
0.8
  7
GREEKS
100
AcDbText
  0
TEXT
  5
7A
330
1E
100
AcDbEntity
  8
TEXT
100
AcDbText
 10
336.7238616296993
 20
73.1811823709997
 30
0.0
 40
5.0
  1
Ersatz für:
 41
0.8
  7
GREEKS
100
AcDbText
  0
TEXT
  5
7B
330
1E
100
AcDbEntity
  8
TEXT
100
AcDbText
 10
48.26641107045756
 20
13.65465846027192
 30
0.0
 40
4.0
  1
Index
 50
90.0
 41
0.8
  7
GREEKS
100
AcDbText
  0
TEXT
  5
7C
330
1E
100
AcDbEntity
  8
TEXT
100
AcDbText
 10
100.0934676075481
 20
18.6715626933981
 30
0.0
 40
4.0
  1
Tag
 41
0.8
  7
GREEKS
 72
     1
 11
103.8268009408814
 21
18.6715626933981
 31
0.0
100
AcDbText
  0
TEXT
  5
7D
330
1E
100
AcDbEntity
  8
TEXT
100
AcDbText
 10
119.0122744386592
 20
18.59324216966408
 30
0.0
 40
4.0
  1
Name
 41
0.8
  7
GREEKS
 72
     1
 11
125.3360839624688
 21
18.59324216966408
 31
0.0
100
AcDbText
  0
TEXT
  5
7E
330
1E
100
AcDbEntity
  8
TEXT
100
AcDbText
 10
162.3311673153651
 20
73.31880501229926
 30
0.0
 40
4.0
  1
Tag
 41
0.8
  7
GREEKS
100
AcDbText
  0
TEXT
  5
7F
330
1E
100
AcDbEntity
  8
TEXT
100
AcDbText
 10
192.4626584226295
 20
73.30961091915225
 30
0.0
 40
4.0
  1
Name
 41
0.8
  7
GREEKS
100
AcDbText
  0
TEXT
  5
80
330
1E
100
AcDbEntity
  8
TEXT
100
AcDbText
 10
137.5836127167615
 20
63.62990369617964
 30
0.0
 40
4.0
  1
Gez.
 41
0.8
  7
GREEKS
100
AcDbText
  0
TEXT
  5
81
330
1E
100
AcDbEntity
  8
TEXT
100
AcDbText
 10
137.5515086571672
 20
53.68926291428377
 30
0.0
 40
4.0
  1
Gepr.
 41
0.8
  7
GREEKS
100
AcDbText
  0
TEXT
  5
82
330
1E
100
AcDbEntity
  8
TEXT
100
AcDbText
 10
137.6006777387304
 20
43.52946389649807
 30
0.0
 40
4.0
  1
Norm.
 41
0.8
  7
GREEKS
100
AcDbText
  0
LINE
  5
83
330
1E
100
AcDbEntity
  8
STEMPEL
100
AcDbLine
 10
49.99999999999989
 20
10.0
 30
0.0
 11
410.0
 21
10.0
 31
0.0
  0
TEXT
  5
84
330
1E
100
AcDbEntity
  8
TEXT
100
AcDbText
 10
337.2400861497006
 20
52.07416177878602
 30
0.0
 40
5.0
  1
ersetzt durch:
 41
0.8
  7
GREEKS
100
AcDbText
  0
LINE
  5
85
330
1E
100
AcDbEntity
  8
STEMPEL
100
AcDbLine
 10
410.0
 20
10.0
 30
0.0
 11
39.99999999999989
 21
10.0
 31
0.0
  0
LINE
  5
86
330
1E
100
AcDbEntity
  8
STEMPEL
100
AcDbLine
 10
410.0
 20
10.0
 30
0.0
 11
410.0
 21
584.0
 31
0.0
  0
LINE
  5
87
330
1E
100
AcDbEntity
  8
STEMPEL
100
AcDbLine
 10
40.0
 20
10.0
 30
0.0
 11
39.99999999999989
 21
584.0
 31
0.0
  0
LINE
  5
88
330
1E
100
AcDbEntity
  8
STEMPEL
100
AcDbLine
 10
410.0
 20
584.0
 30
0.0
 11
39.99999999999989
 21
584.0
 31
0.0
  0
LINE
  5
89
330
1E
100
AcDbEntity
  8
HILF
100
AcDbLine
 10
0.0
 20
0.0
 30
0.0
 11
-0.0000000000001137
 21
594.0
 31
0.0
  0
LINE
  5
8A
330
1E
100
AcDbEntity
  8
HILF
100
AcDbLine
 10
419.9999999999999
 20
594.0000000000002
 30
0.0
 11
0.0
 21
594.0
 31
0.0
  0
LINE
  5
8B
330
1E
100
AcDbEntity
  8
HILF
100
AcDbLine
 10
420.0
 20
0.0
 30
0.0
 11
0.0
 21
0.0
 31
0.0
  0
LINE
  5
8C
330
1E
100
AcDbEntity
  8
HILF
100
AcDbLine
 10
31.08767135713856
 20
297.0
 30
0.0
 11
0.0000000000001137
 21
297.0
 31
0.0
  0
TEXT
  5
8D
330
1E
100
AcDbEntity
  8
TEXT
100
AcDbText
 10
138.622109822104
 20
73.14025471151666
 30
0.0
 40
4.0
  1
2008
 41
0.8
  7
GREEKS
100
AcDbText
  0
LINE
  5
8E
330
1E
100
AcDbEntity
  8
HILF
100
AcDbLine
 10
420.0
 20
-0.0000000000001137
 30
0.0
 11
419.9999999999999
 21
594.0
 31
0.0
  0
TEXT
  5
8F
330
1E
100
AcDbEntity
  8
VOLL
100
AcDbText
 10
78.07675471698113
 20
31.02594776470585
 30
0.0
 40
1.8
  1

  7
GREEKS
100
AcDbText
  0
TEXT
  5
90
330
1E
100
AcDbEntity
  8
TEXT
100
AcDbText
 10
41.85509950977674
 20
111.6719999999999
 30
0.0
 40
5.0
  1
Erstellt mit AUTOCAD 2004
 41
0.8
  7
GREEKS
100
AcDbText
  0
TEXT
  5
91
330
1E
100
AcDbEntity
  8
TEXT
100
AcDbText
 10
194.4216048581257
 20
63.0896391972351
 30
0.0
 40
4.0
  1
Koeh
 41
0.8
  7
GREEKS
 72
     1
 11
199.6787477152685
 21
63.0896391972351
 31
0.0
100
AcDbText
  0
TEXT
  5
92
330
1E
100
AcDbEntity
  8
TEXT
 62
     1
100
AcDbText
 10
345.0002769697991
 20
88.14901428913959
 30
0.0
 40
7.0
  1
15230070W
 41
0.8
  7
GREEKS
 72
     1
 11
368.4669436364658
 21
88.14901428913959
 31
0.0
100
AcDbText
  0
TEXT
  5
93
330
1E
100
AcDbEntity
  8
TEXT
 62
     1
100
AcDbText
 10
150.5006306481887
 20
88.14901428913959
 30
0.0
 40
7.0
  1
1:2
 41
0.8
  7
GREEKS
100
AcDbText
  0
TEXT
  5
94
330
1E
100
AcDbEntity
  8
TEXT
100
AcDbText
 10
160.398997108236
 20
63.10765040825732
 30
0.0
 40
4.0
  1
20.05.
 41
0.8
  7
GREEKS
 72
     1
 11
167.4085209177598
 21
63.10765040825732
 31
0.0
100
AcDbText
  0
TEXT
  5
95
330
1E
100
AcDbEntity
  8
TEXT
 62
     1
100
AcDbText
 10
226.8935731057402
 20
87.41748789253779
 30
0.0
 40
7.0
  1
Balkonablauf DN70
 41
0.8
  7
GREEKS
100
AcDbText
  0
TEXT
  5
96
330
1E
100
AcDbEntity
  8
TEXT
100
AcDbText
 10
225.1296391125315
 20
71.50334417585288
 30
0.0
 40
5.0
  1
Grundeinheit
 41
0.8
  7
GREEKS
100
AcDbText
  0
TEXT
  5
97
330
1E
100
AcDbEntity
  8
TEXT
100
AcDbText
 10
225.1296391125315
 20
62.11580706774856
 30
0.0
 40
5.0
  1

 41
0.8
  7
GREEKS
100
AcDbText
  0
TEXT
  5
98
330
1E
100
AcDbEntity
  8
TEXT
100
AcDbText
 10
225.1296391125315
 20
51.64011943042158
 30
0.0
 40
5.0
  1
EDV-Art.Nr. 15230.070X
 41
0.8
  7
GREEKS
100
AcDbText
  0
TEXT
  5
99
330
1E
100
AcDbEntity
  8
TEXT
100
AcDbText
 10
224.9837501577827
 20
42.62974153022632
 30
0.0
 40
4.0
  1
15230070W.DWG
 41
0.8
  7
GREEKS
100
AcDbText
  0
TEXT
  5
9A
330
1E
100
AcDbEntity
  8
TEXT
100
AcDbText
 10
182.626132208084
 20
90.76363841023022
 30
0.0
 40
4.0
  1
DIN EN1123-2
 41
0.8
  7
GREEKS
 72
     1
 11
199.6166083985602
 21
90.76363841023022
 31
0.0
100
AcDbText
  0
INSERT
  5
9B
330
1E
100
AcDbEntity
  8
STEMPEL
100
AcDbBlockReference
  2
LOGO
 10
140.9955485457794
 20
45.02105276448322
 30
0.0
 41
2.0
 42
2.0
 43
2.0
  0
TEXT
  5
118
330
1E
100
AcDbEntity
  8
BEM
100
AcDbText
 10
417.3022923857165
 20
10.16790107998849
 30
0.0
 40
4.0
  1
Diese Zeichnung ist urheberrechtlich geschützt und bleibt unser Eigentum. Sie darf weder ganz noch teilweise verfielfältigt und nicht an Dritte weitergegeben werden.
 50
90.0
 41
0.8
  7
GREEKS
100
AcDbText
  0
TEXT
  5
915
330
1E
100
AcDbEntity
  8
TEXT
 62
     1
100
AcDbText
 10
222.5107958740327
 20
292.9380969707191
 30
0.0
 40
7.0
  1
DN70
 50
90.0
 41
0.8
  7
GREEKS
100
AcDbText
  0
LINE
  5
CCC
330
1E
100
AcDbEntity
  8
BEM
 62
     1
100
AcDbLine
 10
220.1251153896307
 20
504.1109111308054
 30
0.0
 11
227.1251153896308
 21
504.1109111308054
 31
0.0
  0
TEXT
  5
CCD
330
1E
100
AcDbEntity
  8
TEXT
 62
     1
100
AcDbText
 10
292.7119093707829
 20
507.7993631767322
 30
0.0
 40
7.0
  1
EDV-Art.Nr. 15592.000X
 41
0.8
  7
GREEKS
100
AcDbText
  0
LINE
  5
CCE
330
1E
100
AcDbEntity
  8
TEXT
 62
     2
100
AcDbLine
 10
292.5064721394824
 20
517.0736393414795
 30
0.0
 11
397.5240105716758
 21
517.0736393414795
 31
0.0
  0
TEXT
  5
CCF
330
1E
100
AcDbEntity
  8
TEXT
 62
     1
100
AcDbText
 10
292.7119093707829
 20
520.0301777056913
 30
0.0
 40
7.0
  1
Klemmring
 41
0.8
  7
GREEKS
100
AcDbText
  0
LINE
  5
CD0
330
1E
100
AcDbEntity
  8
STEMPEL
100
AcDbLine
 10
402.1828277781996
 20
461.3445708814332
 30
0.0
 11
402.1828277781996
 21
460.3445708814331
 31
0.0
  0
LINE
  5
CD1
330
1E
100
AcDbEntity
  8
HILF
100
AcDbLine
 10
380.9819505357287
 20
463.3445708814331
 30
0.0
 11
379.6422045735732
 21
458.3445708814331
 31
0.0
  0
LINE
  5
CD2
330
1E
100
AcDbEntity
  8
HILF
100
AcDbLine
 10
381.9819505357287
 20
463.3445708814331
 30
0.0
 11
380.6422045735732
 21
458.3445708814331
 31
0.0
  0
LINE
  5
CD4
330
1E
100
AcDbEntity
  8
STEMPEL
100
AcDbLine
 10
402.1828277781996
 20
461.3445708814332
 30
0.0
 11
381.4460521508665
 21
461.3445708814331
 31
0.0
  0
LINE
  5
CD5
330
1E
100
AcDbEntity
  8
STEMPEL
100
AcDbLine
 10
402.1828277781996
 20
460.3445708814332
 30
0.0
 11
381.1781029584354
 21
460.3445708814331
 31
0.0
  0
LINE
  5
CD6
330
1E
100
AcDbEntity
  8
STEMPEL
100
AcDbLine
 10
347.1828277781997
 20
456.8445708814333
 30
0.0
 11
346.5489003855887
 21
455.4851092008783
 31
0.0
  0
LINE
  5
CD7
330
1E
100
AcDbEntity
  8
STEMPEL
100
AcDbLine
 10
347.1828277781997
 20
456.8445708814333
 30
0.0
 11
339.6770535564162
 21
460.3445708814333
 31
0.0
  0
LINE
  5
CD8
330
1E
100
AcDbEntity
  8
STEMPEL
100
AcDbLine
 10
346.5489003855887
 20
455.4851092008783
 30
0.0
 11
339.3445115624518
 21
458.8445708814332
 31
0.0
  0
LINE
  5
CDA
330
1E
100
AcDbEntity
  8
TEXT
 62
     2
100
AcDbLine
 10
286.2331228684212
 20
488.6552956113674
 30
0.0
 11
284.3706238530502
 21
480.218153834491
 31
0.0
  0
ARC
  5
CDB
330
1E
100
AcDbEntity
  8
STEMPEL
100
AcDbCircle
 10
296.4965362771845
 20
452.3445708814333
 30
0.0
 40
6.5
100
AcDbArc
 50
90.0
 51
135.0
  0
LINE
  5
CDC
330
1E
100
AcDbEntity
  8
STEMPEL
100
AcDbLine
 10
290.8396820276921
 20
458.0014251309257
 30
0.0
 11
289.1828277781999
 21
456.3445708814334
 31
0.0
  0
LINE
  5
CDD
330
1E
100
AcDbEntity
  8
STEMPEL
100
AcDbLine
 10
284.1828277781997
 20
460.3445708814332
 30
0.0
 11
284.1828277781997
 21
456.7743553738967
 31
0.0
  0
LINE
  5
CDE
330
1E
100
AcDbEntity
  8
STEMPEL
100
AcDbLine
 10
290.1828277781997
 20
461.3445708814332
 30
0.0
 11
287.1828277781997
 21
458.3445708814331
 31
0.0
  0
ARC
  5
CDF
330
1E
100
AcDbEntity
  8
STEMPEL
100
AcDbCircle
 10
287.3633849755807
 20
454.3486480720593
 30
0.0
 40
4.0
100
AcDbArc
 50
142.6684147984917
 51
152.5871704346633
  0
ARC
  5
CE0
330
1E
100
AcDbEntity
  8
STEMPEL
100
AcDbCircle
 10
287.3633849755807
 20
454.3486480720593
 30
0.0
 40
4.0
100
AcDbArc
 50
92.58717043466415
 51
142.6684147984917
  0
LINE
  5
CE1
330
1E
100
AcDbEntity
  8
STEMPEL
100
AcDbLine
 10
290.1325752465055
 20
458.7085319121122
 30
0.0
 11
288.7569012752533
 21
457.33285794086
 31
0.0
  0
LINE
  5
CE2
330
1E
100
AcDbEntity
  8
STEMPEL
100
AcDbLine
 10
290.1828277781997
 20
461.3445708814332
 30
0.0
 11
285.1828277781997
 21
461.3445708814332
 31
0.0
  0
LINE
  5
CE3
330
1E
100
AcDbEntity
  8
STEMPEL
100
AcDbLine
 10
284.1828277781997
 20
460.3445708814332
 30
0.0
 11
285.1828277781997
 21
461.3445708814332
 31
0.0
  0
ARC
  5
CE4
330
1E
100
AcDbEntity
  8
STEMPEL
100
AcDbCircle
 10
296.4965362771845
 20
452.3445708814333
 30
0.0
 40
8.0
100
AcDbArc
 50
135.0
 51
135.0
  0
ARC
  5
CE5
330
1E
100
AcDbEntity
  8
STEMPEL
100
AcDbCircle
 10
296.4965362771845
 20
452.3445708814333
 30
0.0
 40
9.0
100
AcDbArc
 50
90.0
 51
135.0
  0
ARC
  5
CE6
330
1E
100
AcDbEntity
  8
STEMPEL
100
AcDbCircle
 10
296.4965362771845
 20
452.3445708814333
 30
0.0
 40
8.0
100
AcDbArc
 50
90.0
 51
135.0
  0
LINE
  5
CE7
330
1E
100
AcDbEntity
  8
STEMPEL
100
AcDbLine
 10
277.4328277781997
 20
459.9981607199193
 30
0.0
 11
277.4328277781997
 21
456.2445708814331
 31
0.0
  0
LINE
  5
CE8
330
1E
100
AcDbEntity
  8
STEMPEL
100
AcDbLine
 10
281.1828277781997
 20
461.3445708814332
 30
0.0
 11
277.2328277781996
 21
461.3445708814332
 31
0.0
  0
LINE
  5
CE9
330
1E
100
AcDbEntity
  8
STEMPEL
100
AcDbLine
 10
277.2328277781996
 20
460.3445708814332
 30
0.0
 11
277.4328277781997
 21
459.9981607199193
 31
0.0
  0
LINE
  5
CEA
330
1E
100
AcDbEntity
  8
STEMPEL
100
AcDbLine
 10
277.2328277781996
 20
461.3445708814332
 30
0.0
 11
277.2328277781996
 21
460.3445708814332
 31
0.0
  0
LINE
  5
CEB
330
1E
100
AcDbEntity
  8
STEMPEL
100
AcDbLine
 10
282.1828277781997
 20
460.3445708814332
 30
0.0
 11
281.1828277781997
 21
461.3445708814332
 31
0.0
  0
LINE
  5
CEC
330
1E
100
AcDbEntity
  8
STEMPEL
100
AcDbLine
 10
270.6828277781997
 20
456.2445708814331
 30
0.0
 11
270.6828277781997
 21
455.2445708814332
 31
0.0
  0
LINE
  5
CED
330
1E
100
AcDbEntity
  8
STEMPEL
100
AcDbLine
 10
277.4328277781997
 20
456.2445708814331
 30
0.0
 11
270.6828277781997
 21
456.2445708814331
 31
0.0
  0
LINE
  5
CEE
330
1E
100
AcDbEntity
  8
TEXT
 62
     2
100
AcDbLine
 10
282.8711380519154
 20
473.4254660573821
 30
0.0
 11
279.7333508710271
 21
459.2112543491698
 31
0.0
  0
LINE
  5
CEF
330
1E
100
AcDbEntity
  8
STEMPEL
100
AcDbLine
 10
285.1828277781997
 20
461.3445708814332
 30
0.0
 11
281.1828277781997
 21
461.3445708814332
 31
0.0
  0
LINE
  5
CF0
330
1E
100
AcDbEntity
  8
STEMPEL
100
AcDbLine
 10
284.1828277781997
 20
460.3445708814332
 30
0.0
 11
282.1828277781997
 21
460.3445708814332
 31
0.0
  0
ARC
  5
CF1
330
1E
100
AcDbEntity
  8
STEMPEL
100
AcDbCircle
 10
286.6828277781997
 20
450.7402148051753
 30
0.0
 40
2.5
100
AcDbArc
 50
155.3800226712864
 51
177.1292868703573
  0
LINE
  5
CF2
330
1E
100
AcDbEntity
  8
STEMPEL
100
AcDbLine
 10
284.6966737861706
 20
449.0807966740693
 30
0.0
 11
284.2247917778605
 21
450.6579229753637
 31
0.0
  0
ARC
  5
CF3
330
1E
100
AcDbEntity
  8
STEMPEL
100
AcDbCircle
 10
285.1828277781997
 20
450.9445708814332
 30
0.0
 40
1.0
100
AcDbArc
 50
184.5397086345421
 51
196.6573770607393
  0
ARC
  5
CF4
330
1E
100
AcDbEntity
  8
STEMPEL
100
AcDbCircle
 10
278.4138028032522
 20
441.3445708814331
 30
0.0
 40
5.745201938350518
100
AcDbArc
 50
340.7988568646112
 51
353.1950252396071
  0
ARC
  5
CF5
330
1E
100
AcDbEntity
  8
STEMPEL
100
AcDbCircle
 10
262.1828277781997
 20
442.3445708814333
 30
0.0
 40
22.0
100
AcDbArc
 50
353.3741904351755
 51
16.65737706073303
  0
ARC
  5
CF6
330
1E
100
AcDbEntity
  8
STEMPEL
100
AcDbCircle
 10
262.1828277781997
 20
442.3445708814333
 30
0.0
 40
23.5
100
AcDbArc
 50
353.3741904351755
 51
16.65737706073303
  0
LINE
  5
CF7
330
1E
100
AcDbEntity
  8
STEMPEL
100
AcDbLine
 10
280.4328277781997
 20
450.3445708814331
 30
0.0
 11
280.4328277781997
 21
445.3445708814331
 31
0.0
  0
ARC
  5
CF8
330
1E
100
AcDbEntity
  8
STEMPEL
100
AcDbCircle
 10
279.7959162599011
 20
442.500966276892
 30
0.0
 40
2.843604604541096
100
AcDbArc
 50
90.0
 51
116.2275560863386
  0
LINE
  5
CF9
330
1E
100
AcDbEntity
  8
STEMPEL
100
AcDbLine
 10
280.4328277781997
 20
445.3445708814331
 30
0.0
 11
277.4328277781997
 21
445.3445708814331
 31
0.0
  0
ARC
  5
CFA
330
1E
100
AcDbEntity
  8
STEMPEL
100
AcDbCircle
 10
280.5018563050129
 20
441.5800545030373
 30
0.0
 40
4.029197037170673
100
AcDbArc
 50
139.9438129476451
 51
160.7988568646112
  0
ARC
  5
CFB
330
1E
100
AcDbEntity
  8
STEMPEL
100
AcDbCircle
 10
280.0712471577835
 20
441.942098668828
 30
0.0
 40
3.466613518339271
100
AcDbArc
 50
116.2275560863386
 51
139.9438129476451
  0
ARC
  5
CFC
330
1E
100
AcDbEntity
  8
STEMPEL
100
AcDbCircle
 10
277.4328277781997
 20
444.3445708814332
 30
0.0
 40
1.0
100
AcDbArc
 50
90.0
 51
180.0
  0
LINE
  5
CFD
330
1E
100
AcDbEntity
  8
STEMPEL
100
AcDbLine
 10
280.4328277781997
 20
450.3445708814331
 30
0.0
 11
282.1828277781997
 21
453.3756597946787
 31
0.0
  0
LINE
  5
CFE
330
1E
100
AcDbEntity
  8
STEMPEL
100
AcDbLine
 10
281.8297017770126
 20
449.9413032101897
 30
0.0
 11
282.3015837853228
 21
448.3641769088946
 31
0.0
  0
ARC
  5
CFF
330
1E
100
AcDbEntity
  8
STEMPEL
100
AcDbCircle
 10
285.1828277781997
 20
450.9445708814332
 30
0.0
 40
3.5
100
AcDbArc
 50
179.2949112955892
 51
196.657377060733
  0
ARC
  5
D00
330
1E
100
AcDbEntity
  8
STEMPEL
100
AcDbCircle
 10
285.1828277781997
 20
451.0307115430704
 30
0.0
 40
3.5
100
AcDbArc
 50
160.2500772043233
 51
180.7050887044108
  0
ARC
  5
D01
330
1E
100
AcDbEntity
  8
STEMPEL
100
AcDbCircle
 10
285.1828277781997
 20
450.9445708814332
 30
0.0
 40
2.5
100
AcDbArc
 50
179.012851892306
 51
196.657377060733
  0
ARC
  5
D02
330
1E
100
AcDbEntity
  8
STEMPEL
100
AcDbCircle
 10
285.1828277781997
 20
451.0307115430704
 30
0.0
 40
2.5
100
AcDbArc
 50
160.2500772043233
 51
180.987148107694
  0
LINE
  5
D03
330
1E
100
AcDbEntity
  8
STEMPEL
100
AcDbLine
 10
282.6828277781997
 20
451.0307115430704
 30
0.0
 11
282.6828277781997
 21
450.9445708814332
 31
0.0
  0
LINE
  5
D04
330
1E
100
AcDbEntity
  8
STEMPEL
100
AcDbLine
 10
282.7780978315809
 20
437.6899379828237
 30
0.0
 11
280.6634870666785
 21
435.3385401890649
 31
0.0
  0
LINE
  5
D05
330
1E
100
AcDbEntity
  8
STEMPEL
100
AcDbLine
 10
282.0693668540859
 20
438.3973362631277
 30
0.0
 11
279.9199339705189
 21
436.007217086521
 31
0.0
  0
ARC
  5
D06
330
1E
100
AcDbEntity
  8
STEMPEL
100
AcDbCircle
 10
278.4328277781997
 20
437.3445708814331
 30
0.0
 40
2.0
100
AcDbArc
 50
270.0
 51
0.0
  0
ARC
  5
D07
330
1E
100
AcDbEntity
  8
STEMPEL
100
AcDbCircle
 10
278.4328277781997
 20
437.3445708814331
 30
0.0
 40
3.0
100
AcDbArc
 50
270.0
 51
318.0349709299673
  0
LINE
  5
D08
330
1E
100
AcDbEntity
  8
STEMPEL
100
AcDbLine
 10
277.1828277781997
 20
435.3445708814332
 30
0.0
 11
277.1828277781997
 21
434.3445708814332
 31
0.0
  0
ARC
  5
D09
330
1E
100
AcDbEntity
  8
STEMPEL
100
AcDbCircle
 10
279.7959162599011
 20
440.1881754859742
 30
0.0
 40
2.843604604540985
100
AcDbArc
 50
243.7724439136613
 51
270.0
  0
LINE
  5
D0A
330
1E
100
AcDbEntity
  8
STEMPEL
100
AcDbLine
 10
280.4328277781997
 20
437.3445708814331
 30
0.0
 11
277.4328277781997
 21
437.3445708814331
 31
0.0
  0
ARC
  5
D0B
330
1E
100
AcDbEntity
  8
STEMPEL
100
AcDbCircle
 10
280.0712471577834
 20
440.7470430940382
 30
0.0
 40
3.466613518339158
100
AcDbArc
 50
220.0561870523549
 51
243.7724439136613
  0
ARC
  5
D0C
330
1E
100
AcDbEntity
  8
STEMPEL
100
AcDbCircle
 10
280.5018563050129
 20
441.109087259829
 30
0.0
 40
4.029197037170677
100
AcDbArc
 50
199.2011431353887
 51
220.0561870523549
  0
ARC
  5
D0D
330
1E
100
AcDbEntity
  8
STEMPEL
100
AcDbCircle
 10
281.1780297165497
 20
441.3445708814331
 30
0.0
 40
4.745201938350191
100
AcDbArc
 50
180.0
 51
199.2011431353887
  0
ARC
  5
D0E
330
1E
100
AcDbEntity
  8
STEMPEL
100
AcDbCircle
 10
277.4328277781997
 20
438.3445708814331
 30
0.0
 40
1.0
100
AcDbArc
 50
180.0
 51
270.0
  0
ARC
  5
D0F
330
1E
100
AcDbEntity
  8
STEMPEL
100
AcDbCircle
 10
279.0899762147891
 20
441.1090872598292
 30
0.0
 40
4.029197037170963
100
AcDbArc
 50
319.9438129476452
 51
340.7988568646112
  0
ARC
  5
D10
330
1E
100
AcDbEntity
  8
STEMPEL
100
AcDbCircle
 10
279.5205853620181
 20
440.7470430940389
 30
0.0
 40
3.466613518340057
100
AcDbArc
 50
296.2275560863474
 51
319.9438129476452
  0
ARC
  5
D11
330
1E
100
AcDbEntity
  8
STEMPEL
100
AcDbCircle
 10
279.7959162599011
 20
440.1881754859749
 30
0.0
 40
2.843604604541721
100
AcDbArc
 50
270.0
 51
296.2275560863328
  0
LINE
  5
D12
330
1E
100
AcDbEntity
  8
STEMPEL
100
AcDbLine
 10
272.6828277781997
 20
449.7496160425239
 30
0.0
 11
272.6828277781997
 21
435.3445708814332
 31
0.0
  0
ARC
  5
D13
330
1E
100
AcDbEntity
  8
STEMPEL
100
AcDbCircle
 10
281.1780297165497
 20
441.3445708814331
 30
0.0
 40
4.745201938350191
100
AcDbArc
 50
160.7988568646112
 51
180.0
  0
LINE
  5
D14
330
1E
100
AcDbEntity
  8
STEMPEL
100
AcDbLine
 10
276.4328277781997
 20
444.3445708814332
 30
0.0
 11
276.4328277781997
 21
438.3445708814331
 31
0.0
  0
ARC
  5
D15
330
1E
100
AcDbEntity
  8
STEMPEL
100
AcDbCircle
 10
262.1828277781997
 20
442.3445708814333
 30
0.0
 40
21.0
100
AcDbArc
 50
355.6782614202368
 51
16.65737706073303
  0
ARC
  5
D16
330
1E
100
AcDbEntity
  8
STEMPEL
100
AcDbCircle
 10
279.0899762147891
 20
441.1090872598292
 30
0.0
 40
5.029197037170963
100
AcDbArc
 50
317.1673057240919
 51
340.7988568646112
  0
LWPOLYLINE
  5
D17
330
1E
100
AcDbEntity
  8
STEMPEL
100
AcDbPolyline
 90
        5
 70
     0
 43
0.0
 10
279.7959162599011
 20
445.3445708814331
 42
-0.1149415123267204
 10
281.052611295318
 20
445.0518102029146
 42
-0.1038526577300335
 10
282.1739789310427
 20
444.1729980061793
 42
-0.0912492981546976
 10
282.8950282498936
 20
442.90519893837
 42
-0.0839773692119132
 10
283.1590047416027
 20
441.3445708814331
 42
-0.0839773692119072
  0
ARC
  5
D19
330
1E
100
AcDbEntity
  8
STEMPEL
100
AcDbCircle
 10
278.4138028032522
 20
441.3445708814331
 30
0.0
 40
4.745201938350518
100
AcDbArc
 50
340.7988568646112
 51
352.9488587834632
  0
LINE
  5
D1A
330
1E
100
AcDbEntity
  8
STEMPEL
100
AcDbLine
 10
282.7877377773518
 20
450.2279511162593
 30
0.0
 11
283.259619785662
 21
448.6508248149642
 31
0.0
  0
LINE
  5
D1B
102
{ACAD_REACTORS
330
EB3
102
}
330
1E
100
AcDbEntity
  8
STEMPEL
100
AcDbLine
 10
273.8087225260773
 20
430.3445708814332
 30
0.0
 11
272.5437693364941
 21
428.2293957306706
 31
0.0
  0
LINE
  5
D1C
102
{ACAD_REACTORS
330
EB3
330
EBF
102
}
330
1E
100
AcDbEntity
  8
STEMPEL
100
AcDbLine
 10
273.8087225260773
 20
430.3445708814332
 30
0.0
 11
275.1818989330281
 21
429.5233604605341
 31
0.0
  0
LINE
  5
D1D
102
{ACAD_REACTORS
330
EB3
330
EBF
102
}
330
1E
100
AcDbEntity
  8
STEMPEL
100
AcDbLine
 10
275.1818989330281
 20
429.5233604605341
 30
0.0
 11
273.9169457434449
 21
427.4081853097714
 31
0.0
  0
LINE
  5
D1E
330
1E
100
AcDbEntity
  8
STEMPEL
100
AcDbLine
 10
270.6828277781997
 20
430.3445708814333
 30
0.0
 11
275.0959993483444
 21
430.3445708814333
 31
0.0
  0
ARC
  5
D1F
102
{ACAD_REACTORS
330
EBF
102
}
330
1E
100
AcDbEntity
  8
SCHRAFF
100
AcDbCircle
 10
274.0292673229061
 20
431.0170574748642
 30
0.0
 40
3.240088443628633
100
AcDbArc
 50
271.9336604989975
 51
351.985569322834
  0
ARC
  5
D22
330
1E
100
AcDbEntity
  8
STEMPEL
100
AcDbCircle
 10
275.0959993483444
 20
440.8445708814332
 30
0.0
 40
9.0
100
AcDbArc
 50
270.0
 51
353.3741904351755
  0
ARC
  5
D23
102
{ACAD_REACTORS
330
EBF
102
}
330
1E
100
AcDbEntity
  8
STEMPEL
100
AcDbCircle
 10
275.0959993483444
 20
440.8445708814332
 30
0.0
 40
10.5
100
AcDbArc
 50
270.0
 51
353.3741904351755
  0
LINE
  5
D24
330
1E
100
AcDbEntity
  8
STEMPEL
100
AcDbLine
 10
270.6828277781997
 20
431.8445708814333
 30
0.0
 11
270.6828277781997
 21
430.3445708814333
 31
0.0
  0
LINE
  5
D25
330
1E
100
AcDbEntity
  8
HILF
100
AcDbLine
 10
232.1828277781997
 20
426.1594646342125
 30
0.0
 11
269.95343919411
 21
426.1594646342125
 31
0.0
  0
LINE
  5
D28
330
1E
100
AcDbEntity
  8
STEMPEL
100
AcDbLine
 10
291.9003421994719
 20
456.9407649591458
 30
0.0
 11
289.7710869852438
 21
454.8115097449178
 31
0.0
  0
LINE
  5
D29
330
1E
100
AcDbEntity
  8
STEMPEL
100
AcDbLine
 10
282.1828277781997
 20
460.3445708814332
 30
0.0
 11
282.1828277781997
 21
453.3756597946786
 31
0.0
  0
LINE
  5
D2A
330
1E
100
AcDbEntity
  8
MITTEL
100
AcDbLine
 10
283.1828277781997
 20
464.3445708814332
 30
0.0
 11
283.1828277781997
 21
452.8608808592009
 31
0.0
  0
LINE
  5
D2B
330
1E
100
AcDbEntity
  8
STEMPEL
100
AcDbLine
 10
270.6828277781997
 20
455.2445708814332
 30
0.0
 11
272.6828277781997
 21
449.7496160425239
 31
0.0
  0
ARC
  5
D2C
330
1E
100
AcDbEntity
  8
STEMPEL
100
AcDbCircle
 10
289.1828277781997
 20
449.5945708814333
 30
0.0
 40
7.75
100
AcDbArc
 50
93.15046356630857
 51
160.2500772043233
  0
ARC
  5
D2D
330
1E
100
AcDbEntity
  8
STEMPEL
100
AcDbCircle
 10
289.1828277781997
 20
449.5945708814333
 30
0.0
 40
6.75
100
AcDbArc
 50
89.99999999999674
 51
160.2500772043233
  0
LINE
  5
D2E
330
1E
100
AcDbEntity
  8
STEMPEL
100
AcDbLine
 10
282.1828277781997
 20
453.3756597946787
 30
0.0
 11
283.8100635344769
 21
456.1941148004436
 31
0.0
  0
ARC
  5
D2F
330
1E
100
AcDbEntity
  8
STEMPEL
100
AcDbCircle
 10
289.1828277781997
 20
449.5945708814333
 30
0.0
 40
5.25
100
AcDbArc
 50
83.56653354842116
 51
155.3800226712864
  0
LINE
  5
D30
330
1E
100
AcDbEntity
  8
BEM
 62
     1
100
AcDbLine
 10
227.1251153896308
 20
497.1109111308054
 30
0.0
 11
220.1251153896307
 21
497.1109111308054
 31
0.0
  0
LINE
  5
D31
330
1E
100
AcDbEntity
  8
STEMPEL
100
AcDbLine
 10
193.6828277781997
 20
456.2445708814331
 30
0.0
 11
193.6828277781997
 21
455.2445708814331
 31
0.0
  0
LINE
  5
D32
330
1E
100
AcDbEntity
  8
STEMPEL
100
AcDbLine
 10
186.9328277781997
 20
459.9981607199194
 30
0.0
 11
186.9328277781997
 21
456.2445708814331
 31
0.0
  0
LINE
  5
D33
330
1E
100
AcDbEntity
  8
STEMPEL
100
AcDbLine
 10
187.1328277781996
 20
460.3445708814332
 30
0.0
 11
186.9328277781997
 21
459.9981607199194
 31
0.0
  0
LINE
  5
D34
330
1E
100
AcDbEntity
  8
STEMPEL
100
AcDbLine
 10
187.1328277781996
 20
461.3445708814332
 30
0.0
 11
187.1328277781996
 21
460.3445708814332
 31
0.0
  0
LINE
  5
D35
330
1E
100
AcDbEntity
  8
STEMPEL
100
AcDbLine
 10
193.6828277781997
 20
456.2445708814331
 30
0.0
 11
186.9328277781997
 21
456.2445708814331
 31
0.0
  0
LINE
  5
D36
330
1E
100
AcDbEntity
  8
STEMPEL
100
AcDbLine
 10
174.1828277781997
 20
461.3445708814332
 30
0.0
 11
177.1828277781997
 21
458.3445708814331
 31
0.0
  0
LINE
  5
D37
330
1E
100
AcDbEntity
  8
STEMPEL
100
AcDbLine
 10
174.2330803098935
 20
458.7085319121126
 30
0.0
 11
175.6087542811468
 21
457.3328579408594
 31
0.0
  0
LINE
  5
D38
330
1E
100
AcDbEntity
  8
STEMPEL
100
AcDbLine
 10
173.5259735287071
 20
458.0014251309259
 30
0.0
 11
175.1828277782004
 21
456.3445708814326
 31
0.0
  0
ARC
  5
D39
330
1E
100
AcDbEntity
  8
STEMPEL
100
AcDbCircle
 10
167.8691192792149
 20
452.3445708814333
 30
0.0
 40
8.0
100
AcDbArc
 50
45.0
 51
45.0
  0
ARC
  5
D3A
330
1E
100
AcDbEntity
  8
STEMPEL
100
AcDbCircle
 10
167.8691192792149
 20
452.3445708814333
 30
0.0
 40
9.0
100
AcDbArc
 50
45.0000000000023
 51
90.0
  0
ARC
  5
D3B
330
1E
100
AcDbEntity
  8
STEMPEL
100
AcDbCircle
 10
167.8691192792149
 20
452.3445708814333
 30
0.0
 40
8.0
100
AcDbArc
 50
45.0000000000023
 51
90.0
  0
ARC
  5
D3C
330
1E
100
AcDbEntity
  8
STEMPEL
100
AcDbCircle
 10
167.8691192792149
 20
452.3445708814333
 30
0.0
 40
6.5
100
AcDbArc
 50
45.0
 51
90.0
  0
ARC
  5
D3D
330
1E
100
AcDbEntity
  8
STEMPEL
100
AcDbCircle
 10
177.0022705808185
 20
454.3486480720593
 30
0.0
 40
4.0
100
AcDbArc
 50
27.41282956533664
 51
87.41282956533586
  0
LINE
  5
D3E
330
1E
100
AcDbEntity
  8
STEMPEL
100
AcDbLine
 10
187.1328277781996
 20
461.3445708814332
 30
0.0
 11
174.1828277781997
 21
461.3445708814332
 31
0.0
  0
LINE
  5
D3F
330
1E
100
AcDbEntity
  8
STEMPEL
100
AcDbLine
 10
186.9328277781997
 20
445.3445708814331
 30
0.0
 11
183.9328277781996
 21
445.3445708814331
 31
0.0
  0
ARC
  5
D40
330
1E
100
AcDbEntity
  8
STEMPEL
100
AcDbCircle
 10
184.2944083986159
 20
441.942098668828
 30
0.0
 40
3.466613518339271
100
AcDbArc
 50
40.05618705235487
 51
63.77244391366136
  0
LINE
  5
D41
330
1E
100
AcDbEntity
  8
STEMPEL
100
AcDbLine
 10
183.9328277781996
 20
450.3445708814331
 30
0.0
 11
183.9328277781996
 21
445.3445708814331
 31
0.0
  0
ARC
  5
D42
330
1E
100
AcDbEntity
  8
STEMPEL
100
AcDbCircle
 10
184.5697392964982
 20
442.500966276892
 30
0.0
 40
2.843604604541096
100
AcDbArc
 50
63.77244391366136
 51
90.0
  0
LINE
  5
D43
330
1E
100
AcDbEntity
  8
STEMPEL
100
AcDbLine
 10
181.5779177790476
 20
450.2279511162591
 30
0.0
 11
181.1060357707378
 21
448.6508248149658
 31
0.0
  0
LINE
  5
D44
330
1E
100
AcDbEntity
  8
STEMPEL
100
AcDbLine
 10
182.5359537793868
 20
449.9413032101895
 30
0.0
 11
182.064071771077
 21
448.3641769088962
 31
0.0
  0
ARC
  5
D45
330
1E
100
AcDbEntity
  8
STEMPEL
100
AcDbCircle
 10
179.1828277781997
 20
450.9445708814332
 30
0.0
 40
3.5
100
AcDbArc
 50
343.3426229392608
 51
0.7050887044108256
  0
ARC
  5
D46
330
1E
100
AcDbEntity
  8
STEMPEL
100
AcDbCircle
 10
179.1828277781997
 20
451.0307115430704
 30
0.0
 40
3.5
100
AcDbArc
 50
359.2949112955892
 51
19.74992279567663
  0
ARC
  5
D47
330
1E
100
AcDbEntity
  8
STEMPEL
100
AcDbCircle
 10
179.1828277781997
 20
451.0307115430704
 30
0.0
 40
2.5
100
AcDbArc
 50
359.012851892306
 51
19.74992279567663
  0
LINE
  5
D48
330
1E
100
AcDbEntity
  8
STEMPEL
100
AcDbLine
 10
181.6828277781997
 20
451.0307115430704
 30
0.0
 11
181.6828277781997
 21
450.9445708814332
 31
0.0
  0
ARC
  5
D49
330
1E
100
AcDbEntity
  8
STEMPEL
100
AcDbCircle
 10
179.1828277781997
 20
450.9445708814332
 30
0.0
 40
2.5
100
AcDbArc
 50
343.3426229392608
 51
0.9871481076939879
  0
ARC
  5
D4A
330
1E
100
AcDbEntity
  8
STEMPEL
100
AcDbCircle
 10
186.9328277781997
 20
444.3445708814332
 30
0.0
 40
1.0
100
AcDbArc
 50
0.0
 51
90.0
  0
ARC
  5
D4B
330
1E
100
AcDbEntity
  8
STEMPEL
100
AcDbCircle
 10
183.8637992513864
 20
441.5800545030373
 30
0.0
 40
4.029197037170673
100
AcDbArc
 50
19.20114313538874
 51
40.05618705235487
  0
ARC
  5
D4C
330
1E
100
AcDbEntity
  8
STEMPEL
100
AcDbCircle
 10
185.9328277781997
 20
437.3445708814331
 30
0.0
 40
2.0
100
AcDbArc
 50
180.0
 51
270.0
  0
LINE
  5
D4D
330
1E
100
AcDbEntity
  8
STEMPEL
100
AcDbLine
 10
182.2962887023134
 20
438.3973362631277
 30
0.0
 11
184.4457215858805
 21
436.007217086521
 31
0.0
  0
LINE
  5
D4E
330
1E
100
AcDbEntity
  8
STEMPEL
100
AcDbLine
 10
181.5875577248185
 20
437.6899379828237
 30
0.0
 11
183.7021684897209
 21
435.3385401890649
 31
0.0
  0
ARC
  5
D4F
330
1E
100
AcDbEntity
  8
STEMPEL
100
AcDbCircle
 10
185.9328277781997
 20
437.3445708814331
 30
0.0
 40
3.0
100
AcDbArc
 50
221.9650290700327
 51
270.0
  0
LINE
  5
D50
330
1E
100
AcDbEntity
  8
STEMPEL
100
AcDbLine
 10
187.1828277781997
 20
435.3445708814332
 30
0.0
 11
187.1828277781997
 21
434.3445708814331
 31
0.0
  0
LINE
  5
D51
330
1E
100
AcDbEntity
  8
STEMPEL
100
AcDbLine
 10
186.9328277781997
 20
437.3445708814331
 30
0.0
 11
183.9328277781996
 21
437.3445708814331
 31
0.0
  0
ARC
  5
D52
330
1E
100
AcDbEntity
  8
STEMPEL
100
AcDbCircle
 10
184.294408398616
 20
440.7470430940382
 30
0.0
 40
3.466613518339158
100
AcDbArc
 50
296.2275560863386
 51
319.9438129476452
  0
ARC
  5
D53
330
1E
100
AcDbEntity
  8
STEMPEL
100
AcDbCircle
 10
184.5697392964982
 20
440.1881754859742
 30
0.0
 40
2.843604604540985
100
AcDbArc
 50
270.0
 51
296.2275560863386
  0
ARC
  5
D54
330
1E
100
AcDbEntity
  8
STEMPEL
100
AcDbCircle
 10
185.9518527531472
 20
441.3445708814331
 30
0.0
 40
4.745201938350518
100
AcDbArc
 50
187.0511412165367
 51
199.2011431353887
  0
ARC
  5
D55
330
1E
100
AcDbEntity
  8
STEMPEL
100
AcDbCircle
 10
184.8450701943812
 20
440.7470430940389
 30
0.0
 40
3.466613518340057
100
AcDbArc
 50
220.0561870523549
 51
243.7724439136526
  0
ARC
  5
D56
330
1E
100
AcDbEntity
  8
STEMPEL
100
AcDbCircle
 10
185.2756793416103
 20
441.1090872598292
 30
0.0
 40
4.029197037170963
100
AcDbArc
 50
199.2011431353887
 51
220.0561870523549
  0
ARC
  5
D57
330
1E
100
AcDbEntity
  8
STEMPEL
100
AcDbCircle
 10
184.5697392964982
 20
440.1881754859749
 30
0.0
 40
2.843604604541721
100
AcDbArc
 50
243.7724439136672
 51
270.0
  0
ARC
  5
D58
330
1E
100
AcDbEntity
  8
STEMPEL
100
AcDbCircle
 10
186.9328277781997
 20
438.3445708814331
 30
0.0
 40
1.0
100
AcDbArc
 50
270.0
 51
0.0
  0
ARC
  5
D59
330
1E
100
AcDbEntity
  8
STEMPEL
100
AcDbCircle
 10
183.1876258398496
 20
441.3445708814331
 30
0.0
 40
4.745201938350191
100
AcDbArc
 50
340.7988568646112
 51
0.0
  0
ARC
  5
D5A
330
1E
100
AcDbEntity
  8
STEMPEL
100
AcDbCircle
 10
183.8637992513864
 20
441.109087259829
 30
0.0
 40
4.029197037170677
100
AcDbArc
 50
319.9438129476452
 51
340.7988568646112
  0
LINE
  5
D5B
330
1E
100
AcDbEntity
  8
STEMPEL
100
AcDbLine
 10
191.6828277781997
 20
449.749616042524
 30
0.0
 11
191.6828277781997
 21
435.3445708814332
 31
0.0
  0
ARC
  5
D5D
330
1E
100
AcDbEntity
  8
STEMPEL
100
AcDbCircle
 10
202.1828277781997
 20
442.3445708814333
 30
0.0
 40
21.0
100
AcDbArc
 50
163.3426229392607
 51
184.3217385797631
  0
LWPOLYLINE
  5
D5E
330
1E
100
AcDbEntity
  8
STEMPEL
100
AcDbPolyline
 90
        5
 70
     0
 43
0.0
 10
184.5697392964982
 20
445.3445708814331
 42
0.1149415123267204
 10
183.3130442610814
 20
445.0518102029146
 42
0.1038526577300335
 10
182.1916766253567
 20
444.1729980061793
 42
0.0912492981546976
 10
181.4706273065057
 20
442.90519893837
 42
0.0839773692119132
 10
181.2066508147966
 20
441.3445708814331
 42
0.0839773692119072
  0
LINE
  5
D5F
330
1E
100
AcDbEntity
  8
STEMPEL
100
AcDbLine
 10
187.9328277781997
 20
444.3445708814332
 30
0.0
 11
187.9328277781997
 21
438.3445708814331
 31
0.0
  0
ARC
  5
D60
330
1E
100
AcDbEntity
  8
STEMPEL
100
AcDbCircle
 10
183.1876258398496
 20
441.3445708814331
 30
0.0
 40
4.745201938350191
100
AcDbArc
 50
0.0
 51
19.20114313538874
  0
LINE
  5
D61
330
1E
100
AcDbEntity
  8
STEMPEL
100
AcDbLine
 10
179.668981770229
 20
449.0807966740697
 30
0.0
 11
180.1408637785389
 21
450.6579229753636
 31
0.0
  0
ARC
  5
D62
330
1E
100
AcDbEntity
  8
STEMPEL
100
AcDbCircle
 10
179.1828277781997
 20
450.9445708814332
 30
0.0
 40
1.0
100
AcDbArc
 50
343.3426229392608
 51
355.4602913654644
  0
ARC
  5
D63
330
1E
100
AcDbEntity
  8
STEMPEL
100
AcDbCircle
 10
177.6828277781997
 20
450.7402148051753
 30
0.0
 40
2.5
100
AcDbArc
 50
2.870713129642696
 51
24.61997732870633
  0
ARC
  5
D64
330
1E
100
AcDbEntity
  8
STEMPEL
100
AcDbCircle
 10
185.9518527531472
 20
441.3445708814331
 30
0.0
 40
5.745201938350518
100
AcDbArc
 50
186.8049747603928
 51
199.2011431353887
  0
ARC
  5
D65
330
1E
100
AcDbEntity
  8
STEMPEL
100
AcDbCircle
 10
202.1828277781997
 20
442.3445708814333
 30
0.0
 40
23.5
100
AcDbArc
 50
163.3426229392607
 51
186.6258095648245
  0
ARC
  5
D66
330
1E
100
AcDbEntity
  8
STEMPEL
100
AcDbCircle
 10
202.1828277781997
 20
442.3445708814333
 30
0.0
 40
22.0
100
AcDbArc
 50
163.3426229392607
 51
186.6258095648245
  0
ARC
  5
D67
330
1E
100
AcDbEntity
  8
STEMPEL
100
AcDbCircle
 10
185.2756793416103
 20
441.1090872598292
 30
0.0
 40
5.029197037170963
100
AcDbArc
 50
199.2011431353887
 51
222.8326942759081
  0
LINE
  5
D68
102
{ACAD_REACTORS
330
EB3
102
}
330
1E
100
AcDbEntity
  8
STEMPEL
100
AcDbLine
 10
190.5569330303221
 20
430.3445708814332
 30
0.0
 11
191.8218862199054
 21
428.2293957306706
 31
0.0
  0
ARC
  5
D69
102
{ACAD_REACTORS
330
EBF
102
}
330
1E
100
AcDbEntity
  8
SCHRAFF
100
AcDbCircle
 10
191.0088487214565
 20
430.7586250215971
 30
0.0
 40
3.76568423340195
100
AcDbArc
 50
183.3169725564745
 51
265.1259979645869
  0
LINE
  5
D6B
102
{ACAD_REACTORS
330
EB3
330
EBF
102
}
330
1E
100
AcDbEntity
  8
STEMPEL
100
AcDbLine
 10
190.5569330303221
 20
430.3445708814332
 30
0.0
 11
189.1837566233712
 21
429.5233604605341
 31
0.0
  0
LINE
  5
D6C
102
{ACAD_REACTORS
330
EB3
330
EBF
102
}
330
1E
100
AcDbEntity
  8
STEMPEL
100
AcDbLine
 10
189.1837566233712
 20
429.5233604605341
 30
0.0
 11
190.4487098129545
 21
427.4081853097714
 31
0.0
  0
LINE
  5
D6D
330
1E
100
AcDbEntity
  8
STEMPEL
100
AcDbLine
 10
193.6828277781997
 20
430.3445708814333
 30
0.0
 11
189.269656208055
 21
430.3445708814333
 31
0.0
  0
ARC
  5
D6E
102
{ACAD_REACTORS
330
EBF
102
}
330
1E
100
AcDbEntity
  8
STEMPEL
100
AcDbCircle
 10
189.269656208055
 20
440.8445708814332
 30
0.0
 40
10.5
100
AcDbArc
 50
186.6258095648245
 51
270.0
  0
ARC
  5
D6F
330
1E
100
AcDbEntity
  8
STEMPEL
100
AcDbCircle
 10
189.269656208055
 20
440.8445708814332
 30
0.0
 40
9.0
100
AcDbArc
 50
186.6258095648245
 51
270.0
  0
LINE
  5
D70
330
1E
100
AcDbEntity
  8
STEMPEL
100
AcDbLine
 10
193.6828277781997
 20
431.8445708814333
 30
0.0
 11
193.6828277781997
 21
430.3445708814333
 31
0.0
  0
ARC
  5
D72
330
1E
100
AcDbEntity
  8
STEMPEL
100
AcDbCircle
 10
175.1828277781997
 20
449.5945708814333
 30
0.0
 40
7.75
100
AcDbArc
 50
19.74992279567663
 51
86.84953643368492
  0
ARC
  5
D73
330
1E
100
AcDbEntity
  8
STEMPEL
100
AcDbCircle
 10
175.1828277781997
 20
449.5945708814333
 30
0.0
 40
6.75
100
AcDbArc
 50
19.74992279567663
 51
89.99999999999349
  0
ARC
  5
D74
330
1E
100
AcDbEntity
  8
STEMPEL
100
AcDbCircle
 10
175.1828277781997
 20
449.5945708814333
 30
0.0
 40
5.25
100
AcDbArc
 50
24.61997732871362
 51
96.43346645157883
  0
LINE
  5
D75
330
1E
100
AcDbEntity
  8
STEMPEL
100
AcDbLine
 10
172.4653133569274
 20
456.9407649591458
 30
0.0
 11
174.5945685711556
 21
454.8115097449178
 31
0.0
  0
LINE
  5
D76
330
1E
100
AcDbEntity
  8
STEMPEL
100
AcDbLine
 10
183.9328277781996
 20
450.3445708814331
 30
0.0
 11
180.5555920219224
 21
456.1941148004436
 31
0.0
  0
LINE
  5
D77
330
1E
100
AcDbEntity
  8
STEMPEL
100
AcDbLine
 10
193.6828277781997
 20
455.2445708814331
 30
0.0
 11
191.6828277781997
 21
449.749616042524
 31
0.0
  0
LINE
  5
D78
330
1E
100
AcDbEntity
  8
STEMPEL
100
AcDbLine
 10
278.4328277781997
 20
434.3445708814332
 30
0.0
 11
185.9328277781997
 21
434.3445708814331
 31
0.0
  0
LINE
  5
D79
330
1E
100
AcDbEntity
  8
STEMPEL
100
AcDbLine
 10
278.4328277781997
 20
435.3445708814332
 30
0.0
 11
185.9328277781997
 21
435.3445708814332
 31
0.0
  0
LINE
  5
D7A
330
1E
100
AcDbEntity
  8
STEMPEL
100
AcDbLine
 10
270.6828277781997
 20
455.2445708814332
 30
0.0
 11
193.6828277781997
 21
455.2445708814331
 31
0.0
  0
LINE
  5
D7B
330
1E
100
AcDbEntity
  8
STEMPEL
100
AcDbLine
 10
191.6828277781997
 20
449.749616042524
 30
0.0
 11
272.6828277781997
 21
449.7496160425239
 31
0.0
  0
LINE
  5
D7C
330
1E
100
AcDbEntity
  8
STEMPEL
100
AcDbLine
 10
270.6828277781997
 20
456.2445708814331
 30
0.0
 11
193.6828277781997
 21
456.2445708814331
 31
0.0
  0
LINE
  5
D7D
330
1E
100
AcDbEntity
  8
STEMPEL
100
AcDbLine
 10
277.2328277781996
 20
460.3445708814332
 30
0.0
 11
187.1328277781996
 21
460.3445708814332
 31
0.0
  0
LINE
  5
D7E
330
1E
100
AcDbEntity
  8
STEMPEL
100
AcDbLine
 10
186.9328277781997
 20
459.9981607199194
 30
0.0
 11
277.4328277781997
 21
459.9981607199193
 31
0.0
  0
LINE
  5
D7F
330
1E
100
AcDbEntity
  8
STEMPEL
100
AcDbLine
 10
277.2328277781996
 20
461.3445708814332
 30
0.0
 11
187.1328277781996
 21
461.3445708814332
 31
0.0
  0
LINE
  5
D80
330
1E
100
AcDbEntity
  8
STEMPEL
100
AcDbLine
 10
275.0959993483444
 20
431.8445708814333
 30
0.0
 11
189.269656208055
 21
431.8445708814333
 31
0.0
  0
LINE
  5
D81
102
{ACAD_REACTORS
330
EBF
102
}
330
1E
100
AcDbEntity
  8
STEMPEL
100
AcDbLine
 10
275.0959993483444
 20
430.3445708814333
 30
0.0
 11
189.269656208055
 21
430.3445708814332
 31
0.0
  0
LINE
  5
D82
330
1E
100
AcDbEntity
  8
HILF
100
AcDbLine
 10
232.1828277781997
 20
426.1594646342125
 30
0.0
 11
194.4122163622893
 21
426.1594646342124
 31
0.0
  0
LINE
  5
D83
102
{ACAD_REACTORS
330
EB3
102
}
330
1E
100
AcDbEntity
  8
STEMPEL
100
AcDbLine
 10
268.3689839018691
 20
385.0009773419844
 30
0.0
 11
270.1110310084751
 21
388.0182914398044
 31
0.0
  0
LINE
  5
D84
102
{ACAD_REACTORS
330
EB3
102
}
330
1E
100
AcDbEntity
  8
STEMPEL
100
AcDbLine
 10
269.7546245479241
 20
384.2009773419844
 30
0.0
 11
271.4966716545303
 21
387.2182914398044
 31
0.0
  0
LINE
  5
D85
102
{ACAD_REACTORS
330
EB3
102
}
330
1E
100
AcDbEntity
  8
STEMPEL
100
AcDbLine
 10
195.9966716545302
 20
385.0009773419844
 30
0.0
 11
194.2546245479242
 21
388.0182914398046
 31
0.0
  0
LINE
  5
D86
102
{ACAD_REACTORS
330
EB3
102
}
330
1E
100
AcDbEntity
  8
STEMPEL
100
AcDbLine
 10
194.6110310084752
 20
384.2009773419844
 30
0.0
 11
192.868983901869
 21
387.2182914398046
 31
0.0
  0
LINE
  5
D87
330
1E
100
AcDbEntity
  8
HILF
100
AcDbLine
 10
198.5834337109995
 20
382.773289589323
 30
0.0
 11
265.7822218453998
 21
382.773289589323
 31
0.0
  0
LINE
  5
D88
330
1E
100
AcDbEntity
  8
HILF
100
AcDbLine
 10
195.1524872623058
 20
389.8746979003554
 30
0.0
 11
269.2131682940937
 21
389.8746979003555
 31
0.0
  0
LINE
  5
D89
102
{ACAD_REACTORS
330
EB3
102
}
330
1E
100
AcDbEntity
  8
STEMPEL
100
AcDbLine
 10
191.5828277781996
 20
423.302133205276
 30
0.0
 11
191.5828277781996
 21
392.0182914398046
 31
0.0
  0
LINE
  5
D8A
102
{ACAD_REACTORS
330
EB3
102
}
330
1E
100
AcDbEntity
  8
STEMPEL
100
AcDbLine
 10
193.1828277781997
 20
423.302133205276
 30
0.0
 11
193.1828277781997
 21
392.0182914398046
 31
0.0
  0
LINE
  5
D8B
102
{ACAD_REACTORS
330
EB3
102
}
330
1E
100
AcDbEntity
  8
STEMPEL
100
AcDbLine
 10
272.7828277781997
 20
423.302133205276
 30
0.0
 11
272.7828277781997
 21
392.0182914398044
 31
0.0
  0
LINE
  5
D8C
102
{ACAD_REACTORS
330
EB3
102
}
330
1E
100
AcDbEntity
  8
STEMPEL
100
AcDbLine
 10
271.1828277781997
 20
423.302133205276
 30
0.0
 11
271.1828277781997
 21
392.0182914398044
 31
0.0
  0
LINE
  5
D8E
330
1E
100
AcDbEntity
  8
STEMPEL
100
AcDbLine
 10
380.1781029584354
 20
460.3445708814331
 30
0.0
 11
296.4965362771845
 21
460.3445708814331
 31
0.0
  0
LINE
  5
D8F
330
1E
100
AcDbEntity
  8
STEMPEL
100
AcDbLine
 10
290.4446864412043
 20
455.4851092008783
 30
0.0
 11
346.5489003855887
 21
455.4851092008783
 31
0.0
  0
LINE
  5
D90
330
1E
100
AcDbEntity
  8
STEMPEL
100
AcDbLine
 10
296.4965362771845
 20
458.8445708814332
 30
0.0
 11
339.3445115624518
 21
458.8445708814332
 31
0.0
  0
LINE
  5
D92
330
1E
100
AcDbEntity
  8
BEM
 62
     1
100
AcDbLine
 10
220.1251153896307
 20
497.1109111308054
 30
0.0
 11
220.1251153896307
 21
504.1109111308054
 31
0.0
  0
LINE
  5
D93
330
1E
100
AcDbEntity
  8
BEM
 62
     1
100
AcDbLine
 10
227.1251153896308
 20
504.1109111308054
 30
0.0
 11
227.1251153896308
 21
497.1109111308054
 31
0.0
  0
LINE
  5
D94
330
1E
100
AcDbEntity
  8
TEXT
 62
     2
100
AcDbLine
 10
292.5064721394824
 20
517.0736393414795
 30
0.0
 11
288.3258962474397
 21
498.1355828812827
 31
0.0
  0
LINE
  5
D95
330
1E
100
AcDbEntity
  8
STEMPEL
100
AcDbLine
 10
117.1828277781997
 20
456.8445708814333
 30
0.0
 11
117.8167551708106
 21
455.4851092008783
 31
0.0
  0
LINE
  5
D96
330
1E
100
AcDbEntity
  8
STEMPEL
100
AcDbLine
 10
117.1828277781997
 20
456.8445708814333
 30
0.0
 11
124.6886019999831
 21
460.3445708814333
 31
0.0
  0
LINE
  5
D97
330
1E
100
AcDbEntity
  8
STEMPEL
100
AcDbLine
 10
117.8167551708106
 20
455.4851092008783
 30
0.0
 11
125.0211439939476
 21
458.8445708814332
 31
0.0
  0
LINE
  5
D98
330
1E
100
AcDbEntity
  8
HILF
100
AcDbLine
 10
83.4170707449241
 20
463.3445708814331
 30
0.0
 11
82.07732478276852
 21
458.3445708814331
 31
0.0
  0
LINE
  5
D99
330
1E
100
AcDbEntity
  8
HILF
100
AcDbLine
 10
84.41707074492411
 20
463.3445708814331
 30
0.0
 11
83.07732478276852
 21
458.3445708814331
 31
0.0
  0
LINE
  5
D9A
330
1E
100
AcDbEntity
  8
STEMPEL
100
AcDbLine
 10
62.18282777819968
 20
461.3445708814333
 30
0.0
 11
62.18282777819968
 21
460.3445708814333
 31
0.0
  0
LINE
  5
D9C
330
1E
100
AcDbEntity
  8
STEMPEL
100
AcDbLine
 10
82.8811723600619
 20
461.3445708814332
 30
0.0
 11
62.18282777819968
 21
461.3445708814333
 31
0.0
  0
LINE
  5
D9D
330
1E
100
AcDbEntity
  8
STEMPEL
100
AcDbLine
 10
82.61322316763079
 20
460.3445708814332
 30
0.0
 11
62.18282777819968
 21
460.3445708814333
 31
0.0
  0
LINE
  5
D9E
330
1E
100
AcDbEntity
  8
TEXT
 62
     2
100
AcDbLine
 10
84.29365671899835
 20
489.1181542906878
 30
0.0
 11
72.9150054954136
 21
461.1273290346199
 31
0.0
  0
LINE
  5
D9F
330
1E
100
AcDbEntity
  8
TEXT
 62
     2
100
AcDbLine
 10
95.65794166840829
 20
517.0736393414795
 30
0.0
 11
87.34527192729649
 21
496.6249515697175
 31
0.0
  0
DIMENSION
  5
DA0
330
1E
100
AcDbEntity
  8
BEM
100
AcDbDimension
  2
*D1
 10
402.1828277781996
 20
494.4720854114791
 30
0.0
 11
237.4248110641397
 21
494.4720854114791
 31
0.0
 70
   160
  1
500
 71
     5
 42
340.0
  3
Standard
100
AcDbAlignedDimension
 13
62.18282777819968
 23
461.3445708814333
 33
0.0
 14
402.1828277781996
 24
461.3445708814332
 34
0.0
100
AcDbRotatedDimension
1001
ACAD
1000
DSTYLE
1002
{
1070
    40
1040
2.0
1070
    41
1040
3.5
1070
    42
1040
1.0
1070
    43
1040
7.0
1070
    44
1040
1.0
1070
    73
1070
     0
1070
    74
1070
     0
1070
    77
1070
     1
1070
    78
1070
     8
1070
    79
1070
     2
1070
   140
1040
3.5
1070
   141
1040
1.5
1070
   146
1040
0.5142857142857144
1070
   147
1040
1.5
1070
   172
1070
     1
1070
   178
1070
     1
1070
   179
1070
     2
1070
   271
1070
     2
1070
   272
1070
     2
1070
   284
1070
     8
1070
   285
1070
     8
1070
   286
1070
     8
1002
}
  0
LINE
  5
DA1
330
1E
100
AcDbEntity
  8
STEMPEL
100
AcDbLine
 10
380.4460521508665
 20
461.3445708814331
 30
0.0
 11
83.88117236006189
 21
461.3445708814332
 31
0.0
  0
DIMENSION
  5
DA2
330
1E
100
AcDbEntity
  8
BEM
100
AcDbDimension
  2
*D2
 10
347.1828277781997
 20
476.4518145480945
 30
0.0
 11
232.1828277781997
 21
482.9518145480944
 31
0.0
 70
    32
  1
%%c<>
 71
     5
 42
230.0
  3
Standard
100
AcDbAlignedDimension
 13
117.1828277781997
 23
456.8445708814333
 33
0.0
 14
347.1828277781997
 24
456.8445708814333
 34
0.0
100
AcDbRotatedDimension
1001
ACAD
1000
DSTYLE
1002
{
1070
    40
1040
2.0
1070
    41
1040
3.5
1070
    42
1040
1.0
1070
    43
1040
7.0
1070
    44
1040
1.0
1070
    73
1070
     0
1070
    74
1070
     0
1070
    77
1070
     1
1070
    78
1070
     8
1070
    79
1070
     2
1070
   140
1040
3.5
1070
   141
1040
1.5
1070
   146
1040
0.5142857142857144
1070
   147
1040
1.5
1070
   172
1070
     1
1070
   178
1070
     1
1070
   179
1070
     2
1070
   271
1070
     2
1070
   272
1070
     2
1070
   284
1070
     8
1070
   285
1070
     8
1070
   286
1070
     8
1002
}
  0
LINE
  5
DA4
330
1E
100
AcDbEntity
  8
STEMPEL
100
AcDbLine
 10
167.8691192792149
 20
460.3445708814332
 30
0.0
 11
83.61322316763079
 21
460.3445708814332
 31
0.0
  0
LINE
  5
DA6
330
1E
100
AcDbEntity
  8
STEMPEL
100
AcDbLine
 10
167.8691192792149
 20
458.8445708814332
 30
0.0
 11
125.0211439939476
 21
458.8445708814332
 31
0.0
  0
LINE
  5
DA7
330
1E
100
AcDbEntity
  8
STEMPEL
100
AcDbLine
 10
173.9209691151951
 20
455.4851092008783
 30
0.0
 11
117.8167551708106
 21
455.4851092008783
 31
0.0
  0
TEXT
  5
DA8
330
1E
100
AcDbEntity
  8
TEXT
 62
     1
100
AcDbText
 10
95.86337889970877
 20
507.7993631767322
 30
0.0
 40
7.0
  1
EDV-Art.Nr. 15004.000X
 41
0.8
  7
GREEKS
100
AcDbText
  0
TEXT
  5
DA9
330
1E
100
AcDbEntity
  8
TEXT
 62
     1
100
AcDbText
 10
95.86337889970877
 20
520.0301777056913
 30
0.0
 40
7.0
  1
Anschlußmanschette
 41
0.8
  7
GREEKS
100
AcDbText
  0
LINE
  5
DAA
330
1E
100
AcDbEntity
  8
TEXT
 62
     2
100
AcDbLine
 10
95.65794166840829
 20
517.0736393414795
 30
0.0
 11
200.6754801006017
 21
517.0736393414795
 31
0.0
  0
LINE
  5
DAB
330
1E
100
AcDbEntity
  8
TEXT
 62
     2
100
AcDbLine
 10
293.8830352896298
 20
296.4084126906738
 30
0.0
 11
268.0857426959752
 21
289.0073728315437
 31
0.0
  0
LINE
  5
DAC
330
1E
100
AcDbEntity
  8
HILF
100
AcDbLine
 10
265.4828277781996
 20
220.3445708814333
 30
0.0
 11
198.8828277781996
 21
220.3445708814333
 31
0.0
  0
LINE
  5
DAD
102
{ACAD_REACTORS
330
EB3
102
}
330
1E
100
AcDbEntity
  8
STEMPEL
100
AcDbLine
 10
268.1587499853693
 20
210.3445708814333
 30
0.0
 11
196.20690557103
 21
210.3445708814333
 31
0.0
  0
DIMENSION
  5
DAE
330
1E
100
AcDbEntity
  8
BEM
100
AcDbDimension
  2
*D3
 10
268.6828277781997
 20
184.8789309150578
 30
0.0
 11
232.1828277781997
 21
191.3789309150578
 31
0.0
 70
    32
  1
%%C<>
 71
     5
 42
73.0
  3
Standard
100
AcDbAlignedDimension
 13
195.6828277781997
 23
220.3445708814334
 33
0.0
 14
268.6828277781997
 24
220.3445708814334
 34
0.0
100
AcDbRotatedDimension
1001
ACAD
1000
DSTYLE
1002
{
1070
    40
1040
2.0
1070
    41
1040
3.5
1070
    42
1040
1.0
1070
    43
1040
7.0
1070
    44
1040
1.0
1070
    73
1070
     0
1070
    74
1070
     0
1070
    77
1070
     1
1070
    78
1070
     8
1070
    79
1070
     2
1070
   140
1040
3.5
1070
   141
1040
1.5
1070
   146
1040
0.5142857142857144
1070
   147
1040
1.5
1070
   172
1070
     1
1070
   178
1070
     1
1070
   179
1070
     2
1070
   271
1070
     2
1070
   272
1070
     2
1070
   284
1070
     8
1070
   285
1070
     8
1070
   286
1070
     8
1002
}
  0
LINE
  5
DAF
102
{ACAD_REACTORS
330
EB3
102
}
330
1E
100
AcDbEntity
  8
STEMPEL
100
AcDbLine
 10
197.2828277781997
 20
220.3864683559432
 30
0.0
 11
197.8091013246267
 21
210.3445708814333
 31
0.0
  0
LINE
  5
DB0
102
{ACAD_REACTORS
330
EB3
102
}
330
1E
100
AcDbEntity
  8
STEMPEL
100
AcDbLine
 10
195.6828277781997
 20
220.3445708814334
 30
0.0
 11
196.20690557103
 21
210.3445708814333
 31
0.0
  0
LINE
  5
DB1
102
{ACAD_REACTORS
330
EB3
102
}
330
1E
100
AcDbEntity
  8
STEMPEL
100
AcDbLine
 10
267.0828277781997
 20
220.3864683559432
 30
0.0
 11
266.5565542317727
 21
210.3445708814333
 31
0.0
  0
LINE
  5
DB2
102
{ACAD_REACTORS
330
EB3
102
}
330
1E
100
AcDbEntity
  8
STEMPEL
100
AcDbLine
 10
268.6828277781997
 20
220.3445708814334
 30
0.0
 11
268.1587499853693
 21
210.3445708814333
 31
0.0
  0
LINE
  5
DB3
330
1E
100
AcDbEntity
  8
TEXT
 62
     2
100
AcDbLine
 10
293.8830352896298
 20
296.4084126906738
 30
0.0
 11
398.9005737218232
 21
296.4084126906738
 31
0.0
  0
TEXT
  5
DB4
330
1E
100
AcDbEntity
  8
TEXT
 62
     1
100
AcDbText
 10
294.0884725209303
 20
287.1341365259265
 30
0.0
 40
7.0
  1
EDV-Art.Nr. 15279.070X
 41
0.8
  7
GREEKS
100
AcDbText
  0
TEXT
  5
DB5
330
1E
100
AcDbEntity
  8
TEXT
 62
     1
100
AcDbText
 10
294.0884725209303
 20
299.3649510548856
 30
0.0
 40
7.0
  1
Ablauftopf DN70
 41
0.8
  7
GREEKS
100
AcDbText
  0
LINE
  5
DB6
330
1E
100
AcDbEntity
  8
MITTEL
100
AcDbLine
 10
232.1828277781997
 20
465.3445708814333
 30
0.0
 11
232.1828277781997
 21
202.5173216736706
 31
0.0
  0
LINE
  5
DB7
102
{ACAD_REACTORS
330
EB3
102
}
330
1E
100
AcDbEntity
  8
STEMPEL
100
AcDbLine
 10
197.2828277781997
 20
380.2009773419844
 30
0.0
 11
197.2828277781997
 21
220.3864683559432
 31
0.0
  0
LINE
  5
DB8
102
{ACAD_REACTORS
330
EB3
102
}
330
1E
100
AcDbEntity
  8
STEMPEL
100
AcDbLine
 10
267.0828277781997
 20
380.2009773419844
 30
0.0
 11
267.0828277781997
 21
220.3864683559432
 31
0.0
  0
LINE
  5
DB9
102
{ACAD_REACTORS
330
EB3
102
}
330
1E
100
AcDbEntity
  8
STEMPEL
100
AcDbLine
 10
268.6828277781997
 20
380.2009773419844
 30
0.0
 11
268.6828277781997
 21
220.3445708814334
 31
0.0
  0
LINE
  5
DBA
102
{ACAD_REACTORS
330
EB3
102
}
330
1E
100
AcDbEntity
  8
STEMPEL
100
AcDbLine
 10
195.6828277781996
 20
380.2009773419844
 30
0.0
 11
195.6828277781997
 21
220.3445708814334
 31
0.0
  0
DIMENSION
  5
DBB
330
1E
100
AcDbEntity
  8
BEM
100
AcDbDimension
  2
*D4
 10
93.17198672792807
 20
460.3445708814332
 30
0.0
 11
86.67198672792798
 21
335.3445708814333
 31
0.0
 70
    32
 71
     5
 42
249.9999999999999
  3
Standard
100
AcDbAlignedDimension
 13
196.20690557103
 23
210.3445708814333
 33
0.0
 14
96.26681787996506
 24
460.3445708814332
 34
0.0
 50
90.0
100
AcDbRotatedDimension
1001
ACAD
1000
DSTYLE
1002
{
1070
    40
1040
2.0
1070
    41
1040
3.5
1070
    42
1040
1.0
1070
    43
1040
7.0
1070
    44
1040
1.0
1070
    73
1070
     0
1070
    74
1070
     0
1070
    77
1070
     1
1070
    78
1070
     8
1070
    79
1070
     2
1070
   140
1040
3.5
1070
   141
1040
1.5
1070
   146
1040
0.5142857142857144
1070
   147
1040
1.5
1070
   172
1070
     1
1070
   178
1070
     1
1070
   179
1070
     2
1070
   271
1070
     2
1070
   272
1070
     2
1070
   284
1070
     8
1070
   285
1070
     8
1070
   286
1070
     8
1002
}
  0
HATCH
  5
E5A
330
1E
100
AcDbEntity
  8
SCHRAFF
100
AcDbHatch
 10
0.0
 20
0.0
 30
0.0
210
0.0
220
0.0
230
1.0
  2
NET
 70
     0
 71
     0
 91
        3
 92
        7
 72
     1
 73
     1
 93
        5
 10
290.1828277781996
 20
461.3445708814332
 42
0.0
 10
285.1828277781997
 20
461.3445708814332
 42
0.0
 10
284.1828277781997
 20
460.3445708814332
 42
0.0
 10
284.1828277781997
 20
456.7743553738967
 42
-0.222066610227726
 10
287.1828277781997
 20
458.3445708814331
 42
0.0
 97
        0
 92
        7
 72
     1
 73
     1
 93
       19
 10
282.1828277781997
 20
460.3445708814331
 42
0.0
 10
281.1828277781998
 20
461.344570881433
 42
0.0
 10
277.2328277781996
 20
461.344570881433
 42
0.0
 10
277.2328277781996
 20
460.3445708814332
 42
0.0
 10
277.4328277781997
 20
459.9981607199193
 42
0.0
 10
277.4328277781997
 20
456.2445708814331
 42
0.0
 10
270.6828277781996
 20
456.2445708814331
 42
0.0
 10
270.6828277781998
 20
455.2445708814332
 42
0.0
 10
272.6828277781997
 20
449.7496160425239
 42
0.0
 10
272.6828277781997
 20
435.3445708814332
 42
0.0
 10
278.4328277781997
 20
435.3445708814332
 42
0.4142135623730951
 10
280.4328277781997
 20
437.3445708814331
 42
0.0
 10
277.4328277781997
 20
437.3445708814331
 42
-0.4142135623730951
 10
276.4328277781997
 20
438.3445708814331
 42
0.0
 10
276.4328277781997
 20
444.3445708814332
 42
-0.4142135623730951
 10
277.4328277781997
 20
445.3445708814331
 42
0.0
 10
280.4328277781997
 20
445.3445708814331
 42
0.0
 10
280.4328277781996
 20
450.3445708814331
 42
0.0
 10
282.1828277781996
 20
453.3756597946787
 42
0.0
 97
        0
 92
        7
 72
     1
 73
     1
 93
       19
 10
193.6828277781997
 20
455.2445708814332
 42
0.0
 10
193.6828277781997
 20
456.2445708814331
 42
0.0
 10
186.9328277781997
 20
456.2445708814331
 42
0.0
 10
186.9328277781997
 20
459.9981607199194
 42
0.0
 10
187.1328277781996
 20
460.3445708814332
 42
0.0
 10
187.1328277781996
 20
461.3445708814331
 42
0.0
 10
174.1828277781998
 20
461.3445708814331
 42
0.0
 10
177.1828277781997
 20
458.344570881433
 42
-0.2558860185809108
 10
180.4663721959563
 20
456.3486480720594
 42
0.0
 10
183.9328277781996
 20
450.3445708814332
 42
0.0
 10
183.9328277781996
 20
445.3445708814331
 42
0.0
 10
186.9328277781997
 20
445.3445708814332
 42
-0.4142135623730866
 10
187.9328277781996
 20
444.3445708814332
 42
0.0
 10
187.9328277781996
 20
438.3445708814331
 42
-0.4142135623730866
 10
186.9328277781997
 20
437.3445708814331
 42
0.0
 10
183.9328277781996
 20
437.3445708814331
 42
0.4142135623730868
 10
185.9328277781997
 20
435.3445708814332
 42
0.0
 10
191.6828277781997
 20
435.3445708814332
 42
0.0
 10
191.6828277781997
 20
449.749616042524
 42
0.0
 97
        0
 75
     0
 76
     1
 52
45.0
 41
15.0
 77
     0
 78
     2
 53
45.0
 43
10.00000000000062
 44
0.0
 45
-1.325825214724776
 46
1.325825214724776
 79
     0
 53
135.0
 43
10.00000000000062
 44
0.0
 45
-1.325825214724776
 46
-1.325825214724776
 79
     0
 47
0.2330565478989036
 98
        3
 10
285.9241282439436
 20
458.9340185508997
 10
279.393930193393
 20
455.2051131454249
 10
188.9040323170172
 20
451.9423226648741
  0
HATCH
  5
E5B
330
1E
100
AcDbEntity
  8
SCHRAFF
100
AcDbHatch
 10
0.0
 20
0.0
 30
0.0
210
0.0
220
0.0
230
1.0
  2
NET
 70
     0
 71
     0
 91
        2
 92
        7
 72
     1
 73
     1
 93
       17
 10
181.2066508147966
 20
441.3445708814329
 42
0.0069479880511166
 10
181.2425388823224
 20
440.7620725537246
 42
0.0530641063839868
 10
181.4706273065055
 20
439.7839428244968
 42
0.0912492981547759
 10
182.191676625357
 20
438.5161437566863
 42
0.1038526577299481
 10
183.3130442610812
 20
437.6373315599518
 42
0.1149415123267219
 10
184.5697392964982
 20
437.3445708814331
 42
0.1149415123267309
 10
185.8264343319151
 20
437.6373315599518
 42
0.1038526577300389
 10
186.9478019676398
 20
438.5161437566869
 42
0.091249298154702
 10
187.6688512864907
 20
439.7839428244963
 42
0.083977369211914
 10
187.9328277781998
 20
441.3445708814331
 42
0.0839773692119045
 10
187.6688512864908
 20
442.9051989383698
 42
0.0912492981547172
 10
186.9478019676398
 20
444.1729980061793
 42
0.1038526577300353
 10
185.8264343319151
 20
445.0518102029145
 42
0.1149415123267294
 10
184.5697392964982
 20
445.3445708814331
 42
0.1149415123267204
 10
183.3130442610814
 20
445.0518102029146
 42
0.1038526577300335
 10
182.1916766253567
 20
444.1729980061793
 42
0.0912492981546977
 10
181.4706273065057
 20
442.90519893837
 42
0.0839773692119223
 97
        0
 92
        7
 72
     1
 73
     1
 93
       17
 10
276.4328277781995
 20
441.3445708814331
 42
0.0839773692119045
 10
276.6968042699085
 20
439.7839428244965
 42
0.0912492981547172
 10
277.4178535887595
 20
438.5161437566869
 42
0.1038526577300397
 10
278.5392212244843
 20
437.6373315599518
 42
0.1149415123267309
 10
279.7959162599011
 20
437.3445708814331
 42
0.1149415123267131
 10
281.0526112953181
 20
437.6373315599517
 42
0.1038526577300018
 10
282.1739789310427
 20
438.5161437566869
 42
0.091249298154706
 10
282.8950282498937
 20
439.7839428244963
 42
0.0530641063840123
 10
283.1231166740769
 20
440.7620725537246
 42
0.0069479880511193
 10
283.1590047416027
 20
441.3445708814331
 42
0.0839773692119132
 10
282.8950282498936
 20
442.9051989383701
 42
0.0912492981546946
 10
282.1739789310431
 20
444.1729980061796
 42
0.1038526577303974
 10
281.0526112953137
 20
445.0518102029168
 42
0.1149415123262985
 10
279.7959162599011
 20
445.3445708814331
 42
0.1149415123267293
 10
278.5392212244842
 20
445.0518102029145
 42
0.1038526577300292
 10
277.4178535887596
 20
444.1729980061794
 42
0.0912492981547092
 10
276.6968042699086
 20
442.90519893837
 42
0.083977369211914
 97
        0
 75
     0
 76
     1
 52
45.0
 41
10.0
 77
     0
 78
     2
 53
45.0
 43
10.00000000000062
 44
0.0
 45
-0.8838834764831842
 46
0.8838834764831844
 79
     0
 53
135.0
 43
10.00000000000062
 44
0.0
 45
-0.8838834764831844
 46
-0.8838834764831842
 79
     0
 47
0.1497800312408136
 98
        2
 10
184.0777925885515
 20
441.8280497309981
 10
279.5551538833585
 20
441.8280497309981
  0
HATCH
  5
E5C
330
1E
100
AcDbEntity
  8
SCHRAFF
100
AcDbHatch
 10
0.0
 20
0.0
 30
0.0
210
0.0
220
0.0
230
1.0
  2
NET
 70
     0
 71
     0
 91
        2
 92
        7
 72
     0
 73
     1
 93
        4
 10
402.1828277781996
 20
460.344570881433
 10
402.1828277781995
 20
461.3445708814331
 10
381.4460521508666
 20
461.3445708814332
 10
381.1781029584355
 20
460.3445708814332
 97
        0
 92
        7
 72
     1
 73
     1
 93
       30
 10
380.1781029584354
 20
460.344570881433
 42
0.0
 10
380.4460521508665
 20
461.344570881433
 42
0.0
 10
296.4965362771845
 20
461.3445708814331
 42
0.1989123673796656
 10
290.1325752465053
 20
458.7085319121119
 42
0.0
 10
288.7569012752533
 20
457.33285794086
 42
0.3014400341973414
 10
281.8887090166496
 20
452.2134125132244
 42
0.0894893349315028
 10
281.6830927958613
 20
450.9876412122517
 42
0.0759033142298633
 10
281.8297017770126
 20
449.9413032101896
 42
0.0
 10
282.3015837853228
 20
448.3641769088946
 42
-0.0917951978364162
 10
283.123116674077
 20
440.7620725537252
 42
-0.0530641063839932
 10
282.8950282498939
 20
439.7839428244973
 42
-0.091249298154599
 10
282.1739789310445
 20
438.5161437566887
 42
-0.011417532515279
 10
282.0693668540772
 20
438.3973362631179
 42
0.0
 10
279.9199339705189
 20
436.007217086521
 42
-0.2127160503483894
 10
278.4328277781997
 20
435.3445708814332
 42
0.0
 10
277.1828277781997
 20
435.3445708814332
 42
0.0
 10
277.1828277781997
 20
434.3445708814333
 42
0.0
 10
278.4328277781997
 20
434.3445708814332
 42
0.2127160503483908
 10
280.6634870666785
 20
435.3385401890649
 42
0.0
 10
282.7780978315809
 20
437.6899379828237
 42
0.1034790873638338
 10
283.8393980585681
 20
439.4550573361204
 42
0.054141296446952
 10
284.1185310798776
 20
440.6638208522035
 42
0.0920583212816501
 10
283.259619785662
 20
448.6508248149642
 42
0.0
 10
282.7877377773518
 20
450.2279511162593
 42
-0.0728097721655578
 10
282.6828277781997
 20
450.9445708814334
 42
0.0
 10
282.6828277781997
 20
451.0307115430704
 42
-0.0863895238122648
 10
282.8298875258079
 20
451.8755027413405
 42
-0.3164987350546036
 10
289.1828277781999
 20
456.3445708814334
 42
0.0
 10
290.8396820276921
 20
458.0014251309257
 42
-0.1989123673796563
 10
296.4965362771845
 20
460.3445708814331
 42
0.0
 97
        0
 75
     0
 76
     1
 52
45.0
 41
8.0
 77
     0
 78
     2
 53
45.0
 43
10.00000000000062
 44
0.0
 45
-0.7071067811865475
 46
0.7071067811865476
 79
     0
 53
135.0
 43
10.00000000000062
 44
0.0
 45
-0.7071067811865476
 46
-0.7071067811865475
 79
     0
 47
0.1935347259984943
 98
        2
 10
390.9762991091554
 20
460.8043794846328
 10
376.6445992488126
 20
460.8043794846328
  0
HATCH
  5
E5D
330
1E
100
AcDbEntity
  8
SCHRAFF
100
AcDbHatch
 10
0.0
 20
0.0
 30
0.0
210
0.0
220
0.0
230
1.0
  2
NET
 70
     0
 71
     0
 91
        2
 92
        7
 72
     1
 73
     1
 93
       29
 10
167.8691192792149
 20
461.3445708814332
 42
0.0
 10
83.88117236006189
 20
461.3445708814332
 42
0.0
 10
83.61322316763079
 20
460.3445708814333
 42
0.0
 10
167.8691192792149
 20
460.3445708814332
 42
-0.1989123673796669
 10
173.5259735287076
 20
458.0014251309255
 42
0.0
 10
175.1828277781998
 20
456.3445708814333
 42
-0.3164987420617896
 10
181.5357680887023
 20
451.875502579488
 42
-0.0863895064870966
 10
181.6828277781997
 20
451.0307115430704
 42
0.0
 10
181.6828277781997
 20
450.9445708814332
 42
-0.0728097721655454
 10
181.5779177790476
 20
450.2279511162592
 42
0.0
 10
181.1060357707377
 20
448.6508248149654
 42
0.0920583212816758
 10
180.2471244765218
 20
440.6638208522024
 42
0.0541412964468781
 10
180.5262574978311
 20
439.4550573361209
 42
0.1034790873624477
 10
181.5875577247997
 20
437.6899379828446
 42
0.0
 10
183.7021684897208
 20
435.338540189065
 42
0.2127160503484011
 10
185.9328277781997
 20
434.3445708814331
 42
0.0
 10
187.1828277781997
 20
434.3445708814332
 42
0.0
 10
187.1828277781997
 20
435.3445708814332
 42
0.0
 10
185.9328277781997
 20
435.3445708814332
 42
-0.2127160503484005
 10
184.4457215858804
 20
436.0072170865211
 42
0.0
 10
182.3257672819032
 20
438.3645567709577
 42
-0.1039276672539049
 10
181.4706273065072
 20
439.783942824491
 42
-0.0530641063843038
 10
181.2425388823224
 20
440.7620725537245
 42
-0.0917951978364477
 10
182.0640717710771
 20
448.3641769088965
 42
0.0
 10
182.5359537793868
 20
449.9413032101894
 42
0.0759033142298867
 10
182.682562760538
 20
450.9876412122518
 42
0.0894895723997546
 10
182.4769454252578
 20
452.2134156173594
 42
0.301439918138241
 10
175.6087542811464
 20
457.3328579408596
 42
0.0
 10
174.2330803098937
 20
458.7085319121124
 42
0.1989123673796529
 97
        0
 92
        7
 72
     0
 73
     1
 93
        4
 10
82.88117236006186
 20
461.3445708814332
 10
62.18282777819968
 20
461.3445708814333
 10
62.18282777819968
 20
460.3445708814333
 10
82.61322316763079
 20
460.3445708814333
 97
        0
 75
     0
 76
     1
 52
45.0
 41
8.0
 77
     0
 78
     2
 53
45.0
 43
10.00000000000062
 44
0.0
 45
-0.7071067811865475
 46
0.7071067811865476
 79
     0
 53
135.0
 43
10.00000000000062
 44
0.0
 45
-0.7071067811865476
 46
-0.7071067811865475
 79
     0
 47
0.1972016964950016
 98
        2
 10
150.6377876355429
 20
460.9777459018251
 10
79.20028126662026
 20
460.7805450482706
  0
HATCH
  5
E5E
330
1E
100
AcDbEntity
  8
SCHRAFF
100
AcDbHatch
 10
0.0
 20
0.0
 30
0.0
210
0.0
220
0.0
230
1.0
  2
_USER
 70
     0
 71
     0
 91
        1
 92
        7
 72
     1
 73
     1
 93
       27
 10
124.6886019999827
 20
460.3445708814332
 42
0.0
 10
167.8691192792148
 20
460.3445708814331
 42
-0.1989123673796641
 10
173.5259735287074
 20
458.0014251309255
 42
0.0
 10
175.1828277781994
 20
456.3445708814334
 42
-0.3164989533024039
 10
181.5357698405195
 20
451.8754977002522
 42
-0.0907300177303428
 10
181.6824567399864
 20
450.9876412122517
 42
-0.0771412373564627
 10
181.5779177790475
 20
450.2279511162591
 42
0.0
 10
181.1060357707374
 20
448.6508248149642
 42
0.1019430245146214
 10
180.3297681979543
 20
439.8061093429716
 42
0.3807343387517906
 10
189.2696562080546
 20
431.8445708814333
 42
0.0
 10
193.6828277781996
 20
431.8445708814333
 42
0.0
 10
193.6828277781997
 20
430.3445708814332
 42
0.0
 10
189.2696562080549
 20
430.3445708814333
 42
-0.3807343387517859
 10
178.8397868629379
 20
439.6330324198945
 42
-0.1019430245146287
 10
179.6689817702287
 20
449.0807966740691
 42
0.0
 10
180.1822033323072
 20
450.7960882293549
 42
0.1021909725621817
 10
179.9555535948927
 20
451.7817124586229
 42
0.0
 10
179.9555535396175
 20
451.781712579243
 42
0.0
 10
179.9555565470755
 20
451.7817060164317
 42
0.0
 10
179.9555565336364
 20
451.7817060457583
 42
0.0
 10
179.9555550509259
 20
451.7817092813039
 42
0.3240202107393197
 10
174.5945685711555
 20
454.8115097449178
 42
0.0
 10
172.4653133569274
 20
456.9407649591458
 42
0.19891236737966
 10
167.8691192792149
 20
458.8445708814332
 42
0.0
 10
125.0211439939479
 20
458.8445708814333
 42
0.0
 10
117.8167551708106
 20
455.4851092008783
 42
0.0
 10
117.1828277781996
 20
456.8445708814333
 42
0.0
 97
        0
 75
     0
 76
     0
 52
45.0
 41
2.0
 77
     0
 78
     1
 53
45.0
 43
10.00000000000062
 44
0.0
 45
-1.414213562373094
 46
1.414213562373095
 79
     0
 47
0.3002843991019585
 98
        1
 10
160.8176154686978
 20
459.0527877079535
  0
HATCH
  5
E5F
330
1E
100
AcDbEntity
  8
SCHRAFF
100
AcDbHatch
 10
0.0
 20
0.0
 30
0.0
210
0.0
220
0.0
230
1.0
  2
_USER
 70
     0
 71
     0
 91
        1
 92
        7
 72
     1
 73
     1
 93
       27
 10
339.6770535564166
 20
460.3445708814332
 42
0.0
 10
296.4965362771845
 20
460.3445708814331
 42
0.1989123673796641
 10
290.8396820276919
 20
458.0014251309255
 42
0.0
 10
289.1828277781999
 20
456.3445708814334
 42
0.3164989533024039
 10
282.8298857158799
 20
451.8754977002522
 42
0.0907300177303428
 10
282.683198816413
 20
450.9876412122517
 42
0.0771412373564627
 10
282.7877377773518
 20
450.2279511162591
 42
0.0
 10
283.259619785662
 20
448.6508248149642
 42
-0.1019430245146214
 10
284.0358873584451
 20
439.8061093429716
 42
-0.3807343387517906
 10
275.0959993483447
 20
431.8445708814333
 42
0.0
 10
270.6828277781998
 20
431.8445708814333
 42
0.0
 10
270.6828277781997
 20
430.3445708814332
 42
0.0
 10
275.0959993483444
 20
430.3445708814333
 42
0.3807343387517859
 10
285.5258686934615
 20
439.6330324198945
 42
0.1019430245146287
 10
284.6966737861706
 20
449.0807966740691
 42
0.0
 10
284.1834522240921
 20
450.7960882293549
 42
-0.1021909725621817
 10
284.4101019615067
 20
451.7817124586229
 42
0.0
 10
284.4101020167819
 20
451.781712579243
 42
0.0
 10
284.4100990093238
 20
451.7817060164317
 42
0.0
 10
284.410099022763
 20
451.7817060457583
 42
0.0
 10
284.4101005054735
 20
451.7817092813039
 42
-0.3240202107393197
 10
289.7710869852438
 20
454.8115097449178
 42
0.0
 10
291.9003421994719
 20
456.9407649591458
 42
-0.19891236737966
 10
296.4965362771845
 20
458.8445708814332
 42
0.0
 10
339.3445115624515
 20
458.8445708814333
 42
0.0
 10
346.5489003855887
 20
455.4851092008783
 42
0.0
 10
347.1828277781997
 20
456.8445708814333
 42
0.0
 97
        0
 75
     0
 76
     0
 52
45.0
 41
2.0
 77
     0
 78
     1
 53
45.0
 43
10.00000000000062
 44
0.0
 45
-1.414213562373094
 46
1.414213562373095
 79
     0
 47
0.3002843991019585
 98
        1
 10
303.5480400877015
 20
459.0527877079535
  0
ARC
  5
E7B
102
{ACAD_REACTORS
330
EB3
102
}
330
1E
100
AcDbEntity
  8
STEMPEL
100
AcDbCircle
 10
280.7828277781997
 20
423.302133205276
 30
0.0
 40
8.0
100
AcDbArc
 50
149.1190110599268
 51
180.0
  0
ARC
  5
E7C
102
{ACAD_REACTORS
330
EB3
102
}
330
1E
100
AcDbEntity
  8
STEMPEL
100
AcDbCircle
 10
276.6828277781997
 20
380.2009773419844
 30
0.0
 40
8.0
100
AcDbArc
 50
150.0000000000003
 51
180.0
  0
ARC
  5
E7D
102
{ACAD_REACTORS
330
EB3
102
}
330
1E
100
AcDbEntity
  8
STEMPEL
100
AcDbCircle
 10
263.1828277781997
 20
392.0182914398044
 30
0.0
 40
8.0
100
AcDbArc
 50
329.9999999999999
 51
0.0
  0
ARC
  5
E7E
102
{ACAD_REACTORS
330
EB3
330
EBF
102
}
330
1E
100
AcDbEntity
  8
STEMPEL
100
AcDbCircle
 10
183.5828277781996
 20
423.302133205276
 30
0.0
 40
8.0
100
AcDbArc
 50
0.0
 51
30.88098894007283
  0
ARC
  5
E7F
102
{ACAD_REACTORS
330
EB3
102
}
330
1E
100
AcDbEntity
  8
STEMPEL
100
AcDbCircle
 10
201.1828277781997
 20
392.0182914398046
 30
0.0
 40
8.0
100
AcDbArc
 50
180.0
 51
210.0000000000003
  0
ARC
  5
E80
102
{ACAD_REACTORS
330
EB3
102
}
330
1E
100
AcDbEntity
  8
STEMPEL
100
AcDbCircle
 10
187.6828277781996
 20
380.2009773419844
 30
0.0
 40
8.0
100
AcDbArc
 50
0.0
 51
29.99999999999974
  0
ARC
  5
E81
102
{ACAD_REACTORS
330
EB3
102
}
330
1E
100
AcDbEntity
  8
STEMPEL
100
AcDbCircle
 10
280.7828277781997
 20
423.302133205276
 30
0.0
 40
9.599999999999999
100
AcDbArc
 50
149.1190110599268
 51
180.0
  0
ARC
  5
E84
102
{ACAD_REACTORS
330
EB3
102
}
330
1E
100
AcDbEntity
  8
STEMPEL
100
AcDbCircle
 10
263.1828277781997
 20
392.0182914398044
 30
0.0
 40
9.599999999999999
100
AcDbArc
 50
329.9999999999999
 51
0.0
  0
ARC
  5
E85
102
{ACAD_REACTORS
330
EB3
102
}
330
1E
100
AcDbEntity
  8
STEMPEL
100
AcDbCircle
 10
276.6828277781997
 20
380.2009773419844
 30
0.0
 40
9.599999999999999
100
AcDbArc
 50
150.0000000000003
 51
180.0
  0
ARC
  5
E87
102
{ACAD_REACTORS
330
EB3
102
}
330
1E
100
AcDbEntity
  8
STEMPEL
100
AcDbCircle
 10
183.5828277781996
 20
423.302133205276
 30
0.0
 40
9.599999999999999
100
AcDbArc
 50
0.0
 51
30.88098894007283
  0
ARC
  5
E89
102
{ACAD_REACTORS
330
EB3
102
}
330
1E
100
AcDbEntity
  8
STEMPEL
100
AcDbCircle
 10
201.1828277781997
 20
392.0182914398046
 30
0.0
 40
9.599999999999999
100
AcDbArc
 50
180.0
 51
210.0000000000003
  0
ARC
  5
E8B
102
{ACAD_REACTORS
330
EB3
102
}
330
1E
100
AcDbEntity
  8
STEMPEL
100
AcDbCircle
 10
187.6828277781996
 20
380.2009773419844
 30
0.0
 40
9.599999999999999
100
AcDbArc
 50
0.0
 51
29.99999999999974
  0
HATCH
  5
EB3
330
1E
100
AcDbEntity
  8
SCHRAFF
100
AcDbHatch
 10
0.0
 20
0.0
 30
0.0
210
0.0
220
0.0
230
1.0
  2
_USER
 70
     0
 71
     1
 91
        2
 92
        7
 72
     1
 73
     1
 93
       18
 10
268.6828277781997
 20
380.2009773419844
 42
-0.1316524975874009
 10
269.7546245479243
 20
384.2009773419846
 42
0.0
 10
271.4966716545303
 20
387.2182914398044
 42
0.1316524975873964
 10
272.7828277781997
 20
392.0182914398044
 42
0.0
 10
272.7828277781997
 20
423.302133205276
 42
-0.1355651627426996
 10
273.9169457434449
 20
427.4081853097714
 42
0.0
 10
275.1818989330281
 20
429.5233604605341
 42
0.0
 10
273.8087225260773
 20
430.3445708814331
 42
0.0
 10
272.5437693364941
 20
428.2293957306706
 42
0.1355651627427116
 10
271.1828277781997
 20
423.3021332052758
 42
0.0
 10
271.1828277781997
 20
392.0182914398044
 42
-0.1316524975873964
 10
270.1110310084751
 20
388.0182914398044
 42
0.0
 10
268.3689839018691
 20
385.0009773419844
 42
0.1316524975873995
 10
267.0828277781997
 20
380.2009773419843
 42
0.0
 10
267.0828277781997
 20
220.386468355943
 42
0.0
 10
266.5565542317727
 20
210.3445708814333
 42
0.0
 10
268.1587499853693
 20
210.3445708814333
 42
0.0
 10
268.6828277781997
 20
220.344570881434
 42
0.0
 97
       18
330
E7C
330
D84
330
E84
330
D8B
330
E7B
330
D1D
330
D1C
330
D1B
330
E81
330
D8C
330
E7D
330
D83
330
E85
330
DB8
330
DB1
330
DAD
330
DB2
330
DB9
 92
        7
 72
     1
 73
     1
 93
       18
 10
197.2828277781997
 20
380.2009773419844
 42
0.1316524975873881
 10
195.9966716545304
 20
385.0009773419841
 42
0.0
 10
194.2546245479242
 20
388.0182914398046
 42
-0.1316524975873973
 10
193.1828277781997
 20
392.0182914398046
 42
0.0
 10
193.1828277781997
 20
423.302133205276
 42
0.1355651627427047
 10
191.8218862199054
 20
428.2293957306706
 42
0.0
 10
190.5569330303221
 20
430.3445708814332
 42
0.0
 10
189.1837566233713
 20
429.5233604605342
 42
0.0
 10
190.4487098129545
 20
427.4081853097714
 42
-0.1355651627426998
 10
191.5828277781996
 20
423.302133205276
 42
0.0
 10
191.5828277781996
 20
392.0182914398046
 42
0.1316524975873968
 10
192.868983901869
 20
387.2182914398046
 42
0.0
 10
194.6110310084752
 20
384.2009773419844
 42
-0.1316524975873947
 10
195.6828277781996
 20
380.2009773419844
 42
0.0
 10
195.6828277781997
 20
220.3445708814333
 42
0.0
 10
196.20690557103
 20
210.3445708814333
 42
0.0
 10
197.8091013246267
 20
210.3445708814333
 42
0.0
 10
197.2828277781997
 20
220.3864683559435
 42
0.0
 97
       18
330
E8B
330
D85
330
E7F
330
D8A
330
E87
330
D68
330
D6B
330
D6C
330
E7E
330
D89
330
E89
330
D86
330
E80
330
DBA
330
DB0
330
DAD
330
DAF
330
DB7
 75
     0
 76
     0
 52
135.0
 41
2.0
 77
     0
 78
     1
 53
135.0
 43
0.0
 44
0.0
 45
-1.414213562373095
 46
-1.414213562373094
 79
     0
 47
0.4704890839850381
 98
        2
 10
268.1963227663973
 20
333.9286131289732
 10
196.6314006679549
 20
331.5761674142943
  0
HATCH
  5
EBF
330
1E
100
AcDbEntity
  8
SCHRAFF
100
AcDbHatch
 10
0.0
 20
0.0
 30
0.0
210
0.0
220
0.0
230
1.0
  2
_USER
 70
     0
 71
     1
 91
        2
 92
        7
 72
     1
 73
     1
 93
        5
 10
277.2377097734634
 20
430.565316217065
 42
-0.0513986771324457
 10
275.0959993483443
 20
430.3445708814333
 42
0.0
 10
273.8087225260773
 20
430.3445708814333
 42
0.0
 10
275.1818989330281
 20
429.5233604605341
 42
0.0
 10
274.1385954764169
 20
427.7788140501993
 42
0.3642267551591511
 97
        5
330
D23
330
D81
330
D1C
330
D1D
330
D1F
 92
        7
 72
     1
 73
     1
 93
        6
 10
190.5569330303222
 20
430.3445708814332
 42
0.0
 10
189.269656208055
 20
430.3445708814332
 42
-0.0484392373546936
 10
187.2494730605501
 20
430.5407434347735
 42
0.3717086428493946
 10
190.6727336349861
 20
427.0079711593566
 42
0.0143356972973194
 10
190.4487098129545
 20
427.4081853097714
 42
0.0
 10
189.1837566233712
 20
429.5233604605342
 42
0.0
 97
        6
330
D81
330
D6E
330
D69
330
E7E
330
D6C
330
D6B
 75
     0
 76
     0
 52
0.0
 41
0.1
 77
     0
 78
     1
 53
0.0
 43
0.0
 44
0.0
 45
0.0
 46
0.1
 79
     0
 47
0.1434194138797327
 98
        2
 10
275.681937927362
 20
428.7352685056093
 10
188.5647798234286
 20
429.595785137642
  0
ENDSEC
  0
SECTION
  2
OBJECTS
  0
DICTIONARY
  5
C
330
0
100
AcDbDictionary
281
     1
  3
ACAD_COLOR
350
DF
  3
ACAD_GROUP
350
D
  3
ACAD_LAYOUT
350
19
  3
ACAD_MATERIAL
350
DE
  3
ACAD_MLINESTYLE
350
16
  3
ACAD_PLOTSETTINGS
350
18
  3
ACAD_PLOTSTYLENAME
350
E
  3
AcDbVariableDictionary
350
EA
  0
DICTIONARY
  5
A0
330
1E
100
AcDbDictionary
280
     1
281
     1
  3
ACAD_LAYOUTSELFREF
360
D4
  0
DICTIONARY
  5
A2
330
1A
100
AcDbDictionary
280
     1
281
     1
  3
ACAD_LAYOUTSELFREF
360
D3
  0
DICTIONARY
  5
DF
102
{ACAD_REACTORS
330
C
102
}
330
C
100
AcDbDictionary
281
     1
  0
DICTIONARY
  5
D
102
{ACAD_REACTORS
330
C
102
}
330
C
100
AcDbDictionary
281
     1
  0
DICTIONARY
  5
19
102
{ACAD_REACTORS
330
C
102
}
330
C
100
AcDbDictionary
281
     1
  3
Layout1
350
1D
  3
Model
350
21
  0
DICTIONARY
  5
DE
102
{ACAD_REACTORS
330
C
102
}
330
C
100
AcDbDictionary
281
     1
  0
DICTIONARY
  5
16
102
{ACAD_REACTORS
330
C
102
}
330
C
100
AcDbDictionary
281
     1
  3
Standard
350
17
  0
DICTIONARY
  5
18
102
{ACAD_REACTORS
330
C
102
}
330
C
100
AcDbDictionary
281
     1
  0
ACDBDICTIONARYWDFLT
  5
E
102
{ACAD_REACTORS
330
C
102
}
330
C
100
AcDbDictionary
281
     1
  3
Normal
350
F
100
AcDbDictionaryWithDefault
340
F
  0
DICTIONARY
  5
EA
102
{ACAD_REACTORS
330
C
102
}
330
C
100
AcDbDictionary
281
     1
  3
DIMASSOC
350
EB
  3
PROJECTNAME
350
EC
  0
XRECORD
  5
D4
102
{ACAD_REACTORS
330
A0
102
}
330
A0
100
AcDbXrecord
280
     1
340
1E
  0
XRECORD
  5
D3
102
{ACAD_REACTORS
330
A2
102
}
330
A2
100
AcDbXrecord
280
     1
340
1A
  0
LAYOUT
  5
1D
102
{ACAD_REACTORS
330
19
102
}
330
19
100
AcDbPlotSettings
  1

  2
\\NT_WORK01\HP LaserJet 5000 PCL 6
  4

  6

 40
0.0
 41
0.0
 42
0.0
 43
0.0
 44
0.0
 45
0.0
 46
0.0
 47
0.0
 48
0.0
 49
0.0
140
0.0
141
0.0
142
1.0
143
1.0
 70
   688
 72
     0
 73
     0
 74
     5
  7

 75
    16
147
1.0
 76
     0
 77
     2
 78
   300
148
0.0
149
0.0
100
AcDbLayout
  1
Layout1
 70
     0
 71
     1
 10
0.0
 20
0.0
 11
12.0
 21
9.0
 12
0.0
 22
0.0
 32
0.0
 14
1.000000000000000E+20
 24
1.000000000000000E+20
 34
1.000000000000000E+20
 15
-1.000000000000000E+20
 25
-1.000000000000000E+20
 35
-1.000000000000000E+20
146
0.0
 13
0.0
 23
0.0
 33
0.0
 16
1.0
 26
0.0
 36
0.0
 17
0.0
 27
1.0
 37
0.0
 76
     0
330
1A
  0
LAYOUT
  5
21
102
{ACAD_REACTORS
330
19
102
}
330
19
100
AcDbPlotSettings
  1

  2
none_device
  4
Letter_(8.50_x_11.00_Inches)
  6

 40
6.349999904632568
 41
6.349999904632568
 42
6.350006103515625
 43
6.350006103515625
 44
215.8999938964844
 45
279.3999938964844
 46
0.0
 47
0.0
 48
0.0
 49
0.0
140
0.0
141
0.0
142
1.0
143
1.0
 70
 11952
 72
     0
 73
     1
 74
     0
  7

 75
     0
147
1.0
 76
     0
 77
     2
 78
   300
148
2271.101496361235
149
61.2677252624675
100
AcDbLayout
  1
Model
 70
     1
 71
     0
 10
0.0
 20
0.0
 11
12.0
 21
9.0
 12
0.0
 22
0.0
 32
0.0
 14
0.0
 24
0.0
 34
0.0
 15
0.0
 25
0.0
 35
0.0
146
0.0
 13
0.0
 23
0.0
 33
0.0
 16
1.0
 26
0.0
 36
0.0
 17
0.0
 27
1.0
 37
0.0
 76
     0
330
1E
  0
MLINESTYLE
  5
17
102
{ACAD_REACTORS
330
16
102
}
330
16
100
AcDbMlineStyle
  2
STANDARD
 70
     0
  3

 62
   256
 51
90.0
 52
90.0
 71
     2
 49
0.5
 62
   256
  6
BYLAYER
 49
-0.5
 62
   256
  6
BYLAYER
  0
ACDBPLACEHOLDER
  5
F
102
{ACAD_REACTORS
330
E
102
}
330
E
  0
DICTIONARYVAR
  5
EB
102
{ACAD_REACTORS
330
EA
102
}
330
EA
100
DictionaryVariables
280
     0
  1
1
  0
DICTIONARYVAR
  5
EC
102
{ACAD_REACTORS
330
EA
102
}
330
EA
100
DictionaryVariables
280
     0
  1

  0
ENDSEC
  0
EOF
