  0
SECTION
  2
HEADER
  9
$ACADVER
  1
AC1018
  9
$ACADMAINTVER
 70
     2
  9
$DWGCODEPAGE
  3
ANSI_1252
  9
$INSBASE
 10
0.0
 20
0.0
 30
0.0
  9
$EXTMIN
 10
-0.0192209888436992
 20
-0.0271839699362317
 30
-0.0000000000000058
  9
$EXTMAX
 10
420.0192288123714
 20
594.0271950346398
 30
0.0000000000000104
  9
$LIMMIN
 10
0.0
 20
0.0
  9
$LIMMAX
 10
419.9999999999999
 20
594.0
  9
$ORTHOMODE
 70
     0
  9
$REGENMODE
 70
     1
  9
$FILLMODE
 70
     1
  9
$QTEXTMODE
 70
     0
  9
$MIRRTEXT
 70
     1
  9
$LTSCALE
 40
20.0
  9
$ATTMODE
 70
     1
  9
$TEXTSIZE
 40
3.5
  9
$TRACEWID
 40
0.5
  9
$TEXTSTYLE
  7
STANDARD
  9
$CLAYER
  8
SCHRAFF
  9
$CELTYPE
  6
ByLayer
  9
$CECOLOR
 62
   256
  9
$CELTSCALE
 40
1.0
  9
$DISPSILH
 70
     0
  9
$DIMSCALE
 40
2.0
  9
$DIMASZ
 40
3.5
  9
$DIMEXO
 40
1.0
  9
$DIMDLI
 40
7.0
  9
$DIMRND
 40
0.0
  9
$DIMDLE
 40
0.0
  9
$DIMEXE
 40
1.0
  9
$DIMTP
 40
0.0
  9
$DIMTM
 40
0.0
  9
$DIMTXT
 40
3.5
  9
$DIMCEN
 40
1.5
  9
$DIMTSZ
 40
0.0
  9
$DIMTOL
 70
     0
  9
$DIMLIM
 70
     0
  9
$DIMTIH
 70
     0
  9
$DIMTOH
 70
     0
  9
$DIMSE1
 70
     0
  9
$DIMSE2
 70
     0
  9
$DIMTAD
 70
     1
  9
$DIMZIN
 70
     8
  9
$DIMBLK
  1

  9
$DIMASO
 70
     1
  9
$DIMSHO
 70
     0
  9
$DIMPOST
  1

  9
$DIMAPOST
  1

  9
$DIMALT
 70
     0
  9
$DIMALTD
 70
     2
  9
$DIMALTF
 40
25.4
  9
$DIMLFAC
 40
1.0
  9
$DIMTOFL
 70
     1
  9
$DIMTVP
 40
0.0
  9
$DIMTIX
 70
     0
  9
$DIMSOXD
 70
     0
  9
$DIMSAH
 70
     0
  9
$DIMBLK1
  1

  9
$DIMBLK2
  1

  9
$DIMSTYLE
  2
Standard
  9
$DIMCLRD
 70
     0
  9
$DIMCLRE
 70
     0
  9
$DIMCLRT
 70
     1
  9
$DIMTFAC
 40
0.5142857142857144
  9
$DIMGAP
 40
1.5
  9
$DIMJUST
 70
     0
  9
$DIMSD1
 70
     0
  9
$DIMSD2
 70
     0
  9
$DIMTOLJ
 70
     1
  9
$DIMTZIN
 70
     8
  9
$DIMALTZ
 70
     8
  9
$DIMALTTZ
 70
     8
  9
$DIMUPT
 70
     0
  9
$DIMDEC
 70
     2
  9
$DIMTDEC
 70
     2
  9
$DIMALTU
 70
     2
  9
$DIMALTTD
 70
     2
  9
$DIMTXSTY
  7
STANDARD
  9
$DIMAUNIT
 70
     0
  9
$DIMADEC
 70
     2
  9
$DIMALTRND
 40
0.0
  9
$DIMAZIN
 70
     2
  9
$DIMDSEP
 70
    46
  9
$DIMATFIT
 70
     3
  9
$DIMFRAC
 70
     0
  9
$DIMLDRBLK
  1

  9
$DIMLUNIT
 70
     2
  9
$DIMLWD
 70
    -2
  9
$DIMLWE
 70
    -2
  9
$DIMTMOVE
 70
     0
  9
$LUNITS
 70
     2
  9
$LUPREC
 70
     2
  9
$SKETCHINC
 40
1.0
  9
$FILLETRAD
 40
0.0
  9
$AUNITS
 70
     0
  9
$AUPREC
 70
     0
  9
$MENU
  1
ACAD
  9
$ELEVATION
 40
0.0
  9
$PELEVATION
 40
0.0
  9
$THICKNESS
 40
0.0
  9
$LIMCHECK
 70
     0
  9
$CHAMFERA
 40
0.0
  9
$CHAMFERB
 40
0.0
  9
$CHAMFERC
 40
0.0
  9
$CHAMFERD
 40
0.0
  9
$SKPOLY
 70
     0
  9
$TDCREATE
 40
2455397.823042361
  9
$TDUCREATE
 40
2455397.781375695
  9
$TDUPDATE
 40
2455583.408349005
  9
$TDUUPDATE
 40
2455583.366682338
  9
$TDINDWG
 40
0.0578985417
  9
$TDUSRTIMER
 40
0.0578985417
  9
$USRTIMER
 70
     1
  9
$ANGBASE
 50
0.0
  9
$ANGDIR
 70
     0
  9
$PDMODE
 70
     0
  9
$PDSIZE
 40
0.0
  9
$PLINEWID
 40
0.0
  9
$SPLFRAME
 70
     0
  9
$SPLINETYPE
 70
     6
  9
$SPLINESEGS
 70
     8
  9
$HANDSEED
  5
834
  9
$SURFTAB1
 70
     6
  9
$SURFTAB2
 70
     6
  9
$SURFTYPE
 70
     6
  9
$SURFU
 70
     6
  9
$SURFV
 70
     6
  9
$UCSBASE
  2

  9
$UCSNAME
  2

  9
$UCSORG
 10
0.0
 20
0.0
 30
0.0
  9
$UCSXDIR
 10
1.0
 20
0.0
 30
0.0
  9
$UCSYDIR
 10
0.0
 20
1.0
 30
0.0
  9
$UCSORTHOREF
  2

  9
$UCSORTHOVIEW
 70
     0
  9
$UCSORGTOP
 10
0.0
 20
0.0
 30
0.0
  9
$UCSORGBOTTOM
 10
0.0
 20
0.0
 30
0.0
  9
$UCSORGLEFT
 10
0.0
 20
0.0
 30
0.0
  9
$UCSORGRIGHT
 10
0.0
 20
0.0
 30
0.0
  9
$UCSORGFRONT
 10
0.0
 20
0.0
 30
0.0
  9
$UCSORGBACK
 10
0.0
 20
0.0
 30
0.0
  9
$PUCSBASE
  2

  9
$PUCSNAME
  2

  9
$PUCSORG
 10
0.0
 20
0.0
 30
0.0
  9
$PUCSXDIR
 10
1.0
 20
0.0
 30
0.0
  9
$PUCSYDIR
 10
0.0
 20
1.0
 30
0.0
  9
$PUCSORTHOREF
  2

  9
$PUCSORTHOVIEW
 70
     0
  9
$PUCSORGTOP
 10
0.0
 20
0.0
 30
0.0
  9
$PUCSORGBOTTOM
 10
0.0
 20
0.0
 30
0.0
  9
$PUCSORGLEFT
 10
0.0
 20
0.0
 30
0.0
  9
$PUCSORGRIGHT
 10
0.0
 20
0.0
 30
0.0
  9
$PUCSORGFRONT
 10
0.0
 20
0.0
 30
0.0
  9
$PUCSORGBACK
 10
0.0
 20
0.0
 30
0.0
  9
$USERI1
 70
     0
  9
$USERI2
 70
     0
  9
$USERI3
 70
     0
  9
$USERI4
 70
     0
  9
$USERI5
 70
     0
  9
$USERR1
 40
0.0
  9
$USERR2
 40
0.0
  9
$USERR3
 40
0.0
  9
$USERR4
 40
0.0
  9
$USERR5
 40
0.0
  9
$WORLDVIEW
 70
     1
  9
$SHADEDGE
 70
     3
  9
$SHADEDIF
 70
    70
  9
$TILEMODE
 70
     1
  9
$MAXACTVP
 70
    16
  9
$PINSBASE
 10
0.0
 20
0.0
 30
0.0
  9
$PLIMCHECK
 70
     0
  9
$PEXTMIN
 10
1.000000000000000E+20
 20
1.000000000000000E+20
 30
1.000000000000000E+20
  9
$PEXTMAX
 10
-1.000000000000000E+20
 20
-1.000000000000000E+20
 30
-1.000000000000000E+20
  9
$PLIMMIN
 10
0.0
 20
0.0
  9
$PLIMMAX
 10
12.0
 20
9.0
  9
$UNITMODE
 70
     0
  9
$VISRETAIN
 70
     0
  9
$PLINEGEN
 70
     0
  9
$PSLTSCALE
 70
     0
  9
$TREEDEPTH
 70
  3020
  9
$CMLSTYLE
  2
Standard
  9
$CMLJUST
 70
     0
  9
$CMLSCALE
 40
1.0
  9
$PROXYGRAPHICS
 70
     1
  9
$MEASUREMENT
 70
     0
  9
$CELWEIGHT
370
    -1
  9
$ENDCAPS
280
     0
  9
$JOINSTYLE
280
     0
  9
$LWDISPLAY
290
     0
  9
$INSUNITS
 70
     0
  9
$HYPERLINKBASE
  1

  9
$STYLESHEET
  1
monochrome1.ctb
  9
$XEDIT
290
     1
  9
$CEPSNTYPE
380
     0
  9
$PSTYLEMODE
290
     1
  9
$FINGERPRINTGUID
  2
{D68B0D02-A558-11D7-B632-000102183313}
  9
$VERSIONGUID
  2
{BC1DE390-7075-4E8E-B661-47609427B31F}
  9
$EXTNAMES
290
     1
  9
$PSVPSCALE
 40
0.0
  9
$OLESTARTUP
290
     0
  9
$SORTENTS
280
   127
  9
$INDEXCTL
280
     0
  9
$HIDETEXT
280
     0
  9
$XCLIPFRAME
290
     0
  9
$HALOGAP
280
     0
  9
$OBSCOLOR
 70
   257
  9
$OBSLTYPE
280
     0
  9
$INTERSECTIONDISPLAY
280
     0
  9
$INTERSECTIONCOLOR
 70
   257
  9
$DIMASSOC
280
     1
  9
$PROJECTNAME
  1

  0
ENDSEC
  0
SECTION
  2
CLASSES
  0
CLASS
  1
ACDBDICTIONARYWDFLT
  2
AcDbDictionaryWithDefault
  3
ObjectDBX Classes
 90
        0
 91
        1
280
     0
281
     0
  0
CLASS
  1
DICTIONARYVAR
  2
AcDbDictionaryVar
  3
ObjectDBX Classes
 90
        0
 91
        2
280
     0
281
     0
  0
ENDSEC
  0
SECTION
  2
TABLES
  0
TABLE
  2
VPORT
  5
8
330
0
100
AcDbSymbolTable
 70
     2
  0
VPORT
  5
833
330
8
100
AcDbSymbolTableRecord
100
AcDbViewportTableRecord
  2
*Active
 70
     0
 10
0.0
 20
0.0
 11
1.0
 21
1.0
 12
210.0
 22
297.0
 13
0.0
 23
0.0
 14
1.0
 24
1.0
 15
10.0
 25
10.0
 16
0.0
 26
0.0
 36
1.0
 17
0.0
 27
0.0
 37
0.0
 40
594.0
 41
1.336927223719676
 42
50.0
 43
0.0
 44
0.0
 50
0.0
 51
0.0
 71
     0
 72
  1500
 73
     1
 74
     0
 75
     0
 76
     0
 77
     0
 78
     0
281
     0
 65
     1
110
0.0
120
0.0
130
0.0
111
1.0
121
0.0
131
0.0
112
0.0
122
1.0
132
0.0
 79
     0
146
0.0
  0
ENDTAB
  0
TABLE
  2
LTYPE
  5
5
330
0
100
AcDbSymbolTable
 70
     3
  0
LTYPE
  5
13
330
5
100
AcDbSymbolTableRecord
100
AcDbLinetypeTableRecord
  2
ByBlock
 70
     0
  3

 72
    65
 73
     0
 40
0.0
  0
LTYPE
  5
14
330
5
100
AcDbSymbolTableRecord
100
AcDbLinetypeTableRecord
  2
ByLayer
 70
     0
  3

 72
    65
 73
     0
 40
0.0
  0
LTYPE
  5
15
330
5
100
AcDbSymbolTableRecord
100
AcDbLinetypeTableRecord
  2
Continuous
 70
     0
  3
Solid line
 72
    65
 73
     0
 40
0.0
  0
LTYPE
  5
25
330
5
100
AcDbSymbolTableRecord
100
AcDbLinetypeTableRecord
  2
STRICHPUNKT
 70
     0
  3
__ . __ . __ . __ . __ . __ . __ . __ . __ . __
 72
    65
 73
     4
 40
1.0
 49
0.5
 74
     0
 49
-0.25
 74
     0
 49
0.0
 74
     0
 49
-0.25
 74
     0
  0
LTYPE
  5
32
330
5
100
AcDbSymbolTableRecord
100
AcDbLinetypeTableRecord
  2
AUSGEZOGEN
 70
     0
  3
Ausgezogene Linie
 72
    65
 73
     0
 40
0.0
  0
ENDTAB
  0
TABLE
  2
LAYER
  5
2
330
0
100
AcDbSymbolTable
 70
     9
  0
LAYER
  5
10
330
2
100
AcDbSymbolTableRecord
100
AcDbLayerTableRecord
  2
0
 70
     0
 62
     7
  6
Continuous
370
    -3
390
F
  0
LAYER
  5
2A
330
2
100
AcDbSymbolTableRecord
100
AcDbLayerTableRecord
  2
VOLL
 70
     0
 62
     1
  6
Continuous
370
    -3
390
F
  0
LAYER
  5
2B
330
2
100
AcDbSymbolTableRecord
100
AcDbLayerTableRecord
  2
HILF
 70
     0
 62
     2
  6
Continuous
370
    -3
390
F
  0
LAYER
  5
2C
330
2
100
AcDbSymbolTableRecord
100
AcDbLayerTableRecord
  2
MITTEL
 70
     0
 62
     2
  6
STRICHPUNKT
370
    -3
390
F
  0
LAYER
  5
2F
330
2
100
AcDbSymbolTableRecord
100
AcDbLayerTableRecord
  2
BEM
 70
     0
 62
     7
  6
Continuous
370
    -3
390
F
  0
LAYER
  5
30
330
2
100
AcDbSymbolTableRecord
100
AcDbLayerTableRecord
  2
STEMPEL
 70
     0
 62
     3
  6
Continuous
370
    -3
390
F
  0
LAYER
  5
31
330
2
100
AcDbSymbolTableRecord
100
AcDbLayerTableRecord
  2
TEXT
 70
     0
 62
     7
  6
Continuous
370
    -3
390
F
  0
LAYER
  5
4B9
330
2
100
AcDbSymbolTableRecord
100
AcDbLayerTableRecord
  2
SCHRAFF
 70
     0
 62
     7
  6
AUSGEZOGEN
370
    -3
390
F
  0
LAYER
  5
5DB
330
2
100
AcDbSymbolTableRecord
100
AcDbLayerTableRecord
  2
Defpoints
 70
     0
 62
     7
  6
Continuous
290
     0
370
    -3
390
F
  0
ENDTAB
  0
TABLE
  2
STYLE
  5
3
330
0
100
AcDbSymbolTable
 70
     2
  0
STYLE
  5
11
330
3
100
AcDbSymbolTableRecord
100
AcDbTextStyleTableRecord
  2
STANDARD
 70
     0
 40
0.0
 41
0.8
 50
0.0
 71
     0
 42
3.5
  3
simplex.shx
  4

  0
STYLE
  5
24
330
3
100
AcDbSymbolTableRecord
100
AcDbTextStyleTableRecord
  2
GREEKS
 70
     0
 40
0.0
 41
0.8
 50
0.0
 71
     0
 42
2.5
  3
SIMPLEX.shx
  4

  0
ENDTAB
  0
TABLE
  2
VIEW
  5
6
330
0
100
AcDbSymbolTable
 70
     0
  0
ENDTAB
  0
TABLE
  2
UCS
  5
7
330
0
100
AcDbSymbolTable
 70
     0
  0
ENDTAB
  0
TABLE
  2
APPID
  5
9
330
0
100
AcDbSymbolTable
 70
     1
  0
APPID
  5
12
330
9
100
AcDbSymbolTableRecord
100
AcDbRegAppTableRecord
  2
ACAD
 70
     0
  0
ENDTAB
  0
TABLE
  2
DIMSTYLE
  5
A
330
0
100
AcDbSymbolTable
 70
     1
100
AcDbDimStyleTable
 71
     1
340
9D
  0
DIMSTYLE
105
9D
102
{ACAD_REACTORS
330
5E8
330
5FD
102
}
330
A
100
AcDbSymbolTableRecord
100
AcDbDimStyleTableRecord
  2
Standard
 70
     0
340
11
  0
ENDTAB
  0
TABLE
  2
BLOCK_RECORD
  5
1
330
0
100
AcDbSymbolTable
 70
     5
  0
BLOCK_RECORD
  5
1E
102
{ACAD_XDICTIONARY
360
A0
102
}
330
1
100
AcDbSymbolTableRecord
100
AcDbBlockTableRecord
  2
*Model_Space
340
21
  0
BLOCK_RECORD
  5
1A
102
{ACAD_XDICTIONARY
360
A2
102
}
330
1
100
AcDbSymbolTableRecord
100
AcDbBlockTableRecord
  2
*Paper_Space
340
1D
  0
BLOCK_RECORD
  5
22
330
1
100
AcDbSymbolTableRecord
100
AcDbBlockTableRecord
  2
LOGO
340
0
102
{BLKREFS
331
9B
102
}
  0
BLOCK_RECORD
  5
415
330
1
100
AcDbSymbolTableRecord
100
AcDbBlockTableRecord
  2
*X1
340
0
102
{BLKREFS
331
552
102
}
  0
BLOCK_RECORD
  5
4B0
330
1
100
AcDbSymbolTableRecord
100
AcDbBlockTableRecord
  2
*X2
340
0
102
{BLKREFS
331
561
102
}
  0
BLOCK_RECORD
  5
5E9
330
1
100
AcDbSymbolTableRecord
100
AcDbBlockTableRecord
  2
*D3
340
0
  0
BLOCK_RECORD
  5
5FE
330
1
100
AcDbSymbolTableRecord
100
AcDbBlockTableRecord
  2
*D4
340
0
  0
ENDTAB
  0
ENDSEC
  0
SECTION
  2
BLOCKS
  0
BLOCK
  5
35
330
1E
100
AcDbEntity
  8
0
100
AcDbBlockBegin
  2
*Model_Space
 70
     0
 10
0.0
 20
0.0
 30
0.0
  3
*Model_Space
  1

  0
ENDBLK
  5
36
330
1E
100
AcDbEntity
  8
0
100
AcDbBlockEnd
  0
BLOCK
  5
33
330
1A
100
AcDbEntity
 67
     1
  8
0
100
AcDbBlockBegin
  2
*Paper_Space
 70
     0
 10
0.0
 20
0.0
 30
0.0
  3
*Paper_Space
  1

  0
ENDBLK
  5
34
330
1A
100
AcDbEntity
 67
     1
  8
0
100
AcDbBlockEnd
  0
BLOCK
  5
37
330
22
100
AcDbEntity
  8
0
100
AcDbBlockBegin
  2
LOGO
 70
     0
 10
0.0
 20
0.0
 30
0.0
  3
LOGO
  1

  0
ARC
  5
38
330
22
100
AcDbEntity
  8
0
100
AcDbCircle
 10
11.59973089678112
 20
-9.271599258481501
 30
0.0
 40
4.5
100
AcDbArc
 50
270.0
 51
231.0575587310159
  0
LINE
  5
39
330
22
100
AcDbEntity
  8
0
100
AcDbLine
 10
3.599730896781125
 20
-4.771599258481529
 30
0.0
 11
3.599730896781153
 21
-11.77159925848133
 31
0.0
  0
LINE
  5
3A
330
22
100
AcDbEntity
  8
0
100
AcDbLine
 10
2.599730896781125
 20
-4.771599258481529
 30
0.0
 11
2.599730896781153
 21
-11.77159925848133
 31
0.0
  0
CIRCLE
  5
3B
330
22
100
AcDbEntity
  8
0
100
AcDbCircle
 10
11.59973089678112
 20
-9.271599258481501
 30
0.0
 40
3.5
  0
ARC
  5
3C
330
22
100
AcDbEntity
  8
0
100
AcDbCircle
 10
31.59973089678115
 20
-9.271599258481472
 30
0.0
 40
4.5
100
AcDbArc
 50
270.0
 51
231.0575587310182
  0
LINE
  5
3D
330
22
100
AcDbEntity
  8
0
100
AcDbLine
 10
17.59973089678112
 20
-4.771599258481472
 30
0.0
 11
17.59973089678115
 21
-13.77159925848147
 31
0.0
  0
ARC
  5
3E
330
22
100
AcDbEntity
  8
0
100
AcDbCircle
 10
22.59973089678116
 20
-7.271599258481472
 30
0.0
 40
2.5
100
AcDbArc
 50
293.1161887722295
 51
90.0
  0
CIRCLE
  5
3F
330
22
100
AcDbEntity
  8
0
100
AcDbCircle
 10
31.59973089678115
 20
-9.271599258481472
 30
0.0
 40
3.5
  0
ARC
  5
40
330
22
100
AcDbEntity
  8
0
100
AcDbCircle
 10
4.599730896781153
 20
-11.77159925848133
 30
0.0
 40
1.0
100
AcDbArc
 50
180.0
 51
270.0
  0
ARC
  5
41
330
22
100
AcDbEntity
  8
0
100
AcDbCircle
 10
4.599730896781153
 20
-11.77159925848133
 30
0.0
 40
2.0
100
AcDbArc
 50
179.9999999999992
 51
270.0
  0
LINE
  5
42
330
22
100
AcDbEntity
  8
0
100
AcDbLine
 10
11.59973089678115
 20
-13.77159925848144
 30
0.0
 11
4.599730896781153
 21
-13.77159925848147
 31
0.0
  0
LINE
  5
43
330
22
100
AcDbEntity
  8
0
100
AcDbLine
 10
8.771303772034769
 20
-12.77159925848136
 30
0.0
 11
4.599730896781153
 21
-12.77159925848133
 31
0.0
  0
LINE
  5
44
330
22
100
AcDbEntity
  8
0
100
AcDbLine
 10
31.59973089678115
 20
-13.77159925848147
 30
0.0
 11
23.6715276665056
 21
-13.77159925848144
 31
0.0
  0
LINE
  5
45
330
22
100
AcDbEntity
  8
0
100
AcDbLine
 10
23.56565672307022
 20
-9.51278021337896
 30
0.0
 11
24.4388546544846
 21
-12.77159925848144
 31
0.0
  0
LINE
  5
46
330
22
100
AcDbEntity
  8
0
100
AcDbLine
 10
22.59973089678116
 20
-9.771599258481472
 30
0.0
 11
18.59973089678112
 21
-9.771599258481472
 31
0.0
  0
LINE
  5
47
330
22
100
AcDbEntity
  8
0
100
AcDbLine
 10
18.59973089678115
 20
-13.77159925848144
 30
0.0
 11
17.59973089678115
 21
-13.77159925848144
 31
0.0
  0
LINE
  5
48
330
22
100
AcDbEntity
  8
0
100
AcDbLine
 10
18.59973089678115
 20
-9.771599258481472
 30
0.0
 11
18.59973089678115
 21
-13.77159925848144
 31
0.0
  0
LINE
  5
49
330
22
100
AcDbEntity
  8
0
100
AcDbLine
 10
22.59973089678116
 20
-9.771599258481472
 30
0.0
 11
23.67152766650562
 21
-13.77159925848147
 31
0.0
  0
ARC
  5
4A
330
22
100
AcDbEntity
  8
0
100
AcDbCircle
 10
22.59973089678116
 20
-7.271599258481472
 30
0.0
 40
2.5
100
AcDbArc
 50
270.0
 51
270.0000000000007
  0
LINE
  5
4B
330
22
100
AcDbEntity
  8
0
100
AcDbLine
 10
28.77130377203494
 20
-12.77159925848147
 30
0.0
 11
24.43885465448463
 21
-12.77159925848144
 31
0.0
  0
LINE
  5
4C
330
22
100
AcDbEntity
  8
0
100
AcDbLine
 10
3.599730896781125
 20
-4.771599258481472
 30
0.0
 11
2.599730896781125
 21
-4.771599258481472
 31
0.0
  0
LINE
  5
4D
330
22
100
AcDbEntity
  8
0
100
AcDbLine
 10
22.59973089678116
 20
-8.771599258481472
 30
0.0
 11
18.59973089678115
 21
-8.771599258481472
 31
0.0
  0
LINE
  5
4E
330
22
100
AcDbEntity
  8
0
100
AcDbLine
 10
22.59973089678116
 20
-5.771599258481472
 30
0.0
 11
18.59973089678115
 21
-5.771599258481472
 31
0.0
  0
LINE
  5
4F
330
22
100
AcDbEntity
  8
0
100
AcDbLine
 10
22.59973089678116
 20
-4.771599258481472
 30
0.0
 11
17.59973089678115
 21
-4.771599258481472
 31
0.0
  0
LINE
  5
50
330
22
100
AcDbEntity
  8
0
100
AcDbLine
 10
18.59973089678115
 20
-5.771599258481472
 30
0.0
 11
18.59973089678115
 21
-8.771599258481472
 31
0.0
  0
ARC
  5
51
330
22
100
AcDbEntity
  8
0
100
AcDbCircle
 10
22.59973089678116
 20
-7.271599258481472
 30
0.0
 40
1.5
100
AcDbArc
 50
270.0
 51
90.0
  0
ENDBLK
  5
52
330
22
100
AcDbEntity
  8
0
100
AcDbBlockEnd
  0
BLOCK
  5
416
330
415
100
AcDbEntity
  8
0
100
AcDbBlockBegin
  2
*X1
 70
     1
 10
0.0
 20
0.0
 30
0.0
  3
*X1
  1

  0
LINE
  5
417
330
415
100
AcDbEntity
  8
0
 62
     0
100
AcDbLine
 10
211.9459147073443
 20
393.9
 30
0.0
 11
214.0178481495824
 21
393.9
 31
0.0
  0
LINE
  5
418
330
415
100
AcDbEntity
  8
0
 62
     0
100
AcDbLine
 10
313.9911649853376
 20
393.9
 30
0.0
 11
316.0630984275752
 21
393.9
 31
0.0
  0
LINE
  5
419
330
415
100
AcDbEntity
  8
0
 62
     0
100
AcDbLine
 10
211.9471416467981
 20
394.0
 30
0.0
 11
213.9916632899099
 21
394.0
 31
0.0
  0
LINE
  5
41A
330
415
100
AcDbEntity
  8
0
 62
     0
100
AcDbLine
 10
314.01734984501
 20
394.0
 30
0.0
 11
316.0618714881214
 21
394.0
 31
0.0
  0
LINE
  5
41B
330
415
100
AcDbEntity
  8
0
 62
     0
100
AcDbLine
 10
211.9497772309366
 20
394.1
 30
0.0
 11
213.9654784302375
 21
394.1
 31
0.0
  0
LINE
  5
41C
330
415
100
AcDbEntity
  8
0
 62
     0
100
AcDbLine
 10
314.0435347046825
 20
394.1
 30
0.0
 11
316.0592359039829
 21
394.1
 31
0.0
  0
LINE
  5
41D
330
415
100
AcDbEntity
  8
0
 62
     0
100
AcDbLine
 10
211.9538230294946
 20
394.2000000000001
 30
0.0
 11
213.939293570565
 21
394.2000000000001
 31
0.0
  0
LINE
  5
41E
330
415
100
AcDbEntity
  8
0
 62
     0
100
AcDbLine
 10
314.069719564355
 20
394.2000000000001
 30
0.0
 11
316.0551901054248
 21
394.2000000000001
 31
0.0
  0
LINE
  5
41F
330
415
100
AcDbEntity
  8
0
 62
     0
100
AcDbLine
 10
211.9592814566628
 20
394.3
 30
0.0
 11
213.9131087108925
 21
394.3
 31
0.0
  0
LINE
  5
420
330
415
100
AcDbEntity
  8
0
 62
     0
100
AcDbLine
 10
314.0959044240274
 20
394.3
 30
0.0
 11
316.0497316782567
 21
394.3
 31
0.0
  0
LINE
  5
421
330
415
100
AcDbEntity
  8
0
 62
     0
100
AcDbLine
 10
211.9661557783115
 20
394.4
 30
0.0
 11
213.8869238512201
 21
394.4
 31
0.0
  0
LINE
  5
422
330
415
100
AcDbEntity
  8
0
 62
     0
100
AcDbLine
 10
314.1220892836998
 20
394.4
 30
0.0
 11
316.042857356608
 21
394.4
 31
0.0
  0
LINE
  5
423
330
415
100
AcDbEntity
  8
0
 62
     0
100
AcDbLine
 10
211.9744501218066
 20
394.5
 30
0.0
 11
213.8607389915476
 21
394.5
 31
0.0
  0
LINE
  5
424
330
415
100
AcDbEntity
  8
0
 62
     0
100
AcDbLine
 10
314.1482741433723
 20
394.5
 30
0.0
 11
316.0345630131128
 21
394.5
 31
0.0
  0
LINE
  5
425
330
415
100
AcDbEntity
  8
0
 62
     0
100
AcDbLine
 10
211.9841694884878
 20
394.6
 30
0.0
 11
213.8345541318752
 21
394.6
 31
0.0
  0
LINE
  5
426
330
415
100
AcDbEntity
  8
0
 62
     0
100
AcDbLine
 10
314.1744590030448
 20
394.6
 30
0.0
 11
316.0248436464317
 21
394.6
 31
0.0
  0
LINE
  5
427
330
415
100
AcDbEntity
  8
0
 62
     0
100
AcDbLine
 10
211.9953197688949
 20
394.7
 30
0.0
 11
213.8083692722027
 21
394.7
 31
0.0
  0
LINE
  5
428
330
415
100
AcDbEntity
  8
0
 62
     0
100
AcDbLine
 10
314.2006438627173
 20
394.7
 30
0.0
 11
316.0136933660246
 21
394.7
 31
0.0
  0
LINE
  5
429
330
415
100
AcDbEntity
  8
0
 62
     0
100
AcDbLine
 10
212.0079077608556
 20
394.8
 30
0.0
 11
213.7821844125302
 21
394.8
 31
0.0
  0
LINE
  5
42A
330
415
100
AcDbEntity
  8
0
 62
     0
100
AcDbLine
 10
314.2268287223897
 20
394.8
 30
0.0
 11
316.0011053740639
 21
394.8
 31
0.0
  0
LINE
  5
42B
330
415
100
AcDbEntity
  8
0
 62
     0
100
AcDbLine
 10
212.0219411905622
 20
394.9
 30
0.0
 11
213.7559995528578
 21
394.9
 31
0.0
  0
LINE
  5
42C
330
415
100
AcDbEntity
  8
0
 62
     0
100
AcDbLine
 10
314.2530135820622
 20
394.9
 30
0.0
 11
315.9870719443573
 21
394.9
 31
0.0
  0
LINE
  5
42D
330
415
100
AcDbEntity
  8
0
 62
     0
100
AcDbLine
 10
212.0374287367952
 20
395.0
 30
0.0
 11
213.7298146931853
 21
395.0
 31
0.0
  0
LINE
  5
42E
330
415
100
AcDbEntity
  8
0
 62
     0
100
AcDbLine
 10
314.2791984417347
 20
395.0
 30
0.0
 11
315.9715843981242
 21
395.0
 31
0.0
  0
LINE
  5
42F
330
415
100
AcDbEntity
  8
0
 62
     0
100
AcDbLine
 10
212.0543800584727
 20
395.1
 30
0.0
 11
213.7036298335129
 21
395.1
 31
0.0
  0
LINE
  5
430
330
415
100
AcDbEntity
  8
0
 62
     0
100
AcDbLine
 10
314.3053833014071
 20
395.1
 30
0.0
 11
315.9546330764467
 21
395.1
 31
0.0
  0
LINE
  5
431
330
415
100
AcDbEntity
  8
0
 62
     0
100
AcDbLine
 10
212.0728058257364
 20
395.2
 30
0.0
 11
213.6774449738404
 21
395.2
 31
0.0
  0
LINE
  5
432
330
415
100
AcDbEntity
  8
0
 62
     0
100
AcDbLine
 10
314.3315681610795
 20
395.2
 30
0.0
 11
315.9362073091831
 21
395.2
 31
0.0
  0
LINE
  5
433
330
415
100
AcDbEntity
  8
0
 62
     0
100
AcDbLine
 10
212.0927177548137
 20
395.3
 30
0.0
 11
213.6512601141679
 21
395.3
 31
0.0
  0
LINE
  5
434
330
415
100
AcDbEntity
  8
0
 62
     0
100
AcDbLine
 10
314.357753020752
 20
395.3
 30
0.0
 11
315.9162953801058
 21
395.3
 31
0.0
  0
LINE
  5
435
330
415
100
AcDbEntity
  8
0
 62
     0
100
AcDbLine
 10
212.1141286469322
 20
395.4
 30
0.0
 11
213.6250752544955
 21
395.4
 31
0.0
  0
LINE
  5
436
330
415
100
AcDbEntity
  8
0
 62
     0
100
AcDbLine
 10
314.3839378804245
 20
395.4
 30
0.0
 11
315.8948844879873
 21
395.4
 31
0.0
  0
LINE
  5
437
330
415
100
AcDbEntity
  8
0
 62
     0
100
AcDbLine
 10
212.1370524315998
 20
395.5
 30
0.0
 11
213.598890394823
 21
395.5
 31
0.0
  0
LINE
  5
438
330
415
100
AcDbEntity
  8
0
 62
     0
100
AcDbLine
 10
314.410122740097
 20
395.5
 30
0.0
 11
315.8719607033197
 21
395.5
 31
0.0
  0
LINE
  5
439
330
415
100
AcDbEntity
  8
0
 62
     0
100
AcDbLine
 10
212.1615042146087
 20
395.6
 30
0.0
 11
213.5727055351505
 21
395.6
 31
0.0
  0
LINE
  5
43A
330
415
100
AcDbEntity
  8
0
 62
     0
100
AcDbLine
 10
314.4363075997694
 20
395.6
 30
0.0
 11
315.8475089203108
 21
395.6
 31
0.0
  0
LINE
  5
43B
330
415
100
AcDbEntity
  8
0
 62
     0
100
AcDbLine
 10
212.1875003311693
 20
395.7000000000001
 30
0.0
 11
213.5465206754781
 21
395.7000000000001
 31
0.0
  0
LINE
  5
43C
330
415
100
AcDbEntity
  8
0
 62
     0
100
AcDbLine
 10
314.4624924594419
 20
395.7000000000001
 30
0.0
 11
315.8215128037502
 21
395.7000000000001
 31
0.0
  0
LINE
  5
43D
330
415
100
AcDbEntity
  8
0
 62
     0
100
AcDbLine
 10
212.2150584046372
 20
395.8
 30
0.0
 11
213.5203358158056
 21
395.8
 31
0.0
  0
LINE
  5
43E
330
415
100
AcDbEntity
  8
0
 62
     0
100
AcDbLine
 10
314.4886773191143
 20
395.8
 30
0.0
 11
315.7939547302823
 21
395.8
 31
0.0
  0
LINE
  5
43F
330
415
100
AcDbEntity
  8
0
 62
     0
100
AcDbLine
 10
212.244197411357
 20
395.9000000000001
 30
0.0
 11
213.4941509561332
 21
395.9000000000001
 31
0.0
  0
LINE
  5
440
330
415
100
AcDbEntity
  8
0
 62
     0
100
AcDbLine
 10
314.5148620806565
 20
395.9000000000001
 30
0.0
 11
315.7648157235624
 21
395.9000000000001
 31
0.0
  0
LINE
  5
441
330
415
100
AcDbEntity
  8
0
 62
     0
100
AcDbLine
 10
212.2749377522225
 20
396.0
 30
0.0
 11
213.4683217427338
 21
396.0
 31
0.0
  0
LINE
  5
442
330
415
100
AcDbEntity
  8
0
 62
     0
100
AcDbLine
 10
314.5406913921861
 20
396.0
 30
0.0
 11
315.734075382697
 21
396.0
 31
0.0
  0
LINE
  5
443
330
415
100
AcDbEntity
  8
0
 62
     0
100
AcDbLine
 10
212.3073013316305
 20
396.1
 30
0.0
 11
213.4432249824537
 21
396.1
 31
0.0
  0
LINE
  5
444
330
415
100
AcDbEntity
  8
0
 62
     0
100
AcDbLine
 10
314.5657881524663
 20
396.1
 30
0.0
 11
315.701711803289
 21
396.1
 31
0.0
  0
LINE
  5
445
330
415
100
AcDbEntity
  8
0
 62
     0
100
AcDbLine
 10
212.3413116446054
 20
396.2000000000001
 30
0.0
 11
213.4188569920352
 21
396.2000000000001
 31
0.0
  0
LINE
  5
446
330
415
100
AcDbEntity
  8
0
 62
     0
100
AcDbLine
 10
314.5901561428847
 20
396.2000000000001
 30
0.0
 11
315.6677014903141
 21
396.2000000000001
 31
0.0
  0
LINE
  5
447
330
415
100
AcDbEntity
  8
0
 62
     0
100
AcDbLine
 10
212.376993872978
 20
396.3
 30
0.0
 11
213.3952141247599
 21
396.3
 31
0.0
  0
LINE
  5
448
330
415
100
AcDbEntity
  8
0
 62
     0
100
AcDbLine
 10
314.61379901016
 20
396.3
 30
0.0
 11
315.6320192619414
 21
396.3
 31
0.0
  0
LINE
  5
449
330
415
100
AcDbEntity
  8
0
 62
     0
100
AcDbLine
 10
212.4143749916289
 20
396.4
 30
0.0
 11
213.3722928656451
 21
396.4
 31
0.0
  0
LINE
  5
44A
330
415
100
AcDbEntity
  8
0
 62
     0
100
AcDbLine
 10
314.6367202692748
 20
396.4
 30
0.0
 11
315.5946381432905
 21
396.4
 31
0.0
  0
LINE
  5
44B
330
415
100
AcDbEntity
  8
0
 62
     0
100
AcDbLine
 10
212.4534838859559
 20
396.5
 30
0.0
 11
213.3500898286463
 21
396.5
 31
0.0
  0
LINE
  5
44C
330
415
100
AcDbEntity
  8
0
 62
     0
100
AcDbLine
 10
314.6589233062736
 20
396.5
 30
0.0
 11
315.5555292489636
 21
396.5
 31
0.0
  0
LINE
  5
44D
330
415
100
AcDbEntity
  8
0
 62
     0
100
AcDbLine
 10
212.4943514818954
 20
396.6
 30
0.0
 11
213.3286017539888
 21
396.6
 31
0.0
  0
LINE
  5
44E
330
415
100
AcDbEntity
  8
0
 62
     0
100
AcDbLine
 10
314.6804113809312
 20
396.6
 30
0.0
 11
315.5146616530241
 21
396.6
 31
0.0
  0
LINE
  5
44F
330
415
100
AcDbEntity
  8
0
 62
     0
100
AcDbLine
 10
212.5370108900289
 20
396.7
 30
0.0
 11
213.3078255056246
 21
396.7
 31
0.0
  0
LINE
  5
450
330
415
100
AcDbEntity
  8
0
 62
     0
100
AcDbLine
 10
314.7011876292954
 20
396.7
 30
0.0
 11
315.4720022448905
 21
396.7
 31
0.0
  0
LINE
  5
451
330
415
100
AcDbEntity
  8
0
 62
     0
100
AcDbLine
 10
212.5814975655431
 20
396.8
 30
0.0
 11
213.2877580688087
 21
396.8
 31
0.0
  0
LINE
  5
452
330
415
100
AcDbEntity
  8
0
 62
     0
100
AcDbLine
 10
314.7212550661113
 20
396.8
 30
0.0
 11
315.4275155693763
 21
396.8
 31
0.0
  0
LINE
  5
453
330
415
100
AcDbEntity
  8
0
 62
     0
100
AcDbLine
 10
212.6278494860882
 20
396.9
 30
0.0
 11
213.2683965477906
 21
396.9
 31
0.0
  0
LINE
  5
454
330
415
100
AcDbEntity
  8
0
 62
     0
100
AcDbLine
 10
314.7406165871294
 20
396.9
 30
0.0
 11
315.3811636488313
 21
396.9
 31
0.0
  0
LINE
  5
455
330
415
100
AcDbEntity
  8
0
 62
     0
100
AcDbLine
 10
212.6761073499131
 20
397.0
 30
0.0
 11
213.2497381636169
 21
397.0
 31
0.0
  0
LINE
  5
456
330
415
100
AcDbEntity
  8
0
 62
     0
100
AcDbLine
 10
314.759274971303
 20
397.0
 30
0.0
 11
315.3329057850064
 21
397.0
 31
0.0
  0
LINE
  5
457
330
415
100
AcDbEntity
  8
0
 62
     0
100
AcDbLine
 10
212.7263147970445
 20
397.1
 30
0.0
 11
213.2317802520404
 21
397.1
 31
0.0
  0
LINE
  5
458
330
415
100
AcDbEntity
  8
0
 62
     0
100
AcDbLine
 10
314.7772328828795
 20
397.1
 30
0.0
 11
315.2826983378749
 21
397.1
 31
0.0
  0
LINE
  5
459
330
415
100
AcDbEntity
  8
0
 62
     0
100
AcDbLine
 10
212.7785186567474
 20
397.2
 30
0.0
 11
213.2145202615321
 21
397.2
 31
0.0
  0
LINE
  5
45A
330
415
100
AcDbEntity
  8
0
 62
     0
100
AcDbLine
 10
314.7944928733878
 20
397.2
 30
0.0
 11
315.230494478172
 21
397.2
 31
0.0
  0
LINE
  5
45B
330
415
100
AcDbEntity
  8
0
 62
     0
100
AcDbLine
 10
212.832769225066
 20
397.3
 30
0.0
 11
213.1979557513928
 21
397.3
 31
0.0
  0
LINE
  5
45C
330
415
100
AcDbEntity
  8
0
 62
     0
100
AcDbLine
 10
314.8110573835272
 20
397.3
 30
0.0
 11
315.1762439098534
 21
397.3
 31
0.0
  0
LINE
  5
45D
330
415
100
AcDbEntity
  8
0
 62
     0
100
AcDbLine
 10
212.8891205769217
 20
397.4000000000001
 30
0.0
 11
213.1820843899606
 21
397.4000000000001
 31
0.0
  0
LINE
  5
45E
330
415
100
AcDbEntity
  8
0
 62
     0
100
AcDbLine
 10
314.8269287449593
 20
397.4000000000001
 30
0.0
 11
315.1198925579977
 21
397.4000000000001
 31
0.0
  0
LINE
  5
45F
330
415
100
AcDbEntity
  8
0
 62
     0
100
AcDbLine
 10
212.9476309180614
 20
397.5
 30
0.0
 11
213.166903952911
 21
397.5
 31
0.0
  0
LINE
  5
460
330
415
100
AcDbEntity
  8
0
 62
     0
100
AcDbLine
 10
314.8421091820089
 20
397.5
 30
0.0
 11
315.061382216858
 21
397.5
 31
0.0
  0
LINE
  5
461
330
415
100
AcDbEntity
  8
0
 62
     0
100
AcDbLine
 10
213.0083629831519
 20
397.6
 30
0.0
 11
213.1524123216469
 21
397.6
 31
0.0
  0
LINE
  5
462
330
415
100
AcDbEntity
  8
0
 62
     0
100
AcDbLine
 10
314.856600813273
 20
397.6
 30
0.0
 11
315.0006501517674
 21
397.6
 31
0.0
  0
LINE
  5
463
330
415
100
AcDbEntity
  8
0
 62
     0
100
AcDbLine
 10
213.0713844875326
 20
397.7000000000001
 30
0.0
 11
213.1386074817754
 21
397.7000000000001
 31
0.0
  0
LINE
  5
464
330
415
100
AcDbEntity
  8
0
 62
     0
100
AcDbLine
 10
314.8704056531446
 20
397.7000000000001
 30
0.0
 11
314.9376286473868
 21
397.7000000000001
 31
0.0
  0
LINE
  5
465
330
415
100
AcDbEntity
  8
0
 62
     0
100
AcDbLine
 10
211.9460956826138
 20
393.8
 30
0.0
 11
214.0440330092549
 21
393.8
 31
0.0
  0
LINE
  5
466
330
415
100
AcDbEntity
  8
0
 62
     0
100
AcDbLine
 10
313.9649801256651
 20
393.8
 30
0.0
 11
316.0629174523057
 21
393.8
 31
0.0
  0
LINE
  5
467
330
415
100
AcDbEntity
  8
0
 62
     0
100
AcDbLine
 10
211.9476846802454
 20
393.7000000000001
 30
0.0
 11
214.0702178689273
 21
393.7000000000001
 31
0.0
  0
LINE
  5
468
330
415
100
AcDbEntity
  8
0
 62
     0
100
AcDbLine
 10
313.9387952659926
 20
393.7000000000001
 30
0.0
 11
316.0613284546741
 21
393.7000000000001
 31
0.0
  0
LINE
  5
469
330
415
100
AcDbEntity
  8
0
 62
     0
100
AcDbLine
 10
211.9506826457977
 20
393.6
 30
0.0
 11
214.0964027285998
 21
393.6
 31
0.0
  0
LINE
  5
46A
330
415
100
AcDbEntity
  8
0
 62
     0
100
AcDbLine
 10
313.9126104063202
 20
393.6
 30
0.0
 11
316.0583304891218
 21
393.6
 31
0.0
  0
LINE
  5
46B
330
415
100
AcDbEntity
  8
0
 62
     0
100
AcDbLine
 10
211.9550913655664
 20
393.5
 30
0.0
 11
214.1225875882722
 21
393.5
 31
0.0
  0
LINE
  5
46C
330
415
100
AcDbEntity
  8
0
 62
     0
100
AcDbLine
 10
313.8864255466477
 20
393.5
 30
0.0
 11
316.0539217693531
 21
393.5
 31
0.0
  0
LINE
  5
46D
330
415
100
AcDbEntity
  8
0
 62
     0
100
AcDbLine
 10
211.9609134719158
 20
393.4000000000001
 30
0.0
 11
214.1487724479447
 21
393.4000000000001
 31
0.0
  0
LINE
  5
46E
330
415
100
AcDbEntity
  8
0
 62
     0
100
AcDbLine
 10
313.8602406869753
 20
393.4000000000001
 30
0.0
 11
316.0480996630037
 21
393.4000000000001
 31
0.0
  0
LINE
  5
46F
330
415
100
AcDbEntity
  8
0
 62
     0
100
AcDbLine
 10
211.9681524511634
 20
393.3
 30
0.0
 11
214.1749573076172
 21
393.3
 31
0.0
  0
LINE
  5
470
330
415
100
AcDbEntity
  8
0
 62
     0
100
AcDbLine
 10
313.8340558273028
 20
393.3
 30
0.0
 11
316.0408606837561
 21
393.3
 31
0.0
  0
LINE
  5
471
330
415
100
AcDbEntity
  8
0
 62
     0
100
AcDbLine
 10
211.9768126540731
 20
393.2
 30
0.0
 11
214.2011421672896
 21
393.2
 31
0.0
  0
LINE
  5
472
330
415
100
AcDbEntity
  8
0
 62
     0
100
AcDbLine
 10
313.8078709676303
 20
393.2
 30
0.0
 11
316.0322004808463
 21
393.2
 31
0.0
  0
LINE
  5
473
330
415
100
AcDbEntity
  8
0
 62
     0
100
AcDbLine
 10
211.9868993090308
 20
393.1
 30
0.0
 11
214.2273270269621
 21
393.1
 31
0.0
  0
LINE
  5
474
330
415
100
AcDbEntity
  8
0
 62
     0
100
AcDbLine
 10
313.7816861079579
 20
393.1
 30
0.0
 11
316.0221138258887
 21
393.1
 31
0.0
  0
LINE
  5
475
330
415
100
AcDbEntity
  8
0
 62
     0
100
AcDbLine
 10
211.9984185379947
 20
393.0
 30
0.0
 11
214.2535118866346
 21
393.0
 31
0.0
  0
LINE
  5
476
330
415
100
AcDbEntity
  8
0
 62
     0
100
AcDbLine
 10
313.7555012482854
 20
393.0
 30
0.0
 11
316.0105945969247
 21
393.0
 31
0.0
  0
LINE
  5
477
330
415
100
AcDbEntity
  8
0
 62
     0
100
AcDbLine
 10
212.0113773753386
 20
392.9
 30
0.0
 11
214.279696746307
 21
392.9
 31
0.0
  0
LINE
  5
478
330
415
100
AcDbEntity
  8
0
 62
     0
100
AcDbLine
 10
313.729316388613
 20
392.9
 30
0.0
 11
315.9976357595809
 21
392.9
 31
0.0
  0
LINE
  5
479
330
415
100
AcDbEntity
  8
0
 62
     0
100
AcDbLine
 10
212.0257837897213
 20
392.8
 30
0.0
 11
214.3058816059795
 21
392.8
 31
0.0
  0
LINE
  5
47A
330
415
100
AcDbEntity
  8
0
 62
     0
100
AcDbLine
 10
313.7031315289405
 20
392.8
 30
0.0
 11
315.9832293451982
 21
392.8
 31
0.0
  0
LINE
  5
47B
330
415
100
AcDbEntity
  8
0
 62
     0
100
AcDbLine
 10
212.0416467091473
 20
392.7000000000001
 30
0.0
 11
214.3320664656519
 21
392.7000000000001
 31
0.0
  0
LINE
  5
47C
330
415
100
AcDbEntity
  8
0
 62
     0
100
AcDbLine
 10
313.676946669268
 20
392.7000000000001
 30
0.0
 11
315.9673664257722
 21
392.7000000000001
 31
0.0
  0
LINE
  5
47D
330
415
100
AcDbEntity
  8
0
 62
     0
100
AcDbLine
 10
212.0589760494041
 20
392.6
 30
0.0
 11
214.3582513253244
 21
392.6
 31
0.0
  0
LINE
  5
47E
330
415
100
AcDbEntity
  8
0
 62
     0
100
AcDbLine
 10
313.6507618095956
 20
392.6
 30
0.0
 11
315.9500370855154
 21
392.6
 31
0.0
  0
LINE
  5
47F
330
415
100
AcDbEntity
  8
0
 62
     0
100
AcDbLine
 10
212.0777827460949
 20
392.5
 30
0.0
 11
214.3844361849969
 21
392.5
 31
0.0
  0
LINE
  5
480
330
415
100
AcDbEntity
  8
0
 62
     0
100
AcDbLine
 10
313.6245769499231
 20
392.5
 30
0.0
 11
315.9312303888246
 21
392.5
 31
0.0
  0
LINE
  5
481
330
415
100
AcDbEntity
  8
0
 62
     0
100
AcDbLine
 10
212.0980787905145
 20
392.4
 30
0.0
 11
214.4106210446693
 21
392.4
 31
0.0
  0
LINE
  5
482
330
415
100
AcDbEntity
  8
0
 62
     0
100
AcDbLine
 10
313.5983920902506
 20
392.4
 30
0.0
 11
315.910934344405
 21
392.4
 31
0.0
  0
LINE
  5
483
330
415
100
AcDbEntity
  8
0
 62
     0
100
AcDbLine
 10
212.1198772696549
 20
392.3
 30
0.0
 11
214.4368059043418
 21
392.3
 31
0.0
  0
LINE
  5
484
330
415
100
AcDbEntity
  8
0
 62
     0
100
AcDbLine
 10
313.5722072305782
 20
392.3
 30
0.0
 11
315.8891358652646
 21
392.3
 31
0.0
  0
LINE
  5
485
330
415
100
AcDbEntity
  8
0
 62
     0
100
AcDbLine
 10
212.1431924106635
 20
392.2
 30
0.0
 11
214.4629907640142
 21
392.2
 31
0.0
  0
LINE
  5
486
330
415
100
AcDbEntity
  8
0
 62
     0
100
AcDbLine
 10
313.5460223709058
 20
392.2
 30
0.0
 11
315.8658207242559
 21
392.2
 31
0.0
  0
LINE
  5
487
330
415
100
AcDbEntity
  8
0
 62
     0
100
AcDbLine
 10
212.1680396301255
 20
392.1
 30
0.0
 11
214.4891756236867
 21
392.1
 31
0.0
  0
LINE
  5
488
330
415
100
AcDbEntity
  8
0
 62
     0
100
AcDbLine
 10
313.5198375112333
 20
392.1
 30
0.0
 11
315.840973504794
 21
392.1
 31
0.0
  0
LINE
  5
489
330
415
100
AcDbEntity
  8
0
 62
     0
100
AcDbLine
 10
212.1944355885889
 20
392.0
 30
0.0
 11
214.5153604833592
 21
392.0
 31
0.0
  0
LINE
  5
48A
330
415
100
AcDbEntity
  8
0
 62
     0
100
AcDbLine
 10
313.4936526515608
 20
392.0
 30
0.0
 11
315.8145775463306
 21
392.0
 31
0.0
  0
LINE
  5
48B
330
415
100
AcDbEntity
  8
0
 62
     0
100
AcDbLine
 10
212.2223982508113
 20
391.9
 30
0.0
 11
214.5415453430316
 21
391.9
 31
0.0
  0
LINE
  5
48C
330
415
100
AcDbEntity
  8
0
 62
     0
100
AcDbLine
 10
313.4674677918884
 20
391.9
 30
0.0
 11
315.7866148841081
 21
391.9
 31
0.0
  0
LINE
  5
48D
330
415
100
AcDbEntity
  8
0
 62
     0
100
AcDbLine
 10
212.2519469522707
 20
391.8
 30
0.0
 11
214.5677302027041
 21
391.8
 31
0.0
  0
LINE
  5
48E
330
415
100
AcDbEntity
  8
0
 62
     0
100
AcDbLine
 10
313.4412829322159
 20
391.8
 30
0.0
 11
315.7570661826487
 21
391.8
 31
0.0
  0
LINE
  5
48F
330
415
100
AcDbEntity
  8
0
 62
     0
100
AcDbLine
 10
212.2831024725574
 20
391.7000000000001
 30
0.0
 11
214.5939150623765
 21
391.7000000000001
 31
0.0
  0
LINE
  5
490
330
415
100
AcDbEntity
  8
0
 62
     0
100
AcDbLine
 10
313.4150980725434
 20
391.7000000000001
 30
0.0
 11
315.7259106623621
 21
391.7000000000001
 31
0.0
  0
LINE
  5
491
330
415
100
AcDbEntity
  8
0
 62
     0
100
AcDbLine
 10
212.315887116351
 20
391.6
 30
0.0
 11
214.620099922049
 21
391.6
 31
0.0
  0
LINE
  5
492
330
415
100
AcDbEntity
  8
0
 62
     0
100
AcDbLine
 10
313.3889132128709
 20
391.6
 30
0.0
 11
315.6931260185685
 21
391.6
 31
0.0
  0
LINE
  5
493
330
415
100
AcDbEntity
  8
0
 62
     0
100
AcDbLine
 10
212.3503248027835
 20
391.5
 30
0.0
 11
214.6462847817215
 21
391.5
 31
0.0
  0
LINE
  5
494
330
415
100
AcDbEntity
  8
0
 62
     0
100
AcDbLine
 10
313.3627283531985
 20
391.5
 30
0.0
 11
315.658688332136
 21
391.5
 31
0.0
  0
LINE
  5
495
330
415
100
AcDbEntity
  8
0
 62
     0
100
AcDbLine
 10
212.3864411641034
 20
391.4000000000001
 30
0.0
 11
214.672469641394
 21
391.4000000000001
 31
0.0
  0
LINE
  5
496
330
415
100
AcDbEntity
  8
0
 62
     0
100
AcDbLine
 10
313.3365434935261
 20
391.4000000000001
 30
0.0
 11
315.6225719708161
 21
391.4000000000001
 31
0.0
  0
LINE
  5
497
330
415
100
AcDbEntity
  8
0
 62
     0
100
AcDbLine
 10
212.424263654688
 20
391.3
 30
0.0
 11
214.6986545010664
 21
391.3
 31
0.0
  0
LINE
  5
498
330
415
100
AcDbEntity
  8
0
 62
     0
100
AcDbLine
 10
313.3103586338536
 20
391.3
 30
0.0
 11
315.5847494802315
 21
391.3
 31
0.0
  0
LINE
  5
499
330
415
100
AcDbEntity
  8
0
 62
     0
100
AcDbLine
 10
212.4638216716037
 20
391.2
 30
0.0
 11
214.7248393607389
 21
391.2
 31
0.0
  0
LINE
  5
49A
330
415
100
AcDbEntity
  8
0
 62
     0
100
AcDbLine
 10
313.2841737741811
 20
391.2
 30
0.0
 11
315.5451914633158
 21
391.2
 31
0.0
  0
LINE
  5
49B
330
415
100
AcDbEntity
  8
0
 62
     0
100
AcDbLine
 10
212.5051466880937
 20
391.1000000000001
 30
0.0
 11
214.7510242204113
 21
391.1000000000001
 31
0.0
  0
LINE
  5
49C
330
415
100
AcDbEntity
  8
0
 62
     0
100
AcDbLine
 10
313.2579889145087
 20
391.1000000000001
 30
0.0
 11
315.5038664468257
 21
391.1000000000001
 31
0.0
  0
LINE
  5
49D
330
415
100
AcDbEntity
  8
0
 62
     0
100
AcDbLine
 10
212.5482724015817
 20
391.0
 30
0.0
 11
214.7772090800838
 21
391.0
 31
0.0
  0
LINE
  5
49E
330
415
100
AcDbEntity
  8
0
 62
     0
100
AcDbLine
 10
313.2318040548362
 20
391.0
 30
0.0
 11
315.4607407333378
 21
391.0
 31
0.0
  0
LINE
  5
49F
330
415
100
AcDbEntity
  8
0
 62
     0
100
AcDbLine
 10
212.5932348980247
 20
390.9
 30
0.0
 11
214.8033939397562
 21
390.9
 31
0.0
  0
LINE
  5
4A0
330
415
100
AcDbEntity
  8
0
 62
     0
100
AcDbLine
 10
313.2056191951637
 20
390.9
 30
0.0
 11
315.4157782368947
 21
390.9
 31
0.0
  0
LINE
  5
4A1
330
415
100
AcDbEntity
  8
0
 62
     0
100
AcDbLine
 10
212.6400728347447
 20
390.8
 30
0.0
 11
214.8295787994287
 21
390.8
 31
0.0
  0
LINE
  5
4A2
330
415
100
AcDbEntity
  8
0
 62
     0
100
AcDbLine
 10
313.1794343354912
 20
390.8
 30
0.0
 11
315.3689403001747
 21
390.8
 31
0.0
  0
LINE
  5
4A3
330
415
100
AcDbEntity
  8
0
 62
     0
100
AcDbLine
 10
212.6888276442056
 20
390.7
 30
0.0
 11
214.8557636591012
 21
390.7
 31
0.0
  0
LINE
  5
4A4
330
415
100
AcDbEntity
  8
0
 62
     0
100
AcDbLine
 10
313.1532494758188
 20
390.7
 30
0.0
 11
315.3201854907138
 21
390.7
 31
0.0
  0
LINE
  5
4A5
330
415
100
AcDbEntity
  8
0
 62
     0
100
AcDbLine
 10
212.7395437616196
 20
390.6
 30
0.0
 11
214.8819485187736
 21
390.6
 31
0.0
  0
LINE
  5
4A6
330
415
100
AcDbEntity
  8
0
 62
     0
100
AcDbLine
 10
313.1270646161464
 20
390.6
 30
0.0
 11
315.2694693732998
 21
390.6
 31
0.0
  0
LINE
  5
4A7
330
415
100
AcDbEntity
  8
0
 62
     0
100
AcDbLine
 10
212.792268879754
 20
390.5
 30
0.0
 11
214.9081333784461
 21
390.5
 31
0.0
  0
LINE
  5
4A8
330
415
100
AcDbEntity
  8
0
 62
     0
100
AcDbLine
 10
313.1008797564739
 20
390.5
 30
0.0
 11
315.2167442551654
 21
390.5
 31
0.0
  0
LINE
  5
4A9
330
415
100
AcDbEntity
  8
0
 62
     0
100
AcDbLine
 10
212.8470542348989
 20
390.4
 30
0.0
 11
214.9343182381186
 21
390.4
 31
0.0
  0
LINE
  5
4AA
330
415
100
AcDbEntity
  8
0
 62
     0
100
AcDbLine
 10
313.0746948968014
 20
390.4
 30
0.0
 11
315.1619589000205
 21
390.4
 31
0.0
  0
LINE
  5
4AB
330
415
100
AcDbEntity
  8
0
 62
     0
100
AcDbLine
 10
212.9039549286684
 20
390.3
 30
0.0
 11
214.960503097791
 21
390.3
 31
0.0
  0
LINE
  5
4AC
330
415
100
AcDbEntity
  8
0
 62
     0
100
AcDbLine
 10
313.048510037129
 20
390.3
 30
0.0
 11
315.105058206251
 21
390.3
 31
0.0
  0
LINE
  5
4AD
330
415
100
AcDbEntity
  8
0
 62
     0
100
AcDbLine
 10
212.9630302911678
 20
390.2000000000001
 30
0.0
 11
214.9866879574635
 21
390.2000000000001
 31
0.0
  0
LINE
  5
4AE
330
415
100
AcDbEntity
  8
0
 62
     0
100
AcDbLine
 10
313.0223251774565
 20
390.2000000000001
 30
0.0
 11
315.0459828437516
 21
390.2000000000001
 31
0.0
  0
ENDBLK
  5
4AF
330
415
100
AcDbEntity
  8
0
100
AcDbBlockEnd
  0
BLOCK
  5
4B1
330
4B0
100
AcDbEntity
  8
0
100
AcDbBlockBegin
  2
*X2
 70
     1
 10
0.0
 20
0.0
 30
0.0
  3
*X2
  1

  0
LINE
  5
4B2
330
4B0
100
AcDbEntity
  8
0
 62
     0
100
AcDbLine
 10
223.00450656746
 20
362.4799082550013
 30
0.0
 11
221.00450656746
 21
364.4799082550013
 31
0.0
  0
LINE
  5
4B3
330
4B0
100
AcDbEntity
  8
0
 62
     0
100
AcDbLine
 10
223.00450656746
 20
359.6514811302551
 30
0.0
 11
221.00450656746
 21
361.6514811302551
 31
0.0
  0
LINE
  5
4B4
330
4B0
100
AcDbEntity
  8
0
 62
     0
100
AcDbLine
 10
222.9677481124988
 20
356.8598124604701
 30
0.0
 11
221.00450656746
 21
358.8230540055089
 31
0.0
  0
LINE
  5
4B5
330
4B0
100
AcDbEntity
  8
0
 62
     0
100
AcDbLine
 10
223.00450656746
 20
365.3083353797474
 30
0.0
 11
221.00450656746
 21
367.3083353797474
 31
0.0
  0
LINE
  5
4B6
330
4B0
100
AcDbEntity
  8
0
 62
     0
100
AcDbLine
 10
223.00450656746
 20
368.1367625044937
 30
0.0
 11
221.00450656746
 21
370.1367625044937
 31
0.0
  0
LINE
  5
4B7
330
4B0
100
AcDbEntity
  8
0
 62
     0
100
AcDbLine
 10
223.00450656746
 20
370.9651896292398
 30
0.0
 11
222.7219797980116
 21
371.2477163986884
 31
0.0
  0
ENDBLK
  5
4B8
330
4B0
100
AcDbEntity
  8
0
100
AcDbBlockEnd
  0
BLOCK
  5
5F3
330
5E9
100
AcDbEntity
  8
0
100
AcDbBlockBegin
  2
*D3
 70
     1
 10
0.0
 20
0.0
 30
0.0
  3
*D3
  1

  0
LINE
  5
825
330
5E9
100
AcDbEntity
  8
BEM
 62
     0
370
    -2
100
AcDbLine
 10
148.8765241275111
 20
497.7968844178356
 30
0.0
 11
122.4680499062342
 21
497.7968844178356
 31
0.0
  0
LINE
  5
826
330
5E9
100
AcDbEntity
  8
BEM
 62
     0
370
    -2
100
AcDbLine
 10
154.2755495985571
 20
262.7968844178356
 30
0.0
 11
122.4680499062342
 21
262.7968844178357
 31
0.0
  0
LINE
  5
827
330
5E9
100
AcDbEntity
  8
BEM
 62
     0
370
    -2
100
AcDbLine
 10
124.4680499062342
 20
490.7968844178356
 30
0.0
 11
124.4680499062342
 21
269.7968844178356
 31
0.0
  0
SOLID
  5
828
330
5E9
100
AcDbEntity
  8
BEM
 62
     0
100
AcDbTrace
 10
123.3013832395676
 20
490.7968844178356
 30
0.0
 11
125.6347165729009
 21
490.7968844178356
 31
0.0
 12
124.4680499062342
 22
497.7968844178356
 32
0.0
 13
124.4680499062342
 23
497.7968844178356
 33
0.0
  0
SOLID
  5
829
330
5E9
100
AcDbEntity
  8
BEM
 62
     0
100
AcDbTrace
 10
123.3013832395675
 20
269.7968844178356
 30
0.0
 11
125.6347165729009
 21
269.7968844178356
 31
0.0
 12
124.4680499062342
 22
262.7968844178357
 32
0.0
 13
124.4680499062342
 23
262.7968844178357
 33
0.0
  0
MTEXT
  5
82A
330
5E9
100
AcDbEntity
  8
BEM
 62
     1
100
AcDbMText
 10
117.9680499062341
 20
380.2968844178356
 30
0.0
 40
7.0
 41
0.0
 71
     5
 72
     1
  1
\A1;235
 11
0.0000000000000001
 21
1.0
 31
0.0
 73
     1
 44
1.0
  0
POINT
  5
82B
330
5E9
100
AcDbEntity
  8
Defpoints
 62
     0
100
AcDbPoint
 10
150.8765241275111
 20
497.7968844178356
 30
0.0
  0
POINT
  5
82C
330
5E9
100
AcDbEntity
  8
Defpoints
 62
     0
100
AcDbPoint
 10
156.2755495985571
 20
262.7968844178356
 30
0.0
  0
POINT
  5
82D
330
5E9
100
AcDbEntity
  8
Defpoints
 62
     0
100
AcDbPoint
 10
124.4680499062342
 20
262.7968844178357
 30
0.0
  0
ENDBLK
  5
5F4
330
5E9
100
AcDbEntity
  8
0
100
AcDbBlockEnd
  0
BLOCK
  5
608
330
5FE
100
AcDbEntity
  8
0
100
AcDbBlockBegin
  2
*D4
 70
     1
 10
0.0
 20
0.0
 30
0.0
  3
*D4
  1

  0
LINE
  5
7EF
330
5FE
100
AcDbEntity
  8
BEM
 62
     0
370
    -2
100
AcDbLine
 10
155.5832799654366
 20
268.7095625320163
 30
0.0
 11
155.5832799654366
 21
241.1289882388687
 31
0.0
  0
LINE
  5
7F0
330
5FE
100
AcDbEntity
  8
BEM
 62
     0
370
    -2
100
AcDbLine
 10
257.5839623695328
 20
268.7173624465893
 30
0.0
 11
257.5839623695328
 21
241.1289882388687
 31
0.0
  0
LINE
  5
7F1
330
5FE
100
AcDbEntity
  8
BEM
 62
     0
370
    -2
100
AcDbLine
 10
162.5832799654366
 20
243.1289882388687
 30
0.0
 11
250.5839623695327
 21
243.1289882388687
 31
0.0
  0
SOLID
  5
7F2
330
5FE
100
AcDbEntity
  8
BEM
 62
     0
100
AcDbTrace
 10
162.5832799654366
 20
244.2956549055354
 30
0.0
 11
162.5832799654366
 21
241.9623215722021
 31
0.0
 12
155.5832799654366
 22
243.1289882388687
 32
0.0
 13
155.5832799654366
 23
243.1289882388687
 33
0.0
  0
SOLID
  5
7F3
330
5FE
100
AcDbEntity
  8
BEM
 62
     0
100
AcDbTrace
 10
250.5839623695327
 20
244.2956549055354
 30
0.0
 11
250.5839623695327
 21
241.9623215722021
 31
0.0
 12
257.5839623695328
 22
243.1289882388687
 32
0.0
 13
257.5839623695328
 23
243.1289882388687
 33
0.0
  0
MTEXT
  5
7F4
330
5FE
100
AcDbEntity
  8
BEM
 62
     1
100
AcDbMText
 10
206.5836211674847
 20
249.6289882388687
 30
0.0
 40
7.0
 41
0.0
 71
     5
 72
     1
  1
\A1;%%c102
 73
     1
 44
1.0
  0
POINT
  5
7F5
330
5FE
100
AcDbEntity
  8
Defpoints
 62
     0
100
AcDbPoint
 10
155.5832799654366
 20
270.7095625320163
 30
0.0
  0
POINT
  5
7F6
330
5FE
100
AcDbEntity
  8
Defpoints
 62
     0
100
AcDbPoint
 10
257.5839623695328
 20
270.7173624465893
 30
0.0
  0
POINT
  5
7F7
330
5FE
100
AcDbEntity
  8
Defpoints
 62
     0
100
AcDbPoint
 10
257.5839623695328
 20
243.1289882388687
 30
0.0
  0
ENDBLK
  5
609
330
5FE
100
AcDbEntity
  8
0
100
AcDbBlockEnd
  0
ENDSEC
  0
SECTION
  2
ENTITIES
  0
LINE
  5
57
330
1E
100
AcDbEntity
  8
STEMPEL
100
AcDbLine
 10
410.0
 20
110.0
 30
0.0
 11
39.99999999999997
 21
110.0
 31
0.0
  0
LINE
  5
58
330
1E
100
AcDbEntity
  8
STEMPEL
100
AcDbLine
 10
146.0000000000001
 20
109.9999999999999
 30
0.0
 11
146.0
 21
9.999999999999971
 31
0.0
  0
LINE
  5
59
330
1E
100
AcDbEntity
  8
STEMPEL
100
AcDbLine
 10
230.0
 20
110.0
 30
0.0
 11
230.0
 21
9.999999999999971
 31
0.0
  0
LINE
  5
5A
330
1E
100
AcDbEntity
  8
STEMPEL
100
AcDbLine
 10
332.0
 20
109.9999999999997
 30
0.0
 11
332.0
 21
40.0
 31
0.0
  0
LINE
  5
5B
330
1E
100
AcDbEntity
  8
STEMPEL
100
AcDbLine
 10
145.9999999999999
 20
29.99999999999997
 30
0.0
 11
39.99999999999997
 21
29.99999999999997
 31
0.0
  0
LINE
  5
5C
330
1E
100
AcDbEntity
  8
STEMPEL
100
AcDbLine
 10
410.0
 20
40.0
 30
0.0
 11
146.0000000000001
 21
39.99999999999997
 31
0.0
  0
LINE
  5
5D
330
1E
100
AcDbEntity
  8
STEMPEL
100
AcDbLine
 10
410.0
 20
80.0
 30
0.0
 11
146.0000000000001
 21
79.99999999999994
 31
0.0
  0
LINE
  5
5E
330
1E
100
AcDbEntity
  8
VOLL
100
AcDbLine
 10
54.00000000000009
 20
110.0
 30
0.0
 11
53.99999999999997
 21
9.999999999999971
 31
0.0
  0
LINE
  5
5F
330
1E
100
AcDbEntity
  8
VOLL
100
AcDbLine
 10
104.0000000000001
 20
109.9999999999999
 30
0.0
 11
104.0
 21
9.999999999999971
 31
0.0
  0
LINE
  5
60
330
1E
100
AcDbEntity
  8
VOLL
100
AcDbLine
 10
124.0000000000001
 20
109.9999999999999
 30
0.0
 11
124.0
 21
9.999999999999971
 31
0.0
  0
LINE
  5
61
330
1E
100
AcDbEntity
  8
VOLL
100
AcDbLine
 10
164.0000000000001
 20
79.99999999999994
 30
0.0
 11
164.0000000000001
 21
39.99999999999997
 31
0.0
  0
LINE
  5
62
330
1E
100
AcDbEntity
  8
VOLL
100
AcDbLine
 10
190.0000000000001
 20
109.9999999999998
 30
0.0
 11
190.0
 21
39.99999999999997
 31
0.0
  0
LINE
  5
63
330
1E
100
AcDbEntity
  8
HILF
100
AcDbLine
 10
40.00000000000008
 20
100.0
 30
0.0
 11
146.0000000000001
 21
100.0
 31
0.0
  0
LINE
  5
64
330
1E
100
AcDbEntity
  8
HILF
100
AcDbLine
 10
40.00000000000008
 20
90.00000000000005
 30
0.0
 11
146.0000000000001
 21
90.00000000000005
 31
0.0
  0
LINE
  5
65
330
1E
100
AcDbEntity
  8
HILF
100
AcDbLine
 10
40.00000000000008
 20
79.99999999999994
 30
0.0
 11
146.0000000000001
 21
79.99999999999994
 31
0.0
  0
LINE
  5
66
330
1E
100
AcDbEntity
  8
HILF
100
AcDbLine
 10
40.00000000000008
 20
69.99999999999994
 30
0.0
 11
146.0000000000001
 21
69.99999999999994
 31
0.0
  0
LINE
  5
67
330
1E
100
AcDbEntity
  8
HILF
100
AcDbLine
 10
40.00000000000008
 20
59.99999999999997
 30
0.0
 11
146.0000000000001
 21
59.99999999999997
 31
0.0
  0
LINE
  5
68
330
1E
100
AcDbEntity
  8
HILF
100
AcDbLine
 10
40.00000000000008
 20
49.99999999999997
 30
0.0
 11
146.0000000000001
 21
49.99999999999997
 31
0.0
  0
LINE
  5
69
330
1E
100
AcDbEntity
  8
HILF
100
AcDbLine
 10
40.00000000000008
 20
39.99999999999997
 30
0.0
 11
146.0000000000001
 21
39.99999999999997
 31
0.0
  0
LINE
  5
6A
330
1E
100
AcDbEntity
  8
HILF
100
AcDbLine
 10
146.0000000000001
 20
69.99999999999994
 30
0.0
 11
230.0
 21
69.99999999999994
 31
0.0
  0
LINE
  5
6B
330
1E
100
AcDbEntity
  8
HILF
100
AcDbLine
 10
146.0000000000001
 20
59.99999999999997
 30
0.0
 11
230.0
 21
59.99999999999997
 31
0.0
  0
LINE
  5
6C
330
1E
100
AcDbEntity
  8
HILF
100
AcDbLine
 10
146.0000000000001
 20
49.99999999999997
 30
0.0
 11
230.0
 21
49.99999999999997
 31
0.0
  0
LINE
  5
6D
330
1E
100
AcDbEntity
  8
HILF
100
AcDbLine
 10
234.7736801096947
 20
84.03758247564139
 30
0.0
 11
324.8353916556311
 21
84.03758247564139
 31
0.0
  0
LINE
  5
6E
330
1E
100
AcDbEntity
  8
HILF
100
AcDbLine
 10
234.7736801096947
 20
69.99999999999994
 30
0.0
 11
324.835391655631
 21
69.99999999999994
 31
0.0
  0
LINE
  5
6F
330
1E
100
AcDbEntity
  8
HILF
100
AcDbLine
 10
234.7736801096947
 20
59.99999999999997
 30
0.0
 11
324.835391655631
 21
59.99999999999997
 31
0.0
  0
LINE
  5
70
330
1E
100
AcDbEntity
  8
HILF
100
AcDbLine
 10
234.7736801096947
 20
49.99999999999997
 30
0.0
 11
324.835391655631
 21
49.99999999999997
 31
0.0
  0
LINE
  5
71
330
1E
100
AcDbEntity
  8
VOLL
100
AcDbLine
 10
332.0
 20
60.0
 30
0.0
 11
410.0
 21
60.0
 31
0.0
  0
LINE
  5
72
330
1E
100
AcDbEntity
  8
HILF
100
AcDbLine
 10
336.7238616296993
 20
83.77983636955827
 30
0.0
 11
404.8588839326728
 21
83.77983636955827
 31
0.0
  0
LINE
  5
73
330
1E
100
AcDbEntity
  8
HILF
100
AcDbLine
 10
233.4909699289885
 20
14.89398258028314
 30
0.0
 11
404.8588839326728
 21
14.89398258028314
 31
0.0
  0
TEXT
  5
74
330
1E
100
AcDbEntity
  8
TEXT
100
AcDbText
 10
69.34071736793199
 20
18.67381894984132
 30
0.0
 40
4.0
  1
Änderung
 41
0.8
  7
GREEKS
 72
     1
 11
80.08357451078913
 21
18.67381894984132
 31
0.0
100
AcDbText
  0
TEXT
  5
75
330
1E
100
AcDbEntity
  8
TEXT
100
AcDbText
 10
153.5163572150377
 20
102.4620895087088
 30
0.0
 40
5.0
  1
Maßstab
 41
0.8
  7
GREEKS
100
AcDbText
  0
TEXT
  5
76
330
1E
100
AcDbEntity
  8
TEXT
100
AcDbText
 10
194.2858954734051
 20
102.4184168434819
 30
0.0
 40
5.0
  1
Zul. Abw.
 41
0.8
  7
GREEKS
100
AcDbText
  0
TEXT
  5
77
330
1E
100
AcDbEntity
  8
TEXT
100
AcDbText
 10
234.877940380901
 20
102.5489328011779
 30
0.0
 40
5.0
  1
Benennung
 41
0.8
  7
GREEKS
100
AcDbText
  0
TEXT
  5
78
330
1E
100
AcDbEntity
  8
TEXT
100
AcDbText
 10
336.178754957634
 20
102.3132034537136
 30
0.0
 40
5.0
  1
Zeichnungs Nr.
 41
0.8
  7
GREEKS
100
AcDbText
  0
TEXT
  5
79
330
1E
100
AcDbEntity
  8
TEXT
100
AcDbText
 10
234.742238391136
 20
30.84560570193057
 30
0.0
 40
5.0
  1
Bauvorhaben
 41
0.8
  7
GREEKS
100
AcDbText
  0
TEXT
  5
7A
330
1E
100
AcDbEntity
  8
TEXT
100
AcDbText
 10
336.7238616296993
 20
73.1811823709997
 30
0.0
 40
5.0
  1
Ersatz für:
 41
0.8
  7
GREEKS
100
AcDbText
  0
TEXT
  5
7B
330
1E
100
AcDbEntity
  8
TEXT
100
AcDbText
 10
48.26641107045756
 20
13.65465846027192
 30
0.0
 40
4.0
  1
Index
 50
90.0
 41
0.8
  7
GREEKS
100
AcDbText
  0
TEXT
  5
7C
330
1E
100
AcDbEntity
  8
TEXT
100
AcDbText
 10
110.0934676075481
 20
18.6715626933981
 30
0.0
 40
4.0
  1
Tag
 41
0.8
  7
GREEKS
 72
     1
 11
113.8268009408814
 21
18.6715626933981
 31
0.0
100
AcDbText
  0
TEXT
  5
7D
330
1E
100
AcDbEntity
  8
TEXT
100
AcDbText
 10
129.0122744386592
 20
18.59324216966408
 30
0.0
 40
4.0
  1
Name
 41
0.8
  7
GREEKS
 72
     1
 11
135.3360839624688
 21
18.59324216966408
 31
0.0
100
AcDbText
  0
TEXT
  5
7E
330
1E
100
AcDbEntity
  8
TEXT
100
AcDbText
 10
172.331167315365
 20
73.31880501229926
 30
0.0
 40
4.0
  1
Tag
 41
0.8
  7
GREEKS
100
AcDbText
  0
TEXT
  5
7F
330
1E
100
AcDbEntity
  8
TEXT
100
AcDbText
 10
202.4626584226295
 20
73.30961091915225
 30
0.0
 40
4.0
  1
Name
 41
0.8
  7
GREEKS
100
AcDbText
  0
TEXT
  5
80
330
1E
100
AcDbEntity
  8
TEXT
100
AcDbText
 10
147.5836127167615
 20
63.62990369617964
 30
0.0
 40
4.0
  1
Gez.
 41
0.8
  7
GREEKS
100
AcDbText
  0
TEXT
  5
81
330
1E
100
AcDbEntity
  8
TEXT
100
AcDbText
 10
147.5515086571672
 20
53.68926291428377
 30
0.0
 40
4.0
  1
Gepr.
 41
0.8
  7
GREEKS
100
AcDbText
  0
TEXT
  5
82
330
1E
100
AcDbEntity
  8
TEXT
100
AcDbText
 10
147.6006777387303
 20
43.52946389649807
 30
0.0
 40
4.0
  1
Norm.
 41
0.8
  7
GREEKS
100
AcDbText
  0
LINE
  5
83
330
1E
100
AcDbEntity
  8
STEMPEL
100
AcDbLine
 10
49.99999999999989
 20
10.0
 30
0.0
 11
410.0
 21
10.0
 31
0.0
  0
TEXT
  5
84
330
1E
100
AcDbEntity
  8
TEXT
100
AcDbText
 10
337.2400861497006
 20
52.07416177878602
 30
0.0
 40
5.0
  1
ersetzt durch:
 41
0.8
  7
GREEKS
100
AcDbText
  0
LINE
  5
85
330
1E
100
AcDbEntity
  8
STEMPEL
100
AcDbLine
 10
410.0
 20
10.0
 30
0.0
 11
40.0
 21
9.999999999999998
 31
0.0
  0
LINE
  5
86
330
1E
100
AcDbEntity
  8
STEMPEL
100
AcDbLine
 10
410.0
 20
10.0
 30
0.0
 11
410.0
 21
584.0
 31
0.0
  0
LINE
  5
87
330
1E
100
AcDbEntity
  8
STEMPEL
100
AcDbLine
 10
40.0
 20
9.999999999999998
 30
0.0
 11
39.99999999999987
 21
583.9999999999998
 31
0.0
  0
LINE
  5
88
330
1E
100
AcDbEntity
  8
STEMPEL
100
AcDbLine
 10
410.0
 20
584.0
 30
0.0
 11
39.99999999999987
 21
583.9999999999998
 31
0.0
  0
LINE
  5
89
330
1E
100
AcDbEntity
  8
HILF
100
AcDbLine
 10
0.0
 20
0.0
 30
0.0
 11
-0.0000000000001137
 21
594.0
 31
0.0
  0
LINE
  5
8A
330
1E
100
AcDbEntity
  8
HILF
100
AcDbLine
 10
419.9999999999999
 20
594.0000000000002
 30
0.0
 11
0.0
 21
594.0
 31
0.0
  0
LINE
  5
8B
330
1E
100
AcDbEntity
  8
HILF
100
AcDbLine
 10
420.0
 20
0.0
 30
0.0
 11
0.0
 21
0.0
 31
0.0
  0
LINE
  5
8C
330
1E
100
AcDbEntity
  8
HILF
100
AcDbLine
 10
31.08767135713856
 20
297.0
 30
0.0
 11
0.0000000000001137
 21
297.0
 31
0.0
  0
TEXT
  5
8D
330
1E
100
AcDbEntity
  8
TEXT
100
AcDbText
 10
148.622109822104
 20
73.14025471151666
 30
0.0
 40
4.0
  1
2011
 41
0.8
  7
GREEKS
100
AcDbText
  0
LINE
  5
8E
330
1E
100
AcDbEntity
  8
HILF
100
AcDbLine
 10
420.0
 20
-0.0000000000001137
 30
0.0
 11
419.9999999999999
 21
594.0
 31
0.0
  0
TEXT
  5
8F
330
1E
100
AcDbEntity
  8
VOLL
100
AcDbText
 10
78.07675471698113
 20
31.02594776470585
 30
0.0
 40
1.8
  1

  7
GREEKS
100
AcDbText
  0
TEXT
  5
90
330
1E
100
AcDbEntity
  8
TEXT
100
AcDbText
 10
41.85509950977674
 20
111.6719999999999
 30
0.0
 40
5.0
  1
Erstellt mit AUTOCAD 2004
 41
0.8
  7
GREEKS
100
AcDbText
  0
TEXT
  5
91
330
1E
100
AcDbEntity
  8
TEXT
100
AcDbText
 10
204.4216048581257
 20
63.0896391972351
 30
0.0
 40
4.0
  1
Koeh
 41
0.8
  7
GREEKS
 72
     1
 11
209.6787477152686
 21
63.0896391972351
 31
0.0
100
AcDbText
  0
TEXT
  5
92
330
1E
100
AcDbEntity
  8
TEXT
 62
     1
100
AcDbText
 10
346.4426905270299
 20
88.14901428913959
 30
0.0
 40
7.0
  1
15219100W
 41
0.8
  7
GREEKS
 72
     1
 11
368.84269052703
 21
88.14901428913959
 31
0.0
100
AcDbText
  0
TEXT
  5
93
330
1E
100
AcDbEntity
  8
TEXT
 62
     1
100
AcDbText
 10
160.5006306481887
 20
88.14901428913959
 30
0.0
 40
7.0
  1
1:2
 41
0.8
  7
GREEKS
100
AcDbText
  0
TEXT
  5
94
330
1E
100
AcDbEntity
  8
TEXT
100
AcDbText
 10
171.0085209177598
 20
63.10765040825732
 30
0.0
 40
4.0
  1
21.01.
 41
0.8
  7
GREEKS
 72
     1
 11
177.4085209177598
 21
63.10765040825732
 31
0.0
100
AcDbText
  0
TEXT
  5
95
330
1E
100
AcDbEntity
  8
TEXT
 62
     1
100
AcDbText
 10
235.3247117987164
 20
87.41748789253779
 30
0.0
 40
7.0
  1
Rückstausicherung DN100
 41
0.7
  7
GREEKS
100
AcDbText
  0
TEXT
  5
96
330
1E
100
AcDbEntity
  8
TEXT
100
AcDbText
 10
235.1296391125315
 20
71.50334417585288
 30
0.0
 40
5.0
  1
für Balkonentwässerung
 41
0.8
  7
GREEKS
100
AcDbText
  0
TEXT
  5
98
330
1E
100
AcDbEntity
  8
TEXT
100
AcDbText
 10
235.1296391125315
 20
51.64011943042158
 30
0.0
 40
5.0
  1
EDV-Art.Nr. 15219.100X
 41
0.8
  7
GREEKS
100
AcDbText
  0
TEXT
  5
99
330
1E
100
AcDbEntity
  8
TEXT
100
AcDbText
 10
234.9837501577827
 20
42.62974153022632
 30
0.0
 40
4.0
  1
15219100W.DWG
 41
0.8
  7
GREEKS
100
AcDbText
  0
TEXT
  5
9A
330
1E
100
AcDbEntity
  8
TEXT
100
AcDbText
 10
192.626132208084
 20
90.76363841023022
 30
0.0
 40
4.0
  1
DIN EN1123-2
 41
0.8
  7
GREEKS
 72
     1
 11
209.6166083985602
 21
90.76363841023022
 31
0.0
100
AcDbText
  0
INSERT
  5
9B
330
1E
100
AcDbEntity
  8
STEMPEL
100
AcDbBlockReference
  2
LOGO
 10
150.9955485457794
 20
45.02105276448322
 30
0.0
 41
2.0
 42
2.0
 43
2.0
  0
TEXT
  5
118
330
1E
100
AcDbEntity
  8
BEM
100
AcDbText
 10
417.3022923857165
 20
10.16790107998849
 30
0.0
 40
4.0
  1
Diese Zeichnung ist urheberrechtlich geschützt und bleibt unser Eigentum. Sie darf weder ganz noch teilweise verfielfältigt und nicht an Dritte weitergegeben werden.
 50
90.0
 41
0.8
  7
GREEKS
100
AcDbText
  0
ARC
  5
548
330
1E
100
AcDbEntity
  8
STEMPEL
100
AcDbCircle
 10
240.5832799654356
 20
467.0298844178346
 30
0.0
 40
24.99990931069965
100
AcDbArc
 50
333.1122293409854
 51
0.0
  0
ARC
  5
549
330
1E
100
AcDbEntity
  8
STEMPEL
100
AcDbCircle
 10
172.5832799654356
 20
467.0298844178346
 30
0.0
 40
24.99990931069965
100
AcDbArc
 50
180.0
 51
206.8877706590146
  0
LINE
  5
54A
330
1E
100
AcDbEntity
  8
HILF
100
AcDbLine
 10
229.8562870361036
 20
384.8744466276294
 30
0.0
 11
221.3867159229187
 21
384.8744466276294
 31
0.0
  0
LWPOLYLINE
  5
54B
330
1E
100
AcDbEntity
  8
STEMPEL
100
AcDbPolyline
 90
        5
 70
     0
 43
0.0
 10
225.3347681513253
 20
402.7968844178348
 42
-0.1077960333930359
 10
227.0422935352719
 20
402.4244275480486
 42
-0.1018709584481094
 10
228.531964816015
 20
401.3324183237673
 42
-0.0944770720223779
 10
229.5055929992029
 20
399.732900774246
 42
-0.0898400221833202
 10
229.8562870361036
 20
397.7968844178349
 42
-0.0898400221833173
  0
LWPOLYLINE
  5
54C
330
1E
100
AcDbEntity
  8
STEMPEL
100
AcDbPolyline
 90
        5
 70
     0
 43
0.0
 10
226.1001350160552
 20
402.7968844178348
 42
-0.1077144041550071
 10
227.8093202924831
 20
402.4243544312957
 42
-0.1018453269126967
 10
229.3000592371061
 20
401.3324183237673
 42
-0.0945134029505288
 10
230.2745698315491
 20
399.7327200200325
 42
-0.0899106392812926
 10
230.6255112480315
 20
397.7968844178349
 42
-0.0899106392813071
  0
LWPOLYLINE
  5
54D
330
1E
100
AcDbEntity
  8
STEMPEL
100
AcDbPolyline
 90
        5
 70
     0
 43
0.0
 10
229.8562870361036
 20
357.7968844178349
 42
-0.0898400221833224
 10
229.5055929992029
 20
355.8608680614238
 42
-0.0944770720223859
 10
228.531964816015
 20
354.2613505119021
 42
-0.1018709584481127
 10
227.0422935352719
 20
353.1693412876207
 42
-0.107796033393048
 10
225.3347681513253
 20
352.7968844178349
 42
-0.107796033393061
  0
LWPOLYLINE
  5
54E
330
1E
100
AcDbEntity
  8
STEMPEL
100
AcDbPolyline
 90
        5
 70
     0
 43
0.0
 10
230.6255112480315
 20
357.7968844178349
 42
-0.0899106392812953
 10
230.2745698315491
 20
355.8610488156373
 42
-0.0945134029505367
 10
229.3000592371061
 20
354.2613505119021
 42
-0.1018453269126725
 10
227.8093202924836
 20
353.1694144043736
 42
-0.1077144041550089
 10
226.1001350160552
 20
352.7968844178349
 42
-0.1077144041550036
  0
LWPOLYLINE
  5
54F
102
{ACAD_REACTORS
330
7AB
102
}
330
1E
100
AcDbEntity
  8
HILF
100
AcDbPolyline
 90
       49
 70
     0
 43
0.0
 10
256.4644603188556
 20
411.1621128912434
 10
252.894071869641
 20
409.5075769083191
 10
249.1122903619459
 20
407.309036442638
 10
246.1192102872039
 20
405.0998318119536
 10
243.7961064902681
 20
402.8948366769586
 10
242.0242538159917
 20
400.7089246983451
 10
240.684927109228
 20
398.5569695368054
 10
239.6594012148309
 20
396.4538448530325
 10
238.8289509776525
 20
394.414424307719
 10
238.0941709346373
 20
392.4458173263161
 10
237.4329343910897
 20
390.5240763933093
 10
236.8424343444051
 20
388.6174897579431
 10
236.3198637919788
 20
386.6943456694617
 10
235.8624157312063
 20
384.7229323771094
 10
235.4672831594828
 20
382.671538130131
 10
235.1316590742028
 20
380.5084511777709
 10
234.8527364727627
 20
378.2019597692729
 10
234.6243399470734
 20
375.7346177629761
 10
234.4268204671118
 20
373.1460414535959
 10
234.2371605973706
 20
370.490112744943
 10
234.0323429023431
 20
367.820713540827
 10
233.7893499465215
 20
365.1917257450582
 10
233.4851642943988
 20
362.6570312614467
 10
233.096768510469
 20
360.2705119938028
 10
232.6011451592237
 20
358.0860498459369
 10
231.9788323443911
 20
356.1457400551999
 10
231.2245903266369
 20
354.4445311931099
 10
230.3367349058624
 20
352.9655851647262
 10
229.313581881968
 20
351.692063875108
 10
228.1534470548547
 20
350.6071292293154
 10
226.8546462244233
 20
349.6939431324072
 10
225.4154951905741
 20
348.9356674894425
 10
223.8343097532086
 20
348.315464205481
 10
222.1023414175004
 20
347.816121007862
 10
220.1825845097176
 20
347.4189289130463
 10
218.0309690614006
 20
347.1048047597747
 10
215.6034251040903
 20
346.8546653867879
 10
212.8558826693281
 20
346.6494276328267
 10
209.7442717886545
 20
346.470008336632
 10
206.2245224936107
 20
346.2973243369447
 10
202.2525648157373
 20
346.112292472506
 10
197.7973644790945
 20
345.9095263431714
 10
192.880029977817
 20
345.7384265932619
 10
187.5347054985584
 20
345.6620906282133
 10
181.795535227973
 20
345.7436158534611
 10
175.6966633527142
 20
346.0460996744409
 10
169.2722340594357
 20
346.632639496589
 10
162.5563915347918
 20
347.5663327253414
 10
155.5832799654356
 20
348.9102767661334
  0
LINE
  5
550
330
1E
100
AcDbEntity
  8
STEMPEL
100
AcDbLine
 10
249.9514536523031
 20
407.7968844178348
 30
0.0
 11
155.5832799654356
 21
407.7968844178348
 31
0.0
  0
LINE
  5
551
330
1E
100
AcDbEntity
  8
HILF
  6
Continuous
100
AcDbLine
 10
157.7251746185627
 20
415.4506978875465
 30
0.0
 11
255.441385312309
 21
415.4506978875461
 31
0.0
  0
INSERT
  5
552
330
1E
100
AcDbEntity
  8
SCHRAFF
100
AcDbBlockReference
  2
*X1
 10
-57.42122660202426
 20
17.66493370364105
 30
0.0
1001
ACAD
1000
HATCH
1002
{
1070
    16
1000
_U,I
1040
0.1
1040
0.0
1070
     0
1002
}
  0
LINE
  5
553
330
1E
100
AcDbEntity
  8
HILF
100
AcDbLine
 10
153.1950209877207
 20
453.5711028501086
 30
0.0
 11
259.9715389431505
 21
453.5711028501086
 31
0.0
  0
LINE
  5
554
330
1E
100
AcDbEntity
  8
HILF
100
AcDbLine
 10
259.0052100822124
 20
430.8908824347549
 30
0.0
 11
154.1613498486588
 21
430.8908824347549
 31
0.0
  0
LINE
  5
555
330
1E
100
AcDbEntity
  8
HILF
100
AcDbLine
 10
157.1386108244949
 20
424.7117310210646
 30
0.0
 11
256.0279491063768
 21
424.7117310210646
 31
0.0
  0
ARC
  5
556
330
1E
100
AcDbEntity
  8
SCHRAFF
100
AcDbCircle
 10
190.1347171783056
 20
410.6416465561924
 30
0.0
 40
8.717801077182686
100
AcDbArc
 50
146.5206905241543
 51
199.045352462475
  0
LINE
  5
557
330
1E
100
AcDbEntity
  8
STEMPEL
100
AcDbLine
 10
167.1590291696504
 20
357.7968844178349
 30
0.0
 11
167.1590291696504
 21
397.7968844178349
 31
0.0
  0
LINE
  5
558
330
1E
100
AcDbEntity
  8
STEMPEL
100
AcDbLine
 10
168.5803701802749
 20
357.7968844178349
 30
0.0
 11
168.5803701802749
 21
397.7968844178349
 31
0.0
  0
LINE
  5
559
330
1E
100
AcDbEntity
  8
STEMPEL
100
AcDbLine
 10
174.2300969815157
 20
357.7968844178349
 30
0.0
 11
174.2300969815157
 21
397.7968844178349
 31
0.0
  0
LINE
  5
55A
330
1E
100
AcDbEntity
  8
STEMPEL
100
AcDbLine
 10
161.6058287820463
 20
357.7968844178349
 30
0.0
 11
161.6058287820463
 21
397.7968844178349
 31
0.0
  0
LINE
  5
55B
330
1E
100
AcDbEntity
  8
STEMPEL
100
AcDbLine
 10
157.7789944583953
 20
357.7968844178349
 30
0.0
 11
157.7789944583953
 21
397.7968844178349
 31
0.0
  0
LINE
  5
55C
330
1E
100
AcDbEntity
  8
STEMPEL
100
AcDbLine
 10
159.6360659833374
 20
357.7968844178349
 30
0.0
 11
159.6360659833374
 21
397.7968844178349
 31
0.0
  0
LWPOLYLINE
  5
55D
330
1E
100
AcDbEntity
  8
STEMPEL
100
AcDbPolyline
 90
        5
 70
     0
 43
0.0
 10
157.7789944583953
 20
357.7968844178349
 42
0.0347164163935535
 10
157.9213441901881
 20
355.7491764102547
 42
0.046657234759923
 10
158.2729381787151
 20
354.2613505119021
 42
0.0897609786521566
 10
158.9446311700237
 20
353.0444242714239
 42
0.2255649566365662
 10
159.4654238073601
 20
352.7968844178349
 42
0.2255649566364823
  0
LINE
  5
55F
330
1E
100
AcDbEntity
  8
STEMPEL
100
AcDbLine
 10
163.5832799654356
 20
347.4235660105387
 30
0.0
 11
163.5832799654356
 21
332.7968844178349
 31
0.0
  0
LINE
  5
560
330
1E
100
AcDbEntity
  8
STEMPEL
100
AcDbLine
 10
165.5832799654358
 20
347.1455090950208
 30
0.0
 11
165.5832799654356
 21
332.7968844178349
 31
0.0
  0
INSERT
  5
561
330
1E
100
AcDbEntity
  8
SCHRAFF
100
AcDbBlockReference
  2
*X2
 10
-57.42122660202426
 20
-24.06292804263558
 30
0.0
1001
ACAD
1000
HATCH
1002
{
1070
    16
1000
_U,I
1040
2.0
1040
2.356194490192344
1070
     0
1002
}
  0
LWPOLYLINE
  5
562
330
1E
100
AcDbEntity
  8
STEMPEL
100
AcDbPolyline
 90
        5
 70
     0
 43
0.0
 10
170.520834124922
 20
352.7968844178349
 42
0.1280001435432668
 10
171.8793200101806
 20
353.1504500263872
 42
0.1062214317046736
 10
173.1436790440227
 20
354.2613505119021
 42
0.0852403443595585
 10
173.9337734992343
 20
355.8237300782739
 42
0.0746701075953954
 10
174.2300969815157
 20
357.7968844178349
 42
0.0746701075953857
  0
LWPOLYLINE
  5
563
330
1E
100
AcDbEntity
  8
STEMPEL
100
AcDbPolyline
 90
        5
 70
     0
 43
0.0
 10
159.4654238073601
 20
352.7968844178349
 42
0.1946374076670043
 10
160.1652226455401
 20
353.0800248960677
 42
0.0996739220583098
 10
160.9789186794462
 20
354.2613505119021
 42
0.0573087403535078
 10
161.4268603395437
 20
355.7625126137732
 42
0.0439013926780003
 10
161.6058287820463
 20
357.7968844178349
 42
0.0439013926779672
  0
LWPOLYLINE
  5
564
330
1E
100
AcDbEntity
  8
STEMPEL
100
AcDbPolyline
 90
        4
 70
     0
 43
0.0
 10
159.6360659833374
 20
357.7968844178349
 42
0.034526994685778
 10
159.7776542075733
 20
355.7489298201513
 42
0.0464276344868177
 10
160.1272821472964
 20
354.2613505119021
 42
0.0569648930389204
 10
160.5036446813667
 20
353.4565612006363
 42
0.2262769562435221
  0
LWPOLYLINE
  5
565
330
1E
100
AcDbEntity
  8
STEMPEL
100
AcDbPolyline
 90
        5
 70
     0
 43
0.0
 10
167.1590291696504
 20
357.7968844178349
 42
0.0680091074726458
 10
167.4307203366172
 20
355.8086615127186
 42
0.0802506873074188
 10
168.1436790440227
 20
354.2613505119021
 42
0.1070861376092301
 10
169.3109122347812
 20
353.1396625699827
 42
0.1389193076588219
 10
170.520834124922
 20
352.7968844178349
 42
0.1389193076588268
  0
LWPOLYLINE
  5
566
330
1E
100
AcDbEntity
  8
STEMPEL
100
AcDbPolyline
 90
        5
 70
     0
 43
0.0
 10
168.5803701802749
 20
357.7968844178349
 42
0.0678714651261374
 10
168.8515475950132
 20
355.8083593007373
 42
0.0801414130830183
 10
169.562932473387
 20
354.2613505119021
 42
0.1070947598812462
 10
170.7281648145756
 20
353.1394198186308
 42
0.0641139117469334
 10
171.2627299723349
 20
352.8974594164647
 42
0.1391609519102831
  0
LWPOLYLINE
  5
567
330
1E
100
AcDbEntity
  8
STEMPEL
100
AcDbPolyline
 90
        5
 70
     0
 43
0.0
 10
159.4654238073601
 20
402.7968844178348
 42
0.2255649566364823
 10
158.9446311700235
 20
402.5493445642459
 42
0.0897609786521186
 10
158.2729381787151
 20
401.3324183237673
 42
0.046657234759922
 10
157.9213441901881
 20
399.8445924254147
 42
0.0347164163935399
 10
157.7789944583953
 20
397.7968844178349
 42
0.0347164163935555
  0
ARC
  5
568
330
1E
100
AcDbEntity
  8
STEMPEL
100
AcDbCircle
 10
139.5832799654356
 20
450.2968844178349
 30
0.0
 40
12.0
100
AcDbArc
 50
0.0
 51
26.88777065901456
  0
ARC
  5
569
330
1E
100
AcDbEntity
  8
STEMPEL
100
AcDbCircle
 10
166.5832799654356
 20
434.7243732947823
 30
0.0
 40
15.0
100
AcDbArc
 50
180.0
 51
214.3011527567849
  0
ARC
  5
56A
330
1E
100
AcDbEntity
  8
STEMPEL
100
AcDbCircle
 10
170.5832799654356
 20
417.3661943998645
 30
0.0
 40
15.0
100
AcDbArc
 50
180.0
 51
194.6733816365674
  0
LINE
  5
56B
330
1E
100
AcDbEntity
  8
STEMPEL
100
AcDbLine
 10
155.5832799654356
 20
421.7628918979666
 30
0.0
 11
155.5832799654356
 21
417.3661943998645
 31
0.0
  0
ARC
  5
56C
330
1E
100
AcDbEntity
  8
SCHRAFF
100
AcDbCircle
 10
161.6279372584533
 20
411.5277886641829
 30
0.0
 40
7.103346273795855
100
AcDbArc
 50
146.4776558506142
 51
211.683857727571
  0
LINE
  5
56D
330
1E
100
AcDbEntity
  8
STEMPEL
100
AcDbLine
 10
156.0724968839297
 20
413.5665662125971
 30
0.0
 11
157.5832799654356
 21
407.7968844178348
 31
0.0
  0
ARC
  5
56E
330
1E
100
AcDbEntity
  8
STEMPEL
100
AcDbCircle
 10
147.5832799654356
 20
421.7628918979666
 30
0.0
 40
8.0
100
AcDbArc
 50
0.0
 51
34.30115275678495
  0
LINE
  5
56F
330
1E
100
AcDbEntity
  8
STEMPEL
100
AcDbLine
 10
151.5832799654356
 20
450.2968844178349
 30
0.0
 11
151.5832799654356
 21
434.7243732947823
 31
0.0
  0
ARC
  5
570
330
1E
100
AcDbEntity
  8
SCHRAFF
100
AcDbCircle
 10
185.9809732675885
 20
410.6416465561924
 30
0.0
 40
8.717801077182686
100
AcDbArc
 50
146.5206905241543
 51
199.045352462475
  0
ARC
  5
571
330
1E
100
AcDbEntity
  8
SCHRAFF
100
AcDbCircle
 10
177.5350278510748
 20
410.6416465561924
 30
0.0
 40
8.717801077182686
100
AcDbArc
 50
146.5206905241543
 51
199.045352462475
  0
ARC
  5
572
330
1E
100
AcDbEntity
  8
SCHRAFF
100
AcDbCircle
 10
181.8272293568714
 20
410.6416465561924
 30
0.0
 40
8.717801077182686
100
AcDbArc
 50
146.5206905241543
 51
199.045352462475
  0
ARC
  5
573
330
1E
100
AcDbEntity
  8
SCHRAFF
100
AcDbCircle
 10
168.535252054243
 20
410.6416465561924
 30
0.0
 40
8.717801077182686
100
AcDbArc
 50
146.5206905241543
 51
199.045352462475
  0
ARC
  5
574
330
1E
100
AcDbEntity
  8
SCHRAFF
100
AcDbCircle
 10
172.9659111551193
 20
410.6416465561924
 30
0.0
 40
8.717801077182686
100
AcDbArc
 50
146.5206905241543
 51
199.045352462475
  0
LINE
  5
575
330
1E
100
AcDbEntity
  8
HILF
100
AcDbLine
 10
174.2300969815157
 20
384.8744466276294
 30
0.0
 11
168.5803701802749
 21
384.8744466276294
 31
0.0
  0
LINE
  5
576
330
1E
100
AcDbEntity
  8
STEMPEL
100
AcDbLine
 10
159.740633183942
 20
399.5579507535262
 30
0.0
 11
161.6058287820463
 21
392.4347672748459
 31
0.0
  0
LWPOLYLINE
  5
577
330
1E
100
AcDbEntity
  8
STEMPEL
100
AcDbPolyline
 90
        5
 70
     0
 43
0.0
 10
174.2300969815157
 20
397.7968844178349
 42
0.0746701075953814
 10
173.9337734992346
 20
399.7700387573959
 42
0.0852403443595439
 10
173.1436790440227
 20
401.3324183237673
 42
0.106221431704672
 10
171.8793200101806
 20
402.4433188092825
 42
0.1280001435432521
 10
170.520834124922
 20
402.7968844178348
 42
0.1280001435432617
  0
LWPOLYLINE
  5
578
330
1E
100
AcDbEntity
  8
STEMPEL
100
AcDbPolyline
 90
        5
 70
     0
 43
0.0
 10
170.520834124922
 20
402.7968844178348
 42
0.1389193076588204
 10
169.3109122347812
 20
402.4541062656867
 42
0.1070861376092292
 10
168.1436790440227
 20
401.3324183237673
 42
0.0802506873074274
 10
167.4307203366172
 20
399.7851073229512
 42
0.0680091074726524
 10
167.1590291696504
 20
397.7968844178349
 42
0.0680091074726542
  0
LWPOLYLINE
  5
579
330
1E
100
AcDbEntity
  8
STEMPEL
100
AcDbPolyline
 90
        5
 70
     0
 43
0.0
 10
161.6058287820463
 20
397.7968844178349
 42
0.043901392678008
 10
161.4268603395437
 20
399.8312562218966
 42
0.0573087403534992
 10
160.9789186794462
 20
401.3324183237673
 42
0.0996739220583098
 10
160.1652226455401
 20
402.5137439396021
 42
0.1946374076670043
 10
159.4654238073601
 20
402.7968844178348
 42
0.194637407667019
  0
LWPOLYLINE
  5
57A
330
1E
100
AcDbEntity
  8
STEMPEL
100
AcDbPolyline
 90
        5
 70
     0
 43
0.0
 10
171.2627299723349
 20
402.6963094192051
 42
0.0641139117469442
 10
170.7281648145756
 20
402.4543490170385
 42
0.1070947598812344
 10
169.562932473387
 20
401.3324183237673
 42
0.0801414130830311
 10
168.8515475950132
 20
399.7854095349321
 42
0.0678714651261309
 10
168.5803701802749
 20
397.7968844178349
 42
0.0678714651260952
  0
LWPOLYLINE
  5
57B
330
1E
100
AcDbEntity
  8
STEMPEL
100
AcDbPolyline
 90
        4
 70
     0
 43
0.0
 10
160.5036446813667
 20
402.137207635033
 42
0.056964893038902
 10
160.1272821472964
 20
401.3324183237673
 42
0.0464276344868347
 10
159.7776542075733
 20
399.8448390155181
 42
0.0345269946857819
 10
159.6360659833374
 20
397.7968844178349
 42
0.0345269946857709
  0
LINE
  5
57C
330
1E
100
AcDbEntity
  8
STEMPEL
100
AcDbLine
 10
221.3867159229187
 20
357.7968844178349
 30
0.0
 11
221.3867159229187
 21
397.7968844178349
 31
0.0
  0
LINE
  5
57D
330
1E
100
AcDbEntity
  8
STEMPEL
100
AcDbLine
 10
201.5832799654356
 20
357.7968844178349
 30
0.0
 11
201.5832799654356
 21
397.7968844178349
 31
0.0
  0
LINE
  5
57E
330
1E
100
AcDbEntity
  8
STEMPEL
100
AcDbLine
 10
211.5832799654358
 20
357.7968844178349
 30
0.0
 11
211.5832799654358
 21
397.7968844178349
 31
0.0
  0
LINE
  5
57F
330
1E
100
AcDbEntity
  8
STEMPEL
100
AcDbLine
 10
191.7798440079529
 20
357.7968844178349
 30
0.0
 11
191.7798440079529
 21
397.7968844178349
 31
0.0
  0
LINE
  5
580
330
1E
100
AcDbEntity
  8
STEMPEL
100
AcDbLine
 10
182.54104868284
 20
357.7968844178349
 30
0.0
 11
182.54104868284
 21
397.7968844178349
 31
0.0
  0
LINE
  5
581
330
1E
100
AcDbEntity
  8
STEMPEL
100
AcDbLine
 10
183.3102728947676
 20
357.7968844178349
 30
0.0
 11
183.3102728947679
 21
397.7968844178349
 31
0.0
  0
ARC
  5
582
330
1E
100
AcDbEntity
  8
STEMPEL
100
AcDbCircle
 10
206.5832799654356
 20
357.7968844178349
 30
0.0
 40
5.0
100
AcDbArc
 50
180.0
 51
0.0
  0
LWPOLYLINE
  5
583
330
1E
100
AcDbEntity
  8
STEMPEL
100
AcDbPolyline
 90
        5
 70
     0
 43
0.0
 10
182.54104868284
 20
357.7968844178349
 42
0.0899106392812953
 10
182.8919900993221
 20
355.8610488156373
 42
0.0945134029505367
 10
183.8665006937656
 20
354.2613505119021
 42
0.1018453269126725
 10
185.3572396383879
 20
353.1694144043736
 42
0.1077144041550089
 10
187.066424914816
 20
352.7968844178349
 42
0.1077144041550036
  0
LWPOLYLINE
  5
584
330
1E
100
AcDbEntity
  8
STEMPEL
100
AcDbPolyline
 90
        5
 70
     0
 43
0.0
 10
183.3102728947679
 20
357.7968844178349
 42
0.0898400221833224
 10
183.6609669316688
 20
355.8608680614238
 42
0.0944770720223859
 10
184.6345951148564
 20
354.2613505119021
 42
0.1018709584481127
 10
186.1242663955997
 20
353.1693412876207
 42
0.107796033393048
 10
187.8317917795463
 20
352.7968844178349
 42
0.107796033393061
  0
LWPOLYLINE
  5
585
330
1E
100
AcDbEntity
  8
STEMPEL
100
AcDbPolyline
 90
        5
 70
     0
 43
0.0
 10
187.066424914816
 20
352.7968844178349
 42
0.1038718110768174
 10
188.8565319941369
 20
353.1728238902615
 42
0.100559581367275
 10
190.3993155181472
 20
354.2613505119021
 42
0.0962044251214297
 10
191.416966881033
 20
355.869893132307
 42
0.0933361443398568
 10
191.7798440079529
 20
357.7968844178349
 42
0.0933361443398714
  0
LWPOLYLINE
  5
586
330
1E
100
AcDbEntity
  8
STEMPEL
100
AcDbPolyline
 90
        5
 70
     0
 43
0.0
 10
226.1001350160552
 20
352.7968844178349
 42
-0.1038718110768174
 10
224.3100279367348
 20
353.1728238902615
 42
-0.100559581367275
 10
222.767244412724
 20
354.2613505119021
 42
-0.0962044251214297
 10
221.7495930498383
 20
355.869893132307
 42
-0.0933361443398568
 10
221.3867159229187
 20
357.7968844178349
 42
-0.0933361443398714
  0
LINE
  5
587
330
1E
100
AcDbEntity
  8
HILF
100
AcDbLine
 10
211.5832799654358
 20
384.8744466276294
 30
0.0
 11
201.5832799654356
 21
384.8744466276294
 31
0.0
  0
ARC
  5
588
330
1E
100
AcDbEntity
  8
STEMPEL
100
AcDbCircle
 10
206.5832799654356
 20
397.7968844178349
 30
0.0
 40
5.0
100
AcDbArc
 50
0.0
 51
180.0
  0
ARC
  5
589
330
1E
100
AcDbEntity
  8
SCHRAFF
100
AcDbCircle
 10
211.8726398974475
 20
410.6416465561924
 30
0.0
 40
8.717801077182686
100
AcDbArc
 50
146.5206905241543
 51
199.045352462475
  0
ARC
  5
58A
330
1E
100
AcDbEntity
  8
SCHRAFF
100
AcDbCircle
 10
207.303523201492
 20
410.6416465561924
 30
0.0
 40
8.717801077182686
100
AcDbArc
 50
146.5206905241543
 51
199.045352462475
  0
ARC
  5
58B
330
1E
100
AcDbEntity
  8
SCHRAFF
100
AcDbCircle
 10
198.9960353800577
 20
410.6416465561924
 30
0.0
 40
8.717801077182686
100
AcDbArc
 50
146.5206905241543
 51
199.045352462475
  0
ARC
  5
58C
330
1E
100
AcDbEntity
  8
SCHRAFF
100
AcDbCircle
 10
194.7038338742611
 20
410.6416465561924
 30
0.0
 40
8.717801077182686
100
AcDbArc
 50
146.5206905241543
 51
199.045352462475
  0
ARC
  5
58D
330
1E
100
AcDbEntity
  8
SCHRAFF
100
AcDbCircle
 10
203.1497792907749
 20
410.6416465561924
 30
0.0
 40
8.717801077182686
100
AcDbArc
 50
146.5206905241543
 51
199.045352462475
  0
LINE
  5
58E
330
1E
100
AcDbEntity
  8
HILF
100
AcDbLine
 10
191.7798440079529
 20
384.8744466276294
 30
0.0
 11
183.3102728947679
 21
384.8744466276294
 31
0.0
  0
LWPOLYLINE
  5
58F
330
1E
100
AcDbEntity
  8
STEMPEL
100
AcDbPolyline
 90
        5
 70
     0
 43
0.0
 10
187.066424914816
 20
402.7968844178348
 42
0.1077144041550071
 10
185.3572396383881
 20
402.4243544312957
 42
0.1018453269126967
 10
183.8665006937656
 20
401.3324183237673
 42
0.0945134029505288
 10
182.8919900993221
 20
399.7327200200325
 42
0.0899106392812926
 10
182.54104868284
 20
397.7968844178349
 42
0.0899106392813071
  0
LWPOLYLINE
  5
590
330
1E
100
AcDbEntity
  8
STEMPEL
100
AcDbPolyline
 90
        5
 70
     0
 43
0.0
 10
191.7798440079529
 20
397.7968844178349
 42
0.0933361443398535
 10
191.416966881033
 20
399.7238757033624
 42
0.0962044251214492
 10
190.3993155181472
 20
401.3324183237673
 42
0.1005595813672714
 10
188.8565319941369
 20
402.4209449454079
 42
0.1038718110768053
 10
187.066424914816
 20
402.7968844178348
 42
0.1038718110768142
  0
LWPOLYLINE
  5
591
330
1E
100
AcDbEntity
  8
STEMPEL
100
AcDbPolyline
 90
        5
 70
     0
 43
0.0
 10
187.8317917795463
 20
402.7968844178348
 42
0.1077960333930359
 10
186.1242663955997
 20
402.4244275480486
 42
0.1018709584481094
 10
184.6345951148564
 20
401.3324183237673
 42
0.0944770720223779
 10
183.6609669316688
 20
399.732900774246
 42
0.0898400221833202
 10
183.3102728947679
 20
397.7968844178349
 42
0.0898400221833173
  0
ARC
  5
592
330
1E
100
AcDbEntity
  8
SCHRAFF
100
AcDbCircle
 10
224.4723292246783
 20
410.6416465561924
 30
0.0
 40
8.717801077182686
100
AcDbArc
 50
146.5206905241543
 51
199.045352462475
  0
ARC
  5
593
330
1E
100
AcDbEntity
  8
SCHRAFF
100
AcDbCircle
 10
216.1648414032441
 20
410.6416465561924
 30
0.0
 40
8.717801077182686
100
AcDbArc
 50
146.5206905241543
 51
199.045352462475
  0
ARC
  5
594
330
1E
100
AcDbEntity
  8
SCHRAFF
100
AcDbCircle
 10
220.3185853139614
 20
410.6416465561924
 30
0.0
 40
8.717801077182686
100
AcDbArc
 50
146.5206905241543
 51
199.045352462475
  0
ARC
  5
595
330
1E
100
AcDbEntity
  8
SCHRAFF
100
AcDbCircle
 10
229.0414459206338
 20
410.6416465561924
 30
0.0
 40
8.717801077182686
100
AcDbArc
 50
146.5206905241543
 51
199.045352462475
  0
ARC
  5
596
330
1E
100
AcDbEntity
  8
SCHRAFF
100
AcDbCircle
 10
233.3336474264304
 20
410.6416465561924
 30
0.0
 40
8.717801077182686
100
AcDbArc
 50
146.5206905241543
 51
199.045352462475
  0
LWPOLYLINE
  5
597
330
1E
100
AcDbEntity
  8
STEMPEL
100
AcDbPolyline
 90
        5
 70
     0
 43
0.0
 10
221.3867159229187
 20
397.7968844178349
 42
-0.0933361443398535
 10
221.7495930498383
 20
399.7238757033624
 42
-0.0962044251214492
 10
222.767244412724
 20
401.3324183237673
 42
-0.1005595813672714
 10
224.3100279367348
 20
402.4209449454079
 42
-0.1038718110768053
 10
226.1001350160552
 20
402.7968844178348
 42
-0.1038718110768142
  0
LINE
  5
599
330
1E
100
AcDbEntity
  8
STEMPEL
100
AcDbLine
 10
251.560731148825
 20
357.7968844178349
 30
0.0
 11
251.560731148825
 21
392.4347672748463
 31
0.0
  0
LINE
  5
59A
330
1E
100
AcDbEntity
  8
STEMPEL
100
AcDbLine
 10
253.5304939475338
 20
357.7968844178349
 30
0.0
 11
253.5304939475338
 21
397.7968844178349
 31
0.0
  0
LINE
  5
59B
330
1E
100
AcDbEntity
  8
STEMPEL
100
AcDbLine
 10
249.7036596238829
 20
357.7968844178349
 30
0.0
 11
249.7036596238829
 21
385.2354486732429
 31
0.0
  0
LINE
  5
59C
330
1E
100
AcDbEntity
  8
STEMPEL
100
AcDbLine
 10
229.8562870361036
 20
357.7968844178349
 30
0.0
 11
229.8562870361036
 21
397.7968844178349
 31
0.0
  0
LINE
  5
59D
330
1E
100
AcDbEntity
  8
STEMPEL
100
AcDbLine
 10
230.6255112480315
 20
357.7968844178349
 30
0.0
 11
230.6255112480315
 21
397.7968844178349
 31
0.0
  0
LINE
  5
59E
330
1E
100
AcDbEntity
  8
STEMPEL
100
AcDbLine
 10
249.5832799654356
 20
383.8528484877265
 30
0.0
 11
249.5832799654356
 21
332.7968844178349
 31
0.0
  0
LINE
  5
59F
330
1E
100
AcDbEntity
  8
STEMPEL
100
AcDbLine
 10
247.5832799654356
 20
383.8528484877265
 30
0.0
 11
247.5832799654356
 21
332.7968844178349
 31
0.0
  0
HATCH
  5
5A0
330
1E
100
AcDbEntity
  8
SCHRAFF
100
AcDbHatch
 10
0.0
 20
0.0
 30
0.0
210
0.0
220
0.0
230
1.0
  2
_USER
 70
     0
 71
     0
 91
        1
 92
        7
 72
     1
 73
     1
 93
        8
 10
249.5832799654356
 20
383.8528484877265
 42
-0.0641123317365987
 10
249.844195655299
 20
385.8793168542693
 42
0.0
 10
256.4644603188556
 20
411.1621128912434
 42
0.0
 10
254.1115221411967
 20
410.0717494935606
 42
0.0
 10
247.9094245777653
 20
386.3859339459045
 42
0.0641123317365972
 10
247.5832799654356
 20
383.8528484877265
 42
0.0
 10
247.5832799654356
 20
332.7968844178349
 42
0.0
 10
249.5832799654356
 20
332.7968844178349
 42
0.0
 97
        0
 75
     0
 76
     0
 52
135.0
 41
2.0
 77
     0
 78
     1
 53
135.0
 43
-57.42122660202426
 44
-24.06292804263558
 45
-1.414213562373095
 46
-1.414213562373094
 79
     0
 47
0.2293893003212381
 98
        1
 10
248.1591930798593
 20
373.1481277362259
  0
LWPOLYLINE
  5
5A1
330
1E
100
AcDbEntity
  8
STEMPEL
100
AcDbPolyline
 90
        5
 70
     0
 43
0.0
 10
249.7036596238829
 20
357.7968844178349
 42
0.044088717934643
 10
249.8833682617526
 20
355.7628116899705
 42
0.0575157024409206
 10
250.3332972828441
 20
354.2613505119021
 42
0.099824494906065
 10
251.1498186243546
 20
353.0806583724975
 42
0.1940745864117619
 10
251.8533770584888
 20
352.7968844178349
 42
0.1940745864117183
  0
LINE
  5
5A2
330
1E
100
AcDbEntity
  8
STEMPEL
100
AcDbLine
 10
249.5832799654356
 20
332.7968844178349
 30
0.0
 11
163.5832799654356
 21
332.7968844178372
 31
0.0
  0
LWPOLYLINE
  5
5A3
330
1E
100
AcDbEntity
  8
STEMPEL
100
AcDbPolyline
 90
        5
 70
     0
 43
0.0
 10
251.8533770584888
 20
352.7968844178349
 42
0.2262769562435402
 10
252.3706003266964
 20
353.0435873317588
 42
0.0894997721685157
 10
253.0392777835753
 20
354.2613505119021
 42
0.0464276344868311
 10
253.3889057232979
 20
355.7489298201517
 42
0.0345269946857776
 10
253.5304939475338
 20
357.7968844178349
 42
0.0345269946857751
  0
LWPOLYLINE
  5
5A4
330
1E
100
AcDbEntity
  8
STEMPEL
100
AcDbPolyline
 90
        4
 70
     0
 43
0.0
 10
251.560731148825
 20
357.7968844178349
 42
0.0439013926780182
 10
251.7396995913275
 20
355.7625126137728
 42
0.0573087403535062
 10
252.1876412514255
 20
354.2613505119021
 42
0.0645744498616765
 10
252.662915249505
 20
353.4565612006363
 42
0.1946374076670043
  0
LINE
  5
5A5
330
1E
100
AcDbEntity
  8
STEMPEL
100
AcDbLine
 10
257.0940630469415
 20
413.5665662125971
 30
0.0
 11
249.844195655299
 21
385.8793168542689
 31
0.0
  0
LINE
  5
5A6
330
1E
100
AcDbEntity
  8
STEMPEL
100
AcDbLine
 10
254.1115221411967
 20
410.0717494935606
 30
0.0
 11
247.9094245777653
 21
386.3859339459045
 31
0.0
  0
ARC
  5
5A7
330
1E
100
AcDbEntity
  8
SCHRAFF
100
AcDbCircle
 10
237.4873913371478
 20
410.6416465561924
 30
0.0
 40
8.717801077182686
100
AcDbArc
 50
146.5206905241543
 51
199.045352462475
  0
ARC
  5
5A8
330
1E
100
AcDbEntity
  8
STEMPEL
100
AcDbCircle
 10
257.5832799654356
 20
383.8528484877265
 30
0.0
 40
8.0
100
AcDbArc
 50
165.3266183634325
 51
180.0
  0
LWPOLYLINE
  5
5A9
330
1E
100
AcDbEntity
  8
STEMPEL
100
AcDbPolyline
 90
        3
 70
     0
 43
0.0
 10
241.9038299585366
 20
402.6963094192051
 42
-0.0641139117469442
 10
242.4383951162956
 20
402.4543490170385
 42
-0.0510333567642585
 10
243.0550540793959
 20
401.9806097972504
 42
-0.0801414130830311
  0
LWPOLYLINE
  5
5AA
330
1E
100
AcDbEntity
  8
STEMPEL
100
AcDbPolyline
 90
        2
 70
     0
 43
0.0
 10
242.6457258059497
 20
402.7968844178348
 42
-0.1025533367124252
 10
243.5626456926446
 20
402.6068190773744
 42
-0.1070861376092292
  0
ARC
  5
5AB
330
1E
100
AcDbEntity
  8
SCHRAFF
100
AcDbCircle
 10
252.1639472669597
 20
410.6416465561924
 30
0.0
 40
8.717801077182686
100
AcDbArc
 50
146.5206905241543
 51
199.045352462475
  0
ARC
  5
5AC
330
1E
100
AcDbEntity
  8
SCHRAFF
100
AcDbCircle
 10
242.1949629517942
 20
410.6416465561924
 30
0.0
 40
8.717801077182686
100
AcDbArc
 50
146.5206905241543
 51
199.045352462475
  0
ARC
  5
5AD
330
1E
100
AcDbEntity
  8
SCHRAFF
100
AcDbCircle
 10
247.3179127044566
 20
410.6416465561924
 30
0.0
 40
8.717801077182686
100
AcDbArc
 50
146.5206905241543
 51
199.045352462475
  0
ARC
  5
5AE
330
1E
100
AcDbEntity
  8
STEMPEL
100
AcDbCircle
 10
257.5832799654356
 20
383.8528484877265
 30
0.0
 40
10.0
100
AcDbArc
 50
165.3266183634325
 51
180.0
  0
LINE
  5
5AF
330
1E
100
AcDbEntity
  8
STEMPEL
100
AcDbLine
 10
238.9364629493555
 20
394.6784523182396
 30
0.0
 11
238.9364629493559
 21
397.7968844178349
 31
0.0
  0
LINE
  5
5B0
330
1E
100
AcDbEntity
  8
HILF
100
AcDbLine
 10
245.6268449933989
 20
384.8744466276294
 30
0.0
 11
235.897573199378
 21
384.8744466276294
 31
0.0
  0
LWPOLYLINE
  5
5B1
330
1E
100
AcDbEntity
  8
STEMPEL
100
AcDbPolyline
 90
        5
 70
     0
 43
0.0
 10
238.9364629493559
 20
397.7968844178349
 42
-0.0746701075953814
 10
239.2327864316369
 20
399.7700387573959
 42
-0.0852403443595439
 10
240.0228808868485
 20
401.3324183237673
 42
-0.106221431704672
 10
241.287239920691
 20
402.4433188092825
 42
-0.1280001435432521
 10
242.6457258059497
 20
402.7968844178348
 42
-0.1280001435432617
  0
ARC
  5
5B2
330
1E
100
AcDbEntity
  8
SCHRAFF
100
AcDbCircle
 10
257.1484367481541
 20
410.6416465561924
 30
0.0
 40
8.717801077182686
100
AcDbArc
 50
146.5206905241543
 51
199.045352462475
  0
ARC
  5
5B3
330
1E
100
AcDbEntity
  8
STEMPEL
100
AcDbCircle
 10
273.5832799654356
 20
450.2968844178349
 30
0.0
 40
12.0
100
AcDbArc
 50
153.1122293409854
 51
180.0
  0
ARC
  5
5B4
330
1E
100
AcDbEntity
  8
STEMPEL
100
AcDbCircle
 10
246.5832799654356
 20
434.7243732947823
 30
0.0
 40
15.0
100
AcDbArc
 50
325.6988472432151
 51
0.0
  0
ARC
  5
5B5
330
1E
100
AcDbEntity
  8
STEMPEL
100
AcDbCircle
 10
242.5832799654356
 20
417.3661943998645
 30
0.0
 40
15.0
100
AcDbArc
 50
345.3266183634326
 51
0.0
  0
LINE
  5
5B6
330
1E
100
AcDbEntity
  8
STEMPEL
100
AcDbLine
 10
257.5832799654356
 20
421.7628918979666
 30
0.0
 11
257.5832799654356
 21
417.3661943998645
 31
0.0
  0
ARC
  5
5B7
330
1E
100
AcDbEntity
  8
SCHRAFF
100
AcDbCircle
 10
251.5386226724183
 20
411.5277886641829
 30
0.0
 40
7.103346273795855
100
AcDbArc
 50
328.316142272429
 51
33.52234414938577
  0
ARC
  5
5B8
330
1E
100
AcDbEntity
  8
SCHRAFF
100
AcDbCircle
 10
261.9944713106572
 20
410.6416465561924
 30
0.0
 40
8.717801077182686
100
AcDbArc
 50
146.5206905241543
 51
186.1472812129328
  0
LINE
  5
5B9
102
{ACAD_REACTORS
330
7AB
102
}
330
1E
100
AcDbEntity
  8
STEMPEL
100
AcDbLine
 10
257.5832799654356
 20
407.7968844178348
 30
0.0
 11
255.5832799654356
 21
407.7968844178348
 31
0.0
  0
ARC
  5
5BA
330
1E
100
AcDbEntity
  8
STEMPEL
100
AcDbCircle
 10
265.5832799654356
 20
421.7628918979666
 30
0.0
 40
8.0
100
AcDbArc
 50
145.698847243215
 51
180.0
  0
LWPOLYLINE
  5
5BB
330
1E
100
AcDbEntity
  8
STEMPEL
100
AcDbPolyline
 90
        2
 70
     0
 43
0.0
 10
253.5303113718831
 20
397.8706005111017
 42
-0.0012383684691459
 10
253.5304939475338
 20
397.7968844178349
 42
-0.0345269946857751
  0
LWPOLYLINE
  5
5BC
330
1E
100
AcDbEntity
  8
STEMPEL
100
AcDbPolyline
 90
        2
 70
     0
 43
0.0
 10
253.4259267469295
 20
399.5579507535267
 42
-0.0296624816723659
 10
253.5304939475338
 20
397.7968844178349
 42
-0.0345269946857751
  0
LINE
  5
5BD
102
{ACAD_REACTORS
330
7AB
102
}
330
1E
100
AcDbEntity
  8
STEMPEL
100
AcDbLine
 10
257.5832799654356
 20
407.7968844178348
 30
0.0
 11
257.5832799654356
 21
270.7095625320678
 31
0.0
  0
LINE
  5
5BE
330
1E
100
AcDbEntity
  8
STEMPEL
100
AcDbLine
 10
261.5832799654356
 20
450.2968844178349
 30
0.0
 11
261.5832799654356
 21
434.7243732947823
 31
0.0
  0
LINE
  5
5BF
330
1E
100
AcDbEntity
  8
STEMPEL
100
AcDbLine
 10
150.8765241275107
 20
497.7968844178349
 30
0.0
 11
262.2900358033605
 21
497.7968844178349
 31
0.0
  0
LINE
  5
5C0
330
1E
100
AcDbEntity
  8
STEMPEL
100
AcDbLine
 10
150.8765241275107
 20
497.7968844178349
 30
0.0
 11
149.9255852895194
 21
495.7575894987813
 31
0.0
  0
LINE
  5
5C1
330
1E
100
AcDbEntity
  8
STEMPEL
100
AcDbLine
 10
147.5832799654356
 20
485.1921329552637
 30
0.0
 11
147.5832799654356
 21
467.0298844178346
 31
0.0
  0
ARC
  5
5C2
330
1E
100
AcDbEntity
  8
STEMPEL
100
AcDbCircle
 10
172.5832799654356
 20
485.1921329552637
 30
0.0
 40
25.0
100
AcDbArc
 50
154.9999999999933
 51
180.0
  0
LINE
  5
5C3
330
1E
100
AcDbEntity
  8
MITTEL
100
AcDbLine
 10
206.5832799654359
 20
502.7968844178348
 30
0.0
 11
206.5832799654344
 21
257.7968844178332
 31
0.0
  0
LINE
  5
5C4
330
1E
100
AcDbEntity
  8
STEMPEL
100
AcDbLine
 10
262.2900358033605
 20
497.7968844178349
 30
0.0
 11
263.2409746413521
 21
495.7575894987813
 31
0.0
  0
LINE
  5
5C5
330
1E
100
AcDbEntity
  8
STEMPEL
100
AcDbLine
 10
265.5832799654356
 20
485.1921329552637
 30
0.0
 11
265.5832799654356
 21
467.0298844178346
 31
0.0
  0
ARC
  5
5C6
330
1E
100
AcDbEntity
  8
STEMPEL
100
AcDbCircle
 10
240.5832799654356
 20
485.1921329552637
 30
0.0
 40
25.0
100
AcDbArc
 50
0.0
 51
24.99999999997491
  0
LINE
  5
5C9
102
{ACAD_REACTORS
330
7AB
102
}
330
1E
100
AcDbEntity
  8
STEMPEL
100
AcDbLine
 10
255.5835020258309
 20
407.7977324666623
 30
0.0
 11
255.5839621763707
 21
270.8046821245557
 31
0.0
  0
LINE
  5
5CD
102
{ACAD_REACTORS
330
7AB
102
}
330
1E
100
AcDbEntity
  8
STEMPEL
100
AcDbLine
 10
157.5832799654365
 20
348.5248121059381
 30
0.0
 11
157.5832799654365
 21
270.7968844178349
 31
0.0
  0
LINE
  5
5CE
330
1E
100
AcDbEntity
  8
STEMPEL
100
AcDbLine
 10
155.5832799654365
 20
421.7628918979666
 30
0.0
 11
155.5832799654365
 21
417.3661943998645
 31
0.0
  0
LINE
  5
5D1
102
{ACAD_REACTORS
330
7AB
102
}
330
1E
100
AcDbEntity
  8
STEMPEL
100
AcDbLine
 10
156.2755495985572
 20
262.7968844178349
 30
0.0
 11
256.8910103323105
 21
262.796884417835
 31
0.0
  0
LINE
  5
5D3
330
1E
100
AcDbEntity
  8
HILF
100
AcDbLine
 10
159.5909196405232
 20
270.796884417835
 30
0.0
 11
253.5756402903445
 21
270.796884417835
 31
0.0
  0
LINE
  5
5D4
102
{ACAD_REACTORS
330
7AB
102
}
330
1E
100
AcDbEntity
  8
STEMPEL
100
AcDbLine
 10
157.5832799654365
 20
270.796884417835
 30
0.0
 11
158.2831892736439
 21
262.796884417835
 31
0.0
  0
LINE
  5
5D6
102
{ACAD_REACTORS
330
7AB
102
}
330
1E
100
AcDbEntity
  8
STEMPEL
100
AcDbLine
 10
155.5832799654366
 20
270.7095625320163
 30
0.0
 11
156.2755495985572
 21
262.7968844178349
 31
0.0
  0
LINE
  5
5D8
102
{ACAD_REACTORS
330
7AB
102
}
330
1E
100
AcDbEntity
  8
STEMPEL
100
AcDbLine
 10
257.5839623695328
 20
270.7173624465893
 30
0.0
 11
256.8910103323105
 21
262.796884417835
 31
0.0
  0
LINE
  5
5D9
102
{ACAD_REACTORS
330
7AB
102
}
330
1E
100
AcDbEntity
  8
STEMPEL
100
AcDbLine
 10
255.5839621763707
 20
270.8046821245557
 30
0.0
 11
254.8833706572237
 21
262.796884417835
 31
0.0
  0
DIMENSION
  5
5E8
330
1E
100
AcDbEntity
  8
BEM
100
AcDbDimension
  2
*D3
 10
124.4680499062342
 20
262.7968844178357
 30
0.0
 11
117.9680499062341
 21
380.2968844178356
 31
0.0
 70
    32
 71
     5
 42
235.0
  3
Standard
100
AcDbAlignedDimension
 13
150.8765241275111
 23
497.7968844178356
 33
0.0
 14
156.2755495985571
 24
262.7968844178356
 34
0.0
 50
90.0
100
AcDbRotatedDimension
1001
ACAD
1000
DSTYLE
1002
{
1070
    40
1040
2.0
1070
    41
1040
3.5
1070
    42
1040
1.0
1070
    43
1040
7.0
1070
    44
1040
1.0
1070
    73
1070
     0
1070
    74
1070
     0
1070
    77
1070
     1
1070
    78
1070
     8
1070
    79
1070
     2
1070
   140
1040
3.5
1070
   141
1040
1.5
1070
   146
1040
0.5142857142857144
1070
   147
1040
1.5
1070
   172
1070
     1
1070
   178
1070
     1
1070
   179
1070
     2
1070
   271
1070
     2
1070
   272
1070
     2
1070
   284
1070
     8
1070
   285
1070
     8
1070
   286
1070
     8
1002
}
  0
DIMENSION
  5
5FD
330
1E
100
AcDbEntity
  8
BEM
100
AcDbDimension
  2
*D4
 10
257.5839623695328
 20
243.1289882388687
 30
0.0
 11
206.5836211674847
 21
249.6289882388687
 31
0.0
 70
    32
  1
%%c<>
 71
     5
 42
102.0006824040961
  3
Standard
100
AcDbAlignedDimension
 13
155.5832799654366
 23
270.7095625320163
 33
0.0
 14
257.5839623695328
 24
270.7173624465893
 34
0.0
100
AcDbRotatedDimension
1001
ACAD
1000
DSTYLE
1002
{
1070
    40
1040
2.0
1070
    41
1040
3.5
1070
    42
1040
1.0
1070
    43
1040
7.0
1070
    44
1040
1.0
1070
    73
1070
     0
1070
    74
1070
     0
1070
    77
1070
     1
1070
    78
1070
     8
1070
    79
1070
     2
1070
   140
1040
3.5
1070
   141
1040
1.5
1070
   146
1040
0.5142857142857144
1070
   147
1040
1.5
1070
   172
1070
     1
1070
   178
1070
     1
1070
   179
1070
     2
1070
   271
1070
     2
1070
   272
1070
     2
1070
   284
1070
     8
1070
   285
1070
     8
1070
   286
1070
     8
1002
}
  0
LINE
  5
62F
102
{ACAD_REACTORS
330
7AB
102
}
330
1E
100
AcDbEntity
  8
STEMPEL
100
AcDbLine
 10
155.5832799654365
 20
407.7968844178349
 30
0.0
 11
155.5832799654366
 21
270.7095625320163
 31
0.0
  0
TEXT
  5
669
330
1E
100
AcDbEntity
  8
TEXT
 62
     1
100
AcDbText
 10
201.6897570091476
 20
458.3558554538472
 30
0.0
 40
7.0
  1
DN100
 50
90.0
 41
0.8
  7
GREEKS
100
AcDbText
  0
LINE
  5
6C8
102
{ACAD_REACTORS
330
7AB
102
}
330
1E
100
AcDbEntity
  8
TEXT
 62
     2
100
AcDbLine
 10
278.5311067780804
 20
307.3792945713605
 30
0.0
 11
226.6194071012053
 21
357.4361078742049
 31
0.0
  0
LINE
  5
6C9
330
1E
100
AcDbEntity
  8
TEXT
 62
     2
100
AcDbLine
 10
278.5311067780804
 20
307.3792945713605
 30
0.0
 11
391.1434752188323
 21
307.3792945713605
 31
0.0
  0
TEXT
  5
6CA
330
1E
100
AcDbEntity
  8
TEXT
 62
     1
100
AcDbText
 10
278.4833678484509
 20
310.3379859789574
 30
0.0
 40
7.0
  1
15 x auf Umfang verteilt
 41
0.8
  7
GREEKS
100
AcDbText
  0
TEXT
  5
75E
330
1E
100
AcDbEntity
  8
TEXT
 62
     1
100
AcDbText
 10
234.6057658946468
 20
129.0783465745483
 30
0.0
 40
7.0
  1
und innen beschichtet
 41
0.8
  7
GREEKS
100
AcDbText
  0
TEXT
  5
75F
330
1E
100
AcDbEntity
  8
TEXT
 62
     1
100
AcDbText
 10
186.6560484572489
 20
139.8004583895517
 30
0.0
 40
7.0
  1
Werkstoff: E195 EN10305 feuerverzinkt
 41
0.8
  7
GREEKS
100
AcDbText
  0
HATCH
  5
7AB
330
1E
100
AcDbEntity
  8
SCHRAFF
100
AcDbHatch
 10
0.0
 20
0.0
 30
0.0
210
0.0
220
0.0
230
1.0
  2
_USER
 70
     0
 71
     1
 91
        3
 92
        7
 72
     0
 73
     1
 93
        4
 10
257.5832799654356
 20
407.7968844178348
 10
255.5835020286794
 20
407.7968844178348
 10
255.5837650002263
 20
329.5066918694747
 10
257.5832799654356
 20
327.5786227071715
 97
        4
330
5B9
330
5C9
330
6C8
330
5BD
 92
        7
 72
     0
 73
     1
 93
        6
 10
157.5832799654365
 20
348.5248121059382
 10
155.5832799654366
 20
348.9102767661332
 10
155.5832799654366
 20
270.7095625320166
 10
156.2755495985571
 20
262.7968844178349
 10
158.2831892736439
 20
262.7968844178349
 10
157.5832799654365
 20
270.7968844178347
 97
        6
330
54F
330
62F
330
5D6
330
5D1
330
5D4
330
5CD
 92
        7
 72
     0
 73
     1
 93
        6
 10
255.5839621763707
 20
270.8046821245556
 10
254.8833706572237
 20
262.796884417835
 10
256.8910103323105
 20
262.7968844178351
 10
257.5832799654356
 20
270.7095625320676
 10
257.5832799654356
 20
327.5786227071715
 10
255.5837650002263
 20
329.5066918694746
 97
        6
330
6C8
330
5C9
330
5D9
330
5D1
330
5D8
330
5BD
 75
     0
 76
     0
 52
45.0
 41
2.0
 77
     0
 78
     1
 53
45.0
 43
0.0
 44
-32.21564969358837
 45
-1.414213562373094
 46
1.414213562373095
 79
     0
 47
0.3526254050265461
 98
        3
 10
256.591454437656
 20
360.4248098350629
 10
156.744336232809
 20
326.9253958652941
 10
256.2386379304267
 20
302.5942422668213
  0
TEXT
  5
81B
330
1E
100
AcDbEntity
  8
TEXT
 62
     1
100
AcDbText
 10
285.6824980886007
 20
251.1652247536546
 30
0.0
 40
7.0
  1
Rohreneden eingezogen
 41
0.8
  7
GREEKS
100
AcDbText
  0
ENDSEC
  0
SECTION
  2
OBJECTS
  0
DICTIONARY
  5
C
330
0
100
AcDbDictionary
281
     1
  3
ACAD_COLOR
350
DF
  3
ACAD_GROUP
350
D
  3
ACAD_LAYOUT
350
19
  3
ACAD_MATERIAL
350
DE
  3
ACAD_MLINESTYLE
350
16
  3
ACAD_PLOTSETTINGS
350
18
  3
ACAD_PLOTSTYLENAME
350
E
  3
AcDbVariableDictionary
350
EA
  0
DICTIONARY
  5
A0
330
1E
100
AcDbDictionary
280
     1
281
     1
  3
ACAD_LAYOUTSELFREF
360
D4
  0
DICTIONARY
  5
A2
330
1A
100
AcDbDictionary
280
     1
281
     1
  3
ACAD_LAYOUTSELFREF
360
D3
  0
DICTIONARY
  5
DF
102
{ACAD_REACTORS
330
C
102
}
330
C
100
AcDbDictionary
281
     1
  0
DICTIONARY
  5
D
102
{ACAD_REACTORS
330
C
102
}
330
C
100
AcDbDictionary
281
     1
  0
DICTIONARY
  5
19
102
{ACAD_REACTORS
330
C
102
}
330
C
100
AcDbDictionary
281
     1
  3
Layout1
350
1D
  3
Model
350
21
  0
DICTIONARY
  5
DE
102
{ACAD_REACTORS
330
C
102
}
330
C
100
AcDbDictionary
281
     1
  0
DICTIONARY
  5
16
102
{ACAD_REACTORS
330
C
102
}
330
C
100
AcDbDictionary
281
     1
  3
Standard
350
17
  0
DICTIONARY
  5
18
102
{ACAD_REACTORS
330
C
102
}
330
C
100
AcDbDictionary
281
     1
  0
ACDBDICTIONARYWDFLT
  5
E
102
{ACAD_REACTORS
330
C
102
}
330
C
100
AcDbDictionary
281
     1
  3
Normal
350
F
100
AcDbDictionaryWithDefault
340
F
  0
DICTIONARY
  5
EA
102
{ACAD_REACTORS
330
C
102
}
330
C
100
AcDbDictionary
281
     1
  3
DIMASSOC
350
EB
  3
PROJECTNAME
350
EC
  0
XRECORD
  5
D4
102
{ACAD_REACTORS
330
A0
102
}
330
A0
100
AcDbXrecord
280
     1
340
1E
  0
XRECORD
  5
D3
102
{ACAD_REACTORS
330
A2
102
}
330
A2
100
AcDbXrecord
280
     1
340
1A
  0
LAYOUT
  5
1D
102
{ACAD_REACTORS
330
19
102
}
330
19
100
AcDbPlotSettings
  1

  2
\\NT_WORK01\HP LaserJet 5000 PCL 6
  4

  6

 40
0.0
 41
0.0
 42
0.0
 43
0.0
 44
0.0
 45
0.0
 46
0.0
 47
0.0
 48
0.0
 49
0.0
140
0.0
141
0.0
142
1.0
143
1.0
 70
   688
 72
     0
 73
     0
 74
     5
  7

 75
    16
147
1.0
 76
     0
 77
     2
 78
   300
148
0.0
149
0.0
100
AcDbLayout
  1
Layout1
 70
     0
 71
     1
 10
0.0
 20
0.0
 11
12.0
 21
9.0
 12
0.0
 22
0.0
 32
0.0
 14
1.000000000000000E+20
 24
1.000000000000000E+20
 34
1.000000000000000E+20
 15
-1.000000000000000E+20
 25
-1.000000000000000E+20
 35
-1.000000000000000E+20
146
0.0
 13
0.0
 23
0.0
 33
0.0
 16
1.0
 26
0.0
 36
0.0
 17
0.0
 27
1.0
 37
0.0
 76
     0
330
1A
  0
LAYOUT
  5
21
102
{ACAD_REACTORS
330
19
102
}
330
19
100
AcDbPlotSettings
  1

  2
none_device
  4
Letter_(8.50_x_11.00_Inches)
  6

 40
6.349999904632568
 41
6.349999904632568
 42
6.350006103515625
 43
6.350006103515625
 44
215.8999938964844
 45
279.3999938964844
 46
0.0
 47
0.0
 48
0.0
 49
0.0
140
0.0
141
0.0
142
1.0
143
1.0
 70
 11952
 72
     0
 73
     1
 74
     0
  7

 75
     0
147
1.0
 76
     0
 77
     2
 78
   300
148
2286.954945891457
149
77.15490472852401
100
AcDbLayout
  1
Model
 70
     1
 71
     0
 10
0.0
 20
0.0
 11
12.0
 21
9.0
 12
0.0
 22
0.0
 32
0.0
 14
0.0
 24
0.0
 34
0.0
 15
0.0
 25
0.0
 35
0.0
146
0.0
 13
0.0
 23
0.0
 33
0.0
 16
1.0
 26
0.0
 36
0.0
 17
0.0
 27
1.0
 37
0.0
 76
     0
330
1E
  0
MLINESTYLE
  5
17
102
{ACAD_REACTORS
330
16
102
}
330
16
100
AcDbMlineStyle
  2
STANDARD
 70
     0
  3

 62
   256
 51
90.0
 52
90.0
 71
     2
 49
0.5
 62
   256
  6
BYLAYER
 49
-0.5
 62
   256
  6
BYLAYER
  0
ACDBPLACEHOLDER
  5
F
102
{ACAD_REACTORS
330
E
102
}
330
E
  0
DICTIONARYVAR
  5
EB
102
{ACAD_REACTORS
330
EA
102
}
330
EA
100
DictionaryVariables
280
     0
  1
1
  0
DICTIONARYVAR
  5
EC
102
{ACAD_REACTORS
330
EA
102
}
330
EA
100
DictionaryVariables
280
     0
  1

  0
ENDSEC
  0
EOF
