  0
SECTION
  2
HEADER
  9
$ACADVER
  1
AC1018
  9
$ACADMAINTVER
 70
     2
  9
$DWGCODEPAGE
  3
ANSI_1252
  9
$INSBASE
 10
0.0
 20
0.0
 30
0.0
  9
$EXTMIN
 10
-0.0160161050886245
 20
-0.0226513486255726
 30
-0.0000000000000053
  9
$EXTMAX
 10
210.0000024450054
 20
297.000003457936
 30
0.0000000000000099
  9
$LIMMIN
 10
0.0
 20
0.0
  9
$LIMMAX
 10
210.0
 20
297.0
  9
$ORTHOMODE
 70
     1
  9
$REGENMODE
 70
     1
  9
$FILLMODE
 70
     1
  9
$QTEXTMODE
 70
     0
  9
$MIRRTEXT
 70
     1
  9
$LTSCALE
 40
10.0
  9
$ATTMODE
 70
     1
  9
$TEXTSIZE
 40
3.5
  9
$TRACEWID
 40
0.5
  9
$TEXTSTYLE
  7
STANDARD
  9
$CLAYER
  8
VOLL
  9
$CELTYPE
  6
ByLayer
  9
$CECOLOR
 62
   256
  9
$CELTSCALE
 40
1.0
  9
$DISPSILH
 70
     0
  9
$DIMSCALE
 40
1.0
  9
$DIMASZ
 40
3.5
  9
$DIMEXO
 40
1.0
  9
$DIMDLI
 40
7.0
  9
$DIMRND
 40
0.0
  9
$DIMDLE
 40
0.0
  9
$DIMEXE
 40
1.0
  9
$DIMTP
 40
0.0
  9
$DIMTM
 40
0.0
  9
$DIMTXT
 40
3.5
  9
$DIMCEN
 40
1.5
  9
$DIMTSZ
 40
0.0
  9
$DIMTOL
 70
     0
  9
$DIMLIM
 70
     0
  9
$DIMTIH
 70
     0
  9
$DIMTOH
 70
     0
  9
$DIMSE1
 70
     0
  9
$DIMSE2
 70
     0
  9
$DIMTAD
 70
     1
  9
$DIMZIN
 70
     8
  9
$DIMBLK
  1

  9
$DIMASO
 70
     1
  9
$DIMSHO
 70
     0
  9
$DIMPOST
  1

  9
$DIMAPOST
  1

  9
$DIMALT
 70
     0
  9
$DIMALTD
 70
     2
  9
$DIMALTF
 40
25.4
  9
$DIMLFAC
 40
1.0
  9
$DIMTOFL
 70
     1
  9
$DIMTVP
 40
0.0
  9
$DIMTIX
 70
     0
  9
$DIMSOXD
 70
     0
  9
$DIMSAH
 70
     0
  9
$DIMBLK1
  1

  9
$DIMBLK2
  1

  9
$DIMSTYLE
  2
Standard
  9
$DIMCLRD
 70
     0
  9
$DIMCLRE
 70
     0
  9
$DIMCLRT
 70
     1
  9
$DIMTFAC
 40
0.5142857142857144
  9
$DIMGAP
 40
1.5
  9
$DIMJUST
 70
     0
  9
$DIMSD1
 70
     0
  9
$DIMSD2
 70
     0
  9
$DIMTOLJ
 70
     1
  9
$DIMTZIN
 70
     8
  9
$DIMALTZ
 70
     8
  9
$DIMALTTZ
 70
     8
  9
$DIMUPT
 70
     0
  9
$DIMDEC
 70
     2
  9
$DIMTDEC
 70
     2
  9
$DIMALTU
 70
     2
  9
$DIMALTTD
 70
     2
  9
$DIMTXSTY
  7
STANDARD
  9
$DIMAUNIT
 70
     0
  9
$DIMADEC
 70
     2
  9
$DIMALTRND
 40
0.0
  9
$DIMAZIN
 70
     2
  9
$DIMDSEP
 70
    46
  9
$DIMATFIT
 70
     3
  9
$DIMFRAC
 70
     0
  9
$DIMLDRBLK
  1

  9
$DIMLUNIT
 70
     2
  9
$DIMLWD
 70
    -2
  9
$DIMLWE
 70
    -2
  9
$DIMTMOVE
 70
     0
  9
$LUNITS
 70
     2
  9
$LUPREC
 70
     2
  9
$SKETCHINC
 40
1.0
  9
$FILLETRAD
 40
0.0
  9
$AUNITS
 70
     0
  9
$AUPREC
 70
     0
  9
$MENU
  1
ACAD
  9
$ELEVATION
 40
0.0
  9
$PELEVATION
 40
0.0
  9
$THICKNESS
 40
0.0
  9
$LIMCHECK
 70
     0
  9
$CHAMFERA
 40
0.0
  9
$CHAMFERB
 40
0.0
  9
$CHAMFERC
 40
0.0
  9
$CHAMFERD
 40
0.0
  9
$SKPOLY
 70
     0
  9
$TDCREATE
 40
2455397.864709028
  9
$TDUCREATE
 40
2455397.781375695
  9
$TDUPDATE
 40
2455460.441105382
  9
$TDUUPDATE
 40
2455460.357772049
  9
$TDINDWG
 40
0.0270826852
  9
$TDUSRTIMER
 40
0.0270826852
  9
$USRTIMER
 70
     1
  9
$ANGBASE
 50
0.0
  9
$ANGDIR
 70
     0
  9
$PDMODE
 70
     0
  9
$PDSIZE
 40
0.0
  9
$PLINEWID
 40
0.0
  9
$SPLFRAME
 70
     0
  9
$SPLINETYPE
 70
     6
  9
$SPLINESEGS
 70
     8
  9
$HANDSEED
  5
653
  9
$SURFTAB1
 70
     6
  9
$SURFTAB2
 70
     6
  9
$SURFTYPE
 70
     6
  9
$SURFU
 70
     6
  9
$SURFV
 70
     6
  9
$UCSBASE
  2

  9
$UCSNAME
  2

  9
$UCSORG
 10
0.0
 20
0.0
 30
0.0
  9
$UCSXDIR
 10
1.0
 20
0.0
 30
0.0
  9
$UCSYDIR
 10
0.0
 20
1.0
 30
0.0
  9
$UCSORTHOREF
  2

  9
$UCSORTHOVIEW
 70
     0
  9
$UCSORGTOP
 10
0.0
 20
0.0
 30
0.0
  9
$UCSORGBOTTOM
 10
0.0
 20
0.0
 30
0.0
  9
$UCSORGLEFT
 10
0.0
 20
0.0
 30
0.0
  9
$UCSORGRIGHT
 10
0.0
 20
0.0
 30
0.0
  9
$UCSORGFRONT
 10
0.0
 20
0.0
 30
0.0
  9
$UCSORGBACK
 10
0.0
 20
0.0
 30
0.0
  9
$PUCSBASE
  2

  9
$PUCSNAME
  2

  9
$PUCSORG
 10
0.0
 20
0.0
 30
0.0
  9
$PUCSXDIR
 10
1.0
 20
0.0
 30
0.0
  9
$PUCSYDIR
 10
0.0
 20
1.0
 30
0.0
  9
$PUCSORTHOREF
  2

  9
$PUCSORTHOVIEW
 70
     0
  9
$PUCSORGTOP
 10
0.0
 20
0.0
 30
0.0
  9
$PUCSORGBOTTOM
 10
0.0
 20
0.0
 30
0.0
  9
$PUCSORGLEFT
 10
0.0
 20
0.0
 30
0.0
  9
$PUCSORGRIGHT
 10
0.0
 20
0.0
 30
0.0
  9
$PUCSORGFRONT
 10
0.0
 20
0.0
 30
0.0
  9
$PUCSORGBACK
 10
0.0
 20
0.0
 30
0.0
  9
$USERI1
 70
     0
  9
$USERI2
 70
     0
  9
$USERI3
 70
     0
  9
$USERI4
 70
     0
  9
$USERI5
 70
     0
  9
$USERR1
 40
0.0
  9
$USERR2
 40
0.0
  9
$USERR3
 40
0.0
  9
$USERR4
 40
0.0
  9
$USERR5
 40
0.0
  9
$WORLDVIEW
 70
     1
  9
$SHADEDGE
 70
     3
  9
$SHADEDIF
 70
    70
  9
$TILEMODE
 70
     1
  9
$MAXACTVP
 70
    16
  9
$PINSBASE
 10
0.0
 20
0.0
 30
0.0
  9
$PLIMCHECK
 70
     0
  9
$PEXTMIN
 10
1.000000000000000E+20
 20
1.000000000000000E+20
 30
1.000000000000000E+20
  9
$PEXTMAX
 10
-1.000000000000000E+20
 20
-1.000000000000000E+20
 30
-1.000000000000000E+20
  9
$PLIMMIN
 10
0.0
 20
0.0
  9
$PLIMMAX
 10
12.0
 20
9.0
  9
$UNITMODE
 70
     0
  9
$VISRETAIN
 70
     0
  9
$PLINEGEN
 70
     0
  9
$PSLTSCALE
 70
     0
  9
$TREEDEPTH
 70
  3020
  9
$CMLSTYLE
  2
Standard
  9
$CMLJUST
 70
     0
  9
$CMLSCALE
 40
1.0
  9
$PROXYGRAPHICS
 70
     1
  9
$MEASUREMENT
 70
     0
  9
$CELWEIGHT
370
    -1
  9
$ENDCAPS
280
     0
  9
$JOINSTYLE
280
     0
  9
$LWDISPLAY
290
     0
  9
$INSUNITS
 70
     0
  9
$HYPERLINKBASE
  1

  9
$STYLESHEET
  1
monochrome 1.ctb
  9
$XEDIT
290
     1
  9
$CEPSNTYPE
380
     0
  9
$PSTYLEMODE
290
     1
  9
$FINGERPRINTGUID
  2
{D68B0D02-A558-11D7-B632-000102183313}
  9
$VERSIONGUID
  2
{B3EB927E-74B9-4048-A6BE-0AF0A14097E9}
  9
$EXTNAMES
290
     1
  9
$PSVPSCALE
 40
0.0
  9
$OLESTARTUP
290
     0
  9
$SORTENTS
280
   127
  9
$INDEXCTL
280
     0
  9
$HIDETEXT
280
     0
  9
$XCLIPFRAME
290
     0
  9
$HALOGAP
280
     0
  9
$OBSCOLOR
 70
   257
  9
$OBSLTYPE
280
     0
  9
$INTERSECTIONDISPLAY
280
     0
  9
$INTERSECTIONCOLOR
 70
   257
  9
$DIMASSOC
280
     1
  9
$PROJECTNAME
  1

  0
ENDSEC
  0
SECTION
  2
CLASSES
  0
CLASS
  1
ACDBDICTIONARYWDFLT
  2
AcDbDictionaryWithDefault
  3
ObjectDBX Classes
 90
        0
 91
        1
280
     0
281
     0
  0
CLASS
  1
DICTIONARYVAR
  2
AcDbDictionaryVar
  3
ObjectDBX Classes
 90
        0
 91
        2
280
     0
281
     0
  0
ENDSEC
  0
SECTION
  2
TABLES
  0
TABLE
  2
VPORT
  5
8
330
0
100
AcDbSymbolTable
 70
     2
  0
VPORT
  5
652
330
8
100
AcDbSymbolTableRecord
100
AcDbViewportTableRecord
  2
*Active
 70
     0
 10
0.0
 20
0.0
 11
1.0
 21
1.0
 12
104.9919931699583
 22
148.4886760546552
 13
0.0
 23
0.0
 14
1.0
 24
1.0
 15
10.0
 25
10.0
 16
0.0
 26
0.0
 36
1.0
 17
0.0
 27
0.0
 37
0.0
 40
299.4212226784854
 41
1.336927223719676
 42
50.0
 43
0.0
 44
0.0
 50
0.0
 51
0.0
 71
     0
 72
  1500
 73
     1
 74
     0
 75
     0
 76
     0
 77
     0
 78
     0
281
     0
 65
     1
110
0.0
120
0.0
130
0.0
111
1.0
121
0.0
131
0.0
112
0.0
122
1.0
132
0.0
 79
     0
146
0.0
  0
ENDTAB
  0
TABLE
  2
LTYPE
  5
5
330
0
100
AcDbSymbolTable
 70
     3
  0
LTYPE
  5
13
330
5
100
AcDbSymbolTableRecord
100
AcDbLinetypeTableRecord
  2
ByBlock
 70
     0
  3

 72
    65
 73
     0
 40
0.0
  0
LTYPE
  5
14
330
5
100
AcDbSymbolTableRecord
100
AcDbLinetypeTableRecord
  2
ByLayer
 70
     0
  3

 72
    65
 73
     0
 40
0.0
  0
LTYPE
  5
15
330
5
100
AcDbSymbolTableRecord
100
AcDbLinetypeTableRecord
  2
Continuous
 70
     0
  3
Solid line
 72
    65
 73
     0
 40
0.0
  0
LTYPE
  5
25
330
5
100
AcDbSymbolTableRecord
100
AcDbLinetypeTableRecord
  2
STRICHPUNKT
 70
     0
  3
__ . __ . __ . __ . __ . __ . __ . __ . __ . __
 72
    65
 73
     4
 40
1.0
 49
0.5
 74
     0
 49
-0.25
 74
     0
 49
0.0
 74
     0
 49
-0.25
 74
     0
  0
LTYPE
  5
26
330
5
100
AcDbSymbolTableRecord
100
AcDbLinetypeTableRecord
  2
VERDECKT
 70
     0
  3
_ _ _ _ _ _ _ _ _ _ _ _ _ _ _ _ _ _ _ _ _ _ _
 72
    65
 73
     2
 40
0.375
 49
0.25
 74
     0
 49
-0.125
 74
     0
  0
ENDTAB
  0
TABLE
  2
LAYER
  5
2
330
0
100
AcDbSymbolTable
 70
    10
  0
LAYER
  5
10
330
2
100
AcDbSymbolTableRecord
100
AcDbLayerTableRecord
  2
0
 70
     0
 62
     7
  6
Continuous
370
    -3
390
F
  0
LAYER
  5
2A
330
2
100
AcDbSymbolTableRecord
100
AcDbLayerTableRecord
  2
VOLL
 70
     0
 62
     1
  6
Continuous
370
    -3
390
F
  0
LAYER
  5
2B
330
2
100
AcDbSymbolTableRecord
100
AcDbLayerTableRecord
  2
HILF
 70
     0
 62
     2
  6
Continuous
370
    -3
390
F
  0
LAYER
  5
2C
330
2
100
AcDbSymbolTableRecord
100
AcDbLayerTableRecord
  2
MITTEL
 70
     0
 62
     2
  6
STRICHPUNKT
370
    -3
390
F
  0
LAYER
  5
2D
330
2
100
AcDbSymbolTableRecord
100
AcDbLayerTableRecord
  2
VERDECKT
 70
     0
 62
     6
  6
VERDECKT
370
    -3
390
F
  0
LAYER
  5
2F
330
2
100
AcDbSymbolTableRecord
100
AcDbLayerTableRecord
  2
BEM
 70
     0
 62
     7
  6
Continuous
370
    -3
390
F
  0
LAYER
  5
30
330
2
100
AcDbSymbolTableRecord
100
AcDbLayerTableRecord
  2
STEMPEL
 70
     0
 62
     3
  6
Continuous
370
    -3
390
F
  0
LAYER
  5
31
330
2
100
AcDbSymbolTableRecord
100
AcDbLayerTableRecord
  2
TEXT
 70
     0
 62
     7
  6
Continuous
370
    -3
390
F
  0
LAYER
  5
288
330
2
100
AcDbSymbolTableRecord
100
AcDbLayerTableRecord
  2
SCHRAFF
 70
     0
 62
     7
  6
Continuous
370
    -3
390
F
  0
LAYER
  5
289
330
2
100
AcDbSymbolTableRecord
100
AcDbLayerTableRecord
  2
DEFPOINTS
 70
     0
 62
     7
  6
Continuous
290
     0
370
    -3
390
F
  0
ENDTAB
  0
TABLE
  2
STYLE
  5
3
330
0
100
AcDbSymbolTable
 70
     2
  0
STYLE
  5
11
330
3
100
AcDbSymbolTableRecord
100
AcDbTextStyleTableRecord
  2
STANDARD
 70
     0
 40
0.0
 41
0.8
 50
0.0
 71
     0
 42
3.5
  3
simplex.shx
  4

  0
STYLE
  5
24
330
3
100
AcDbSymbolTableRecord
100
AcDbTextStyleTableRecord
  2
GREEKS
 70
     0
 40
0.0
 41
0.8
 50
0.0
 71
     0
 42
2.5
  3
SIMPLEX.shx
  4

  0
ENDTAB
  0
TABLE
  2
VIEW
  5
6
330
0
100
AcDbSymbolTable
 70
     0
  0
ENDTAB
  0
TABLE
  2
UCS
  5
7
330
0
100
AcDbSymbolTable
 70
     0
  0
ENDTAB
  0
TABLE
  2
APPID
  5
9
330
0
100
AcDbSymbolTable
 70
     1
  0
APPID
  5
12
330
9
100
AcDbSymbolTableRecord
100
AcDbRegAppTableRecord
  2
ACAD
 70
     0
  0
ENDTAB
  0
TABLE
  2
DIMSTYLE
  5
A
330
0
100
AcDbSymbolTable
 70
     1
100
AcDbDimStyleTable
 71
     1
340
9D
  0
DIMSTYLE
105
9D
102
{ACAD_REACTORS
330
383
330
34A
330
345
330
336
102
}
330
A
100
AcDbSymbolTableRecord
100
AcDbDimStyleTableRecord
  2
Standard
 70
     0
340
11
  0
ENDTAB
  0
TABLE
  2
BLOCK_RECORD
  5
1
330
0
100
AcDbSymbolTable
 70
     5
  0
BLOCK_RECORD
  5
1E
102
{ACAD_XDICTIONARY
360
A0
102
}
330
1
100
AcDbSymbolTableRecord
100
AcDbBlockTableRecord
  2
*Model_Space
340
21
  0
BLOCK_RECORD
  5
1A
102
{ACAD_XDICTIONARY
360
A2
102
}
330
1
100
AcDbSymbolTableRecord
100
AcDbBlockTableRecord
  2
*Paper_Space
340
1D
  0
BLOCK_RECORD
  5
22
330
1
100
AcDbSymbolTableRecord
100
AcDbBlockTableRecord
  2
LOGO
340
0
102
{BLKREFS
331
9B
102
}
  0
BLOCK_RECORD
  5
3C8
330
1
100
AcDbSymbolTableRecord
100
AcDbBlockTableRecord
  2
*D1
340
0
  0
BLOCK_RECORD
  5
3D4
330
1
100
AcDbSymbolTableRecord
100
AcDbBlockTableRecord
  2
*D2
340
0
  0
BLOCK_RECORD
  5
3E2
330
1
100
AcDbSymbolTableRecord
100
AcDbBlockTableRecord
  2
*D3
340
0
  0
BLOCK_RECORD
  5
420
330
1
100
AcDbSymbolTableRecord
100
AcDbBlockTableRecord
  2
*D4
340
0
  0
ENDTAB
  0
ENDSEC
  0
SECTION
  2
BLOCKS
  0
BLOCK
  5
35
330
1E
100
AcDbEntity
  8
0
100
AcDbBlockBegin
  2
*Model_Space
 70
     0
 10
0.0
 20
0.0
 30
0.0
  3
*Model_Space
  1

  0
ENDBLK
  5
36
330
1E
100
AcDbEntity
  8
0
100
AcDbBlockEnd
  0
BLOCK
  5
33
330
1A
100
AcDbEntity
 67
     1
  8
0
100
AcDbBlockBegin
  2
*Paper_Space
 70
     0
 10
0.0
 20
0.0
 30
0.0
  3
*Paper_Space
  1

  0
ENDBLK
  5
34
330
1A
100
AcDbEntity
 67
     1
  8
0
100
AcDbBlockEnd
  0
BLOCK
  5
37
330
22
100
AcDbEntity
  8
0
100
AcDbBlockBegin
  2
LOGO
 70
     0
 10
0.0
 20
0.0
 30
0.0
  3
LOGO
  1

  0
ARC
  5
38
330
22
100
AcDbEntity
  8
0
100
AcDbCircle
 10
11.59973089678112
 20
-9.271599258481501
 30
0.0
 40
4.5
100
AcDbArc
 50
270.0
 51
231.0575587310159
  0
LINE
  5
39
330
22
100
AcDbEntity
  8
0
100
AcDbLine
 10
3.599730896781125
 20
-4.771599258481529
 30
0.0
 11
3.599730896781153
 21
-11.77159925848133
 31
0.0
  0
LINE
  5
3A
330
22
100
AcDbEntity
  8
0
100
AcDbLine
 10
2.599730896781125
 20
-4.771599258481529
 30
0.0
 11
2.599730896781153
 21
-11.77159925848133
 31
0.0
  0
CIRCLE
  5
3B
330
22
100
AcDbEntity
  8
0
100
AcDbCircle
 10
11.59973089678112
 20
-9.271599258481501
 30
0.0
 40
3.5
  0
ARC
  5
3C
330
22
100
AcDbEntity
  8
0
100
AcDbCircle
 10
31.59973089678115
 20
-9.271599258481472
 30
0.0
 40
4.5
100
AcDbArc
 50
270.0
 51
231.0575587310182
  0
LINE
  5
3D
330
22
100
AcDbEntity
  8
0
100
AcDbLine
 10
17.59973089678112
 20
-4.771599258481472
 30
0.0
 11
17.59973089678115
 21
-13.77159925848147
 31
0.0
  0
ARC
  5
3E
330
22
100
AcDbEntity
  8
0
100
AcDbCircle
 10
22.59973089678116
 20
-7.271599258481472
 30
0.0
 40
2.5
100
AcDbArc
 50
293.1161887722295
 51
90.0
  0
CIRCLE
  5
3F
330
22
100
AcDbEntity
  8
0
100
AcDbCircle
 10
31.59973089678115
 20
-9.271599258481472
 30
0.0
 40
3.5
  0
ARC
  5
40
330
22
100
AcDbEntity
  8
0
100
AcDbCircle
 10
4.599730896781153
 20
-11.77159925848133
 30
0.0
 40
1.0
100
AcDbArc
 50
180.0
 51
270.0
  0
ARC
  5
41
330
22
100
AcDbEntity
  8
0
100
AcDbCircle
 10
4.599730896781153
 20
-11.77159925848133
 30
0.0
 40
2.0
100
AcDbArc
 50
179.9999999999992
 51
270.0
  0
LINE
  5
42
330
22
100
AcDbEntity
  8
0
100
AcDbLine
 10
11.59973089678115
 20
-13.77159925848144
 30
0.0
 11
4.599730896781153
 21
-13.77159925848147
 31
0.0
  0
LINE
  5
43
330
22
100
AcDbEntity
  8
0
100
AcDbLine
 10
8.771303772034769
 20
-12.77159925848136
 30
0.0
 11
4.599730896781153
 21
-12.77159925848133
 31
0.0
  0
LINE
  5
44
330
22
100
AcDbEntity
  8
0
100
AcDbLine
 10
31.59973089678115
 20
-13.77159925848147
 30
0.0
 11
23.6715276665056
 21
-13.77159925848144
 31
0.0
  0
LINE
  5
45
330
22
100
AcDbEntity
  8
0
100
AcDbLine
 10
23.56565672307022
 20
-9.51278021337896
 30
0.0
 11
24.4388546544846
 21
-12.77159925848144
 31
0.0
  0
LINE
  5
46
330
22
100
AcDbEntity
  8
0
100
AcDbLine
 10
22.59973089678116
 20
-9.771599258481472
 30
0.0
 11
18.59973089678112
 21
-9.771599258481472
 31
0.0
  0
LINE
  5
47
330
22
100
AcDbEntity
  8
0
100
AcDbLine
 10
18.59973089678115
 20
-13.77159925848144
 30
0.0
 11
17.59973089678115
 21
-13.77159925848144
 31
0.0
  0
LINE
  5
48
330
22
100
AcDbEntity
  8
0
100
AcDbLine
 10
18.59973089678115
 20
-9.771599258481472
 30
0.0
 11
18.59973089678115
 21
-13.77159925848144
 31
0.0
  0
LINE
  5
49
330
22
100
AcDbEntity
  8
0
100
AcDbLine
 10
22.59973089678116
 20
-9.771599258481472
 30
0.0
 11
23.67152766650562
 21
-13.77159925848147
 31
0.0
  0
ARC
  5
4A
330
22
100
AcDbEntity
  8
0
100
AcDbCircle
 10
22.59973089678116
 20
-7.271599258481472
 30
0.0
 40
2.5
100
AcDbArc
 50
270.0
 51
270.0000000000007
  0
LINE
  5
4B
330
22
100
AcDbEntity
  8
0
100
AcDbLine
 10
28.77130377203494
 20
-12.77159925848147
 30
0.0
 11
24.43885465448463
 21
-12.77159925848144
 31
0.0
  0
LINE
  5
4C
330
22
100
AcDbEntity
  8
0
100
AcDbLine
 10
3.599730896781125
 20
-4.771599258481472
 30
0.0
 11
2.599730896781125
 21
-4.771599258481472
 31
0.0
  0
LINE
  5
4D
330
22
100
AcDbEntity
  8
0
100
AcDbLine
 10
22.59973089678116
 20
-8.771599258481472
 30
0.0
 11
18.59973089678115
 21
-8.771599258481472
 31
0.0
  0
LINE
  5
4E
330
22
100
AcDbEntity
  8
0
100
AcDbLine
 10
22.59973089678116
 20
-5.771599258481472
 30
0.0
 11
18.59973089678115
 21
-5.771599258481472
 31
0.0
  0
LINE
  5
4F
330
22
100
AcDbEntity
  8
0
100
AcDbLine
 10
22.59973089678116
 20
-4.771599258481472
 30
0.0
 11
17.59973089678115
 21
-4.771599258481472
 31
0.0
  0
LINE
  5
50
330
22
100
AcDbEntity
  8
0
100
AcDbLine
 10
18.59973089678115
 20
-5.771599258481472
 30
0.0
 11
18.59973089678115
 21
-8.771599258481472
 31
0.0
  0
ARC
  5
51
330
22
100
AcDbEntity
  8
0
100
AcDbCircle
 10
22.59973089678116
 20
-7.271599258481472
 30
0.0
 40
1.5
100
AcDbArc
 50
270.0
 51
90.0
  0
ENDBLK
  5
52
330
22
100
AcDbEntity
  8
0
100
AcDbBlockEnd
  0
BLOCK
  5
3D2
330
3C8
100
AcDbEntity
  8
0
100
AcDbBlockBegin
  2
*D1
 70
     1
 10
0.0
 20
0.0
 30
0.0
  3
*D1
  1

  0
LINE
  5
63F
330
3C8
100
AcDbEntity
  8
BEM
 62
     0
370
    -2
100
AcDbLine
 10
144.1298806527094
 20
94.14963072632298
 30
0.0
 11
162.418433433668
 21
94.14963072632296
 31
0.0
  0
LINE
  5
640
330
3C8
100
AcDbEntity
  8
BEM
 62
     0
370
    -2
100
AcDbLine
 10
144.1298806527094
 20
176.149630726323
 30
0.0
 11
162.418433433668
 21
176.149630726323
 31
0.0
  0
LINE
  5
641
330
3C8
100
AcDbEntity
  8
BEM
 62
     0
370
    -2
100
AcDbLine
 10
161.418433433668
 20
97.64963072632298
 30
0.0
 11
161.418433433668
 21
172.649630726323
 31
0.0
  0
SOLID
  5
642
330
3C8
100
AcDbEntity
  8
BEM
 62
     0
100
AcDbTrace
 10
160.8351001003347
 20
97.64963072632298
 30
0.0
 11
162.0017667670014
 21
97.64963072632298
 31
0.0
 12
161.418433433668
 22
94.14963072632296
 32
0.0
 13
161.418433433668
 23
94.14963072632296
 33
0.0
  0
SOLID
  5
643
330
3C8
100
AcDbEntity
  8
BEM
 62
     0
100
AcDbTrace
 10
160.8351001003347
 20
172.649630726323
 30
0.0
 11
162.0017667670014
 21
172.649630726323
 31
0.0
 12
161.418433433668
 22
176.149630726323
 32
0.0
 13
161.418433433668
 23
176.149630726323
 33
0.0
  0
MTEXT
  5
644
330
3C8
100
AcDbEntity
  8
BEM
 62
     1
100
AcDbMText
 10
158.168433433668
 20
137.8357569004839
 30
0.0
 40
3.5
 41
0.0
 71
     5
 72
     1
  1
\A1;82.5
 11
0.0000000000000001
 21
1.0
 31
0.0
 73
     1
 44
1.0
  0
POINT
  5
645
330
3C8
100
AcDbEntity
  8
DEFPOINTS
 62
     0
100
AcDbPoint
 10
143.1298806527094
 20
94.14963072632298
 30
0.0
  0
POINT
  5
646
330
3C8
100
AcDbEntity
  8
DEFPOINTS
 62
     0
100
AcDbPoint
 10
143.1298806527094
 20
176.149630726323
 30
0.0
  0
POINT
  5
647
330
3C8
100
AcDbEntity
  8
DEFPOINTS
 62
     0
100
AcDbPoint
 10
161.418433433668
 20
176.149630726323
 30
0.0
  0
ENDBLK
  5
3D3
330
3C8
100
AcDbEntity
  8
0
100
AcDbBlockEnd
  0
BLOCK
  5
3E0
330
3D4
100
AcDbEntity
  8
0
100
AcDbBlockBegin
  2
*D2
 70
     1
 10
0.0
 20
0.0
 30
0.0
  3
*D2
  1

  0
LINE
  5
51E
330
3D4
100
AcDbEntity
  8
BEM
 62
     0
370
    -2
100
AcDbLine
 10
64.12988065270946
 20
264.019088841515
 30
0.0
 11
56.47225445440841
 21
264.019088841515
 31
0.0
  0
LINE
  5
51F
330
3D4
100
AcDbEntity
  8
BEM
 62
     0
370
    -2
100
AcDbLine
 10
64.12988065270946
 20
269.019088841515
 30
0.0
 11
56.47225445440841
 21
269.019088841515
 31
0.0
  0
LINE
  5
520
330
3D4
100
AcDbEntity
  8
BEM
 62
     0
370
    -2
100
AcDbLine
 10
57.4722544544084
 20
260.519088841515
 30
0.0
 11
57.4722544544084
 21
257.019088841515
 31
0.0
  0
LINE
  5
521
330
3D4
100
AcDbEntity
  8
BEM
 62
     0
370
    -2
100
AcDbLine
 10
57.47225445440841
 20
272.519088841515
 30
0.0
 11
57.47225445440841
 21
276.019088841515
 31
0.0
  0
LINE
  5
522
330
3D4
100
AcDbEntity
  8
BEM
 62
     0
370
    -2
100
AcDbLine
 10
57.4722544544084
 20
264.019088841515
 30
0.0
 11
57.4722544544084
 21
269.019088841515
 31
0.0
  0
SOLID
  5
523
330
3D4
100
AcDbEntity
  8
BEM
 62
     0
100
AcDbTrace
 10
56.88892112107507
 20
260.519088841515
 30
0.0
 11
58.05558778774174
 21
260.519088841515
 31
0.0
 12
57.4722544544084
 22
264.019088841515
 32
0.0
 13
57.4722544544084
 23
264.019088841515
 33
0.0
  0
SOLID
  5
524
330
3D4
100
AcDbEntity
  8
BEM
 62
     0
100
AcDbTrace
 10
56.88892112107508
 20
272.519088841515
 30
0.0
 11
58.05558778774175
 21
272.519088841515
 31
0.0
 12
57.4722544544084
 22
269.019088841515
 32
0.0
 13
57.4722544544084
 23
269.019088841515
 33
0.0
  0
MTEXT
  5
525
330
3D4
100
AcDbEntity
  8
BEM
 62
     1
100
AcDbMText
 10
54.22225445440837
 20
266.519088841515
 30
0.0
 40
3.5
 41
0.0
 71
     5
 72
     1
  1
\A1;5
 11
0.0000000000000001
 21
1.0
 31
0.0
 73
     1
 44
1.0
  0
POINT
  5
526
330
3D4
100
AcDbEntity
  8
DEFPOINTS
 62
     0
100
AcDbPoint
 10
65.12988065270945
 20
264.019088841515
 30
0.0
  0
POINT
  5
527
330
3D4
100
AcDbEntity
  8
DEFPOINTS
 62
     0
100
AcDbPoint
 10
65.12988065270945
 20
269.019088841515
 30
0.0
  0
POINT
  5
528
330
3D4
100
AcDbEntity
  8
DEFPOINTS
 62
     0
100
AcDbPoint
 10
57.4722544544084
 20
269.019088841515
 30
0.0
  0
ENDBLK
  5
3E1
330
3D4
100
AcDbEntity
  8
0
100
AcDbBlockEnd
  0
BLOCK
  5
3EC
330
3E2
100
AcDbEntity
  8
0
100
AcDbBlockBegin
  2
*D3
 70
     1
 10
0.0
 20
0.0
 30
0.0
  3
*D3
  1

  0
LINE
  5
515
330
3E2
100
AcDbEntity
  8
BEM
 62
     0
370
    -2
100
AcDbLine
 10
64.12988065270946
 20
269.019088841515
 30
0.0
 11
49.67937641878041
 21
269.019088841515
 31
0.0
  0
LINE
  5
516
330
3E2
100
AcDbEntity
  8
BEM
 62
     0
370
    -2
100
AcDbLine
 10
68.62988065270946
 20
224.019088841515
 30
0.0
 11
49.67937641878041
 21
224.019088841515
 31
0.0
  0
LINE
  5
517
330
3E2
100
AcDbEntity
  8
BEM
 62
     0
370
    -2
100
AcDbLine
 10
50.67937641878041
 20
265.519088841515
 30
0.0
 11
50.67937641878041
 21
227.519088841515
 31
0.0
  0
SOLID
  5
518
330
3E2
100
AcDbEntity
  8
BEM
 62
     0
100
AcDbTrace
 10
50.09604308544708
 20
265.519088841515
 30
0.0
 11
51.26270975211375
 21
265.519088841515
 31
0.0
 12
50.67937641878041
 22
269.019088841515
 32
0.0
 13
50.67937641878041
 23
269.019088841515
 33
0.0
  0
SOLID
  5
519
330
3E2
100
AcDbEntity
  8
BEM
 62
     0
100
AcDbTrace
 10
50.09604308544707
 20
227.519088841515
 30
0.0
 11
51.26270975211374
 21
227.519088841515
 31
0.0
 12
50.67937641878041
 22
224.019088841515
 32
0.0
 13
50.67937641878041
 23
224.019088841515
 33
0.0
  0
MTEXT
  5
51A
330
3E2
100
AcDbEntity
  8
BEM
 62
     1
100
AcDbMText
 10
47.42937641878037
 20
246.519088841515
 30
0.0
 40
3.5
 41
0.0
 71
     5
 72
     1
  1
\A1;45
 11
0.0000000000000001
 21
1.0
 31
0.0
 73
     1
 44
1.0
  0
POINT
  5
51B
330
3E2
100
AcDbEntity
  8
DEFPOINTS
 62
     0
100
AcDbPoint
 10
65.12988065270945
 20
269.019088841515
 30
0.0
  0
POINT
  5
51C
330
3E2
100
AcDbEntity
  8
DEFPOINTS
 62
     0
100
AcDbPoint
 10
69.62988065270946
 20
224.019088841515
 30
0.0
  0
POINT
  5
51D
330
3E2
100
AcDbEntity
  8
DEFPOINTS
 62
     0
100
AcDbPoint
 10
50.67937641878041
 20
224.019088841515
 30
0.0
  0
ENDBLK
  5
3ED
330
3E2
100
AcDbEntity
  8
0
100
AcDbBlockEnd
  0
BLOCK
  5
42A
330
420
100
AcDbEntity
  8
0
100
AcDbBlockBegin
  2
*D4
 70
     1
 10
0.0
 20
0.0
 30
0.0
  3
*D4
  1

  0
LINE
  5
636
330
420
100
AcDbEntity
  8
BEM
 62
     0
370
    -2
100
AcDbLine
 10
69.62988065270946
 20
223.019088841515
 30
0.0
 11
69.62988065270946
 21
209.7814156887767
 31
0.0
  0
LINE
  5
637
330
420
100
AcDbEntity
  8
BEM
 62
     0
370
    -2
100
AcDbLine
 10
142.6298806527094
 20
223.019088841515
 30
0.0
 11
142.6298806527094
 21
209.7814156887767
 31
0.0
  0
LINE
  5
638
330
420
100
AcDbEntity
  8
BEM
 62
     0
370
    -2
100
AcDbLine
 10
73.12988065270946
 20
210.7814156887767
 30
0.0
 11
139.1298806527094
 21
210.7814156887767
 31
0.0
  0
SOLID
  5
639
330
420
100
AcDbEntity
  8
BEM
 62
     0
100
AcDbTrace
 10
73.12988065270946
 20
211.3647490221101
 30
0.0
 11
73.12988065270946
 21
210.1980823554434
 31
0.0
 12
69.62988065270946
 22
210.7814156887767
 32
0.0
 13
69.62988065270946
 23
210.7814156887767
 33
0.0
  0
SOLID
  5
63A
330
420
100
AcDbEntity
  8
BEM
 62
     0
100
AcDbTrace
 10
139.1298806527094
 20
211.3647490221101
 30
0.0
 11
139.1298806527094
 21
210.1980823554434
 31
0.0
 12
142.6298806527094
 22
210.7814156887767
 32
0.0
 13
142.6298806527094
 23
210.7814156887767
 33
0.0
  0
MTEXT
  5
63B
330
420
100
AcDbEntity
  8
BEM
 62
     1
100
AcDbMText
 10
106.1298806527094
 20
214.0314156887768
 30
0.0
 40
3.5
 41
0.0
 71
     5
 72
     1
  1
\A1;%%C73.3
 73
     1
 44
1.0
  0
POINT
  5
63C
330
420
100
AcDbEntity
  8
DEFPOINTS
 62
     0
100
AcDbPoint
 10
69.62988065270946
 20
224.019088841515
 30
0.0
  0
POINT
  5
63D
330
420
100
AcDbEntity
  8
DEFPOINTS
 62
     0
100
AcDbPoint
 10
142.6298806527094
 20
224.019088841515
 30
0.0
  0
POINT
  5
63E
330
420
100
AcDbEntity
  8
DEFPOINTS
 62
     0
100
AcDbPoint
 10
142.6298806527094
 20
210.7814156887767
 30
0.0
  0
ENDBLK
  5
42B
330
420
100
AcDbEntity
  8
0
100
AcDbBlockEnd
  0
ENDSEC
  0
SECTION
  2
ENTITIES
  0
LINE
  5
57
330
1E
100
AcDbEntity
  8
STEMPEL
100
AcDbLine
 10
205.0
 20
55.00000000000003
 30
0.0
 11
19.99999999999998
 21
55.0
 31
0.0
  0
LINE
  5
58
330
1E
100
AcDbEntity
  8
STEMPEL
100
AcDbLine
 10
68.00000000000006
 20
54.99999999999997
 30
0.0
 11
68.0
 21
4.999999999999985
 31
0.0
  0
LINE
  5
59
330
1E
100
AcDbEntity
  8
STEMPEL
100
AcDbLine
 10
110.0
 20
55.00000000000003
 30
0.0
 11
110.0
 21
4.999999999999985
 31
0.0
  0
LINE
  5
5A
330
1E
100
AcDbEntity
  8
STEMPEL
100
AcDbLine
 10
166.0
 20
54.99999999999989
 30
0.0
 11
166.0
 21
20.0
 31
0.0
  0
LINE
  5
5B
330
1E
100
AcDbEntity
  8
STEMPEL
100
AcDbLine
 10
67.99999999999994
 20
14.99999999999998
 30
0.0
 11
19.99999999999998
 21
14.99999999999998
 31
0.0
  0
LINE
  5
5C
330
1E
100
AcDbEntity
  8
STEMPEL
100
AcDbLine
 10
205.0
 20
20.0
 30
0.0
 11
68.00000000000006
 21
19.99999999999998
 31
0.0
  0
LINE
  5
5D
330
1E
100
AcDbEntity
  8
STEMPEL
100
AcDbLine
 10
205.0
 20
40.0
 30
0.0
 11
68.00000000000006
 21
39.99999999999997
 31
0.0
  0
LINE
  5
5E
330
1E
100
AcDbEntity
  8
VOLL
100
AcDbLine
 10
27.00000000000005
 20
55.00000000000003
 30
0.0
 11
26.99999999999999
 21
4.999999999999985
 31
0.0
  0
LINE
  5
5F
330
1E
100
AcDbEntity
  8
VOLL
100
AcDbLine
 10
47.00000000000005
 20
54.99999999999997
 30
0.0
 11
47.0
 21
4.999999999999985
 31
0.0
  0
LINE
  5
60
330
1E
100
AcDbEntity
  8
VOLL
100
AcDbLine
 10
57.00000000000006
 20
54.99999999999997
 30
0.0
 11
57.0
 21
4.999999999999985
 31
0.0
  0
LINE
  5
61
330
1E
100
AcDbEntity
  8
VOLL
100
AcDbLine
 10
77.00000000000006
 20
39.99999999999997
 30
0.0
 11
77.00000000000006
 21
19.99999999999998
 31
0.0
  0
LINE
  5
62
330
1E
100
AcDbEntity
  8
VOLL
100
AcDbLine
 10
90.00000000000005
 20
54.99999999999992
 30
0.0
 11
90.0
 21
19.99999999999998
 31
0.0
  0
LINE
  5
63
330
1E
100
AcDbEntity
  8
HILF
100
AcDbLine
 10
20.00000000000004
 20
50.00000000000003
 30
0.0
 11
68.00000000000006
 21
50.00000000000003
 31
0.0
  0
LINE
  5
64
330
1E
100
AcDbEntity
  8
HILF
100
AcDbLine
 10
20.00000000000004
 20
45.00000000000002
 30
0.0
 11
68.00000000000006
 21
45.00000000000002
 31
0.0
  0
LINE
  5
65
330
1E
100
AcDbEntity
  8
HILF
100
AcDbLine
 10
20.00000000000004
 20
39.99999999999997
 30
0.0
 11
68.00000000000006
 21
39.99999999999997
 31
0.0
  0
LINE
  5
66
330
1E
100
AcDbEntity
  8
HILF
100
AcDbLine
 10
20.00000000000004
 20
34.99999999999997
 30
0.0
 11
68.00000000000006
 21
34.99999999999997
 31
0.0
  0
LINE
  5
67
330
1E
100
AcDbEntity
  8
HILF
100
AcDbLine
 10
20.00000000000004
 20
29.99999999999999
 30
0.0
 11
68.00000000000006
 21
29.99999999999999
 31
0.0
  0
LINE
  5
68
330
1E
100
AcDbEntity
  8
HILF
100
AcDbLine
 10
20.00000000000004
 20
24.99999999999999
 30
0.0
 11
68.00000000000006
 21
24.99999999999999
 31
0.0
  0
LINE
  5
69
330
1E
100
AcDbEntity
  8
HILF
100
AcDbLine
 10
20.00000000000004
 20
19.99999999999998
 30
0.0
 11
68.00000000000006
 21
19.99999999999998
 31
0.0
  0
LINE
  5
6A
330
1E
100
AcDbEntity
  8
HILF
100
AcDbLine
 10
68.00000000000006
 20
34.99999999999997
 30
0.0
 11
110.0
 21
34.99999999999997
 31
0.0
  0
LINE
  5
6B
330
1E
100
AcDbEntity
  8
HILF
100
AcDbLine
 10
68.00000000000006
 20
29.99999999999999
 30
0.0
 11
110.0
 21
29.99999999999999
 31
0.0
  0
LINE
  5
6C
330
1E
100
AcDbEntity
  8
HILF
100
AcDbLine
 10
68.00000000000006
 20
24.99999999999999
 30
0.0
 11
110.0
 21
24.99999999999999
 31
0.0
  0
LINE
  5
6D
330
1E
100
AcDbEntity
  8
HILF
100
AcDbLine
 10
112.3868400548474
 20
42.01879123782069
 30
0.0
 11
162.4176958278155
 21
42.01879123782069
 31
0.0
  0
LINE
  5
6E
330
1E
100
AcDbEntity
  8
HILF
100
AcDbLine
 10
112.3868400548474
 20
34.99999999999997
 30
0.0
 11
162.4176958278155
 21
34.99999999999997
 31
0.0
  0
LINE
  5
6F
330
1E
100
AcDbEntity
  8
HILF
100
AcDbLine
 10
112.3868400548474
 20
29.99999999999999
 30
0.0
 11
162.4176958278155
 21
29.99999999999999
 31
0.0
  0
LINE
  5
70
330
1E
100
AcDbEntity
  8
HILF
100
AcDbLine
 10
112.3868400548474
 20
24.99999999999999
 30
0.0
 11
162.4176958278155
 21
24.99999999999999
 31
0.0
  0
LINE
  5
71
330
1E
100
AcDbEntity
  8
VOLL
100
AcDbLine
 10
166.0
 20
30.0
 30
0.0
 11
205.0
 21
30.0
 31
0.0
  0
LINE
  5
72
330
1E
100
AcDbEntity
  8
HILF
100
AcDbLine
 10
168.3619308148496
 20
41.88991818477913
 30
0.0
 11
202.4294419663364
 21
41.88991818477913
 31
0.0
  0
LINE
  5
73
330
1E
100
AcDbEntity
  8
HILF
100
AcDbLine
 10
111.7454849644942
 20
7.446991290141568
 30
0.0
 11
202.4294419663364
 21
7.446991290141568
 31
0.0
  0
TEXT
  5
74
330
1E
100
AcDbEntity
  8
TEXT
100
AcDbText
 10
31.9308298981591
 20
9.336909474920659
 30
0.0
 40
2.0
  1
Änderung
 41
0.8
  7
GREEKS
 72
     1
 11
37.30225846958767
 21
9.336909474920659
 31
0.0
100
AcDbText
  0
TEXT
  5
75
330
1E
100
AcDbEntity
  8
TEXT
100
AcDbText
 10
71.75817860751886
 20
51.23104475435443
 30
0.0
 40
2.5
  1
Maßstab
 41
0.8
  7
GREEKS
100
AcDbText
  0
TEXT
  5
76
330
1E
100
AcDbEntity
  8
TEXT
100
AcDbText
 10
92.14294773670257
 20
51.20920842174095
 30
0.0
 40
2.5
  1
Zul. Abw.
 41
0.8
  7
GREEKS
100
AcDbText
  0
TEXT
  5
77
330
1E
100
AcDbEntity
  8
TEXT
100
AcDbText
 10
112.4389701904505
 20
51.27446640058898
 30
0.0
 40
2.5
  1
Benennung
 41
0.8
  7
GREEKS
100
AcDbText
  0
TEXT
  5
78
330
1E
100
AcDbEntity
  8
TEXT
100
AcDbText
 10
168.089377478817
 20
51.15660172685682
 30
0.0
 40
2.5
  1
Zeichnungs Nr.
 41
0.8
  7
GREEKS
100
AcDbText
  0
TEXT
  5
79
330
1E
100
AcDbEntity
  8
TEXT
100
AcDbText
 10
112.371119195568
 20
15.42280285096528
 30
0.0
 40
2.5
  1
Bauvorhaben
 41
0.8
  7
GREEKS
100
AcDbText
  0
TEXT
  5
7A
330
1E
100
AcDbEntity
  8
TEXT
100
AcDbText
 10
168.3619308148496
 20
36.59059118549985
 30
0.0
 40
2.5
  1
Ersatz für:
 41
0.8
  7
GREEKS
100
AcDbText
  0
TEXT
  5
7B
330
1E
100
AcDbEntity
  8
TEXT
100
AcDbText
 10
24.13320553522878
 20
6.827329230135958
 30
0.0
 40
2.0
  1
Index
 50
90.0
 41
0.8
  7
GREEKS
100
AcDbText
  0
TEXT
  5
7C
330
1E
100
AcDbEntity
  8
TEXT
100
AcDbText
 10
50.04673380377405
 20
9.33578134669905
 30
0.0
 40
2.0
  1
Tag
 41
0.8
  7
GREEKS
 72
     1
 11
51.91340047044072
 21
9.33578134669905
 31
0.0
100
AcDbText
  0
TEXT
  5
7D
330
1E
100
AcDbEntity
  8
TEXT
100
AcDbText
 10
59.50613721932963
 20
9.29662108483204
 30
0.0
 40
2.0
  1
Name
 41
0.8
  7
GREEKS
 72
     1
 11
62.66804198123439
 21
9.29662108483204
 31
0.0
100
AcDbText
  0
TEXT
  5
7E
330
1E
100
AcDbEntity
  8
TEXT
100
AcDbText
 10
81.16558365768254
 20
36.65940250614963
 30
0.0
 40
2.0
  1
Tag
 41
0.8
  7
GREEKS
100
AcDbText
  0
TEXT
  5
7F
330
1E
100
AcDbEntity
  8
TEXT
100
AcDbText
 10
96.23132921131475
 20
36.65480545957612
 30
0.0
 40
2.0
  1
Name
 41
0.8
  7
GREEKS
100
AcDbText
  0
TEXT
  5
80
330
1E
100
AcDbEntity
  8
TEXT
100
AcDbText
 10
68.79180635838077
 20
31.81495184808982
 30
0.0
 40
2.0
  1
Gez.
 41
0.8
  7
GREEKS
100
AcDbText
  0
TEXT
  5
81
330
1E
100
AcDbEntity
  8
TEXT
100
AcDbText
 10
68.77575432858361
 20
26.84463145714189
 30
0.0
 40
2.0
  1
Gepr.
 41
0.8
  7
GREEKS
100
AcDbText
  0
TEXT
  5
82
330
1E
100
AcDbEntity
  8
TEXT
100
AcDbText
 10
68.80033886936519
 20
21.76473194824904
 30
0.0
 40
2.0
  1
Norm.
 41
0.8
  7
GREEKS
100
AcDbText
  0
LINE
  5
83
330
1E
100
AcDbEntity
  8
STEMPEL
100
AcDbLine
 10
24.99999999999995
 20
5.0
 30
0.0
 11
205.0
 21
5.0
 31
0.0
  0
TEXT
  5
84
330
1E
100
AcDbEntity
  8
TEXT
100
AcDbText
 10
168.6200430748503
 20
26.03708088939301
 30
0.0
 40
2.5
  1
ersetzt durch:
 41
0.8
  7
GREEKS
100
AcDbText
  0
LINE
  5
85
330
1E
100
AcDbEntity
  8
STEMPEL
100
AcDbLine
 10
205.0
 20
5.0
 30
0.0
 11
19.99999999999994
 21
5.0
 31
0.0
  0
LINE
  5
86
330
1E
100
AcDbEntity
  8
STEMPEL
100
AcDbLine
 10
205.0
 20
5.0
 30
0.0
 11
205.0
 21
292.0
 31
0.0
  0
LINE
  5
87
330
1E
100
AcDbEntity
  8
STEMPEL
100
AcDbLine
 10
20.0
 20
5.0
 30
0.0
 11
19.99999999999994
 21
292.0
 31
0.0
  0
LINE
  5
88
330
1E
100
AcDbEntity
  8
STEMPEL
100
AcDbLine
 10
205.0
 20
292.0
 30
0.0
 11
19.99999999999994
 21
292.0
 31
0.0
  0
LINE
  5
89
330
1E
100
AcDbEntity
  8
HILF
100
AcDbLine
 10
0.0
 20
0.0
 30
0.0
 11
-0.0000000000000568
 21
297.0
 31
0.0
  0
LINE
  5
8A
330
1E
100
AcDbEntity
  8
HILF
100
AcDbLine
 10
210.0
 20
297.0000000000001
 30
0.0
 11
0.0
 21
297.0
 31
0.0
  0
LINE
  5
8B
330
1E
100
AcDbEntity
  8
HILF
100
AcDbLine
 10
210.0
 20
0.0
 30
0.0
 11
0.0
 21
0.0
 31
0.0
  0
LINE
  5
8C
330
1E
100
AcDbEntity
  8
HILF
100
AcDbLine
 10
15.54383567856928
 20
148.5
 30
0.0
 11
0.0000000000000568
 21
148.5
 31
0.0
  0
TEXT
  5
8D
330
1E
100
AcDbEntity
  8
TEXT
100
AcDbText
 10
69.31105491105199
 20
36.57012735575833
 30
0.0
 40
2.0
  1
2008
 41
0.8
  7
GREEKS
100
AcDbText
  0
LINE
  5
8E
330
1E
100
AcDbEntity
  8
HILF
100
AcDbLine
 10
210.0
 20
-0.0000000000000568
 30
0.0
 11
210.0
 21
297.0
 31
0.0
  0
TEXT
  5
8F
330
1E
100
AcDbEntity
  8
VOLL
100
AcDbText
 10
78.07675471698113
 20
31.02594776470585
 30
0.0
 40
1.8
  1

  7
GREEKS
100
AcDbText
  0
TEXT
  5
90
330
1E
100
AcDbEntity
  8
TEXT
100
AcDbText
 10
20.92754975488837
 20
55.83599999999997
 30
0.0
 40
2.5
  1
Erstellt mit AUTOCAD 2004
 41
0.8
  7
GREEKS
100
AcDbText
  0
TEXT
  5
91
330
1E
100
AcDbEntity
  8
TEXT
100
AcDbText
 10
97.21080242906285
 20
31.54481959861755
 30
0.0
 40
2.0
  1
Koeh
 41
0.8
  7
GREEKS
 72
     1
 11
99.83937385763429
 21
31.54481959861755
 31
0.0
100
AcDbText
  0
TEXT
  5
92
330
1E
100
AcDbEntity
  8
TEXT
 62
     1
100
AcDbText
 10
172.1571920604668
 20
44.07450714456979
 30
0.0
 40
3.5
  1
15091000W
 41
0.8
  7
GREEKS
 72
     1
 11
183.6238587271335
 21
44.07450714456979
 31
0.0
100
AcDbText
  0
TEXT
  5
93
330
1E
100
AcDbEntity
  8
TEXT
 62
     1
100
AcDbText
 10
75.25031532409435
 20
44.07450714456979
 30
0.0
 40
3.5
  1
1:1
 41
0.8
  7
GREEKS
100
AcDbText
  0
TEXT
  5
94
330
1E
100
AcDbEntity
  8
TEXT
100
AcDbText
 10
80.35187950649897
 20
31.55382520412866
 30
0.0
 40
2.0
  1
19.05.
 41
0.8
  7
GREEKS
 72
     1
 11
83.70426045887993
 21
31.55382520412866
 31
0.0
100
AcDbText
  0
TEXT
  5
95
330
1E
100
AcDbEntity
  8
TEXT
 62
     1
100
AcDbText
 10
113.4467865528701
 20
43.70874394626889
 30
0.0
 40
3.5
  1
Sieb   82
 41
0.8
  7
GREEKS
100
AcDbText
  0
TEXT
  5
98
330
1E
100
AcDbEntity
  8
TEXT
100
AcDbText
 10
112.5648195562657
 20
25.82005971521079
 30
0.0
 40
2.5
  1
EDV-art.Nr. 15091.000X
 41
0.8
  7
GREEKS
100
AcDbText
  0
TEXT
  5
99
330
1E
100
AcDbEntity
  8
TEXT
100
AcDbText
 10
112.4918750788913
 20
21.31487076511316
 30
0.0
 40
2.0
  1
15091000W.DWG
 41
0.8
  7
GREEKS
100
AcDbText
  0
TEXT
  5
9A
330
1E
100
AcDbEntity
  8
TEXT
100
AcDbText
 10
91.46544705642297
 20
45.38181920511511
 30
0.0
 40
2.0
  1
DIN16901-150
 41
0.8
  7
GREEKS
 72
     1
 11
99.80830419928011
 21
45.38181920511511
 31
0.0
100
AcDbText
  0
INSERT
  5
9B
330
1E
100
AcDbEntity
  8
STEMPEL
100
AcDbBlockReference
  2
LOGO
 10
70.4977742728897
 20
22.51052638224161
 30
0.0
  0
TEXT
  5
118
330
1E
100
AcDbEntity
  8
BEM
100
AcDbText
 10
208.6511461928583
 20
5.083950539994247
 30
0.0
 40
2.0
  1
Diese Zeichnung ist urheberrechtlich geschützt und bleibt unser Eigentum. Sie darf weder ganz noch teilweise verfielfältigt und nicht an Dritte weitergegeben werden.
 50
90.0
 41
0.8
  7
GREEKS
100
AcDbText
  0
LINE
  5
30B
102
{ACAD_REACTORS
330
590
102
}
330
1E
100
AcDbEntity
  8
STEMPEL
100
AcDbLine
 10
141.6298806527094
 20
268.0190888415149
 30
0.0
 11
141.6298806527094
 21
269.0190888415149
 31
0.0
  0
LINE
  5
30C
102
{ACAD_REACTORS
330
590
102
}
330
1E
100
AcDbEntity
  8
STEMPEL
100
AcDbLine
 10
141.6298806527094
 20
269.0190888415149
 30
0.0
 11
147.1298806527095
 21
269.0190888415149
 31
0.0
  0
POINT
  5
30D
330
1E
100
AcDbEntity
  8
SCHRAFF
  6
ByBlock
 62
     0
100
AcDbPoint
 10
139.1298806527094
 20
262.019088841515
 30
0.0
  0
POINT
  5
30E
330
1E
100
AcDbEntity
  8
SCHRAFF
  6
ByBlock
 62
     0
100
AcDbPoint
 10
139.1298806527094
 20
262.019088841515
 30
0.0
  0
LINE
  5
30F
102
{ACAD_REACTORS
330
590
102
}
330
1E
100
AcDbEntity
  8
STEMPEL
100
AcDbLine
 10
142.6298806527094
 20
264.019088841515
 30
0.0
 11
147.1298806527094
 21
264.019088841515
 31
0.0
  0
LINE
  5
310
102
{ACAD_REACTORS
330
590
102
}
330
1E
100
AcDbEntity
  8
STEMPEL
100
AcDbLine
 10
147.1298806527094
 20
264.019088841515
 30
0.0
 11
147.1298806527095
 21
269.0190888415149
 31
0.0
  0
LINE
  5
313
102
{ACAD_REACTORS
330
590
102
}
330
1E
100
AcDbEntity
  8
STEMPEL
100
AcDbLine
 10
132.9999383377983
 20
262.0190888415149
 30
0.0
 11
132.9999383377983
 21
268.0190888415149
 31
0.0
  0
LINE
  5
314
102
{ACAD_REACTORS
330
590
102
}
330
1E
100
AcDbEntity
  8
STEMPEL
100
AcDbLine
 10
123.1004434011866
 20
262.0190888415149
 30
0.0
 11
123.1004434011866
 21
268.0190888415149
 31
0.0
  0
LINE
  5
315
102
{ACAD_REACTORS
330
590
102
}
330
1E
100
AcDbEntity
  8
STEMPEL
100
AcDbLine
 10
118.8578027140673
 20
262.0190888415149
 30
0.0
 11
118.8578027140673
 21
268.0190888415149
 31
0.0
  0
LINE
  5
316
102
{ACAD_REACTORS
330
590
102
}
330
1E
100
AcDbEntity
  8
STEMPEL
100
AcDbLine
 10
110.4080552457615
 20
262.0190888415149
 30
0.0
 11
110.4080552457615
 21
268.0190888415149
 31
0.0
  0
ARC
  5
317
330
1E
100
AcDbEntity
  8
STEMPEL
100
AcDbCircle
 10
143.1298806527094
 20
172.149630726323
 30
0.0
 40
4.0
100
AcDbArc
 50
0.0
 51
90.0
  0
ARC
  5
318
330
1E
100
AcDbEntity
  8
STEMPEL
100
AcDbCircle
 10
130.1715112130521
 20
151.4130866936136
 30
0.0
 40
3.5
100
AcDbArc
 50
314.9999999999995
 51
134.9999999999996
  0
ARC
  5
319
330
1E
100
AcDbEntity
  8
STEMPEL
100
AcDbCircle
 10
112.4938416833884
 20
163.4339019737849
 30
0.0
 40
3.5
100
AcDbArc
 50
314.9999999999995
 51
134.9999999999996
  0
ARC
  5
31A
330
1E
100
AcDbEntity
  8
STEMPEL
100
AcDbCircle
 10
122.3933366200001
 20
159.1912612866656
 30
0.0
 40
3.5
100
AcDbArc
 50
314.9999999999995
 51
134.9999999999996
  0
LINE
  5
31D
102
{ACAD_REACTORS
330
590
102
}
330
1E
100
AcDbEntity
  8
STEMPEL
100
AcDbLine
 10
142.6298806527094
 20
224.019088841515
 30
0.0
 11
142.6298806527094
 21
264.019088841515
 31
0.0
  0
LINE
  5
31E
102
{ACAD_REACTORS
330
590
102
}
330
1E
100
AcDbEntity
  8
STEMPEL
100
AcDbLine
 10
139.1298806527094
 20
262.0190888415149
 30
0.0
 11
140.3870283544124
 21
224.0190888415149
 31
0.0
  0
LINE
  5
31F
102
{ACAD_REACTORS
330
590
102
}
330
1E
100
AcDbEntity
  8
MITTEL
100
AcDbLine
 10
106.1298806527094
 20
219.019088841515
 30
0.0
 11
106.1298806527094
 21
274.0190888415149
 31
0.0
  0
LINE
  5
320
330
1E
100
AcDbEntity
  8
BEM
 62
     1
100
AcDbLine
 10
160.1849892085154
 20
132.2358094937423
 30
0.0
 11
160.1849892085154
 21
128.7358094937423
 31
0.0
  0
LINE
  5
321
330
1E
100
AcDbEntity
  8
BEM
 62
     1
100
AcDbLine
 10
156.6849892085154
 20
128.7358094937423
 30
0.0
 11
156.6849892085154
 21
132.2358094937423
 31
0.0
  0
ARC
  5
322
330
1E
100
AcDbEntity
  8
STEMPEL
100
AcDbCircle
 10
143.1298806527094
 20
98.14963072632298
 30
0.0
 40
4.0
100
AcDbArc
 50
270.0
 51
0.0
  0
LINE
  5
323
330
1E
100
AcDbEntity
  8
STEMPEL
100
AcDbLine
 10
136.8890256343243
 20
139.038718022849
 30
0.0
 11
123.4539967917799
 21
125.6036891803046
 31
0.0
  0
ARC
  5
324
330
1E
100
AcDbEntity
  8
STEMPEL
100
AcDbCircle
 10
113.9080552457614
 20
135.149630726323
 30
0.0
 40
3.5
100
AcDbArc
 50
134.9999999999996
 51
314.9999999999995
  0
ARC
  5
325
330
1E
100
AcDbEntity
  8
STEMPEL
100
AcDbCircle
 10
113.2009484645749
 20
120.3003883214055
 30
0.0
 40
3.5
100
AcDbArc
 50
314.9999999999995
 51
134.9999999999996
  0
ARC
  5
326
330
1E
100
AcDbEntity
  8
STEMPEL
100
AcDbCircle
 10
114.2616086363547
 20
107.2189128694543
 30
0.0
 40
3.5
100
AcDbArc
 50
134.9999999999997
 51
314.9999999999995
  0
LINE
  5
327
330
1E
100
AcDbEntity
  8
STEMPEL
100
AcDbLine
 10
131.9392781660184
 20
143.9884654911548
 30
0.0
 11
118.504249323474
 21
130.5534366486104
 31
0.0
  0
ARC
  5
328
330
1E
100
AcDbEntity
  8
STEMPEL
100
AcDbCircle
 10
120.979123057627
 20
128.0785629144575
 30
0.0
 40
3.5
100
AcDbArc
 50
134.9999999999996
 51
314.9999999999997
  0
LINE
  5
329
330
1E
100
AcDbEntity
  8
STEMPEL
100
AcDbLine
 10
131.5857247754251
 20
129.4927764768306
 30
0.0
 11
111.7867349022018
 21
109.6937866036072
 31
0.0
  0
LINE
  5
32A
330
1E
100
AcDbEntity
  8
STEMPEL
100
AcDbLine
 10
136.535472243731
 20
124.5430290085248
 30
0.0
 11
116.7364823705077
 21
104.7440391353014
 31
0.0
  0
ARC
  5
32B
330
1E
100
AcDbEntity
  8
STEMPEL
100
AcDbCircle
 10
134.4141519001713
 20
141.5135917570019
 30
0.0
 40
3.5
100
AcDbArc
 50
314.9999999999997
 51
134.9999999999996
  0
ARC
  5
32C
330
1E
100
AcDbEntity
  8
STEMPEL
100
AcDbCircle
 10
134.060598509578
 20
127.0179027426777
 30
0.0
 40
3.5
100
AcDbArc
 50
314.9999999999997
 51
134.9999999999996
  0
LINE
  5
32E
330
1E
100
AcDbEntity
  8
BEM
 62
     1
100
AcDbLine
 10
160.1849892085154
 20
128.7358094937423
 30
0.0
 11
156.6849892085154
 21
128.7358094937423
 31
0.0
  0
LINE
  5
32F
330
1E
100
AcDbEntity
  8
BEM
 62
     1
100
AcDbLine
 10
156.6849892085154
 20
132.2358094937423
 30
0.0
 11
160.1849892085154
 21
132.2358094937423
 31
0.0
  0
LINE
  5
330
330
1E
100
AcDbEntity
  8
STEMPEL
100
AcDbLine
 10
141.6298806527094
 20
170.649630726323
 30
0.0
 11
141.6298806527095
 21
99.64963072632299
 31
0.0
  0
LINE
  5
331
330
1E
100
AcDbEntity
  8
STEMPEL
100
AcDbLine
 10
147.1298806527094
 20
172.149630726323
 30
0.0
 11
147.1298806527094
 21
98.14963072632298
 31
0.0
  0
LINE
  5
332
330
1E
100
AcDbEntity
  8
STEMPEL
100
AcDbLine
 10
124.868210354153
 20
156.7163875525127
 30
0.0
 11
108.6047543868624
 21
140.452931585222
 31
0.0
  0
LINE
  5
333
330
1E
100
AcDbEntity
  8
STEMPEL
100
AcDbLine
 10
127.6966374788992
 20
153.8879604277665
 30
0.0
 11
111.4331815116085
 21
137.6245044604759
 31
0.0
  0
LINE
  5
334
330
1E
100
AcDbEntity
  8
STEMPEL
100
AcDbLine
 10
132.646384947205
 20
148.9382129594607
 30
0.0
 11
116.3829289799144
 21
132.67475699217
 31
0.0
  0
LINE
  5
335
330
1E
100
AcDbEntity
  8
MITTEL
100
AcDbLine
 10
106.1298806527094
 20
89.14963072632298
 30
0.0
 11
106.1298806527094
 21
181.1496307263229
 31
0.0
  0
DIMENSION
  5
336
330
1E
100
AcDbEntity
  8
BEM
100
AcDbDimension
  2
*D1
 10
161.418433433668
 20
176.149630726323
 30
0.0
 11
161.418433433668
 21
137.8357569004839
 31
0.0
 70
   160
  1
82.5
 71
     5
 42
82.0
  3
Standard
100
AcDbAlignedDimension
 13
143.1298806527094
 23
94.14963072632298
 33
0.0
 14
143.1298806527094
 24
176.149630726323
 34
0.0
 50
90.0
100
AcDbRotatedDimension
1001
ACAD
1000
DSTYLE
1002
{
1070
    41
1040
3.5
1070
    42
1040
1.0
1070
    43
1040
7.0
1070
    44
1040
1.0
1070
    73
1070
     0
1070
    74
1070
     0
1070
    77
1070
     1
1070
    78
1070
     8
1070
    79
1070
     2
1070
   140
1040
3.5
1070
   141
1040
1.5
1070
   146
1040
0.5142857142857144
1070
   147
1040
1.5
1070
   172
1070
     1
1070
   178
1070
     1
1070
   179
1070
     2
1070
   271
1070
     2
1070
   272
1070
     2
1070
   284
1070
     8
1070
   285
1070
     8
1070
   286
1070
     8
1002
}
  0
LINE
  5
339
102
{ACAD_REACTORS
330
590
102
}
330
1E
100
AcDbEntity
  8
STEMPEL
100
AcDbLine
 10
102.4866401410445
 20
262.019088841515
 30
0.0
 11
102.4866401410445
 21
268.0190888415149
 31
0.0
  0
LINE
  5
33A
102
{ACAD_REACTORS
330
590
102
}
330
1E
100
AcDbEntity
  8
STEMPEL
100
AcDbLine
 10
90.57353146660544
 20
262.0190888415149
 30
0.0
 11
90.57353146660545
 21
268.019088841515
 31
0.0
  0
LINE
  5
33B
102
{ACAD_REACTORS
330
590
102
}
330
1E
100
AcDbEntity
  8
STEMPEL
100
AcDbLine
 10
94.81617215372471
 20
262.019088841515
 30
0.0
 11
94.81617215372471
 21
268.0190888415149
 31
0.0
  0
POINT
  5
33C
330
1E
100
AcDbEntity
  8
SCHRAFF
  6
ByBlock
 62
     0
100
AcDbPoint
 10
73.12988065270946
 20
262.019088841515
 30
0.0
  0
LINE
  5
33D
102
{ACAD_REACTORS
330
590
102
}
330
1E
100
AcDbEntity
  8
STEMPEL
100
AcDbLine
 10
80.67403652999377
 20
262.0190888415149
 30
0.0
 11
80.67403652999377
 21
268.019088841515
 31
0.0
  0
LINE
  5
340
102
{ACAD_REACTORS
330
590
102
}
330
1E
100
AcDbEntity
  8
STEMPEL
100
AcDbLine
 10
70.62988065270947
 20
268.019088841515
 30
0.0
 11
70.62988065270947
 21
269.019088841515
 31
0.0
  0
LINE
  5
341
102
{ACAD_REACTORS
330
590
102
}
330
1E
100
AcDbEntity
  8
STEMPEL
100
AcDbLine
 10
65.12988065270945
 20
269.019088841515
 30
0.0
 11
70.62988065270947
 21
269.019088841515
 31
0.0
  0
POINT
  5
342
330
1E
100
AcDbEntity
  8
SCHRAFF
  6
ByBlock
 62
     0
100
AcDbPoint
 10
65.12988065270945
 20
264.019088841515
 30
0.0
  0
LINE
  5
343
102
{ACAD_REACTORS
330
590
102
}
330
1E
100
AcDbEntity
  8
STEMPEL
100
AcDbLine
 10
65.12988065270945
 20
264.019088841515
 30
0.0
 11
69.62988065270946
 21
264.019088841515
 31
0.0
  0
LINE
  5
344
102
{ACAD_REACTORS
330
590
102
}
330
1E
100
AcDbEntity
  8
STEMPEL
100
AcDbLine
 10
65.12988065270945
 20
264.019088841515
 30
0.0
 11
65.12988065270945
 21
269.019088841515
 31
0.0
  0
DIMENSION
  5
345
330
1E
100
AcDbEntity
  8
BEM
100
AcDbDimension
  2
*D2
 10
57.4722544544084
 20
269.019088841515
 30
0.0
 11
54.22225445440837
 21
266.519088841515
 31
0.0
 70
    32
 71
     5
 42
5.0
  3
Standard
100
AcDbAlignedDimension
 13
65.12988065270945
 23
264.019088841515
 33
0.0
 14
65.12988065270945
 24
269.019088841515
 34
0.0
 50
90.0
100
AcDbRotatedDimension
1001
ACAD
1000
DSTYLE
1002
{
1070
    41
1040
3.5
1070
    42
1040
1.0
1070
    43
1040
7.0
1070
    44
1040
1.0
1070
    73
1070
     0
1070
    74
1070
     0
1070
    77
1070
     1
1070
    78
1070
     8
1070
    79
1070
     2
1070
   140
1040
3.5
1070
   141
1040
1.5
1070
   146
1040
0.5142857142857144
1070
   147
1040
1.5
1070
   172
1070
     1
1070
   178
1070
     1
1070
   179
1070
     2
1070
   271
1070
     2
1070
   272
1070
     2
1070
   284
1070
     8
1070
   285
1070
     8
1070
   286
1070
     8
1002
}
  0
ARC
  5
346
330
1E
100
AcDbEntity
  8
STEMPEL
100
AcDbCircle
 10
97.99815266906424
 20
163.0803485831916
 30
0.0
 40
3.5
100
AcDbArc
 50
314.9999999999995
 51
134.9999999999996
  0
ARC
  5
347
330
1E
100
AcDbEntity
  8
STEMPEL
100
AcDbCircle
 10
69.12988065270946
 20
172.149630726323
 30
0.0
 40
4.0
100
AcDbArc
 50
90.0
 51
180.0
  0
LINE
  5
348
102
{ACAD_REACTORS
330
590
102
}
330
1E
100
AcDbEntity
  8
STEMPEL
100
AcDbLine
 10
73.12988065270944
 20
262.019088841515
 30
0.0
 11
71.87273295100656
 21
224.019088841515
 31
0.0
  0
LINE
  5
349
102
{ACAD_REACTORS
330
590
102
}
330
1E
100
AcDbEntity
  8
STEMPEL
100
AcDbLine
 10
69.62988065270946
 20
224.019088841515
 30
0.0
 11
69.62988065270946
 21
264.019088841515
 31
0.0
  0
DIMENSION
  5
34A
330
1E
100
AcDbEntity
  8
BEM
100
AcDbDimension
  2
*D3
 10
50.67937641878041
 20
224.019088841515
 30
0.0
 11
47.42937641878037
 21
246.519088841515
 31
0.0
 70
    32
 71
     5
 42
45.0
  3
Standard
100
AcDbAlignedDimension
 13
65.12988065270945
 23
269.019088841515
 33
0.0
 14
69.62988065270946
 24
224.019088841515
 34
0.0
 50
90.0
100
AcDbRotatedDimension
1001
ACAD
1000
DSTYLE
1002
{
1070
    41
1040
3.5
1070
    42
1040
1.0
1070
    43
1040
7.0
1070
    44
1040
1.0
1070
    73
1070
     0
1070
    74
1070
     0
1070
    77
1070
     1
1070
    78
1070
     8
1070
    79
1070
     2
1070
   140
1040
3.5
1070
   141
1040
1.5
1070
   146
1040
0.5142857142857144
1070
   147
1040
1.5
1070
   172
1070
     1
1070
   178
1070
     1
1070
   179
1070
     2
1070
   271
1070
     2
1070
   272
1070
     2
1070
   284
1070
     8
1070
   285
1070
     8
1070
   286
1070
     8
1002
}
  0
ARC
  5
34B
330
1E
100
AcDbEntity
  8
STEMPEL
100
AcDbCircle
 10
98.3517060596575
 20
135.149630726323
 30
0.0
 40
3.5
100
AcDbArc
 50
314.9999999999995
 51
134.9999999999996
  0
ARC
  5
34C
330
1E
100
AcDbEntity
  8
STEMPEL
100
AcDbCircle
 10
78.19916279584084
 20
143.2813587099683
 30
0.0
 40
3.5
100
AcDbArc
 50
134.9999999999997
 51
314.9999999999995
  0
ARC
  5
34D
330
1E
100
AcDbEntity
  8
STEMPEL
100
AcDbCircle
 10
82.08825009236687
 20
118.8861747590324
 30
0.0
 40
3.5
100
AcDbArc
 50
134.9999999999996
 51
314.9999999999995
  0
ARC
  5
34E
330
1E
100
AcDbEntity
  8
STEMPEL
100
AcDbCircle
 10
77.84560940524764
 20
128.785669695644
 30
0.0
 40
3.5
100
AcDbArc
 50
134.9999999999997
 51
314.9999999999995
  0
ARC
  5
34F
330
1E
100
AcDbEntity
  8
STEMPEL
100
AcDbCircle
 10
89.86642468541885
 20
111.1080001659803
 30
0.0
 40
3.5
100
AcDbArc
 50
134.9999999999997
 51
314.9999999999995
  0
LINE
  5
350
330
1E
100
AcDbEntity
  8
STEMPEL
100
AcDbLine
 10
103.6550069185566
 20
129.8463298674239
 30
0.0
 11
87.39155095126596
 21
113.5828739001333
 31
0.0
  0
LINE
  5
351
330
1E
100
AcDbEntity
  8
STEMPEL
100
AcDbLine
 10
100.8265797938104
 20
132.6747569921701
 30
0.0
 11
84.56312382651976
 21
116.4113010248794
 31
0.0
  0
LINE
  5
352
330
1E
100
AcDbEntity
  8
STEMPEL
100
AcDbLine
 10
95.87683232550455
 20
137.6245044604759
 30
0.0
 11
79.61337635821393
 21
121.3610484931853
 31
0.0
  0
LINE
  5
353
330
1E
100
AcDbEntity
  8
STEMPEL
100
AcDbLine
 10
80.32048313940057
 20
126.3107959614911
 30
0.0
 11
93.75551198194493
 21
139.7458248040356
 31
0.0
  0
LINE
  5
354
330
1E
100
AcDbEntity
  8
STEMPEL
100
AcDbLine
 10
75.3707356710947
 20
131.2605434297969
 30
0.0
 11
88.80576451363909
 21
144.6955722723414
 31
0.0
  0
ARC
  5
355
330
1E
100
AcDbEntity
  8
STEMPEL
100
AcDbCircle
 10
91.280638247792
 20
142.2206985381885
 30
0.0
 40
3.5
100
AcDbArc
 50
314.9999999999995
 51
134.9999999999997
  0
TEXT
  5
356
330
1E
100
AcDbEntity
  8
TEXT
 62
     1
100
AcDbText
 10
100.8532348160414
 20
79.0039230329524
 30
0.0
 40
2.0
  1
2
  7
GREEKS
100
AcDbText
  0
ARC
  5
357
330
1E
100
AcDbEntity
  8
STEMPEL
100
AcDbCircle
 10
99.76591962203054
 20
106.8653594788611
 30
0.0
 40
3.5
100
AcDbArc
 50
134.9999999999996
 51
314.9999999999995
  0
POINT
  5
358
330
1E
100
AcDbEntity
  8
STEMPEL
100
AcDbPoint
 10
65.69260831388132
 20
96.10386464274268
 30
0.0
  0
ARC
  5
359
330
1E
100
AcDbEntity
  8
STEMPEL
100
AcDbCircle
 10
69.12988065270948
 20
98.14963072632298
 30
0.0
 40
4.0
100
AcDbArc
 50
180.0
 51
270.0
  0
TEXT
  5
360
330
1E
100
AcDbEntity
  8
TEXT
 62
     1
100
AcDbText
 10
32.20246159543872
 20
69.7686780611138
 30
0.0
 40
3.5
  1
Material: PVC hart, schlagzäh
 41
0.8
  7
GREEKS
100
AcDbText
  0
TEXT
  5
361
330
1E
100
AcDbEntity
  8
TEXT
 62
     1
100
AcDbText
 10
32.26291098950603
 20
77.26340192695414
 30
0.0
 40
3.5
  1
freier Ablaufquerschnitt~19.6cm
 41
0.8
  7
GREEKS
100
AcDbText
  0
LINE
  5
362
330
1E
100
AcDbEntity
  8
STEMPEL
100
AcDbLine
 10
65.12988065270945
 20
172.149630726323
 30
0.0
 11
65.12988065270947
 21
98.14963072632298
 31
0.0
  0
LINE
  5
363
330
1E
100
AcDbEntity
  8
STEMPEL
100
AcDbLine
 10
70.62988065270947
 20
170.6496307263229
 30
0.0
 11
70.62988065270946
 21
99.64963072632299
 31
0.0
  0
ARC
  5
364
330
1E
100
AcDbEntity
  8
STEMPEL
100
AcDbCircle
 10
99.05881284084401
 20
149.9988731312405
 30
0.0
 40
3.5
100
AcDbArc
 50
134.9999999999996
 51
314.9999999999995
  0
LINE
  5
365
330
1E
100
AcDbEntity
  8
STEMPEL
100
AcDbLine
 10
95.52327893491133
 20
165.5552223173445
 30
0.0
 11
75.72428906168792
 21
145.7562324441212
 31
0.0
  0
LINE
  5
366
330
1E
100
AcDbEntity
  8
STEMPEL
100
AcDbLine
 10
100.4730264032171
 20
160.6054748490386
 30
0.0
 11
80.67403652999372
 21
140.8064849758154
 31
0.0
  0
LINE
  5
36A
330
1E
100
AcDbEntity
  8
MITTEL
100
AcDbLine
 10
60.12988065270947
 20
135.149630726323
 30
0.0
 11
152.1298806527094
 21
135.149630726323
 31
0.0
  0
LINE
  5
36B
330
1E
100
AcDbEntity
  8
STEMPEL
100
AcDbLine
 10
70.62988065270947
 20
170.6496307263229
 30
0.0
 11
141.6298806527094
 21
170.649630726323
 31
0.0
  0
LINE
  5
36C
330
1E
100
AcDbEntity
  8
STEMPEL
100
AcDbLine
 10
70.62988065270946
 20
99.64963072632299
 30
0.0
 11
141.6298806527095
 21
99.64963072632299
 31
0.0
  0
LINE
  5
36D
330
1E
100
AcDbEntity
  8
STEMPEL
100
AcDbLine
 10
69.12988065270946
 20
176.149630726323
 30
0.0
 11
143.1298806527094
 21
176.149630726323
 31
0.0
  0
LINE
  5
36E
330
1E
100
AcDbEntity
  8
STEMPEL
100
AcDbLine
 10
69.12988065270948
 20
94.14963072632298
 30
0.0
 11
143.1298806527094
 21
94.14963072632298
 31
0.0
  0
LINE
  5
36F
330
1E
100
AcDbEntity
  8
MITTEL
100
AcDbLine
 10
66.30145352796302
 20
174.9780578510694
 30
0.0
 11
145.9583077774556
 21
95.32120360157682
 31
0.0
  0
LINE
  5
370
330
1E
100
AcDbEntity
  8
MITTEL
100
AcDbLine
 10
145.9583077774559
 20
174.9780578510694
 30
0.0
 11
66.30145352796329
 21
95.32120360157682
 31
0.0
  0
LINE
  5
371
330
1E
100
AcDbEntity
  8
STEMPEL
100
AcDbLine
 10
70.62988065270947
 20
269.019088841515
 30
0.0
 11
141.6298806527094
 21
269.0190888415149
 31
0.0
  0
LINE
  5
372
330
1E
100
AcDbEntity
  8
STEMPEL
100
AcDbLine
 10
119.9184628858471
 20
161.6661350208185
 30
0.0
 11
103.6550069185565
 21
145.4026790535279
 31
0.0
  0
LINE
  5
373
330
1E
100
AcDbEntity
  8
STEMPEL
100
AcDbLine
 10
108.6047543868624
 20
124.896582399118
 30
0.0
 11
92.34129841957178
 21
108.6331264318274
 31
0.0
  0
ARC
  5
374
330
1E
100
AcDbEntity
  8
STEMPEL
100
AcDbCircle
 10
106.1298806527094
 20
142.927805319375
 30
0.0
 40
3.5
100
AcDbArc
 50
134.9999999999996
 51
314.9999999999995
  0
ARC
  5
375
330
1E
100
AcDbEntity
  8
STEMPEL
100
AcDbCircle
 10
106.1298806527095
 20
127.371456133271
 30
0.0
 40
3.5
100
AcDbArc
 50
314.9999999999995
 51
134.9999999999996
  0
LINE
  5
376
330
1E
100
AcDbEntity
  8
STEMPEL
100
AcDbLine
 10
102.2407933561834
 20
104.3904857447082
 30
0.0
 11
115.6758221987278
 21
117.8255145872526
 31
0.0
  0
LINE
  5
377
330
1E
100
AcDbEntity
  8
STEMPEL
100
AcDbLine
 10
97.29104588787761
 20
109.340233213014
 30
0.0
 11
110.726074730422
 21
122.7752620555584
 31
0.0
  0
LINE
  5
378
330
1E
100
AcDbEntity
  8
STEMPEL
100
AcDbLine
 10
110.0189679492355
 20
165.9087757079378
 30
0.0
 11
96.58393910669113
 21
152.4737468653934
 31
0.0
  0
LINE
  5
379
330
1E
100
AcDbEntity
  8
STEMPEL
100
AcDbLine
 10
114.9687154175413
 20
160.9590282396319
 30
0.0
 11
101.5336865749969
 21
147.5239993970875
 31
0.0
  0
CIRCLE
  5
37A
330
1E
100
AcDbEntity
  8
VERDECKT
100
AcDbCircle
 10
106.1298806527094
 20
135.149630726323
 30
0.0
 40
36.5
  0
CIRCLE
  5
37B
330
1E
100
AcDbEntity
  8
VERDECKT
100
AcDbCircle
 10
106.1298806527094
 20
135.149630726323
 30
0.0
 40
33.0
  0
LINE
  5
37E
102
{ACAD_REACTORS
330
590
102
}
330
1E
100
AcDbEntity
  8
STEMPEL
100
AcDbLine
 10
70.62988065270947
 20
268.019088841515
 30
0.0
 11
141.6298806527094
 21
268.0190888415149
 31
0.0
  0
LINE
  5
37F
102
{ACAD_REACTORS
330
590
102
}
330
1E
100
AcDbEntity
  8
STEMPEL
100
AcDbLine
 10
73.12988065270944
 20
262.019088841515
 30
0.0
 11
139.1298806527094
 21
262.0190888415149
 31
0.0
  0
LINE
  5
380
102
{ACAD_REACTORS
330
590
102
}
330
1E
100
AcDbEntity
  8
STEMPEL
100
AcDbLine
 10
69.62988065270946
 20
224.019088841515
 30
0.0
 11
142.6298806527094
 21
224.019088841515
 31
0.0
  0
DIMENSION
  5
383
330
1E
100
AcDbEntity
  8
BEM
100
AcDbDimension
  2
*D4
 10
142.6298806527094
 20
210.7814156887767
 30
0.0
 11
106.1298806527094
 21
214.0314156887768
 31
0.0
 70
    32
  1
%%C73.3
 71
     5
 42
73.0
  3
Standard
100
AcDbAlignedDimension
 13
69.62988065270946
 23
224.019088841515
 33
0.0
 14
142.6298806527094
 24
224.019088841515
 34
0.0
100
AcDbRotatedDimension
1001
ACAD
1000
DSTYLE
1002
{
1070
    41
1040
3.5
1070
    42
1040
1.0
1070
    43
1040
7.0
1070
    44
1040
1.0
1070
    73
1070
     0
1070
    74
1070
     0
1070
    77
1070
     1
1070
    78
1070
     8
1070
    79
1070
     2
1070
   140
1040
3.5
1070
   141
1040
1.5
1070
   146
1040
0.5142857142857144
1070
   147
1040
1.5
1070
   172
1070
     1
1070
   178
1070
     1
1070
   179
1070
     2
1070
   271
1070
     2
1070
   272
1070
     2
1070
   284
1070
     8
1070
   285
1070
     8
1070
   286
1070
     8
1002
}
  0
HATCH
  5
590
330
1E
100
AcDbEntity
  8
SCHRAFF
100
AcDbHatch
 10
0.0
 20
0.0
 30
0.0
210
0.0
220
0.0
230
1.0
  2
NET
 70
     0
 71
     1
 91
        6
 92
        7
 72
     0
 73
     1
 93
       10
 10
142.6298806527094
 20
264.019088841515
 10
147.1298806527094
 20
264.019088841515
 10
147.1298806527095
 20
269.019088841515
 10
141.6298806527094
 20
269.0190888415149
 10
141.6298806527094
 20
268.0190888415149
 10
132.9999383377983
 20
268.0190888415149
 10
132.9999383377983
 20
262.0190888415149
 10
139.1298806527094
 20
262.0190888415149
 10
140.3870283544123
 20
224.0190888415149
 10
142.6298806527095
 20
224.019088841515
 97
       10
330
30C
330
30B
330
37E
330
313
330
37F
330
31E
330
380
330
31D
330
30F
330
310
 92
        7
 72
     0
 73
     1
 93
        4
 10
123.1004434011865
 20
268.0190888415149
 10
118.8578027140673
 20
268.0190888415149
 10
118.8578027140673
 20
262.0190888415149
 10
123.1004434011866
 20
262.0190888415149
 97
        4
330
37E
330
315
330
37F
330
314
 92
        7
 72
     0
 73
     1
 93
        4
 10
106.1298806527094
 20
262.0190888415149
 10
110.4080552457615
 20
262.0190888415149
 10
110.4080552457615
 20
268.0190888415149
 10
106.1298806527094
 20
268.0190888415149
 97
        4
330
37E
330
31F
330
37F
330
316
 92
        7
 72
     0
 73
     1
 93
        4
 10
102.4866401410445
 20
262.0190888415149
 10
106.1298806527094
 20
262.0190888415149
 10
106.1298806527094
 20
268.0190888415149
 10
102.4866401410445
 20
268.0190888415149
 97
        4
330
37E
330
339
330
37F
330
31F
 92
        7
 72
     0
 73
     1
 93
        4
 10
90.57353146660545
 20
262.0190888415149
 10
94.81617215372473
 20
262.0190888415149
 10
94.81617215372473
 20
268.0190888415149
 10
90.57353146660547
 20
268.019088841515
 97
        4
330
37E
330
33A
330
37F
330
33B
 92
        7
 72
     0
 73
     1
 93
       10
 10
80.67403652999379
 20
262.0190888415149
 10
80.67403652999377
 20
268.019088841515
 10
70.62988065270947
 20
268.019088841515
 10
70.62988065270947
 20
269.019088841515
 10
65.12988065270945
 20
269.019088841515
 10
65.12988065270945
 20
264.019088841515
 10
69.62988065270946
 20
264.019088841515
 10
69.62988065270945
 20
224.0190888415149
 10
71.87273295100656
 20
224.019088841515
 10
73.12988065270946
 20
262.019088841515
 97
       10
330
37E
330
340
330
341
330
344
330
343
330
349
330
380
330
348
330
37F
330
33D
 75
     0
 76
     1
 52
45.0
 41
15.0
 77
     0
 78
     2
 53
45.0
 43
0.0
 44
0.0
 45
-1.325825214724776
 46
1.325825214724776
 79
     0
 53
135.0
 43
0.0
 44
0.0
 45
-1.325825214724776
 46
-1.325825214724776
 79
     0
 47
0.202624019147231
 98
        6
 10
141.1613429130991
 20
265.1893158600521
 10
121.2901441413764
 20
265.1893158600521
 10
108.110267462617
 20
264.5814435362973
 10
103.4466193126154
 20
264.7840674030622
 10
92.2944154481056
 20
264.7840674030622
 10
77.49239984071914
 20
264.5814435362973
  0
LWPOLYLINE
  5
613
330
1E
100
AcDbEntity
  8
TEXT
 62
     1
100
AcDbPolyline
 90
        4
 70
     1
 43
0.0
 10
124.4274872518585
 20
47.19274844757092
 10
124.4274872518585
 20
43.69274844757092
 10
127.9274872518585
 20
43.69274844757092
 10
127.9274872518585
 20
47.19274844757092
  0
ENDSEC
  0
SECTION
  2
OBJECTS
  0
DICTIONARY
  5
C
330
0
100
AcDbDictionary
281
     1
  3
ACAD_COLOR
350
DF
  3
ACAD_GROUP
350
D
  3
ACAD_LAYOUT
350
19
  3
ACAD_MATERIAL
350
DE
  3
ACAD_MLINESTYLE
350
16
  3
ACAD_PLOTSETTINGS
350
18
  3
ACAD_PLOTSTYLENAME
350
E
  3
AcDbVariableDictionary
350
EA
  0
DICTIONARY
  5
A0
330
1E
100
AcDbDictionary
280
     1
281
     1
  3
ACAD_LAYOUTSELFREF
360
D4
  0
DICTIONARY
  5
A2
330
1A
100
AcDbDictionary
280
     1
281
     1
  3
ACAD_LAYOUTSELFREF
360
D3
  0
DICTIONARY
  5
DF
102
{ACAD_REACTORS
330
C
102
}
330
C
100
AcDbDictionary
281
     1
  0
DICTIONARY
  5
D
102
{ACAD_REACTORS
330
C
102
}
330
C
100
AcDbDictionary
281
     1
  0
DICTIONARY
  5
19
102
{ACAD_REACTORS
330
C
102
}
330
C
100
AcDbDictionary
281
     1
  3
Layout1
350
1D
  3
Model
350
21
  0
DICTIONARY
  5
DE
102
{ACAD_REACTORS
330
C
102
}
330
C
100
AcDbDictionary
281
     1
  0
DICTIONARY
  5
16
102
{ACAD_REACTORS
330
C
102
}
330
C
100
AcDbDictionary
281
     1
  3
Standard
350
17
  0
DICTIONARY
  5
18
102
{ACAD_REACTORS
330
C
102
}
330
C
100
AcDbDictionary
281
     1
  0
ACDBDICTIONARYWDFLT
  5
E
102
{ACAD_REACTORS
330
C
102
}
330
C
100
AcDbDictionary
281
     1
  3
Normal
350
F
100
AcDbDictionaryWithDefault
340
F
  0
DICTIONARY
  5
EA
102
{ACAD_REACTORS
330
C
102
}
330
C
100
AcDbDictionary
281
     1
  3
DIMASSOC
350
EB
  3
PROJECTNAME
350
EC
  0
XRECORD
  5
D4
102
{ACAD_REACTORS
330
A0
102
}
330
A0
100
AcDbXrecord
280
     1
340
1E
  0
XRECORD
  5
D3
102
{ACAD_REACTORS
330
A2
102
}
330
A2
100
AcDbXrecord
280
     1
340
1A
  0
LAYOUT
  5
1D
102
{ACAD_REACTORS
330
19
102
}
330
19
100
AcDbPlotSettings
  1

  2
\\NT_WORK01\HP LaserJet 5000 PCL 6
  4

  6

 40
0.0
 41
0.0
 42
0.0
 43
0.0
 44
0.0
 45
0.0
 46
0.0
 47
0.0
 48
0.0
 49
0.0
140
0.0
141
0.0
142
1.0
143
1.0
 70
   688
 72
     0
 73
     0
 74
     5
  7

 75
    16
147
1.0
 76
     0
 77
     2
 78
   300
148
0.0
149
0.0
100
AcDbLayout
  1
Layout1
 70
     0
 71
     1
 10
0.0
 20
0.0
 11
12.0
 21
9.0
 12
0.0
 22
0.0
 32
0.0
 14
1.000000000000000E+20
 24
1.000000000000000E+20
 34
1.000000000000000E+20
 15
-1.000000000000000E+20
 25
-1.000000000000000E+20
 35
-1.000000000000000E+20
146
0.0
 13
0.0
 23
0.0
 33
0.0
 16
1.0
 26
0.0
 36
0.0
 17
0.0
 27
1.0
 37
0.0
 76
     0
330
1A
  0
LAYOUT
  5
21
102
{ACAD_REACTORS
330
19
102
}
330
19
100
AcDbPlotSettings
  1

  2
none_device
  4
Letter_(8.50_x_11.00_Inches)
  6

 40
6.349999904632568
 41
6.349999904632568
 42
6.350006103515625
 43
6.350006103515625
 44
215.8999938964844
 45
279.3999938964844
 46
0.0
 47
0.0
 48
0.0
 49
0.0
140
0.0
141
0.0
142
1.0
143
1.0
 70
 11952
 72
     0
 73
     1
 74
     0
  7

 75
     0
147
1.0
 76
     0
 77
     2
 78
   300
148
1135.852901499822
149
31.03715622852147
100
AcDbLayout
  1
Model
 70
     1
 71
     0
 10
0.0
 20
0.0
 11
12.0
 21
9.0
 12
0.0
 22
0.0
 32
0.0
 14
0.0
 24
0.0
 34
0.0
 15
0.0
 25
0.0
 35
0.0
146
0.0
 13
0.0
 23
0.0
 33
0.0
 16
1.0
 26
0.0
 36
0.0
 17
0.0
 27
1.0
 37
0.0
 76
     0
330
1E
  0
MLINESTYLE
  5
17
102
{ACAD_REACTORS
330
16
102
}
330
16
100
AcDbMlineStyle
  2
STANDARD
 70
     0
  3

 62
   256
 51
90.0
 52
90.0
 71
     2
 49
0.5
 62
   256
  6
BYLAYER
 49
-0.5
 62
   256
  6
BYLAYER
  0
ACDBPLACEHOLDER
  5
F
102
{ACAD_REACTORS
330
E
102
}
330
E
  0
DICTIONARYVAR
  5
EB
102
{ACAD_REACTORS
330
EA
102
}
330
EA
100
DictionaryVariables
280
     0
  1
1
  0
DICTIONARYVAR
  5
EC
102
{ACAD_REACTORS
330
EA
102
}
330
EA
100
DictionaryVariables
280
     0
  1

  0
ENDSEC
  0
EOF
