  0
SECTION
  2
HEADER
  9
$ACADVER
  1
AC1018
  9
$ACADMAINTVER
 70
     2
  9
$DWGCODEPAGE
  3
ANSI_1252
  9
$INSBASE
 10
0.0
 20
0.0
 30
0.0
  9
$EXTMIN
 10
-0.0064041928749248
 20
-0.0090573584946014
 30
-0.0000000000112498
  9
$EXTMAX
 10
420.0064100605654
 20
594.0090656570857
 30
0.0000000000002956
  9
$LIMMIN
 10
0.0
 20
0.0
  9
$LIMMAX
 10
419.9999999999999
 20
594.0
  9
$ORTHOMODE
 70
     1
  9
$REGENMODE
 70
     1
  9
$FILLMODE
 70
     1
  9
$QTEXTMODE
 70
     0
  9
$MIRRTEXT
 70
     1
  9
$LTSCALE
 40
20.0
  9
$ATTMODE
 70
     1
  9
$TEXTSIZE
 40
3.5
  9
$TRACEWID
 40
0.5
  9
$TEXTSTYLE
  7
STANDARD
  9
$CLAYER
  8
STEMPEL
  9
$CELTYPE
  6
ByLayer
  9
$CECOLOR
 62
   256
  9
$CELTSCALE
 40
1.0
  9
$DISPSILH
 70
     0
  9
$DIMSCALE
 40
2.0
  9
$DIMASZ
 40
3.5
  9
$DIMEXO
 40
1.0
  9
$DIMDLI
 40
7.0
  9
$DIMRND
 40
0.0
  9
$DIMDLE
 40
0.0
  9
$DIMEXE
 40
1.0
  9
$DIMTP
 40
0.0
  9
$DIMTM
 40
0.0
  9
$DIMTXT
 40
3.5
  9
$DIMCEN
 40
1.5
  9
$DIMTSZ
 40
0.0
  9
$DIMTOL
 70
     0
  9
$DIMLIM
 70
     0
  9
$DIMTIH
 70
     0
  9
$DIMTOH
 70
     0
  9
$DIMSE1
 70
     0
  9
$DIMSE2
 70
     0
  9
$DIMTAD
 70
     1
  9
$DIMZIN
 70
     8
  9
$DIMBLK
  1

  9
$DIMASO
 70
     1
  9
$DIMSHO
 70
     0
  9
$DIMPOST
  1

  9
$DIMAPOST
  1

  9
$DIMALT
 70
     0
  9
$DIMALTD
 70
     2
  9
$DIMALTF
 40
25.4
  9
$DIMLFAC
 40
1.0
  9
$DIMTOFL
 70
     1
  9
$DIMTVP
 40
0.0
  9
$DIMTIX
 70
     0
  9
$DIMSOXD
 70
     0
  9
$DIMSAH
 70
     0
  9
$DIMBLK1
  1

  9
$DIMBLK2
  1

  9
$DIMSTYLE
  2
Standard
  9
$DIMCLRD
 70
     0
  9
$DIMCLRE
 70
     0
  9
$DIMCLRT
 70
     1
  9
$DIMTFAC
 40
0.5142857142857144
  9
$DIMGAP
 40
1.5
  9
$DIMJUST
 70
     0
  9
$DIMSD1
 70
     0
  9
$DIMSD2
 70
     0
  9
$DIMTOLJ
 70
     1
  9
$DIMTZIN
 70
     8
  9
$DIMALTZ
 70
     8
  9
$DIMALTTZ
 70
     8
  9
$DIMUPT
 70
     0
  9
$DIMDEC
 70
     2
  9
$DIMTDEC
 70
     2
  9
$DIMALTU
 70
     2
  9
$DIMALTTD
 70
     2
  9
$DIMTXSTY
  7
STANDARD
  9
$DIMAUNIT
 70
     0
  9
$DIMADEC
 70
     2
  9
$DIMALTRND
 40
0.0
  9
$DIMAZIN
 70
     2
  9
$DIMDSEP
 70
    46
  9
$DIMATFIT
 70
     3
  9
$DIMFRAC
 70
     0
  9
$DIMLDRBLK
  1

  9
$DIMLUNIT
 70
     2
  9
$DIMLWD
 70
    -2
  9
$DIMLWE
 70
    -2
  9
$DIMTMOVE
 70
     0
  9
$LUNITS
 70
     2
  9
$LUPREC
 70
     2
  9
$SKETCHINC
 40
1.0
  9
$FILLETRAD
 40
0.0
  9
$AUNITS
 70
     0
  9
$AUPREC
 70
     0
  9
$MENU
  1
ACAD
  9
$ELEVATION
 40
0.0
  9
$PELEVATION
 40
0.0
  9
$THICKNESS
 40
0.0
  9
$LIMCHECK
 70
     0
  9
$CHAMFERA
 40
0.0
  9
$CHAMFERB
 40
0.0
  9
$CHAMFERC
 40
0.0
  9
$CHAMFERD
 40
0.0
  9
$SKPOLY
 70
     0
  9
$TDCREATE
 40
2455397.864709028
  9
$TDUCREATE
 40
2455397.781375695
  9
$TDUPDATE
 40
2455460.440422176
  9
$TDUUPDATE
 40
2455460.357088842
  9
$TDINDWG
 40
0.0273664352
  9
$TDUSRTIMER
 40
0.0273664352
  9
$USRTIMER
 70
     1
  9
$ANGBASE
 50
0.0
  9
$ANGDIR
 70
     0
  9
$PDMODE
 70
     0
  9
$PDSIZE
 40
0.0
  9
$PLINEWID
 40
0.0
  9
$SPLFRAME
 70
     0
  9
$SPLINETYPE
 70
     6
  9
$SPLINESEGS
 70
     8
  9
$HANDSEED
  5
68F
  9
$SURFTAB1
 70
     6
  9
$SURFTAB2
 70
     6
  9
$SURFTYPE
 70
     6
  9
$SURFU
 70
     6
  9
$SURFV
 70
     6
  9
$UCSBASE
  2

  9
$UCSNAME
  2

  9
$UCSORG
 10
0.0
 20
0.0
 30
0.0
  9
$UCSXDIR
 10
1.0
 20
0.0
 30
0.0
  9
$UCSYDIR
 10
0.0
 20
1.0
 30
0.0
  9
$UCSORTHOREF
  2

  9
$UCSORTHOVIEW
 70
     0
  9
$UCSORGTOP
 10
0.0
 20
0.0
 30
0.0
  9
$UCSORGBOTTOM
 10
0.0
 20
0.0
 30
0.0
  9
$UCSORGLEFT
 10
0.0
 20
0.0
 30
0.0
  9
$UCSORGRIGHT
 10
0.0
 20
0.0
 30
0.0
  9
$UCSORGFRONT
 10
0.0
 20
0.0
 30
0.0
  9
$UCSORGBACK
 10
0.0
 20
0.0
 30
0.0
  9
$PUCSBASE
  2

  9
$PUCSNAME
  2

  9
$PUCSORG
 10
0.0
 20
0.0
 30
0.0
  9
$PUCSXDIR
 10
1.0
 20
0.0
 30
0.0
  9
$PUCSYDIR
 10
0.0
 20
1.0
 30
0.0
  9
$PUCSORTHOREF
  2

  9
$PUCSORTHOVIEW
 70
     0
  9
$PUCSORGTOP
 10
0.0
 20
0.0
 30
0.0
  9
$PUCSORGBOTTOM
 10
0.0
 20
0.0
 30
0.0
  9
$PUCSORGLEFT
 10
0.0
 20
0.0
 30
0.0
  9
$PUCSORGRIGHT
 10
0.0
 20
0.0
 30
0.0
  9
$PUCSORGFRONT
 10
0.0
 20
0.0
 30
0.0
  9
$PUCSORGBACK
 10
0.0
 20
0.0
 30
0.0
  9
$USERI1
 70
     0
  9
$USERI2
 70
     0
  9
$USERI3
 70
     0
  9
$USERI4
 70
     0
  9
$USERI5
 70
     0
  9
$USERR1
 40
0.0
  9
$USERR2
 40
0.0
  9
$USERR3
 40
0.0
  9
$USERR4
 40
0.0
  9
$USERR5
 40
0.0
  9
$WORLDVIEW
 70
     1
  9
$SHADEDGE
 70
     3
  9
$SHADEDIF
 70
    70
  9
$TILEMODE
 70
     1
  9
$MAXACTVP
 70
    16
  9
$PINSBASE
 10
0.0
 20
0.0
 30
0.0
  9
$PLIMCHECK
 70
     0
  9
$PEXTMIN
 10
1.000000000000000E+20
 20
1.000000000000000E+20
 30
1.000000000000000E+20
  9
$PEXTMAX
 10
-1.000000000000000E+20
 20
-1.000000000000000E+20
 30
-1.000000000000000E+20
  9
$PLIMMIN
 10
0.0
 20
0.0
  9
$PLIMMAX
 10
12.0
 20
9.0
  9
$UNITMODE
 70
     0
  9
$VISRETAIN
 70
     0
  9
$PLINEGEN
 70
     0
  9
$PSLTSCALE
 70
     0
  9
$TREEDEPTH
 70
  3020
  9
$CMLSTYLE
  2
Standard
  9
$CMLJUST
 70
     0
  9
$CMLSCALE
 40
1.0
  9
$PROXYGRAPHICS
 70
     1
  9
$MEASUREMENT
 70
     0
  9
$CELWEIGHT
370
    -1
  9
$ENDCAPS
280
     0
  9
$JOINSTYLE
280
     0
  9
$LWDISPLAY
290
     0
  9
$INSUNITS
 70
     0
  9
$HYPERLINKBASE
  1

  9
$STYLESHEET
  1
monochrome 1.ctb
  9
$XEDIT
290
     1
  9
$CEPSNTYPE
380
     0
  9
$PSTYLEMODE
290
     1
  9
$FINGERPRINTGUID
  2
{D68B0D02-A558-11D7-B632-000102183313}
  9
$VERSIONGUID
  2
{3DB31CE1-B760-44E1-8FB4-EBB44D28E85B}
  9
$EXTNAMES
290
     1
  9
$PSVPSCALE
 40
0.0
  9
$OLESTARTUP
290
     0
  9
$SORTENTS
280
   127
  9
$INDEXCTL
280
     0
  9
$HIDETEXT
280
     0
  9
$XCLIPFRAME
290
     0
  9
$HALOGAP
280
     0
  9
$OBSCOLOR
 70
   257
  9
$OBSLTYPE
280
     0
  9
$INTERSECTIONDISPLAY
280
     0
  9
$INTERSECTIONCOLOR
 70
   257
  9
$DIMASSOC
280
     1
  9
$PROJECTNAME
  1

  0
ENDSEC
  0
SECTION
  2
CLASSES
  0
CLASS
  1
ACDBDICTIONARYWDFLT
  2
AcDbDictionaryWithDefault
  3
ObjectDBX Classes
 90
        0
 91
        1
280
     0
281
     0
  0
CLASS
  1
DICTIONARYVAR
  2
AcDbDictionaryVar
  3
ObjectDBX Classes
 90
        0
 91
        2
280
     0
281
     0
  0
ENDSEC
  0
SECTION
  2
TABLES
  0
TABLE
  2
VPORT
  5
8
330
0
100
AcDbSymbolTable
 70
     2
  0
VPORT
  5
68E
330
8
100
AcDbSymbolTableRecord
100
AcDbViewportTableRecord
  2
*Active
 70
     0
 10
0.0
 20
0.0
 11
1.0
 21
1.0
 12
210.0000029338453
 22
297.0000041492956
 13
0.0
 23
0.0
 14
1.0
 24
1.0
 15
10.0
 25
10.0
 16
0.0
 26
0.0
 36
1.0
 17
0.0
 27
0.0
 37
0.0
 40
598.8150392175905
 41
1.336927223719676
 42
50.0
 43
0.0
 44
0.0
 50
0.0
 51
0.0
 71
     0
 72
  1500
 73
     1
 74
     0
 75
     0
 76
     0
 77
     0
 78
     0
281
     0
 65
     1
110
0.0
120
0.0
130
0.0
111
1.0
121
0.0
131
0.0
112
0.0
122
1.0
132
0.0
 79
     0
146
0.0
  0
ENDTAB
  0
TABLE
  2
LTYPE
  5
5
330
0
100
AcDbSymbolTable
 70
     2
  0
LTYPE
  5
13
330
5
100
AcDbSymbolTableRecord
100
AcDbLinetypeTableRecord
  2
ByBlock
 70
     0
  3

 72
    65
 73
     0
 40
0.0
  0
LTYPE
  5
14
330
5
100
AcDbSymbolTableRecord
100
AcDbLinetypeTableRecord
  2
ByLayer
 70
     0
  3

 72
    65
 73
     0
 40
0.0
  0
LTYPE
  5
15
330
5
100
AcDbSymbolTableRecord
100
AcDbLinetypeTableRecord
  2
Continuous
 70
     0
  3
Solid line
 72
    65
 73
     0
 40
0.0
  0
LTYPE
  5
25
330
5
100
AcDbSymbolTableRecord
100
AcDbLinetypeTableRecord
  2
STRICHPUNKT
 70
     0
  3
__ . __ . __ . __ . __ . __ . __ . __ . __ . __
 72
    65
 73
     4
 40
1.0
 49
0.5
 74
     0
 49
-0.25
 74
     0
 49
0.0
 74
     0
 49
-0.25
 74
     0
  0
ENDTAB
  0
TABLE
  2
LAYER
  5
2
330
0
100
AcDbSymbolTable
 70
     9
  0
LAYER
  5
10
330
2
100
AcDbSymbolTableRecord
100
AcDbLayerTableRecord
  2
0
 70
     0
 62
     7
  6
Continuous
370
    -3
390
F
  0
LAYER
  5
2A
330
2
100
AcDbSymbolTableRecord
100
AcDbLayerTableRecord
  2
VOLL
 70
     0
 62
     1
  6
Continuous
370
    -3
390
F
  0
LAYER
  5
2B
330
2
100
AcDbSymbolTableRecord
100
AcDbLayerTableRecord
  2
HILF
 70
     0
 62
     2
  6
Continuous
370
    -3
390
F
  0
LAYER
  5
2C
330
2
100
AcDbSymbolTableRecord
100
AcDbLayerTableRecord
  2
MITTEL
 70
     0
 62
     2
  6
STRICHPUNKT
370
    -3
390
F
  0
LAYER
  5
2F
330
2
100
AcDbSymbolTableRecord
100
AcDbLayerTableRecord
  2
BEM
 70
     0
 62
     7
  6
Continuous
370
    -3
390
F
  0
LAYER
  5
30
330
2
100
AcDbSymbolTableRecord
100
AcDbLayerTableRecord
  2
STEMPEL
 70
     0
 62
     3
  6
Continuous
370
    -3
390
F
  0
LAYER
  5
31
330
2
100
AcDbSymbolTableRecord
100
AcDbLayerTableRecord
  2
TEXT
 70
     0
 62
     7
  6
Continuous
370
    -3
390
F
  0
LAYER
  5
2EC
330
2
100
AcDbSymbolTableRecord
100
AcDbLayerTableRecord
  2
DEFPOINTS
 70
     0
 62
    -7
  6
Continuous
290
     0
370
    -3
390
F
  0
LAYER
  5
2ED
330
2
100
AcDbSymbolTableRecord
100
AcDbLayerTableRecord
  2
SCHRAFF
 70
     0
 62
     7
  6
Continuous
370
    -3
390
F
  0
ENDTAB
  0
TABLE
  2
STYLE
  5
3
330
0
100
AcDbSymbolTable
 70
     2
  0
STYLE
  5
11
330
3
100
AcDbSymbolTableRecord
100
AcDbTextStyleTableRecord
  2
STANDARD
 70
     0
 40
0.0
 41
0.8
 50
0.0
 71
     0
 42
3.5
  3
simplex.shx
  4

  0
STYLE
  5
24
330
3
100
AcDbSymbolTableRecord
100
AcDbTextStyleTableRecord
  2
GREEKS
 70
     0
 40
0.0
 41
0.8
 50
0.0
 71
     0
 42
2.5
  3
SIMPLEX.shx
  4

  0
ENDTAB
  0
TABLE
  2
VIEW
  5
6
330
0
100
AcDbSymbolTable
 70
     0
  0
ENDTAB
  0
TABLE
  2
UCS
  5
7
330
0
100
AcDbSymbolTable
 70
     0
  0
ENDTAB
  0
TABLE
  2
APPID
  5
9
330
0
100
AcDbSymbolTable
 70
     1
  0
APPID
  5
12
330
9
100
AcDbSymbolTableRecord
100
AcDbRegAppTableRecord
  2
ACAD
 70
     0
  0
ENDTAB
  0
TABLE
  2
DIMSTYLE
  5
A
330
0
100
AcDbSymbolTable
 70
     1
100
AcDbDimStyleTable
 71
     1
340
9D
  0
DIMSTYLE
105
9D
102
{ACAD_REACTORS
330
4CF
330
4C8
330
4C6
330
488
330
486
330
485
102
}
330
A
100
AcDbSymbolTableRecord
100
AcDbDimStyleTableRecord
  2
Standard
 70
     0
340
11
  0
ENDTAB
  0
TABLE
  2
BLOCK_RECORD
  5
1
330
0
100
AcDbSymbolTable
 70
     7
  0
BLOCK_RECORD
  5
1E
102
{ACAD_XDICTIONARY
360
A0
102
}
330
1
100
AcDbSymbolTableRecord
100
AcDbBlockTableRecord
  2
*Model_Space
340
21
  0
BLOCK_RECORD
  5
1A
102
{ACAD_XDICTIONARY
360
A2
102
}
330
1
100
AcDbSymbolTableRecord
100
AcDbBlockTableRecord
  2
*Paper_Space
340
1D
  0
BLOCK_RECORD
  5
22
330
1
100
AcDbSymbolTableRecord
100
AcDbBlockTableRecord
  2
LOGO
340
0
102
{BLKREFS
331
9B
102
}
  0
BLOCK_RECORD
  5
4D0
330
1
100
AcDbSymbolTableRecord
100
AcDbBlockTableRecord
  2
*D1
340
0
  0
BLOCK_RECORD
  5
4DD
330
1
100
AcDbSymbolTableRecord
100
AcDbBlockTableRecord
  2
*D2
340
0
  0
BLOCK_RECORD
  5
4EA
330
1
100
AcDbSymbolTableRecord
100
AcDbBlockTableRecord
  2
*D3
340
0
  0
BLOCK_RECORD
  5
4F7
330
1
100
AcDbSymbolTableRecord
100
AcDbBlockTableRecord
  2
*D4
340
0
  0
BLOCK_RECORD
  5
504
330
1
100
AcDbSymbolTableRecord
100
AcDbBlockTableRecord
  2
*D5
340
0
  0
BLOCK_RECORD
  5
511
330
1
100
AcDbSymbolTableRecord
100
AcDbBlockTableRecord
  2
*D6
340
0
  0
ENDTAB
  0
ENDSEC
  0
SECTION
  2
BLOCKS
  0
BLOCK
  5
35
330
1E
100
AcDbEntity
  8
0
100
AcDbBlockBegin
  2
*Model_Space
 70
     0
 10
0.0
 20
0.0
 30
0.0
  3
*Model_Space
  1

  0
ENDBLK
  5
36
330
1E
100
AcDbEntity
  8
0
100
AcDbBlockEnd
  0
BLOCK
  5
33
330
1A
100
AcDbEntity
 67
     1
  8
0
100
AcDbBlockBegin
  2
*Paper_Space
 70
     0
 10
0.0
 20
0.0
 30
0.0
  3
*Paper_Space
  1

  0
ENDBLK
  5
34
330
1A
100
AcDbEntity
 67
     1
  8
0
100
AcDbBlockEnd
  0
BLOCK
  5
37
330
22
100
AcDbEntity
  8
0
100
AcDbBlockBegin
  2
LOGO
 70
     0
 10
0.0
 20
0.0
 30
0.0
  3
LOGO
  1

  0
ARC
  5
38
330
22
100
AcDbEntity
  8
0
100
AcDbCircle
 10
11.59973089678112
 20
-9.271599258481501
 30
0.0
 40
4.5
100
AcDbArc
 50
270.0
 51
231.0575587310159
  0
LINE
  5
39
330
22
100
AcDbEntity
  8
0
100
AcDbLine
 10
3.599730896781125
 20
-4.771599258481529
 30
0.0
 11
3.599730896781153
 21
-11.77159925848133
 31
0.0
  0
LINE
  5
3A
330
22
100
AcDbEntity
  8
0
100
AcDbLine
 10
2.599730896781125
 20
-4.771599258481529
 30
0.0
 11
2.599730896781153
 21
-11.77159925848133
 31
0.0
  0
CIRCLE
  5
3B
330
22
100
AcDbEntity
  8
0
100
AcDbCircle
 10
11.59973089678112
 20
-9.271599258481501
 30
0.0
 40
3.5
  0
ARC
  5
3C
330
22
100
AcDbEntity
  8
0
100
AcDbCircle
 10
31.59973089678115
 20
-9.271599258481472
 30
0.0
 40
4.5
100
AcDbArc
 50
270.0
 51
231.0575587310182
  0
LINE
  5
3D
330
22
100
AcDbEntity
  8
0
100
AcDbLine
 10
17.59973089678112
 20
-4.771599258481472
 30
0.0
 11
17.59973089678115
 21
-13.77159925848147
 31
0.0
  0
ARC
  5
3E
330
22
100
AcDbEntity
  8
0
100
AcDbCircle
 10
22.59973089678116
 20
-7.271599258481472
 30
0.0
 40
2.5
100
AcDbArc
 50
293.1161887722295
 51
90.0
  0
CIRCLE
  5
3F
330
22
100
AcDbEntity
  8
0
100
AcDbCircle
 10
31.59973089678115
 20
-9.271599258481472
 30
0.0
 40
3.5
  0
ARC
  5
40
330
22
100
AcDbEntity
  8
0
100
AcDbCircle
 10
4.599730896781153
 20
-11.77159925848133
 30
0.0
 40
1.0
100
AcDbArc
 50
180.0
 51
270.0
  0
ARC
  5
41
330
22
100
AcDbEntity
  8
0
100
AcDbCircle
 10
4.599730896781153
 20
-11.77159925848133
 30
0.0
 40
2.0
100
AcDbArc
 50
179.9999999999992
 51
270.0
  0
LINE
  5
42
330
22
100
AcDbEntity
  8
0
100
AcDbLine
 10
11.59973089678115
 20
-13.77159925848144
 30
0.0
 11
4.599730896781153
 21
-13.77159925848147
 31
0.0
  0
LINE
  5
43
330
22
100
AcDbEntity
  8
0
100
AcDbLine
 10
8.771303772034769
 20
-12.77159925848136
 30
0.0
 11
4.599730896781153
 21
-12.77159925848133
 31
0.0
  0
LINE
  5
44
330
22
100
AcDbEntity
  8
0
100
AcDbLine
 10
31.59973089678115
 20
-13.77159925848147
 30
0.0
 11
23.6715276665056
 21
-13.77159925848144
 31
0.0
  0
LINE
  5
45
330
22
100
AcDbEntity
  8
0
100
AcDbLine
 10
23.56565672307022
 20
-9.51278021337896
 30
0.0
 11
24.4388546544846
 21
-12.77159925848144
 31
0.0
  0
LINE
  5
46
330
22
100
AcDbEntity
  8
0
100
AcDbLine
 10
22.59973089678116
 20
-9.771599258481472
 30
0.0
 11
18.59973089678112
 21
-9.771599258481472
 31
0.0
  0
LINE
  5
47
330
22
100
AcDbEntity
  8
0
100
AcDbLine
 10
18.59973089678115
 20
-13.77159925848144
 30
0.0
 11
17.59973089678115
 21
-13.77159925848144
 31
0.0
  0
LINE
  5
48
330
22
100
AcDbEntity
  8
0
100
AcDbLine
 10
18.59973089678115
 20
-9.771599258481472
 30
0.0
 11
18.59973089678115
 21
-13.77159925848144
 31
0.0
  0
LINE
  5
49
330
22
100
AcDbEntity
  8
0
100
AcDbLine
 10
22.59973089678116
 20
-9.771599258481472
 30
0.0
 11
23.67152766650562
 21
-13.77159925848147
 31
0.0
  0
ARC
  5
4A
330
22
100
AcDbEntity
  8
0
100
AcDbCircle
 10
22.59973089678116
 20
-7.271599258481472
 30
0.0
 40
2.5
100
AcDbArc
 50
270.0
 51
270.0000000000007
  0
LINE
  5
4B
330
22
100
AcDbEntity
  8
0
100
AcDbLine
 10
28.77130377203494
 20
-12.77159925848147
 30
0.0
 11
24.43885465448463
 21
-12.77159925848144
 31
0.0
  0
LINE
  5
4C
330
22
100
AcDbEntity
  8
0
100
AcDbLine
 10
3.599730896781125
 20
-4.771599258481472
 30
0.0
 11
2.599730896781125
 21
-4.771599258481472
 31
0.0
  0
LINE
  5
4D
330
22
100
AcDbEntity
  8
0
100
AcDbLine
 10
22.59973089678116
 20
-8.771599258481472
 30
0.0
 11
18.59973089678115
 21
-8.771599258481472
 31
0.0
  0
LINE
  5
4E
330
22
100
AcDbEntity
  8
0
100
AcDbLine
 10
22.59973089678116
 20
-5.771599258481472
 30
0.0
 11
18.59973089678115
 21
-5.771599258481472
 31
0.0
  0
LINE
  5
4F
330
22
100
AcDbEntity
  8
0
100
AcDbLine
 10
22.59973089678116
 20
-4.771599258481472
 30
0.0
 11
17.59973089678115
 21
-4.771599258481472
 31
0.0
  0
LINE
  5
50
330
22
100
AcDbEntity
  8
0
100
AcDbLine
 10
18.59973089678115
 20
-5.771599258481472
 30
0.0
 11
18.59973089678115
 21
-8.771599258481472
 31
0.0
  0
ARC
  5
51
330
22
100
AcDbEntity
  8
0
100
AcDbCircle
 10
22.59973089678116
 20
-7.271599258481472
 30
0.0
 40
1.5
100
AcDbArc
 50
270.0
 51
90.0
  0
ENDBLK
  5
52
330
22
100
AcDbEntity
  8
0
100
AcDbBlockEnd
  0
BLOCK
  5
4DB
330
4D0
100
AcDbEntity
  8
0
100
AcDbBlockBegin
  2
*D1
 70
     1
 10
0.0
 20
0.0
 30
0.0
  3
*D1
  1

  0
LINE
  5
587
330
4D0
100
AcDbEntity
  8
BEM
 62
     0
370
    -2
100
AcDbLine
 10
148.3739661315644
 20
451.07079880909
 30
0.0
 11
135.7917275104203
 21
451.07079880909
 31
0.0
  0
LINE
  5
588
330
4D0
100
AcDbEntity
  8
BEM
 62
     0
370
    -2
100
AcDbLine
 10
148.3739661315644
 20
442.0707988090899
 30
0.0
 11
135.7917275104203
 21
442.0707988090899
 31
0.0
  0
LINE
  5
589
330
4D0
100
AcDbEntity
  8
BEM
 62
     0
370
    -2
100
AcDbLine
 10
137.7917275104203
 20
458.07079880909
 30
0.0
 11
137.7917275104203
 21
465.0707988090901
 31
0.0
  0
LINE
  5
58A
330
4D0
100
AcDbEntity
  8
BEM
 62
     0
370
    -2
100
AcDbLine
 10
137.7917275104203
 20
435.0707988090899
 30
0.0
 11
137.7917275104203
 21
418.6041321424233
 31
0.0
  0
LINE
  5
58B
330
4D0
100
AcDbEntity
  8
BEM
 62
     0
370
    -2
100
AcDbLine
 10
137.7917275104203
 20
451.07079880909
 30
0.0
 11
137.7917275104203
 21
442.0707988090899
 31
0.0
  0
SOLID
  5
58C
330
4D0
100
AcDbEntity
  8
BEM
 62
     0
100
AcDbTrace
 10
136.6250608437536
 20
458.07079880909
 30
0.0
 11
138.9583941770869
 21
458.07079880909
 31
0.0
 12
137.7917275104203
 22
451.07079880909
 32
0.0
 13
137.7917275104203
 23
451.07079880909
 33
0.0
  0
SOLID
  5
58D
330
4D0
100
AcDbEntity
  8
BEM
 62
     0
100
AcDbTrace
 10
136.6250608437536
 20
435.0707988090899
 30
0.0
 11
138.9583941770869
 21
435.0707988090899
 31
0.0
 12
137.7917275104203
 22
442.0707988090899
 32
0.0
 13
137.7917275104203
 23
442.0707988090899
 33
0.0
  0
MTEXT
  5
58E
330
4D0
100
AcDbEntity
  8
BEM
 62
     1
100
AcDbMText
 10
131.2917275104202
 20
423.3374654757566
 30
0.0
 40
7.0
 41
0.0
 71
     5
 72
     1
  1
\A1;9
 11
0.0000000000000001
 21
1.0
 31
0.0
 73
     1
 44
1.0
  0
POINT
  5
58F
330
4D0
100
AcDbEntity
  8
DEFPOINTS
 62
     0
100
AcDbPoint
 10
150.3739661315644
 20
451.07079880909
 30
0.0
  0
POINT
  5
590
330
4D0
100
AcDbEntity
  8
DEFPOINTS
 62
     0
100
AcDbPoint
 10
150.3739661315644
 20
442.0707988090899
 30
0.0
  0
POINT
  5
591
330
4D0
100
AcDbEntity
  8
DEFPOINTS
 62
     0
100
AcDbPoint
 10
137.7917275104203
 20
442.0707988090899
 30
0.0
  0
ENDBLK
  5
4DC
330
4D0
100
AcDbEntity
  8
0
100
AcDbBlockEnd
  0
BLOCK
  5
4E8
330
4DD
100
AcDbEntity
  8
0
100
AcDbBlockBegin
  2
*D2
 70
     1
 10
0.0
 20
0.0
 30
0.0
  3
*D2
  1

  0
LINE
  5
57E
330
4DD
100
AcDbEntity
  8
BEM
 62
     0
370
    -2
100
AcDbLine
 10
162.3739661315644
 20
301.0707988090902
 30
0.0
 11
122.0683310218959
 21
301.0707988090902
 31
0.0
  0
LINE
  5
57F
330
4DD
100
AcDbEntity
  8
BEM
 62
     0
370
    -2
100
AcDbLine
 10
148.8739661315644
 20
451.07079880909
 30
0.0
 11
122.068331021896
 21
451.0707988090901
 31
0.0
  0
LINE
  5
580
330
4DD
100
AcDbEntity
  8
BEM
 62
     0
370
    -2
100
AcDbLine
 10
124.0683310218959
 20
308.0707988090902
 30
0.0
 11
124.068331021896
 21
444.0707988090901
 31
0.0
  0
SOLID
  5
581
330
4DD
100
AcDbEntity
  8
BEM
 62
     0
100
AcDbTrace
 10
122.9016643552292
 20
308.0707988090902
 30
0.0
 11
125.2349976885626
 21
308.0707988090902
 31
0.0
 12
124.0683310218959
 22
301.0707988090902
 32
0.0
 13
124.0683310218959
 23
301.0707988090902
 33
0.0
  0
SOLID
  5
582
330
4DD
100
AcDbEntity
  8
BEM
 62
     0
100
AcDbTrace
 10
122.9016643552293
 20
444.0707988090901
 30
0.0
 11
125.2349976885626
 21
444.0707988090901
 31
0.0
 12
124.068331021896
 22
451.0707988090901
 32
0.0
 13
124.068331021896
 23
451.0707988090901
 33
0.0
  0
MTEXT
  5
583
330
4DD
100
AcDbEntity
  8
BEM
 62
     1
100
AcDbMText
 10
117.5683310218959
 20
376.0707988090902
 30
0.0
 40
7.0
 41
0.0
 71
     5
 72
     1
  1
\A1;150
 11
0.0000000000000001
 21
1.0
 31
0.0
 73
     1
 44
1.0
  0
POINT
  5
584
330
4DD
100
AcDbEntity
  8
DEFPOINTS
 62
     0
100
AcDbPoint
 10
164.3739661315644
 20
301.0707988090902
 30
0.0
  0
POINT
  5
585
330
4DD
100
AcDbEntity
  8
DEFPOINTS
 62
     0
100
AcDbPoint
 10
150.8739661315644
 20
451.07079880909
 30
0.0
  0
POINT
  5
586
330
4DD
100
AcDbEntity
  8
DEFPOINTS
 62
     0
100
AcDbPoint
 10
124.068331021896
 20
451.0707988090901
 30
0.0
  0
ENDBLK
  5
4E9
330
4DD
100
AcDbEntity
  8
0
100
AcDbBlockEnd
  0
BLOCK
  5
4F5
330
4EA
100
AcDbEntity
  8
0
100
AcDbBlockBegin
  2
*D3
 70
     1
 10
0.0
 20
0.0
 30
0.0
  3
*D3
  1

  0
LINE
  5
5A4
330
4EA
100
AcDbEntity
  8
BEM
 62
     0
370
    -2
100
AcDbLine
 10
150.3739661315644
 20
453.0707988090901
 30
0.0
 11
150.3739661315644
 21
467.2744926141137
 31
0.0
  0
LINE
  5
5A5
330
4EA
100
AcDbEntity
  8
BEM
 62
     0
370
    -2
100
AcDbLine
 10
251.3739661315644
 20
453.0707988090901
 30
0.0
 11
251.3739661315644
 21
467.2744926141137
 31
0.0
  0
LINE
  5
5A6
330
4EA
100
AcDbEntity
  8
BEM
 62
     0
370
    -2
100
AcDbLine
 10
157.3739661315644
 20
465.2744926141138
 30
0.0
 11
244.3739661315644
 21
465.2744926141138
 31
0.0
  0
SOLID
  5
5A7
330
4EA
100
AcDbEntity
  8
BEM
 62
     0
100
AcDbTrace
 10
157.3739661315644
 20
466.4411592807804
 30
0.0
 11
157.3739661315644
 21
464.1078259474471
 31
0.0
 12
150.3739661315644
 22
465.2744926141138
 32
0.0
 13
150.3739661315644
 23
465.2744926141138
 33
0.0
  0
SOLID
  5
5A8
330
4EA
100
AcDbEntity
  8
BEM
 62
     0
100
AcDbTrace
 10
244.3739661315644
 20
466.4411592807804
 30
0.0
 11
244.3739661315644
 21
464.1078259474471
 31
0.0
 12
251.3739661315644
 22
465.2744926141138
 32
0.0
 13
251.3739661315644
 23
465.2744926141138
 33
0.0
  0
MTEXT
  5
5A9
330
4EA
100
AcDbEntity
  8
BEM
 62
     1
100
AcDbMText
 10
203.6302132039113
 20
471.7744926141137
 30
0.0
 40
7.0
 41
0.0
 71
     5
 72
     1
  1
\A1;101
 73
     1
 44
1.0
  0
POINT
  5
5AA
330
4EA
100
AcDbEntity
  8
DEFPOINTS
 62
     0
100
AcDbPoint
 10
150.3739661315644
 20
451.07079880909
 30
0.0
  0
POINT
  5
5AB
330
4EA
100
AcDbEntity
  8
DEFPOINTS
 62
     0
100
AcDbPoint
 10
251.3739661315644
 20
451.07079880909
 30
0.0
  0
POINT
  5
5AC
330
4EA
100
AcDbEntity
  8
DEFPOINTS
 62
     0
100
AcDbPoint
 10
251.3739661315644
 20
465.2744926141138
 30
0.0
  0
ENDBLK
  5
4F6
330
4EA
100
AcDbEntity
  8
0
100
AcDbBlockEnd
  0
BLOCK
  5
502
330
4F7
100
AcDbEntity
  8
0
100
AcDbBlockBegin
  2
*D4
 70
     1
 10
0.0
 20
0.0
 30
0.0
  3
*D4
  1

  0
LINE
  5
56C
330
4F7
100
AcDbEntity
  8
BEM
 62
     0
370
    -2
100
AcDbLine
 10
158.5739661315644
 20
228.8153355289864
 30
0.0
 11
158.5739661315644
 21
242.1919220948666
 31
0.0
  0
LINE
  5
56D
330
4F7
100
AcDbEntity
  8
BEM
 62
     0
370
    -2
100
AcDbLine
 10
243.1739661315645
 20
228.8153355289864
 30
0.0
 11
243.1739661315645
 21
242.1919220948666
 31
0.0
  0
LINE
  5
56E
330
4F7
100
AcDbEntity
  8
BEM
 62
     0
370
    -2
100
AcDbLine
 10
165.5739661315644
 20
240.1919220948666
 30
0.0
 11
236.1739661315645
 21
240.1919220948666
 31
0.0
  0
SOLID
  5
56F
330
4F7
100
AcDbEntity
  8
BEM
 62
     0
100
AcDbTrace
 10
165.5739661315644
 20
241.3585887615333
 30
0.0
 11
165.5739661315644
 21
239.0252554281999
 31
0.0
 12
158.5739661315644
 22
240.1919220948666
 32
0.0
 13
158.5739661315644
 23
240.1919220948666
 33
0.0
  0
SOLID
  5
570
330
4F7
100
AcDbEntity
  8
BEM
 62
     0
100
AcDbTrace
 10
236.1739661315645
 20
241.3585887615333
 30
0.0
 11
236.1739661315645
 21
239.0252554281999
 31
0.0
 12
243.1739661315645
 22
240.1919220948666
 32
0.0
 13
243.1739661315645
 23
240.1919220948666
 33
0.0
  0
MTEXT
  5
571
330
4F7
100
AcDbEntity
  8
BEM
 62
     1
100
AcDbMText
 10
200.8739661315644
 20
246.6919220948666
 30
0.0
 40
7.0
 41
0.0
 71
     5
 72
     1
  1
\A1;%%c84.6
 73
     1
 44
1.0
  0
POINT
  5
572
330
4F7
100
AcDbEntity
  8
DEFPOINTS
 62
     0
100
AcDbPoint
 10
158.5739661315644
 20
226.8153355289864
 30
0.0
  0
POINT
  5
573
330
4F7
100
AcDbEntity
  8
DEFPOINTS
 62
     0
100
AcDbPoint
 10
243.1739661315645
 20
226.8153355289864
 30
0.0
  0
POINT
  5
574
330
4F7
100
AcDbEntity
  8
DEFPOINTS
 62
     0
100
AcDbPoint
 10
243.1739661315645
 20
240.1919220948666
 30
0.0
  0
ENDBLK
  5
503
330
4F7
100
AcDbEntity
  8
0
100
AcDbBlockEnd
  0
BLOCK
  5
50F
330
504
100
AcDbEntity
  8
0
100
AcDbBlockBegin
  2
*D5
 70
     1
 10
0.0
 20
0.0
 30
0.0
  3
*D5
  1

  0
LINE
  5
563
330
504
100
AcDbEntity
  8
BEM
 62
     0
370
    -2
100
AcDbLine
 10
159.9769046161364
 20
231.8153355289863
 30
0.0
 11
141.6414991910774
 21
231.8153355289863
 31
0.0
  0
LINE
  5
564
330
504
100
AcDbEntity
  8
BEM
 62
     0
370
    -2
100
AcDbLine
 10
164.3739661315644
 20
209.3153355289863
 30
0.0
 11
141.6414991910774
 21
209.3153355289863
 31
0.0
  0
LINE
  5
565
330
504
100
AcDbEntity
  8
BEM
 62
     0
370
    -2
100
AcDbLine
 10
143.6414991910774
 20
224.8153355289864
 30
0.0
 11
143.6414991910774
 21
216.3153355289864
 31
0.0
  0
SOLID
  5
566
330
504
100
AcDbEntity
  8
BEM
 62
     0
100
AcDbTrace
 10
142.4748325244108
 20
224.8153355289864
 30
0.0
 11
144.8081658577441
 21
224.8153355289864
 31
0.0
 12
143.6414991910774
 22
231.8153355289863
 32
0.0
 13
143.6414991910774
 23
231.8153355289863
 33
0.0
  0
SOLID
  5
567
330
504
100
AcDbEntity
  8
BEM
 62
     0
100
AcDbTrace
 10
142.4748325244108
 20
216.3153355289864
 30
0.0
 11
144.8081658577441
 21
216.3153355289864
 31
0.0
 12
143.6414991910774
 22
209.3153355289863
 32
0.0
 13
143.6414991910774
 23
209.3153355289863
 33
0.0
  0
MTEXT
  5
568
330
504
100
AcDbEntity
  8
BEM
 62
     1
100
AcDbMText
 10
137.1414991910774
 20
220.5653355289864
 30
0.0
 40
7.0
 41
0.0
 71
     5
 72
     1
  1
\A1;22.5
 11
0.0000000000000001
 21
1.0
 31
0.0
 73
     1
 44
1.0
  0
POINT
  5
569
330
504
100
AcDbEntity
  8
DEFPOINTS
 62
     0
100
AcDbPoint
 10
161.9769046161364
 20
231.8153355289863
 30
0.0
  0
POINT
  5
56A
330
504
100
AcDbEntity
  8
DEFPOINTS
 62
     0
100
AcDbPoint
 10
166.3739661315644
 20
209.3153355289863
 30
0.0
  0
POINT
  5
56B
330
504
100
AcDbEntity
  8
DEFPOINTS
 62
     0
100
AcDbPoint
 10
143.6414991910774
 20
209.3153355289863
 30
0.0
  0
ENDBLK
  5
510
330
504
100
AcDbEntity
  8
0
100
AcDbBlockEnd
  0
BLOCK
  5
51C
330
511
100
AcDbEntity
  8
0
100
AcDbBlockBegin
  2
*D6
 70
     1
 10
0.0
 20
0.0
 30
0.0
  3
*D6
  1

  0
LINE
  5
55A
330
511
100
AcDbEntity
  8
BEM
 62
     0
370
    -2
100
AcDbLine
 10
164.3739661315644
 20
299.07079880909
 30
0.0
 11
164.3739661315644
 21
280.8737946376748
 31
0.0
  0
LINE
  5
55B
330
511
100
AcDbEntity
  8
BEM
 62
     0
370
    -2
100
AcDbLine
 10
237.3739661315644
 20
299.0707988090901
 30
0.0
 11
237.3739661315644
 21
280.8737946376748
 31
0.0
  0
LINE
  5
55C
330
511
100
AcDbEntity
  8
BEM
 62
     0
370
    -2
100
AcDbLine
 10
171.3739661315644
 20
282.8737946376748
 30
0.0
 11
230.3739661315644
 21
282.8737946376748
 31
0.0
  0
SOLID
  5
55D
330
511
100
AcDbEntity
  8
BEM
 62
     0
100
AcDbTrace
 10
171.3739661315644
 20
284.0404613043416
 30
0.0
 11
171.3739661315644
 21
281.7071279710082
 31
0.0
 12
164.3739661315644
 22
282.8737946376748
 32
0.0
 13
164.3739661315644
 23
282.8737946376748
 33
0.0
  0
SOLID
  5
55E
330
511
100
AcDbEntity
  8
BEM
 62
     0
100
AcDbTrace
 10
230.3739661315644
 20
284.0404613043416
 30
0.0
 11
230.3739661315644
 21
281.7071279710082
 31
0.0
 12
237.3739661315644
 22
282.8737946376748
 32
0.0
 13
237.3739661315644
 23
282.8737946376748
 33
0.0
  0
MTEXT
  5
55F
330
511
100
AcDbEntity
  8
BEM
 62
     1
100
AcDbMText
 10
200.8739661315644
 20
289.3737946376749
 30
0.0
 40
7.0
 41
0.0
 71
     5
 72
     1
  1
\A1;%%C73
 73
     1
 44
1.0
  0
POINT
  5
560
330
511
100
AcDbEntity
  8
DEFPOINTS
 62
     0
100
AcDbPoint
 10
164.3739661315644
 20
301.07079880909
 30
0.0
  0
POINT
  5
561
330
511
100
AcDbEntity
  8
DEFPOINTS
 62
     0
100
AcDbPoint
 10
237.3739661315644
 20
301.0707988090902
 30
0.0
  0
POINT
  5
562
330
511
100
AcDbEntity
  8
DEFPOINTS
 62
     0
100
AcDbPoint
 10
237.3739661315644
 20
282.8737946376748
 30
0.0
  0
ENDBLK
  5
51D
330
511
100
AcDbEntity
  8
0
100
AcDbBlockEnd
  0
ENDSEC
  0
SECTION
  2
ENTITIES
  0
LINE
  5
57
330
1E
100
AcDbEntity
  8
STEMPEL
100
AcDbLine
 10
410.0
 20
110.0
 30
0.0
 11
39.99999999999997
 21
110.0
 31
0.0
  0
LINE
  5
58
330
1E
100
AcDbEntity
  8
STEMPEL
100
AcDbLine
 10
136.0000000000001
 20
109.9999999999999
 30
0.0
 11
136.0
 21
9.999999999999971
 31
0.0
  0
LINE
  5
59
330
1E
100
AcDbEntity
  8
STEMPEL
100
AcDbLine
 10
220.0
 20
110.0
 30
0.0
 11
220.0
 21
9.999999999999971
 31
0.0
  0
LINE
  5
5A
330
1E
100
AcDbEntity
  8
STEMPEL
100
AcDbLine
 10
332.0
 20
109.9999999999997
 30
0.0
 11
332.0
 21
40.0
 31
0.0
  0
LINE
  5
5B
330
1E
100
AcDbEntity
  8
STEMPEL
100
AcDbLine
 10
135.9999999999999
 20
29.99999999999997
 30
0.0
 11
39.99999999999997
 21
29.99999999999997
 31
0.0
  0
LINE
  5
5C
330
1E
100
AcDbEntity
  8
STEMPEL
100
AcDbLine
 10
410.0
 20
40.0
 30
0.0
 11
136.0000000000001
 21
39.99999999999997
 31
0.0
  0
LINE
  5
5D
330
1E
100
AcDbEntity
  8
STEMPEL
100
AcDbLine
 10
410.0
 20
80.0
 30
0.0
 11
136.0000000000001
 21
79.99999999999994
 31
0.0
  0
LINE
  5
5E
330
1E
100
AcDbEntity
  8
VOLL
100
AcDbLine
 10
54.00000000000009
 20
110.0
 30
0.0
 11
53.99999999999997
 21
9.999999999999971
 31
0.0
  0
LINE
  5
5F
330
1E
100
AcDbEntity
  8
VOLL
100
AcDbLine
 10
94.00000000000011
 20
109.9999999999999
 30
0.0
 11
94.0
 21
9.999999999999971
 31
0.0
  0
LINE
  5
60
330
1E
100
AcDbEntity
  8
VOLL
100
AcDbLine
 10
114.0000000000001
 20
109.9999999999999
 30
0.0
 11
114.0
 21
9.999999999999971
 31
0.0
  0
LINE
  5
61
330
1E
100
AcDbEntity
  8
VOLL
100
AcDbLine
 10
154.0000000000001
 20
79.99999999999994
 30
0.0
 11
154.0000000000001
 21
39.99999999999997
 31
0.0
  0
LINE
  5
62
330
1E
100
AcDbEntity
  8
VOLL
100
AcDbLine
 10
180.0000000000001
 20
109.9999999999998
 30
0.0
 11
180.0
 21
39.99999999999997
 31
0.0
  0
LINE
  5
63
330
1E
100
AcDbEntity
  8
HILF
100
AcDbLine
 10
40.00000000000008
 20
100.0
 30
0.0
 11
136.0000000000001
 21
100.0
 31
0.0
  0
LINE
  5
64
330
1E
100
AcDbEntity
  8
HILF
100
AcDbLine
 10
40.00000000000008
 20
90.00000000000005
 30
0.0
 11
136.0000000000001
 21
90.00000000000005
 31
0.0
  0
LINE
  5
65
330
1E
100
AcDbEntity
  8
HILF
100
AcDbLine
 10
40.00000000000008
 20
79.99999999999994
 30
0.0
 11
136.0000000000001
 21
79.99999999999994
 31
0.0
  0
LINE
  5
66
330
1E
100
AcDbEntity
  8
HILF
100
AcDbLine
 10
40.00000000000008
 20
69.99999999999994
 30
0.0
 11
136.0000000000001
 21
69.99999999999994
 31
0.0
  0
LINE
  5
67
330
1E
100
AcDbEntity
  8
HILF
100
AcDbLine
 10
40.00000000000008
 20
59.99999999999997
 30
0.0
 11
136.0000000000001
 21
59.99999999999997
 31
0.0
  0
LINE
  5
68
330
1E
100
AcDbEntity
  8
HILF
100
AcDbLine
 10
40.00000000000008
 20
49.99999999999997
 30
0.0
 11
136.0000000000001
 21
49.99999999999997
 31
0.0
  0
LINE
  5
69
330
1E
100
AcDbEntity
  8
HILF
100
AcDbLine
 10
40.00000000000008
 20
39.99999999999997
 30
0.0
 11
136.0000000000001
 21
39.99999999999997
 31
0.0
  0
LINE
  5
6A
330
1E
100
AcDbEntity
  8
HILF
100
AcDbLine
 10
136.0000000000001
 20
69.99999999999994
 30
0.0
 11
220.0
 21
69.99999999999994
 31
0.0
  0
LINE
  5
6B
330
1E
100
AcDbEntity
  8
HILF
100
AcDbLine
 10
136.0000000000001
 20
59.99999999999997
 30
0.0
 11
220.0
 21
59.99999999999997
 31
0.0
  0
LINE
  5
6C
330
1E
100
AcDbEntity
  8
HILF
100
AcDbLine
 10
136.0000000000001
 20
49.99999999999997
 30
0.0
 11
220.0
 21
49.99999999999997
 31
0.0
  0
LINE
  5
6D
330
1E
100
AcDbEntity
  8
HILF
100
AcDbLine
 10
224.7736801096948
 20
84.03758247564139
 30
0.0
 11
324.8353916556311
 21
84.03758247564139
 31
0.0
  0
LINE
  5
6E
330
1E
100
AcDbEntity
  8
HILF
100
AcDbLine
 10
224.7736801096948
 20
69.99999999999994
 30
0.0
 11
324.835391655631
 21
69.99999999999994
 31
0.0
  0
LINE
  5
6F
330
1E
100
AcDbEntity
  8
HILF
100
AcDbLine
 10
224.7736801096948
 20
59.99999999999997
 30
0.0
 11
324.835391655631
 21
59.99999999999997
 31
0.0
  0
LINE
  5
70
330
1E
100
AcDbEntity
  8
HILF
100
AcDbLine
 10
224.7736801096948
 20
49.99999999999997
 30
0.0
 11
324.835391655631
 21
49.99999999999997
 31
0.0
  0
LINE
  5
71
330
1E
100
AcDbEntity
  8
VOLL
100
AcDbLine
 10
332.0
 20
60.0
 30
0.0
 11
410.0
 21
60.0
 31
0.0
  0
LINE
  5
72
330
1E
100
AcDbEntity
  8
HILF
100
AcDbLine
 10
336.7238616296993
 20
83.77983636955827
 30
0.0
 11
404.8588839326728
 21
83.77983636955827
 31
0.0
  0
LINE
  5
73
330
1E
100
AcDbEntity
  8
HILF
100
AcDbLine
 10
223.4909699289885
 20
14.89398258028314
 30
0.0
 11
404.8588839326728
 21
14.89398258028314
 31
0.0
  0
TEXT
  5
74
330
1E
100
AcDbEntity
  8
TEXT
100
AcDbText
 10
63.86165979631819
 20
18.67381894984132
 30
0.0
 40
4.0
  1
Änderung
 41
0.8
  7
GREEKS
 72
     1
 11
74.60451693917534
 21
18.67381894984132
 31
0.0
100
AcDbText
  0
TEXT
  5
75
330
1E
100
AcDbEntity
  8
TEXT
100
AcDbText
 10
143.5163572150377
 20
102.4620895087088
 30
0.0
 40
5.0
  1
Maßstab
 41
0.8
  7
GREEKS
100
AcDbText
  0
TEXT
  5
76
330
1E
100
AcDbEntity
  8
TEXT
100
AcDbText
 10
184.2858954734051
 20
102.4184168434819
 30
0.0
 40
5.0
  1
Zul. Abw.
 41
0.8
  7
GREEKS
100
AcDbText
  0
TEXT
  5
77
330
1E
100
AcDbEntity
  8
TEXT
100
AcDbText
 10
224.877940380901
 20
102.5489328011779
 30
0.0
 40
5.0
  1
Benennung
 41
0.8
  7
GREEKS
100
AcDbText
  0
TEXT
  5
78
330
1E
100
AcDbEntity
  8
TEXT
100
AcDbText
 10
336.178754957634
 20
102.3132034537136
 30
0.0
 40
5.0
  1
Zeichnungs Nr.
 41
0.8
  7
GREEKS
100
AcDbText
  0
TEXT
  5
79
330
1E
100
AcDbEntity
  8
TEXT
100
AcDbText
 10
224.742238391136
 20
30.84560570193057
 30
0.0
 40
5.0
  1
Bauvorhaben
 41
0.8
  7
GREEKS
100
AcDbText
  0
TEXT
  5
7A
330
1E
100
AcDbEntity
  8
TEXT
100
AcDbText
 10
336.7238616296993
 20
73.1811823709997
 30
0.0
 40
5.0
  1
Ersatz für:
 41
0.8
  7
GREEKS
100
AcDbText
  0
TEXT
  5
7B
330
1E
100
AcDbEntity
  8
TEXT
100
AcDbText
 10
48.26641107045756
 20
13.65465846027192
 30
0.0
 40
4.0
  1
Index
 50
90.0
 41
0.8
  7
GREEKS
100
AcDbText
  0
TEXT
  5
7C
330
1E
100
AcDbEntity
  8
TEXT
100
AcDbText
 10
100.0934676075481
 20
18.6715626933981
 30
0.0
 40
4.0
  1
Tag
 41
0.8
  7
GREEKS
 72
     1
 11
103.8268009408814
 21
18.6715626933981
 31
0.0
100
AcDbText
  0
TEXT
  5
7D
330
1E
100
AcDbEntity
  8
TEXT
100
AcDbText
 10
119.0122744386592
 20
18.59324216966408
 30
0.0
 40
4.0
  1
Name
 41
0.8
  7
GREEKS
 72
     1
 11
125.3360839624688
 21
18.59324216966408
 31
0.0
100
AcDbText
  0
TEXT
  5
7E
330
1E
100
AcDbEntity
  8
TEXT
100
AcDbText
 10
162.3311673153651
 20
73.31880501229926
 30
0.0
 40
4.0
  1
Tag
 41
0.8
  7
GREEKS
100
AcDbText
  0
TEXT
  5
7F
330
1E
100
AcDbEntity
  8
TEXT
100
AcDbText
 10
192.4626584226295
 20
73.30961091915225
 30
0.0
 40
4.0
  1
Name
 41
0.8
  7
GREEKS
100
AcDbText
  0
TEXT
  5
80
330
1E
100
AcDbEntity
  8
TEXT
100
AcDbText
 10
137.5836127167615
 20
63.62990369617964
 30
0.0
 40
4.0
  1
Gez.
 41
0.8
  7
GREEKS
100
AcDbText
  0
TEXT
  5
81
330
1E
100
AcDbEntity
  8
TEXT
100
AcDbText
 10
137.5515086571672
 20
53.68926291428377
 30
0.0
 40
4.0
  1
Gepr.
 41
0.8
  7
GREEKS
100
AcDbText
  0
TEXT
  5
82
330
1E
100
AcDbEntity
  8
TEXT
100
AcDbText
 10
137.6006777387304
 20
43.52946389649807
 30
0.0
 40
4.0
  1
Norm.
 41
0.8
  7
GREEKS
100
AcDbText
  0
LINE
  5
83
330
1E
100
AcDbEntity
  8
STEMPEL
100
AcDbLine
 10
49.99999999999989
 20
10.0
 30
0.0
 11
410.0
 21
10.0
 31
0.0
  0
TEXT
  5
84
330
1E
100
AcDbEntity
  8
TEXT
100
AcDbText
 10
337.2400861497006
 20
52.07416177878602
 30
0.0
 40
5.0
  1
ersetzt durch:
 41
0.8
  7
GREEKS
100
AcDbText
  0
LINE
  5
85
330
1E
100
AcDbEntity
  8
STEMPEL
100
AcDbLine
 10
410.0
 20
10.0
 30
0.0
 11
39.99999999999989
 21
10.0
 31
0.0
  0
LINE
  5
86
330
1E
100
AcDbEntity
  8
STEMPEL
100
AcDbLine
 10
410.0
 20
10.0
 30
0.0
 11
410.0
 21
584.0
 31
0.0
  0
LINE
  5
87
330
1E
100
AcDbEntity
  8
STEMPEL
100
AcDbLine
 10
40.0
 20
10.0
 30
0.0
 11
39.99999999999989
 21
584.0
 31
0.0
  0
LINE
  5
88
330
1E
100
AcDbEntity
  8
STEMPEL
100
AcDbLine
 10
410.0
 20
584.0
 30
0.0
 11
39.99999999999989
 21
584.0
 31
0.0
  0
LINE
  5
89
330
1E
100
AcDbEntity
  8
HILF
100
AcDbLine
 10
0.0
 20
0.0
 30
0.0
 11
-0.0000000000001137
 21
594.0
 31
0.0
  0
LINE
  5
8A
330
1E
100
AcDbEntity
  8
HILF
100
AcDbLine
 10
419.9999999999999
 20
594.0000000000002
 30
0.0
 11
0.0
 21
594.0
 31
0.0
  0
LINE
  5
8B
330
1E
100
AcDbEntity
  8
HILF
100
AcDbLine
 10
420.0
 20
0.0
 30
0.0
 11
0.0
 21
0.0
 31
0.0
  0
LINE
  5
8C
330
1E
100
AcDbEntity
  8
HILF
100
AcDbLine
 10
31.08767135713856
 20
297.0
 30
0.0
 11
0.0000000000001137
 21
297.0
 31
0.0
  0
TEXT
  5
8D
330
1E
100
AcDbEntity
  8
TEXT
100
AcDbText
 10
138.622109822104
 20
73.14025471151666
 30
0.0
 40
4.0
  1
2008
 41
0.8
  7
GREEKS
100
AcDbText
  0
LINE
  5
8E
330
1E
100
AcDbEntity
  8
HILF
100
AcDbLine
 10
420.0
 20
-0.0000000000001137
 30
0.0
 11
419.9999999999999
 21
594.0
 31
0.0
  0
TEXT
  5
8F
330
1E
100
AcDbEntity
  8
VOLL
100
AcDbText
 10
78.07675471698113
 20
31.02594776470585
 30
0.0
 40
1.8
  1

  7
GREEKS
100
AcDbText
  0
TEXT
  5
90
330
1E
100
AcDbEntity
  8
TEXT
100
AcDbText
 10
41.85509950977674
 20
111.6719999999999
 30
0.0
 40
5.0
  1
Erstellt mit AUTOCAD 2004
 41
0.8
  7
GREEKS
100
AcDbText
  0
TEXT
  5
91
330
1E
100
AcDbEntity
  8
TEXT
100
AcDbText
 10
194.4216048581257
 20
63.0896391972351
 30
0.0
 40
4.0
  1
Koeh
 41
0.8
  7
GREEKS
 72
     1
 11
199.6787477152685
 21
63.0896391972351
 31
0.0
100
AcDbText
  0
TEXT
  5
92
330
1E
100
AcDbEntity
  8
TEXT
 62
     1
100
AcDbText
 10
346.5029603752774
 20
88.14901428913959
 30
0.0
 40
7.0
  1
15087000W
 41
0.8
  7
GREEKS
 72
     1
 11
369.9696270419441
 21
88.14901428913959
 31
0.0
100
AcDbText
  0
TEXT
  5
93
330
1E
100
AcDbEntity
  8
TEXT
 62
     1
100
AcDbText
 10
150.5006306481887
 20
88.14901428913959
 30
0.0
 40
7.0
  1
1:2
 41
0.8
  7
GREEKS
100
AcDbText
  0
TEXT
  5
94
330
1E
100
AcDbEntity
  8
TEXT
100
AcDbText
 10
160.7037590129979
 20
63.10765040825732
 30
0.0
 40
4.0
  1
19.05.
 41
0.8
  7
GREEKS
 72
     1
 11
167.4085209177598
 21
63.10765040825732
 31
0.0
100
AcDbText
  0
TEXT
  5
95
330
1E
100
AcDbEntity
  8
TEXT
 62
     1
100
AcDbText
 10
226.8935731057402
 20
87.41748789253779
 30
0.0
 40
7.0
  1
Siebeinheit
 41
0.8
  7
GREEKS
100
AcDbText
  0
TEXT
  5
96
330
1E
100
AcDbEntity
  8
TEXT
100
AcDbText
 10
225.1296391125315
 20
71.50334417585288
 30
0.0
 40
5.0
  1
mit Edelstahlsieb
 41
0.8
  7
GREEKS
100
AcDbText
  0
TEXT
  5
97
330
1E
100
AcDbEntity
  8
TEXT
100
AcDbText
 10
225.1296391125315
 20
62.11580706774856
 30
0.0
 40
5.0
  1

 41
0.8
  7
GREEKS
100
AcDbText
  0
TEXT
  5
98
330
1E
100
AcDbEntity
  8
TEXT
100
AcDbText
 10
225.1296391125315
 20
51.64011943042158
 30
0.0
 40
5.0
  1
EDV-Art.Nr. 15087.000X
 41
0.8
  7
GREEKS
100
AcDbText
  0
TEXT
  5
99
330
1E
100
AcDbEntity
  8
TEXT
100
AcDbText
 10
224.9837501577827
 20
42.62974153022632
 30
0.0
 40
4.0
  1
15078000W.DWG
 41
0.8
  7
GREEKS
100
AcDbText
  0
TEXT
  5
9A
330
1E
100
AcDbEntity
  8
TEXT
100
AcDbText
 10
182.626132208084
 20
90.76363841023022
 30
0.0
 40
4.0
  1
DIN EN1123-2
 41
0.8
  7
GREEKS
 72
     1
 11
199.6166083985602
 21
90.76363841023022
 31
0.0
100
AcDbText
  0
INSERT
  5
9B
330
1E
100
AcDbEntity
  8
STEMPEL
100
AcDbBlockReference
  2
LOGO
 10
140.9955485457794
 20
45.02105276448322
 30
0.0
 41
2.0
 42
2.0
 43
2.0
  0
TEXT
  5
118
330
1E
100
AcDbEntity
  8
BEM
100
AcDbText
 10
417.3022923857165
 20
10.16790107998849
 30
0.0
 40
4.0
  1
Diese Zeichnung ist urheberrechtlich geschützt und bleibt unser Eigentum. Sie darf weder ganz noch teilweise verfielfältigt und nicht an Dritte weitergegeben werden.
 50
90.0
 41
0.8
  7
GREEKS
100
AcDbText
  0
LINE
  5
3E1
330
1E
100
AcDbEntity
  8
BEM
 62
     1
100
AcDbLine
 10
297.2824739955961
 20
472.2620127160393
 30
0.0
 11
304.2824739955961
 21
472.2620127160393
 31
0.0
  0
LINE
  5
3E2
330
1E
100
AcDbEntity
  8
BEM
 62
     1
100
AcDbLine
 10
297.2824739955961
 20
465.2620127160392
 30
0.0
 11
304.2824739955961
 21
465.2620127160393
 31
0.0
  0
LINE
  5
3E3
330
1E
100
AcDbEntity
  8
BEM
 62
     1
100
AcDbLine
 10
304.2824739955961
 20
472.2620127160393
 30
0.0
 11
304.2824739955961
 21
465.2620127160393
 31
0.0
  0
LINE
  5
3E4
330
1E
100
AcDbEntity
  8
BEM
 62
     1
100
AcDbLine
 10
297.2824739955962
 20
472.2620127160393
 30
0.0
 11
297.2824739955962
 21
465.2620127160392
 31
0.0
  0
LINE
  5
3E5
330
1E
100
AcDbEntity
  8
BEM
 62
     1
100
AcDbLine
 10
349.0207763753858
 20
399.1345829538536
 30
0.0
 11
349.0207763753858
 21
392.1345829538536
 31
0.0
  0
LINE
  5
3E6
330
1E
100
AcDbEntity
  8
BEM
 62
     1
100
AcDbLine
 10
342.0207763753858
 20
399.1345829538536
 30
0.0
 11
342.0207763753858
 21
392.1345829538536
 31
0.0
  0
LINE
  5
3E7
330
1E
100
AcDbEntity
  8
BEM
 62
     1
100
AcDbLine
 10
342.0207763753857
 20
392.1345829538536
 30
0.0
 11
349.0207763753858
 21
392.1345829538536
 31
0.0
  0
LINE
  5
3E8
330
1E
100
AcDbEntity
  8
BEM
 62
     1
100
AcDbLine
 10
342.0207763753857
 20
399.1345829538536
 30
0.0
 11
349.0207763753858
 21
399.1345829538536
 31
0.0
  0
LINE
  5
3E9
330
1E
100
AcDbEntity
  8
STEMPEL
100
AcDbLine
 10
247.5739661315644
 20
448.590667224447
 30
0.0
 11
247.5739661315644
 21
451.07079880909
 31
0.0
  0
LINE
  5
3EA
330
1E
100
AcDbEntity
  8
STEMPEL
100
AcDbLine
 10
246.3739661315644
 20
445.0707988090899
 30
0.0
 11
247.8739661315644
 21
445.07079880909
 31
0.0
  0
LINE
  5
3EB
330
1E
100
AcDbEntity
  8
STEMPEL
100
AcDbLine
 10
246.3739661315644
 20
445.0707988090899
 30
0.0
 11
247.8739661315644
 21
445.07079880909
 31
0.0
  0
LINE
  5
3EC
330
1E
100
AcDbEntity
  8
STEMPEL
100
AcDbLine
 10
246.3739661315644
 20
445.07079880909
 30
0.0
 11
247.8739661315645
 21
445.0707988090899
 31
0.0
  0
LINE
  5
3ED
330
1E
100
AcDbEntity
  8
STEMPEL
100
AcDbLine
 10
246.3739661315644
 20
447.0707988090899
 30
0.0
 11
246.3739661315644
 21
445.0707988090899
 31
0.0
  0
LINE
  5
3EE
330
1E
100
AcDbEntity
  8
STEMPEL
100
AcDbLine
 10
246.3739661315644
 20
447.0707988090899
 30
0.0
 11
246.3739661315644
 21
445.0707988090899
 31
0.0
  0
LINE
  5
3EF
102
{ACAD_REACTORS
330
679
102
}
330
1E
100
AcDbEntity
  8
STEMPEL
100
AcDbLine
 10
246.3739661315644
 20
445.07079880909
 30
0.0
 11
246.3739661315644
 21
447.0707988090899
 31
0.0
  0
LINE
  5
3F0
330
1E
100
AcDbEntity
  8
STEMPEL
100
AcDbLine
 10
247.8739661315644
 20
445.07079880909
 30
0.0
 11
247.8739661315644
 21
447.07079880909
 31
0.0
  0
LINE
  5
3F1
330
1E
100
AcDbEntity
  8
STEMPEL
100
AcDbLine
 10
247.8739661315644
 20
445.07079880909
 30
0.0
 11
247.8739661315644
 21
447.07079880909
 31
0.0
  0
LINE
  5
3F2
102
{ACAD_REACTORS
330
679
102
}
330
1E
100
AcDbEntity
  8
STEMPEL
100
AcDbLine
 10
247.8739661315644
 20
445.07079880909
 30
0.0
 11
247.8739661315644
 21
447.07079880909
 31
0.0
  0
LINE
  5
3F3
102
{ACAD_REACTORS
330
640
102
}
330
1E
100
AcDbEntity
  8
STEMPEL
100
AcDbLine
 10
251.3739661315644
 20
451.07079880909
 30
0.0
 11
251.3739661315644
 21
442.07079880909
 31
0.0
  0
LINE
  5
3F4
102
{ACAD_REACTORS
330
640
102
}
330
1E
100
AcDbEntity
  8
STEMPEL
100
AcDbLine
 10
248.3739661315644
 20
451.07079880909
 30
0.0
 11
248.3739661315644
 21
445.07079880909
 31
0.0
  0
LINE
  5
3F5
330
1E
100
AcDbEntity
  8
STEMPEL
100
AcDbLine
 10
234.5724509413994
 20
449.57079880909
 30
0.0
 11
243.8739661315644
 21
449.57079880909
 31
0.0
  0
LINE
  5
3F6
330
1E
100
AcDbEntity
  8
STEMPEL
100
AcDbLine
 10
234.5724509413994
 20
449.57079880909
 30
0.0
 11
243.8739661315644
 21
449.57079880909
 31
0.0
  0
LINE
  5
3F7
102
{ACAD_REACTORS
330
679
102
}
330
1E
100
AcDbEntity
  8
STEMPEL
100
AcDbLine
 10
234.5724509413994
 20
449.57079880909
 30
0.0
 11
243.8739661315644
 21
449.57079880909
 31
0.0
  0
LINE
  5
3F8
330
1E
100
AcDbEntity
  8
STEMPEL
100
AcDbLine
 10
230.5724509413993
 20
447.0707988090899
 30
0.0
 11
232.0724509413994
 21
447.0707988090899
 31
0.0
  0
LINE
  5
3F9
330
1E
100
AcDbEntity
  8
STEMPEL
100
AcDbLine
 10
230.5724509413993
 20
447.0707988090899
 30
0.0
 11
232.0724509413994
 21
447.0707988090899
 31
0.0
  0
LINE
  5
3FA
102
{ACAD_REACTORS
330
679
102
}
330
1E
100
AcDbEntity
  8
STEMPEL
100
AcDbLine
 10
230.5724509413993
 20
447.0707988090899
 30
0.0
 11
232.0724509413994
 21
447.0707988090899
 31
0.0
  0
LINE
  5
3FB
330
1E
100
AcDbEntity
  8
STEMPEL
100
AcDbLine
 10
232.0724509413994
 20
447.0707988090899
 30
0.0
 11
239.9205101526717
 21
447.0707988090899
 31
0.0
  0
ARC
  5
3FC
102
{ACAD_REACTORS
330
679
102
}
330
1E
100
AcDbEntity
  8
STEMPEL
100
AcDbCircle
 10
234.5724509413994
 20
447.0707988090899
 30
0.0
 40
2.500000000000028
100
AcDbArc
 50
90.0
 51
180.0
  0
ARC
  5
3FD
330
1E
100
AcDbEntity
  8
STEMPEL
100
AcDbCircle
 10
234.5724509413993
 20
447.0707988090899
 30
0.0
 40
4.0
100
AcDbArc
 50
90.0
 51
180.0
  0
ARC
  5
3FE
330
1E
100
AcDbEntity
  8
STEMPEL
100
AcDbCircle
 10
234.5724509413993
 20
447.0707988090899
 30
0.0
 40
4.0
100
AcDbArc
 50
90.0
 51
180.0
  0
ARC
  5
3FF
102
{ACAD_REACTORS
330
679
102
}
330
1E
100
AcDbEntity
  8
STEMPEL
100
AcDbCircle
 10
234.5724509413993
 20
447.0707988090899
 30
0.0
 40
4.000000000000002
100
AcDbArc
 50
90.0
 51
180.0
  0
ARC
  5
400
330
1E
100
AcDbEntity
  8
STEMPEL
100
AcDbCircle
 10
234.5724509413994
 20
447.0707988090899
 30
0.0
 40
2.5
100
AcDbArc
 50
90.0
 51
180.0
  0
ARC
  5
401
330
1E
100
AcDbEntity
  8
STEMPEL
100
AcDbCircle
 10
234.5724509413994
 20
447.0707988090899
 30
0.0
 40
2.5
100
AcDbArc
 50
90.0
 51
180.0
  0
LINE
  5
402
330
1E
100
AcDbEntity
  8
STEMPEL
100
AcDbLine
 10
239.9205101526717
 20
447.0707988090899
 30
0.0
 11
239.9205101526717
 21
449.57079880909
 31
0.0
  0
LINE
  5
403
102
{ACAD_REACTORS
330
640
102
}
330
1E
100
AcDbEntity
  8
STEMPEL
100
AcDbLine
 10
244.3739661315643
 20
442.07079880909
 30
0.0
 11
251.3739661315644
 21
442.07079880909
 31
0.0
  0
ARC
  5
404
330
1E
100
AcDbEntity
  8
STEMPEL
100
AcDbCircle
 10
243.8739661315644
 20
447.07079880909
 30
0.0
 40
4.0
100
AcDbArc
 50
0.0
 51
90.0
  0
ARC
  5
405
330
1E
100
AcDbEntity
  8
STEMPEL
100
AcDbCircle
 10
243.8739661315644
 20
447.0707988090899
 30
0.0
 40
2.5
100
AcDbArc
 50
0.0
 51
90.0
  0
ARC
  5
406
330
1E
100
AcDbEntity
  8
STEMPEL
100
AcDbCircle
 10
243.8739661315644
 20
447.07079880909
 30
0.0
 40
4.0
100
AcDbArc
 50
0.0
 51
90.0
  0
ARC
  5
407
102
{ACAD_REACTORS
330
679
102
}
330
1E
100
AcDbEntity
  8
STEMPEL
100
AcDbCircle
 10
243.8739661315644
 20
447.07079880909
 30
0.0
 40
4.0
100
AcDbArc
 50
0.0
 51
90.0
  0
ARC
  5
408
330
1E
100
AcDbEntity
  8
STEMPEL
100
AcDbCircle
 10
243.8739661315644
 20
447.0707988090899
 30
0.0
 40
2.5
100
AcDbArc
 50
0.0
 51
90.0
  0
ARC
  5
409
102
{ACAD_REACTORS
330
679
102
}
330
1E
100
AcDbEntity
  8
STEMPEL
100
AcDbCircle
 10
243.8739661315644
 20
447.0707988090899
 30
0.0
 40
2.500000000000002
100
AcDbArc
 50
0.0
 51
90.0
  0
LINE
  5
40A
102
{ACAD_REACTORS
330
640
102
}
330
1E
100
AcDbEntity
  8
TEXT
 62
     2
100
AcDbLine
 10
273.7966950952055
 20
463.2900541470196
 30
0.0
 11
245.8558177319319
 21
449.7742144411951
 31
0.0
  0
LINE
  5
40B
102
{ACAD_REACTORS
330
640
102
}
330
1E
100
AcDbEntity
  8
STEMPEL
100
AcDbLine
 10
236.8739661315644
 20
420.0707988090901
 30
0.0
 11
237.3739661315644
 21
420.0707988090901
 31
0.0
  0
LINE
  5
40C
102
{ACAD_REACTORS
330
640
102
}
330
1E
100
AcDbEntity
  8
STEMPEL
100
AcDbLine
 10
236.8739661315644
 20
423.0707988090902
 30
0.0
 11
237.3739661315644
 21
423.0707988090901
 31
0.0
  0
LINE
  5
40D
102
{ACAD_REACTORS
330
640
102
}
330
1E
100
AcDbEntity
  8
STEMPEL
100
AcDbLine
 10
236.8739661315644
 20
423.0707988090902
 30
0.0
 11
236.8739661315644
 21
420.0707988090901
 31
0.0
  0
LINE
  5
40E
102
{ACAD_REACTORS
330
640
102
}
330
1E
100
AcDbEntity
  8
STEMPEL
100
AcDbLine
 10
237.3739661315644
 20
435.0707988090901
 30
0.0
 11
237.3739661315644
 21
423.0707988090901
 31
0.0
  0
LINE
  5
40F
102
{ACAD_REACTORS
330
640
102
}
330
1E
100
AcDbEntity
  8
STEMPEL
100
AcDbLine
 10
236.8739661315644
 20
408.0707988090901
 30
0.0
 11
237.3739661315644
 21
408.0707988090901
 31
0.0
  0
LINE
  5
410
102
{ACAD_REACTORS
330
640
102
}
330
1E
100
AcDbEntity
  8
STEMPEL
100
AcDbLine
 10
236.8739661315644
 20
405.0707988090901
 30
0.0
 11
237.3739661315644
 21
405.0707988090901
 31
0.0
  0
LINE
  5
411
102
{ACAD_REACTORS
330
640
102
}
330
1E
100
AcDbEntity
  8
STEMPEL
100
AcDbLine
 10
236.8739661315644
 20
405.0707988090901
 30
0.0
 11
236.8739661315644
 21
408.0707988090901
 31
0.0
  0
LINE
  5
412
102
{ACAD_REACTORS
330
640
102
}
330
1E
100
AcDbEntity
  8
STEMPEL
100
AcDbLine
 10
236.8739661315644
 20
393.0707988090901
 30
0.0
 11
237.3739661315644
 21
393.0707988090901
 31
0.0
  0
LINE
  5
413
102
{ACAD_REACTORS
330
640
102
}
330
1E
100
AcDbEntity
  8
STEMPEL
100
AcDbLine
 10
236.8739661315644
 20
390.0707988090902
 30
0.0
 11
237.3739661315644
 21
390.0707988090902
 31
0.0
  0
LINE
  5
414
102
{ACAD_REACTORS
330
640
102
}
330
1E
100
AcDbEntity
  8
STEMPEL
100
AcDbLine
 10
236.8739661315644
 20
393.0707988090902
 30
0.0
 11
236.8739661315644
 21
390.0707988090902
 31
0.0
  0
LINE
  5
415
102
{ACAD_REACTORS
330
640
102
}
330
1E
100
AcDbEntity
  8
STEMPEL
100
AcDbLine
 10
237.3739661315644
 20
405.0707988090901
 30
0.0
 11
237.3739661315644
 21
393.0707988090901
 31
0.0
  0
LINE
  5
416
102
{ACAD_REACTORS
330
640
102
}
330
1E
100
AcDbEntity
  8
STEMPEL
100
AcDbLine
 10
237.3739661315644
 20
420.0707988090901
 30
0.0
 11
237.3739661315644
 21
408.07079880909
 31
0.0
  0
LINE
  5
417
102
{ACAD_REACTORS
330
640
102
}
330
1E
100
AcDbEntity
  8
STEMPEL
100
AcDbLine
 10
242.8739661315644
 20
445.07079880909
 30
0.0
 11
232.8739661315644
 21
435.07079880909
 31
0.0
  0
LINE
  5
418
102
{ACAD_REACTORS
330
640
102
}
330
1E
100
AcDbEntity
  8
STEMPEL
100
AcDbLine
 10
237.3739661315644
 20
435.0707988090901
 30
0.0
 11
244.3739661315643
 21
442.07079880909
 31
0.0
  0
LINE
  5
419
330
1E
100
AcDbEntity
  8
BEM
 62
     1
100
AcDbLine
 10
196.1919626188219
 20
475.3026044185111
 30
0.0
 11
196.1919626188219
 21
468.3026044185111
 31
0.0
  0
LINE
  5
41A
102
{ACAD_REACTORS
330
679
102
}
330
1E
100
AcDbEntity
  8
STEMPEL
100
AcDbLine
 10
217.6018881929223
 20
449.5707988090899
 30
0.0
 11
218.087169567161
 21
449.57079880909
 31
0.0
  0
LINE
  5
41B
330
1E
100
AcDbEntity
  8
STEMPEL
100
AcDbLine
 10
213.6018881929223
 20
447.0707988090899
 30
0.0
 11
215.1018881929223
 21
447.0707988090899
 31
0.0
  0
LINE
  5
41C
330
1E
100
AcDbEntity
  8
STEMPEL
100
AcDbLine
 10
220.587169567161
 20
447.0707988090899
 30
0.0
 11
222.087169567161
 21
447.0707988090899
 31
0.0
  0
ARC
  5
41D
102
{ACAD_REACTORS
330
679
102
}
330
1E
100
AcDbEntity
  8
STEMPEL
100
AcDbCircle
 10
218.087169567161
 20
447.07079880909
 30
0.0
 40
4.0
100
AcDbArc
 50
0.0
 51
90.0
  0
ARC
  5
41E
102
{ACAD_REACTORS
330
679
102
}
330
1E
100
AcDbEntity
  8
STEMPEL
100
AcDbCircle
 10
218.087169567161
 20
447.07079880909
 30
0.0
 40
2.5
100
AcDbArc
 50
0.0
 51
90.0
  0
ARC
  5
41F
102
{ACAD_REACTORS
330
679
102
}
330
1E
100
AcDbEntity
  8
STEMPEL
100
AcDbCircle
 10
217.6018881929223
 20
447.0707988090899
 30
0.0
 40
2.5
100
AcDbArc
 50
90.0
 51
180.0
  0
ARC
  5
420
102
{ACAD_REACTORS
330
679
102
}
330
1E
100
AcDbEntity
  8
STEMPEL
100
AcDbCircle
 10
217.6018881929223
 20
447.07079880909
 30
0.0
 40
4.0
100
AcDbArc
 50
90.0
 51
180.0
  0
LINE
  5
421
102
{ACAD_REACTORS
330
679
102
}
330
1E
100
AcDbEntity
  8
STEMPEL
100
AcDbLine
 10
199.3886847573258
 20
449.57079880909
 30
0.0
 11
202.3592475058029
 21
449.57079880909
 31
0.0
  0
LINE
  5
422
330
1E
100
AcDbEntity
  8
STEMPEL
100
AcDbLine
 10
204.8592475058029
 20
447.0707988090899
 30
0.0
 11
206.359247505803
 21
447.0707988090899
 31
0.0
  0
ARC
  5
423
102
{ACAD_REACTORS
330
679
102
}
330
1E
100
AcDbEntity
  8
STEMPEL
100
AcDbCircle
 10
202.359247505803
 20
447.0707988090899
 30
0.0
 40
4.0
100
AcDbArc
 50
0.0
 51
90.0
  0
ARC
  5
424
102
{ACAD_REACTORS
330
679
102
}
330
1E
100
AcDbEntity
  8
STEMPEL
100
AcDbCircle
 10
199.3886847573258
 20
447.07079880909
 30
0.0
 40
2.5
100
AcDbArc
 50
90.0
 51
180.0
  0
ARC
  5
425
102
{ACAD_REACTORS
330
679
102
}
330
1E
100
AcDbEntity
  8
STEMPEL
100
AcDbCircle
 10
202.3592475058029
 20
447.07079880909
 30
0.0
 40
2.5
100
AcDbArc
 50
0.0
 51
90.0
  0
LINE
  5
426
330
1E
100
AcDbEntity
  8
BEM
 62
     1
100
AcDbLine
 10
189.1919626188219
 20
475.3026044185111
 30
0.0
 11
189.1919626188219
 21
468.302604418511
 31
0.0
  0
LINE
  5
427
102
{ACAD_REACTORS
330
679
102
}
330
1E
100
AcDbEntity
  8
STEMPEL
100
AcDbLine
 10
183.660762695968
 20
449.57079880909
 30
0.0
 11
184.1460440702066
 21
449.57079880909
 31
0.0
  0
LINE
  5
428
330
1E
100
AcDbEntity
  8
STEMPEL
100
AcDbLine
 10
179.660762695968
 20
447.0707988090899
 30
0.0
 11
181.160762695968
 21
447.0707988090899
 31
0.0
  0
LINE
  5
429
330
1E
100
AcDbEntity
  8
STEMPEL
100
AcDbLine
 10
186.6460440702066
 20
447.0707988090899
 30
0.0
 11
188.1460440702066
 21
447.0707988090899
 31
0.0
  0
ARC
  5
42A
102
{ACAD_REACTORS
330
679
102
}
330
1E
100
AcDbEntity
  8
STEMPEL
100
AcDbCircle
 10
184.1460440702066
 20
447.07079880909
 30
0.0
 40
2.5
100
AcDbArc
 50
0.0
 51
90.0
  0
ARC
  5
42B
102
{ACAD_REACTORS
330
679
102
}
330
1E
100
AcDbEntity
  8
STEMPEL
100
AcDbCircle
 10
184.1460440702066
 20
447.0707988090899
 30
0.0
 40
4.0
100
AcDbArc
 50
0.0
 51
90.0
  0
ARC
  5
42C
102
{ACAD_REACTORS
330
679
102
}
330
1E
100
AcDbEntity
  8
STEMPEL
100
AcDbCircle
 10
183.660762695968
 20
447.0707988090899
 30
0.0
 40
2.5
100
AcDbArc
 50
90.0
 51
180.0
  0
ARC
  5
42D
102
{ACAD_REACTORS
330
679
102
}
330
1E
100
AcDbEntity
  8
STEMPEL
100
AcDbCircle
 10
183.660762695968
 20
447.0707988090899
 30
0.0
 40
4.0
100
AcDbArc
 50
90.0
 51
180.0
  0
LINE
  5
42E
330
1E
100
AcDbEntity
  8
STEMPEL
100
AcDbLine
 10
169.6754813217294
 20
447.0707988090899
 30
0.0
 11
171.1754813217295
 21
447.0707988090899
 31
0.0
  0
LINE
  5
42F
102
{ACAD_REACTORS
330
679
102
}
330
1E
100
AcDbEntity
  8
MITTEL
100
AcDbLine
 10
165.8739661315644
 20
440.07079880909
 30
0.0
 11
165.8739661315645
 21
454.57079880909
 31
0.0
  0
LINE
  5
430
330
1E
100
AcDbEntity
  8
STEMPEL
100
AcDbLine
 10
170.1239661315644
 20
445.07079880909
 30
0.0
 11
170.1239661315644
 21
447.07079880909
 31
0.0
  0
ARC
  5
431
102
{ACAD_REACTORS
330
679
102
}
330
1E
100
AcDbEntity
  8
STEMPEL
100
AcDbCircle
 10
167.1754813217295
 20
447.0707988090899
 30
0.0
 40
2.5
100
AcDbArc
 50
0.0
 51
90.0
  0
ARC
  5
432
102
{ACAD_REACTORS
330
679
102
}
330
1E
100
AcDbEntity
  8
STEMPEL
100
AcDbCircle
 10
167.1754813217295
 20
447.0707988090899
 30
0.0
 40
4.0
100
AcDbArc
 50
0.0
 51
90.0
  0
LINE
  5
433
330
1E
100
AcDbEntity
  8
BEM
 62
     1
100
AcDbLine
 10
189.1919626188218
 20
475.3026044185111
 30
0.0
 11
196.1919626188219
 21
475.3026044185111
 31
0.0
  0
LINE
  5
434
330
1E
100
AcDbEntity
  8
BEM
 62
     1
100
AcDbLine
 10
189.1919626188218
 20
468.302604418511
 30
0.0
 11
196.1919626188219
 21
468.3026044185111
 31
0.0
  0
ARC
  5
435
102
{ACAD_REACTORS
330
679
102
}
330
1E
100
AcDbEntity
  8
STEMPEL
100
AcDbCircle
 10
199.3886847573258
 20
447.0707988090899
 30
0.0
 40
4.0
100
AcDbArc
 50
90.0
 51
180.0
  0
LINE
  5
436
330
1E
100
AcDbEntity
  8
STEMPEL
100
AcDbLine
 10
195.3886847573258
 20
447.0707988090899
 30
0.0
 11
196.8886847573258
 21
447.0707988090899
 31
0.0
  0
LINE
  5
437
102
{ACAD_REACTORS
330
640
102
}
330
1E
100
AcDbEntity
  8
STEMPEL
100
AcDbLine
 10
164.8739661315645
 20
423.0707988090902
 30
0.0
 11
164.8739661315645
 21
420.0707988090901
 31
0.0
  0
LINE
  5
438
102
{ACAD_REACTORS
330
640
102
}
330
1E
100
AcDbEntity
  8
STEMPEL
100
AcDbLine
 10
164.8739661315645
 20
423.0707988090902
 30
0.0
 11
164.3739661315644
 21
423.0707988090901
 31
0.0
  0
LINE
  5
439
102
{ACAD_REACTORS
330
640
102
}
330
1E
100
AcDbEntity
  8
STEMPEL
100
AcDbLine
 10
164.8739661315645
 20
420.0707988090901
 30
0.0
 11
164.3739661315644
 21
420.0707988090901
 31
0.0
  0
LINE
  5
43A
102
{ACAD_REACTORS
330
640
102
}
330
1E
100
AcDbEntity
  8
STEMPEL
100
AcDbLine
 10
164.3739661315645
 20
435.0707988090901
 30
0.0
 11
164.3739661315645
 21
423.0707988090901
 31
0.0
  0
LINE
  5
43B
102
{ACAD_REACTORS
330
640
102
}
330
1E
100
AcDbEntity
  8
STEMPEL
100
AcDbLine
 10
164.8739661315645
 20
405.0707988090901
 30
0.0
 11
164.8739661315645
 21
408.0707988090901
 31
0.0
  0
LINE
  5
43C
102
{ACAD_REACTORS
330
640
102
}
330
1E
100
AcDbEntity
  8
STEMPEL
100
AcDbLine
 10
164.8739661315645
 20
405.0707988090901
 30
0.0
 11
164.3739661315644
 21
405.0707988090901
 31
0.0
  0
LINE
  5
43D
102
{ACAD_REACTORS
330
640
102
}
330
1E
100
AcDbEntity
  8
STEMPEL
100
AcDbLine
 10
164.8739661315645
 20
408.0707988090901
 30
0.0
 11
164.3739661315644
 21
408.0707988090901
 31
0.0
  0
LINE
  5
43E
102
{ACAD_REACTORS
330
640
102
}
330
1E
100
AcDbEntity
  8
STEMPEL
100
AcDbLine
 10
164.8739661315645
 20
393.0707988090902
 30
0.0
 11
164.8739661315645
 21
390.0707988090902
 31
0.0
  0
LINE
  5
43F
102
{ACAD_REACTORS
330
640
102
}
330
1E
100
AcDbEntity
  8
STEMPEL
100
AcDbLine
 10
164.8739661315645
 20
390.0707988090902
 30
0.0
 11
164.3739661315644
 21
390.0707988090902
 31
0.0
  0
LINE
  5
440
102
{ACAD_REACTORS
330
640
102
}
330
1E
100
AcDbEntity
  8
STEMPEL
100
AcDbLine
 10
164.8739661315645
 20
393.0707988090901
 30
0.0
 11
164.3739661315644
 21
393.0707988090901
 31
0.0
  0
LINE
  5
441
102
{ACAD_REACTORS
330
640
102
}
330
1E
100
AcDbEntity
  8
STEMPEL
100
AcDbLine
 10
164.3739661315645
 20
405.0707988090901
 30
0.0
 11
164.3739661315645
 21
393.0707988090901
 31
0.0
  0
LINE
  5
442
102
{ACAD_REACTORS
330
640
102
}
330
1E
100
AcDbEntity
  8
STEMPEL
100
AcDbLine
 10
164.3739661315645
 20
420.0707988090901
 30
0.0
 11
164.3739661315645
 21
408.07079880909
 31
0.0
  0
LINE
  5
443
330
1E
100
AcDbEntity
  8
STEMPEL
100
AcDbLine
 10
168.8739661315644
 20
435.07079880909
 30
0.0
 11
232.8739661315644
 21
435.07079880909
 31
0.0
  0
LINE
  5
444
102
{ACAD_REACTORS
330
640
102
}
330
1E
100
AcDbEntity
  8
STEMPEL
100
AcDbLine
 10
236.8739661315644
 20
378.0707988090902
 30
0.0
 11
237.3739661315644
 21
378.0707988090902
 31
0.0
  0
LINE
  5
445
102
{ACAD_REACTORS
330
640
102
}
330
1E
100
AcDbEntity
  8
STEMPEL
100
AcDbLine
 10
236.8739661315644
 20
375.0707988090902
 30
0.0
 11
237.3739661315644
 21
375.0707988090902
 31
0.0
  0
LINE
  5
446
102
{ACAD_REACTORS
330
640
102
}
330
1E
100
AcDbEntity
  8
STEMPEL
100
AcDbLine
 10
236.8739661315644
 20
378.0707988090902
 30
0.0
 11
236.8739661315644
 21
375.0707988090902
 31
0.0
  0
LINE
  5
447
102
{ACAD_REACTORS
330
640
102
}
330
1E
100
AcDbEntity
  8
STEMPEL
100
AcDbLine
 10
236.8739661315644
 20
363.0707988090902
 30
0.0
 11
236.8739661315644
 21
360.0707988090901
 31
0.0
  0
LINE
  5
448
102
{ACAD_REACTORS
330
640
102
}
330
1E
100
AcDbEntity
  8
STEMPEL
100
AcDbLine
 10
236.8739661315644
 20
360.0707988090901
 30
0.0
 11
237.3739661315644
 21
360.0707988090901
 31
0.0
  0
LINE
  5
449
102
{ACAD_REACTORS
330
640
102
}
330
1E
100
AcDbEntity
  8
STEMPEL
100
AcDbLine
 10
236.8739661315644
 20
363.0707988090902
 30
0.0
 11
237.3739661315644
 21
363.0707988090902
 31
0.0
  0
LINE
  5
44A
102
{ACAD_REACTORS
330
640
102
}
330
1E
100
AcDbEntity
  8
STEMPEL
100
AcDbLine
 10
236.8739661315644
 20
345.0707988090901
 30
0.0
 11
237.3739661315644
 21
345.0707988090901
 31
0.0
  0
LINE
  5
44B
102
{ACAD_REACTORS
330
640
102
}
330
1E
100
AcDbEntity
  8
STEMPEL
100
AcDbLine
 10
236.8739661315644
 20
348.0707988090902
 30
0.0
 11
237.3739661315644
 21
348.0707988090902
 31
0.0
  0
LINE
  5
44C
102
{ACAD_REACTORS
330
640
102
}
330
1E
100
AcDbEntity
  8
STEMPEL
100
AcDbLine
 10
236.8739661315644
 20
348.0707988090902
 30
0.0
 11
236.8739661315644
 21
345.0707988090901
 31
0.0
  0
LINE
  5
44D
102
{ACAD_REACTORS
330
640
102
}
330
1E
100
AcDbEntity
  8
STEMPEL
100
AcDbLine
 10
237.3739661315644
 20
360.0707988090901
 30
0.0
 11
237.3739661315644
 21
348.0707988090902
 31
0.0
  0
LINE
  5
44E
102
{ACAD_REACTORS
330
640
102
}
330
1E
100
AcDbEntity
  8
STEMPEL
100
AcDbLine
 10
237.3739661315644
 20
375.0707988090902
 30
0.0
 11
237.3739661315644
 21
363.0707988090902
 31
0.0
  0
LINE
  5
44F
102
{ACAD_REACTORS
330
640
102
}
330
1E
100
AcDbEntity
  8
STEMPEL
100
AcDbLine
 10
236.8739661315644
 20
333.0707988090901
 30
0.0
 11
237.3739661315644
 21
333.0707988090901
 31
0.0
  0
LINE
  5
450
102
{ACAD_REACTORS
330
640
102
}
330
1E
100
AcDbEntity
  8
STEMPEL
100
AcDbLine
 10
236.8739661315644
 20
330.0707988090902
 30
0.0
 11
237.3739661315644
 21
330.0707988090902
 31
0.0
  0
LINE
  5
451
102
{ACAD_REACTORS
330
640
102
}
330
1E
100
AcDbEntity
  8
STEMPEL
100
AcDbLine
 10
236.8739661315644
 20
333.0707988090901
 30
0.0
 11
236.8739661315644
 21
330.0707988090902
 31
0.0
  0
LINE
  5
452
102
{ACAD_REACTORS
330
640
102
}
330
1E
100
AcDbEntity
  8
STEMPEL
100
AcDbLine
 10
236.8739661315644
 20
318.0707988090901
 30
0.0
 11
236.8739661315644
 21
315.0707988090902
 31
0.0
  0
LINE
  5
453
102
{ACAD_REACTORS
330
640
102
}
330
1E
100
AcDbEntity
  8
STEMPEL
100
AcDbLine
 10
236.8739661315644
 20
315.0707988090902
 30
0.0
 11
237.3739661315644
 21
315.0707988090902
 31
0.0
  0
LINE
  5
454
102
{ACAD_REACTORS
330
640
102
}
330
1E
100
AcDbEntity
  8
STEMPEL
100
AcDbLine
 10
236.8739661315644
 20
318.0707988090901
 30
0.0
 11
237.3739661315644
 21
318.0707988090901
 31
0.0
  0
LINE
  5
455
102
{ACAD_REACTORS
330
640
102
}
330
1E
100
AcDbEntity
  8
STEMPEL
100
AcDbLine
 10
235.3739661315644
 20
301.0707988090902
 30
0.0
 11
237.3739661315644
 21
301.0707988090902
 31
0.0
  0
LINE
  5
456
102
{ACAD_REACTORS
330
640
102
}
330
1E
100
AcDbEntity
  8
STEMPEL
100
AcDbLine
 10
237.3739661315644
 20
315.0707988090902
 30
0.0
 11
237.3739661315644
 21
301.0707988090902
 31
0.0
  0
LINE
  5
457
102
{ACAD_REACTORS
330
640
102
}
330
1E
100
AcDbEntity
  8
STEMPEL
100
AcDbLine
 10
237.3739661315644
 20
330.0707988090902
 30
0.0
 11
237.3739661315644
 21
318.0707988090901
 31
0.0
  0
LINE
  5
458
102
{ACAD_REACTORS
330
640
102
}
330
1E
100
AcDbEntity
  8
STEMPEL
100
AcDbLine
 10
237.3739661315644
 20
345.0707988090902
 30
0.0
 11
237.3739661315644
 21
333.0707988090901
 31
0.0
  0
LINE
  5
459
102
{ACAD_REACTORS
330
640
102
}
330
1E
100
AcDbEntity
  8
STEMPEL
100
AcDbLine
 10
164.8739661315645
 20
378.0707988090902
 30
0.0
 11
164.8739661315645
 21
375.0707988090902
 31
0.0
  0
LINE
  5
45A
102
{ACAD_REACTORS
330
640
102
}
330
1E
100
AcDbEntity
  8
STEMPEL
100
AcDbLine
 10
164.8739661315645
 20
375.0707988090902
 30
0.0
 11
164.3739661315644
 21
375.0707988090902
 31
0.0
  0
LINE
  5
45B
102
{ACAD_REACTORS
330
640
102
}
330
1E
100
AcDbEntity
  8
STEMPEL
100
AcDbLine
 10
164.8739661315645
 20
378.0707988090902
 30
0.0
 11
164.3739661315644
 21
378.0707988090902
 31
0.0
  0
LINE
  5
45C
102
{ACAD_REACTORS
330
640
102
}
330
1E
100
AcDbEntity
  8
STEMPEL
100
AcDbLine
 10
164.8739661315645
 20
363.0707988090902
 30
0.0
 11
164.8739661315645
 21
360.0707988090901
 31
0.0
  0
LINE
  5
45D
102
{ACAD_REACTORS
330
640
102
}
330
1E
100
AcDbEntity
  8
STEMPEL
100
AcDbLine
 10
164.8739661315645
 20
360.0707988090901
 30
0.0
 11
164.3739661315644
 21
360.0707988090901
 31
0.0
  0
LINE
  5
45E
102
{ACAD_REACTORS
330
640
102
}
330
1E
100
AcDbEntity
  8
STEMPEL
100
AcDbLine
 10
164.8739661315645
 20
363.0707988090902
 30
0.0
 11
164.3739661315644
 21
363.0707988090902
 31
0.0
  0
LINE
  5
45F
102
{ACAD_REACTORS
330
640
102
}
330
1E
100
AcDbEntity
  8
STEMPEL
100
AcDbLine
 10
164.8739661315645
 20
348.0707988090902
 30
0.0
 11
164.8739661315645
 21
345.0707988090901
 31
0.0
  0
LINE
  5
460
102
{ACAD_REACTORS
330
640
102
}
330
1E
100
AcDbEntity
  8
STEMPEL
100
AcDbLine
 10
164.8739661315645
 20
348.0707988090902
 30
0.0
 11
164.3739661315644
 21
348.0707988090902
 31
0.0
  0
LINE
  5
461
102
{ACAD_REACTORS
330
640
102
}
330
1E
100
AcDbEntity
  8
STEMPEL
100
AcDbLine
 10
164.8739661315645
 20
345.0707988090901
 30
0.0
 11
164.3739661315644
 21
345.0707988090901
 31
0.0
  0
LINE
  5
462
102
{ACAD_REACTORS
330
640
102
}
330
1E
100
AcDbEntity
  8
STEMPEL
100
AcDbLine
 10
164.3739661315645
 20
360.0707988090901
 30
0.0
 11
164.3739661315644
 21
348.0707988090902
 31
0.0
  0
LINE
  5
463
102
{ACAD_REACTORS
330
640
102
}
330
1E
100
AcDbEntity
  8
STEMPEL
100
AcDbLine
 10
164.3739661315645
 20
375.0707988090902
 30
0.0
 11
164.3739661315645
 21
363.0707988090902
 31
0.0
  0
LINE
  5
464
102
{ACAD_REACTORS
330
640
102
}
330
1E
100
AcDbEntity
  8
STEMPEL
100
AcDbLine
 10
164.8739661315645
 20
333.0707988090901
 30
0.0
 11
164.3739661315644
 21
333.0707988090901
 31
0.0
  0
LINE
  5
465
102
{ACAD_REACTORS
330
640
102
}
330
1E
100
AcDbEntity
  8
STEMPEL
100
AcDbLine
 10
164.8739661315645
 20
330.0707988090902
 30
0.0
 11
164.3739661315644
 21
330.0707988090902
 31
0.0
  0
LINE
  5
466
102
{ACAD_REACTORS
330
640
102
}
330
1E
100
AcDbEntity
  8
STEMPEL
100
AcDbLine
 10
164.8739661315645
 20
333.0707988090901
 30
0.0
 11
164.8739661315645
 21
330.0707988090902
 31
0.0
  0
LINE
  5
467
102
{ACAD_REACTORS
330
640
102
}
330
1E
100
AcDbEntity
  8
STEMPEL
100
AcDbLine
 10
164.8739661315645
 20
318.0707988090901
 30
0.0
 11
164.8739661315645
 21
315.0707988090902
 31
0.0
  0
LINE
  5
468
102
{ACAD_REACTORS
330
640
102
}
330
1E
100
AcDbEntity
  8
STEMPEL
100
AcDbLine
 10
164.8739661315645
 20
315.0707988090902
 30
0.0
 11
164.3739661315644
 21
315.0707988090902
 31
0.0
  0
LINE
  5
469
102
{ACAD_REACTORS
330
640
102
}
330
1E
100
AcDbEntity
  8
STEMPEL
100
AcDbLine
 10
164.8739661315645
 20
318.0707988090901
 30
0.0
 11
164.3739661315644
 21
318.0707988090901
 31
0.0
  0
LINE
  5
46A
102
{ACAD_REACTORS
330
640
102
}
330
1E
100
AcDbEntity
  8
STEMPEL
100
AcDbLine
 10
166.3739661315644
 20
301.0707988090902
 30
0.0
 11
164.3739661315644
 21
301.0707988090902
 31
0.0
  0
LINE
  5
46B
102
{ACAD_REACTORS
330
640
102
}
330
1E
100
AcDbEntity
  8
STEMPEL
100
AcDbLine
 10
164.3739661315644
 20
315.0707988090902
 30
0.0
 11
164.3739661315644
 21
301.0707988090902
 31
0.0
  0
LINE
  5
46C
102
{ACAD_REACTORS
330
640
102
}
330
1E
100
AcDbEntity
  8
STEMPEL
100
AcDbLine
 10
164.3739661315644
 20
330.0707988090902
 30
0.0
 11
164.3739661315644
 21
318.0707988090901
 31
0.0
  0
LINE
  5
46D
102
{ACAD_REACTORS
330
640
102
}
330
1E
100
AcDbEntity
  8
STEMPEL
100
AcDbLine
 10
164.3739661315644
 20
345.0707988090902
 30
0.0
 11
164.3739661315644
 21
333.0707988090901
 31
0.0
  0
LINE
  5
46E
330
1E
100
AcDbEntity
  8
STEMPEL
100
AcDbLine
 10
166.3739661315644
 20
301.07079880909
 30
0.0
 11
235.3739661315644
 21
301.0707988090902
 31
0.0
  0
LINE
  5
46F
102
{ACAD_REACTORS
330
640
102
}
330
1E
100
AcDbEntity
  8
STEMPEL
100
AcDbLine
 10
232.8739661315644
 20
435.07079880909
 30
0.0
 11
235.3739661315644
 21
301.0707988090902
 31
0.0
  0
LINE
  5
470
102
{ACAD_REACTORS
330
640
102
}
330
1E
100
AcDbEntity
  8
STEMPEL
100
AcDbLine
 10
168.8739661315644
 20
435.07079880909
 30
0.0
 11
166.3739661315644
 21
301.0707988090902
 31
0.0
  0
LINE
  5
471
102
{ACAD_REACTORS
330
640
102
}
330
1E
100
AcDbEntity
  8
STEMPEL
100
AcDbLine
 10
164.3739661315645
 20
390.0707988090902
 30
0.0
 11
164.3739661315645
 21
378.0707988090902
 31
0.0
  0
LINE
  5
472
102
{ACAD_REACTORS
330
640
102
}
330
1E
100
AcDbEntity
  8
STEMPEL
100
AcDbLine
 10
237.3739661315644
 20
390.0707988090902
 30
0.0
 11
237.3739661315644
 21
378.0707988090902
 31
0.0
  0
LINE
  5
473
330
1E
100
AcDbEntity
  8
TEXT
 62
     2
100
AcDbLine
 10
276.5498213955003
 20
390.1626243848339
 30
0.0
 11
235.5310111884584
 21
370.4808629376028
 31
0.0
  0
TEXT
  5
474
330
1E
100
AcDbEntity
  8
TEXT
 62
     1
100
AcDbText
 10
277.1381275097767
 20
392.115114389044
 30
0.0
 40
7.0
  1
Siebaufnahme   100
 41
0.8
  7
GREEKS
100
AcDbText
  0
TEXT
  5
475
330
1E
100
AcDbEntity
  8
TEXT
 62
     1
100
AcDbText
 10
277.1381275097767
 20
381.3301848171997
 30
0.0
 40
7.0
  1
EDV-Art.Nr. 15094.000X
 41
0.8
  7
GREEKS
100
AcDbText
  0
LINE
  5
476
330
1E
100
AcDbEntity
  8
TEXT
 62
     2
100
AcDbLine
 10
276.5498213955003
 20
390.1626243848339
 30
0.0
 11
382.0571760815635
 21
390.1626243848339
 31
0.0
  0
LINE
  5
477
330
1E
100
AcDbEntity
  8
TEXT
 62
     2
100
AcDbLine
 10
273.7966950952055
 20
463.2900541470196
 30
0.0
 11
379.3040497812688
 21
463.2900541470196
 31
0.0
  0
TEXT
  5
478
330
1E
100
AcDbEntity
  8
TEXT
 62
     1
100
AcDbText
 10
274.385001209482
 20
465.2425441512296
 30
0.0
 40
7.0
  1
Sieb   84
 41
0.8
  7
GREEKS
100
AcDbText
  0
TEXT
  5
479
330
1E
100
AcDbEntity
  8
TEXT
 62
     1
100
AcDbText
 10
274.385001209482
 20
454.4576145793853
 30
0.0
 40
7.0
  1
EDV-Art.Nr. 15096.000X
 41
0.8
  7
GREEKS
100
AcDbText
  0
LINE
  5
47A
330
1E
100
AcDbEntity
  8
STEMPEL
100
AcDbLine
 10
154.1739661315645
 20
448.5906672244471
 30
0.0
 11
154.1739661315645
 21
451.07079880909
 31
0.0
  0
LINE
  5
47B
330
1E
100
AcDbEntity
  8
STEMPEL
100
AcDbLine
 10
153.8739661315644
 20
445.0707988090899
 30
0.0
 11
155.3739661315644
 21
445.0707988090899
 31
0.0
  0
LINE
  5
47C
102
{ACAD_REACTORS
330
679
102
}
330
1E
100
AcDbEntity
  8
STEMPEL
100
AcDbLine
 10
153.8739661315644
 20
445.0707988090899
 30
0.0
 11
153.8739661315644
 21
447.0707988090899
 31
0.0
  0
LINE
  5
47D
102
{ACAD_REACTORS
330
679
102
}
330
1E
100
AcDbEntity
  8
STEMPEL
100
AcDbLine
 10
155.3739661315644
 20
445.0707988090899
 30
0.0
 11
155.3739661315644
 21
447.0707988090899
 31
0.0
  0
LINE
  5
47E
102
{ACAD_REACTORS
330
640
102
}
330
1E
100
AcDbEntity
  8
STEMPEL
100
AcDbLine
 10
157.3739661315646
 20
442.07079880909
 30
0.0
 11
150.3739661315644
 21
442.0707988090899
 31
0.0
  0
LINE
  5
47F
102
{ACAD_REACTORS
330
640
102
}
330
1E
100
AcDbEntity
  8
STEMPEL
100
AcDbLine
 10
150.3739661315644
 20
451.07079880909
 30
0.0
 11
150.3739661315644
 21
442.0707988090899
 31
0.0
  0
LINE
  5
480
102
{ACAD_REACTORS
330
640
102
}
330
1E
100
AcDbEntity
  8
STEMPEL
100
AcDbLine
 10
153.3739661315644
 20
451.07079880909
 30
0.0
 11
153.3739661315644
 21
445.07079880909
 31
0.0
  0
LINE
  5
481
330
1E
100
AcDbEntity
  8
STEMPEL
100
AcDbLine
 10
161.6239661315645
 20
445.07079880909
 30
0.0
 11
161.6239661315645
 21
449.57079880909
 31
0.0
  0
ARC
  5
482
102
{ACAD_REACTORS
330
679
102
}
330
1E
100
AcDbEntity
  8
STEMPEL
100
AcDbCircle
 10
157.8739661315644
 20
447.0707988090899
 30
0.0
 40
2.5
100
AcDbArc
 50
90.0
 51
180.0
  0
ARC
  5
483
102
{ACAD_REACTORS
330
679
102
}
330
1E
100
AcDbEntity
  8
STEMPEL
100
AcDbCircle
 10
157.8739661315644
 20
447.0707988090899
 30
0.0
 40
4.0
100
AcDbArc
 50
90.0
 51
180.0
  0
LINE
  5
484
330
1E
100
AcDbEntity
  8
STEMPEL
100
AcDbLine
 10
161.8870460323018
 20
447.0707988090899
 30
0.0
 11
161.8870460323018
 21
449.57079880909
 31
0.0
  0
DIMENSION
  5
485
330
1E
100
AcDbEntity
  8
BEM
100
AcDbDimension
  2
*D1
 10
137.7917275104203
 20
442.0707988090899
 30
0.0
 11
131.2917275104202
 21
423.3374654757566
 31
0.0
 70
    32
 71
     5
 42
9.000000000000113
  3
Standard
100
AcDbAlignedDimension
 13
150.3739661315644
 23
451.07079880909
 33
0.0
 14
150.3739661315644
 24
442.0707988090899
 34
0.0
 50
90.0
100
AcDbRotatedDimension
1001
ACAD
1000
DSTYLE
1002
{
1070
    40
1040
2.0
1070
    41
1040
3.5
1070
    42
1040
1.0
1070
    43
1040
7.0
1070
    44
1040
1.0
1070
    73
1070
     0
1070
    74
1070
     0
1070
    77
1070
     1
1070
    78
1070
     8
1070
    79
1070
     2
1070
   140
1040
3.5
1070
   141
1040
1.5
1070
   146
1040
0.5142857142857144
1070
   147
1040
1.5
1070
   172
1070
     1
1070
   178
1070
     1
1070
   179
1070
     2
1070
   271
1070
     2
1070
   272
1070
     2
1070
   284
1070
     8
1070
   285
1070
     8
1070
   286
1070
     8
1002
}
  0
DIMENSION
  5
486
330
1E
100
AcDbEntity
  8
BEM
100
AcDbDimension
  2
*D2
 10
124.068331021896
 20
451.0707988090901
 30
0.0
 11
117.5683310218959
 21
376.0707988090902
 31
0.0
 70
    32
 71
     5
 42
149.9999999999999
  3
Standard
100
AcDbAlignedDimension
 13
164.3739661315644
 23
301.0707988090902
 33
0.0
 14
150.8739661315644
 24
451.07079880909
 34
0.0
 50
90.0
100
AcDbRotatedDimension
1001
ACAD
1000
DSTYLE
1002
{
1070
    40
1040
2.0
1070
    41
1040
3.5
1070
    42
1040
1.0
1070
    43
1040
7.0
1070
    44
1040
1.0
1070
    73
1070
     0
1070
    74
1070
     0
1070
    77
1070
     1
1070
    78
1070
     8
1070
    79
1070
     2
1070
   140
1040
3.5
1070
   141
1040
1.5
1070
   146
1040
0.5142857142857144
1070
   147
1040
1.5
1070
   172
1070
     1
1070
   178
1070
     1
1070
   179
1070
     2
1070
   271
1070
     2
1070
   272
1070
     2
1070
   284
1070
     8
1070
   285
1070
     8
1070
   286
1070
     8
1002
}
  0
DIMENSION
  5
488
330
1E
100
AcDbEntity
  8
BEM
100
AcDbDimension
  2
*D3
 10
251.3739661315644
 20
465.2744926141138
 30
0.0
 11
203.6302132039113
 21
465.2744926141138
 31
0.0
 70
   160
 71
     5
 42
101.0
  3
Standard
100
AcDbAlignedDimension
 13
150.3739661315644
 23
451.07079880909
 33
0.0
 14
251.3739661315644
 24
451.07079880909
 34
0.0
100
AcDbRotatedDimension
1001
ACAD
1000
DSTYLE
1002
{
1070
    40
1040
2.0
1070
    41
1040
3.5
1070
    42
1040
1.0
1070
    43
1040
7.0
1070
    44
1040
1.0
1070
    73
1070
     0
1070
    74
1070
     0
1070
    77
1070
     1
1070
    78
1070
     8
1070
    79
1070
     2
1070
   140
1040
3.5
1070
   141
1040
1.5
1070
   146
1040
0.5142857142857144
1070
   147
1040
1.5
1070
   172
1070
     1
1070
   178
1070
     1
1070
   179
1070
     2
1070
   271
1070
     2
1070
   272
1070
     2
1070
   284
1070
     8
1070
   285
1070
     8
1070
   286
1070
     8
1002
}
  0
LINE
  5
489
102
{ACAD_REACTORS
330
640
330
679
102
}
330
1E
100
AcDbEntity
  8
STEMPEL
100
AcDbLine
 10
153.3739661315644
 20
445.07079880909
 30
0.0
 11
248.3739661315644
 21
445.07079880909
 31
0.0
  0
LINE
  5
48A
102
{ACAD_REACTORS
330
640
330
679
102
}
330
1E
100
AcDbEntity
  8
STEMPEL
100
AcDbLine
 10
150.3739661315644
 20
451.07079880909
 30
0.0
 11
251.3739661315644
 21
451.07079880909
 31
0.0
  0
LINE
  5
48B
102
{ACAD_REACTORS
330
640
102
}
330
1E
100
AcDbEntity
  8
STEMPEL
100
AcDbLine
 10
158.8739661315644
 20
445.07079880909
 30
0.0
 11
168.8739661315644
 21
435.07079880909
 31
0.0
  0
LINE
  5
48D
102
{ACAD_REACTORS
330
640
102
}
330
1E
100
AcDbEntity
  8
STEMPEL
100
AcDbLine
 10
164.3739661315645
 20
435.0707988090901
 30
0.0
 11
157.3739661315646
 21
442.07079880909
 31
0.0
  0
LINE
  5
48E
102
{ACAD_REACTORS
330
679
102
}
330
1E
100
AcDbEntity
  8
STEMPEL
100
AcDbLine
 10
157.8739661315644
 20
449.5707988090899
 30
0.0
 11
167.1754813217295
 21
449.5707988090899
 31
0.0
  0
LINE
  5
48F
330
1E
100
AcDbEntity
  8
STEMPEL
100
AcDbLine
 10
161.8870460323018
 20
447.07079880909
 30
0.0
 11
167.6087297966518
 21
447.0707988090899
 31
0.0
  0
LINE
  5
491
102
{ACAD_REACTORS
330
679
102
}
330
1E
100
AcDbEntity
  8
STEMPEL
100
AcDbLine
 10
231.4490414712602
 20
447.0707988090899
 30
0.0
 11
161.8870460323018
 21
447.0707988090899
 31
0.0
  0
ARC
  5
492
102
{ACAD_REACTORS
330
5E6
102
}
330
1E
100
AcDbEntity
  8
STEMPEL
100
AcDbCircle
 10
239.7710276469925
 20
230.8153355289864
 30
0.0
 40
1.0
100
AcDbArc
 50
29.41191366553184
 51
170.0000000000014
  0
LINE
  5
493
102
{ACAD_REACTORS
330
5E6
102
}
330
1E
100
AcDbEntity
  8
STEMPEL
100
AcDbLine
 10
239.6181938245426
 20
226.1443254573235
 30
0.0
 11
241.3739661315644
 21
221.3203806900772
 31
0.0
  0
LINE
  5
494
102
{ACAD_REACTORS
330
5E6
102
}
330
1E
100
AcDbEntity
  8
STEMPEL
100
AcDbLine
 10
242.7739661315644
 20
218.8153355289863
 30
0.0
 11
241.3739661315644
 21
220.2153355289864
 31
0.0
  0
LINE
  5
495
102
{ACAD_REACTORS
330
5E6
102
}
330
1E
100
AcDbEntity
  8
STEMPEL
100
AcDbLine
 10
242.7739661315644
 20
217.8153355289863
 30
0.0
 11
241.3739661315644
 21
216.4153355289863
 31
0.0
  0
LINE
  5
496
102
{ACAD_REACTORS
330
5E6
102
}
330
1E
100
AcDbEntity
  8
STEMPEL
100
AcDbLine
 10
241.3739661315644
 20
216.4153355289863
 30
0.0
 11
241.3739661315644
 21
215.8153355289863
 31
0.0
  0
LINE
  5
497
102
{ACAD_REACTORS
330
5E6
102
}
330
1E
100
AcDbEntity
  8
STEMPEL
100
AcDbLine
 10
241.3739661315644
 20
221.3203806900772
 30
0.0
 11
241.3739661315644
 21
220.2153355289864
 31
0.0
  0
LINE
  5
498
102
{ACAD_REACTORS
330
5E6
102
}
330
1E
100
AcDbEntity
  8
STEMPEL
100
AcDbLine
 10
242.7739661315644
 20
218.8153355289863
 30
0.0
 11
242.7739661315644
 21
217.8153355289863
 31
0.0
  0
LINE
  5
499
102
{ACAD_REACTORS
330
5E6
102
}
330
1E
100
AcDbEntity
  8
STEMPEL
100
AcDbLine
 10
243.1739661315644
 20
226.8153355289864
 30
0.0
 11
240.0880401349354
 21
226.8153355289864
 31
0.0
  0
ARC
  5
49A
102
{ACAD_REACTORS
330
5E6
102
}
330
1E
100
AcDbEntity
  8
STEMPEL
100
AcDbCircle
 10
240.0880401349354
 20
226.3153355289864
 30
0.0
 40
0.5
100
AcDbArc
 50
90.0
 51
199.9999999999964
  0
LINE
  5
49B
102
{ACAD_REACTORS
330
5E6
102
}
330
1E
100
AcDbEntity
  8
STEMPEL
100
AcDbLine
 10
237.8739661315644
 20
225.8153355289863
 30
0.0
 11
237.8739661315644
 21
215.8153355289863
 31
0.0
  0
LINE
  5
49C
102
{ACAD_REACTORS
330
5E6
102
}
330
1E
100
AcDbEntity
  8
STEMPEL
100
AcDbLine
 10
243.6739661315645
 20
211.8153355289863
 30
0.0
 11
241.8739661315644
 21
211.8153355289863
 31
0.0
  0
ARC
  5
49D
102
{ACAD_REACTORS
330
5E6
102
}
330
1E
100
AcDbEntity
  8
STEMPEL
100
AcDbCircle
 10
240.2576123103944
 20
212.9153355289864
 30
0.0
 40
0.9
100
AcDbArc
 50
28.35500602840614
 51
175.3175831377314
  0
LINE
  5
49E
102
{ACAD_REACTORS
330
5E6
102
}
330
1E
100
AcDbEntity
  8
STEMPEL
100
AcDbLine
 10
241.8739661315644
 20
211.8153355289863
 30
0.0
 11
241.0496319357335
 21
213.3427754815851
 31
0.0
  0
LINE
  5
49F
330
1E
100
AcDbEntity
  8
STEMPEL
100
AcDbLine
 10
241.8739661315644
 20
211.8153355289863
 30
0.0
 11
239.0820653751123
 21
211.8153355289863
 31
0.0
  0
ARC
  5
4A0
102
{ACAD_REACTORS
330
5E6
102
}
330
1E
100
AcDbEntity
  8
STEMPEL
100
AcDbCircle
 10
235.3739661315644
 20
213.3153355289863
 30
0.0
 40
4.0
100
AcDbArc
 50
337.975687162958
 51
355.3175831377314
  0
LINE
  5
4A1
102
{ACAD_REACTORS
330
5E6
102
}
330
1E
100
AcDbEntity
  8
STEMPEL
100
AcDbLine
 10
235.3739661315644
 20
209.3153355289863
 30
0.0
 11
232.8739661315644
 21
209.3153355289863
 31
0.0
  0
LINE
  5
4A2
102
{ACAD_REACTORS
330
5E6
102
}
330
1E
100
AcDbEntity
  8
STEMPEL
100
AcDbLine
 10
232.8739661315644
 20
210.8153355289863
 30
0.0
 11
232.8739661315644
 21
209.3153355289863
 31
0.0
  0
ARC
  5
4A3
102
{ACAD_REACTORS
330
5E6
102
}
330
1E
100
AcDbEntity
  8
STEMPEL
100
AcDbCircle
 10
235.3739661315644
 20
213.3153355289863
 30
0.0
 40
4.0
100
AcDbArc
 50
270.0
 51
337.975687162958
  0
ARC
  5
4A4
102
{ACAD_REACTORS
330
5E6
102
}
330
1E
100
AcDbEntity
  8
STEMPEL
100
AcDbCircle
 10
232.8739661315644
 20
215.8153355289863
 30
0.0
 40
5.0
100
AcDbArc
 50
270.0
 51
0.0
  0
LINE
  5
4A5
102
{ACAD_REACTORS
330
5E6
102
}
330
1E
100
AcDbEntity
  8
STEMPEL
100
AcDbLine
 10
243.6739661315645
 20
211.8153355289863
 30
0.0
 11
241.3739661315644
 21
215.8153355289863
 31
0.0
  0
LINE
  5
4A6
102
{ACAD_REACTORS
330
5E6
102
}
330
1E
100
AcDbEntity
  8
STEMPEL
100
AcDbLine
 10
243.1739661315645
 20
226.8153355289864
 30
0.0
 11
240.6421393643417
 21
231.3064204258187
 31
0.0
  0
LINE
  5
4A7
102
{ACAD_REACTORS
330
5E6
102
}
330
1E
100
AcDbEntity
  8
STEMPEL
100
AcDbLine
 10
237.8739661315644
 20
225.8153355289863
 30
0.0
 11
238.7862198939803
 21
230.9889837066533
 31
0.0
  0
LINE
  5
4A8
330
1E
100
AcDbEntity
  8
TEXT
 62
     2
100
AcDbLine
 10
275.1732587294892
 20
236.210138589519
 30
0.0
 11
240.1274833085084
 21
218.9044432344608
 31
0.0
  0
LINE
  5
4A9
330
1E
100
AcDbEntity
  8
MITTEL
100
AcDbLine
 10
200.8739661315644
 20
236.8153355289863
 30
0.0
 11
200.8739661315645
 21
204.3153355289863
 31
0.0
  0
LINE
  5
4AA
102
{ACAD_REACTORS
330
5E6
102
}
330
1E
100
AcDbEntity
  8
STEMPEL
100
AcDbLine
 10
163.8739661315644
 20
225.8153355289863
 30
0.0
 11
163.8739661315644
 21
215.8153355289863
 31
0.0
  0
ARC
  5
4AB
102
{ACAD_REACTORS
330
5E6
102
}
330
1E
100
AcDbEntity
  8
STEMPEL
100
AcDbCircle
 10
166.3739661315644
 20
213.3153355289863
 30
0.0
 40
4.0
100
AcDbArc
 50
202.0243128370421
 51
270.0
  0
ARC
  5
4AC
102
{ACAD_REACTORS
330
5E6
102
}
330
1E
100
AcDbEntity
  8
STEMPEL
100
AcDbCircle
 10
166.3739661315644
 20
213.3153355289863
 30
0.0
 40
4.0
100
AcDbArc
 50
184.6824168622685
 51
202.0243128370421
  0
LINE
  5
4AD
102
{ACAD_REACTORS
330
5E6
102
}
330
1E
100
AcDbEntity
  8
STEMPEL
100
AcDbLine
 10
168.8739661315644
 20
210.8153355289863
 30
0.0
 11
168.8739661315644
 21
209.3153355289863
 31
0.0
  0
LINE
  5
4AE
102
{ACAD_REACTORS
330
5E6
102
}
330
1E
100
AcDbEntity
  8
STEMPEL
100
AcDbLine
 10
166.3739661315644
 20
209.3153355289863
 30
0.0
 11
168.8739661315644
 21
209.3153355289863
 31
0.0
  0
ARC
  5
4AF
102
{ACAD_REACTORS
330
5E6
102
}
330
1E
100
AcDbEntity
  8
STEMPEL
100
AcDbCircle
 10
168.8739661315644
 20
215.8153355289863
 30
0.0
 40
5.0
100
AcDbArc
 50
180.0
 51
270.0
  0
LINE
  5
4B0
102
{ACAD_REACTORS
330
5E6
102
}
330
1E
100
AcDbEntity
  8
STEMPEL
100
AcDbLine
 10
163.8739661315644
 20
225.8153355289863
 30
0.0
 11
162.9617123691486
 21
230.9889837066533
 31
0.0
  0
LINE
  5
4B1
330
1E
100
AcDbEntity
  8
STEMPEL
100
AcDbLine
 10
161.9769046161364
 20
231.8153355289863
 30
0.0
 11
200.8739661315645
 21
231.8153355289863
 31
0.0
  0
LINE
  5
4B2
330
1E
100
AcDbEntity
  8
STEMPEL
100
AcDbLine
 10
163.8739661315644
 20
225.8153355289863
 30
0.0
 11
200.8739661315645
 21
225.8153355289863
 31
0.0
  0
LINE
  5
4B3
330
1E
100
AcDbEntity
  8
STEMPEL
100
AcDbLine
 10
168.8739661315644
 20
209.3153355289863
 30
0.0
 11
200.8739661315645
 21
209.3153355289863
 31
0.0
  0
LINE
  5
4B4
330
1E
100
AcDbEntity
  8
STEMPEL
100
AcDbLine
 10
168.8739661315644
 20
210.8153355289863
 30
0.0
 11
200.8739661315645
 21
210.8153355289863
 31
0.0
  0
LINE
  5
4B5
330
1E
100
AcDbEntity
  8
STEMPEL
100
AcDbLine
 10
239.7710276469925
 20
231.8153355289863
 30
0.0
 11
200.8739661315645
 21
231.8153355289863
 31
0.0
  0
LINE
  5
4B6
330
1E
100
AcDbEntity
  8
STEMPEL
100
AcDbLine
 10
237.8739661315644
 20
225.8153355289863
 30
0.0
 11
200.8739661315645
 21
225.8153355289863
 31
0.0
  0
LINE
  5
4B7
330
1E
100
AcDbEntity
  8
STEMPEL
100
AcDbLine
 10
232.8739661315644
 20
209.3153355289863
 30
0.0
 11
200.8739661315645
 21
209.3153355289863
 31
0.0
  0
LINE
  5
4B8
330
1E
100
AcDbEntity
  8
STEMPEL
100
AcDbLine
 10
232.8739661315644
 20
210.8153355289863
 30
0.0
 11
200.8739661315645
 21
210.8153355289863
 31
0.0
  0
TEXT
  5
4B9
330
1E
100
AcDbEntity
  8
TEXT
 62
     1
100
AcDbText
 10
275.7615648437657
 20
238.1626285937291
 30
0.0
 40
7.0
  1
Dichtelement DN70
 41
0.8
  7
GREEKS
100
AcDbText
  0
TEXT
  5
4BA
330
1E
100
AcDbEntity
  8
TEXT
 62
     1
100
AcDbText
 10
275.7615648437657
 20
227.3776990218848
 30
0.0
 40
7.0
  1
EDV-Art.Nr. 00911.070X
 41
0.8
  7
GREEKS
100
AcDbText
  0
LINE
  5
4BB
330
1E
100
AcDbEntity
  8
TEXT
 62
     2
100
AcDbLine
 10
275.1732587294892
 20
236.210138589519
 30
0.0
 11
378.8063414252658
 21
236.210138589519
 31
0.0
  0
LINE
  5
4BC
102
{ACAD_REACTORS
330
5E6
102
}
330
1E
100
AcDbEntity
  8
STEMPEL
100
AcDbLine
 10
160.3739661315644
 20
221.3203806900772
 30
0.0
 11
160.3739661315644
 21
220.2153355289864
 31
0.0
  0
LINE
  5
4BD
102
{ACAD_REACTORS
330
5E6
102
}
330
1E
100
AcDbEntity
  8
STEMPEL
100
AcDbLine
 10
160.3739661315644
 20
216.4153355289863
 30
0.0
 11
160.3739661315644
 21
215.8153355289863
 31
0.0
  0
LINE
  5
4BE
102
{ACAD_REACTORS
330
5E6
102
}
330
1E
100
AcDbEntity
  8
STEMPEL
100
AcDbLine
 10
158.9739661315645
 20
218.8153355289863
 30
0.0
 11
158.9739661315645
 21
217.8153355289863
 31
0.0
  0
LINE
  5
4BF
102
{ACAD_REACTORS
330
5E6
102
}
330
1E
100
AcDbEntity
  8
STEMPEL
100
AcDbLine
 10
158.9739661315645
 20
217.8153355289863
 30
0.0
 11
160.3739661315644
 21
216.4153355289863
 31
0.0
  0
LINE
  5
4C0
102
{ACAD_REACTORS
330
5E6
102
}
330
1E
100
AcDbEntity
  8
STEMPEL
100
AcDbLine
 10
158.9739661315645
 20
218.8153355289863
 30
0.0
 11
160.3739661315644
 21
220.2153355289864
 31
0.0
  0
LINE
  5
4C1
102
{ACAD_REACTORS
330
5E6
102
}
330
1E
100
AcDbEntity
  8
STEMPEL
100
AcDbLine
 10
158.5739661315645
 20
226.8153355289864
 30
0.0
 11
161.6598921281934
 21
226.8153355289864
 31
0.0
  0
LINE
  5
4C2
102
{ACAD_REACTORS
330
5E6
102
}
330
1E
100
AcDbEntity
  8
STEMPEL
100
AcDbLine
 10
159.8739661315644
 20
211.8153355289863
 30
0.0
 11
160.6983003273954
 21
213.3427754815851
 31
0.0
  0
LINE
  5
4C3
102
{ACAD_REACTORS
330
5E6
102
}
330
1E
100
AcDbEntity
  8
STEMPEL
100
AcDbLine
 10
158.0739661315644
 20
211.8153355289863
 30
0.0
 11
159.8739661315644
 21
211.8153355289863
 31
0.0
  0
LINE
  5
4C4
102
{ACAD_REACTORS
330
5E6
102
}
330
1E
100
AcDbEntity
  8
STEMPEL
100
AcDbLine
 10
158.0739661315644
 20
211.8153355289863
 30
0.0
 11
160.3739661315644
 21
215.8153355289863
 31
0.0
  0
LINE
  5
4C5
102
{ACAD_REACTORS
330
5E6
102
}
330
1E
100
AcDbEntity
  8
STEMPEL
100
AcDbLine
 10
158.5739661315644
 20
226.8153355289864
 30
0.0
 11
161.1057928987872
 21
231.3064204258187
 31
0.0
  0
DIMENSION
  5
4C6
330
1E
100
AcDbEntity
  8
BEM
100
AcDbDimension
  2
*D4
 10
243.1739661315645
 20
240.1919220948666
 30
0.0
 11
200.8739661315644
 21
246.6919220948666
 31
0.0
 70
    32
  1
%%c<>
 71
     5
 42
84.60000000000011
  3
Standard
100
AcDbAlignedDimension
 13
158.5739661315644
 23
226.8153355289864
 33
0.0
 14
243.1739661315645
 24
226.8153355289864
 34
0.0
100
AcDbRotatedDimension
1001
ACAD
1000
DSTYLE
1002
{
1070
    40
1040
2.0
1070
    41
1040
3.5
1070
    42
1040
1.0
1070
    43
1040
7.0
1070
    44
1040
1.0
1070
    73
1070
     0
1070
    74
1070
     0
1070
    77
1070
     1
1070
    78
1070
     8
1070
    79
1070
     2
1070
   140
1040
3.5
1070
   141
1040
1.5
1070
   146
1040
0.5142857142857144
1070
   147
1040
1.5
1070
   172
1070
     1
1070
   178
1070
     1
1070
   179
1070
     2
1070
   271
1070
     2
1070
   272
1070
     2
1070
   284
1070
     8
1070
   285
1070
     8
1070
   286
1070
     8
1002
}
  0
DIMENSION
  5
4C8
330
1E
100
AcDbEntity
  8
BEM
100
AcDbDimension
  2
*D5
 10
143.6414991910774
 20
209.3153355289863
 30
0.0
 11
143.6414991910774
 21
220.5653355289864
 31
0.0
 70
   160
 71
     5
 42
22.5
  3
Standard
100
AcDbAlignedDimension
 13
161.9769046161364
 23
231.8153355289863
 33
0.0
 14
166.3739661315644
 24
209.3153355289863
 34
0.0
 50
90.0
100
AcDbRotatedDimension
1001
ACAD
1000
DSTYLE
1002
{
1070
    40
1040
2.0
1070
    41
1040
3.5
1070
    42
1040
1.0
1070
    43
1040
7.0
1070
    44
1040
1.0
1070
    73
1070
     0
1070
    74
1070
     0
1070
    77
1070
     1
1070
    78
1070
     8
1070
    79
1070
     2
1070
   140
1040
3.5
1070
   141
1040
1.5
1070
   146
1040
0.5142857142857144
1070
   147
1040
1.5
1070
   172
1070
     1
1070
   178
1070
     1
1070
   179
1070
     2
1070
   271
1070
     2
1070
   272
1070
     2
1070
   284
1070
     8
1070
   285
1070
     8
1070
   286
1070
     8
1002
}
  0
LINE
  5
4C9
102
{ACAD_REACTORS
330
5E6
102
}
330
1E
100
AcDbEntity
  8
STEMPEL
100
AcDbLine
 10
162.1297384385863
 20
226.1443254573235
 30
0.0
 11
160.3739661315644
 21
221.3203806900772
 31
0.0
  0
ARC
  5
4CA
102
{ACAD_REACTORS
330
5E6
102
}
330
1E
100
AcDbEntity
  8
STEMPEL
100
AcDbCircle
 10
161.4903199527345
 20
212.9153355289864
 30
0.0
 40
0.9
100
AcDbArc
 50
4.682416862268558
 51
151.6449939715938
  0
LINE
  5
4CB
330
1E
100
AcDbEntity
  8
STEMPEL
100
AcDbLine
 10
159.8739661315644
 20
211.8153355289863
 30
0.0
 11
162.6658668880166
 21
211.8153355289863
 31
0.0
  0
ARC
  5
4CC
102
{ACAD_REACTORS
330
5E6
102
}
330
1E
100
AcDbEntity
  8
STEMPEL
100
AcDbCircle
 10
161.6598921281934
 20
226.3153355289864
 30
0.0
 40
0.5
100
AcDbArc
 50
340.0000000000035
 51
90.0
  0
ARC
  5
4CD
102
{ACAD_REACTORS
330
5E6
102
}
330
1E
100
AcDbEntity
  8
STEMPEL
100
AcDbCircle
 10
161.9769046161364
 20
230.8153355289864
 30
0.0
 40
1.0
100
AcDbArc
 50
9.999999999998609
 51
150.5880863344681
  0
LINE
  5
4CE
102
{ACAD_REACTORS
330
679
102
}
330
1E
100
AcDbEntity
  8
MITTEL
100
AcDbLine
 10
200.8739661315645
 20
457.1081501860276
 30
0.0
 11
200.8739661315645
 21
296.6270561461422
 31
0.0
  0
DIMENSION
  5
4CF
330
1E
100
AcDbEntity
  8
BEM
100
AcDbDimension
  2
*D6
 10
237.3739661315644
 20
282.8737946376748
 30
0.0
 11
200.8739661315644
 21
289.3737946376749
 31
0.0
 70
    32
  1
%%C<>
 71
     5
 42
72.99999999999997
  3
Standard
100
AcDbAlignedDimension
 13
164.3739661315644
 23
301.07079880909
 33
0.0
 14
237.3739661315644
 24
301.0707988090902
 34
0.0
100
AcDbRotatedDimension
1001
ACAD
1000
DSTYLE
1002
{
1070
    40
1040
2.0
1070
    41
1040
3.5
1070
    42
1040
1.0
1070
    43
1040
7.0
1070
    44
1040
1.0
1070
    73
1070
     0
1070
    74
1070
     0
1070
    77
1070
     1
1070
    78
1070
     8
1070
    79
1070
     2
1070
   140
1040
3.5
1070
   141
1040
1.5
1070
   146
1040
0.5142857142857144
1070
   147
1040
1.5
1070
   172
1070
     1
1070
   178
1070
     1
1070
   179
1070
     2
1070
   271
1070
     2
1070
   272
1070
     2
1070
   284
1070
     8
1070
   285
1070
     8
1070
   286
1070
     8
1002
}
  0
HATCH
  5
5E6
330
1E
100
AcDbEntity
  8
SCHRAFF
100
AcDbHatch
 10
0.0
 20
0.0
 30
0.0
210
0.0
220
0.0
230
1.0
  2
NET
 70
     0
 71
     1
 91
        2
 92
        7
 72
     1
 73
     1
 93
       21
 10
239.6181938245426
 20
226.1443254573235
 42
-0.5205670505517243
 10
240.0880401349354
 20
226.8153355289864
 42
0.0
 10
243.1739661315645
 20
226.8153355289864
 42
0.0
 10
240.6421393643417
 20
231.3064204258187
 42
0.7040385315423324
 10
238.7862198939803
 20
230.9889837066533
 42
0.0
 10
237.8739661315644
 20
225.8153355289864
 42
0.0
 10
237.8739661315644
 20
215.8153355289863
 42
-0.4142135623730951
 10
232.8739661315644
 20
210.8153355289863
 42
0.0
 10
232.8739661315644
 20
209.3153355289864
 42
0.0
 10
235.3739661315644
 20
209.3153355289863
 42
0.3056146845806997
 10
239.0820653751123
 20
211.8153355289863
 42
0.0758130451094001
 10
239.3606160734664
 20
212.9888049167415
 42
-0.7464811088942298
 10
241.0496319357335
 20
213.3427754815851
 42
0.0
 10
241.8739661315644
 20
211.8153355289863
 42
0.0
 10
243.6739661315645
 20
211.8153355289863
 42
0.0
 10
241.3739661315644
 20
215.8153355289862
 42
0.0
 10
241.3739661315644
 20
216.4153355289863
 42
0.0
 10
242.7739661315644
 20
217.8153355289863
 42
0.0
 10
242.7739661315644
 20
218.8153355289864
 42
0.0
 10
241.3739661315644
 20
220.2153355289863
 42
0.0
 10
241.3739661315644
 20
221.3203806900773
 42
0.0
 97
       21
330
49A
330
499
330
4A6
330
492
330
4A7
330
49B
330
4A4
330
4A2
330
4A1
330
4A3
330
4A0
330
49D
330
49E
330
49C
330
4A5
330
496
330
495
330
498
330
494
330
497
330
493
 92
        7
 72
     1
 73
     1
 93
       21
 10
163.8739661315644
 20
225.8153355289864
 42
0.0
 10
162.9617123691486
 20
230.9889837066533
 42
0.7040385315423321
 10
161.1057928987872
 20
231.3064204258187
 42
0.0
 10
158.5739661315643
 20
226.8153355289864
 42
0.0
 10
161.6598921281934
 20
226.8153355289864
 42
-0.5205670505516907
 10
162.1297384385863
 20
226.1443254573236
 42
0.0
 10
160.3739661315645
 20
221.3203806900772
 42
0.0
 10
160.3739661315644
 20
220.2153355289864
 42
0.0
 10
158.9739661315645
 20
218.8153355289863
 42
0.0
 10
158.9739661315645
 20
217.8153355289864
 42
0.0
 10
160.3739661315644
 20
216.4153355289863
 42
0.0
 10
160.3739661315644
 20
215.8153355289863
 42
0.0
 10
158.0739661315644
 20
211.8153355289863
 42
0.0
 10
159.8739661315644
 20
211.8153355289863
 42
0.0
 10
160.6983003273954
 20
213.3427754815851
 42
-0.7464811088942383
 10
162.3873161896624
 20
212.9888049167415
 42
0.0758130451093985
 10
162.6658668880166
 20
211.8153355289863
 42
0.3056146845807016
 10
166.3739661315645
 20
209.3153355289863
 42
0.0
 10
168.8739661315645
 20
209.3153355289863
 42
0.0
 10
168.8739661315644
 20
210.8153355289863
 42
-0.4142135623730951
 10
163.8739661315644
 20
215.8153355289863
 42
0.0
 97
       21
330
4B0
330
4CD
330
4C5
330
4C1
330
4CC
330
4C9
330
4BC
330
4C0
330
4BE
330
4BF
330
4BD
330
4C4
330
4C3
330
4C2
330
4CA
330
4AC
330
4AB
330
4AE
330
4AD
330
4AF
330
4AA
 75
     0
 76
     1
 52
45.0
 41
10.0
 77
     0
 78
     2
 53
45.0
 43
0.0
 44
0.0
 45
-0.8838834764831842
 46
0.8838834764831844
 79
     0
 53
135.0
 43
0.0
 44
0.0
 45
-0.8838834764831844
 46
-0.8838834764831842
 79
     0
 47
0.1746812135939672
 98
        2
 10
239.2588229073931
 20
223.2530869732805
 10
162.1699219241663
 20
220.2835063339191
  0
HATCH
  5
640
330
1E
100
AcDbEntity
  8
SCHRAFF
100
AcDbHatch
 10
0.0
 20
0.0
 30
0.0
210
0.0
220
0.0
230
1.0
  2
NET
 70
     0
 71
     1
 91
        2
 92
        7
 72
     0
 73
     1
 93
       43
 10
236.8739661315644
 20
408.0707988090901
 10
237.3739661315644
 20
408.0707988090901
 10
237.3739661315644
 20
420.0707988090901
 10
236.8739661315644
 20
420.0707988090901
 10
236.8739661315644
 20
423.0707988090903
 10
237.3739661315644
 20
423.0707988090901
 10
237.3739661315644
 20
435.0707988090902
 10
244.3739661315643
 20
442.07079880909
 10
251.3739661315644
 20
442.07079880909
 10
251.3739661315645
 20
451.0707988090901
 10
248.5362064908249
 20
451.07079880909
 10
248.3739661315644
 20
450.9923182853373
 10
248.3739661315644
 20
445.0707988090899
 10
242.8739661315643
 20
445.0707988090899
 10
232.8739661315644
 20
435.07079880909
 10
235.3739661315644
 20
301.0707988090902
 10
237.3739661315644
 20
301.0707988090901
 10
237.3739661315644
 20
315.0707988090902
 10
236.8739661315644
 20
315.0707988090902
 10
236.8739661315644
 20
318.0707988090901
 10
237.3739661315644
 20
318.0707988090901
 10
237.3739661315644
 20
330.0707988090902
 10
236.8739661315644
 20
330.0707988090902
 10
236.8739661315644
 20
333.0707988090901
 10
237.3739661315644
 20
333.0707988090901
 10
237.3739661315644
 20
345.0707988090901
 10
236.8739661315645
 20
345.0707988090901
 10
236.8739661315644
 20
348.0707988090902
 10
237.3739661315644
 20
348.0707988090902
 10
237.3739661315644
 20
360.0707988090901
 10
236.8739661315644
 20
360.0707988090901
 10
236.8739661315644
 20
363.0707988090902
 10
237.3739661315644
 20
363.0707988090902
 10
237.3739661315644
 20
375.0707988090902
 10
236.8739661315644
 20
375.0707988090902
 10
236.8739661315644
 20
378.0707988090902
 10
237.3739661315644
 20
378.0707988090902
 10
237.3739661315644
 20
390.0707988090902
 10
236.8739661315644
 20
390.0707988090902
 10
236.8739661315644
 20
393.0707988090901
 10
237.3739661315644
 20
393.0707988090901
 10
237.3739661315644
 20
405.0707988090901
 10
236.8739661315644
 20
405.0707988090901
 97
       43
330
40F
330
416
330
40B
330
40D
330
40C
330
40E
330
418
330
403
330
3F3
330
48A
330
40A
330
3F4
330
489
330
417
330
46F
330
455
330
456
330
453
330
452
330
454
330
457
330
450
330
451
330
44F
330
458
330
44A
330
44C
330
44B
330
44D
330
448
330
447
330
449
330
44E
330
445
330
446
330
444
330
472
330
413
330
414
330
412
330
415
330
410
330
411
 92
        7
 72
     0
 73
     1
 93
       42
 10
168.8739661315645
 20
435.0707988090899
 10
158.8739661315645
 20
445.07079880909
 10
153.3739661315644
 20
445.07079880909
 10
153.3739661315644
 20
451.0707988090901
 10
150.3739661315644
 20
451.0707988090901
 10
150.3739661315644
 20
442.0707988090899
 10
157.3739661315647
 20
442.07079880909
 10
164.3739661315645
 20
435.0707988090901
 10
164.3739661315645
 20
423.0707988090902
 10
164.8739661315645
 20
423.0707988090902
 10
164.8739661315645
 20
420.0707988090901
 10
164.3739661315645
 20
420.0707988090901
 10
164.3739661315645
 20
408.0707988090901
 10
164.8739661315645
 20
408.0707988090901
 10
164.8739661315645
 20
405.0707988090901
 10
164.3739661315645
 20
405.0707988090901
 10
164.3739661315645
 20
393.0707988090901
 10
164.8739661315645
 20
393.0707988090901
 10
164.8739661315645
 20
390.0707988090901
 10
164.3739661315645
 20
390.0707988090902
 10
164.3739661315645
 20
378.0707988090902
 10
164.8739661315645
 20
378.0707988090902
 10
164.8739661315645
 20
375.0707988090902
 10
164.3739661315645
 20
375.0707988090902
 10
164.3739661315645
 20
363.0707988090902
 10
164.8739661315645
 20
363.0707988090902
 10
164.8739661315645
 20
360.0707988090902
 10
164.3739661315645
 20
360.0707988090901
 10
164.3739661315645
 20
348.0707988090902
 10
164.8739661315645
 20
348.0707988090902
 10
164.8739661315645
 20
345.0707988090901
 10
164.3739661315644
 20
345.0707988090901
 10
164.3739661315644
 20
333.0707988090901
 10
164.8739661315645
 20
333.0707988090901
 10
164.8739661315645
 20
330.0707988090901
 10
164.3739661315644
 20
330.0707988090902
 10
164.3739661315644
 20
318.0707988090901
 10
164.8739661315645
 20
318.0707988090901
 10
164.8739661315645
 20
315.0707988090902
 10
164.3739661315644
 20
315.0707988090902
 10
164.3739661315644
 20
301.0707988090901
 10
166.3739661315644
 20
301.0707988090902
 97
       42
330
48B
330
489
330
480
330
48A
330
47F
330
47E
330
48D
330
43A
330
438
330
437
330
439
330
442
330
43D
330
43B
330
43C
330
441
330
440
330
43E
330
43F
330
471
330
45B
330
459
330
45A
330
463
330
45E
330
45C
330
45D
330
462
330
460
330
45F
330
461
330
46D
330
464
330
466
330
465
330
46C
330
469
330
467
330
468
330
46B
330
46A
330
470
 75
     0
 76
     1
 52
45.0
 41
15.0
 77
     0
 78
     2
 53
45.0
 43
0.0
 44
0.0
 45
-1.325825214724776
 46
1.325825214724776
 79
     0
 53
135.0
 43
0.0
 44
0.0
 45
-1.325825214724776
 46
-1.325825214724776
 79
     0
 47
0.356349673968721
 98
        2
 10
235.9025695765631
 20
407.7094608878151
 10
166.7218383481731
 20
424.1015460170899
  0
HATCH
  5
679
330
1E
100
AcDbEntity
  8
SCHRAFF
100
AcDbHatch
 10
0.0
 20
0.0
 30
0.0
210
0.0
220
0.0
230
1.0
  2
_USER
 70
     0
 71
     1
 91
        7
 92
        7
 72
     1
 73
     1
 93
       11
 10
243.8739661315644
 20
449.57079880909
 42
-0.4142135623730951
 10
246.3739661315644
 20
447.0707988090899
 42
0.0
 10
246.3739661315644
 20
445.0707988090899
 42
0.0
 10
247.8739661315644
 20
445.07079880909
 42
0.0
 10
247.8739661315644
 20
447.07079880909
 42
0.4142135623730992
 10
243.8739661315644
 20
451.07079880909
 42
0.0
 10
234.5724509413993
 20
451.07079880909
 42
0.4142135623731076
 10
230.5724509413993
 20
447.0707988090899
 42
0.0
 10
231.4490414712602
 20
447.0707988090899
 42
0.0
 10
232.0724509413994
 20
447.0707988090899
 42
-0.4142135623730984
 10
234.5724509413994
 20
449.57079880909
 42
0.0
 97
       11
330
48A
330
3FF
330
491
330
3FA
330
3FC
330
3F7
330
409
330
3EF
330
489
330
3F2
330
407
 92
        7
 72
     1
 73
     1
 93
        8
 10
218.0871695671609
 20
451.07079880909
 42
0.0
 10
217.6018881929223
 20
451.07079880909
 42
0.4142135623731074
 10
213.6018881929223
 20
447.0707988090899
 42
0.0
 10
215.1018881929223
 20
447.0707988090899
 42
-0.4142135623730251
 10
217.6018881929217
 20
449.5707988090899
 42
0.0
 10
218.087169567161
 20
449.57079880909
 42
-0.4142135623731084
 10
220.587169567161
 20
447.0707988090899
 42
0.0
 10
222.087169567161
 20
447.0707988090899
 42
0.4142135623731097
 97
        7
330
48A
330
420
330
491
330
41F
330
41A
330
41E
330
41D
 92
        7
 72
     1
 73
     1
 93
        6
 10
202.3592475058031
 20
451.07079880909
 42
0.0
 10
200.8739661315645
 20
451.0707988090901
 42
0.0
 10
200.8739661315645
 20
449.57079880909
 42
0.0
 10
202.3592475058029
 20
449.57079880909
 42
-0.4142135623731084
 10
204.8592475058029
 20
447.0707988090899
 42
0.0
 10
206.359247505803
 20
447.0707988090899
 42
0.4142135623731011
 97
        6
330
48A
330
4CE
330
421
330
425
330
491
330
423
 92
        7
 72
     1
 73
     1
 93
        6
 10
195.3886847573258
 20
447.0707988090899
 42
0.0
 10
196.8886847573258
 20
447.0707988090899
 42
-0.4142135623731017
 10
199.3886847573258
 20
449.57079880909
 42
0.0
 10
200.8739661315645
 20
449.57079880909
 42
0.0
 10
200.8739661315644
 20
451.07079880909
 42
0.0
 10
199.3886847573258
 20
451.07079880909
 42
0.4142135623731034
 97
        6
330
48A
330
435
330
491
330
424
330
421
330
4CE
 92
        7
 72
     1
 73
     1
 93
        8
 10
184.1460440702066
 20
451.07079880909
 42
0.0
 10
183.660762695968
 20
451.07079880909
 42
0.4142135623731036
 10
179.660762695968
 20
447.0707988090899
 42
0.0
 10
181.160762695968
 20
447.0707988090899
 42
-0.4142135623730618
 10
183.6607626959677
 20
449.57079880909
 42
0.0
 10
184.1460440702066
 20
449.57079880909
 42
-0.4142135623731017
 10
186.6460440702066
 20
447.0707988090899
 42
0.0
 10
188.1460440702066
 20
447.0707988090899
 42
0.4142135623731054
 97
        7
330
48A
330
42D
330
491
330
42C
330
427
330
42A
330
42B
 92
        7
 72
     1
 73
     1
 93
        6
 10
167.1754813217297
 20
451.07079880909
 42
0.0
 10
165.8739661315644
 20
451.07079880909
 42
0.0
 10
165.8739661315644
 20
449.5707988090899
 42
0.0
 10
167.1754813217295
 20
449.5707988090899
 42
-0.4142135623730885
 10
169.6754813217294
 20
447.0707988090899
 42
0.0
 10
171.1754813217295
 20
447.0707988090899
 42
0.4142135623730847
 97
        6
330
48A
330
42F
330
48E
330
431
330
491
330
432
 92
        7
 72
     1
 73
     1
 93
        8
 10
157.8739661315644
 20
451.07079880909
 42
0.4142135623731077
 10
153.8739661315644
 20
447.0707988090899
 42
0.0
 10
153.8739661315644
 20
445.07079880909
 42
0.0
 10
155.3739661315644
 20
445.07079880909
 42
0.0
 10
155.3739661315644
 20
447.0707988090899
 42
-0.4142135623730951
 10
157.8739661315644
 20
449.5707988090899
 42
0.0
 10
165.8739661315644
 20
449.5707988090899
 42
0.0
 10
165.8739661315644
 20
451.07079880909
 42
0.0
 97
        8
330
48A
330
483
330
47C
330
489
330
47D
330
482
330
48E
330
42F
 75
     0
 76
     0
 52
45.0
 41
2.0
 77
     0
 78
     1
 53
45.0
 43
0.0
 44
0.0
 45
-1.414213562373094
 46
1.414213562373095
 79
     0
 47
0.164329733208832
 98
        7
 10
238.366931072153
 20
450.2046118301712
 10
218.6334140447193
 20
450.5332709825593
 10
203.3399408045825
 20
450.5332709825593
 10
199.0643459944435
 20
450.5332709825593
 10
185.5797765715028
 20
450.2046118301712
 10
167.4907209337716
 20
450.3689414063654
 10
163.7084643222215
 20
450.3689414063654
  0
ENDSEC
  0
SECTION
  2
OBJECTS
  0
DICTIONARY
  5
C
330
0
100
AcDbDictionary
281
     1
  3
ACAD_COLOR
350
DF
  3
ACAD_GROUP
350
D
  3
ACAD_LAYOUT
350
19
  3
ACAD_MATERIAL
350
DE
  3
ACAD_MLINESTYLE
350
16
  3
ACAD_PLOTSETTINGS
350
18
  3
ACAD_PLOTSTYLENAME
350
E
  3
AcDbVariableDictionary
350
EA
  0
DICTIONARY
  5
A0
330
1E
100
AcDbDictionary
280
     1
281
     1
  3
ACAD_LAYOUTSELFREF
360
D4
  0
DICTIONARY
  5
A2
330
1A
100
AcDbDictionary
280
     1
281
     1
  3
ACAD_LAYOUTSELFREF
360
D3
  0
DICTIONARY
  5
DF
102
{ACAD_REACTORS
330
C
102
}
330
C
100
AcDbDictionary
281
     1
  0
DICTIONARY
  5
D
102
{ACAD_REACTORS
330
C
102
}
330
C
100
AcDbDictionary
281
     1
  0
DICTIONARY
  5
19
102
{ACAD_REACTORS
330
C
102
}
330
C
100
AcDbDictionary
281
     1
  3
Layout1
350
1D
  3
Model
350
21
  0
DICTIONARY
  5
DE
102
{ACAD_REACTORS
330
C
102
}
330
C
100
AcDbDictionary
281
     1
  0
DICTIONARY
  5
16
102
{ACAD_REACTORS
330
C
102
}
330
C
100
AcDbDictionary
281
     1
  3
Standard
350
17
  0
DICTIONARY
  5
18
102
{ACAD_REACTORS
330
C
102
}
330
C
100
AcDbDictionary
281
     1
  0
ACDBDICTIONARYWDFLT
  5
E
102
{ACAD_REACTORS
330
C
102
}
330
C
100
AcDbDictionary
281
     1
  3
Normal
350
F
100
AcDbDictionaryWithDefault
340
F
  0
DICTIONARY
  5
EA
102
{ACAD_REACTORS
330
C
102
}
330
C
100
AcDbDictionary
281
     1
  3
DIMASSOC
350
EB
  3
PROJECTNAME
350
EC
  0
XRECORD
  5
D4
102
{ACAD_REACTORS
330
A0
102
}
330
A0
100
AcDbXrecord
280
     1
340
1E
  0
XRECORD
  5
D3
102
{ACAD_REACTORS
330
A2
102
}
330
A2
100
AcDbXrecord
280
     1
340
1A
  0
LAYOUT
  5
1D
102
{ACAD_REACTORS
330
19
102
}
330
19
100
AcDbPlotSettings
  1

  2
\\NT_WORK01\HP LaserJet 5000 PCL 6
  4

  6

 40
0.0
 41
0.0
 42
0.0
 43
0.0
 44
0.0
 45
0.0
 46
0.0
 47
0.0
 48
0.0
 49
0.0
140
0.0
141
0.0
142
1.0
143
1.0
 70
   688
 72
     0
 73
     0
 74
     5
  7

 75
    16
147
1.0
 76
     0
 77
     2
 78
   300
148
0.0
149
0.0
100
AcDbLayout
  1
Layout1
 70
     0
 71
     1
 10
0.0
 20
0.0
 11
12.0
 21
9.0
 12
0.0
 22
0.0
 32
0.0
 14
1.000000000000000E+20
 24
1.000000000000000E+20
 34
1.000000000000000E+20
 15
-1.000000000000000E+20
 25
-1.000000000000000E+20
 35
-1.000000000000000E+20
146
0.0
 13
0.0
 23
0.0
 33
0.0
 16
1.0
 26
0.0
 36
0.0
 17
0.0
 27
1.0
 37
0.0
 76
     0
330
1A
  0
LAYOUT
  5
21
102
{ACAD_REACTORS
330
19
102
}
330
19
100
AcDbPlotSettings
  1

  2
none_device
  4
Letter_(8.50_x_11.00_Inches)
  6

 40
6.349999904632568
 41
6.349999904632568
 42
6.350006103515625
 43
6.350006103515625
 44
215.8999938964844
 45
279.3999938964844
 46
0.0
 47
0.0
 48
0.0
 49
0.0
140
0.0
141
0.0
142
1.0
143
1.0
 70
 11952
 72
     0
 73
     1
 74
     0
  7

 75
     0
147
1.0
 76
     0
 77
     2
 78
   300
148
2270.950923543731
149
61.15089267129036
100
AcDbLayout
  1
Model
 70
     1
 71
     0
 10
0.0
 20
0.0
 11
12.0
 21
9.0
 12
0.0
 22
0.0
 32
0.0
 14
0.0
 24
0.0
 34
0.0
 15
0.0
 25
0.0
 35
0.0
146
0.0
 13
0.0
 23
0.0
 33
0.0
 16
1.0
 26
0.0
 36
0.0
 17
0.0
 27
1.0
 37
0.0
 76
     0
330
1E
  0
MLINESTYLE
  5
17
102
{ACAD_REACTORS
330
16
102
}
330
16
100
AcDbMlineStyle
  2
STANDARD
 70
     0
  3

 62
   256
 51
90.0
 52
90.0
 71
     2
 49
0.5
 62
   256
  6
BYLAYER
 49
-0.5
 62
   256
  6
BYLAYER
  0
ACDBPLACEHOLDER
  5
F
102
{ACAD_REACTORS
330
E
102
}
330
E
  0
DICTIONARYVAR
  5
EB
102
{ACAD_REACTORS
330
EA
102
}
330
EA
100
DictionaryVariables
280
     0
  1
1
  0
DICTIONARYVAR
  5
EC
102
{ACAD_REACTORS
330
EA
102
}
330
EA
100
DictionaryVariables
280
     0
  1

  0
ENDSEC
  0
EOF
