  0
SECTION
  2
HEADER
  9
$ACADVER
  1
AC1018
  9
$ACADMAINTVER
 70
     2
  9
$DWGCODEPAGE
  3
ANSI_1252
  9
$INSBASE
 10
0.0
 20
0.0
 30
0.0
  9
$EXTMIN
 10
-0.0031925613848784
 20
-0.0045151939590369
 30
-0.0000000000000053
  9
$EXTMAX
 10
210.0032094311961
 20
297.0045390526911
 30
0.0000000000000099
  9
$LIMMIN
 10
0.0
 20
0.0
  9
$LIMMAX
 10
210.0
 20
297.0
  9
$ORTHOMODE
 70
     1
  9
$REGENMODE
 70
     1
  9
$FILLMODE
 70
     1
  9
$QTEXTMODE
 70
     0
  9
$MIRRTEXT
 70
     1
  9
$LTSCALE
 40
10.0
  9
$ATTMODE
 70
     1
  9
$TEXTSIZE
 40
3.5
  9
$TRACEWID
 40
0.5
  9
$TEXTSTYLE
  7
STANDARD
  9
$CLAYER
  8
VOLL
  9
$CELTYPE
  6
ByLayer
  9
$CECOLOR
 62
   256
  9
$CELTSCALE
 40
1.0
  9
$DISPSILH
 70
     0
  9
$DIMSCALE
 40
1.0
  9
$DIMASZ
 40
3.5
  9
$DIMEXO
 40
1.0
  9
$DIMDLI
 40
7.0
  9
$DIMRND
 40
0.0
  9
$DIMDLE
 40
0.0
  9
$DIMEXE
 40
1.0
  9
$DIMTP
 40
0.0
  9
$DIMTM
 40
0.0
  9
$DIMTXT
 40
3.5
  9
$DIMCEN
 40
1.5
  9
$DIMTSZ
 40
0.0
  9
$DIMTOL
 70
     0
  9
$DIMLIM
 70
     0
  9
$DIMTIH
 70
     0
  9
$DIMTOH
 70
     0
  9
$DIMSE1
 70
     0
  9
$DIMSE2
 70
     0
  9
$DIMTAD
 70
     1
  9
$DIMZIN
 70
     8
  9
$DIMBLK
  1

  9
$DIMASO
 70
     1
  9
$DIMSHO
 70
     0
  9
$DIMPOST
  1

  9
$DIMAPOST
  1

  9
$DIMALT
 70
     0
  9
$DIMALTD
 70
     2
  9
$DIMALTF
 40
25.4
  9
$DIMLFAC
 40
1.0
  9
$DIMTOFL
 70
     1
  9
$DIMTVP
 40
0.0
  9
$DIMTIX
 70
     0
  9
$DIMSOXD
 70
     0
  9
$DIMSAH
 70
     0
  9
$DIMBLK1
  1

  9
$DIMBLK2
  1

  9
$DIMSTYLE
  2
Standard
  9
$DIMCLRD
 70
     0
  9
$DIMCLRE
 70
     0
  9
$DIMCLRT
 70
     1
  9
$DIMTFAC
 40
0.5
  9
$DIMGAP
 40
1.5
  9
$DIMJUST
 70
     0
  9
$DIMSD1
 70
     0
  9
$DIMSD2
 70
     0
  9
$DIMTOLJ
 70
     1
  9
$DIMTZIN
 70
     8
  9
$DIMALTZ
 70
     8
  9
$DIMALTTZ
 70
     8
  9
$DIMUPT
 70
     0
  9
$DIMDEC
 70
     2
  9
$DIMTDEC
 70
     2
  9
$DIMALTU
 70
     2
  9
$DIMALTTD
 70
     2
  9
$DIMTXSTY
  7
STANDARD
  9
$DIMAUNIT
 70
     0
  9
$DIMADEC
 70
     2
  9
$DIMALTRND
 40
0.0
  9
$DIMAZIN
 70
     2
  9
$DIMDSEP
 70
    46
  9
$DIMATFIT
 70
     3
  9
$DIMFRAC
 70
     0
  9
$DIMLDRBLK
  1

  9
$DIMLUNIT
 70
     2
  9
$DIMLWD
 70
    -2
  9
$DIMLWE
 70
    -2
  9
$DIMTMOVE
 70
     0
  9
$LUNITS
 70
     2
  9
$LUPREC
 70
     2
  9
$SKETCHINC
 40
1.0
  9
$FILLETRAD
 40
8.0
  9
$AUNITS
 70
     0
  9
$AUPREC
 70
     0
  9
$MENU
  1
ACAD
  9
$ELEVATION
 40
0.0
  9
$PELEVATION
 40
0.0
  9
$THICKNESS
 40
0.0
  9
$LIMCHECK
 70
     0
  9
$CHAMFERA
 40
0.0
  9
$CHAMFERB
 40
0.0
  9
$CHAMFERC
 40
0.0
  9
$CHAMFERD
 40
0.0
  9
$SKPOLY
 70
     0
  9
$TDCREATE
 40
2455397.864709028
  9
$TDUCREATE
 40
2455397.781375695
  9
$TDUPDATE
 40
2455460.439855833
  9
$TDUUPDATE
 40
2455460.356522500
  9
$TDINDWG
 40
0.2197828935
  9
$TDUSRTIMER
 40
0.2197828935
  9
$USRTIMER
 70
     1
  9
$ANGBASE
 50
0.0
  9
$ANGDIR
 70
     0
  9
$PDMODE
 70
     0
  9
$PDSIZE
 40
0.0
  9
$PLINEWID
 40
0.0
  9
$SPLFRAME
 70
     0
  9
$SPLINETYPE
 70
     6
  9
$SPLINESEGS
 70
     8
  9
$HANDSEED
  5
FDF
  9
$SURFTAB1
 70
     6
  9
$SURFTAB2
 70
     6
  9
$SURFTYPE
 70
     6
  9
$SURFU
 70
     6
  9
$SURFV
 70
     6
  9
$UCSBASE
  2

  9
$UCSNAME
  2

  9
$UCSORG
 10
0.0
 20
0.0
 30
0.0
  9
$UCSXDIR
 10
1.0
 20
0.0
 30
0.0
  9
$UCSYDIR
 10
0.0
 20
1.0
 30
0.0
  9
$UCSORTHOREF
  2

  9
$UCSORTHOVIEW
 70
     0
  9
$UCSORGTOP
 10
0.0
 20
0.0
 30
0.0
  9
$UCSORGBOTTOM
 10
0.0
 20
0.0
 30
0.0
  9
$UCSORGLEFT
 10
0.0
 20
0.0
 30
0.0
  9
$UCSORGRIGHT
 10
0.0
 20
0.0
 30
0.0
  9
$UCSORGFRONT
 10
0.0
 20
0.0
 30
0.0
  9
$UCSORGBACK
 10
0.0
 20
0.0
 30
0.0
  9
$PUCSBASE
  2

  9
$PUCSNAME
  2

  9
$PUCSORG
 10
0.0
 20
0.0
 30
0.0
  9
$PUCSXDIR
 10
1.0
 20
0.0
 30
0.0
  9
$PUCSYDIR
 10
0.0
 20
1.0
 30
0.0
  9
$PUCSORTHOREF
  2

  9
$PUCSORTHOVIEW
 70
     0
  9
$PUCSORGTOP
 10
0.0
 20
0.0
 30
0.0
  9
$PUCSORGBOTTOM
 10
0.0
 20
0.0
 30
0.0
  9
$PUCSORGLEFT
 10
0.0
 20
0.0
 30
0.0
  9
$PUCSORGRIGHT
 10
0.0
 20
0.0
 30
0.0
  9
$PUCSORGFRONT
 10
0.0
 20
0.0
 30
0.0
  9
$PUCSORGBACK
 10
0.0
 20
0.0
 30
0.0
  9
$USERI1
 70
     0
  9
$USERI2
 70
     0
  9
$USERI3
 70
     0
  9
$USERI4
 70
     0
  9
$USERI5
 70
     0
  9
$USERR1
 40
0.0
  9
$USERR2
 40
0.0
  9
$USERR3
 40
0.0
  9
$USERR4
 40
0.0
  9
$USERR5
 40
0.0
  9
$WORLDVIEW
 70
     1
  9
$SHADEDGE
 70
     3
  9
$SHADEDIF
 70
    70
  9
$TILEMODE
 70
     1
  9
$MAXACTVP
 70
    16
  9
$PINSBASE
 10
0.0
 20
0.0
 30
0.0
  9
$PLIMCHECK
 70
     0
  9
$PEXTMIN
 10
1.000000000000000E+20
 20
1.000000000000000E+20
 30
1.000000000000000E+20
  9
$PEXTMAX
 10
-1.000000000000000E+20
 20
-1.000000000000000E+20
 30
-1.000000000000000E+20
  9
$PLIMMIN
 10
0.0
 20
0.0
  9
$PLIMMAX
 10
12.0
 20
9.0
  9
$UNITMODE
 70
     0
  9
$VISRETAIN
 70
     0
  9
$PLINEGEN
 70
     0
  9
$PSLTSCALE
 70
     0
  9
$TREEDEPTH
 70
  3020
  9
$CMLSTYLE
  2
Standard
  9
$CMLJUST
 70
     0
  9
$CMLSCALE
 40
1.0
  9
$PROXYGRAPHICS
 70
     1
  9
$MEASUREMENT
 70
     0
  9
$CELWEIGHT
370
    -1
  9
$ENDCAPS
280
     0
  9
$JOINSTYLE
280
     0
  9
$LWDISPLAY
290
     0
  9
$INSUNITS
 70
     0
  9
$HYPERLINKBASE
  1

  9
$STYLESHEET
  1
monochrome 1.ctb
  9
$XEDIT
290
     1
  9
$CEPSNTYPE
380
     0
  9
$PSTYLEMODE
290
     1
  9
$FINGERPRINTGUID
  2
{D68B0D02-A558-11D7-B632-000102183313}
  9
$VERSIONGUID
  2
{B989438F-E748-44C6-9379-5219D847C24B}
  9
$EXTNAMES
290
     1
  9
$PSVPSCALE
 40
0.0
  9
$OLESTARTUP
290
     0
  9
$SORTENTS
280
   127
  9
$INDEXCTL
280
     0
  9
$HIDETEXT
280
     0
  9
$XCLIPFRAME
290
     0
  9
$HALOGAP
280
     0
  9
$OBSCOLOR
 70
   257
  9
$OBSLTYPE
280
     0
  9
$INTERSECTIONDISPLAY
280
     0
  9
$INTERSECTIONCOLOR
 70
   257
  9
$DIMASSOC
280
     1
  9
$PROJECTNAME
  1

  0
ENDSEC
  0
SECTION
  2
CLASSES
  0
CLASS
  1
ACDBDICTIONARYWDFLT
  2
AcDbDictionaryWithDefault
  3
ObjectDBX Classes
 90
        0
 91
        1
280
     0
281
     0
  0
CLASS
  1
DICTIONARYVAR
  2
AcDbDictionaryVar
  3
ObjectDBX Classes
 90
        0
 91
        2
280
     0
281
     0
  0
ENDSEC
  0
SECTION
  2
TABLES
  0
TABLE
  2
VPORT
  5
8
330
0
100
AcDbSymbolTable
 70
     2
  0
VPORT
  5
FDE
330
8
100
AcDbSymbolTableRecord
100
AcDbViewportTableRecord
  2
*Active
 70
     0
 10
0.0
 20
0.0
 11
1.0
 21
1.0
 12
105.0000084349056
 22
148.500011929366
 13
0.0
 23
0.0
 14
1.0
 24
1.0
 15
10.0
 25
10.0
 16
0.0
 26
0.0
 36
1.0
 17
0.0
 27
0.0
 37
0.0
 40
299.4075122890188
 41
1.336927223719676
 42
50.0
 43
0.0
 44
0.0
 50
0.0
 51
0.0
 71
     0
 72
  1500
 73
     1
 74
     0
 75
     0
 76
     0
 77
     0
 78
     0
281
     0
 65
     1
110
0.0
120
0.0
130
0.0
111
1.0
121
0.0
131
0.0
112
0.0
122
1.0
132
0.0
 79
     0
146
0.0
  0
ENDTAB
  0
TABLE
  2
LTYPE
  5
5
330
0
100
AcDbSymbolTable
 70
     3
  0
LTYPE
  5
13
330
5
100
AcDbSymbolTableRecord
100
AcDbLinetypeTableRecord
  2
ByBlock
 70
     0
  3

 72
    65
 73
     0
 40
0.0
  0
LTYPE
  5
14
330
5
100
AcDbSymbolTableRecord
100
AcDbLinetypeTableRecord
  2
ByLayer
 70
     0
  3

 72
    65
 73
     0
 40
0.0
  0
LTYPE
  5
15
330
5
100
AcDbSymbolTableRecord
100
AcDbLinetypeTableRecord
  2
Continuous
 70
     0
  3
Solid line
 72
    65
 73
     0
 40
0.0
  0
LTYPE
  5
25
330
5
100
AcDbSymbolTableRecord
100
AcDbLinetypeTableRecord
  2
STRICHPUNKT
 70
     0
  3
__ . __ . __ . __ . __ . __ . __ . __ . __ . __
 72
    65
 73
     4
 40
1.0
 49
0.5
 74
     0
 49
-0.25
 74
     0
 49
0.0
 74
     0
 49
-0.25
 74
     0
  0
LTYPE
  5
26
330
5
100
AcDbSymbolTableRecord
100
AcDbLinetypeTableRecord
  2
VERDECKT
 70
     0
  3
_ _ _ _ _ _ _ _ _ _ _ _ _ _ _ _ _ _ _ _ _ _ _
 72
    65
 73
     2
 40
0.375
 49
0.25
 74
     0
 49
-0.125
 74
     0
  0
ENDTAB
  0
TABLE
  2
LAYER
  5
2
330
0
100
AcDbSymbolTable
 70
    10
  0
LAYER
  5
10
330
2
100
AcDbSymbolTableRecord
100
AcDbLayerTableRecord
  2
0
 70
     0
 62
     7
  6
Continuous
370
    -3
390
F
  0
LAYER
  5
2A
330
2
100
AcDbSymbolTableRecord
100
AcDbLayerTableRecord
  2
VOLL
 70
     0
 62
     1
  6
Continuous
370
    -3
390
F
  0
LAYER
  5
2B
330
2
100
AcDbSymbolTableRecord
100
AcDbLayerTableRecord
  2
HILF
 70
     0
 62
     2
  6
Continuous
370
    -3
390
F
  0
LAYER
  5
2C
330
2
100
AcDbSymbolTableRecord
100
AcDbLayerTableRecord
  2
MITTEL
 70
     0
 62
     2
  6
STRICHPUNKT
370
    -3
390
F
  0
LAYER
  5
2D
330
2
100
AcDbSymbolTableRecord
100
AcDbLayerTableRecord
  2
VERDECKT
 70
     0
 62
     6
  6
VERDECKT
370
    -3
390
F
  0
LAYER
  5
2F
330
2
100
AcDbSymbolTableRecord
100
AcDbLayerTableRecord
  2
BEM
 70
     0
 62
     7
  6
Continuous
370
    -3
390
F
  0
LAYER
  5
30
330
2
100
AcDbSymbolTableRecord
100
AcDbLayerTableRecord
  2
STEMPEL
 70
     0
 62
     3
  6
Continuous
370
    -3
390
F
  0
LAYER
  5
31
330
2
100
AcDbSymbolTableRecord
100
AcDbLayerTableRecord
  2
TEXT
 70
     0
 62
     7
  6
Continuous
370
    -3
390
F
  0
LAYER
  5
3FB
330
2
100
AcDbSymbolTableRecord
100
AcDbLayerTableRecord
  2
DEFPOINTS
 70
     0
 62
     7
  6
Continuous
290
     0
370
    -3
390
F
  0
LAYER
  5
3FC
330
2
100
AcDbSymbolTableRecord
100
AcDbLayerTableRecord
  2
SCHRAFF
 70
     0
 62
     7
  6
Continuous
370
    -3
390
F
  0
ENDTAB
  0
TABLE
  2
STYLE
  5
3
330
0
100
AcDbSymbolTable
 70
     2
  0
STYLE
  5
11
330
3
100
AcDbSymbolTableRecord
100
AcDbTextStyleTableRecord
  2
STANDARD
 70
     0
 40
0.0
 41
0.8
 50
0.0
 71
     0
 42
3.5
  3
simplex.shx
  4

  0
STYLE
  5
24
330
3
100
AcDbSymbolTableRecord
100
AcDbTextStyleTableRecord
  2
GREEKS
 70
     0
 40
0.0
 41
0.8
 50
0.0
 71
     0
 42
2.5
  3
SIMPLEX.shx
  4

  0
ENDTAB
  0
TABLE
  2
VIEW
  5
6
330
0
100
AcDbSymbolTable
 70
     0
  0
ENDTAB
  0
TABLE
  2
UCS
  5
7
330
0
100
AcDbSymbolTable
 70
     0
  0
ENDTAB
  0
TABLE
  2
APPID
  5
9
330
0
100
AcDbSymbolTable
 70
     1
  0
APPID
  5
12
330
9
100
AcDbSymbolTableRecord
100
AcDbRegAppTableRecord
  2
ACAD
 70
     0
  0
ENDTAB
  0
TABLE
  2
DIMSTYLE
  5
A
330
0
100
AcDbSymbolTable
 70
     1
100
AcDbDimStyleTable
 71
     1
340
9D
  0
DIMSTYLE
105
9D
102
{ACAD_REACTORS
330
575
330
536
330
91C
330
95F
330
9AA
330
9B7
330
566
330
4D1
330
56E
102
}
330
A
100
AcDbSymbolTableRecord
100
AcDbDimStyleTableRecord
  2
Standard
 70
     0
340
11
  0
ENDTAB
  0
TABLE
  2
BLOCK_RECORD
  5
1
330
0
100
AcDbSymbolTable
 70
    11
  0
BLOCK_RECORD
  5
1E
102
{ACAD_XDICTIONARY
360
A0
102
}
330
1
100
AcDbSymbolTableRecord
100
AcDbBlockTableRecord
  2
*Model_Space
340
21
  0
BLOCK_RECORD
  5
1A
102
{ACAD_XDICTIONARY
360
A2
102
}
330
1
100
AcDbSymbolTableRecord
100
AcDbBlockTableRecord
  2
*Paper_Space
340
1D
  0
BLOCK_RECORD
  5
22
330
1
100
AcDbSymbolTableRecord
100
AcDbBlockTableRecord
  2
LOGO
340
0
102
{BLKREFS
331
9B
102
}
  0
BLOCK_RECORD
  5
123
330
1
100
AcDbSymbolTableRecord
100
AcDbBlockTableRecord
  2
*X1
340
0
102
{BLKREFS
331
539
102
}
  0
BLOCK_RECORD
  5
58E
330
1
100
AcDbSymbolTableRecord
100
AcDbBlockTableRecord
  2
*D2
340
0
  0
BLOCK_RECORD
  5
5E9
330
1
100
AcDbSymbolTableRecord
100
AcDbBlockTableRecord
  2
*D3
340
0
  0
BLOCK_RECORD
  5
637
330
1
100
AcDbSymbolTableRecord
100
AcDbBlockTableRecord
  2
*D4
340
0
  0
BLOCK_RECORD
  5
65E
330
1
100
AcDbSymbolTableRecord
100
AcDbBlockTableRecord
  2
*D5
340
0
  0
BLOCK_RECORD
  5
685
330
1
100
AcDbSymbolTableRecord
100
AcDbBlockTableRecord
  2
*D6
340
0
  0
BLOCK_RECORD
  5
91D
330
1
100
AcDbSymbolTableRecord
100
AcDbBlockTableRecord
  2
*D7
340
0
  0
BLOCK_RECORD
  5
960
330
1
100
AcDbSymbolTableRecord
100
AcDbBlockTableRecord
  2
*D8
340
0
  0
BLOCK_RECORD
  5
9AB
330
1
100
AcDbSymbolTableRecord
100
AcDbBlockTableRecord
  2
*D9
340
0
  0
BLOCK_RECORD
  5
9B8
330
1
100
AcDbSymbolTableRecord
100
AcDbBlockTableRecord
  2
*D10
340
0
  0
ENDTAB
  0
ENDSEC
  0
SECTION
  2
BLOCKS
  0
BLOCK
  5
35
330
1E
100
AcDbEntity
  8
0
100
AcDbBlockBegin
  2
*Model_Space
 70
     0
 10
0.0
 20
0.0
 30
0.0
  3
*Model_Space
  1

  0
ENDBLK
  5
36
330
1E
100
AcDbEntity
  8
0
100
AcDbBlockEnd
  0
BLOCK
  5
33
330
1A
100
AcDbEntity
 67
     1
  8
0
100
AcDbBlockBegin
  2
*Paper_Space
 70
     0
 10
0.0
 20
0.0
 30
0.0
  3
*Paper_Space
  1

  0
ENDBLK
  5
34
330
1A
100
AcDbEntity
 67
     1
  8
0
100
AcDbBlockEnd
  0
BLOCK
  5
37
330
22
100
AcDbEntity
  8
0
100
AcDbBlockBegin
  2
LOGO
 70
     0
 10
0.0
 20
0.0
 30
0.0
  3
LOGO
  1

  0
ARC
  5
38
330
22
100
AcDbEntity
  8
0
100
AcDbCircle
 10
11.59973089678112
 20
-9.271599258481501
 30
0.0
 40
4.5
100
AcDbArc
 50
270.0
 51
231.0575587310159
  0
LINE
  5
39
330
22
100
AcDbEntity
  8
0
100
AcDbLine
 10
3.599730896781125
 20
-4.771599258481529
 30
0.0
 11
3.599730896781153
 21
-11.77159925848133
 31
0.0
  0
LINE
  5
3A
330
22
100
AcDbEntity
  8
0
100
AcDbLine
 10
2.599730896781125
 20
-4.771599258481529
 30
0.0
 11
2.599730896781153
 21
-11.77159925848133
 31
0.0
  0
CIRCLE
  5
3B
330
22
100
AcDbEntity
  8
0
100
AcDbCircle
 10
11.59973089678112
 20
-9.271599258481501
 30
0.0
 40
3.5
  0
ARC
  5
3C
330
22
100
AcDbEntity
  8
0
100
AcDbCircle
 10
31.59973089678115
 20
-9.271599258481472
 30
0.0
 40
4.5
100
AcDbArc
 50
270.0
 51
231.0575587310182
  0
LINE
  5
3D
330
22
100
AcDbEntity
  8
0
100
AcDbLine
 10
17.59973089678112
 20
-4.771599258481472
 30
0.0
 11
17.59973089678115
 21
-13.77159925848147
 31
0.0
  0
ARC
  5
3E
330
22
100
AcDbEntity
  8
0
100
AcDbCircle
 10
22.59973089678116
 20
-7.271599258481472
 30
0.0
 40
2.5
100
AcDbArc
 50
293.1161887722295
 51
90.0
  0
CIRCLE
  5
3F
330
22
100
AcDbEntity
  8
0
100
AcDbCircle
 10
31.59973089678115
 20
-9.271599258481472
 30
0.0
 40
3.5
  0
ARC
  5
40
330
22
100
AcDbEntity
  8
0
100
AcDbCircle
 10
4.599730896781153
 20
-11.77159925848133
 30
0.0
 40
1.0
100
AcDbArc
 50
180.0
 51
270.0
  0
ARC
  5
41
330
22
100
AcDbEntity
  8
0
100
AcDbCircle
 10
4.599730896781153
 20
-11.77159925848133
 30
0.0
 40
2.0
100
AcDbArc
 50
179.9999999999992
 51
270.0
  0
LINE
  5
42
330
22
100
AcDbEntity
  8
0
100
AcDbLine
 10
11.59973089678115
 20
-13.77159925848144
 30
0.0
 11
4.599730896781153
 21
-13.77159925848147
 31
0.0
  0
LINE
  5
43
330
22
100
AcDbEntity
  8
0
100
AcDbLine
 10
8.771303772034769
 20
-12.77159925848136
 30
0.0
 11
4.599730896781153
 21
-12.77159925848133
 31
0.0
  0
LINE
  5
44
330
22
100
AcDbEntity
  8
0
100
AcDbLine
 10
31.59973089678115
 20
-13.77159925848147
 30
0.0
 11
23.6715276665056
 21
-13.77159925848144
 31
0.0
  0
LINE
  5
45
330
22
100
AcDbEntity
  8
0
100
AcDbLine
 10
23.56565672307022
 20
-9.51278021337896
 30
0.0
 11
24.4388546544846
 21
-12.77159925848144
 31
0.0
  0
LINE
  5
46
330
22
100
AcDbEntity
  8
0
100
AcDbLine
 10
22.59973089678116
 20
-9.771599258481472
 30
0.0
 11
18.59973089678112
 21
-9.771599258481472
 31
0.0
  0
LINE
  5
47
330
22
100
AcDbEntity
  8
0
100
AcDbLine
 10
18.59973089678115
 20
-13.77159925848144
 30
0.0
 11
17.59973089678115
 21
-13.77159925848144
 31
0.0
  0
LINE
  5
48
330
22
100
AcDbEntity
  8
0
100
AcDbLine
 10
18.59973089678115
 20
-9.771599258481472
 30
0.0
 11
18.59973089678115
 21
-13.77159925848144
 31
0.0
  0
LINE
  5
49
330
22
100
AcDbEntity
  8
0
100
AcDbLine
 10
22.59973089678116
 20
-9.771599258481472
 30
0.0
 11
23.67152766650562
 21
-13.77159925848147
 31
0.0
  0
ARC
  5
4A
330
22
100
AcDbEntity
  8
0
100
AcDbCircle
 10
22.59973089678116
 20
-7.271599258481472
 30
0.0
 40
2.5
100
AcDbArc
 50
270.0
 51
270.0000000000007
  0
LINE
  5
4B
330
22
100
AcDbEntity
  8
0
100
AcDbLine
 10
28.77130377203494
 20
-12.77159925848147
 30
0.0
 11
24.43885465448463
 21
-12.77159925848144
 31
0.0
  0
LINE
  5
4C
330
22
100
AcDbEntity
  8
0
100
AcDbLine
 10
3.599730896781125
 20
-4.771599258481472
 30
0.0
 11
2.599730896781125
 21
-4.771599258481472
 31
0.0
  0
LINE
  5
4D
330
22
100
AcDbEntity
  8
0
100
AcDbLine
 10
22.59973089678116
 20
-8.771599258481472
 30
0.0
 11
18.59973089678115
 21
-8.771599258481472
 31
0.0
  0
LINE
  5
4E
330
22
100
AcDbEntity
  8
0
100
AcDbLine
 10
22.59973089678116
 20
-5.771599258481472
 30
0.0
 11
18.59973089678115
 21
-5.771599258481472
 31
0.0
  0
LINE
  5
4F
330
22
100
AcDbEntity
  8
0
100
AcDbLine
 10
22.59973089678116
 20
-4.771599258481472
 30
0.0
 11
17.59973089678115
 21
-4.771599258481472
 31
0.0
  0
LINE
  5
50
330
22
100
AcDbEntity
  8
0
100
AcDbLine
 10
18.59973089678115
 20
-5.771599258481472
 30
0.0
 11
18.59973089678115
 21
-8.771599258481472
 31
0.0
  0
ARC
  5
51
330
22
100
AcDbEntity
  8
0
100
AcDbCircle
 10
22.59973089678116
 20
-7.271599258481472
 30
0.0
 40
1.5
100
AcDbArc
 50
270.0
 51
90.0
  0
ENDBLK
  5
52
330
22
100
AcDbEntity
  8
0
100
AcDbBlockEnd
  0
BLOCK
  5
124
330
123
100
AcDbEntity
  8
0
100
AcDbBlockBegin
  2
*X1
 70
     1
 10
0.0
 20
0.0
 30
0.0
  3
*X1
  1

  0
LINE
  5
125
330
123
100
AcDbEntity
  8
0
 62
     0
100
AcDbLine
 10
153.5763961285569
 20
132.6460354054351
 30
0.0
 11
154.6468718912192
 21
133.7165111680974
 31
0.0
  0
LINE
  5
126
330
123
100
AcDbEntity
  8
0
 62
     0
100
AcDbLine
 10
153.4801564872006
 20
132.6912171203161
 30
0.0
 11
154.5593768885446
 21
133.7704375216601
 31
0.0
  0
LINE
  5
127
330
123
100
AcDbEntity
  8
0
 62
     0
100
AcDbLine
 10
153.4745700704571
 20
132.82705205981
 30
0.0
 11
154.4717725474409
 21
133.8242545367937
 31
0.0
  0
LINE
  5
128
330
123
100
AcDbEntity
  8
0
 62
     0
100
AcDbLine
 10
153.667755235715
 20
133.1616585813051
 30
0.0
 11
154.3840587531537
 21
133.8779620987438
 31
0.0
  0
LINE
  5
129
330
123
100
AcDbEntity
  8
0
 62
     0
100
AcDbLine
 10
153.8609404009728
 20
133.4962651028002
 30
0.0
 11
154.296235390023
 21
133.9315600918504
 31
0.0
  0
LINE
  5
12A
330
123
100
AcDbEntity
  8
0
 62
     0
100
AcDbLine
 10
154.0541255662306
 20
133.8308716242954
 30
0.0
 11
154.2083023414788
 21
133.9850483995435
 31
0.0
  0
LINE
  5
12B
330
123
100
AcDbEntity
  8
0
 62
     0
100
AcDbLine
 10
153.678600913244
 20
132.6068188338849
 30
0.0
 11
154.7342576693176
 21
133.6624755899585
 31
0.0
  0
LINE
  5
12C
330
123
100
AcDbEntity
  8
0
 62
     0
100
AcDbLine
 10
153.7873924324079
 20
132.5741889968115
 30
0.0
 11
154.8215343357953
 21
133.6083309001989
 31
0.0
  0
LINE
  5
12D
330
123
100
AcDbEntity
  8
0
 62
     0
100
AcDbLine
 10
153.9036443572294
 20
132.5490195653956
 30
0.0
 11
154.9087020027145
 21
133.5540772108808
 31
0.0
  0
LINE
  5
12E
330
123
100
AcDbEntity
  8
0
 62
     0
100
AcDbLine
 10
154.0286193756862
 20
132.5325732276151
 30
0.0
 11
154.9957607812481
 21
133.4997146331771
 31
0.0
  0
LINE
  5
12F
330
123
100
AcDbEntity
  8
0
 62
     0
100
AcDbLine
 10
154.1642296479233
 20
132.526762143615
 30
0.0
 11
155.082710781684
 21
133.4452432773756
 31
0.0
  0
LINE
  5
130
330
123
100
AcDbEntity
  8
0
 62
     0
100
AcDbLine
 10
154.3135908502382
 20
132.5347019896925
 30
0.0
 11
155.1695521134285
 21
133.3906632528828
 31
0.0
  0
LINE
  5
131
330
123
100
AcDbEntity
  8
0
 62
     0
100
AcDbLine
 10
154.4824174273585
 20
132.5621072105755
 30
0.0
 11
155.2562848850109
 21
133.3359746682279
 31
0.0
  0
LINE
  5
132
330
123
100
AcDbEntity
  8
0
 62
     0
100
AcDbLine
 10
154.6837062359407
 20
132.6219746629204
 30
0.0
 11
155.3429092040869
 21
133.2811776310666
 31
0.0
  0
LINE
  5
133
330
123
100
AcDbEntity
  8
0
 62
     0
100
AcDbLine
 10
154.969278118245
 20
132.7661251889874
 30
0.0
 11
155.4082471562834
 21
133.2050942270258
 31
0.0
  0
ENDBLK
  5
134
330
123
100
AcDbEntity
  8
0
100
AcDbBlockEnd
  0
BLOCK
  5
599
330
58E
100
AcDbEntity
  8
0
100
AcDbBlockBegin
  2
*D2
 70
     1
 10
0.0
 20
0.0
 30
0.0
  3
*D2
  1

  0
LINE
  5
FC9
330
58E
100
AcDbEntity
  8
BEM
 62
     0
370
    -2
100
AcDbLine
 10
166.4963260675862
 20
252.2477654710529
 30
0.0
 11
175.3866102376623
 21
252.2477654710529
 31
0.0
  0
LINE
  5
FCA
330
58E
100
AcDbEntity
  8
BEM
 62
     0
370
    -2
100
AcDbLine
 10
166.4963260675862
 20
260.2477654710529
 30
0.0
 11
175.3866102376623
 21
260.2477654710529
 31
0.0
  0
LINE
  5
FCB
330
58E
100
AcDbEntity
  8
BEM
 62
     0
370
    -2
100
AcDbLine
 10
174.3866102376624
 20
248.7477654710529
 30
0.0
 11
174.3866102376624
 21
245.2477654710529
 31
0.0
  0
LINE
  5
FCC
330
58E
100
AcDbEntity
  8
BEM
 62
     0
370
    -2
100
AcDbLine
 10
174.3866102376624
 20
263.7477654710529
 30
0.0
 11
174.3866102376624
 21
267.2477654710529
 31
0.0
  0
LINE
  5
FCD
330
58E
100
AcDbEntity
  8
BEM
 62
     0
370
    -2
100
AcDbLine
 10
174.3866102376624
 20
252.2477654710529
 30
0.0
 11
174.3866102376624
 21
260.2477654710529
 31
0.0
  0
SOLID
  5
FCE
330
58E
100
AcDbEntity
  8
BEM
 62
     0
100
AcDbTrace
 10
173.803276904329
 20
248.7477654710529
 30
0.0
 11
174.9699435709957
 21
248.7477654710529
 31
0.0
 12
174.3866102376624
 22
252.2477654710529
 32
0.0
 13
174.3866102376624
 23
252.2477654710529
 33
0.0
  0
SOLID
  5
FCF
330
58E
100
AcDbEntity
  8
BEM
 62
     0
100
AcDbTrace
 10
173.803276904329
 20
263.7477654710529
 30
0.0
 11
174.9699435709957
 21
263.7477654710529
 31
0.0
 12
174.3866102376624
 22
260.2477654710529
 32
0.0
 13
174.3866102376624
 23
260.2477654710529
 33
0.0
  0
MTEXT
  5
FD0
330
58E
100
AcDbEntity
  8
BEM
 62
     1
100
AcDbMText
 10
171.1366102376623
 20
256.247765471053
 30
0.0
 40
3.5
 41
0.0
 71
     5
 72
     1
  1
\A1;8
 11
0.0000000000000001
 21
1.0
 31
0.0
 73
     1
 44
1.0
  0
POINT
  5
FD1
330
58E
100
AcDbEntity
  8
DEFPOINTS
 62
     0
100
AcDbPoint
 10
165.4963260675862
 20
252.2477654710529
 30
0.0
  0
POINT
  5
FD2
330
58E
100
AcDbEntity
  8
DEFPOINTS
 62
     0
100
AcDbPoint
 10
165.4963260675862
 20
260.2477654710529
 30
0.0
  0
POINT
  5
FD3
330
58E
100
AcDbEntity
  8
DEFPOINTS
 62
     0
100
AcDbPoint
 10
174.3866102376624
 20
260.2477654710529
 30
0.0
  0
ENDBLK
  5
59A
330
58E
100
AcDbEntity
  8
0
100
AcDbBlockEnd
  0
BLOCK
  5
5F4
330
5E9
100
AcDbEntity
  8
0
100
AcDbBlockBegin
  2
*D3
 70
     1
 10
0.0
 20
0.0
 30
0.0
  3
*D3
  1

  0
LINE
  5
C68
330
5E9
100
AcDbEntity
  8
BEM
 62
     0
370
    -2
100
AcDbLine
 10
62.49632606758621
 20
260.2477654710529
 30
0.0
 11
54.88766815115145
 21
260.2477654710529
 31
0.0
  0
LINE
  5
C69
330
5E9
100
AcDbEntity
  8
BEM
 62
     0
370
    -2
100
AcDbLine
 10
63.91602454593877
 20
230.2477654710529
 30
0.0
 11
54.88766815115145
 21
230.2477654710529
 31
0.0
  0
LINE
  5
C6A
330
5E9
100
AcDbEntity
  8
BEM
 62
     0
370
    -2
100
AcDbLine
 10
55.88766815115145
 20
256.7477654710529
 30
0.0
 11
55.88766815115144
 21
233.7477654710529
 31
0.0
  0
SOLID
  5
C6B
330
5E9
100
AcDbEntity
  8
BEM
 62
     0
100
AcDbTrace
 10
55.30433481781812
 20
256.7477654710529
 30
0.0
 11
56.47100148448479
 21
256.7477654710529
 31
0.0
 12
55.88766815115145
 22
260.2477654710529
 32
0.0
 13
55.88766815115145
 23
260.2477654710529
 33
0.0
  0
SOLID
  5
C6C
330
5E9
100
AcDbEntity
  8
BEM
 62
     0
100
AcDbTrace
 10
55.30433481781811
 20
233.7477654710529
 30
0.0
 11
56.47100148448478
 21
233.7477654710529
 31
0.0
 12
55.88766815115144
 22
230.2477654710529
 32
0.0
 13
55.88766815115144
 23
230.2477654710529
 33
0.0
  0
MTEXT
  5
C6D
330
5E9
100
AcDbEntity
  8
BEM
 62
     1
100
AcDbMText
 10
52.63766815115141
 20
245.2477654710529
 30
0.0
 40
3.5
 41
0.0
 71
     5
 72
     1
  1
\A1;30
 11
0.0000000000000001
 21
1.0
 31
0.0
 73
     1
 44
1.0
  0
POINT
  5
C6E
330
5E9
100
AcDbEntity
  8
DEFPOINTS
 62
     0
100
AcDbPoint
 10
63.49632606758621
 20
260.2477654710529
 30
0.0
  0
POINT
  5
C6F
330
5E9
100
AcDbEntity
  8
DEFPOINTS
 62
     0
100
AcDbPoint
 10
64.91602454593878
 20
230.2477654710529
 30
0.0
  0
POINT
  5
C70
330
5E9
100
AcDbEntity
  8
DEFPOINTS
 62
     0
100
AcDbPoint
 10
55.88766815115144
 20
230.2477654710529
 30
0.0
  0
ENDBLK
  5
5F5
330
5E9
100
AcDbEntity
  8
0
100
AcDbBlockEnd
  0
BLOCK
  5
642
330
637
100
AcDbEntity
  8
0
100
AcDbBlockBegin
  2
*D4
 70
     1
 10
0.0
 20
0.0
 30
0.0
  3
*D4
  1

  0
LINE
  5
F62
330
637
100
AcDbEntity
  8
BEM
 62
     0
370
    -2
100
AcDbLine
 10
65.49632606758621
 20
261.2477654710529
 30
0.0
 11
65.49632606758621
 21
274.9071128479902
 31
0.0
  0
LINE
  5
F63
330
637
100
AcDbEntity
  8
BEM
 62
     0
370
    -2
100
AcDbLine
 10
163.4963260675861
 20
261.2477654710529
 30
0.0
 11
163.4963260675861
 21
274.9071128479902
 31
0.0
  0
LINE
  5
F64
330
637
100
AcDbEntity
  8
BEM
 62
     0
370
    -2
100
AcDbLine
 10
68.99632606758621
 20
273.9071128479902
 30
0.0
 11
159.9963260675861
 21
273.9071128479902
 31
0.0
  0
SOLID
  5
F65
330
637
100
AcDbEntity
  8
BEM
 62
     0
100
AcDbTrace
 10
68.99632606758621
 20
274.4904461813235
 30
0.0
 11
68.99632606758621
 21
273.3237795146568
 31
0.0
 12
65.49632606758621
 22
273.9071128479902
 32
0.0
 13
65.49632606758621
 23
273.9071128479902
 33
0.0
  0
SOLID
  5
F66
330
637
100
AcDbEntity
  8
BEM
 62
     0
100
AcDbTrace
 10
159.9963260675861
 20
274.4904461813235
 30
0.0
 11
159.9963260675861
 21
273.3237795146568
 31
0.0
 12
163.4963260675861
 22
273.9071128479902
 32
0.0
 13
163.4963260675861
 23
273.9071128479902
 33
0.0
  0
MTEXT
  5
F67
330
637
100
AcDbEntity
  8
BEM
 62
     1
100
AcDbMText
 10
114.4963260675861
 20
277.1571128479902
 30
0.0
 40
3.5
 41
0.0
 71
     5
 72
     1
  1
\A1;%%C98
 73
     1
 44
1.0
  0
POINT
  5
F68
330
637
100
AcDbEntity
  8
DEFPOINTS
 62
     0
100
AcDbPoint
 10
65.49632606758621
 20
260.2477654710529
 30
0.0
  0
POINT
  5
F69
330
637
100
AcDbEntity
  8
DEFPOINTS
 62
     0
100
AcDbPoint
 10
163.4963260675861
 20
260.2477654710529
 30
0.0
  0
POINT
  5
F6A
330
637
100
AcDbEntity
  8
DEFPOINTS
 62
     0
100
AcDbPoint
 10
163.4963260675861
 20
273.9071128479902
 30
0.0
  0
ENDBLK
  5
643
330
637
100
AcDbEntity
  8
0
100
AcDbBlockEnd
  0
BLOCK
  5
669
330
65E
100
AcDbEntity
  8
0
100
AcDbBlockBegin
  2
*D5
 70
     1
 10
0.0
 20
0.0
 30
0.0
  3
*D5
  1

  0
LINE
  5
FA8
330
65E
100
AcDbEntity
  8
BEM
 62
     0
370
    -2
100
AcDbLine
 10
141.4123561429633
 20
252.2477654710529
 30
0.0
 11
151.7654794233763
 21
252.2477654710529
 31
0.0
  0
LINE
  5
FA9
330
65E
100
AcDbEntity
  8
BEM
 62
     0
370
    -2
100
AcDbLine
 10
150.9876147639468
 20
260.2477654710529
 30
0.0
 11
151.7654794233763
 21
260.2477654710529
 31
0.0
  0
LINE
  5
FAA
330
65E
100
AcDbEntity
  8
BEM
 62
     0
370
    -2
100
AcDbLine
 10
150.7654794233763
 20
248.7477654710529
 30
0.0
 11
150.7654794233763
 21
245.2477654710529
 31
0.0
  0
LINE
  5
FAB
330
65E
100
AcDbEntity
  8
BEM
 62
     0
370
    -2
100
AcDbLine
 10
150.7654794233763
 20
263.7477654710529
 30
0.0
 11
150.7654794233763
 21
267.2477654710529
 31
0.0
  0
LINE
  5
FAC
330
65E
100
AcDbEntity
  8
BEM
 62
     0
370
    -2
100
AcDbLine
 10
150.7654794233763
 20
252.2477654710529
 30
0.0
 11
150.7654794233763
 21
260.2477654710529
 31
0.0
  0
SOLID
  5
FAD
330
65E
100
AcDbEntity
  8
BEM
 62
     0
100
AcDbTrace
 10
150.182146090043
 20
248.7477654710529
 30
0.0
 11
151.3488127567096
 21
248.7477654710529
 31
0.0
 12
150.7654794233763
 22
252.2477654710529
 32
0.0
 13
150.7654794233763
 23
252.2477654710529
 33
0.0
  0
SOLID
  5
FAE
330
65E
100
AcDbEntity
  8
BEM
 62
     0
100
AcDbTrace
 10
150.182146090043
 20
263.7477654710529
 30
0.0
 11
151.3488127567096
 21
263.7477654710529
 31
0.0
 12
150.7654794233763
 22
260.2477654710529
 32
0.0
 13
150.7654794233763
 23
260.2477654710529
 33
0.0
  0
MTEXT
  5
FAF
330
65E
100
AcDbEntity
  8
BEM
 62
     1
100
AcDbMText
 10
147.5154794233763
 20
256.247765471053
 30
0.0
 40
3.5
 41
0.0
 71
     5
 72
     1
  1
\A1;8
 11
0.0000000000000001
 21
1.0
 31
0.0
 73
     1
 44
1.0
  0
POINT
  5
FB0
330
65E
100
AcDbEntity
  8
DEFPOINTS
 62
     0
100
AcDbPoint
 10
140.4123561429633
 20
252.2477654710529
 30
0.0
  0
POINT
  5
FB1
330
65E
100
AcDbEntity
  8
DEFPOINTS
 62
     0
100
AcDbPoint
 10
149.9876147639468
 20
260.2477654710529
 30
0.0
  0
POINT
  5
FB2
330
65E
100
AcDbEntity
  8
DEFPOINTS
 62
     0
100
AcDbPoint
 10
150.7654794233763
 20
260.2477654710529
 30
0.0
  0
ENDBLK
  5
66A
330
65E
100
AcDbEntity
  8
0
100
AcDbBlockEnd
  0
BLOCK
  5
690
330
685
100
AcDbEntity
  8
0
100
AcDbBlockBegin
  2
*D6
 70
     1
 10
0.0
 20
0.0
 30
0.0
  3
*D6
  1

  0
LINE
  5
DF5
330
685
100
AcDbEntity
  8
BEM
 62
     0
370
    -2
100
AcDbLine
 10
63.49632606758621
 20
261.2477654710529
 30
0.0
 11
63.49632606758621
 21
282.4601251441231
 31
0.0
  0
LINE
  5
DF6
330
685
100
AcDbEntity
  8
BEM
 62
     0
370
    -2
100
AcDbLine
 10
165.4963260675862
 20
261.2477654710529
 30
0.0
 11
165.4963260675862
 21
282.4601251441231
 31
0.0
  0
LINE
  5
DF7
330
685
100
AcDbEntity
  8
BEM
 62
     0
370
    -2
100
AcDbLine
 10
66.99632606758621
 20
281.4601251441231
 30
0.0
 11
161.9963260675862
 21
281.4601251441231
 31
0.0
  0
SOLID
  5
DF8
330
685
100
AcDbEntity
  8
BEM
 62
     0
100
AcDbTrace
 10
66.99632606758621
 20
282.0434584774564
 30
0.0
 11
66.99632606758621
 21
280.8767918107898
 31
0.0
 12
63.49632606758621
 22
281.4601251441231
 32
0.0
 13
63.49632606758621
 23
281.4601251441231
 33
0.0
  0
SOLID
  5
DF9
330
685
100
AcDbEntity
  8
BEM
 62
     0
100
AcDbTrace
 10
161.9963260675862
 20
282.0434584774564
 30
0.0
 11
161.9963260675862
 21
280.8767918107898
 31
0.0
 12
165.4963260675862
 22
281.4601251441231
 32
0.0
 13
165.4963260675862
 23
281.4601251441231
 33
0.0
  0
MTEXT
  5
DFA
330
685
100
AcDbEntity
  8
BEM
 62
     1
100
AcDbMText
 10
114.4963260675862
 20
284.7101251441231
 30
0.0
 40
3.5
 41
0.0
 71
     5
 72
     1
  1
\A1;%%c102
 73
     1
 44
1.0
  0
POINT
  5
DFB
330
685
100
AcDbEntity
  8
DEFPOINTS
 62
     0
100
AcDbPoint
 10
63.49632606758621
 20
260.2477654710529
 30
0.0
  0
POINT
  5
DFC
330
685
100
AcDbEntity
  8
DEFPOINTS
 62
     0
100
AcDbPoint
 10
165.4963260675862
 20
260.2477654710529
 30
0.0
  0
POINT
  5
DFD
330
685
100
AcDbEntity
  8
DEFPOINTS
 62
     0
100
AcDbPoint
 10
165.4963260675862
 20
281.4601251441231
 30
0.0
  0
ENDBLK
  5
691
330
685
100
AcDbEntity
  8
0
100
AcDbBlockEnd
  0
BLOCK
  5
927
330
91D
100
AcDbEntity
  8
0
100
AcDbBlockBegin
  2
*D7
 70
     1
 10
0.0
 20
0.0
 30
0.0
  3
*D7
  1

  0
LINE
  5
F8C
330
91D
100
AcDbEntity
  8
BEM
 62
     0
370
    -2
100
AcDbLine
 10
62.49632606758621
 20
260.2477654710529
 30
0.0
 11
46.23671102555433
 21
260.2477654710529
 31
0.0
  0
LINE
  5
F8D
330
91D
100
AcDbEntity
  8
BEM
 62
     0
370
    -2
100
AcDbLine
 10
77.60263497219836
 20
160.2477654710528
 30
0.0
 11
46.23671102555431
 21
160.2477654710529
 31
0.0
  0
LINE
  5
F8E
330
91D
100
AcDbEntity
  8
BEM
 62
     0
370
    -2
100
AcDbLine
 10
47.23671102555433
 20
256.7477654710529
 30
0.0
 11
47.23671102555431
 21
163.7477654710528
 31
0.0
  0
SOLID
  5
F8F
330
91D
100
AcDbEntity
  8
BEM
 62
     0
100
AcDbTrace
 10
46.653377692221
 20
256.7477654710529
 30
0.0
 11
47.82004435888767
 21
256.7477654710529
 31
0.0
 12
47.23671102555433
 22
260.2477654710529
 32
0.0
 13
47.23671102555433
 23
260.2477654710529
 33
0.0
  0
SOLID
  5
F90
330
91D
100
AcDbEntity
  8
BEM
 62
     0
100
AcDbTrace
 10
46.65337769222097
 20
163.7477654710528
 30
0.0
 11
47.82004435888764
 21
163.7477654710528
 31
0.0
 12
47.23671102555431
 22
160.2477654710529
 32
0.0
 13
47.23671102555431
 23
160.2477654710529
 33
0.0
  0
MTEXT
  5
F91
330
91D
100
AcDbEntity
  8
BEM
 62
     1
100
AcDbMText
 10
43.98671102555429
 20
210.2477654710529
 30
0.0
 40
3.5
 41
0.0
 71
     5
 72
     1
  1
\A1;100
 11
0.0000000000000001
 21
1.0
 31
0.0
 73
     1
 44
1.0
  0
POINT
  5
F92
330
91D
100
AcDbEntity
  8
DEFPOINTS
 62
     0
100
AcDbPoint
 10
63.49632606758621
 20
260.2477654710529
 30
0.0
  0
POINT
  5
F93
330
91D
100
AcDbEntity
  8
DEFPOINTS
 62
     0
100
AcDbPoint
 10
78.60263497219836
 20
160.2477654710528
 30
0.0
  0
POINT
  5
F94
330
91D
100
AcDbEntity
  8
DEFPOINTS
 62
     0
100
AcDbPoint
 10
47.23671102555431
 20
160.2477654710529
 30
0.0
  0
ENDBLK
  5
928
330
91D
100
AcDbEntity
  8
0
100
AcDbBlockEnd
  0
BLOCK
  5
96A
330
960
100
AcDbEntity
  8
0
100
AcDbBlockBegin
  2
*D8
 70
     1
 10
0.0
 20
0.0
 30
0.0
  3
*D8
  1

  0
LINE
  5
EFA
330
960
100
AcDbEntity
  8
BEM
 62
     0
370
    -2
100
AcDbLine
 10
77.99632606758621
 20
166.1779079623995
 30
0.0
 11
77.99632606758621
 21
146.8915544686514
 31
0.0
  0
LINE
  5
EFB
330
960
100
AcDbEntity
  8
BEM
 62
     0
370
    -2
100
AcDbLine
 10
150.9963260675862
 20
166.1779079623996
 30
0.0
 11
150.9963260675862
 21
146.8915544686514
 31
0.0
  0
LINE
  5
EFC
330
960
100
AcDbEntity
  8
BEM
 62
     0
370
    -2
100
AcDbLine
 10
81.4963260675862
 20
147.8915544686514
 30
0.0
 11
147.4963260675862
 21
147.8915544686514
 31
0.0
  0
SOLID
  5
EFD
330
960
100
AcDbEntity
  8
BEM
 62
     0
100
AcDbTrace
 10
81.4963260675862
 20
148.4748878019847
 30
0.0
 11
81.4963260675862
 21
147.308221135318
 31
0.0
 12
77.99632606758621
 22
147.8915544686514
 32
0.0
 13
77.99632606758621
 23
147.8915544686514
 33
0.0
  0
SOLID
  5
EFE
330
960
100
AcDbEntity
  8
BEM
 62
     0
100
AcDbTrace
 10
147.4963260675862
 20
148.4748878019847
 30
0.0
 11
147.4963260675862
 21
147.308221135318
 31
0.0
 12
150.9963260675862
 22
147.8915544686514
 32
0.0
 13
150.9963260675862
 23
147.8915544686514
 33
0.0
  0
MTEXT
  5
EFF
330
960
100
AcDbEntity
  8
BEM
 62
     1
100
AcDbMText
 10
114.4963260675862
 20
151.1415544686514
 30
0.0
 40
3.5
 41
0.0
 71
     5
 72
     1
  1
\A1;%%c73
 73
     1
 44
1.0
  0
POINT
  5
F00
330
960
100
AcDbEntity
  8
DEFPOINTS
 62
     0
100
AcDbPoint
 10
77.99632606758621
 20
167.1779079623995
 30
0.0
  0
POINT
  5
F01
330
960
100
AcDbEntity
  8
DEFPOINTS
 62
     0
100
AcDbPoint
 10
150.9963260675862
 20
167.1779079623996
 30
0.0
  0
POINT
  5
F02
330
960
100
AcDbEntity
  8
DEFPOINTS
 62
     0
100
AcDbPoint
 10
150.9963260675862
 20
147.8915544686514
 30
0.0
  0
ENDBLK
  5
96B
330
960
100
AcDbEntity
  8
0
100
AcDbBlockEnd
  0
BLOCK
  5
9B5
330
9AB
100
AcDbEntity
  8
0
100
AcDbBlockBegin
  2
*D9
 70
     1
 10
0.0
 20
0.0
 30
0.0
  3
*D9
  1

  0
ARC
  5
B25
330
9AB
100
AcDbEntity
  8
BEM
 62
     0
370
    -2
100
AcDbCircle
 10
114.4963260675861
 20
76.90111947245108
 30
0.0
 40
15.66254439569771
100
AcDbArc
 50
132.8302802874033
 51
167.1697197125967
  0
SOLID
  5
B26
330
9AB
100
AcDbEntity
  8
BEM
 62
     0
100
AcDbTrace
 10
103.5021894320443
 20
88.85700025732313
 30
0.0
 11
104.1947595799317
 21
87.91814046940672
 31
0.0
 12
106.6650538697372
 22
90.46528080702691
 32
0.0
 13
106.6650538697372
 23
90.46528080702691
 33
0.0
  0
SOLID
  5
B27
330
9AB
100
AcDbEntity
  8
BEM
 62
     0
100
AcDbTrace
 10
99.80452276636874
 20
80.31402725105643
 30
0.0
 11
98.6451612654978
 21
80.44438069907139
 31
0.0
 12
98.83378167188837
 22
76.90111947245108
 32
0.0
 13
98.83378167188837
 23
76.90111947245108
 33
0.0
  0
MTEXT
  5
B28
330
9AB
100
AcDbEntity
  8
BEM
 62
     1
100
AcDbMText
 10
98.11758217071085
 20
86.35739167029996
 30
0.0
 40
3.5
 41
0.0
 71
     5
 72
     1
  1
\A1;60°
 11
0.4999999999999995
 21
0.8660254037844389
 31
0.0
 73
     1
 44
1.0
  0
POINT
  5
B29
330
9AB
100
AcDbEntity
  8
DEFPOINTS
 62
     0
100
AcDbPoint
 10
102.4981209681575
 20
86.96880894617093
 30
0.0
  0
POINT
  5
B2A
330
9AB
100
AcDbEntity
  8
DEFPOINTS
 62
     0
100
AcDbPoint
 10
114.4963260675861
 20
76.90111947245108
 30
0.0
  0
POINT
  5
B2B
330
9AB
100
AcDbEntity
  8
DEFPOINTS
 62
     0
100
AcDbPoint
 10
58.24632606758612
 20
76.90111947245107
 30
0.0
  0
POINT
  5
B2C
330
9AB
100
AcDbEntity
  8
DEFPOINTS
 62
     0
100
AcDbPoint
 10
170.7463260675861
 20
76.90111947245111
 30
0.0
  0
POINT
  5
B2D
330
9AB
100
AcDbEntity
  8
DEFPOINTS
 62
     0
100
AcDbPoint
 10
90.87132606758611
 20
117.8208198012658
 30
0.0
  0
ENDBLK
  5
9B6
330
9AB
100
AcDbEntity
  8
0
100
AcDbBlockEnd
  0
BLOCK
  5
9C2
330
9B8
100
AcDbEntity
  8
0
100
AcDbBlockBegin
  2
*D10
 70
     1
 10
0.0
 20
0.0
 30
0.0
  3
*D10
  1

  0
ARC
  5
B1C
330
9B8
100
AcDbEntity
  8
BEM
 62
     0
370
    -2
100
AcDbCircle
 10
114.4963260675861
 20
76.9011194724511
 30
0.0
 40
15.7854356542212
100
AcDbArc
 50
12.72998064553294
 51
47.27001935446703
  0
SOLID
  5
B1D
330
9B8
100
AcDbEntity
  8
BEM
 62
     0
100
AcDbTrace
 10
130.4734833994452
 20
80.44421424624722
 30
0.0
 11
129.3140082469903
 21
80.31487561338407
 31
0.0
 12
130.2817617218073
 22
76.9011194724511
 32
0.0
 13
130.2817617218073
 23
76.9011194724511
 33
0.0
  0
SOLID
  5
B1E
330
9B8
100
AcDbEntity
  8
BEM
 62
     0
100
AcDbTrace
 10
124.8615666976613
 20
88.02673059455266
 30
0.0
 11
125.5533148156389
 21
88.96619621520379
 31
0.0
 12
122.3890438946967
 22
90.57170775881129
 32
0.0
 13
122.3890438946967
 23
90.57170775881129
 33
0.0
  0
MTEXT
  5
B1F
330
9B8
100
AcDbEntity
  8
BEM
 62
     1
100
AcDbMText
 10
130.9814969162457
 20
86.4188372995617
 30
0.0
 40
3.5
 41
0.0
 71
     5
 72
     1
  1
\A1;60°
 11
0.5000000000000004
 21
-0.8660254037844385
 31
0.0
 73
     1
 44
1.0
  0
POINT
  5
B20
330
9B8
100
AcDbEntity
  8
DEFPOINTS
 62
     0
100
AcDbPoint
 10
129.3297834677485
 20
82.30005643736594
 30
0.0
  0
POINT
  5
B21
330
9B8
100
AcDbEntity
  8
DEFPOINTS
 62
     0
100
AcDbPoint
 10
114.4963260675861
 20
76.90111947245108
 30
0.0
  0
POINT
  5
B22
330
9B8
100
AcDbEntity
  8
DEFPOINTS
 62
     0
100
AcDbPoint
 10
58.2463260675861
 20
76.90111947245108
 30
0.0
  0
POINT
  5
B23
330
9B8
100
AcDbEntity
  8
DEFPOINTS
 62
     0
100
AcDbPoint
 10
170.7463260675861
 20
76.9011194724511
 30
0.0
  0
POINT
  5
B24
330
9B8
100
AcDbEntity
  8
DEFPOINTS
 62
     0
100
AcDbPoint
 10
123.6213260675861
 20
92.70608309151713
 30
0.0
  0
ENDBLK
  5
9C3
330
9B8
100
AcDbEntity
  8
0
100
AcDbBlockEnd
  0
ENDSEC
  0
SECTION
  2
ENTITIES
  0
LINE
  5
57
330
1E
100
AcDbEntity
  8
STEMPEL
100
AcDbLine
 10
205.0
 20
55.00000000000003
 30
0.0
 11
19.99999999999998
 21
55.0
 31
0.0
  0
LINE
  5
58
330
1E
100
AcDbEntity
  8
STEMPEL
100
AcDbLine
 10
68.00000000000006
 20
54.99999999999997
 30
0.0
 11
68.0
 21
4.999999999999985
 31
0.0
  0
LINE
  5
59
330
1E
100
AcDbEntity
  8
STEMPEL
100
AcDbLine
 10
110.0
 20
55.00000000000003
 30
0.0
 11
110.0
 21
4.999999999999985
 31
0.0
  0
LINE
  5
5A
330
1E
100
AcDbEntity
  8
STEMPEL
100
AcDbLine
 10
166.0
 20
54.99999999999989
 30
0.0
 11
166.0
 21
20.0
 31
0.0
  0
LINE
  5
5B
330
1E
100
AcDbEntity
  8
STEMPEL
100
AcDbLine
 10
67.99999999999994
 20
14.99999999999998
 30
0.0
 11
19.99999999999998
 21
14.99999999999998
 31
0.0
  0
LINE
  5
5C
330
1E
100
AcDbEntity
  8
STEMPEL
100
AcDbLine
 10
205.0
 20
20.0
 30
0.0
 11
68.00000000000006
 21
19.99999999999998
 31
0.0
  0
LINE
  5
5D
330
1E
100
AcDbEntity
  8
STEMPEL
100
AcDbLine
 10
205.0
 20
40.0
 30
0.0
 11
68.00000000000006
 21
39.99999999999997
 31
0.0
  0
LINE
  5
5E
330
1E
100
AcDbEntity
  8
VOLL
100
AcDbLine
 10
27.00000000000005
 20
55.00000000000003
 30
0.0
 11
26.99999999999999
 21
4.999999999999985
 31
0.0
  0
LINE
  5
5F
330
1E
100
AcDbEntity
  8
VOLL
100
AcDbLine
 10
47.00000000000005
 20
54.99999999999997
 30
0.0
 11
47.0
 21
4.999999999999985
 31
0.0
  0
LINE
  5
60
330
1E
100
AcDbEntity
  8
VOLL
100
AcDbLine
 10
57.00000000000006
 20
54.99999999999997
 30
0.0
 11
57.0
 21
4.999999999999985
 31
0.0
  0
LINE
  5
61
330
1E
100
AcDbEntity
  8
VOLL
100
AcDbLine
 10
77.00000000000006
 20
39.99999999999997
 30
0.0
 11
77.00000000000006
 21
19.99999999999998
 31
0.0
  0
LINE
  5
62
330
1E
100
AcDbEntity
  8
VOLL
100
AcDbLine
 10
90.00000000000005
 20
54.99999999999992
 30
0.0
 11
90.0
 21
19.99999999999998
 31
0.0
  0
LINE
  5
63
330
1E
100
AcDbEntity
  8
HILF
100
AcDbLine
 10
20.00000000000004
 20
50.00000000000003
 30
0.0
 11
68.00000000000006
 21
50.00000000000003
 31
0.0
  0
LINE
  5
64
330
1E
100
AcDbEntity
  8
HILF
100
AcDbLine
 10
20.00000000000004
 20
45.00000000000002
 30
0.0
 11
68.00000000000006
 21
45.00000000000002
 31
0.0
  0
LINE
  5
65
330
1E
100
AcDbEntity
  8
HILF
100
AcDbLine
 10
20.00000000000004
 20
39.99999999999997
 30
0.0
 11
68.00000000000006
 21
39.99999999999997
 31
0.0
  0
LINE
  5
66
330
1E
100
AcDbEntity
  8
HILF
100
AcDbLine
 10
20.00000000000004
 20
34.99999999999997
 30
0.0
 11
68.00000000000006
 21
34.99999999999997
 31
0.0
  0
LINE
  5
67
330
1E
100
AcDbEntity
  8
HILF
100
AcDbLine
 10
20.00000000000004
 20
29.99999999999999
 30
0.0
 11
68.00000000000006
 21
29.99999999999999
 31
0.0
  0
LINE
  5
68
330
1E
100
AcDbEntity
  8
HILF
100
AcDbLine
 10
20.00000000000004
 20
24.99999999999999
 30
0.0
 11
68.00000000000006
 21
24.99999999999999
 31
0.0
  0
LINE
  5
69
330
1E
100
AcDbEntity
  8
HILF
100
AcDbLine
 10
20.00000000000004
 20
19.99999999999998
 30
0.0
 11
68.00000000000006
 21
19.99999999999998
 31
0.0
  0
LINE
  5
6A
330
1E
100
AcDbEntity
  8
HILF
100
AcDbLine
 10
68.00000000000006
 20
34.99999999999997
 30
0.0
 11
110.0
 21
34.99999999999997
 31
0.0
  0
LINE
  5
6B
330
1E
100
AcDbEntity
  8
HILF
100
AcDbLine
 10
68.00000000000006
 20
29.99999999999999
 30
0.0
 11
110.0
 21
29.99999999999999
 31
0.0
  0
LINE
  5
6C
330
1E
100
AcDbEntity
  8
HILF
100
AcDbLine
 10
68.00000000000006
 20
24.99999999999999
 30
0.0
 11
110.0
 21
24.99999999999999
 31
0.0
  0
LINE
  5
6D
330
1E
100
AcDbEntity
  8
HILF
100
AcDbLine
 10
112.3868400548474
 20
42.01879123782069
 30
0.0
 11
162.4176958278155
 21
42.01879123782069
 31
0.0
  0
LINE
  5
6E
330
1E
100
AcDbEntity
  8
HILF
100
AcDbLine
 10
112.3868400548474
 20
34.99999999999997
 30
0.0
 11
162.4176958278155
 21
34.99999999999997
 31
0.0
  0
LINE
  5
6F
330
1E
100
AcDbEntity
  8
HILF
100
AcDbLine
 10
112.3868400548474
 20
29.99999999999999
 30
0.0
 11
162.4176958278155
 21
29.99999999999999
 31
0.0
  0
LINE
  5
70
330
1E
100
AcDbEntity
  8
HILF
100
AcDbLine
 10
112.3868400548474
 20
24.99999999999999
 30
0.0
 11
162.4176958278155
 21
24.99999999999999
 31
0.0
  0
LINE
  5
71
330
1E
100
AcDbEntity
  8
VOLL
100
AcDbLine
 10
166.0
 20
30.0
 30
0.0
 11
205.0
 21
30.0
 31
0.0
  0
LINE
  5
72
330
1E
100
AcDbEntity
  8
HILF
100
AcDbLine
 10
168.3619308148496
 20
41.88991818477913
 30
0.0
 11
202.4294419663364
 21
41.88991818477913
 31
0.0
  0
LINE
  5
73
330
1E
100
AcDbEntity
  8
HILF
100
AcDbLine
 10
111.7454849644942
 20
7.446991290141568
 30
0.0
 11
202.4294419663364
 21
7.446991290141568
 31
0.0
  0
TEXT
  5
74
330
1E
100
AcDbEntity
  8
TEXT
100
AcDbText
 10
31.80448553405743
 20
9.409030521472388
 30
0.0
 40
2.0
  1
Änderung
 41
0.8
  7
GREEKS
 72
     1
 11
37.175914105486
 21
9.409030521472388
 31
0.0
100
AcDbText
  0
TEXT
  5
75
330
1E
100
AcDbEntity
  8
TEXT
100
AcDbText
 10
71.75817860751886
 20
51.23104475435443
 30
0.0
 40
2.5
  1
Maßstab
 41
0.8
  7
GREEKS
100
AcDbText
  0
TEXT
  5
76
330
1E
100
AcDbEntity
  8
TEXT
100
AcDbText
 10
92.14294773670257
 20
51.20920842174095
 30
0.0
 40
2.5
  1
Zul. Abw.
 41
0.8
  7
GREEKS
100
AcDbText
  0
TEXT
  5
77
330
1E
100
AcDbEntity
  8
TEXT
100
AcDbText
 10
112.4389701904505
 20
51.27446640058898
 30
0.0
 40
2.5
  1
Benennung
 41
0.8
  7
GREEKS
100
AcDbText
  0
TEXT
  5
78
330
1E
100
AcDbEntity
  8
TEXT
100
AcDbText
 10
168.089377478817
 20
51.15660172685682
 30
0.0
 40
2.5
  1
Zeichnungs Nr.
 41
0.8
  7
GREEKS
100
AcDbText
  0
TEXT
  5
79
330
1E
100
AcDbEntity
  8
TEXT
100
AcDbText
 10
112.371119195568
 20
15.42280285096528
 30
0.0
 40
2.5
  1
Bauvorhaben
 41
0.8
  7
GREEKS
100
AcDbText
  0
TEXT
  5
7A
330
1E
100
AcDbEntity
  8
TEXT
100
AcDbText
 10
168.3619308148496
 20
36.59059118549985
 30
0.0
 40
2.5
  1
Ersatz für:
 41
0.8
  7
GREEKS
100
AcDbText
  0
TEXT
  5
7B
330
1E
100
AcDbEntity
  8
TEXT
100
AcDbText
 10
24.13320553522878
 20
6.827329230135958
 30
0.0
 40
2.0
  1
Index
 50
90.0
 41
0.8
  7
GREEKS
100
AcDbText
  0
TEXT
  5
7C
330
1E
100
AcDbEntity
  8
TEXT
100
AcDbText
 10
50.34930596176948
 20
9.33578134669905
 30
0.0
 40
2.0
  1
Tag
 41
0.8
  7
GREEKS
 72
     1
 11
52.21597262843615
 21
9.33578134669905
 31
0.0
100
AcDbText
  0
TEXT
  5
7D
330
1E
100
AcDbEntity
  8
TEXT
100
AcDbText
 10
59.50613721932963
 20
9.29662108483204
 30
0.0
 40
2.0
  1
Name
 41
0.8
  7
GREEKS
 72
     1
 11
62.66804198123439
 21
9.29662108483204
 31
0.0
100
AcDbText
  0
TEXT
  5
7E
330
1E
100
AcDbEntity
  8
TEXT
100
AcDbText
 10
81.16558365768254
 20
36.65940250614963
 30
0.0
 40
2.0
  1
Tag
 41
0.8
  7
GREEKS
100
AcDbText
  0
TEXT
  5
7F
330
1E
100
AcDbEntity
  8
TEXT
100
AcDbText
 10
96.23132921131475
 20
36.65480545957612
 30
0.0
 40
2.0
  1
Name
 41
0.8
  7
GREEKS
100
AcDbText
  0
TEXT
  5
80
330
1E
100
AcDbEntity
  8
TEXT
100
AcDbText
 10
68.79180635838077
 20
31.81495184808982
 30
0.0
 40
2.0
  1
Gez.
 41
0.8
  7
GREEKS
100
AcDbText
  0
TEXT
  5
81
330
1E
100
AcDbEntity
  8
TEXT
100
AcDbText
 10
68.77575432858361
 20
26.84463145714189
 30
0.0
 40
2.0
  1
Gepr.
 41
0.8
  7
GREEKS
100
AcDbText
  0
TEXT
  5
82
330
1E
100
AcDbEntity
  8
TEXT
100
AcDbText
 10
68.80033886936519
 20
21.76473194824904
 30
0.0
 40
2.0
  1
Norm.
 41
0.8
  7
GREEKS
100
AcDbText
  0
LINE
  5
83
330
1E
100
AcDbEntity
  8
STEMPEL
100
AcDbLine
 10
24.99999999999995
 20
5.0
 30
0.0
 11
205.0
 21
5.0
 31
0.0
  0
TEXT
  5
84
330
1E
100
AcDbEntity
  8
TEXT
100
AcDbText
 10
168.6200430748503
 20
26.03708088939301
 30
0.0
 40
2.5
  1
ersetzt durch:
 41
0.8
  7
GREEKS
100
AcDbText
  0
LINE
  5
85
330
1E
100
AcDbEntity
  8
STEMPEL
100
AcDbLine
 10
205.0
 20
5.0
 30
0.0
 11
19.99999999999994
 21
5.0
 31
0.0
  0
LINE
  5
86
330
1E
100
AcDbEntity
  8
STEMPEL
100
AcDbLine
 10
205.0
 20
5.0
 30
0.0
 11
205.0
 21
292.0
 31
0.0
  0
LINE
  5
87
330
1E
100
AcDbEntity
  8
STEMPEL
100
AcDbLine
 10
20.0
 20
5.0
 30
0.0
 11
19.99999999999994
 21
292.0
 31
0.0
  0
LINE
  5
88
330
1E
100
AcDbEntity
  8
STEMPEL
100
AcDbLine
 10
205.0
 20
292.0
 30
0.0
 11
19.99999999999994
 21
292.0
 31
0.0
  0
LINE
  5
89
330
1E
100
AcDbEntity
  8
HILF
100
AcDbLine
 10
0.0
 20
0.0
 30
0.0
 11
-0.0000000000000568
 21
297.0
 31
0.0
  0
LINE
  5
8A
330
1E
100
AcDbEntity
  8
HILF
100
AcDbLine
 10
210.0
 20
297.0000000000001
 30
0.0
 11
0.0
 21
297.0
 31
0.0
  0
LINE
  5
8B
330
1E
100
AcDbEntity
  8
HILF
100
AcDbLine
 10
210.0
 20
0.0
 30
0.0
 11
0.0
 21
0.0
 31
0.0
  0
LINE
  5
8C
330
1E
100
AcDbEntity
  8
HILF
100
AcDbLine
 10
15.54383567856928
 20
148.5
 30
0.0
 11
0.0000000000000568
 21
148.5
 31
0.0
  0
TEXT
  5
8D
330
1E
100
AcDbEntity
  8
TEXT
100
AcDbText
 10
69.31105491105199
 20
36.57012735575833
 30
0.0
 40
2.0
  1
2006
 41
0.8
  7
GREEKS
100
AcDbText
  0
LINE
  5
8E
330
1E
100
AcDbEntity
  8
HILF
100
AcDbLine
 10
210.0
 20
-0.0000000000000568
 30
0.0
 11
210.0
 21
297.0
 31
0.0
  0
TEXT
  5
8F
330
1E
100
AcDbEntity
  8
VOLL
100
AcDbText
 10
78.07675471698113
 20
31.02594776470585
 30
0.0
 40
1.8
  1

  7
GREEKS
100
AcDbText
  0
TEXT
  5
90
330
1E
100
AcDbEntity
  8
TEXT
100
AcDbText
 10
20.92754975488837
 20
55.83599999999997
 30
0.0
 40
2.5
  1
Erstellt mit AUTOCAD 2004
 41
0.8
  7
GREEKS
100
AcDbText
  0
TEXT
  5
91
330
1E
100
AcDbEntity
  8
TEXT
100
AcDbText
 10
97.21080242906285
 20
31.54481959861755
 30
0.0
 40
2.0
  1
Koeh
 41
0.8
  7
GREEKS
 72
     1
 11
99.83937385763429
 21
31.54481959861755
 31
0.0
100
AcDbText
  0
TEXT
  5
92
330
1E
100
AcDbEntity
  8
TEXT
 62
     1
100
AcDbText
 10
173.638313519851
 20
44.07450714456979
 30
0.0
 40
3.5
  1
15084050W
 41
0.8
  7
GREEKS
 72
     1
 11
185.3716468531843
 21
44.07450714456979
 31
0.0
100
AcDbText
  0
TEXT
  5
93
330
1E
100
AcDbEntity
  8
TEXT
 62
     1
100
AcDbText
 10
75.25031532409435
 20
44.07450714456979
 30
0.0
 40
3.5
  1
1:1
 41
0.8
  7
GREEKS
100
AcDbText
  0
TEXT
  5
94
330
1E
100
AcDbEntity
  8
TEXT
100
AcDbText
 10
80.19949855411802
 20
31.55382520412866
 30
0.0
 40
2.0
  1
07.06.
 41
0.8
  7
GREEKS
 72
     1
 11
83.70426045887993
 21
31.55382520412866
 31
0.0
100
AcDbText
  0
TEXT
  5
95
330
1E
100
AcDbEntity
  8
TEXT
 62
     1
100
AcDbText
 10
113.4467865528701
 20
43.70874394626889
 30
0.0
 40
3.5
  1
Direktablauf DN50
 41
0.8
  7
GREEKS
100
AcDbText
  0
TEXT
  5
96
330
1E
100
AcDbEntity
  8
TEXT
100
AcDbText
 10
112.5648195562657
 20
35.75167208792644
 30
0.0
 40
2.5
  1
mit Auslauf DN70
 41
0.8
  7
GREEKS
100
AcDbText
  0
TEXT
  5
98
330
1E
100
AcDbEntity
  8
TEXT
100
AcDbText
 10
112.5648195562657
 20
25.82005971521079
 30
0.0
 40
2.5
  1
EDV-Art.Nr. 15084.050X
 41
0.8
  7
GREEKS
100
AcDbText
  0
TEXT
  5
99
330
1E
100
AcDbEntity
  8
TEXT
100
AcDbText
 10
112.4918750788913
 20
21.31487076511316
 30
0.0
 40
2.0
  1
15084050W.DWG
 41
0.8
  7
GREEKS
100
AcDbText
  0
TEXT
  5
9A
330
1E
100
AcDbEntity
  8
TEXT
100
AcDbText
 10
91.31306610404202
 20
45.38181920511511
 30
0.0
 40
2.0
  1
DIN EN1123-2
 41
0.8
  7
GREEKS
 72
     1
 11
99.80830419928011
 21
45.38181920511511
 31
0.0
100
AcDbText
  0
INSERT
  5
9B
330
1E
100
AcDbEntity
  8
STEMPEL
100
AcDbBlockReference
  2
LOGO
 10
70.4977742728897
 20
22.51052638224161
 30
0.0
  0
TEXT
  5
118
330
1E
100
AcDbEntity
  8
BEM
100
AcDbText
 10
208.6511461928583
 20
5.083950539994247
 30
0.0
 40
2.0
  1
Diese Zeichnung ist urheberrechtlich geschützt und bleibt unser Eigentum. Sie darf weder ganz noch teilweise verfielfältigt und nicht an Dritte weitergegeben werden.
 50
90.0
 41
0.8
  7
GREEKS
100
AcDbText
  0
LINE
  5
4C9
102
{ACAD_REACTORS
330
D4F
102
}
330
1E
100
AcDbEntity
  8
STEMPEL
100
AcDbLine
 10
165.4963260675862
 20
260.2477654710529
 30
0.0
 11
165.4963260675862
 21
252.2477654710529
 31
0.0
  0
LINE
  5
4CA
102
{ACAD_REACTORS
330
D4F
102
}
330
1E
100
AcDbEntity
  8
STEMPEL
  6
Continuous
100
AcDbLine
 10
165.4963260675862
 20
252.2477654710529
 30
0.0
 11
161.4963260675862
 21
252.2477654710529
 31
0.0
  0
LINE
  5
4CB
102
{ACAD_REACTORS
330
D4F
102
}
330
1E
100
AcDbEntity
  8
STEMPEL
100
AcDbLine
 10
165.4963260675862
 20
245.2477654710529
 30
0.0
 11
165.4963260675861
 21
233.2742091376672
 31
0.0
  0
LINE
  5
4CC
102
{ACAD_REACTORS
330
D4F
102
}
330
1E
100
AcDbEntity
  8
STEMPEL
  6
Continuous
100
AcDbLine
 10
165.4963260675862
 20
245.2477654710529
 30
0.0
 11
161.4963260675862
 21
245.2477654710529
 31
0.0
  0
LINE
  5
4CE
102
{ACAD_REACTORS
330
D4F
102
}
330
1E
100
AcDbEntity
  8
STEMPEL
100
AcDbLine
 10
161.4963260675862
 20
252.2477654710529
 30
0.0
 11
161.4963260675862
 21
245.2477654710529
 31
0.0
  0
LINE
  5
4CF
102
{ACAD_REACTORS
330
D4F
102
}
330
1E
100
AcDbEntity
  8
STEMPEL
100
AcDbLine
 10
163.4963260675862
 20
260.247765471053
 30
0.0
 11
163.4963260675862
 21
233.2742091376672
 31
0.0
  0
DIMENSION
  5
4D1
330
1E
100
AcDbEntity
  8
BEM
100
AcDbDimension
  2
*D2
 10
174.3866102376624
 20
260.2477654710529
 30
0.0
 11
174.3866102376623
 21
256.247765471053
 31
0.0
 70
   160
 71
     5
 42
8.000000000000028
  3
Standard
100
AcDbAlignedDimension
 13
165.4963260675862
 23
252.2477654710529
 33
0.0
 14
165.4963260675862
 24
260.2477654710529
 34
0.0
 50
90.0
100
AcDbRotatedDimension
1001
ACAD
1000
DSTYLE
1002
{
1070
    41
1040
3.5
1070
    42
1040
1.0
1070
    43
1040
7.0
1070
    44
1040
1.0
1070
    73
1070
     0
1070
    74
1070
     0
1070
    77
1070
     1
1070
    78
1070
     8
1070
    79
1070
     2
1070
   140
1040
3.5
1070
   141
1040
1.5
1070
   146
1040
0.5
1070
   147
1040
1.5
1070
   172
1070
     1
1070
   178
1070
     1
1070
   179
1070
     2
1070
   271
1070
     2
1070
   272
1070
     2
1070
   284
1070
     8
1070
   285
1070
     8
1070
   286
1070
     8
1002
}
  0
LINE
  5
4D5
330
1E
100
AcDbEntity
  8
STEMPEL
100
AcDbLine
 10
161.7463260675861
 20
90.79356346190097
 30
0.0
 11
161.7463260675861
 21
76.9011194724511
 31
0.0
  0
LINE
  5
4D6
330
1E
100
AcDbEntity
  8
VERDECKT
100
AcDbLine
 10
163.7463260675861
 20
90.79356346190097
 30
0.0
 11
163.7463260675861
 21
76.9011194724511
 31
0.0
  0
ARC
  5
4F7
330
1E
100
AcDbEntity
  8
BEM
100
AcDbCircle
 10
140.7262422384656
 20
252.5173816255237
 30
0.0
 40
1.307841603804926
100
AcDbArc
 50
256.1132741330224
 51
325.3532149489552
  0
ARC
  5
4F8
330
1E
100
AcDbEntity
  8
BEM
100
AcDbCircle
 10
140.7262422384656
 20
251.5173816255237
 30
0.0
 40
1.307841603804926
100
AcDbArc
 50
256.1132741330224
 51
325.3532149489552
  0
ARC
  5
4F9
330
1E
100
AcDbEntity
  8
BEM
100
AcDbCircle
 10
140.7262422384656
 20
253.5173816255237
 30
0.0
 40
1.307841603804926
100
AcDbArc
 50
256.1132741330224
 51
325.3532149489552
  0
ARC
  5
4FA
330
1E
100
AcDbEntity
  8
BEM
100
AcDbCircle
 10
140.7262422384656
 20
250.5173816255237
 30
0.0
 40
1.307841603804926
100
AcDbArc
 50
256.1132741330224
 51
325.3532149489552
  0
LINE
  5
4FB
330
1E
100
AcDbEntity
  8
STEMPEL
100
AcDbLine
 10
140.4123561429633
 20
235.0477654710529
 30
0.0
 11
140.4123561429633
 21
238.0477654710528
 31
0.0
  0
ARC
  5
4FC
330
1E
100
AcDbEntity
  8
BEM
100
AcDbCircle
 10
140.7262422384657
 20
236.3173816255237
 30
0.0
 40
1.307841603804926
100
AcDbArc
 50
256.1132741330224
 51
325.3532149489552
  0
ARC
  5
4FD
330
1E
100
AcDbEntity
  8
BEM
100
AcDbCircle
 10
140.7262422384657
 20
237.3173816255238
 30
0.0
 40
1.307841603804926
100
AcDbArc
 50
256.1132741330224
 51
325.3532149489552
  0
ARC
  5
4FE
330
1E
100
AcDbEntity
  8
BEM
100
AcDbCircle
 10
140.7262422384657
 20
239.3173816255238
 30
0.0
 40
1.307841603804926
100
AcDbArc
 50
256.1132741330224
 51
325.3532149489552
  0
ARC
  5
4FF
330
1E
100
AcDbEntity
  8
BEM
100
AcDbCircle
 10
140.7262422384657
 20
238.3173816255237
 30
0.0
 40
1.307841603804926
100
AcDbArc
 50
256.1132741330224
 51
325.3532149489552
  0
LINE
  5
500
330
1E
100
AcDbEntity
  8
STEMPEL
100
AcDbLine
 10
139.1620605725281
 20
238.0477654710528
 30
0.0
 11
139.1620605725281
 21
249.2477654710529
 31
0.0
  0
LINE
  5
501
330
1E
100
AcDbEntity
  8
STEMPEL
100
AcDbLine
 10
140.4123561429633
 20
238.0477654710528
 30
0.0
 11
139.1620605725281
 21
238.0477654710528
 31
0.0
  0
LINE
  5
502
330
1E
100
AcDbEntity
  8
STEMPEL
100
AcDbLine
 10
140.4123561429633
 20
249.2477654710529
 30
0.0
 11
139.1620605725281
 21
249.2477654710529
 31
0.0
  0
LINE
  5
503
330
1E
100
AcDbEntity
  8
STEMPEL
100
AcDbLine
 10
140.4123561429633
 20
249.2477654710529
 30
0.0
 11
140.4123561429633
 21
252.2477654710529
 31
0.0
  0
LINE
  5
504
330
1E
100
AcDbEntity
  8
STEMPEL
100
AcDbLine
 10
123.8222879619096
 20
240.0477654710528
 30
0.0
 11
123.8222879619096
 21
247.2477654710529
 31
0.0
  0
LINE
  5
505
330
1E
100
AcDbEntity
  8
STEMPEL
100
AcDbLine
 10
126.4203641732629
 20
240.0477654710528
 30
0.0
 11
126.4203641732629
 21
247.2477654710529
 31
0.0
  0
LINE
  5
506
330
1E
100
AcDbEntity
  8
STEMPEL
100
AcDbLine
 10
129.920364173263
 20
240.0477654710528
 30
0.0
 11
123.8222879619096
 21
240.0477654710528
 31
0.0
  0
LINE
  5
507
330
1E
100
AcDbEntity
  8
STEMPEL
100
AcDbLine
 10
129.9203641732629
 20
247.2477654710529
 30
0.0
 11
123.8222879619096
 21
247.2477654710529
 31
0.0
  0
LINE
  5
508
330
1E
100
AcDbEntity
  8
STEMPEL
100
AcDbLine
 10
134.31427993161
 20
235.0477654710529
 30
0.0
 11
127.3222879619096
 21
240.0477654710528
 31
0.0
  0
LINE
  5
509
330
1E
100
AcDbEntity
  8
STEMPEL
100
AcDbLine
 10
127.3222879619095
 20
247.2477654710529
 30
0.0
 11
134.31427993161
 21
252.2477654710528
 31
0.0
  0
LINE
  5
50A
330
1E
100
AcDbEntity
  8
STEMPEL
100
AcDbLine
 10
129.9203641732629
 20
247.2477654710529
 30
0.0
 11
136.9123561429633
 21
252.2477654710529
 31
0.0
  0
LINE
  5
50B
330
1E
100
AcDbEntity
  8
STEMPEL
100
AcDbLine
 10
140.4123561429633
 20
235.0477654710529
 30
0.0
 11
134.31427993161
 21
235.0477654710529
 31
0.0
  0
LINE
  5
50C
330
1E
100
AcDbEntity
  8
STEMPEL
100
AcDbLine
 10
140.4123561429634
 20
235.0477654710529
 30
0.0
 11
134.3142799316101
 21
235.0477654710529
 31
0.0
  0
LINE
  5
50D
330
1E
100
AcDbEntity
  8
STEMPEL
100
AcDbLine
 10
129.920364173263
 20
240.0477654710528
 30
0.0
 11
136.9123561429634
 21
235.0477654710529
 31
0.0
  0
LINE
  5
50E
330
1E
100
AcDbEntity
  8
STEMPEL
100
AcDbLine
 10
140.4123561429633
 20
252.2477654710529
 30
0.0
 11
134.31427993161
 21
252.2477654710528
 31
0.0
  0
LINE
  5
510
330
1E
100
AcDbEntity
  8
MITTEL
100
AcDbLine
 10
102.9025354831022
 20
251.7477654710529
 30
0.0
 11
102.9025354831022
 21
245.7477654710529
 31
0.0
  0
LINE
  5
511
330
1E
100
AcDbEntity
  8
MITTEL
100
AcDbLine
 10
120.8222879619096
 20
243.6477654710528
 30
0.0
 11
142.1620605725281
 21
243.6477654710528
 31
0.0
  0
LINE
  5
519
330
1E
100
AcDbEntity
  8
MITTEL
100
AcDbLine
 10
114.4963260675862
 20
265.2477654710527
 30
0.0
 11
114.4963260675861
 21
155.2477654710539
 31
0.0
  0
LINE
  5
51A
330
1E
100
AcDbEntity
  8
MITTEL
100
AcDbLine
 10
78.84011665207026
 20
251.7477654710529
 30
0.0
 11
78.84011665207026
 21
245.7477654710529
 31
0.0
  0
LINE
  5
51C
102
{ACAD_REACTORS
330
D4F
102
}
330
1E
100
AcDbEntity
  8
STEMPEL
100
AcDbLine
 10
67.49632606758621
 20
252.2477654710529
 30
0.0
 11
67.49632606758621
 21
245.2477654710529
 31
0.0
  0
LINE
  5
51D
102
{ACAD_REACTORS
330
D4F
102
}
330
1E
100
AcDbEntity
  8
STEMPEL
100
AcDbLine
 10
65.49632606758621
 20
260.2477654710529
 30
0.0
 11
65.49632606758621
 21
233.2742091376673
 31
0.0
  0
LINE
  5
51E
102
{ACAD_REACTORS
330
D4F
102
}
330
1E
100
AcDbEntity
  8
STEMPEL
100
AcDbLine
 10
63.49632606758621
 20
260.2477654710529
 30
0.0
 11
63.49632606758621
 21
252.2477654710529
 31
0.0
  0
LINE
  5
51F
102
{ACAD_REACTORS
330
D4F
102
}
330
1E
100
AcDbEntity
  8
STEMPEL
100
AcDbLine
 10
63.49632606758621
 20
245.2477654710529
 30
0.0
 11
63.49632606758621
 21
233.2742091376673
 31
0.0
  0
LINE
  5
520
102
{ACAD_REACTORS
330
D4F
102
}
330
1E
100
AcDbEntity
  8
STEMPEL
  6
Continuous
100
AcDbLine
 10
67.49632606758621
 20
245.2477654710529
 30
0.0
 11
63.49632606758621
 21
245.2477654710529
 31
0.0
  0
LINE
  5
521
102
{ACAD_REACTORS
330
D4F
102
}
330
1E
100
AcDbEntity
  8
STEMPEL
  6
Continuous
100
AcDbLine
 10
67.49632606758621
 20
252.2477654710529
 30
0.0
 11
63.49632606758621
 21
252.2477654710529
 31
0.0
  0
LINE
  5
52D
330
1E
100
AcDbEntity
  8
HILF
  6
Continuous
100
AcDbLine
 10
147.7902143275168
 20
167.2477654710528
 30
0.0
 11
81.20243780765555
 21
167.2477654710528
 31
0.0
  0
LINE
  5
52E
330
1E
100
AcDbEntity
  8
STEMPEL
  6
Continuous
100
AcDbLine
 10
102.9025354831022
 20
245.2477654710529
 30
0.0
 11
78.84011665207026
 21
245.2477654710529
 31
0.0
  0
LINE
  5
52F
330
1E
100
AcDbEntity
  8
STEMPEL
  6
Continuous
100
AcDbLine
 10
102.9025354831022
 20
252.2477654710529
 30
0.0
 11
78.84011665207026
 21
252.2477654710529
 31
0.0
  0
TEXT
  5
534
330
1E
100
AcDbEntity
  8
VOLL
100
AcDbText
 10
109.6224948133049
 20
187.6426780814334
 30
0.0
 40
3.5
  1
DN70
 50
90.0
 41
0.8
  7
GREEKS
100
AcDbText
  0
DIMENSION
  5
536
330
1E
100
AcDbEntity
  8
BEM
100
AcDbDimension
  2
*D3
 10
55.88766815115144
 20
230.2477654710529
 30
0.0
 11
52.63766815115141
 21
245.2477654710529
 31
0.0
 70
    32
 71
     5
 42
30.00000000000003
  3
Standard
100
AcDbAlignedDimension
 13
63.49632606758621
 23
260.2477654710529
 33
0.0
 14
64.91602454593878
 24
230.2477654710529
 34
0.0
 50
90.0
100
AcDbRotatedDimension
1001
ACAD
1000
DSTYLE
1002
{
1070
    41
1040
3.5
1070
    42
1040
1.0
1070
    43
1040
7.0
1070
    44
1040
1.0
1070
    73
1070
     0
1070
    74
1070
     0
1070
    77
1070
     1
1070
    78
1070
     8
1070
    79
1070
     2
1070
   140
1040
3.5
1070
   141
1040
1.5
1070
   146
1040
0.5142857142857144
1070
   147
1040
1.5
1070
   172
1070
     1
1070
   178
1070
     1
1070
   179
1070
     2
1070
   271
1070
     2
1070
   272
1070
     2
1070
   284
1070
     8
1070
   285
1070
     8
1070
   286
1070
     8
1002
}
  0
ARC
  5
538
330
1E
100
AcDbEntity
  8
SCHRAFF
100
AcDbCircle
 10
140.4123561429631
 20
118.7890002934872
 30
0.0
 40
1.487571865617525
100
AcDbArc
 50
239.9999999999998
 51
328.1698677259339
  0
INSERT
  5
539
330
1E
100
AcDbEntity
  8
BEM
100
AcDbBlockReference
  2
*X1
 10
-13.74768808112816
 20
-15.2253278276923
 30
0.0
1001
ACAD
1000
HATCH
1002
{
1070
    16
1000
_U,I
1040
0.1
1040
0.7853981633974483
1070
     0
1002
}
  0
LINE
  5
53B
330
1E
100
AcDbEntity
  8
STEMPEL
100
AcDbLine
 10
129.9203641732627
 20
100.6163371293615
 30
0.0
 11
127.3222879619095
 21
102.1163371293615
 31
0.0
  0
LINE
  5
53D
330
1E
100
AcDbEntity
  8
STEMPEL
100
AcDbLine
 10
126.4203641732627
 20
94.55415930287044
 30
0.0
 11
123.8222879619095
 21
96.05415930287044
 31
0.0
  0
LINE
  5
542
330
1E
100
AcDbEntity
  8
BEM
100
AcDbLine
 10
114.4963260675861
 20
76.9011194724511
 30
0.0
 11
123.6213260675861
 21
92.70608309151713
 31
0.0
  0
LINE
  5
543
330
1E
100
AcDbEntity
  8
MITTEL
100
AcDbLine
 10
114.496326067586
 20
76.9011194724511
 30
0.0
 11
114.4963260675861
 21
133.1511194724511
 31
0.0
  0
LINE
  5
544
330
1E
100
AcDbEntity
  8
STEMPEL
100
AcDbLine
 10
137.8142799316098
 20
120.2890002934872
 30
0.0
 11
123.8222879619095
 21
96.05415930287044
 31
0.0
  0
LINE
  5
545
330
1E
100
AcDbEntity
  8
STEMPEL
100
AcDbLine
 10
140.4123561429631
 20
118.7890002934872
 30
0.0
 11
126.4203641732627
 21
94.55415930287044
 31
0.0
  0
LINE
  5
546
330
1E
100
AcDbEntity
  8
MITTEL
100
AcDbLine
 10
140.6213260675861
 20
122.150946820188
 30
0.0
 11
123.6213260675861
 21
92.70608309151713
 31
0.0
  0
LINE
  5
547
330
1E
100
AcDbEntity
  8
STEMPEL
100
AcDbLine
 10
134.3142799316099
 20
114.2268224669961
 30
0.0
 11
136.9123561429632
 21
112.7268224669961
 31
0.0
  0
LINE
  5
548
330
1E
100
AcDbEntity
  8
STEMPEL
100
AcDbLine
 10
67.24632606758612
 20
76.9011194724511
 30
0.0
 11
67.24632606758612
 21
90.79356346190087
 31
0.0
  0
LINE
  5
549
330
1E
100
AcDbEntity
  8
VERDECKT
100
AcDbLine
 10
65.24632606758612
 20
76.9011194724511
 30
0.0
 11
65.24632606758612
 21
90.79356346190087
 31
0.0
  0
LINE
  5
54B
330
1E
100
AcDbEntity
  8
STEMPEL
100
AcDbLine
 10
78.84011665207018
 20
110.8745978065409
 30
0.0
 11
102.9025354831021
 21
124.7670417959907
 31
0.0
  0
LINE
  5
54F
330
1E
100
AcDbEntity
  8
BEM
100
AcDbLine
 10
114.4963260675861
 20
76.9011194724511
 30
0.0
 11
90.87132606758613
 21
117.8208198012658
 31
0.0
  0
LINE
  5
550
330
1E
100
AcDbEntity
  8
VERDECKT
100
AcDbLine
 10
77.84011665207017
 20
112.6066486141097
 30
0.0
 11
101.9025354831021
 21
126.4990926035596
 31
0.0
  0
LINE
  5
561
102
{ACAD_REACTORS
330
D71
102
}
330
1E
100
AcDbEntity
  8
STEMPEL
  6
Continuous
100
AcDbLine
 10
150.390017162974
 20
160.2477654710528
 30
0.0
 11
78.60263497219836
 21
160.2477654710528
 31
0.0
  0
LINE
  5
562
102
{ACAD_REACTORS
330
D4F
102
}
330
1E
100
AcDbEntity
  8
STEMPEL
  6
Continuous
100
AcDbLine
 10
165.4963260675862
 20
260.2477654710529
 30
0.0
 11
63.49632606758621
 21
260.2477654710529
 31
0.0
  0
DIMENSION
  5
566
330
1E
100
AcDbEntity
  8
BEM
100
AcDbDimension
  2
*D4
 10
163.4963260675861
 20
273.9071128479902
 30
0.0
 11
114.4963260675861
 21
277.1571128479902
 31
0.0
 70
    32
  1
%%C<>
 71
     5
 42
97.99999999999995
  3
Standard
100
AcDbAlignedDimension
 13
65.49632606758621
 23
260.2477654710529
 33
0.0
 14
163.4963260675861
 24
260.2477654710529
 34
0.0
100
AcDbRotatedDimension
1001
ACAD
1000
DSTYLE
1002
{
1070
    41
1040
3.5
1070
    42
1040
1.0
1070
    43
1040
7.0
1070
    44
1040
1.0
1070
    73
1070
     0
1070
    74
1070
     0
1070
    77
1070
     1
1070
    78
1070
     8
1070
    79
1070
     2
1070
   140
1040
3.5
1070
   141
1040
1.5
1070
   146
1040
0.5
1070
   147
1040
1.5
1070
   172
1070
     1
1070
   178
1070
     1
1070
   179
1070
     2
1070
   271
1070
     2
1070
   272
1070
     2
1070
   284
1070
     8
1070
   285
1070
     8
1070
   286
1070
     8
1002
}
  0
LINE
  5
568
330
1E
100
AcDbEntity
  8
MITTEL
100
AcDbLine
 10
58.24632606758612
 20
76.9011194724511
 30
0.0
 11
170.7463260675861
 21
76.90111947245111
 31
0.0
  0
ARC
  5
569
330
1E
100
AcDbEntity
  8
STEMPEL
100
AcDbCircle
 10
114.4963260675861
 20
76.9011194724511
 30
0.0
 40
49.25
100
AcDbArc
 50
0.0
 51
180.0
  0
ARC
  5
56A
330
1E
100
AcDbEntity
  8
STEMPEL
100
AcDbCircle
 10
114.4963260675861
 20
76.9011194724511
 30
0.0
 40
51.25
100
AcDbArc
 50
0.0
 51
180.0
  0
DIMENSION
  5
56E
330
1E
100
AcDbEntity
  8
BEM
100
AcDbDimension
  2
*D5
 10
150.7654794233763
 20
260.2477654710529
 30
0.0
 11
150.7654794233763
 21
256.247765471053
 31
0.0
 70
   160
  1
<>
 71
     5
 42
8.000000000000028
  3
Standard
100
AcDbAlignedDimension
 13
140.4123561429633
 23
252.2477654710529
 33
0.0
 14
149.9876147639468
 24
260.2477654710529
 34
0.0
 50
90.0
100
AcDbRotatedDimension
1001
ACAD
1000
DSTYLE
1002
{
1070
    41
1040
3.5
1070
    42
1040
1.0
1070
    43
1040
7.0
1070
    44
1040
1.0
1070
    73
1070
     0
1070
    74
1070
     0
1070
    77
1070
     1
1070
    78
1070
     8
1070
    79
1070
     2
1070
   140
1040
3.5
1070
   141
1040
1.5
1070
   146
1040
0.5
1070
   147
1040
1.5
1070
   172
1070
     1
1070
   178
1070
     1
1070
   179
1070
     2
1070
   271
1070
     2
1070
   272
1070
     2
1070
   284
1070
     8
1070
   285
1070
     8
1070
   286
1070
     8
1002
}
  0
DIMENSION
  5
575
330
1E
100
AcDbEntity
  8
BEM
100
AcDbDimension
  2
*D6
 10
165.4963260675862
 20
281.4601251441231
 30
0.0
 11
114.4963260675862
 21
284.7101251441231
 31
0.0
 70
    32
  1
%%c<>
 71
     5
 42
102.0
  3
Standard
100
AcDbAlignedDimension
 13
63.49632606758621
 23
260.2477654710529
 33
0.0
 14
165.4963260675862
 24
260.2477654710529
 34
0.0
100
AcDbRotatedDimension
1001
ACAD
1000
DSTYLE
1002
{
1070
    41
1040
3.5
1070
    42
1040
1.0
1070
    43
1040
7.0
1070
    44
1040
1.0
1070
    73
1070
     0
1070
    74
1070
     0
1070
    77
1070
     1
1070
    78
1070
     8
1070
    79
1070
     2
1070
   140
1040
3.5
1070
   141
1040
1.5
1070
   146
1040
0.5142857142857144
1070
   147
1040
1.5
1070
   172
1070
     1
1070
   178
1070
     1
1070
   179
1070
     2
1070
   271
1070
     2
1070
   272
1070
     2
1070
   284
1070
     8
1070
   285
1070
     8
1070
   286
1070
     8
1002
}
  0
TEXT
  5
769
330
1E
100
AcDbEntity
  8
VOLL
100
AcDbText
 10
138.9403919256213
 20
136.4544081534094
 30
0.0
 40
3.5
  1
Rohrende leicht eingezogen
 41
0.8
  7
GREEKS
100
AcDbText
  0
LINE
  5
8E7
102
{ACAD_REACTORS
330
D71
102
}
330
1E
100
AcDbEntity
  8
STEMPEL
100
AcDbLine
 10
150.9963260675862
 20
207.724597833566
 30
0.0
 11
150.9963260675862
 21
167.1779079623996
 31
0.0
  0
LINE
  5
8E9
102
{ACAD_REACTORS
330
D71
102
}
330
1E
100
AcDbEntity
  8
STEMPEL
100
AcDbLine
 10
149.3963260675862
 20
207.724597833566
 30
0.0
 11
149.3963260675862
 21
167.2477654710534
 31
0.0
  0
LINE
  5
8EA
102
{ACAD_REACTORS
330
D71
102
}
330
1E
100
AcDbEntity
  8
STEMPEL
100
AcDbLine
 10
79.59632606758622
 20
167.2477654710528
 30
0.0
 11
80.20874671226769
 21
160.2477654710528
 31
0.0
  0
LINE
  5
8EB
102
{ACAD_REACTORS
330
D71
102
}
330
1E
100
AcDbEntity
  8
STEMPEL
100
AcDbLine
 10
77.99632606758621
 20
167.1779079623995
 30
0.0
 11
78.60263497219836
 21
160.2477654710528
 31
0.0
  0
LINE
  5
8EE
102
{ACAD_REACTORS
330
D71
102
}
330
1E
100
AcDbEntity
  8
STEMPEL
100
AcDbLine
 10
150.9963260675862
 20
167.1779079623996
 30
0.0
 11
150.390017162974
 21
160.2477654710528
 31
0.0
  0
LINE
  5
8EF
102
{ACAD_REACTORS
330
D71
102
}
330
1E
100
AcDbEntity
  8
STEMPEL
100
AcDbLine
 10
149.3963260675862
 20
167.2477654710534
 30
0.0
 11
148.7839054229047
 21
160.2477654710528
 31
0.0
  0
LINE
  5
8F9
102
{ACAD_REACTORS
330
D4F
330
D71
102
}
330
1E
100
AcDbEntity
  8
STEMPEL
100
AcDbLine
 10
154.4963260675862
 20
215.2463756801188
 30
0.0
 11
74.49632606758612
 21
215.2463756801189
 31
0.0
  0
DIMENSION
  5
91C
330
1E
100
AcDbEntity
  8
BEM
100
AcDbDimension
  2
*D7
 10
47.23671102555431
 20
160.2477654710529
 30
0.0
 11
43.98671102555429
 21
210.2477654710529
 31
0.0
 70
    32
 71
     5
 42
100.0
  3
Standard
100
AcDbAlignedDimension
 13
63.49632606758621
 23
260.2477654710529
 33
0.0
 14
78.60263497219836
 24
160.2477654710528
 34
0.0
 50
90.0
100
AcDbRotatedDimension
1001
ACAD
1000
DSTYLE
1002
{
1070
    41
1040
3.5
1070
    42
1040
1.0
1070
    43
1040
7.0
1070
    44
1040
1.0
1070
    73
1070
     0
1070
    74
1070
     0
1070
    77
1070
     1
1070
    78
1070
     8
1070
    79
1070
     2
1070
   140
1040
3.5
1070
   141
1040
1.5
1070
   146
1040
0.5
1070
   147
1040
1.5
1070
   172
1070
     1
1070
   178
1070
     1
1070
   179
1070
     2
1070
   271
1070
     2
1070
   272
1070
     2
1070
   284
1070
     8
1070
   285
1070
     8
1070
   286
1070
     8
1002
}
  0
DIMENSION
  5
95F
330
1E
100
AcDbEntity
  8
BEM
100
AcDbDimension
  2
*D8
 10
150.9963260675862
 20
147.8915544686514
 30
0.0
 11
114.4963260675862
 21
151.1415544686514
 31
0.0
 70
    32
  1
%%c<>
 71
     5
 42
73.0
  3
Standard
100
AcDbAlignedDimension
 13
77.99632606758621
 23
167.1779079623995
 33
0.0
 14
150.9963260675862
 24
167.1779079623996
 34
0.0
100
AcDbRotatedDimension
1001
ACAD
1000
DSTYLE
1002
{
1070
    41
1040
3.5
1070
    42
1040
1.0
1070
    43
1040
7.0
1070
    44
1040
1.0
1070
    73
1070
     0
1070
    74
1070
     0
1070
    77
1070
     1
1070
    78
1070
     8
1070
    79
1070
     2
1070
   140
1040
3.5
1070
   141
1040
1.5
1070
   146
1040
0.5
1070
   147
1040
1.5
1070
   172
1070
     1
1070
   178
1070
     1
1070
   179
1070
     2
1070
   271
1070
     2
1070
   272
1070
     2
1070
   284
1070
     8
1070
   285
1070
     8
1070
   286
1070
     8
1002
}
  0
ARC
  5
9A5
330
1E
100
AcDbEntity
  8
STEMPEL
100
AcDbCircle
 10
114.496326067586
 20
76.90111947245118
 30
0.0
 40
34.90000000000009
100
AcDbArc
 50
359.9999999999999
 51
57.53667187502461
  0
ARC
  5
9A6
330
1E
100
AcDbEntity
  8
VERDECKT
100
AcDbCircle
 10
114.496326067586
 20
76.90111947245118
 30
0.0
 40
36.50000000000009
100
AcDbArc
 50
359.9999999999999
 51
180.0000000000001
  0
ARC
  5
9A9
330
1E
100
AcDbEntity
  8
STEMPEL
100
AcDbCircle
 10
114.4963260675861
 20
76.90111947245111
 30
0.0
 40
34.28757935531847
100
AcDbArc
 50
0.0
 51
57.49264577826804
  0
DIMENSION
  5
9AA
330
1E
100
AcDbEntity
  8
BEM
100
AcDbDimension
  2
*D9
 10
90.87132606758613
 20
117.8208198012658
 30
0.0
 11
98.11758217071085
 21
86.35739167029994
 31
0.0
 70
    34
 71
     5
 42
1.047197551196598
  3
Standard
100
AcDb2LineAngularDimension
 13
58.24632606758612
 23
76.9011194724511
 33
0.0
 14
170.7463260675861
 24
76.90111947245111
 34
0.0
 15
114.4963260675861
 25
76.9011194724511
 35
0.0
 16
102.4981209681575
 26
86.96880894617093
 36
0.0
1001
ACAD
1000
DSTYLE
1002
{
1070
    41
1040
3.5
1070
    42
1040
1.0
1070
    43
1040
7.0
1070
    44
1040
1.0
1070
    73
1070
     0
1070
    74
1070
     0
1070
    77
1070
     1
1070
    78
1070
     8
1070
    79
1070
     2
1070
   140
1040
3.5
1070
   141
1040
1.5
1070
   146
1040
0.5
1070
   147
1040
1.5
1070
   172
1070
     1
1070
   178
1070
     1
1070
   179
1070
     2
1070
   271
1070
     2
1070
   272
1070
     2
1070
   284
1070
     8
1070
   285
1070
     8
1070
   286
1070
     8
1002
}
  0
DIMENSION
  5
9B7
330
1E
100
AcDbEntity
  8
BEM
100
AcDbDimension
  2
*D10
 10
123.6213260675861
 20
92.70608309151713
 30
0.0
 11
130.9814969162457
 21
86.41883729956171
 31
0.0
 70
    34
 71
     5
 42
1.047197551196597
  3
Standard
100
AcDb2LineAngularDimension
 13
58.24632606758612
 23
76.9011194724511
 33
0.0
 14
170.7463260675861
 24
76.90111947245111
 34
0.0
 15
114.4963260675861
 25
76.9011194724511
 35
0.0
 16
129.3297834677485
 26
82.30005643736594
 36
0.0
1001
ACAD
1000
DSTYLE
1002
{
1070
    41
1040
3.5
1070
    42
1040
1.0
1070
    43
1040
7.0
1070
    44
1040
1.0
1070
    73
1070
     0
1070
    74
1070
     0
1070
    77
1070
     1
1070
    78
1070
     8
1070
    79
1070
     2
1070
   140
1040
3.5
1070
   141
1040
1.5
1070
   146
1040
0.5
1070
   147
1040
1.5
1070
   172
1070
     1
1070
   178
1070
     1
1070
   179
1070
     2
1070
   271
1070
     2
1070
   272
1070
     2
1070
   284
1070
     8
1070
   285
1070
     8
1070
   286
1070
     8
1002
}
  0
TEXT
  5
BAE
330
1E
100
AcDbEntity
  8
TEXT
 62
     1
100
AcDbText
 10
137.3028829473233
 20
61.56345987223938
 30
0.0
 40
3.5
  1
innen und außen beschichtet
 41
0.8
  7
GREEKS
100
AcDbText
  0
TEXT
  5
BAF
330
1E
100
AcDbEntity
  8
TEXT
 62
     1
100
AcDbText
 10
113.3280242286244
 20
66.92451577974111
 30
0.0
 40
3.5
  1
Werkstoff: E195 EN10305 feuerverzinkt
 41
0.8
  7
GREEKS
100
AcDbText
  0
LINE
  5
CFE
330
1E
100
AcDbEntity
  8
HILF
100
AcDbLine
 10
148.0839186112714
 20
210.2463756801188
 30
0.0
 11
80.90873352390092
 21
210.2463756801188
 31
0.0
  0
LINE
  5
CFF
102
{ACAD_REACTORS
330
D71
330
D7C
102
}
330
1E
100
AcDbEntity
  8
STEMPEL
100
AcDbLine
 10
154.4963260675862
 20
215.2463756801188
 30
0.0
 11
152.4424707034338
 21
212.3122965884725
 31
0.0
  0
LINE
  5
D00
102
{ACAD_REACTORS
330
D71
102
}
330
1E
100
AcDbEntity
  8
STEMPEL
100
AcDbLine
 10
152.5432771690687
 20
215.2463756801188
 30
0.0
 11
151.1316996306033
 21
213.2298363394539
 31
0.0
  0
ARC
  5
D01
102
{ACAD_REACTORS
330
D71
330
D7C
102
}
330
1E
100
AcDbEntity
  8
STEMPEL
100
AcDbCircle
 10
158.9963260675862
 20
207.724597833566
 30
0.0
 40
8.0
100
AcDbArc
 50
145.007979801442
 51
179.9999999999999
  0
ARC
  5
D02
102
{ACAD_REACTORS
330
D71
102
}
330
1E
100
AcDbEntity
  8
STEMPEL
100
AcDbCircle
 10
158.9963260675862
 20
207.724597833566
 30
0.0
 40
9.599999999999999
100
AcDbArc
 50
145.007979801442
 51
179.9999999999999
  0
ARC
  5
D05
102
{ACAD_REACTORS
330
D71
102
}
330
1E
100
AcDbEntity
  8
STEMPEL
100
AcDbCircle
 10
69.99632606758604
 20
207.7245978335661
 30
0.0
 40
9.599999999999999
100
AcDbArc
 50
359.9999999999998
 51
34.99202019855782
  0
ARC
  5
D06
102
{ACAD_REACTORS
330
D71
330
F1B
102
}
330
1E
100
AcDbEntity
  8
STEMPEL
100
AcDbCircle
 10
69.99632606758604
 20
207.7245978335661
 30
0.0
 40
8.0
100
AcDbArc
 50
359.9999999999998
 51
34.99202019855782
  0
LINE
  5
D07
102
{ACAD_REACTORS
330
D71
102
}
330
1E
100
AcDbEntity
  8
STEMPEL
100
AcDbLine
 10
79.59632606758603
 20
207.7245978335661
 30
0.0
 11
79.59632606758592
 21
167.2477654710535
 31
0.0
  0
LINE
  5
D08
102
{ACAD_REACTORS
330
D71
102
}
330
1E
100
AcDbEntity
  8
STEMPEL
100
AcDbLine
 10
77.99632606758604
 20
207.7245978335661
 30
0.0
 11
77.99632606758596
 21
167.1779079623997
 31
0.0
  0
LINE
  5
D09
102
{ACAD_REACTORS
330
D71
102
}
330
1E
100
AcDbEntity
  8
STEMPEL
100
AcDbLine
 10
76.44937496610353
 20
215.2463756801189
 30
0.0
 11
77.86095250456895
 21
213.229836339454
 31
0.0
  0
LINE
  5
D0A
102
{ACAD_REACTORS
330
D71
330
F1B
102
}
330
1E
100
AcDbEntity
  8
STEMPEL
100
AcDbLine
 10
74.49632606758612
 20
215.2463756801189
 30
0.0
 11
76.55018143173845
 21
212.3122965884727
 31
0.0
  0
LINE
  5
D14
102
{ACAD_REACTORS
330
D4F
330
D7C
102
}
330
1E
100
AcDbEntity
  8
STEMPEL
100
AcDbLine
 10
154.4963260675862
 20
215.2463756801188
 30
0.0
 11
164.5876700276778
 21
229.5711238240845
 31
0.0
  0
LINE
  5
D17
102
{ACAD_REACTORS
330
D4F
102
}
330
1E
100
AcDbEntity
  8
STEMPEL
100
AcDbLine
 10
152.240054183153
 20
215.2463756801188
 30
0.0
 11
162.8148340376549
 21
230.4968951524801
 31
0.0
  0
ARC
  5
D18
102
{ACAD_REACTORS
330
D4F
102
}
330
1E
100
AcDbEntity
  8
STEMPEL
100
AcDbCircle
 10
157.4963260675862
 20
233.2742091376672
 30
0.0
 40
8.0
100
AcDbArc
 50
332.4265285290314
 51
0.0
  0
ARC
  5
D19
102
{ACAD_REACTORS
330
D4F
102
}
330
1E
100
AcDbEntity
  8
STEMPEL
100
AcDbCircle
 10
157.4963260675862
 20
233.2742091376672
 30
0.0
 40
6.0
100
AcDbArc
 50
332.4265285290314
 51
0.0
  0
ARC
  5
D1C
102
{ACAD_REACTORS
330
D4F
102
}
330
1E
100
AcDbEntity
  8
STEMPEL
100
AcDbCircle
 10
71.49632606758624
 20
233.2742091376673
 30
0.0
 40
6.0
100
AcDbArc
 50
179.9999999999997
 51
207.5734714709684
  0
ARC
  5
D1D
102
{ACAD_REACTORS
330
D4F
102
}
330
1E
100
AcDbEntity
  8
STEMPEL
100
AcDbCircle
 10
71.49632606758624
 20
233.2742091376673
 30
0.0
 40
8.0
100
AcDbArc
 50
179.9999999999997
 51
207.5734714709684
  0
LINE
  5
D1E
102
{ACAD_REACTORS
330
D4F
102
}
330
1E
100
AcDbEntity
  8
STEMPEL
100
AcDbLine
 10
76.75259795201933
 20
215.246375680119
 30
0.0
 11
66.17781809751747
 21
230.4968951524803
 31
0.0
  0
LINE
  5
D1F
102
{ACAD_REACTORS
330
D4F
330
F1B
102
}
330
1E
100
AcDbEntity
  8
STEMPEL
100
AcDbLine
 10
74.49632606758612
 20
215.246375680119
 30
0.0
 11
64.40498210749456
 21
229.5711238240847
 31
0.0
  0
HATCH
  5
D4F
330
1E
100
AcDbEntity
  8
SCHRAFF
100
AcDbHatch
 10
0.0
 20
0.0
 30
0.0
210
0.0
220
0.0
230
1.0
  2
_USER
 70
     0
 71
     1
 91
        6
 92
        7
 72
     0
 73
     1
 93
        4
 10
163.4963260675862
 20
252.2477654710529
 10
165.4963260675862
 20
252.2477654710529
 10
165.4963260675862
 20
260.2477654710529
 10
163.4963260675862
 20
260.247765471053
 97
        4
330
562
330
4CF
330
4CA
330
4C9
 92
        7
 72
     0
 73
     1
 93
        4
 10
161.4963260675862
 20
245.2477654710529
 10
163.4963260675862
 20
245.2477654710529
 10
163.4963260675862
 20
252.2477654710529
 10
161.4963260675862
 20
252.2477654710529
 97
        4
330
4CA
330
4CE
330
4CC
330
4CF
 92
        7
 72
     1
 73
     1
 93
        8
 10
165.4963260675862
 20
245.2477654710529
 42
0.0
 10
163.4963260675862
 20
245.2477654710529
 42
0.0
 10
163.4963260675862
 20
233.2742091376672
 42
-0.1208958507598996
 10
162.8148340376549
 20
230.4968951524801
 42
0.0
 10
152.2400541831529
 20
215.2463756801188
 42
0.0
 10
154.4963260675862
 20
215.2463756801188
 42
0.0
 10
164.5876700276778
 20
229.5711238240845
 42
0.1208958507598993
 10
165.4963260675861
 20
233.2742091376672
 42
0.0
 97
        8
330
4CC
330
4CF
330
D19
330
D17
330
8F9
330
D14
330
D18
330
4CB
 92
        7
 72
     0
 73
     1
 93
        4
 10
65.49632606758621
 20
260.2477654710529
 10
63.49632606758621
 20
260.2477654710529
 10
63.49632606758621
 20
252.2477654710529
 10
65.49632606758621
 20
252.2477654710529
 97
        4
330
562
330
51E
330
521
330
51D
 92
        7
 72
     0
 73
     1
 93
        4
 10
67.49632606758621
 20
252.2477654710529
 10
65.49632606758621
 20
252.2477654710529
 10
65.49632606758622
 20
245.2477654710529
 10
67.49632606758621
 20
245.2477654710529
 97
        4
330
521
330
51D
330
520
330
51C
 92
        7
 72
     1
 73
     1
 93
        8
 10
63.49632606758621
 20
233.2742091376673
 42
0.1208958507598985
 10
64.40498210749456
 20
229.5711238240847
 42
0.0
 10
74.49632606758616
 20
215.2463756801189
 42
0.0
 10
76.75259795201933
 20
215.246375680119
 42
0.0
 10
66.17781809751747
 20
230.4968951524803
 42
-0.1208958507598983
 10
65.49632606758621
 20
233.2742091376673
 42
0.0
 10
65.49632606758621
 20
245.2477654710529
 42
0.0
 10
63.49632606758621
 20
245.2477654710529
 42
0.0
 97
        8
330
520
330
51F
330
D1D
330
D1F
330
8F9
330
D1E
330
D1C
330
51D
 75
     0
 76
     0
 52
45.0
 41
2.0
 77
     0
 78
     1
 53
45.0
 43
0.0
 44
0.0
 45
-1.414213562373094
 46
1.414213562373095
 79
     0
 47
0.2651706708448672
 98
        6
 10
164.3424515058034
 20
254.7480016336834
 10
162.2194987782398
 20
249.7097588474476
 10
164.6078211048966
 20
238.8377612929253
 10
65.09437592186054
 20
256.6041964917165
 10
66.68659080629868
 20
248.3839050775336
 10
64.29826847964159
 20
239.8984441689076
  0
HATCH
  5
D71
330
1E
100
AcDbEntity
  8
SCHRAFF
100
AcDbHatch
 10
0.0
 20
0.0
 30
0.0
210
0.0
220
0.0
230
1.0
  2
_USER
 70
     0
 71
     1
 91
        2
 92
        7
 72
     1
 73
     1
 93
       10
 10
150.9963260675862
 20
207.724597833566
 42
-0.1538790779584966
 10
152.4424707034338
 20
212.3122965884725
 42
0.0
 10
154.4963260675861
 20
215.2463756801188
 42
0.0
 10
152.5432771690688
 20
215.2463756801189
 42
0.0
 10
151.1316996306033
 20
213.2298363394539
 42
0.1538790779584948
 10
149.3963260675862
 20
207.7245978335661
 42
0.0
 10
149.3963260675862
 20
167.2477654710534
 42
0.0
 10
148.7839054229047
 20
160.2477654710528
 42
0.0
 10
150.390017162974
 20
160.2477654710528
 42
0.0
 10
150.9963260675862
 20
167.1779079623997
 42
0.0
 97
       10
330
D01
330
CFF
330
8F9
330
D00
330
D02
330
8E9
330
8EF
330
561
330
8EE
330
8E7
 92
        7
 72
     1
 73
     1
 93
       10
 10
79.59632606758603
 20
207.7245978335661
 42
0.153879077958497
 10
77.86095250456895
 20
213.229836339454
 42
0.0
 10
76.44937496610355
 20
215.2463756801189
 42
0.0
 10
74.49632606758616
 20
215.246375680119
 42
0.0
 10
76.55018143173845
 20
212.3122965884727
 42
-0.1538790779584956
 10
77.99632606758604
 20
207.7245978335661
 42
0.0
 10
77.99632606758597
 20
167.1779079624025
 42
0.0
 10
78.60263497219837
 20
160.2477654710529
 42
0.0
 10
80.20874671226769
 20
160.2477654710529
 42
0.0
 10
79.59632606758592
 20
167.2477654710563
 42
0.0
 97
       10
330
D05
330
D09
330
8F9
330
D0A
330
D06
330
D08
330
8EB
330
561
330
8EA
330
D07
 75
     0
 76
     0
 52
135.0
 41
2.0
 77
     0
 78
     1
 53
135.0
 43
0.0
 44
5.0
 45
-1.414213562373095
 46
-1.414213562373094
 79
     0
 47
0.2651706708448672
 98
        2
 10
150.2778844348342
 20
203.5318190030388
 10
78.89357339373669
 20
201.1452830568868
  0
ARC
  5
D74
102
{ACAD_REACTORS
330
D7C
102
}
330
1E
100
AcDbEntity
  8
SCHRAFF
100
AcDbCircle
 10
151.697246221628
 20
216.7938513653559
 30
0.0
 40
4.600970966371187
100
AcDbArc
 50
278.745654458846
 51
11.12338336639322
  0
HATCH
  5
D7C
330
1E
100
AcDbEntity
  8
SCHRAFF
100
AcDbHatch
 10
0.0
 20
0.0
 30
0.0
210
0.0
220
0.0
230
1.0
  2
_USER
 70
     0
 71
     1
 91
        1
 92
        7
 72
     1
 73
     1
 93
        4
 10
154.4963260675862
 20
215.2463756801188
 42
0.0
 10
152.4424707034338
 20
212.3122965884725
 42
0.0025058414825479
 10
152.3968166080562
 20
212.2463756801187
 42
0.4264212954019944
 10
156.2117833972838
 20
217.6814818757672
 42
0.0
 97
        4
330
D14
330
CFF
330
D01
330
D74
 75
     0
 76
     0
 52
0.0
 41
0.1
 77
     0
 78
     1
 53
0.0
 43
0.0
 44
5.0
 45
0.0
 46
0.1
 79
     0
 47
0.0588101285733695
 98
        1
 10
154.8813835415515
 20
215.0591291751339
  0
ARC
  5
D7E
102
{ACAD_REACTORS
330
F1B
102
}
330
1E
100
AcDbEntity
  8
SCHRAFF
100
AcDbCircle
 10
77.29540591354425
 20
216.793851365356
 30
0.0
 40
4.600970966371187
100
AcDbArc
 50
168.8766166336061
 51
261.2543455411539
  0
LINE
  5
DD3
330
1E
100
AcDbEntity
  8
HILF
100
AcDbLine
 10
160.9815138131262
 20
231.3111843343758
 30
0.0
 11
68.0111383220462
 21
231.3111843343758
 31
0.0
  0
ARC
  5
E3B
330
1E
100
AcDbEntity
  8
STEMPEL
100
AcDbCircle
 10
114.4963260675861
 20
76.90111947245111
 30
0.0
 40
38.04695110148262
100
AcDbArc
 50
0.0
 51
57.7405298852346
  0
ARC
  5
E3C
330
1E
100
AcDbEntity
  8
STEMPEL
100
AcDbCircle
 10
114.4963260675861
 20
76.90111947245111
 30
0.0
 40
38.04695110148262
100
AcDbArc
 50
62.25947011476544
 51
180.0
  0
ARC
  5
E3E
330
1E
100
AcDbEntity
  8
VERDECKT
100
AcDbCircle
 10
114.4963260675861
 20
76.90111947245111
 30
0.0
 40
38.04695110148262
100
AcDbArc
 50
57.7405298852346
 51
62.25947011476544
  0
ARC
  5
E3F
330
1E
100
AcDbEntity
  8
STEMPEL
100
AcDbCircle
 10
114.496326067586
 20
76.90111947245118
 30
0.0
 40
34.90000000000009
100
AcDbArc
 50
62.46332812497515
 51
180.0000000000001
  0
ARC
  5
E40
330
1E
100
AcDbEntity
  8
STEMPEL
100
AcDbCircle
 10
114.4963260675861
 20
76.90111947245111
 30
0.0
 40
34.28757935531847
100
AcDbArc
 50
62.507354221732
 51
180.0
  0
ARC
  5
E41
330
1E
100
AcDbEntity
  8
VERDECKT
100
AcDbCircle
 10
114.496326067586
 20
76.90111947245118
 30
0.0
 40
34.90000000000009
100
AcDbArc
 50
57.53667187502461
 51
62.46332812497515
  0
ARC
  5
E42
330
1E
100
AcDbEntity
  8
VERDECKT
100
AcDbCircle
 10
114.4963260675861
 20
76.90111947245111
 30
0.0
 40
34.28757935531847
100
AcDbArc
 50
57.49264577826804
 51
62.507354221732
  0
HATCH
  5
F1B
330
1E
100
AcDbEntity
  8
SCHRAFF
100
AcDbHatch
 10
0.0
 20
0.0
 30
0.0
210
0.0
220
0.0
230
1.0
  2
_USER
 70
     0
 71
     1
 91
        1
 92
        7
 72
     1
 73
     1
 93
        4
 10
76.59583552711605
 20
212.2463756801188
 42
0.0025058414825496
 10
76.55018143173845
 20
212.3122965884727
 42
0.0
 10
74.496326067576
 20
215.2463756801286
 42
0.0
 10
72.78086873788794
 20
217.6814818757643
 42
0.4264212954017991
 97
        4
330
D1F
330
D7E
330
D06
330
D0A
 75
     0
 76
     0
 52
0.0
 41
0.1
 77
     0
 78
     1
 53
0.0
 43
0.0
 44
0.0
 45
0.0
 46
0.1
 79
     0
 47
0.0382003242615935
 98
        1
 10
73.99181090730826
 20
214.4387411794208
  0
ENDSEC
  0
SECTION
  2
OBJECTS
  0
DICTIONARY
  5
C
330
0
100
AcDbDictionary
281
     1
  3
ACAD_COLOR
350
DF
  3
ACAD_GROUP
350
D
  3
ACAD_LAYOUT
350
19
  3
ACAD_MATERIAL
350
DE
  3
ACAD_MLINESTYLE
350
16
  3
ACAD_PLOTSETTINGS
350
18
  3
ACAD_PLOTSTYLENAME
350
E
  3
AcDbVariableDictionary
350
EA
  0
DICTIONARY
  5
A0
330
1E
100
AcDbDictionary
280
     1
281
     1
  3
ACAD_LAYOUTSELFREF
360
D4
  0
DICTIONARY
  5
A2
330
1A
100
AcDbDictionary
280
     1
281
     1
  3
ACAD_LAYOUTSELFREF
360
D3
  0
DICTIONARY
  5
DF
102
{ACAD_REACTORS
330
C
102
}
330
C
100
AcDbDictionary
281
     1
  0
DICTIONARY
  5
D
102
{ACAD_REACTORS
330
C
102
}
330
C
100
AcDbDictionary
281
     1
  0
DICTIONARY
  5
19
102
{ACAD_REACTORS
330
C
102
}
330
C
100
AcDbDictionary
281
     1
  3
Layout1
350
1D
  3
Model
350
21
  0
DICTIONARY
  5
DE
102
{ACAD_REACTORS
330
C
102
}
330
C
100
AcDbDictionary
281
     1
  0
DICTIONARY
  5
16
102
{ACAD_REACTORS
330
C
102
}
330
C
100
AcDbDictionary
281
     1
  3
Standard
350
17
  0
DICTIONARY
  5
18
102
{ACAD_REACTORS
330
C
102
}
330
C
100
AcDbDictionary
281
     1
  0
ACDBDICTIONARYWDFLT
  5
E
102
{ACAD_REACTORS
330
C
102
}
330
C
100
AcDbDictionary
281
     1
  3
Normal
350
F
100
AcDbDictionaryWithDefault
340
F
  0
DICTIONARY
  5
EA
102
{ACAD_REACTORS
330
C
102
}
330
C
100
AcDbDictionary
281
     1
  3
DIMASSOC
350
EB
  3
PROJECTNAME
350
EC
  0
XRECORD
  5
D4
102
{ACAD_REACTORS
330
A0
102
}
330
A0
100
AcDbXrecord
280
     1
340
1E
  0
XRECORD
  5
D3
102
{ACAD_REACTORS
330
A2
102
}
330
A2
100
AcDbXrecord
280
     1
340
1A
  0
LAYOUT
  5
1D
102
{ACAD_REACTORS
330
19
102
}
330
19
100
AcDbPlotSettings
  1

  2
\\NT_WORK01\HP LaserJet 5000 PCL 6
  4

  6

 40
0.0
 41
0.0
 42
0.0
 43
0.0
 44
0.0
 45
0.0
 46
0.0
 47
0.0
 48
0.0
 49
0.0
140
0.0
141
0.0
142
1.0
143
1.0
 70
   688
 72
     0
 73
     0
 74
     5
  7
monochrome1.ctb
 75
    16
147
1.0
 76
     0
 77
     2
 78
   300
148
0.0
149
0.0
100
AcDbLayout
  1
Layout1
 70
     0
 71
     1
 10
0.0
 20
0.0
 11
12.0
 21
9.0
 12
0.0
 22
0.0
 32
0.0
 14
1.000000000000000E+20
 24
1.000000000000000E+20
 34
1.000000000000000E+20
 15
-1.000000000000000E+20
 25
-1.000000000000000E+20
 35
-1.000000000000000E+20
146
0.0
 13
0.0
 23
0.0
 33
0.0
 16
1.0
 26
0.0
 36
0.0
 17
0.0
 27
1.0
 37
0.0
 76
     0
330
1A
  0
LAYOUT
  5
21
102
{ACAD_REACTORS
330
19
102
}
330
19
100
AcDbPlotSettings
  1

  2
none_device
  4
Letter_(8.50_x_11.00_Inches)
  6

 40
6.349999904632568
 41
6.349999904632568
 42
6.350006103515625
 43
6.350006103515625
 44
215.8999938964844
 45
279.3999938964844
 46
0.0
 47
0.0
 48
0.0
 49
0.0
140
0.0
141
0.0
142
1.0
143
1.0
 70
 11952
 72
     0
 73
     1
 74
     0
  7

 75
     0
147
1.0
 76
     0
 77
     2
 78
   300
148
1149.947504721086
149
45.04747513497014
100
AcDbLayout
  1
Model
 70
     1
 71
     0
 10
0.0
 20
0.0
 11
12.0
 21
9.0
 12
0.0
 22
0.0
 32
0.0
 14
0.0
 24
0.0
 34
0.0
 15
0.0
 25
0.0
 35
0.0
146
0.0
 13
0.0
 23
0.0
 33
0.0
 16
1.0
 26
0.0
 36
0.0
 17
0.0
 27
1.0
 37
0.0
 76
     0
330
1E
  0
MLINESTYLE
  5
17
102
{ACAD_REACTORS
330
16
102
}
330
16
100
AcDbMlineStyle
  2
STANDARD
 70
     0
  3

 62
   256
 51
90.0
 52
90.0
 71
     2
 49
0.5
 62
   256
  6
BYLAYER
 49
-0.5
 62
   256
  6
BYLAYER
  0
ACDBPLACEHOLDER
  5
F
102
{ACAD_REACTORS
330
E
102
}
330
E
  0
DICTIONARYVAR
  5
EB
102
{ACAD_REACTORS
330
EA
102
}
330
EA
100
DictionaryVariables
280
     0
  1
1
  0
DICTIONARYVAR
  5
EC
102
{ACAD_REACTORS
330
EA
102
}
330
EA
100
DictionaryVariables
280
     0
  1

  0
ENDSEC
  0
EOF
