  0
SECTION
  2
HEADER
  9
$ACADVER
  1
AC1018
  9
$ACADMAINTVER
 70
   104
  9
$DWGCODEPAGE
  3
ANSI_1252
  9
$LASTSAVEDBY
  1
w.koehlhoff
  9
$INSBASE
 10
0.0
 20
0.0
 30
0.0
  9
$EXTMIN
 10
-0.0128083857498496
 20
-0.0090573584946014
 30
-0.0000000000112498
  9
$EXTMAX
 10
840.0128201211309
 20
594.0090656570857
 30
0.0000000000002956
  9
$LIMMIN
 10
0.0
 20
0.0
  9
$LIMMAX
 10
839.9999999999998
 20
594.0000000000001
  9
$ORTHOMODE
 70
     1
  9
$REGENMODE
 70
     1
  9
$FILLMODE
 70
     1
  9
$QTEXTMODE
 70
     0
  9
$MIRRTEXT
 70
     1
  9
$LTSCALE
 40
20.0
  9
$ATTMODE
 70
     1
  9
$TEXTSIZE
 40
2.5
  9
$TRACEWID
 40
0.5
  9
$TEXTSTYLE
  7
GREEKS
  9
$CLAYER
  8
VOLL
  9
$CELTYPE
  6
ByLayer
  9
$CECOLOR
 62
   256
  9
$CELTSCALE
 40
1.0
  9
$DISPSILH
 70
     0
  9
$DIMSCALE
 40
2.0
  9
$DIMASZ
 40
3.5
  9
$DIMEXO
 40
1.0
  9
$DIMDLI
 40
0.38
  9
$DIMRND
 40
0.0
  9
$DIMDLE
 40
0.0
  9
$DIMEXE
 40
1.0
  9
$DIMTP
 40
0.0
  9
$DIMTM
 40
0.0
  9
$DIMTXT
 40
3.5
  9
$DIMCEN
 40
0.09
  9
$DIMTSZ
 40
0.0
  9
$DIMTOL
 70
     0
  9
$DIMLIM
 70
     0
  9
$DIMTIH
 70
     0
  9
$DIMTOH
 70
     0
  9
$DIMSE1
 70
     0
  9
$DIMSE2
 70
     0
  9
$DIMTAD
 70
     1
  9
$DIMZIN
 70
     8
  9
$DIMBLK
  1

  9
$DIMASO
 70
     1
  9
$DIMSHO
 70
     0
  9
$DIMPOST
  1

  9
$DIMAPOST
  1

  9
$DIMALT
 70
     0
  9
$DIMALTD
 70
     2
  9
$DIMALTF
 40
25.4
  9
$DIMLFAC
 40
1.0
  9
$DIMTOFL
 70
     1
  9
$DIMTVP
 40
0.0
  9
$DIMTIX
 70
     0
  9
$DIMSOXD
 70
     0
  9
$DIMSAH
 70
     0
  9
$DIMBLK1
  1

  9
$DIMBLK2
  1

  9
$DIMSTYLE
  2
STANDARD
  9
$DIMCLRD
 70
     0
  9
$DIMCLRE
 70
     0
  9
$DIMCLRT
 70
     1
  9
$DIMTFAC
 40
0.5142857142857144
  9
$DIMGAP
 40
1.5
  9
$DIMJUST
 70
     0
  9
$DIMSD1
 70
     0
  9
$DIMSD2
 70
     0
  9
$DIMTOLJ
 70
     1
  9
$DIMTZIN
 70
     8
  9
$DIMALTZ
 70
     8
  9
$DIMALTTZ
 70
     8
  9
$DIMUPT
 70
     0
  9
$DIMDEC
 70
     2
  9
$DIMTDEC
 70
     2
  9
$DIMALTU
 70
     2
  9
$DIMALTTD
 70
     2
  9
$DIMTXSTY
  7
GREEKS
  9
$DIMAUNIT
 70
     0
  9
$DIMADEC
 70
     0
  9
$DIMALTRND
 40
0.0
  9
$DIMAZIN
 70
     2
  9
$DIMDSEP
 70
    46
  9
$DIMATFIT
 70
     0
  9
$DIMFRAC
 70
     0
  9
$DIMLDRBLK
  1

  9
$DIMLUNIT
 70
     2
  9
$DIMLWD
 70
    -2
  9
$DIMLWE
 70
    -2
  9
$DIMTMOVE
 70
     0
  9
$LUNITS
 70
     2
  9
$LUPREC
 70
     2
  9
$SKETCHINC
 40
1.0
  9
$FILLETRAD
 40
5.0
  9
$AUNITS
 70
     0
  9
$AUPREC
 70
     0
  9
$MENU
  1
ACAD
  9
$ELEVATION
 40
0.0
  9
$PELEVATION
 40
0.0
  9
$THICKNESS
 40
0.0
  9
$LIMCHECK
 70
     0
  9
$CHAMFERA
 40
0.0
  9
$CHAMFERB
 40
0.0
  9
$CHAMFERC
 40
0.0
  9
$CHAMFERD
 40
0.0
  9
$SKPOLY
 70
     0
  9
$TDCREATE
 40
2452806.196353935
  9
$TDUCREATE
 40
2452806.154687269
  9
$TDUPDATE
 40
2457053.413792142
  9
$TDUUPDATE
 40
2457053.372125475
  9
$TDINDWG
 40
0.2758611806
  9
$TDUSRTIMER
 40
0.2758611806
  9
$USRTIMER
 70
     1
  9
$ANGBASE
 50
0.0
  9
$ANGDIR
 70
     0
  9
$PDMODE
 70
     0
  9
$PDSIZE
 40
0.0
  9
$PLINEWID
 40
0.0
  9
$SPLFRAME
 70
     0
  9
$SPLINETYPE
 70
     6
  9
$SPLINESEGS
 70
     8
  9
$HANDSEED
  5
271D
  9
$SURFTAB1
 70
     6
  9
$SURFTAB2
 70
     6
  9
$SURFTYPE
 70
     6
  9
$SURFU
 70
     6
  9
$SURFV
 70
     6
  9
$UCSBASE
  2

  9
$UCSNAME
  2

  9
$UCSORG
 10
0.0
 20
0.0
 30
0.0
  9
$UCSXDIR
 10
1.0
 20
0.0
 30
0.0
  9
$UCSYDIR
 10
0.0
 20
1.0
 30
0.0
  9
$UCSORTHOREF
  2

  9
$UCSORTHOVIEW
 70
     0
  9
$UCSORGTOP
 10
0.0
 20
0.0
 30
0.0
  9
$UCSORGBOTTOM
 10
0.0
 20
0.0
 30
0.0
  9
$UCSORGLEFT
 10
0.0
 20
0.0
 30
0.0
  9
$UCSORGRIGHT
 10
0.0
 20
0.0
 30
0.0
  9
$UCSORGFRONT
 10
0.0
 20
0.0
 30
0.0
  9
$UCSORGBACK
 10
0.0
 20
0.0
 30
0.0
  9
$PUCSBASE
  2

  9
$PUCSNAME
  2

  9
$PUCSORG
 10
0.0
 20
0.0
 30
0.0
  9
$PUCSXDIR
 10
1.0
 20
0.0
 30
0.0
  9
$PUCSYDIR
 10
0.0
 20
1.0
 30
0.0
  9
$PUCSORTHOREF
  2

  9
$PUCSORTHOVIEW
 70
     0
  9
$PUCSORGTOP
 10
0.0
 20
0.0
 30
0.0
  9
$PUCSORGBOTTOM
 10
0.0
 20
0.0
 30
0.0
  9
$PUCSORGLEFT
 10
0.0
 20
0.0
 30
0.0
  9
$PUCSORGRIGHT
 10
0.0
 20
0.0
 30
0.0
  9
$PUCSORGFRONT
 10
0.0
 20
0.0
 30
0.0
  9
$PUCSORGBACK
 10
0.0
 20
0.0
 30
0.0
  9
$USERI1
 70
     0
  9
$USERI2
 70
     0
  9
$USERI3
 70
     0
  9
$USERI4
 70
     0
  9
$USERI5
 70
     0
  9
$USERR1
 40
0.0
  9
$USERR2
 40
0.0
  9
$USERR3
 40
0.0
  9
$USERR4
 40
0.0
  9
$USERR5
 40
0.0
  9
$WORLDVIEW
 70
     1
  9
$SHADEDGE
 70
     3
  9
$SHADEDIF
 70
    70
  9
$TILEMODE
 70
     1
  9
$MAXACTVP
 70
    16
  9
$PINSBASE
 10
0.0
 20
0.0
 30
0.0
  9
$PLIMCHECK
 70
     0
  9
$PEXTMIN
 10
1.000000000000000E+20
 20
1.000000000000000E+20
 30
1.000000000000000E+20
  9
$PEXTMAX
 10
-1.000000000000000E+20
 20
-1.000000000000000E+20
 30
-1.000000000000000E+20
  9
$PLIMMIN
 10
0.0
 20
0.0
  9
$PLIMMAX
 10
12.0
 20
9.0
  9
$UNITMODE
 70
     0
  9
$VISRETAIN
 70
     0
  9
$PLINEGEN
 70
     0
  9
$PSLTSCALE
 70
     0
  9
$TREEDEPTH
 70
  3020
  9
$CMLSTYLE
  2
Standard
  9
$CMLJUST
 70
     0
  9
$CMLSCALE
 40
1.0
  9
$PROXYGRAPHICS
 70
     1
  9
$MEASUREMENT
 70
     0
  9
$CELWEIGHT
370
    -1
  9
$ENDCAPS
280
     0
  9
$JOINSTYLE
280
     0
  9
$LWDISPLAY
290
     0
  9
$INSUNITS
 70
     0
  9
$HYPERLINKBASE
  1

  9
$STYLESHEET
  1
monochrome1.ctb
  9
$XEDIT
290
     1
  9
$CEPSNTYPE
380
     0
  9
$PSTYLEMODE
290
     1
  9
$FINGERPRINTGUID
  2
{CEB2A312-A602-11D7-B633-000102183313}
  9
$VERSIONGUID
  2
{9D068B43-F169-4E66-BBA5-FE49430D5112}
  9
$EXTNAMES
290
     1
  9
$PSVPSCALE
 40
0.0
  9
$OLESTARTUP
290
     0
  9
$SORTENTS
280
    96
  9
$INDEXCTL
280
     0
  9
$HIDETEXT
280
     0
  9
$XCLIPFRAME
290
     0
  9
$HALOGAP
280
     0
  9
$OBSCOLOR
 70
   257
  9
$OBSLTYPE
280
     0
  9
$INTERSECTIONDISPLAY
280
     0
  9
$INTERSECTIONCOLOR
 70
   257
  9
$DIMASSOC
280
     1
  9
$PROJECTNAME
  1

  0
ENDSEC
  0
SECTION
  2
CLASSES
  0
CLASS
  1
ACDBDICTIONARYWDFLT
  2
AcDbDictionaryWithDefault
  3
ObjectDBX Classes
 90
        0
 91
        1
280
     0
281
     0
  0
CLASS
  1
DICTIONARYVAR
  2
AcDbDictionaryVar
  3
ObjectDBX Classes
 90
        0
 91
        8
280
     0
281
     0
  0
CLASS
  1
SORTENTSTABLE
  2
AcDbSortentsTable
  3
ObjectDBX Classes
 90
        0
 91
        0
280
     0
281
     0
  0
CLASS
  1
MATERIAL
  2
AcDbMaterial
  3
ObjectDBX Classes
 90
     1153
 91
        3
280
     0
281
     0
  0
CLASS
  1
VISUALSTYLE
  2
AcDbVisualStyle
  3
ObjectDBX Classes
 90
     4095
 91
       24
280
     0
281
     0
  0
CLASS
  1
TABLESTYLE
  2
AcDbTableStyle
  3
ObjectDBX Classes
 90
     4095
 91
        1
280
     0
281
     0
  0
CLASS
  1
SCALE
  2
AcDbScale
  3
ObjectDBX Classes
 90
     1153
 91
       17
280
     0
281
     0
  0
CLASS
  1
MLEADERSTYLE
  2
AcDbMLeaderStyle
  3
ACDB_MLEADERSTYLE_CLASS
 90
     4095
 91
        1
280
     0
281
     0
  0
CLASS
  1
ACDBSECTIONVIEWSTYLE
  2
AcDbSectionViewStyle
  3
ObjectDBX Classes
 90
     1025
 91
        1
280
     0
281
     0
  0
CLASS
  1
ACDBDETAILVIEWSTYLE
  2
AcDbDetailViewStyle
  3
ObjectDBX Classes
 90
     1025
 91
        1
280
     0
281
     0
  0
CLASS
  1
CELLSTYLEMAP
  2
AcDbCellStyleMap
  3
ObjectDBX Classes
 90
     1152
 91
        3
280
     0
281
     0
  0
ENDSEC
  0
SECTION
  2
TABLES
  0
TABLE
  2
VPORT
  5
10EB
102
{ACAD_XDICTIONARY
360
25B6
102
}
330
0
100
AcDbSymbolTable
 70
     1
  0
VPORT
  5
24E5
330
10EB
100
AcDbSymbolTableRecord
100
AcDbViewportTableRecord
  2
*Active
 70
     0
 10
0.0
 20
0.0
 11
1.0
 21
1.0
 12
420.0000058676905
 22
297.0000041492956
 13
0.0
 23
0.0
 14
1.0
 24
1.0
 15
10.0
 25
10.0
 16
0.0
 26
0.0
 36
1.0
 17
0.0
 27
0.0
 37
0.0
 40
598.3805572115332
 41
1.852941176470588
 42
50.0
 43
0.0
 44
0.0
 50
0.0
 51
0.0
 71
     0
 72
  1500
 73
     1
 74
     0
 75
     0
 76
     0
 77
     0
 78
     0
281
     0
 65
     1
110
0.0
120
0.0
130
0.0
111
1.0
121
0.0
131
0.0
112
0.0
122
1.0
132
0.0
 79
     0
146
0.0
1001
ACAD_NAV_VCDISPLAY
1070
     3
  0
ENDTAB
  0
TABLE
  2
LTYPE
  5
10E8
330
0
100
AcDbSymbolTable
 70
     5
  0
LTYPE
  5
10F6
330
10E8
100
AcDbSymbolTableRecord
100
AcDbLinetypeTableRecord
  2
ByBlock
 70
     0
  3

 72
    65
 73
     0
 40
0.0
  0
LTYPE
  5
10F7
330
10E8
100
AcDbSymbolTableRecord
100
AcDbLinetypeTableRecord
  2
ByLayer
 70
     0
  3

 72
    65
 73
     0
 40
0.0
  0
LTYPE
  5
10F8
330
10E8
100
AcDbSymbolTableRecord
100
AcDbLinetypeTableRecord
  2
AUSGEZOGEN
 70
     0
  3
Ausgezogene Linie
 72
    65
 73
     0
 40
0.0
  0
LTYPE
  5
1118
330
10E8
100
AcDbSymbolTableRecord
100
AcDbLinetypeTableRecord
  2
STRICHPUNKT
 70
     0
  3
__ . __ . __ . __ . __ . __ . __ . __ . __ . __
 72
    65
 73
     4
 40
1.0
 49
0.5
 74
     0
 49
-0.25
 74
     0
 49
0.0
 74
     0
 49
-0.25
 74
     0
  0
LTYPE
  5
1119
330
10E8
100
AcDbSymbolTableRecord
100
AcDbLinetypeTableRecord
  2
CONTINUOUS
 70
     0
  3
Solid line
 72
    65
 73
     0
 40
0.0
  0
LTYPE
  5
252F
330
10E8
100
AcDbSymbolTableRecord
100
AcDbLinetypeTableRecord
  2
PHANTOM2
 70
     0
  3
Phantom (.5x) ___ _ _ ___ _ _ ___ _ _ ___ _ _
 72
    65
 73
     6
 40
1.25
 49
0.625
 74
     0
 49
-0.125
 74
     0
 49
0.125
 74
     0
 49
-0.125
 74
     0
 49
0.125
 74
     0
 49
-0.125
 74
     0
  0
ENDTAB
  0
TABLE
  2
LAYER
  5
10E5
102
{ACAD_XDICTIONARY
360
1945
102
}
330
0
100
AcDbSymbolTable
 70
     9
  0
LAYER
  5
10F3
102
{ACAD_XDICTIONARY
360
2539
102
}
330
10E5
100
AcDbSymbolTableRecord
100
AcDbLayerTableRecord
  2
0
 70
     0
 62
     7
  6
AUSGEZOGEN
370
    -3
390
10F2
  0
LAYER
  5
111D
102
{ACAD_XDICTIONARY
360
253B
102
}
330
10E5
100
AcDbSymbolTableRecord
100
AcDbLayerTableRecord
  2
VOLL
 70
     0
 62
     1
  6
AUSGEZOGEN
370
    -3
390
10F2
  0
LAYER
  5
111E
102
{ACAD_XDICTIONARY
360
253D
102
}
330
10E5
100
AcDbSymbolTableRecord
100
AcDbLayerTableRecord
  2
HILF
 70
     0
 62
     2
  6
AUSGEZOGEN
370
    -3
390
10F2
  0
LAYER
  5
111F
102
{ACAD_XDICTIONARY
360
253F
102
}
330
10E5
100
AcDbSymbolTableRecord
100
AcDbLayerTableRecord
  2
MITTEL
 70
     0
 62
     2
  6
STRICHPUNKT
370
    -3
390
10F2
  0
LAYER
  5
1120
102
{ACAD_XDICTIONARY
360
2541
102
}
330
10E5
100
AcDbSymbolTableRecord
100
AcDbLayerTableRecord
  2
BEM
 70
     0
 62
     7
  6
AUSGEZOGEN
370
    -3
390
10F2
  0
LAYER
  5
1121
102
{ACAD_XDICTIONARY
360
2543
102
}
330
10E5
100
AcDbSymbolTableRecord
100
AcDbLayerTableRecord
  2
STEMPEL
 70
     0
 62
     3
  6
AUSGEZOGEN
370
    -3
390
10F2
  0
LAYER
  5
1122
102
{ACAD_XDICTIONARY
360
2545
102
}
330
10E5
100
AcDbSymbolTableRecord
100
AcDbLayerTableRecord
  2
TEXT
 70
     0
 62
     7
  6
AUSGEZOGEN
370
    -3
390
10F2
  0
LAYER
  5
1123
102
{ACAD_XDICTIONARY
360
2547
102
}
330
10E5
100
AcDbSymbolTableRecord
100
AcDbLayerTableRecord
  2
SCHRAFF
 70
     0
 62
     7
  6
AUSGEZOGEN
370
    -3
390
10F2
  0
LAYER
  5
1124
330
10E5
100
AcDbSymbolTableRecord
100
AcDbLayerTableRecord
  2
DEFPOINTS
 70
     0
 62
     7
  6
AUSGEZOGEN
290
     0
370
    -3
390
10F2
  0
ENDTAB
  0
TABLE
  2
STYLE
  5
10E6
330
0
100
AcDbSymbolTable
 70
     3
  0
STYLE
  5
10F4
330
10E6
100
AcDbSymbolTableRecord
100
AcDbTextStyleTableRecord
  2
STANDARD
 70
     0
 40
0.0
 41
1.0
 50
0.0
 71
     0
 42
3.5
  3
txt
  4

  0
STYLE
  5
1117
330
10E6
100
AcDbSymbolTableRecord
100
AcDbTextStyleTableRecord
  2
GREEKS
 70
     0
 40
0.0
 41
0.8
 50
0.0
 71
     0
 42
2.5
  3
SIMPLEX.shx
  4

  0
ENDTAB
  0
TABLE
  2
VIEW
  5
10E9
330
0
100
AcDbSymbolTable
 70
     0
  0
ENDTAB
  0
TABLE
  2
UCS
  5
10EA
330
0
100
AcDbSymbolTable
 70
     0
  0
ENDTAB
  0
TABLE
  2
APPID
  5
10EC
330
0
100
AcDbSymbolTable
 70
     8
  0
APPID
  5
10F5
330
10EC
100
AcDbSymbolTableRecord
100
AcDbRegAppTableRecord
  2
ACAD
 70
     0
  0
APPID
  5
1F9C
330
10EC
100
AcDbSymbolTableRecord
100
AcDbRegAppTableRecord
  2
ACAD_DSTYLE_DIMARC_LENGTH_SYMBOL
 70
     0
  0
APPID
  5
1F9D
330
10EC
100
AcDbSymbolTableRecord
100
AcDbRegAppTableRecord
  2
ACAD_DSTYLE_DIM_LINETYPE
 70
     0
  0
APPID
  5
1F9E
330
10EC
100
AcDbSymbolTableRecord
100
AcDbRegAppTableRecord
  2
ACAD_DSTYLE_DIM_EXT1_LINETYPE
 70
     0
  0
APPID
  5
1F9F
330
10EC
100
AcDbSymbolTableRecord
100
AcDbRegAppTableRecord
  2
ACAD_DSTYLE_DIM_EXT2_LINETYPE
 70
     0
  0
APPID
  5
2537
330
10EC
100
AcDbSymbolTableRecord
100
AcDbRegAppTableRecord
  2
ACAD_EXEMPT_FROM_CAD_STANDARDS
 70
     0
  0
APPID
  5
2550
330
10EC
100
AcDbSymbolTableRecord
100
AcDbRegAppTableRecord
  2
ACAD_NAV_VCDISPLAY
 70
     0
  0
APPID
  5
25EE
330
10EC
100
AcDbSymbolTableRecord
100
AcDbRegAppTableRecord
  2
ACAD_MLEADERVER
 70
     0
  0
ENDTAB
  0
TABLE
  2
DIMSTYLE
  5
10ED
330
0
100
AcDbSymbolTable
 70
     2
100
AcDbDimStyleTable
 71
     1
340
111C
  0
DIMSTYLE
105
111C
102
{ACAD_REACTORS
330
1E43
330
1EA4
330
1FB1
330
2265
330
2269
330
226D
330
2286
330
23E3
330
23E4
330
23E5
102
}
330
10ED
100
AcDbSymbolTableRecord
100
AcDbDimStyleTableRecord
  2
STANDARD
 70
     0
 40
2.0
 41
3.5
 42
1.0
 44
1.0
 73
     0
 74
     0
 77
     1
 78
     8
 79
     2
140
3.5
146
0.5142857142857144
147
1.5
172
     1
178
     1
271
     2
272
     2
284
     8
285
     8
286
     8
289
     0
340
1117
  0
ENDTAB
  0
TABLE
  2
BLOCK_RECORD
  5
10E4
330
0
100
AcDbSymbolTable
 70
    12
  0
BLOCK_RECORD
  5
1101
102
{ACAD_XDICTIONARY
360
1561
102
}
330
10E4
100
AcDbSymbolTableRecord
100
AcDbBlockTableRecord
  2
*Model_Space
340
1104
  0
BLOCK_RECORD
  5
10FD
102
{ACAD_XDICTIONARY
360
1563
102
}
330
10E4
100
AcDbSymbolTableRecord
100
AcDbBlockTableRecord
  2
*Paper_Space
340
1100
  0
BLOCK_RECORD
  5
1105
330
10E4
100
AcDbSymbolTableRecord
100
AcDbBlockTableRecord
  2
LOGO
340
0
102
{BLKREFS
331
2FC
102
}
  0
BLOCK_RECORD
  5
1E44
330
10E4
100
AcDbSymbolTableRecord
100
AcDbBlockTableRecord
  2
*D1
340
0
  0
BLOCK_RECORD
  5
1EA5
330
10E4
100
AcDbSymbolTableRecord
100
AcDbBlockTableRecord
  2
*D2
340
0
  0
BLOCK_RECORD
  5
1FB3
330
10E4
100
AcDbSymbolTableRecord
100
AcDbBlockTableRecord
  2
*D3
340
0
  0
BLOCK_RECORD
  5
22AE
330
10E4
100
AcDbSymbolTableRecord
100
AcDbBlockTableRecord
  2
*D4
340
0
  0
BLOCK_RECORD
  5
22BA
330
10E4
100
AcDbSymbolTableRecord
100
AcDbBlockTableRecord
  2
*D5
340
0
  0
BLOCK_RECORD
  5
22C6
330
10E4
100
AcDbSymbolTableRecord
100
AcDbBlockTableRecord
  2
*D6
340
0
  0
BLOCK_RECORD
  5
22D5
330
10E4
100
AcDbSymbolTableRecord
100
AcDbBlockTableRecord
  2
*D7
340
0
  0
BLOCK_RECORD
  5
2414
330
10E4
100
AcDbSymbolTableRecord
100
AcDbBlockTableRecord
  2
*D8
340
0
  0
BLOCK_RECORD
  5
2420
330
10E4
100
AcDbSymbolTableRecord
100
AcDbBlockTableRecord
  2
*D9
340
0
  0
BLOCK_RECORD
  5
242C
330
10E4
100
AcDbSymbolTableRecord
100
AcDbBlockTableRecord
  2
*D10
340
0
  0
ENDTAB
  0
ENDSEC
  0
SECTION
  2
BLOCKS
  0
BLOCK
  5
1127
330
1101
100
AcDbEntity
  8
0
100
AcDbBlockBegin
  2
*Model_Space
 70
     0
 10
0.0
 20
0.0
 30
0.0
  3
*Model_Space
  1

  0
ENDBLK
  5
1128
330
1101
100
AcDbEntity
  8
0
100
AcDbBlockEnd
  0
BLOCK
  5
1125
330
10FD
100
AcDbEntity
 67
     1
  8
0
100
AcDbBlockBegin
  2
*Paper_Space
 70
     0
 10
0.0
 20
0.0
 30
0.0
  3
*Paper_Space
  1

  0
ENDBLK
  5
1126
330
10FD
100
AcDbEntity
 67
     1
  8
0
100
AcDbBlockEnd
  0
BLOCK
  5
42
330
1105
100
AcDbEntity
  8
0
100
AcDbBlockBegin
  2
LOGO
 70
     0
 10
0.0
 20
0.0
 30
0.0
  3
LOGO
  1

  0
ARC
  5
43
330
1105
100
AcDbEntity
  8
0
100
AcDbCircle
 10
11.59973089678112
 20
-9.271599258481501
 30
0.0
 40
4.5
100
AcDbArc
 50
270.0
 51
231.0575587310159
  0
LINE
  5
44
330
1105
100
AcDbEntity
  8
0
100
AcDbLine
 10
3.599730896781125
 20
-4.771599258481529
 30
0.0
 11
3.599730896781153
 21
-11.77159925848133
 31
0.0
  0
LINE
  5
45
330
1105
100
AcDbEntity
  8
0
100
AcDbLine
 10
2.599730896781125
 20
-4.771599258481529
 30
0.0
 11
2.599730896781153
 21
-11.77159925848133
 31
0.0
  0
CIRCLE
  5
46
330
1105
100
AcDbEntity
  8
0
100
AcDbCircle
 10
11.59973089678112
 20
-9.271599258481501
 30
0.0
 40
3.5
  0
ARC
  5
47
330
1105
100
AcDbEntity
  8
0
100
AcDbCircle
 10
31.59973089678115
 20
-9.271599258481472
 30
0.0
 40
4.5
100
AcDbArc
 50
270.0
 51
231.0575587310182
  0
LINE
  5
48
330
1105
100
AcDbEntity
  8
0
100
AcDbLine
 10
17.59973089678112
 20
-4.771599258481472
 30
0.0
 11
17.59973089678115
 21
-13.77159925848147
 31
0.0
  0
ARC
  5
49
330
1105
100
AcDbEntity
  8
0
100
AcDbCircle
 10
22.59973089678116
 20
-7.271599258481472
 30
0.0
 40
2.5
100
AcDbArc
 50
293.1161887722295
 51
90.0
  0
CIRCLE
  5
4A
330
1105
100
AcDbEntity
  8
0
100
AcDbCircle
 10
31.59973089678115
 20
-9.271599258481472
 30
0.0
 40
3.5
  0
ARC
  5
4B
330
1105
100
AcDbEntity
  8
0
100
AcDbCircle
 10
4.599730896781153
 20
-11.77159925848133
 30
0.0
 40
1.0
100
AcDbArc
 50
180.0
 51
270.0
  0
ARC
  5
4C
330
1105
100
AcDbEntity
  8
0
100
AcDbCircle
 10
4.599730896781153
 20
-11.77159925848133
 30
0.0
 40
2.0
100
AcDbArc
 50
179.9999999999992
 51
270.0
  0
LINE
  5
4D
330
1105
100
AcDbEntity
  8
0
100
AcDbLine
 10
11.59973089678115
 20
-13.77159925848144
 30
0.0
 11
4.599730896781153
 21
-13.77159925848147
 31
0.0
  0
LINE
  5
4E
330
1105
100
AcDbEntity
  8
0
100
AcDbLine
 10
8.771303772034769
 20
-12.77159925848136
 30
0.0
 11
4.599730896781153
 21
-12.77159925848133
 31
0.0
  0
LINE
  5
4F
330
1105
100
AcDbEntity
  8
0
100
AcDbLine
 10
31.59973089678115
 20
-13.77159925848147
 30
0.0
 11
23.6715276665056
 21
-13.77159925848144
 31
0.0
  0
LINE
  5
50
330
1105
100
AcDbEntity
  8
0
100
AcDbLine
 10
23.56565672307022
 20
-9.51278021337896
 30
0.0
 11
24.4388546544846
 21
-12.77159925848144
 31
0.0
  0
LINE
  5
51
330
1105
100
AcDbEntity
  8
0
100
AcDbLine
 10
22.59973089678116
 20
-9.771599258481472
 30
0.0
 11
18.59973089678112
 21
-9.771599258481472
 31
0.0
  0
LINE
  5
52
330
1105
100
AcDbEntity
  8
0
100
AcDbLine
 10
18.59973089678115
 20
-13.77159925848144
 30
0.0
 11
17.59973089678115
 21
-13.77159925848144
 31
0.0
  0
LINE
  5
53
330
1105
100
AcDbEntity
  8
0
100
AcDbLine
 10
18.59973089678115
 20
-9.771599258481472
 30
0.0
 11
18.59973089678115
 21
-13.77159925848144
 31
0.0
  0
LINE
  5
54
330
1105
100
AcDbEntity
  8
0
100
AcDbLine
 10
22.59973089678116
 20
-9.771599258481472
 30
0.0
 11
23.67152766650562
 21
-13.77159925848147
 31
0.0
  0
ARC
  5
55
330
1105
100
AcDbEntity
  8
0
100
AcDbCircle
 10
22.59973089678116
 20
-7.271599258481472
 30
0.0
 40
2.5
100
AcDbArc
 50
270.0
 51
270.0000000000007
  0
LINE
  5
56
330
1105
100
AcDbEntity
  8
0
100
AcDbLine
 10
28.77130377203494
 20
-12.77159925848147
 30
0.0
 11
24.43885465448463
 21
-12.77159925848144
 31
0.0
  0
LINE
  5
57
330
1105
100
AcDbEntity
  8
0
100
AcDbLine
 10
3.599730896781125
 20
-4.771599258481472
 30
0.0
 11
2.599730896781125
 21
-4.771599258481472
 31
0.0
  0
LINE
  5
58
330
1105
100
AcDbEntity
  8
0
100
AcDbLine
 10
22.59973089678116
 20
-8.771599258481472
 30
0.0
 11
18.59973089678115
 21
-8.771599258481472
 31
0.0
  0
LINE
  5
59
330
1105
100
AcDbEntity
  8
0
100
AcDbLine
 10
22.59973089678116
 20
-5.771599258481472
 30
0.0
 11
18.59973089678115
 21
-5.771599258481472
 31
0.0
  0
LINE
  5
5A
330
1105
100
AcDbEntity
  8
0
100
AcDbLine
 10
22.59973089678116
 20
-4.771599258481472
 30
0.0
 11
17.59973089678115
 21
-4.771599258481472
 31
0.0
  0
LINE
  5
5B
330
1105
100
AcDbEntity
  8
0
100
AcDbLine
 10
18.59973089678115
 20
-5.771599258481472
 30
0.0
 11
18.59973089678115
 21
-8.771599258481472
 31
0.0
  0
ARC
  5
5C
330
1105
100
AcDbEntity
  8
0
100
AcDbCircle
 10
22.59973089678116
 20
-7.271599258481472
 30
0.0
 40
1.5
100
AcDbArc
 50
270.0
 51
90.0
  0
ENDBLK
  5
5D
330
1105
100
AcDbEntity
  8
0
100
AcDbBlockEnd
  0
BLOCK
  5
1E50
330
1E44
100
AcDbEntity
  8
0
100
AcDbBlockBegin
  2
*D1
 70
     1
 10
0.0
 20
0.0
 30
0.0
  3
*D1
  1

  0
LINE
  5
2323
330
1E44
100
AcDbEntity
  8
BEM
 62
     0
440
 16777216
370
    -2
100
AcDbLine
 10
195.2356792660537
 20
335.8667651608045
 30
0.0
 11
171.8869296706962
 21
335.8667651608045
 31
0.0
  0
LINE
  5
2324
330
1E44
100
AcDbEntity
  8
BEM
 62
     0
440
 16777216
370
    -2
100
AcDbLine
 10
195.2356792660537
 20
338.8667651608045
 30
0.0
 11
171.8869296706962
 21
338.8667651608045
 31
0.0
  0
LINE
  5
2325
330
1E44
100
AcDbEntity
  8
BEM
 62
     0
440
 16777216
370
    -2
100
AcDbLine
 10
173.8869296706962
 20
328.8667651608045
 30
0.0
 11
173.8869296706962
 21
321.8667651608045
 31
0.0
  0
LINE
  5
2326
330
1E44
100
AcDbEntity
  8
BEM
 62
     0
440
 16777216
370
    -2
100
AcDbLine
 10
173.8869296706962
 20
345.8667651608045
 30
0.0
 11
173.8869296706962
 21
362.6000984941379
 31
0.0
  0
LINE
  5
2327
330
1E44
100
AcDbEntity
  8
BEM
 62
     0
440
 16777216
370
    -2
100
AcDbLine
 10
173.8869296706962
 20
335.8667651608045
 30
0.0
 11
173.8869296706962
 21
338.8667651608045
 31
0.0
  0
SOLID
  5
2328
330
1E44
100
AcDbEntity
  8
BEM
 62
     0
440
 16777216
100
AcDbTrace
 10
172.7202630040295
 20
328.8667651608045
 30
0.0
 11
175.0535963373628
 21
328.8667651608045
 31
0.0
 12
173.8869296706962
 22
335.8667651608045
 32
0.0
 13
173.8869296706962
 23
335.8667651608045
 33
0.0
  0
SOLID
  5
2329
330
1E44
100
AcDbEntity
  8
BEM
 62
     0
440
 16777216
100
AcDbTrace
 10
172.7202630040295
 20
345.8667651608045
 30
0.0
 11
175.0535963373628
 21
345.8667651608045
 31
0.0
 12
173.8869296706962
 22
338.8667651608045
 32
0.0
 13
173.8869296706962
 23
338.8667651608045
 33
0.0
  0
MTEXT
  5
232A
330
1E44
100
AcDbEntity
  8
BEM
 62
     1
440
 16777216
100
AcDbMText
 10
167.3869296706961
 20
357.7334318274712
 30
0.0
 40
7.0
 41
0.0
 71
     5
 72
     1
  1
\A1;3
  7
GREEKS
 11
0.0000000000000001
 21
1.0
 31
0.0
 73
     1
 44
1.0
  0
POINT
  5
232B
330
1E44
100
AcDbEntity
  8
DEFPOINTS
 62
     0
440
 16777216
100
AcDbPoint
 10
197.2356792660537
 20
335.8667651608045
 30
0.0
  0
POINT
  5
232C
330
1E44
100
AcDbEntity
  8
DEFPOINTS
 62
     0
440
 16777216
100
AcDbPoint
 10
197.2356792660537
 20
338.8667651608045
 30
0.0
  0
POINT
  5
232D
330
1E44
100
AcDbEntity
  8
DEFPOINTS
 62
     0
440
 16777216
100
AcDbPoint
 10
173.8869296706962
 20
338.8667651608045
 30
0.0
  0
ENDBLK
  5
1E51
330
1E44
100
AcDbEntity
  8
0
100
AcDbBlockEnd
  0
BLOCK
  5
1EAF
330
1EA5
100
AcDbEntity
  8
0
100
AcDbBlockBegin
  2
*D2
 70
     1
 10
0.0
 20
0.0
 30
0.0
  3
*D2
  1

  0
LINE
  5
245C
330
1EA5
100
AcDbEntity
  8
BEM
 62
     0
440
 16777216
370
    -2
100
AcDbLine
 10
197.2356792660537
 20
333.8667651608045
 30
0.0
 11
197.2356792660537
 21
202.1498409554467
 31
0.0
  0
LINE
  5
245D
330
1EA5
100
AcDbEntity
  8
BEM
 62
     0
440
 16777216
370
    -2
100
AcDbLine
 10
477.9594382713777
 20
339.5667651608044
 30
0.0
 11
477.9594382713777
 21
202.1498409554467
 31
0.0
  0
LINE
  5
245E
330
1EA5
100
AcDbEntity
  8
BEM
 62
     0
440
 16777216
370
    -2
100
AcDbLine
 10
204.2356792660537
 20
204.1498409554467
 30
0.0
 11
470.9594382713777
 21
204.1498409554467
 31
0.0
  0
SOLID
  5
245F
330
1EA5
100
AcDbEntity
  8
BEM
 62
     0
440
 16777216
100
AcDbTrace
 10
204.2356792660537
 20
205.3165076221134
 30
0.0
 11
204.2356792660537
 21
202.9831742887801
 31
0.0
 12
197.2356792660537
 22
204.1498409554467
 32
0.0
 13
197.2356792660537
 23
204.1498409554467
 33
0.0
  0
SOLID
  5
2460
330
1EA5
100
AcDbEntity
  8
BEM
 62
     0
440
 16777216
100
AcDbTrace
 10
470.9594382713777
 20
205.3165076221134
 30
0.0
 11
470.9594382713777
 21
202.9831742887801
 31
0.0
 12
477.9594382713777
 22
204.1498409554467
 32
0.0
 13
477.9594382713777
 23
204.1498409554467
 33
0.0
  0
MTEXT
  5
2461
330
1EA5
100
AcDbEntity
  8
BEM
 62
     1
440
 16777216
100
AcDbMText
 10
337.5975587687157
 20
210.6498409554467
 30
0.0
 40
7.0
 41
0.0
 71
     5
 72
     1
  1
\A1;280
  7
GREEKS
 73
     1
 44
1.0
  0
POINT
  5
2462
330
1EA5
100
AcDbEntity
  8
DEFPOINTS
 62
     0
440
 16777216
100
AcDbPoint
 10
197.2356792660537
 20
335.8667651608045
 30
0.0
  0
POINT
  5
2463
330
1EA5
100
AcDbEntity
  8
DEFPOINTS
 62
     0
440
 16777216
100
AcDbPoint
 10
477.9594382713777
 20
341.5667651608044
 30
0.0
  0
POINT
  5
2464
330
1EA5
100
AcDbEntity
  8
DEFPOINTS
 62
     0
440
 16777216
100
AcDbPoint
 10
477.9594382713777
 20
204.1498409554467
 30
0.0
  0
ENDBLK
  5
1EB0
330
1EA5
100
AcDbEntity
  8
0
100
AcDbBlockEnd
  0
BLOCK
  5
1FBD
330
1FB3
100
AcDbEntity
  8
0
100
AcDbBlockBegin
  2
*D3
 70
     1
 10
0.0
 20
0.0
 30
0.0
  3
*D3
  1

  0
LINE
  5
2340
330
1FB3
100
AcDbEntity
  8
BEM
 62
     0
440
 16777216
370
    -2
100
AcDbLine
 10
474.2594382713776
 20
335.8667651608045
 30
0.0
 11
495.6572567824145
 21
335.8667651608045
 31
0.0
  0
LINE
  5
2341
330
1FB3
100
AcDbEntity
  8
BEM
 62
     0
440
 16777216
370
    -2
100
AcDbLine
 10
479.9594382713769
 20
440.8657478552778
 30
0.0
 11
495.6572567824146
 21
440.8657478552778
 31
0.0
  0
LINE
  5
2342
330
1FB3
100
AcDbEntity
  8
BEM
 62
     0
440
 16777216
370
    -2
100
AcDbLine
 10
493.6572567824145
 20
342.8667651608045
 30
0.0
 11
493.6572567824145
 21
433.8657478552778
 31
0.0
  0
SOLID
  5
2343
330
1FB3
100
AcDbEntity
  8
BEM
 62
     0
440
 16777216
100
AcDbTrace
 10
492.4905901157479
 20
342.8667651608045
 30
0.0
 11
494.8239234490812
 21
342.8667651608045
 31
0.0
 12
493.6572567824145
 22
335.8667651608045
 32
0.0
 13
493.6572567824145
 23
335.8667651608045
 33
0.0
  0
SOLID
  5
2344
330
1FB3
100
AcDbEntity
  8
BEM
 62
     0
440
 16777216
100
AcDbTrace
 10
492.4905901157479
 20
433.8657478552778
 30
0.0
 11
494.8239234490812
 21
433.8657478552778
 31
0.0
 12
493.6572567824145
 22
440.8657478552778
 32
0.0
 13
493.6572567824145
 23
440.8657478552778
 33
0.0
  0
MTEXT
  5
2345
330
1FB3
100
AcDbEntity
  8
BEM
 62
     1
440
 16777216
100
AcDbMText
 10
487.1572567824144
 20
388.3662565080412
 30
0.0
 40
7.0
 41
0.0
 71
     5
 72
     1
  1
\A1;105
  7
GREEKS
 11
0.0000000000000001
 21
1.0
 31
0.0
 73
     1
 44
1.0
  0
POINT
  5
2346
330
1FB3
100
AcDbEntity
  8
DEFPOINTS
 62
     0
440
 16777216
100
AcDbPoint
 10
472.2594382713776
 20
335.8667651608045
 30
0.0
  0
POINT
  5
2347
330
1FB3
100
AcDbEntity
  8
DEFPOINTS
 62
     0
440
 16777216
100
AcDbPoint
 10
477.959438271377
 20
440.8657478552778
 30
0.0
  0
POINT
  5
2348
330
1FB3
100
AcDbEntity
  8
DEFPOINTS
 62
     0
440
 16777216
100
AcDbPoint
 10
493.6572567824145
 20
440.8657478552778
 30
0.0
  0
ENDBLK
  5
1FBE
330
1FB3
100
AcDbEntity
  8
0
100
AcDbBlockEnd
  0
BLOCK
  5
22B8
330
22AE
100
AcDbEntity
  8
0
100
AcDbBlockBegin
  2
*D4
 70
     1
 10
0.0
 20
0.0
 30
0.0
  3
*D4
  1

  0
LINE
  5
24D7
330
22AE
100
AcDbEntity
  8
BEM
 62
     0
440
 16777216
370
    -2
100
AcDbLine
 10
332.2356792660536
 20
370.8667651608041
 30
0.0
 11
332.2356792660536
 21
494.2311303555859
 31
0.0
  0
LINE
  5
24D8
330
22AE
100
AcDbEntity
  8
BEM
 62
     0
440
 16777216
370
    -2
100
AcDbLine
 10
772.4568559561494
 20
247.0504178502541
 30
0.0
 11
772.4568559561494
 21
494.2311303555859
 31
0.0
  0
LINE
  5
24D9
330
22AE
100
AcDbEntity
  8
BEM
 62
     0
440
 16777216
370
    -2
100
AcDbLine
 10
339.2356792660536
 20
492.2311303555859
 30
0.0
 11
765.4568559561494
 21
492.2311303555859
 31
0.0
  0
SOLID
  5
24DA
330
22AE
100
AcDbEntity
  8
BEM
 62
     0
440
 16777216
100
AcDbTrace
 10
339.2356792660536
 20
493.3977970222526
 30
0.0
 11
339.2356792660536
 21
491.0644636889192
 31
0.0
 12
332.2356792660536
 22
492.2311303555859
 32
0.0
 13
332.2356792660536
 23
492.2311303555859
 33
0.0
  0
SOLID
  5
24DB
330
22AE
100
AcDbEntity
  8
BEM
 62
     0
440
 16777216
100
AcDbTrace
 10
765.4568559561494
 20
493.3977970222526
 30
0.0
 11
765.4568559561494
 21
491.0644636889192
 31
0.0
 12
772.4568559561494
 22
492.2311303555859
 32
0.0
 13
772.4568559561494
 23
492.2311303555859
 33
0.0
  0
MTEXT
  5
24DC
330
22AE
100
AcDbEntity
  8
BEM
 62
     1
440
 16777216
100
AcDbMText
 10
552.3462676111015
 20
498.7311303555859
 30
0.0
 40
7.0
 41
0.0
 71
     5
 72
     1
  1
\A1;800
  7
GREEKS
 73
     1
 44
1.0
  0
POINT
  5
24DD
330
22AE
100
AcDbEntity
  8
DEFPOINTS
 62
     0
440
 16777216
100
AcDbPoint
 10
332.2356792660536
 20
368.866765160804
 30
0.0
  0
POINT
  5
24DE
330
22AE
100
AcDbEntity
  8
DEFPOINTS
 62
     0
440
 16777216
100
AcDbPoint
 10
772.4568559561494
 20
245.0504178502541
 30
0.0
  0
POINT
  5
24DF
330
22AE
100
AcDbEntity
  8
DEFPOINTS
 62
     0
440
 16777216
100
AcDbPoint
 10
772.4568559561494
 20
492.2311303555859
 30
0.0
  0
ENDBLK
  5
22B9
330
22AE
100
AcDbEntity
  8
0
100
AcDbBlockEnd
  0
BLOCK
  5
22C4
330
22BA
100
AcDbEntity
  8
0
100
AcDbBlockBegin
  2
*D5
 70
     1
 10
0.0
 20
0.0
 30
0.0
  3
*D5
  1

  0
LINE
  5
2352
330
22BA
100
AcDbEntity
  8
BEM
 62
     0
440
 16777216
370
    -2
100
AcDbLine
 10
794.9863643309554
 20
245.0504178502541
 30
0.0
 11
816.4696733494517
 21
245.0504178502541
 31
0.0
  0
LINE
  5
2353
330
22BA
100
AcDbEntity
  8
BEM
 62
     0
440
 16777216
370
    -2
100
AcDbLine
 10
474.2594382713776
 20
335.8667651608046
 30
0.0
 11
816.4696733494517
 21
335.8667651608045
 31
0.0
  0
LINE
  5
2354
330
22BA
100
AcDbEntity
  8
BEM
 62
     0
440
 16777216
370
    -2
100
AcDbLine
 10
814.4696733494516
 20
252.0504178502541
 30
0.0
 11
814.4696733494518
 21
328.8667651608045
 31
0.0
  0
SOLID
  5
2355
330
22BA
100
AcDbEntity
  8
BEM
 62
     0
440
 16777216
100
AcDbTrace
 10
813.3030066827851
 20
252.0504178502541
 30
0.0
 11
815.6363400161183
 21
252.0504178502541
 31
0.0
 12
814.4696733494516
 22
245.0504178502541
 32
0.0
 13
814.4696733494516
 23
245.0504178502541
 33
0.0
  0
SOLID
  5
2356
330
22BA
100
AcDbEntity
  8
BEM
 62
     0
440
 16777216
100
AcDbTrace
 10
813.3030066827851
 20
328.8667651608045
 30
0.0
 11
815.6363400161184
 21
328.8667651608045
 31
0.0
 12
814.4696733494518
 22
335.8667651608045
 32
0.0
 13
814.4696733494518
 23
335.8667651608045
 33
0.0
  0
MTEXT
  5
2357
330
22BA
100
AcDbEntity
  8
BEM
 62
     1
440
 16777216
100
AcDbMText
 10
807.9696733494516
 20
290.4585915055294
 30
0.0
 40
7.0
 41
0.0
 71
     5
 72
     1
  1
\A1;91
  7
GREEKS
 11
0.0000000000000001
 21
1.0
 31
0.0
 73
     1
 44
1.0
  0
POINT
  5
2358
330
22BA
100
AcDbEntity
  8
DEFPOINTS
 62
     0
440
 16777216
100
AcDbPoint
 10
792.9863643309554
 20
245.0504178502541
 30
0.0
  0
POINT
  5
2359
330
22BA
100
AcDbEntity
  8
DEFPOINTS
 62
     0
440
 16777216
100
AcDbPoint
 10
472.2594382713776
 20
335.8667651608046
 30
0.0
  0
POINT
  5
235A
330
22BA
100
AcDbEntity
  8
DEFPOINTS
 62
     0
440
 16777216
100
AcDbPoint
 10
814.4696733494518
 20
335.8667651608045
 30
0.0
  0
ENDBLK
  5
22C5
330
22BA
100
AcDbEntity
  8
0
100
AcDbBlockEnd
  0
BLOCK
  5
22D3
330
22C6
100
AcDbEntity
  8
0
100
AcDbBlockBegin
  2
*D6
 70
     1
 10
0.0
 20
0.0
 30
0.0
  3
*D6
  1

  0
LINE
  5
235B
330
22C6
100
AcDbEntity
  8
BEM
 62
     0
440
 16777216
370
    -2
100
AcDbLine
 10
770.4568559561489
 20
245.0504178502541
 30
0.0
 11
724.7798278813973
 21
245.0504178502545
 31
0.0
  0
ARC
  5
235C
330
22C6
100
AcDbEntity
  8
BEM
 62
     0
440
 16777216
370
    -2
100
AcDbCircle
 10
772.4568559561488
 20
245.0504178502541
 30
0.0
 40
45.67702807475157
100
AcDbArc
 50
159.369379408687
 51
177.0
  0
LINE
  5
235D
330
22C6
100
AcDbEntity
  8
BEM
 62
     0
440
 16777216
370
    -2
100
AcDbLine
 10
729.7090332380478
 20
261.1443467243186
 30
0.0
 11
734.0780722594089
 21
272.7491516787253
 31
0.0
  0
ARC
  5
235E
330
22C6
100
AcDbEntity
  8
BEM
 62
     0
440
 16777216
370
    -2
100
AcDbCircle
 10
772.4568559561488
 20
245.0504178502541
 30
0.0
 40
45.67702807475157
100
AcDbArc
 50
159.4216247354097
 51
168.2108123677048
  0
ARC
  5
235F
330
22C6
100
AcDbEntity
  8
BEM
 62
     0
440
 16777216
370
    -2
100
AcDbCircle
 10
772.4568559561488
 20
245.0504178502541
 30
0.0
 40
45.67702807475157
100
AcDbArc
 50
188.7891876322946
 51
197.5783752645898
  0
ARC
  5
2360
330
22C6
100
AcDbEntity
  8
BEM
 62
     0
440
 16777216
370
    -2
100
AcDbCircle
 10
772.4568559561488
 20
245.0504178502541
 30
0.0
 40
45.67702807475157
100
AcDbArc
 50
177.0
 51
179.9999999999995
  0
SOLID
  5
2361
330
22C6
100
AcDbEntity
  8
BEM
 62
     0
440
 16777216
100
AcDbTrace
 10
728.9003047064047
 20
254.2325996029962
 30
0.0
 11
726.5863769817451
 21
254.5329043307251
 31
0.0
 12
726.8424266608881
 22
247.440968792882
 32
0.0
 13
726.8424266608881
 23
247.440968792882
 33
0.0
  0
SOLID
  5
2362
330
22C6
100
AcDbEntity
  8
BEM
 62
     0
440
 16777216
100
AcDbTrace
 10
726.1529658814544
 20
237.9816021683924
 30
0.0
 11
728.4794391836769
 21
238.1603937187819
 31
0.0
 12
726.7798278813974
 22
245.0504178502545
 32
0.0
 13
726.7798278813974
 23
245.0504178502545
 33
0.0
  0
MTEXT
  5
2363
330
22C6
100
AcDbEntity
  8
BEM
 62
     1
440
 16777216
100
AcDbMText
 10
725.8103888613379
 20
269.236971269171
 30
0.0
 40
7.0
 41
0.0
 71
     5
 72
     1
  1
\A1;3°
  7
GREEKS
 11
0.3523418565613838
 21
0.9358713672908674
 31
0.0
 73
     1
 44
1.0
  0
POINT
  5
2364
330
22C6
100
AcDbEntity
  8
DEFPOINTS
 62
     0
440
 16777216
100
AcDbPoint
 10
726.7867847140147
 20
245.8475919090621
 30
0.0
  0
POINT
  5
2365
330
22C6
100
AcDbEntity
  8
DEFPOINTS
 62
     0
440
 16777216
100
AcDbPoint
 10
774.4568559561493
 20
245.050417850254
 30
0.0
  0
POINT
  5
2366
330
22C6
100
AcDbEntity
  8
DEFPOINTS
 62
     0
440
 16777216
100
AcDbPoint
 10
639.4082244474555
 20
252.0232011642723
 30
0.0
  0
POINT
  5
2367
330
22C6
100
AcDbEntity
  8
DEFPOINTS
 62
     0
440
 16777216
100
AcDbPoint
 10
777.4500033544945
 20
244.7887380834739
 30
0.0
  0
POINT
  5
2368
330
22C6
100
AcDbEntity
  8
DEFPOINTS
 62
     0
440
 16777216
100
AcDbPoint
 10
782.2746561199983
 20
245.0504178502539
 30
0.0
  0
ENDBLK
  5
22D4
330
22C6
100
AcDbEntity
  8
0
100
AcDbBlockEnd
  0
BLOCK
  5
22DF
330
22D5
100
AcDbEntity
  8
0
100
AcDbBlockBegin
  2
*D7
 70
     1
 10
0.0
 20
0.0
 30
0.0
  3
*D7
  1

  0
LINE
  5
237A
330
22D5
100
AcDbEntity
  8
BEM
 62
     0
440
 16777216
370
    -2
100
AcDbLine
 10
764.7014122270694
 20
194.382864472646
 30
0.0
 11
792.1799345383261
 21
192.9025315128443
 31
0.0
  0
LINE
  5
237B
330
22D5
100
AcDbEntity
  8
BEM
 62
     0
440
 16777216
370
    -2
100
AcDbLine
 10
770.1884422746481
 20
296.23527313963
 30
0.0
 11
797.6669645859049
 21
294.7549401798283
 31
0.0
  0
LINE
  5
237C
330
22D5
100
AcDbEntity
  8
BEM
 62
     0
440
 16777216
370
    -2
100
AcDbLine
 10
790.5593909798887
 20
199.9999844767749
 30
0.0
 11
795.2933000036336
 21
287.8726646512788
 31
0.0
  0
SOLID
  5
237D
330
22D5
100
AcDbEntity
  8
BEM
 62
     0
440
 16777216
100
AcDbTrace
 10
789.3944136055154
 20
200.0627445620944
 30
0.0
 11
791.7243683542619
 21
199.9372243914554
 31
0.0
 12
790.1828304679718
 22
193.0101202305348
 32
0.0
 13
790.1828304679718
 23
193.0101202305348
 33
0.0
  0
SOLID
  5
237E
330
22D5
100
AcDbEntity
  8
BEM
 62
     0
440
 16777216
100
AcDbTrace
 10
794.1283226292604
 20
287.9354247365983
 30
0.0
 11
796.458277378007
 21
287.8099045659594
 31
0.0
 12
795.6698605155507
 22
294.8625288975189
 32
0.0
 13
795.6698605155507
 23
294.8625288975189
 33
0.0
  0
MTEXT
  5
237F
330
22D5
100
AcDbEntity
  8
BEM
 62
     1
440
 16777216
100
AcDbMText
 10
786.4357572631099
 20
244.2859878965212
 30
0.0
 40
7.0
 41
0.0
 71
     5
 72
     1
  1
\A1;%%c101.6
  7
GREEKS
 11
0.0537943588452819
 21
0.9985520351771484
 31
0.0
 73
     1
 44
1.0
  0
POINT
  5
2380
330
22D5
100
AcDbEntity
  8
DEFPOINTS
 62
     0
440
 16777216
100
AcDbPoint
 10
762.7043081567152
 20
194.4904531903366
 30
0.0
  0
POINT
  5
2381
330
22D5
100
AcDbEntity
  8
DEFPOINTS
 62
     0
440
 16777216
100
AcDbPoint
 10
768.191338204294
 20
296.3428618573206
 30
0.0
  0
POINT
  5
2382
330
22D5
100
AcDbEntity
  8
DEFPOINTS
 62
     0
440
 16777216
100
AcDbPoint
 10
795.6698605155507
 20
294.8625288975189
 30
0.0
  0
ENDBLK
  5
22E0
330
22D5
100
AcDbEntity
  8
0
100
AcDbBlockEnd
  0
BLOCK
  5
241E
330
2414
100
AcDbEntity
  8
0
100
AcDbBlockBegin
  2
*D8
 70
     1
 10
0.0
 20
0.0
 30
0.0
  3
*D8
  1

  0
LINE
  5
2453
330
2414
100
AcDbEntity
  8
BEM
 62
     0
440
 16777216
370
    -2
100
AcDbLine
 10
272.2356792660537
 20
275.8667651608045
 30
0.0
 11
171.8869296706961
 21
275.8667651608045
 31
0.0
  0
LINE
  5
2454
330
2414
100
AcDbEntity
  8
BEM
 62
     0
440
 16777216
370
    -2
100
AcDbLine
 10
195.2356792660537
 20
335.8667651608045
 30
0.0
 11
171.8869296706962
 21
335.8667651608045
 31
0.0
  0
LINE
  5
2455
330
2414
100
AcDbEntity
  8
BEM
 62
     0
440
 16777216
370
    -2
100
AcDbLine
 10
173.8869296706961
 20
282.8667651608045
 30
0.0
 11
173.8869296706962
 21
328.8667651608045
 31
0.0
  0
SOLID
  5
2456
330
2414
100
AcDbEntity
  8
BEM
 62
     0
440
 16777216
100
AcDbTrace
 10
172.7202630040295
 20
282.8667651608045
 30
0.0
 11
175.0535963373628
 21
282.8667651608045
 31
0.0
 12
173.8869296706961
 22
275.8667651608045
 32
0.0
 13
173.8869296706961
 23
275.8667651608045
 33
0.0
  0
SOLID
  5
2457
330
2414
100
AcDbEntity
  8
BEM
 62
     0
440
 16777216
100
AcDbTrace
 10
172.7202630040295
 20
328.8667651608045
 30
0.0
 11
175.0535963373628
 21
328.8667651608045
 31
0.0
 12
173.8869296706962
 22
335.8667651608045
 32
0.0
 13
173.8869296706962
 23
335.8667651608045
 33
0.0
  0
MTEXT
  5
2458
330
2414
100
AcDbEntity
  8
BEM
 62
     1
440
 16777216
100
AcDbMText
 10
167.3869296706961
 20
305.8667651608045
 30
0.0
 40
7.0
 41
0.0
 71
     5
 72
     1
  1
\A1;60
  7
GREEKS
 11
0.0000000000000001
 21
1.0
 31
0.0
 73
     1
 44
1.0
  0
POINT
  5
2459
330
2414
100
AcDbEntity
  8
DEFPOINTS
 62
     0
440
 16777216
100
AcDbPoint
 10
274.2356792660537
 20
275.8667651608045
 30
0.0
  0
POINT
  5
245A
330
2414
100
AcDbEntity
  8
DEFPOINTS
 62
     0
440
 16777216
100
AcDbPoint
 10
197.2356792660537
 20
335.8667651608045
 30
0.0
  0
POINT
  5
245B
330
2414
100
AcDbEntity
  8
DEFPOINTS
 62
     0
440
 16777216
100
AcDbPoint
 10
173.8869296706962
 20
335.8667651608045
 30
0.0
  0
ENDBLK
  5
241F
330
2414
100
AcDbEntity
  8
0
100
AcDbBlockEnd
  0
BLOCK
  5
242A
330
2420
100
AcDbEntity
  8
0
100
AcDbBlockBegin
  2
*D9
 70
     1
 10
0.0
 20
0.0
 30
0.0
  3
*D9
  1

  0
LINE
  5
2441
330
2420
100
AcDbEntity
  8
BEM
 62
     0
440
 16777216
370
    -2
100
AcDbLine
 10
197.2356792660537
 20
333.8667651608045
 30
0.0
 11
197.2356792660537
 21
217.2255804227591
 31
0.0
  0
LINE
  5
2442
330
2420
100
AcDbEntity
  8
BEM
 62
     0
440
 16777216
370
    -2
100
AcDbLine
 10
265.2356792660537
 20
282.8667651608045
 30
0.0
 11
265.2356792660537
 21
217.2255804227591
 31
0.0
  0
LINE
  5
2443
330
2420
100
AcDbEntity
  8
BEM
 62
     0
440
 16777216
370
    -2
100
AcDbLine
 10
204.2356792660537
 20
219.2255804227591
 30
0.0
 11
258.2356792660537
 21
219.2255804227591
 31
0.0
  0
SOLID
  5
2444
330
2420
100
AcDbEntity
  8
BEM
 62
     0
440
 16777216
100
AcDbTrace
 10
204.2356792660537
 20
220.3922470894257
 30
0.0
 11
204.2356792660537
 21
218.0589137560924
 31
0.0
 12
197.2356792660537
 22
219.2255804227591
 32
0.0
 13
197.2356792660537
 23
219.2255804227591
 33
0.0
  0
SOLID
  5
2445
330
2420
100
AcDbEntity
  8
BEM
 62
     0
440
 16777216
100
AcDbTrace
 10
258.2356792660537
 20
220.3922470894257
 30
0.0
 11
258.2356792660537
 21
218.0589137560924
 31
0.0
 12
265.2356792660537
 22
219.2255804227591
 32
0.0
 13
265.2356792660537
 23
219.2255804227591
 33
0.0
  0
MTEXT
  5
2446
330
2420
100
AcDbEntity
  8
BEM
 62
     1
440
 16777216
100
AcDbMText
 10
231.2356792660537
 20
225.725580422759
 30
0.0
 40
7.0
 41
0.0
 71
     5
 72
     1
  1
\A1;68
  7
GREEKS
 73
     1
 44
1.0
  0
POINT
  5
2447
330
2420
100
AcDbEntity
  8
DEFPOINTS
 62
     0
440
 16777216
100
AcDbPoint
 10
197.2356792660537
 20
335.8667651608045
 30
0.0
  0
POINT
  5
2448
330
2420
100
AcDbEntity
  8
DEFPOINTS
 62
     0
440
 16777216
100
AcDbPoint
 10
265.2356792660537
 20
284.8667651608045
 30
0.0
  0
POINT
  5
2449
330
2420
100
AcDbEntity
  8
DEFPOINTS
 62
     0
440
 16777216
100
AcDbPoint
 10
265.2356792660537
 20
219.2255804227591
 30
0.0
  0
ENDBLK
  5
242B
330
2420
100
AcDbEntity
  8
0
100
AcDbBlockEnd
  0
BLOCK
  5
2436
330
242C
100
AcDbEntity
  8
0
100
AcDbBlockBegin
  2
*D10
 70
     1
 10
0.0
 20
0.0
 30
0.0
  3
*D10
  1

  0
LINE
  5
244A
330
242C
100
AcDbEntity
  8
BEM
 62
     0
440
 16777216
370
    -2
100
AcDbLine
 10
265.2356792660537
 20
283.8667651608045
 30
0.0
 11
265.2356792660537
 21
217.2255804227591
 31
0.0
  0
LINE
  5
244B
330
242C
100
AcDbEntity
  8
BEM
 62
     0
440
 16777216
370
    -2
100
AcDbLine
 10
465.2356792660537
 20
283.866765160805
 30
0.0
 11
465.2356792660537
 21
217.2255804227591
 31
0.0
  0
LINE
  5
244C
330
242C
100
AcDbEntity
  8
BEM
 62
     0
440
 16777216
370
    -2
100
AcDbLine
 10
272.2356792660537
 20
219.2255804227591
 30
0.0
 11
458.2356792660537
 21
219.2255804227591
 31
0.0
  0
SOLID
  5
244D
330
242C
100
AcDbEntity
  8
BEM
 62
     0
440
 16777216
100
AcDbTrace
 10
272.2356792660537
 20
220.3922470894257
 30
0.0
 11
272.2356792660537
 21
218.0589137560924
 31
0.0
 12
265.2356792660537
 22
219.2255804227591
 32
0.0
 13
265.2356792660537
 23
219.2255804227591
 33
0.0
  0
SOLID
  5
244E
330
242C
100
AcDbEntity
  8
BEM
 62
     0
440
 16777216
100
AcDbTrace
 10
458.2356792660537
 20
220.3922470894257
 30
0.0
 11
458.2356792660537
 21
218.0589137560924
 31
0.0
 12
465.2356792660537
 22
219.2255804227591
 32
0.0
 13
465.2356792660537
 23
219.2255804227591
 33
0.0
  0
MTEXT
  5
244F
330
242C
100
AcDbEntity
  8
BEM
 62
     1
440
 16777216
100
AcDbMText
 10
365.2356792660537
 20
225.725580422759
 30
0.0
 40
7.0
 41
0.0
 71
     5
 72
     1
  1
\A1;200
  7
GREEKS
 73
     1
 44
1.0
  0
POINT
  5
2450
330
242C
100
AcDbEntity
  8
DEFPOINTS
 62
     0
440
 16777216
100
AcDbPoint
 10
265.2356792660537
 20
285.8667651608045
 30
0.0
  0
POINT
  5
2451
330
242C
100
AcDbEntity
  8
DEFPOINTS
 62
     0
440
 16777216
100
AcDbPoint
 10
465.2356792660537
 20
285.866765160805
 30
0.0
  0
POINT
  5
2452
330
242C
100
AcDbEntity
  8
DEFPOINTS
 62
     0
440
 16777216
100
AcDbPoint
 10
465.2356792660537
 20
219.2255804227591
 30
0.0
  0
ENDBLK
  5
2437
330
242C
100
AcDbEntity
  8
0
100
AcDbBlockEnd
  0
ENDSEC
  0
SECTION
  2
ENTITIES
  0
LINE
  5
2B9
330
1101
100
AcDbEntity
  8
STEMPEL
100
AcDbLine
 10
830.0
 20
109.9999999999999
 30
0.0
 11
470.0
 21
109.9999999999999
 31
0.0
  0
LINE
  5
2BA
330
1101
100
AcDbEntity
  8
STEMPEL
100
AcDbLine
 10
566.0
 20
109.9999999999996
 30
0.0
 11
566.0
 21
10.0
 31
0.0
  0
LINE
  5
2BB
330
1101
100
AcDbEntity
  8
STEMPEL
100
AcDbLine
 10
650.0
 20
109.9999999999999
 30
0.0
 11
650.0
 21
10.0
 31
0.0
  0
LINE
  5
2BC
330
1101
100
AcDbEntity
  8
STEMPEL
100
AcDbLine
 10
752.0
 20
109.9999999999996
 30
0.0
 11
752.0
 21
40.0
 31
0.0
  0
LINE
  5
2BD
330
1101
100
AcDbEntity
  8
STEMPEL
100
AcDbLine
 10
565.9999999999997
 20
30.0
 30
0.0
 11
470.0
 21
30.0
 31
0.0
  0
LINE
  5
2BE
330
1101
100
AcDbEntity
  8
STEMPEL
100
AcDbLine
 10
830.0
 20
40.0
 30
0.0
 11
566.0
 21
40.0
 31
0.0
  0
LINE
  5
2BF
330
1101
100
AcDbEntity
  8
STEMPEL
100
AcDbLine
 10
830.0
 20
80.0
 30
0.0
 11
566.0
 21
79.99999999999977
 31
0.0
  0
LINE
  5
2C0
330
1101
100
AcDbEntity
  8
VOLL
100
AcDbLine
 10
484.0000000000001
 20
109.9999999999999
 30
0.0
 11
484.0
 21
10.0
 31
0.0
  0
LINE
  5
2C1
330
1101
100
AcDbEntity
  8
VOLL
100
AcDbLine
 10
524.0
 20
109.9999999999996
 30
0.0
 11
524.0
 21
10.0
 31
0.0
  0
LINE
  5
2C2
330
1101
100
AcDbEntity
  8
VOLL
100
AcDbLine
 10
544.0
 20
109.9999999999996
 30
0.0
 11
544.0
 21
10.0
 31
0.0
  0
LINE
  5
2C3
330
1101
100
AcDbEntity
  8
VOLL
100
AcDbLine
 10
584.0
 20
79.99999999999977
 30
0.0
 11
584.0
 21
40.0
 31
0.0
  0
LINE
  5
2C4
330
1101
100
AcDbEntity
  8
VOLL
100
AcDbLine
 10
610.0
 20
109.9999999999996
 30
0.0
 11
610.0
 21
40.0
 31
0.0
  0
LINE
  5
2C5
330
1101
100
AcDbEntity
  8
HILF
100
AcDbLine
 10
470.0000000000001
 20
99.99999999999989
 30
0.0
 11
566.0
 21
99.99999999999989
 31
0.0
  0
LINE
  5
2C6
330
1101
100
AcDbEntity
  8
HILF
100
AcDbLine
 10
470.0000000000001
 20
89.99999999999989
 30
0.0
 11
566.0
 21
89.99999999999989
 31
0.0
  0
LINE
  5
2C7
330
1101
100
AcDbEntity
  8
HILF
100
AcDbLine
 10
470.0000000000001
 20
79.99999999999977
 30
0.0
 11
566.0
 21
79.99999999999977
 31
0.0
  0
LINE
  5
2C8
330
1101
100
AcDbEntity
  8
HILF
100
AcDbLine
 10
470.0000000000001
 20
69.99999999999977
 30
0.0
 11
566.0
 21
69.99999999999977
 31
0.0
  0
LINE
  5
2C9
330
1101
100
AcDbEntity
  8
HILF
100
AcDbLine
 10
470.0000000000001
 20
60.0
 30
0.0
 11
566.0
 21
60.0
 31
0.0
  0
LINE
  5
2CA
330
1101
100
AcDbEntity
  8
HILF
100
AcDbLine
 10
470.0000000000001
 20
50.0
 30
0.0
 11
566.0
 21
50.0
 31
0.0
  0
LINE
  5
2CB
330
1101
100
AcDbEntity
  8
HILF
100
AcDbLine
 10
470.0000000000001
 20
40.0
 30
0.0
 11
566.0
 21
40.0
 31
0.0
  0
LINE
  5
2CC
330
1101
100
AcDbEntity
  8
HILF
100
AcDbLine
 10
566.0
 20
69.99999999999977
 30
0.0
 11
650.0
 21
69.99999999999977
 31
0.0
  0
LINE
  5
2CD
330
1101
100
AcDbEntity
  8
HILF
100
AcDbLine
 10
566.0
 20
60.0
 30
0.0
 11
650.0
 21
60.0
 31
0.0
  0
LINE
  5
2CE
330
1101
100
AcDbEntity
  8
HILF
100
AcDbLine
 10
566.0
 20
50.0
 30
0.0
 11
650.0
 21
50.0
 31
0.0
  0
LINE
  5
2CF
330
1101
100
AcDbEntity
  8
HILF
100
AcDbLine
 10
654.7736801096946
 20
84.03758247564121
 30
0.0
 11
744.8353916556309
 21
84.03758247564121
 31
0.0
  0
LINE
  5
2D0
330
1101
100
AcDbEntity
  8
HILF
100
AcDbLine
 10
654.7736801096946
 20
69.99999999999977
 30
0.0
 11
744.8353916556309
 21
69.99999999999977
 31
0.0
  0
LINE
  5
2D1
330
1101
100
AcDbEntity
  8
HILF
100
AcDbLine
 10
654.7736801096946
 20
60.0
 30
0.0
 11
744.8353916556309
 21
60.0
 31
0.0
  0
LINE
  5
2D2
330
1101
100
AcDbEntity
  8
HILF
100
AcDbLine
 10
654.7736801096946
 20
50.0
 30
0.0
 11
744.8353916556309
 21
50.0
 31
0.0
  0
LINE
  5
2D3
330
1101
100
AcDbEntity
  8
VOLL
100
AcDbLine
 10
752.0
 20
60.0
 30
0.0
 11
830.0
 21
60.0
 31
0.0
  0
LINE
  5
2D4
330
1101
100
AcDbEntity
  8
HILF
100
AcDbLine
 10
756.7238616296992
 20
83.77983636955798
 30
0.0
 11
824.8588839326728
 21
83.77983636955798
 31
0.0
  0
LINE
  5
2D5
330
1101
100
AcDbEntity
  8
HILF
100
AcDbLine
 10
653.4909699289885
 20
14.89398258028314
 30
0.0
 11
824.8588839326728
 21
14.89398258028314
 31
0.0
  0
TEXT
  5
2D6
330
1101
100
AcDbEntity
  8
TEXT
100
AcDbText
 10
492.7826069847975
 20
18.67381894984123
 30
0.0
 40
4.0
  1
Änderung
 41
0.8
  7
GREEKS
 72
     1
 11
503.5254641276546
 21
18.67381894984123
 31
0.0
100
AcDbText
  0
TEXT
  5
2D7
330
1101
100
AcDbEntity
  8
TEXT
100
AcDbText
 10
573.5163572150376
 20
102.4620895087085
 30
0.0
 40
5.0
  1
Maßstab
 41
0.8
  7
GREEKS
100
AcDbText
  0
TEXT
  5
2D8
330
1101
100
AcDbEntity
  8
TEXT
100
AcDbText
 10
614.2858954734052
 20
102.4184168434816
 30
0.0
 40
5.0
  1
Zul. Abw.
 41
0.8
  7
GREEKS
100
AcDbText
  0
TEXT
  5
2D9
330
1101
100
AcDbEntity
  8
TEXT
100
AcDbText
 10
654.8779403809009
 20
102.5489328011778
 30
0.0
 40
5.0
  1
Benennung
 41
0.8
  7
GREEKS
100
AcDbText
  0
TEXT
  5
2DA
330
1101
100
AcDbEntity
  8
TEXT
100
AcDbText
 10
756.178754957634
 20
102.3132034537135
 30
0.0
 40
5.0
  1
Zeichnungs Nr.
 41
0.8
  7
GREEKS
100
AcDbText
  0
TEXT
  5
2DB
330
1101
100
AcDbEntity
  8
TEXT
100
AcDbText
 10
654.7422383911359
 20
30.84560570193048
 30
0.0
 40
5.0
  1
Bauvorhaben
 41
0.8
  7
GREEKS
100
AcDbText
  0
TEXT
  5
2DC
330
1101
100
AcDbEntity
  8
TEXT
100
AcDbText
 10
756.7238616296992
 20
73.18118237099952
 30
0.0
 40
5.0
  1
Ersatz für:
 41
0.8
  7
GREEKS
100
AcDbText
  0
TEXT
  5
2DD
330
1101
100
AcDbEntity
  8
TEXT
100
AcDbText
 10
478.2664110704575
 20
13.65465846027177
 30
0.0
 40
4.0
  1
Index
 50
90.0
 41
0.8
  7
GREEKS
100
AcDbText
  0
TEXT
  5
2DE
330
1101
100
AcDbEntity
  8
TEXT
100
AcDbText
 10
530.0571803261054
 20
18.67156269339807
 30
0.0
 40
4.0
  1
Tag
 41
0.8
  7
GREEKS
 72
     1
 11
533.7905136594388
 21
18.67156269339807
 31
0.0
100
AcDbText
  0
TEXT
  5
2DF
330
1101
100
AcDbEntity
  8
TEXT
100
AcDbText
 10
548.6614567187547
 20
18.59324216966411
 30
0.0
 40
4.0
  1
Name
 41
0.8
  7
GREEKS
 72
     1
 11
554.9852662425641
 21
18.59324216966411
 31
0.0
100
AcDbText
  0
TEXT
  5
2E0
330
1101
100
AcDbEntity
  8
TEXT
100
AcDbText
 10
592.3311673153651
 20
73.31880501229921
 30
0.0
 40
4.0
  1
Tag
 41
0.8
  7
GREEKS
100
AcDbText
  0
TEXT
  5
2E1
330
1101
100
AcDbEntity
  8
TEXT
100
AcDbText
 10
622.4626584226293
 20
73.30961091915219
 30
0.0
 40
4.0
  1
Name
 41
0.8
  7
GREEKS
100
AcDbText
  0
TEXT
  5
2E2
330
1101
100
AcDbEntity
  8
TEXT
100
AcDbText
 10
567.5836127167615
 20
63.62990369617955
 30
0.0
 40
4.0
  1
Gez.
 41
0.8
  7
GREEKS
100
AcDbText
  0
TEXT
  5
2E3
330
1101
100
AcDbEntity
  8
TEXT
100
AcDbText
 10
567.5515086571672
 20
53.68926291428374
 30
0.0
 40
4.0
  1
Gepr.
 41
0.8
  7
GREEKS
100
AcDbText
  0
TEXT
  5
2E4
330
1101
100
AcDbEntity
  8
TEXT
100
AcDbText
 10
567.6006777387303
 20
43.5294638964981
 30
0.0
 40
4.0
  1
Norm.
 41
0.8
  7
GREEKS
100
AcDbText
  0
LINE
  5
2E5
330
1101
100
AcDbEntity
  8
STEMPEL
100
AcDbLine
 10
479.9999999999998
 20
10.0
 30
0.0
 11
830.0
 21
10.0
 31
0.0
  0
TEXT
  5
2E6
330
1101
100
AcDbEntity
  8
TEXT
100
AcDbText
 10
757.2400861497006
 20
52.07416177878599
 30
0.0
 40
5.0
  1
ersetzt durch:
 41
0.8
  7
GREEKS
100
AcDbText
  0
LINE
  5
2E7
330
1101
100
AcDbEntity
  8
STEMPEL
100
AcDbLine
 10
830.0
 20
10.0
 30
0.0
 11
39.99999999999997
 21
10.0
 31
0.0
  0
LINE
  5
2E8
330
1101
100
AcDbEntity
  8
STEMPEL
100
AcDbLine
 10
830.0
 20
10.0
 30
0.0
 11
830.0
 21
583.9999999999998
 31
0.0
  0
LINE
  5
2E9
330
1101
100
AcDbEntity
  8
STEMPEL
100
AcDbLine
 10
470.0
 20
10.0
 30
0.0
 11
470.0
 21
109.9999999999999
 31
0.0
  0
LINE
  5
2EA
330
1101
100
AcDbEntity
  8
STEMPEL
100
AcDbLine
 10
830.0
 20
583.9999999999998
 30
0.0
 11
39.99999999999986
 21
583.9999999999998
 31
0.0
  0
LINE
  5
2EB
330
1101
100
AcDbEntity
  8
HILF
100
AcDbLine
 10
839.9999999999998
 20
594.0000000000001
 30
0.0
 11
-0.0000000000002274
 21
593.9999999999996
 31
0.0
  0
LINE
  5
2EC
330
1101
100
AcDbEntity
  8
HILF
100
AcDbLine
 10
840.0
 20
0.0
 30
0.0
 11
0.0
 21
0.0
 31
0.0
  0
LINE
  5
2ED
330
1101
100
AcDbEntity
  8
HILF
100
AcDbLine
 10
31.08767135713847
 20
296.9999999999998
 30
0.0
 11
0.0
 21
296.9999999999998
 31
0.0
  0
TEXT
  5
2EE
330
1101
100
AcDbEntity
  8
TEXT
100
AcDbText
 10
568.6221098221039
 20
73.14025471151649
 30
0.0
 40
4.0
  1
2015
 41
0.8
  7
GREEKS
100
AcDbText
  0
LINE
  5
2EF
330
1101
100
AcDbEntity
  8
HILF
100
AcDbLine
 10
840.0
 20
-0.0000000000002274
 30
0.0
 11
839.9999999999998
 21
593.9999999999998
 31
0.0
  0
TEXT
  5
2F0
330
1101
100
AcDbEntity
  8
VOLL
100
AcDbText
 10
78.07675471698113
 20
31.02594776470585
 30
0.0
 40
1.8
  1

  7
GREEKS
100
AcDbText
  0
TEXT
  5
2F1
330
1101
100
AcDbEntity
  8
TEXT
100
AcDbText
 10
471.8550995097768
 20
111.6719999999997
 30
0.0
 40
5.0
  1
Erstellt mit AUTOCAD 2004
 41
0.8
  7
GREEKS
100
AcDbText
  0
TEXT
  5
2F2
330
1101
100
AcDbEntity
  8
TEXT
100
AcDbText
 10
624.4216048581257
 20
63.0896391972351
 30
0.0
 40
4.0
  1
Koeh
 41
0.8
  7
GREEKS
 72
     1
 11
629.6787477152686
 21
63.0896391972351
 31
0.0
100
AcDbText
  0
TEXT
  5
2F3
330
1101
100
AcDbEntity
  8
TEXT
 62
     1
100
AcDbText
 10
768.6977935463264
 20
88.14901428913946
 30
0.0
 40
7.0
  1
13720100X
 41
0.8
  7
GREEKS
 72
     1
 11
790.8311268796597
 21
88.14901428913946
 31
0.0
100
AcDbText
  0
TEXT
  5
2F4
330
1101
100
AcDbEntity
  8
TEXT
 62
     1
100
AcDbText
 10
580.5006306481886
 20
88.14901428913946
 30
0.0
 40
7.0
  1
1:2
 41
0.8
  7
GREEKS
100
AcDbText
  0
TEXT
  5
2F5
330
1101
100
AcDbEntity
  8
TEXT
100
AcDbText
 10
590.703759012998
 20
63.10765040825732
 30
0.0
 40
4.0
  1
30.01.
 41
0.8
  7
GREEKS
 72
     1
 11
597.4085209177599
 21
63.10765040825732
 31
0.0
100
AcDbText
  0
TEXT
  5
2F6
330
1101
100
AcDbEntity
  8
TEXT
 62
     1
100
AcDbText
 10
655.0506768857031
 20
87.41748789253767
 30
0.0
 40
7.0
  1
Rainstar Grundeinheit
 41
0.8
  7
GREEKS
100
AcDbText
  0
TEXT
  5
2F7
330
1101
100
AcDbEntity
  8
TEXT
100
AcDbText
 10
655.1296391125315
 20
71.50334417585281
 30
0.0
 40
5.0
  1
DN100 Typ RA
 41
0.8
  7
GREEKS
100
AcDbText
  0
TEXT
  5
2F8
330
1101
100
AcDbEntity
  8
TEXT
100
AcDbText
 10
655.1296391125315
 20
62.11580706774862
 30
0.0
 40
5.0
  1
für Folienklemmung
 41
0.8
  7
GREEKS
100
AcDbText
  0
TEXT
  5
2F9
330
1101
100
AcDbEntity
  8
TEXT
100
AcDbText
 10
655.1296391125315
 20
51.64011943042146
 30
0.0
 40
5.0
  1
EDV-Art.Nr. 13720.100X
 41
0.8
  7
GREEKS
100
AcDbText
  0
TEXT
  5
2FA
330
1101
100
AcDbEntity
  8
TEXT
100
AcDbText
 10
654.9837501577826
 20
42.62974153022628
 30
0.0
 40
4.0
  1
13720.100X.DWG
 41
0.8
  7
GREEKS
100
AcDbText
  0
TEXT
  5
2FB
330
1101
100
AcDbEntity
  8
TEXT
100
AcDbText
 10
612.6261322080839
 20
90.7636384102301
 30
0.0
 40
4.0
  1
DIN EN1124-3
 41
0.8
  7
GREEKS
 72
     1
 11
629.6166083985601
 21
90.7636384102301
 31
0.0
100
AcDbText
  0
INSERT
  5
2FC
330
1101
100
AcDbEntity
  8
STEMPEL
100
AcDbBlockReference
  2
LOGO
 10
570.9955485457794
 20
45.0210527644831
 30
0.0
 41
2.0
 42
2.0
 43
2.0
  0
LINE
  5
2FD
330
1101
100
AcDbEntity
  8
HILF
100
AcDbLine
 10
0.0
 20
0.0
 30
0.0
 11
-0.0000000000002274
 21
593.9999999999996
 31
0.0
  0
LINE
  5
2FE
330
1101
100
AcDbEntity
  8
STEMPEL
100
AcDbLine
 10
39.99999999999997
 20
10.0
 30
0.0
 11
39.99999999999986
 21
583.9999999999998
 31
0.0
  0
LINE
  5
2FF
330
1101
100
AcDbEntity
  8
HILF
 62
     7
100
AcDbLine
 10
460.0
 20
-0.0000000000002274
 30
0.0
 11
460.0
 21
10.0
 31
0.0
  0
LINE
  5
300
330
1101
100
AcDbEntity
  8
HILF
 62
     7
100
AcDbLine
 10
459.9999999999998
 20
583.9999999999998
 30
0.0
 11
459.9999999999998
 21
593.9999999999996
 31
0.0
  0
TEXT
  5
301
330
1101
100
AcDbEntity
  8
TEXT
100
AcDbText
 10
836.5811541437437
 20
12.14804815338303
 30
0.0
 40
4.0
  1
Diese Zeichnung ist urheberrechtlich geschützt und bleibt unser Eigentum. Sie darf weder ganz noch teilweise vervielfältigt und nicht an Dritte weitergegeben werden.
 50
90.0
 41
0.8
  7
GREEKS
100
AcDbText
  0
TEXT
  5
1895
330
1101
100
AcDbEntity
  8
TEXT
 62
     1
100
AcDbText
 10
182.2186771577113
 20
143.6803049909653
 30
0.0
 40
7.0
  1
Spaltbreite zwischen Fest- und Losflansch ohne Dichtung max. 3.5mm
 41
0.8
  7
GREEKS
100
AcDbText
  0
LINE
  5
19E3
330
1101
100
AcDbEntity
  8
STEMPEL
100
AcDbLine
 10
271.2356792660537
 20
335.8667651608045
 30
0.0
 11
271.2356792660537
 21
338.8667651608045
 31
0.0
  0
LINE
  5
19EE
330
1101
100
AcDbEntity
  8
STEMPEL
100
AcDbLine
 10
449.9594382713772
 20
409.8657478552809
 30
0.0
 11
449.9594382713772
 21
401.8657478552808
 31
0.0
  0
LINE
  5
19EF
330
1101
100
AcDbEntity
  8
STEMPEL
100
AcDbLine
 10
450.9594382713769
 20
400.8657478552805
 30
0.0
 11
453.4594382713774
 21
400.8657478552806
 31
0.0
  0
LINE
  5
19F0
330
1101
100
AcDbEntity
  8
STEMPEL
100
AcDbLine
 10
450.9594382713768
 20
410.8657478552808
 30
0.0
 11
453.4594382713773
 21
410.865747855281
 31
0.0
  0
LINE
  5
19F1
330
1101
100
AcDbEntity
  8
HILF
100
AcDbLine
 10
449.9594382713772
 20
401.8657478552808
 30
0.0
 11
453.4594382713774
 21
401.8657478552807
 31
0.0
  0
LINE
  5
19F2
330
1101
100
AcDbEntity
  8
HILF
100
AcDbLine
 10
449.9594382713772
 20
409.8657478552809
 30
0.0
 11
453.4594382713773
 21
409.8657478552809
 31
0.0
  0
ARC
  5
19F4
330
1101
100
AcDbEntity
  8
STEMPEL
100
AcDbCircle
 10
472.2594382713776
 20
341.5667651608044
 30
0.0
 40
5.7
100
AcDbArc
 50
270.0
 51
315.0
  0
ARC
  5
19F5
330
1101
100
AcDbEntity
  8
STEMPEL
100
AcDbCircle
 10
472.2594382713776
 20
341.5667651608044
 30
0.0
 40
2.7
100
AcDbArc
 50
270.0
 51
315.0
  0
LINE
  5
19F7
102
{ACAD_REACTORS
330
219A
102
}
330
1101
100
AcDbEntity
  8
STEMPEL
100
AcDbLine
 10
197.2356792660537
 20
338.8667651608045
 30
0.0
 11
472.2594382713776
 21
338.8667651608045
 31
0.0
  0
LINE
  5
19F9
330
1101
100
AcDbEntity
  8
STEMPEL
100
AcDbLine
 10
449.9594382713772
 20
409.8657478552809
 30
0.0
 11
450.9594382713768
 21
410.8657478552808
 31
0.0
  0
LINE
  5
19FA
330
1101
100
AcDbEntity
  8
STEMPEL
100
AcDbLine
 10
450.9594382713769
 20
400.8657478552805
 30
0.0
 11
449.9594382713772
 21
401.8657478552808
 31
0.0
  0
LINE
  5
19FB
330
1101
100
AcDbEntity
  8
STEMPEL
100
AcDbLine
 10
450.9594382713769
 20
400.8657478552805
 30
0.0
 11
450.9594382713768
 21
410.8657478552808
 31
0.0
  0
LINE
  5
19FC
102
{ACAD_REACTORS
330
1ADF
330
1FDE
102
}
330
1101
100
AcDbEntity
  8
MITTEL
100
AcDbLine
 10
444.9594382713772
 20
405.8657478552807
 30
0.0
 11
477.9594382713772
 21
405.8657478552808
 31
0.0
  0
LINE
  5
19FE
330
1101
100
AcDbEntity
  8
STEMPEL
100
AcDbLine
 10
418.5080926255753
 20
363.8667651608041
 30
0.0
 11
419.5080926255752
 21
362.866765160804
 31
0.0
  0
LINE
  5
19FF
330
1101
100
AcDbEntity
  8
HILF
100
AcDbLine
 10
418.5080926255753
 20
363.8667651608041
 30
0.0
 11
418.5080926255753
 21
360.3667651608048
 31
0.0
  0
LINE
  5
1A00
330
1101
100
AcDbEntity
  8
STEMPEL
100
AcDbLine
 10
419.5080926255752
 20
362.866765160804
 30
0.0
 11
419.5080926255752
 21
360.3667651608048
 31
0.0
  0
LINE
  5
1A01
330
1101
100
AcDbEntity
  8
STEMPEL
100
AcDbLine
 10
409.5080926255752
 20
362.866765160804
 30
0.0
 11
410.5080926255753
 21
363.8667651608041
 31
0.0
  0
LINE
  5
1A02
330
1101
100
AcDbEntity
  8
HILF
100
AcDbLine
 10
410.5080926255753
 20
363.8667651608041
 30
0.0
 11
410.5080926255753
 21
360.3667651608048
 31
0.0
  0
LINE
  5
1A03
330
1101
100
AcDbEntity
  8
STEMPEL
100
AcDbLine
 10
409.5080926255752
 20
362.866765160804
 30
0.0
 11
409.5080926255752
 21
360.3667651608048
 31
0.0
  0
LINE
  5
1A04
330
1101
100
AcDbEntity
  8
STEMPEL
100
AcDbLine
 10
410.5080926255753
 20
363.8667651608041
 30
0.0
 11
418.5080926255753
 21
363.8667651608041
 31
0.0
  0
LINE
  5
1A05
330
1101
100
AcDbEntity
  8
STEMPEL
100
AcDbLine
 10
410.5080926255753
 20
363.8667651608041
 30
0.0
 11
418.5080926255753
 21
363.8667651608041
 31
0.0
  0
LINE
  5
1A06
330
1101
100
AcDbEntity
  8
STEMPEL
100
AcDbLine
 10
409.5080926255752
 20
362.866765160804
 30
0.0
 11
419.5080926255752
 21
362.866765160804
 31
0.0
  0
LINE
  5
1A07
102
{ACAD_REACTORS
330
219A
102
}
330
1101
100
AcDbEntity
  8
MITTEL
100
AcDbLine
 10
414.5080926255753
 20
368.866765160804
 30
0.0
 11
414.5080926255753
 21
335.8667651608045
 31
0.0
  0
LINE
  5
1A08
330
1101
100
AcDbEntity
  8
STEMPEL
100
AcDbLine
 10
393.2356792660537
 20
335.8667651608045
 30
0.0
 11
393.2356792660537
 21
338.8667651608045
 31
0.0
  0
LINE
  5
1A09
330
1101
100
AcDbEntity
  8
STEMPEL
100
AcDbLine
 10
336.2356792660537
 20
363.8667651608041
 30
0.0
 11
337.2356792660537
 21
362.866765160804
 31
0.0
  0
LINE
  5
1A0A
330
1101
100
AcDbEntity
  8
HILF
100
AcDbLine
 10
336.2356792660537
 20
363.8667651608041
 30
0.0
 11
336.2356792660536
 21
360.3667651608049
 31
0.0
  0
LINE
  5
1A0B
330
1101
100
AcDbEntity
  8
STEMPEL
100
AcDbLine
 10
337.2356792660537
 20
362.866765160804
 30
0.0
 11
337.2356792660537
 21
360.3667651608049
 31
0.0
  0
LINE
  5
1A0C
330
1101
100
AcDbEntity
  8
STEMPEL
100
AcDbLine
 10
327.2356792660537
 20
362.866765160804
 30
0.0
 11
328.2356792660537
 21
363.8667651608041
 31
0.0
  0
LINE
  5
1A0D
330
1101
100
AcDbEntity
  8
HILF
100
AcDbLine
 10
328.2356792660537
 20
363.8667651608041
 30
0.0
 11
328.2356792660538
 21
360.3667651608049
 31
0.0
  0
LINE
  5
1A0E
330
1101
100
AcDbEntity
  8
STEMPEL
100
AcDbLine
 10
327.2356792660537
 20
362.866765160804
 30
0.0
 11
327.2356792660537
 21
360.3667651608049
 31
0.0
  0
LINE
  5
1A0F
330
1101
100
AcDbEntity
  8
STEMPEL
100
AcDbLine
 10
328.2356792660537
 20
363.8667651608041
 30
0.0
 11
336.2356792660537
 21
363.8667651608041
 31
0.0
  0
LINE
  5
1A10
330
1101
100
AcDbEntity
  8
STEMPEL
100
AcDbLine
 10
328.2356792660537
 20
363.8667651608041
 30
0.0
 11
336.2356792660537
 21
363.8667651608041
 31
0.0
  0
LINE
  5
1A11
330
1101
100
AcDbEntity
  8
STEMPEL
100
AcDbLine
 10
327.2356792660537
 20
362.866765160804
 30
0.0
 11
337.2356792660537
 21
362.866765160804
 31
0.0
  0
LINE
  5
1A12
330
1101
100
AcDbEntity
  8
MITTEL
100
AcDbLine
 10
332.2356792660536
 20
368.866765160804
 30
0.0
 11
332.2356792660537
 21
330.8667651608045
 31
0.0
  0
LINE
  5
1A13
330
1101
100
AcDbEntity
  8
STEMPEL
100
AcDbLine
 10
253.9632659065321
 20
363.8667651608041
 30
0.0
 11
254.9632659065321
 21
362.866765160804
 31
0.0
  0
LINE
  5
1A14
330
1101
100
AcDbEntity
  8
STEMPEL
100
AcDbLine
 10
244.9632659065321
 20
362.866765160804
 30
0.0
 11
245.9632659065321
 21
363.8667651608041
 31
0.0
  0
LINE
  5
1A15
330
1101
100
AcDbEntity
  8
STEMPEL
100
AcDbLine
 10
245.9632659065321
 20
363.8667651608041
 30
0.0
 11
253.9632659065321
 21
363.8667651608041
 31
0.0
  0
LINE
  5
1A16
330
1101
100
AcDbEntity
  8
STEMPEL
100
AcDbLine
 10
245.9632659065321
 20
363.8667651608041
 30
0.0
 11
253.9632659065321
 21
363.8667651608041
 31
0.0
  0
LINE
  5
1A17
330
1101
100
AcDbEntity
  8
STEMPEL
100
AcDbLine
 10
244.9632659065321
 20
362.866765160804
 30
0.0
 11
254.9632659065321
 21
362.866765160804
 31
0.0
  0
LINE
  5
1A18
330
1101
100
AcDbEntity
  8
HILF
100
AcDbLine
 10
245.9632659065321
 20
363.8667651608041
 30
0.0
 11
245.9632659065321
 21
360.3667651608049
 31
0.0
  0
LINE
  5
1A19
330
1101
100
AcDbEntity
  8
STEMPEL
100
AcDbLine
 10
244.9632659065321
 20
362.866765160804
 30
0.0
 11
244.9632659065321
 21
360.3667651608049
 31
0.0
  0
LINE
  5
1A1A
330
1101
100
AcDbEntity
  8
HILF
100
AcDbLine
 10
253.9632659065321
 20
363.8667651608041
 30
0.0
 11
253.9632659065321
 21
360.3667651608049
 31
0.0
  0
LINE
  5
1A1B
330
1101
100
AcDbEntity
  8
STEMPEL
100
AcDbLine
 10
254.9632659065321
 20
362.866765160804
 30
0.0
 11
254.9632659065321
 21
360.3667651608049
 31
0.0
  0
LINE
  5
1A1C
102
{ACAD_REACTORS
330
219A
102
}
330
1101
100
AcDbEntity
  8
MITTEL
100
AcDbLine
 10
249.9632659065321
 20
368.8667651608043
 30
0.0
 11
249.9632659065321
 21
335.8667651608045
 31
0.0
  0
LINE
  5
1A1D
330
1101
100
AcDbEntity
  8
STEMPEL
100
AcDbLine
 10
197.2356792660537
 20
335.8667651608045
 30
0.0
 11
197.2356792660537
 21
338.8667651608045
 31
0.0
  0
LINE
  5
1A1E
330
1101
100
AcDbEntity
  8
STEMPEL
100
AcDbLine
 10
197.2356792660537
 20
335.8667651608045
 30
0.0
 11
472.2594382713776
 21
335.8667651608046
 31
0.0
  0
LINE
  5
1A7B
330
1101
100
AcDbEntity
  8
TEXT
 62
     2
100
AcDbLine
 10
267.3302241099841
 20
279.9621539656899
 30
0.0
 11
173.7610901411028
 21
246.9422308617206
 31
0.0
  0
LINE
  5
1A7C
330
1101
100
AcDbEntity
  8
TEXT
 62
     2
100
AcDbLine
 10
67.43539496309598
 20
246.9422308617206
 30
0.0
 11
173.7610901411028
 21
246.9422308617206
 31
0.0
  0
TEXT
  5
1A7D
330
1101
100
AcDbEntity
  8
TEXT
 62
     1
100
AcDbText
 10
69.04343498566209
 20
238.470043284248
 30
0.0
 40
7.0
  1

 41
0.8
  7
GREEKS
100
AcDbText
  0
TEXT
  5
1A7E
330
1101
100
AcDbEntity
  8
TEXT
 62
     1
100
AcDbText
 10
68.79288197497283
 20
250.0027331958037
 30
0.0
 40
7.0
  1

 41
0.8
  7
GREEKS
100
AcDbText
  0
HATCH
  5
1A7F
330
1101
100
AcDbEntity
  8
SCHRAFF
100
AcDbHatch
 10
0.0
 20
0.0
 30
0.0
210
0.0
220
0.0
230
1.0
  2
_USER
 70
     0
 71
     0
 91
        5
 92
        7
 72
     1
 73
     1
 93
        4
 10
459.2356792660536
 20
350.3667651608048
 42
0.0
 10
414.5080926255753
 20
350.3667651608048
 42
0.0
 10
414.5080926255753
 20
344.3667651608044
 42
0.0
 10
459.2356792660536
 20
344.3667651608045
 42
1.0
 97
        0
 92
        7
 72
     1
 73
     1
 93
        4
 10
414.5080926255753
 20
350.3667651608048
 42
0.0
 10
399.2356792660537
 20
350.3667651608048
 42
1.0
 10
399.2356792660537
 20
344.3667651608045
 42
0.0
 10
414.5080926255753
 20
344.3667651608044
 42
0.0
 97
        0
 92
        7
 72
     1
 73
     1
 93
        4
 10
265.2356792660537
 20
350.3667651608048
 42
0.0
 10
249.9632659065321
 20
350.3667651608048
 42
0.0
 10
249.9632659065321
 20
344.3667651608045
 42
0.0
 10
265.2356792660537
 20
344.3667651608045
 42
1.0
 97
        0
 92
        7
 72
     1
 73
     1
 93
       15
 10
249.9632659065321
 20
350.3667651608049
 42
0.0
 10
222.9109915555555
 20
350.3667651608049
 42
-0.4091108014277097
 10
217.9117530797735
 20
355.2795031286185
 42
0.0
 10
217.7356792660537
 20
365.3667651608065
 42
0.0
 10
214.2356792660537
 20
365.3667651608065
 42
0.0
 10
214.2356792660537
 20
361.3667651608043
 42
0.0
 10
213.7356792660537
 20
361.3667651608043
 42
0.0
 10
213.7356792660537
 20
358.3667651608044
 42
0.0
 10
214.2356792660537
 20
358.3667651608044
 42
0.0
 10
214.2356792660537
 20
350.3667651608046
 42
0.0
 10
213.7356792660537
 20
350.3667651608044
 42
0.0
 10
213.7356792660537
 20
347.3667651608045
 42
0.0
 10
214.2356792660537
 20
347.3667651608045
 42
0.0
 10
214.2356792660537
 20
344.3667651608045
 42
0.0
 10
249.9632659065321
 20
344.3667651608046
 42
0.0
 97
        0
 92
        7
 72
     1
 73
     1
 93
       14
 10
206.2356792660537
 20
358.3667651608044
 42
0.0
 10
206.7356792660537
 20
358.3667651608043
 42
0.0
 10
206.7356792660537
 20
361.3667651608044
 42
0.0
 10
206.2356792660537
 20
361.3667651608044
 42
0.0
 10
206.2356792660537
 20
365.3667651608065
 42
0.0
 10
202.7356792660537
 20
365.3667651608063
 42
0.0
 10
202.4522959241658
 20
349.1317443772489
 42
-0.0541019412914436
 10
202.3171960844274
 20
348.0613556290413
 42
0.4844268511314544
 10
205.2356792660537
 20
344.3667651608045
 42
0.0
 10
206.2356792660537
 20
344.3667651608045
 42
0.0
 10
206.2356792660537
 20
347.3667651608045
 42
0.0
 10
206.7356792660537
 20
347.3667651608046
 42
0.0
 10
206.7356792660537
 20
350.3667651608044
 42
0.0
 10
206.2356792660537
 20
350.3667651608044
 42
0.0
 97
        0
 75
     0
 76
     0
 52
45.0
 41
5.0
 77
     0
 78
     1
 53
45.0
 43
0.0
 44
-3.0
 45
-3.535533905932737
 46
3.535533905932737
 79
     0
 47
0.353366313367506
 98
        5
 10
427.2100427462423
 20
348.6736338236003
 10
403.163532607633
 20
348.3202675576292
 10
262.7743503357347
 20
347.613535025687
 10
235.8988408264236
 20
347.9669012916581
 10
204.7798278360192
 20
354.6808617446966
  0
LINE
  5
1A80
102
{ACAD_REACTORS
330
24C9
102
}
330
1101
100
AcDbEntity
  8
STEMPEL
100
AcDbLine
 10
205.2356792660537
 20
344.3667651608045
 30
0.0
 11
459.2356792660536
 21
344.3667651608045
 31
0.0
  0
LINE
  5
1A81
330
1101
100
AcDbEntity
  8
STEMPEL
100
AcDbLine
 10
459.2356792660536
 20
350.3667651608048
 30
0.0
 11
222.9109915555555
 21
350.3667651608049
 31
0.0
  0
LINE
  5
1A82
330
1101
100
AcDbEntity
  8
STEMPEL
100
AcDbLine
 10
202.7356792660537
 20
365.3667651608067
 30
0.0
 11
202.4522959241658
 21
349.1317443772489
 31
0.0
  0
LINE
  5
1A83
330
1101
100
AcDbEntity
  8
STEMPEL
100
AcDbLine
 10
217.7356792660537
 20
365.3667651608065
 30
0.0
 11
217.9117530797735
 21
355.2795031286185
 31
0.0
  0
LINE
  5
1A85
330
1101
100
AcDbEntity
  8
MITTEL
100
AcDbLine
 10
210.2356792660537
 20
370.3667651608065
 30
0.0
 11
210.2356792660537
 21
344.3667651608045
 31
0.0
  0
LINE
  5
1A86
102
{ACAD_REACTORS
330
24C9
102
}
330
1101
100
AcDbEntity
  8
STEMPEL
100
AcDbLine
 10
206.2356792660537
 20
350.3667651608043
 30
0.0
 11
206.2356792660537
 21
358.3667651608044
 31
0.0
  0
LINE
  5
1A87
102
{ACAD_REACTORS
330
24C9
102
}
330
1101
100
AcDbEntity
  8
STEMPEL
100
AcDbLine
 10
207.8491792660537
 20
344.3667651608043
 30
0.0
 11
207.8491792660536
 21
365.3667651608066
 31
0.0
  0
LINE
  5
1A88
102
{ACAD_REACTORS
330
24C9
102
}
330
1101
100
AcDbEntity
  8
HILF
100
AcDbLine
 10
207.2356792660537
 20
344.3667651608043
 30
0.0
 11
207.2356792660537
 21
365.3667651608066
 31
0.0
  0
LINE
  5
1A89
102
{ACAD_REACTORS
330
24C9
102
}
330
1101
100
AcDbEntity
  8
STEMPEL
100
AcDbLine
 10
212.6221792660537
 20
344.3667651608043
 30
0.0
 11
212.6221792660537
 21
365.3667651608065
 31
0.0
  0
LINE
  5
1A8A
102
{ACAD_REACTORS
330
24C9
102
}
330
1101
100
AcDbEntity
  8
HILF
100
AcDbLine
 10
213.2356792660537
 20
344.3667651608043
 30
0.0
 11
213.2356792660536
 21
365.3667651608066
 31
0.0
  0
LINE
  5
1A8B
102
{ACAD_REACTORS
330
24C9
102
}
330
1101
100
AcDbEntity
  8
STEMPEL
100
AcDbLine
 10
214.2356792660537
 20
350.3667651608045
 30
0.0
 11
214.2356792660537
 21
358.3667651608044
 31
0.0
  0
LINE
  5
1A8C
102
{ACAD_REACTORS
330
24C9
102
}
330
1101
100
AcDbEntity
  8
STEMPEL
100
AcDbLine
 10
206.7356792660537
 20
350.3667651608044
 30
0.0
 11
206.2356792660537
 21
350.3667651608044
 31
0.0
  0
LINE
  5
1A8D
102
{ACAD_REACTORS
330
24C9
102
}
330
1101
100
AcDbEntity
  8
STEMPEL
100
AcDbLine
 10
206.7356792660537
 20
347.3667651608045
 30
0.0
 11
206.2356792660537
 21
347.3667651608045
 31
0.0
  0
LINE
  5
1A8E
102
{ACAD_REACTORS
330
24C9
102
}
330
1101
100
AcDbEntity
  8
STEMPEL
100
AcDbLine
 10
206.2356792660537
 20
344.3667651608045
 30
0.0
 11
206.2356792660537
 21
347.3667651608045
 31
0.0
  0
ARC
  5
1A8F
330
1101
100
AcDbEntity
  8
STEMPEL
100
AcDbCircle
 10
205.2356792660537
 20
347.366765160805
 30
0.0
 40
3.0
100
AcDbArc
 50
166.6128248198285
 51
270.0
  0
ARC
  5
1A90
330
1101
100
AcDbEntity
  8
STEMPEL
100
AcDbCircle
 10
197.4530574483838
 20
349.2190064094353
 30
0.0
 40
5.0
100
AcDbArc
 50
346.612824819828
 51
359.0000000000008
  0
POINT
  5
1A91
330
1101
100
AcDbEntity
  8
STEMPEL
  6
ByBlock
 62
     0
100
AcDbPoint
 10
202.2356792660537
 20
347.3667651608045
 30
0.0
  0
LINE
  5
1A92
102
{ACAD_REACTORS
330
24C9
102
}
330
1101
100
AcDbEntity
  8
STEMPEL
100
AcDbLine
 10
214.2356792660537
 20
344.3667651608045
 30
0.0
 11
214.2356792660537
 21
347.3667651608045
 31
0.0
  0
LINE
  5
1A93
102
{ACAD_REACTORS
330
24C9
102
}
330
1101
100
AcDbEntity
  8
STEMPEL
100
AcDbLine
 10
214.2356792660537
 20
347.3667651608045
 30
0.0
 11
213.7356792660537
 21
347.3667651608045
 31
0.0
  0
LINE
  5
1A94
102
{ACAD_REACTORS
330
24C9
102
}
330
1101
100
AcDbEntity
  8
STEMPEL
100
AcDbLine
 10
213.7356792660537
 20
347.3667651608045
 30
0.0
 11
213.7356792660537
 21
350.3667651608046
 31
0.0
  0
LINE
  5
1A95
102
{ACAD_REACTORS
330
24C9
102
}
330
1101
100
AcDbEntity
  8
STEMPEL
100
AcDbLine
 10
214.2356792660537
 20
350.3667651608046
 30
0.0
 11
213.7356792660537
 21
350.3667651608045
 31
0.0
  0
LINE
  5
1A96
102
{ACAD_REACTORS
330
24C9
102
}
330
1101
100
AcDbEntity
  8
STEMPEL
100
AcDbLine
 10
206.7356792660537
 20
347.3667651608044
 30
0.0
 11
206.7356792660537
 21
350.3667651608044
 31
0.0
  0
ARC
  5
1A97
330
1101
100
AcDbEntity
  8
STEMPEL
100
AcDbCircle
 10
222.9109915555555
 20
355.3667651608049
 30
0.0
 40
5.0
100
AcDbArc
 50
181.0
 51
269.9999999999999
  0
LINE
  5
1A99
102
{ACAD_REACTORS
330
24C9
102
}
330
1101
100
AcDbEntity
  8
STEMPEL
100
AcDbLine
 10
206.7356792660537
 20
361.3667651608044
 30
0.0
 11
206.2356792660537
 21
361.3667651608044
 31
0.0
  0
LINE
  5
1A9A
102
{ACAD_REACTORS
330
24C9
102
}
330
1101
100
AcDbEntity
  8
STEMPEL
100
AcDbLine
 10
206.7356792660537
 20
358.3667651608044
 30
0.0
 11
206.2356792660537
 21
358.3667651608044
 31
0.0
  0
LINE
  5
1A9B
102
{ACAD_REACTORS
330
24C9
102
}
330
1101
100
AcDbEntity
  8
STEMPEL
100
AcDbLine
 10
206.2356792660537
 20
361.3667651608043
 30
0.0
 11
206.2356792660537
 21
365.3667651608066
 31
0.0
  0
LINE
  5
1AA0
102
{ACAD_REACTORS
330
24C9
102
}
330
1101
100
AcDbEntity
  8
STEMPEL
100
AcDbLine
 10
214.2356792660537
 20
361.3667651608044
 30
0.0
 11
214.2356792660537
 21
365.3667651608065
 31
0.0
  0
LINE
  5
1AA1
102
{ACAD_REACTORS
330
24C9
102
}
330
1101
100
AcDbEntity
  8
STEMPEL
100
AcDbLine
 10
214.2356792660537
 20
358.3667651608044
 30
0.0
 11
213.7356792660537
 21
358.3667651608044
 31
0.0
  0
LINE
  5
1AA2
102
{ACAD_REACTORS
330
24C9
102
}
330
1101
100
AcDbEntity
  8
STEMPEL
100
AcDbLine
 10
213.7356792660537
 20
358.3667651608044
 30
0.0
 11
213.7356792660537
 21
361.3667651608045
 31
0.0
  0
LINE
  5
1AA3
102
{ACAD_REACTORS
330
24C9
102
}
330
1101
100
AcDbEntity
  8
STEMPEL
100
AcDbLine
 10
214.2356792660537
 20
361.3667651608044
 30
0.0
 11
213.7356792660537
 21
361.3667651608044
 31
0.0
  0
LINE
  5
1AA5
102
{ACAD_REACTORS
330
24C9
102
}
330
1101
100
AcDbEntity
  8
STEMPEL
100
AcDbLine
 10
206.7356792660537
 20
358.3667651608044
 30
0.0
 11
206.7356792660537
 21
361.3667651608045
 31
0.0
  0
ARC
  5
1AA9
330
1101
100
AcDbEntity
  8
STEMPEL
100
AcDbCircle
 10
265.2356792660537
 20
347.366765160805
 30
0.0
 40
3.0
100
AcDbArc
 50
270.0
 51
90.0
  0
LINE
  5
1AAA
330
1101
100
AcDbEntity
  8
STEMPEL
100
AcDbLine
 10
400.7361011719836
 20
365.3667651608065
 30
0.0
 11
400.9121749857033
 21
355.2795031286185
 31
0.0
  0
LINE
  5
1AAB
330
1101
100
AcDbEntity
  8
STEMPEL
100
AcDbLine
 10
385.7361011719836
 20
365.3667651608065
 30
0.0
 11
385.5600273582638
 21
355.2795031286185
 31
0.0
  0
LINE
  5
1AAC
330
1101
100
AcDbEntity
  8
MITTEL
100
AcDbLine
 10
393.2361011719835
 20
370.366765160803
 30
0.0
 11
393.2361011719836
 21
344.3667651608045
 31
0.0
  0
ARC
  5
1AAD
330
1101
100
AcDbEntity
  8
STEMPEL
100
AcDbCircle
 10
380.5607888824818
 20
355.3667651608049
 30
0.0
 40
5.0
100
AcDbArc
 50
270.0000000000001
 51
359.0000000000001
  0
ARC
  5
1AAE
330
1101
100
AcDbEntity
  8
STEMPEL
100
AcDbCircle
 10
405.9114134614853
 20
355.3667651608049
 30
0.0
 40
5.0
100
AcDbArc
 50
181.0
 51
242.9278855327882
  0
ARC
  5
1AAF
330
1101
100
AcDbEntity
  8
STEMPEL
100
AcDbCircle
 10
399.2356792660537
 20
347.3667651608047
 30
0.0
 40
3.000000000000227
100
AcDbArc
 50
90.00000000000433
 51
269.9999999999957
  0
ARC
  5
1AB0
330
1101
100
AcDbEntity
  8
STEMPEL
100
AcDbCircle
 10
459.2356792660536
 20
347.366765160805
 30
0.0
 40
3.0
100
AcDbArc
 50
270.0
 51
90.0
  0
LINE
  5
1AB1
330
1101
100
AcDbEntity
  8
STEMPEL
100
AcDbLine
 10
400.7361011719837
 20
365.3667651608027
 30
0.0
 11
385.7361011719834
 21
365.366765160803
 31
0.0
  0
LINE
  5
1AB5
330
1101
100
AcDbEntity
  8
STEMPEL
100
AcDbLine
 10
419.5080926255752
 20
344.3667651608046
 30
0.0
 11
419.5080926255752
 21
341.8667651608045
 31
0.0
  0
LINE
  5
1AB6
330
1101
100
AcDbEntity
  8
HILF
100
AcDbLine
 10
418.5080926255753
 20
344.3667651608044
 30
0.0
 11
418.5080926255752
 21
341.8667651608044
 31
0.0
  0
LINE
  5
1AB7
330
1101
100
AcDbEntity
  8
HILF
100
AcDbLine
 10
410.5080926255753
 20
344.3667651608044
 30
0.0
 11
410.5080926255752
 21
341.8667651608044
 31
0.0
  0
LINE
  5
1AB8
330
1101
100
AcDbEntity
  8
STEMPEL
100
AcDbLine
 10
409.5080926255752
 20
344.3667651608046
 30
0.0
 11
409.5080926255753
 21
341.8667651608045
 31
0.0
  0
LINE
  5
1AB9
330
1101
100
AcDbEntity
  8
HILF
100
AcDbLine
 10
336.2356792660538
 20
344.3667651608044
 30
0.0
 11
336.2356792660537
 21
341.8667651608044
 31
0.0
  0
LINE
  5
1ABA
330
1101
100
AcDbEntity
  8
STEMPEL
100
AcDbLine
 10
337.2356792660537
 20
344.3667651608046
 30
0.0
 11
337.2356792660537
 21
341.8667651608045
 31
0.0
  0
LINE
  5
1ABB
330
1101
100
AcDbEntity
  8
HILF
100
AcDbLine
 10
328.2356792660537
 20
344.3667651608044
 30
0.0
 11
328.2356792660536
 21
341.8667651608044
 31
0.0
  0
LINE
  5
1ABC
330
1101
100
AcDbEntity
  8
STEMPEL
100
AcDbLine
 10
327.2356792660537
 20
344.3667651608046
 30
0.0
 11
327.2356792660537
 21
341.8667651608045
 31
0.0
  0
LINE
  5
1ABD
330
1101
100
AcDbEntity
  8
STEMPEL
100
AcDbLine
 10
254.9632659065321
 20
344.3667651608046
 30
0.0
 11
254.9632659065321
 21
341.8667651608046
 31
0.0
  0
LINE
  5
1ABE
330
1101
100
AcDbEntity
  8
HILF
100
AcDbLine
 10
253.9632659065321
 20
344.3667651608044
 30
0.0
 11
253.9632659065321
 21
341.8667651608045
 31
0.0
  0
LINE
  5
1ABF
330
1101
100
AcDbEntity
  8
HILF
100
AcDbLine
 10
245.9632659065321
 20
344.3667651608044
 30
0.0
 11
245.9632659065321
 21
341.8667651608045
 31
0.0
  0
LINE
  5
1AC0
330
1101
100
AcDbEntity
  8
STEMPEL
100
AcDbLine
 10
244.9632659065321
 20
344.3667651608046
 30
0.0
 11
244.9632659065322
 21
341.8667651608046
 31
0.0
  0
LINE
  5
1AC6
102
{ACAD_REACTORS
330
1ADF
102
}
330
1101
100
AcDbEntity
  8
STEMPEL
100
AcDbLine
 10
467.4594382713773
 20
438.3657478552804
 30
0.0
 11
463.4594382713772
 21
438.3657478552804
 31
0.0
  0
LINE
  5
1AC7
102
{ACAD_REACTORS
330
1ADF
102
}
330
1101
100
AcDbEntity
  8
STEMPEL
100
AcDbLine
 10
467.4594382713785
 20
438.3657478552805
 30
0.0
 11
469.4594382713786
 21
436.3657478552804
 31
0.0
  0
LINE
  5
1AC8
102
{ACAD_REACTORS
330
1ADF
102
}
330
1101
100
AcDbEntity
  8
STEMPEL
100
AcDbLine
 10
463.4594382713772
 20
438.3657478552804
 30
0.0
 11
463.4594382713772
 21
373.3657478552804
 31
0.0
  0
LINE
  5
1AC9
102
{ACAD_REACTORS
330
1ADF
102
}
330
1101
100
AcDbEntity
  8
STEMPEL
100
AcDbLine
 10
469.4594382713773
 20
436.3657478552811
 30
0.0
 11
469.4594382713772
 21
375.3657478552804
 31
0.0
  0
LINE
  5
1ACA
102
{ACAD_REACTORS
330
1ADF
102
}
330
1101
100
AcDbEntity
  8
STEMPEL
100
AcDbLine
 10
467.4594382713772
 20
373.3657478552804
 30
0.0
 11
463.4594382713768
 21
373.3657478552804
 31
0.0
  0
LINE
  5
1ACB
102
{ACAD_REACTORS
330
1ADF
102
}
330
1101
100
AcDbEntity
  8
STEMPEL
100
AcDbLine
 10
467.4594382713772
 20
373.3657478552804
 30
0.0
 11
469.4594382713772
 21
375.3657478552804
 31
0.0
  0
TEXT
  5
1ACC
330
1101
100
AcDbEntity
  8
TEXT
 62
     1
100
AcDbText
 10
507.1216070735124
 20
463.1278399960105
 30
0.0
 40
7.0
  1
Losflansch
 41
0.8
  7
GREEKS
100
AcDbText
  0
TEXT
  5
1ACD
330
1101
100
AcDbEntity
  8
TEXT
 62
     1
100
AcDbText
 10
507.1216070735124
 20
451.1096331687938
 30
0.0
 40
7.0
  1
EDV-Art.Nr. 01378.000X
 41
0.8
  7
GREEKS
100
AcDbText
  0
LINE
  5
1ACE
330
1101
100
AcDbEntity
  8
TEXT
 62
     2
100
AcDbLine
 10
506.5976393331747
 20
460.0673376619271
 30
0.0
 11
613.5098602316757
 21
460.0673376619271
 31
0.0
  0
LINE
  5
1ACF
330
1101
100
AcDbEntity
  8
TEXT
 62
     2
100
AcDbLine
 10
506.5976393331747
 20
460.0673376619271
 30
0.0
 11
467.0379136068674
 21
435.7547204070101
 31
0.0
  0
LINE
  5
1AD1
330
1101
100
AcDbEntity
  8
STEMPEL
100
AcDbLine
 10
469.4594382713774
 20
410.8657478552811
 30
0.0
 11
471.9594382713771
 21
410.865747855281
 31
0.0
  0
LINE
  5
1AD2
330
1101
100
AcDbEntity
  8
HILF
100
AcDbLine
 10
469.4594382713774
 20
409.8657478552799
 30
0.0
 11
471.9594382713771
 21
409.8657478552796
 31
0.0
  0
LINE
  5
1AD3
330
1101
100
AcDbEntity
  8
HILF
100
AcDbLine
 10
469.4594382713773
 20
401.8657478552809
 30
0.0
 11
471.9594382713772
 21
401.8657478552809
 31
0.0
  0
LINE
  5
1AD4
330
1101
100
AcDbEntity
  8
STEMPEL
100
AcDbLine
 10
469.4594382713773
 20
400.8657478552802
 30
0.0
 11
471.9594382713772
 21
400.8657478552803
 31
0.0
  0
HATCH
  5
1ADF
330
1101
100
AcDbEntity
  8
SCHRAFF
100
AcDbHatch
 10
0.0
 20
0.0
 30
0.0
210
0.0
220
0.0
230
1.0
  2
_USER
 70
     0
 71
     1
 91
        2
 92
        7
 72
     0
 73
     1
 93
        5
 10
469.4594382713773
 20
436.3657478552816
 10
467.4594382713785
 20
438.3657478552804
 10
463.4594382713772
 20
438.3657478552804
 10
463.4594382713771
 20
405.8657478552807
 10
469.4594382713772
 20
405.8657478552807
 97
        5
330
1AC7
330
1AC6
330
1AC8
330
19FC
330
1AC9
 92
        7
 72
     0
 73
     1
 93
        5
 10
463.4594382713772
 20
373.3657478552804
 10
467.4594382713772
 20
373.3657478552804
 10
469.4594382713773
 20
375.3657478552804
 10
469.4594382713773
 20
405.8657478552808
 10
463.4594382713772
 20
405.8657478552808
 97
        5
330
19FC
330
1AC8
330
1ACA
330
1ACB
330
1AC9
 75
     0
 76
     0
 52
135.0
 41
5.0
 77
     0
 78
     1
 53
135.0
 43
379.8457628634947
 44
-237.2352619933942
 45
-3.535533905932737
 46
-3.535533905932737
 79
     0
 47
0.1488260208780745
 98
        2
 10
467.5355578488058
 20
415.6947005491877
 10
465.5321657110481
 20
392.64413063341
  0
TEXT
  5
1AFE
330
1101
100
AcDbEntity
  8
VOLL
100
AcDbText
 10
364.2669859905487
 20
410.1493348905401
 30
0.0
 40
1.8
  1

  7
GREEKS
100
AcDbText
  0
ARC
  5
1B00
330
1101
100
AcDbEntity
  8
STEMPEL
100
AcDbCircle
 10
424.6580926255752
 20
351.1167651608048
 30
0.0
 40
0.750000000000001
100
AcDbArc
 50
269.9999991462263
 51
70.00000000000047
  0
ARC
  5
1B01
330
1101
100
AcDbEntity
  8
STEMPEL
100
AcDbCircle
 10
404.3580926255753
 20
351.1167651608048
 30
0.0
 40
0.7500000000000013
100
AcDbArc
 50
109.9999999999995
 51
269.9999991462263
  0
LINE
  5
1B02
330
1101
100
AcDbEntity
  8
STEMPEL
100
AcDbLine
 10
405.8478385877308
 20
352.4571216770046
 30
0.0
 11
404.101577518081
 21
351.8215346263942
 31
0.0
  0
LINE
  5
1B03
330
1101
100
AcDbEntity
  8
STEMPEL
100
AcDbLine
 10
424.9146077330695
 20
351.8215346263942
 30
0.0
 11
423.1683466634196
 21
352.4571216770046
 31
0.0
  0
LINE
  5
1B04
330
1101
100
AcDbEntity
  8
STEMPEL
100
AcDbLine
 10
423.1683466634196
 20
360.0558760283494
 30
0.0
 11
422.0080926255752
 21
360.3667651608048
 31
0.0
  0
LINE
  5
1B05
330
1101
100
AcDbEntity
  8
STEMPEL
100
AcDbLine
 10
407.0080926255752
 20
360.3667651608048
 30
0.0
 11
405.8478385877308
 21
360.0558760283494
 31
0.0
  0
LINE
  5
1B06
330
1101
100
AcDbEntity
  8
STEMPEL
100
AcDbLine
 10
405.8478385877308
 20
352.4571216770046
 30
0.0
 11
405.8478385877308
 21
360.0558760283494
 31
0.0
  0
LINE
  5
1B07
330
1101
100
AcDbEntity
  8
STEMPEL
100
AcDbLine
 10
424.6580926255752
 20
350.3667651608048
 30
0.0
 11
404.3580926255753
 21
350.3667651608048
 31
0.0
  0
LINE
  5
1B08
330
1101
100
AcDbEntity
  8
STEMPEL
100
AcDbLine
 10
424.9146077330695
 20
351.8215346263942
 30
0.0
 11
404.101577518081
 21
351.8215346263942
 31
0.0
  0
LINE
  5
1B09
330
1101
100
AcDbEntity
  8
STEMPEL
100
AcDbLine
 10
410.177965606653
 20
352.4571216770046
 30
0.0
 11
410.177965606653
 21
360.0558760283494
 31
0.0
  0
LINE
  5
1B0A
330
1101
100
AcDbEntity
  8
STEMPEL
100
AcDbLine
 10
418.8382196444974
 20
352.4571216770046
 30
0.0
 11
418.8382196444974
 21
360.0558760283494
 31
0.0
  0
LINE
  5
1B0B
330
1101
100
AcDbEntity
  8
STEMPEL
100
AcDbLine
 10
423.1683466634196
 20
352.4571216770046
 30
0.0
 11
423.1683466634196
 21
360.0558760283494
 31
0.0
  0
LINE
  5
1B0C
330
1101
100
AcDbEntity
  8
STEMPEL
100
AcDbLine
 10
407.0080926255752
 20
360.3667651608048
 30
0.0
 11
422.0080926255752
 21
360.3667651608048
 31
0.0
  0
ARC
  5
1B0F
330
1101
100
AcDbEntity
  8
HILF
100
AcDbCircle
 10
408.012902097192
 20
347.1182790112751
 30
0.0
 40
5.761140599691502
100
AcDbArc
 50
67.92594526326054
 51
112.0740547367394
  0
ARC
  5
1B10
330
1101
100
AcDbEntity
  8
HILF
100
AcDbCircle
 10
421.0032831539585
 20
347.1182790112751
 30
0.0
 40
5.761140599691502
100
AcDbArc
 50
67.92594526326054
 51
112.0740547367394
  0
ARC
  5
1B11
330
1101
100
AcDbEntity
  8
HILF
100
AcDbCircle
 10
414.5080926255753
 20
330.4683041131436
 30
0.0
 40
22.41111549782308
100
AcDbArc
 50
78.85962783890455
 51
101.1403721610954
  0
ARC
  5
1B12
330
1101
100
AcDbEntity
  8
STEMPEL
100
AcDbCircle
 10
421.0032831539585
 20
352.6724594530203
 30
0.0
 40
7.694305707784447
100
AcDbArc
 50
73.65710669401345
 51
106.3428933059834
  0
ARC
  5
1B13
330
1101
100
AcDbEntity
  8
STEMPEL
100
AcDbCircle
 10
408.012902097192
 20
352.6724594530203
 30
0.0
 40
7.694305707784447
100
AcDbArc
 50
73.65710669401657
 51
106.3428933059865
  0
ARC
  5
1B14
330
1101
100
AcDbEntity
  8
STEMPEL
100
AcDbCircle
 10
414.5080926255753
 20
330.0558760283499
 30
0.0
 40
30.31088913245485
100
AcDbArc
 50
81.78678929826059
 51
98.2132107017394
  0
ARC
  5
1B15
330
1101
100
AcDbEntity
  8
STEMPEL
100
AcDbCircle
 10
239.8132659065321
 20
351.1167651608049
 30
0.0
 40
0.7500000000000013
100
AcDbArc
 50
109.9999999999995
 51
269.9999991462263
  0
ARC
  5
1B16
330
1101
100
AcDbEntity
  8
STEMPEL
100
AcDbCircle
 10
260.1132659065321
 20
351.1167651608049
 30
0.0
 40
0.750000000000001
100
AcDbArc
 50
269.9999991462263
 51
70.00000000000047
  0
LINE
  5
1B17
330
1101
100
AcDbEntity
  8
STEMPEL
100
AcDbLine
 10
260.1132659065321
 20
350.3667651608049
 30
0.0
 11
239.8132659065321
 21
350.3667651608049
 31
0.0
  0
ARC
  5
1B18
330
1101
100
AcDbEntity
  8
STEMPEL
100
AcDbCircle
 10
249.9632659065321
 20
330.0558760283501
 30
0.0
 40
30.31088913245485
100
AcDbArc
 50
81.78678929826059
 51
98.2132107017394
  0
ARC
  5
1B19
330
1101
100
AcDbEntity
  8
HILF
100
AcDbCircle
 10
249.9632659065321
 20
330.4683041131437
 30
0.0
 40
22.41111549782308
100
AcDbArc
 50
78.85962783890455
 51
101.1403721610954
  0
LINE
  5
1B1A
330
1101
100
AcDbEntity
  8
STEMPEL
100
AcDbLine
 10
242.4632659065321
 20
360.3667651608049
 30
0.0
 11
257.4632659065321
 21
360.3667651608049
 31
0.0
  0
LINE
  5
1B1B
330
1101
100
AcDbEntity
  8
STEMPEL
100
AcDbLine
 10
260.3697810140264
 20
351.8215346263943
 30
0.0
 11
239.5567507990378
 21
351.8215346263943
 31
0.0
  0
ARC
  5
1B1C
330
1101
100
AcDbEntity
  8
STEMPEL
100
AcDbCircle
 10
243.4680753781488
 20
352.6724594530204
 30
0.0
 40
7.694305707784447
100
AcDbArc
 50
73.65710669401657
 51
106.3428933059865
  0
ARC
  5
1B1D
330
1101
100
AcDbEntity
  8
HILF
100
AcDbCircle
 10
243.4680753781488
 20
347.1182790112753
 30
0.0
 40
5.761140599691502
100
AcDbArc
 50
67.92594526326054
 51
112.0740547367394
  0
LINE
  5
1B1E
330
1101
100
AcDbEntity
  8
STEMPEL
100
AcDbLine
 10
241.3030118686878
 20
352.4571216770048
 30
0.0
 11
241.3030118686878
 21
360.0558760283495
 31
0.0
  0
LINE
  5
1B1F
330
1101
100
AcDbEntity
  8
STEMPEL
100
AcDbLine
 10
242.4632659065321
 20
360.3667651608049
 30
0.0
 11
241.3030118686878
 21
360.0558760283495
 31
0.0
  0
LINE
  5
1B20
330
1101
100
AcDbEntity
  8
STEMPEL
100
AcDbLine
 10
241.3030118686878
 20
352.4571216770048
 30
0.0
 11
239.5567507990379
 21
351.8215346263943
 31
0.0
  0
LINE
  5
1B21
330
1101
100
AcDbEntity
  8
STEMPEL
100
AcDbLine
 10
245.6331388876099
 20
352.4571216770048
 30
0.0
 11
245.6331388876099
 21
360.0558760283495
 31
0.0
  0
LINE
  5
1B22
330
1101
100
AcDbEntity
  8
STEMPEL
100
AcDbLine
 10
260.3697810140264
 20
351.8215346263943
 30
0.0
 11
258.6235199443765
 21
352.4571216770048
 31
0.0
  0
ARC
  5
1B23
330
1101
100
AcDbEntity
  8
STEMPEL
100
AcDbCircle
 10
256.4584564349154
 20
352.6724594530204
 30
0.0
 40
7.694305707784447
100
AcDbArc
 50
73.65710669401345
 51
106.3428933059834
  0
ARC
  5
1B24
330
1101
100
AcDbEntity
  8
HILF
100
AcDbCircle
 10
256.4584564349154
 20
347.1182790112753
 30
0.0
 40
5.761140599691502
100
AcDbArc
 50
67.92594526326054
 51
112.0740547367394
  0
LINE
  5
1B25
330
1101
100
AcDbEntity
  8
STEMPEL
100
AcDbLine
 10
258.6235199443765
 20
352.4571216770048
 30
0.0
 11
258.6235199443765
 21
360.0558760283495
 31
0.0
  0
LINE
  5
1B26
330
1101
100
AcDbEntity
  8
STEMPEL
100
AcDbLine
 10
254.2933929254543
 20
352.4571216770048
 30
0.0
 11
254.2933929254543
 21
360.0558760283495
 31
0.0
  0
LINE
  5
1B27
330
1101
100
AcDbEntity
  8
STEMPEL
100
AcDbLine
 10
258.6235199443765
 20
360.0558760283495
 30
0.0
 11
257.4632659065321
 21
360.3667651608049
 31
0.0
  0
ARC
  5
1B28
330
1101
100
AcDbEntity
  8
STEMPEL
100
AcDbCircle
 10
462.7094382713772
 20
395.7157478552809
 30
0.0
 40
0.7500000000000013
100
AcDbArc
 50
199.9999999999995
 51
359.9999991462263
  0
ARC
  5
1B29
330
1101
100
AcDbEntity
  8
STEMPEL
100
AcDbCircle
 10
462.7094382713772
 20
416.0157478552808
 30
0.0
 40
0.750000000000001
100
AcDbArc
 50
359.9999991462263
 51
160.0000000000005
  0
LINE
  5
1B2A
330
1101
100
AcDbEntity
  8
STEMPEL
100
AcDbLine
 10
463.4594382713772
 20
416.0157478552807
 30
0.0
 11
463.4594382713772
 21
395.7157478552808
 31
0.0
  0
ARC
  5
1B2B
330
1101
100
AcDbEntity
  8
STEMPEL
100
AcDbCircle
 10
483.770327403832
 20
405.8657478552808
 30
0.0
 40
30.31088913245485
100
AcDbArc
 50
171.7867892982606
 51
188.2132107017394
  0
ARC
  5
1B2C
330
1101
100
AcDbEntity
  8
HILF
100
AcDbCircle
 10
483.3578993190385
 20
405.8657478552808
 30
0.0
 40
22.41111549782308
100
AcDbArc
 50
168.8596278389046
 51
191.1403721610954
  0
LINE
  5
1B2D
330
1101
100
AcDbEntity
  8
STEMPEL
100
AcDbLine
 10
453.4594382713774
 20
398.3657478552809
 30
0.0
 11
453.4594382713773
 21
413.3657478552808
 31
0.0
  0
LINE
  5
1B2E
330
1101
100
AcDbEntity
  8
STEMPEL
100
AcDbLine
 10
462.0046688057878
 20
416.2722629627751
 30
0.0
 11
462.0046688057878
 21
395.4592327477865
 31
0.0
  0
ARC
  5
1B2F
330
1101
100
AcDbEntity
  8
STEMPEL
100
AcDbCircle
 10
461.1537439791615
 20
399.3705573268976
 30
0.0
 40
7.694305707784447
100
AcDbArc
 50
163.6571066940166
 51
196.3428933059866
  0
ARC
  5
1B30
330
1101
100
AcDbEntity
  8
HILF
100
AcDbCircle
 10
466.7079244209067
 20
399.3705573268976
 30
0.0
 40
5.761140599691502
100
AcDbArc
 50
157.9259452632605
 51
202.0740547367395
  0
LINE
  5
1B31
330
1101
100
AcDbEntity
  8
STEMPEL
100
AcDbLine
 10
461.3690817551774
 20
397.2054938174365
 30
0.0
 11
453.7703274038325
 21
397.2054938174365
 31
0.0
  0
LINE
  5
1B32
330
1101
100
AcDbEntity
  8
STEMPEL
100
AcDbLine
 10
453.4594382713774
 20
398.3657478552809
 30
0.0
 11
453.7703274038325
 21
397.2054938174365
 31
0.0
  0
LINE
  5
1B33
330
1101
100
AcDbEntity
  8
STEMPEL
100
AcDbLine
 10
461.3690817551774
 20
397.2054938174365
 30
0.0
 11
462.0046688057878
 21
395.4592327477866
 31
0.0
  0
LINE
  5
1B34
330
1101
100
AcDbEntity
  8
STEMPEL
100
AcDbLine
 10
461.3690817551774
 20
401.5356208363587
 30
0.0
 11
453.7703274038327
 21
401.5356208363587
 31
0.0
  0
LINE
  5
1B35
330
1101
100
AcDbEntity
  8
STEMPEL
100
AcDbLine
 10
462.0046688057878
 20
416.2722629627751
 30
0.0
 11
461.3690817551774
 21
414.5260018931252
 31
0.0
  0
ARC
  5
1B36
330
1101
100
AcDbEntity
  8
STEMPEL
100
AcDbCircle
 10
461.1537439791617
 20
412.3609383836642
 30
0.0
 40
7.694305707784447
100
AcDbArc
 50
163.6571066940134
 51
196.3428933059834
  0
ARC
  5
1B37
330
1101
100
AcDbEntity
  8
HILF
100
AcDbCircle
 10
466.707924420907
 20
412.3609383836642
 30
0.0
 40
5.761140599691502
100
AcDbArc
 50
157.9259452632605
 51
202.0740547367395
  0
LINE
  5
1B38
330
1101
100
AcDbEntity
  8
STEMPEL
100
AcDbLine
 10
461.3690817551774
 20
414.5260018931252
 30
0.0
 11
453.7703274038325
 21
414.5260018931252
 31
0.0
  0
LINE
  5
1B39
330
1101
100
AcDbEntity
  8
STEMPEL
100
AcDbLine
 10
461.3690817551774
 20
410.1958748742029
 30
0.0
 11
453.7703274038327
 21
410.1958748742031
 31
0.0
  0
LINE
  5
1B3A
330
1101
100
AcDbEntity
  8
STEMPEL
100
AcDbLine
 10
453.7703274038325
 20
414.5260018931252
 30
0.0
 11
453.4594382713773
 21
413.3657478552808
 31
0.0
  0
ARC
  5
1B3B
330
1101
100
AcDbEntity
  8
STEMPEL
100
AcDbCircle
 10
322.0856792660537
 20
351.1167651608048
 30
0.0
 40
0.7500000000000013
100
AcDbArc
 50
109.9999999999995
 51
269.9999991462263
  0
ARC
  5
1B3C
330
1101
100
AcDbEntity
  8
STEMPEL
100
AcDbCircle
 10
342.3856792660537
 20
351.1167651608048
 30
0.0
 40
0.750000000000001
100
AcDbArc
 50
269.9999991462263
 51
70.00000000000047
  0
LINE
  5
1B3D
330
1101
100
AcDbEntity
  8
STEMPEL
100
AcDbLine
 10
342.3856792660537
 20
350.3667651608048
 30
0.0
 11
322.0856792660537
 21
350.3667651608048
 31
0.0
  0
ARC
  5
1B3E
330
1101
100
AcDbEntity
  8
STEMPEL
100
AcDbCircle
 10
332.2356792660537
 20
330.05587602835
 30
0.0
 40
30.31088913245485
100
AcDbArc
 50
81.78678929826059
 51
98.2132107017394
  0
ARC
  5
1B3F
330
1101
100
AcDbEntity
  8
HILF
100
AcDbCircle
 10
332.2356792660537
 20
330.4683041131436
 30
0.0
 40
22.41111549782308
100
AcDbArc
 50
78.85962783890455
 51
101.1403721610954
  0
LINE
  5
1B40
330
1101
100
AcDbEntity
  8
STEMPEL
100
AcDbLine
 10
324.7356792660537
 20
360.3667651608049
 30
0.0
 11
339.7356792660537
 21
360.3667651608049
 31
0.0
  0
LINE
  5
1B41
330
1101
100
AcDbEntity
  8
STEMPEL
100
AcDbLine
 10
342.642194373548
 20
351.8215346263943
 30
0.0
 11
321.8291641585594
 21
351.8215346263943
 31
0.0
  0
ARC
  5
1B42
330
1101
100
AcDbEntity
  8
STEMPEL
100
AcDbCircle
 10
325.7404887376704
 20
352.6724594530204
 30
0.0
 40
7.694305707784447
100
AcDbArc
 50
73.65710669401657
 51
106.3428933059865
  0
ARC
  5
1B43
330
1101
100
AcDbEntity
  8
HILF
100
AcDbCircle
 10
325.7404887376704
 20
347.1182790112752
 30
0.0
 40
5.761140599691502
100
AcDbArc
 50
67.92594526326054
 51
112.0740547367394
  0
LINE
  5
1B44
330
1101
100
AcDbEntity
  8
STEMPEL
100
AcDbLine
 10
323.5754252282093
 20
352.4571216770047
 30
0.0
 11
323.5754252282093
 21
360.0558760283495
 31
0.0
  0
LINE
  5
1B45
330
1101
100
AcDbEntity
  8
STEMPEL
100
AcDbLine
 10
324.7356792660537
 20
360.3667651608049
 30
0.0
 11
323.5754252282093
 21
360.0558760283495
 31
0.0
  0
LINE
  5
1B46
330
1101
100
AcDbEntity
  8
STEMPEL
100
AcDbLine
 10
323.5754252282093
 20
352.4571216770047
 30
0.0
 11
321.8291641585595
 21
351.8215346263943
 31
0.0
  0
LINE
  5
1B47
330
1101
100
AcDbEntity
  8
STEMPEL
100
AcDbLine
 10
327.9055522471315
 20
352.4571216770047
 30
0.0
 11
327.9055522471315
 21
360.0558760283495
 31
0.0
  0
LINE
  5
1B48
330
1101
100
AcDbEntity
  8
STEMPEL
100
AcDbLine
 10
342.642194373548
 20
351.8215346263943
 30
0.0
 11
340.8959333038981
 21
352.4571216770047
 31
0.0
  0
ARC
  5
1B49
330
1101
100
AcDbEntity
  8
STEMPEL
100
AcDbCircle
 10
338.730869794437
 20
352.6724594530204
 30
0.0
 40
7.694305707784447
100
AcDbArc
 50
73.65710669401345
 51
106.3428933059834
  0
ARC
  5
1B4A
330
1101
100
AcDbEntity
  8
HILF
100
AcDbCircle
 10
338.730869794437
 20
347.1182790112752
 30
0.0
 40
5.761140599691502
100
AcDbArc
 50
67.92594526326054
 51
112.0740547367394
  0
LINE
  5
1B4B
330
1101
100
AcDbEntity
  8
STEMPEL
100
AcDbLine
 10
340.8959333038981
 20
352.4571216770047
 30
0.0
 11
340.8959333038981
 21
360.0558760283495
 31
0.0
  0
LINE
  5
1B4C
330
1101
100
AcDbEntity
  8
STEMPEL
100
AcDbLine
 10
336.5658062849759
 20
352.4571216770047
 30
0.0
 11
336.5658062849759
 21
360.0558760283495
 31
0.0
  0
LINE
  5
1B4D
330
1101
100
AcDbEntity
  8
STEMPEL
100
AcDbLine
 10
340.8959333038981
 20
360.0558760283495
 30
0.0
 11
339.7356792660537
 21
360.3667651608049
 31
0.0
  0
TEXT
  5
1DD3
330
1101
100
AcDbEntity
  8
VOLL
100
AcDbText
 10
172.5995274826599
 20
311.7686021338396
 30
0.0
 40
1.8
  1

 50
270.0
  7
GREEKS
100
AcDbText
  0
LINE
  5
1DF6
102
{ACAD_REACTORS
330
24C9
102
}
330
1101
100
AcDbEntity
  8
STEMPEL
100
AcDbLine
 10
217.7356792660538
 20
365.3667651608064
 30
0.0
 11
202.7356792660537
 21
365.3667651608067
 31
0.0
  0
DIMENSION
  5
1E43
330
1101
100
AcDbEntity
  8
BEM
100
AcDbDimension
  2
*D1
 10
173.8869296706962
 20
338.8667651608045
 30
0.0
 11
167.3869296706961
 21
357.7334318274712
 31
0.0
 70
    32
 71
     5
 42
3.0
  3
STANDARD
100
AcDbAlignedDimension
 13
197.2356792660537
 23
335.8667651608045
 33
0.0
 14
197.2356792660537
 24
338.8667651608045
 34
0.0
 50
90.0
100
AcDbRotatedDimension
  0
DIMENSION
  5
1EA4
330
1101
100
AcDbEntity
  8
BEM
100
AcDbDimension
  2
*D2
 10
477.9594382713777
 20
204.1498409554467
 30
0.0
 11
337.5975587687157
 21
210.6498409554467
 31
0.0
 70
    32
  1
280
 71
     5
 42
280.723759005324
  3
STANDARD
100
AcDbAlignedDimension
 13
197.2356792660537
 23
335.8667651608045
 33
0.0
 14
477.9594382713777
 24
341.5667651608044
 34
0.0
100
AcDbRotatedDimension
  0
LINE
  5
1F53
330
1101
100
AcDbEntity
  8
TEXT
 62
     2
100
AcDbLine
 10
48.94075278318576
 20
375.1414103688398
 30
0.0
 11
155.8529736816866
 21
375.1414103688398
 31
0.0
  0
TEXT
  5
1F54
330
1101
100
AcDbEntity
  8
TEXT
 62
     1
100
AcDbText
 10
49.4647205235234
 20
366.1837058757066
 30
0.0
 40
7.0
  1
EDV-Art.Nr. 19929.100X
 41
0.8
  7
GREEKS
100
AcDbText
  0
TEXT
  5
1F55
330
1101
100
AcDbEntity
  8
TEXT
 62
     1
100
AcDbText
 10
49.4647205235234
 20
378.2019127029232
 30
0.0
 40
7.0
  1
Losflansch
 41
0.8
  7
GREEKS
100
AcDbText
  0
LINE
  5
1F56
330
1101
100
AcDbEntity
  8
TEXT
 62
     2
100
AcDbLine
 10
155.8529736816866
 20
375.1414103688398
 30
0.0
 11
183.5205070730977
 21
362.9370323386641
 31
0.0
  0
LINE
  5
1F57
330
1101
100
AcDbEntity
  8
TEXT
 62
     2
100
AcDbLine
 10
190.9146390424289
 20
359.6754195131876
 30
0.0
 11
204.0538447668823
 21
353.8796070925814
 31
0.0
  0
ARC
  5
1FAC
330
1101
100
AcDbEntity
  8
STEMPEL
100
AcDbCircle
 10
472.2594382713776
 20
341.5667651608044
 30
0.0
 40
2.7
100
AcDbArc
 50
270.0
 51
0.0
  0
HATCH
  5
1FAD
330
1101
100
AcDbEntity
  8
SCHRAFF
100
AcDbHatch
 10
0.0
 20
0.0
 30
0.0
210
0.0
220
0.0
230
1.0
  2
_USER
 70
     0
 71
     0
 91
        5
 92
        7
 72
     0
 73
     1
 93
        4
 10
477.959438271377
 20
440.8657478552778
 10
474.9594382713769
 20
440.8657478552781
 10
474.9594382713771
 20
405.8657478552807
 10
477.9594382713772
 20
405.8657478552807
 97
        0
 92
        7
 72
     1
 73
     1
 93
        8
 10
474.9594382713777
 20
341.5667651608044
 42
-0.4142135623731012
 10
472.2594382713776
 20
338.8667651608045
 42
0.0
 10
414.5080926255753
 20
338.8667651608044
 42
0.0
 10
414.5080926255753
 20
335.8667651608046
 42
0.0
 10
472.2594382713776
 20
335.8667651608045
 42
0.414213562373098
 10
477.9594382713777
 20
341.5667651608044
 42
0.0
 10
477.9594382713772
 20
405.8657478552808
 42
0.0
 10
474.9594382713771
 20
405.8657478552807
 42
0.0
 97
        0
 92
        7
 72
     0
 73
     1
 93
        4
 10
414.5080926255752
 20
335.8667651608044
 10
414.5080926255752
 20
338.8667651608045
 10
393.2356792660537
 20
338.8667651608044
 10
393.2356792660537
 20
335.8667651608046
 97
        0
 92
        7
 72
     0
 73
     1
 93
        4
 10
249.9632659065321
 20
338.8667651608044
 10
249.9632659065321
 20
335.8667651608046
 10
271.2356792660537
 20
335.8667651608046
 10
271.2356792660537
 20
338.8667651608044
 97
        0
 92
        7
 72
     0
 73
     1
 93
        4
 10
197.2356792660537
 20
338.8667651608045
 10
197.2356792660537
 20
335.8667651608046
 10
249.9632659065321
 20
335.8667651608045
 10
249.9632659065321
 20
338.8667651608044
 97
        0
 75
     0
 76
     0
 52
135.0
 41
2.0
 77
     0
 78
     1
 53
135.0
 43
97.86798935151086
 44
-110.4323157756603
 45
-1.414213562373095
 46
-1.414213562373094
 79
     0
 47
0.3575882173722964
 98
        5
 10
477.3404399582645
 20
420.1959108503226
 10
475.9092602825644
 20
372.2790894942802
 10
398.2678199428282
 20
336.1626794606111
 10
264.0948230813705
 20
337.950620318574
 10
244.4161189390556
 20
337.5930315937083
  0
LINE
  5
1FAE
102
{ACAD_REACTORS
330
1FDE
102
}
330
1101
100
AcDbEntity
  8
STEMPEL
100
AcDbLine
 10
474.9594382713769
 20
440.8657478552781
 30
0.0
 11
474.9594382713776
 21
341.5667651608044
 31
0.0
  0
LINE
  5
1FAF
330
1101
100
AcDbEntity
  8
STEMPEL
100
AcDbLine
 10
477.959438271377
 20
440.8657478552778
 30
0.0
 11
477.9594382713777
 21
341.5667651608044
 31
0.0
  0
ARC
  5
1FB0
330
1101
100
AcDbEntity
  8
STEMPEL
100
AcDbCircle
 10
472.2594382713776
 20
341.5667651608044
 30
0.0
 40
5.7
100
AcDbArc
 50
270.0
 51
0.0
  0
DIMENSION
  5
1FB1
330
1101
100
AcDbEntity
  8
BEM
100
AcDbDimension
  2
*D3
 10
493.6572567824145
 20
440.8657478552778
 30
0.0
 11
487.1572567824144
 21
388.3662565080412
 31
0.0
 70
    32
 71
     5
 42
104.9989826944733
  3
STANDARD
100
AcDbAlignedDimension
 13
472.2594382713776
 23
335.8667651608045
 33
0.0
 14
477.959438271377
 24
440.8657478552778
 34
0.0
 50
90.0
100
AcDbRotatedDimension
  0
LINE
  5
1FC8
330
1101
100
AcDbEntity
  8
STEMPEL
100
AcDbLine
 10
477.959438271377
 20
440.8657478552778
 30
0.0
 11
474.9594382713769
 21
440.8657478552781
 31
0.0
  0
LINE
  5
1FCA
102
{ACAD_REACTORS
330
1FDE
102
}
330
1101
100
AcDbEntity
  8
STEMPEL
100
AcDbLine
 10
471.9594382713769
 20
435.8657478552808
 30
0.0
 11
471.9594382713773
 21
375.8657478552809
 31
0.0
  0
LINE
  5
1FCB
102
{ACAD_REACTORS
330
1FDE
102
}
330
1101
100
AcDbEntity
  8
STEMPEL
100
AcDbLine
 10
471.959438271377
 20
435.8657478552808
 30
0.0
 11
474.959438271377
 21
435.8657478552808
 31
0.0
  0
LINE
  5
1FCC
102
{ACAD_REACTORS
330
1FDE
102
}
330
1101
100
AcDbEntity
  8
STEMPEL
100
AcDbLine
 10
471.9594382713773
 20
375.8657478552808
 30
0.0
 11
474.9594382713774
 21
375.8657478552808
 31
0.0
  0
HATCH
  5
1FDE
330
1101
100
AcDbEntity
  8
SCHRAFF
100
AcDbHatch
 10
0.0
 20
0.0
 30
0.0
210
0.0
220
0.0
230
1.0
  2
NET
 70
     0
 71
     1
 91
        2
 92
        7
 72
     0
 73
     1
 93
        4
 10
471.9594382713773
 20
405.8657478552808
 10
474.9594382713771
 20
405.8657478552808
 10
474.959438271377
 20
435.8657478552808
 10
471.9594382713769
 20
435.8657478552808
 97
        4
330
1FCB
330
1FCA
330
19FC
330
1FAE
 92
        7
 72
     0
 73
     1
 93
        4
 10
471.9594382713773
 20
375.8657478552807
 10
474.9594382713773
 20
375.8657478552808
 10
474.9594382713772
 20
405.8657478552807
 10
471.9594382713771
 20
405.8657478552808
 97
        4
330
19FC
330
1FCA
330
1FCC
330
1FAE
 75
     0
 76
     1
 52
45.0
 41
15.0
 77
     0
 78
     2
 53
45.0
 43
0.0
 44
0.0
 45
-1.325825214724776
 46
1.325825214724776
 79
     0
 53
135.0
 43
0.0
 44
0.0
 45
-1.325825214724776
 46
-1.325825214724776
 79
     0
 47
0.1058480791974207
 98
        2
 10
472.6129382992716
 20
427.9305593827337
 10
472.8246991837417
 20
399.0340340226771
  0
TEXT
  5
1FE8
330
1101
100
AcDbEntity
  8
TEXT
 62
     1
100
AcDbText
 10
535.3145891936926
 20
431.5979480175775
 30
0.0
 40
7.0
  1
Kompressionsdichtung
 41
0.8
  7
GREEKS
100
AcDbText
  0
LINE
  5
1FE9
330
1101
100
AcDbEntity
  8
TEXT
 62
     2
100
AcDbLine
 10
534.9669159341583
 20
428.3864380675816
 30
0.0
 11
639.3093325102285
 21
428.3864380675816
 31
0.0
  0
TEXT
  5
1FEA
330
1101
100
AcDbEntity
  8
TEXT
 62
     1
100
AcDbText
 10
535.1794471041691
 20
419.3256636752542
 30
0.0
 40
7.0
  1
EDV-Art.Nr. 21811.000X
 41
0.8
  7
GREEKS
100
AcDbText
  0
LINE
  5
1FEB
330
1101
100
AcDbEntity
  8
HILF
100
AcDbLine
 10
534.9669159341583
 20
428.3864380675816
 30
0.0
 11
497.7234569344341
 21
422.973915093025
 31
0.0
  0
LINE
  5
1FF5
330
1101
100
AcDbEntity
  8
HILF
100
AcDbLine
 10
491.1542890452564
 20
422.0192300804392
 30
0.0
 11
473.0585089348489
 21
419.3894038446207
 31
0.0
  0
LINE
  5
2009
330
1101
100
AcDbEntity
  8
STEMPEL
100
AcDbLine
 10
267.2356792660537
 20
338.8667651608045
 30
0.0
 11
267.2356792660537
 21
341.8667651608045
 31
0.0
  0
LINE
  5
200A
330
1101
100
AcDbEntity
  8
STEMPEL
100
AcDbLine
 10
397.2356792660538
 20
338.8667651608045
 30
0.0
 11
397.2356792660538
 21
341.8667651608045
 31
0.0
  0
LINE
  5
200B
330
1101
100
AcDbEntity
  8
STEMPEL
100
AcDbLine
 10
467.2356792660537
 20
338.8667651608045
 30
0.0
 11
467.2356792660537
 21
341.8667651608045
 31
0.0
  0
LINE
  5
200C
330
1101
100
AcDbEntity
  8
STEMPEL
100
AcDbLine
 10
197.2356792660537
 20
338.8667651608045
 30
0.0
 11
197.2356792660537
 21
341.8667651608045
 31
0.0
  0
LINE
  5
2015
102
{ACAD_REACTORS
330
219A
102
}
330
1101
100
AcDbEntity
  8
STEMPEL
100
AcDbLine
 10
267.2356792660537
 20
338.8667651608045
 30
0.0
 11
267.2356792660537
 21
341.8667651608045
 31
0.0
  0
LINE
  5
2016
102
{ACAD_REACTORS
330
219A
102
}
330
1101
100
AcDbEntity
  8
STEMPEL
100
AcDbLine
 10
397.2356792660538
 20
338.8667651608045
 30
0.0
 11
397.2356792660538
 21
341.8667651608045
 31
0.0
  0
LINE
  5
2017
102
{ACAD_REACTORS
330
219A
102
}
330
1101
100
AcDbEntity
  8
STEMPEL
100
AcDbLine
 10
467.2356792660537
 20
338.8667651608045
 30
0.0
 11
467.2356792660537
 21
341.8667651608045
 31
0.0
  0
LINE
  5
2018
102
{ACAD_REACTORS
330
219A
102
}
330
1101
100
AcDbEntity
  8
STEMPEL
100
AcDbLine
 10
197.2356792660537
 20
338.8667651608045
 30
0.0
 11
197.2356792660537
 21
341.8667651608045
 31
0.0
  0
LINE
  5
2019
102
{ACAD_REACTORS
330
219A
102
}
330
1101
100
AcDbEntity
  8
STEMPEL
100
AcDbLine
 10
467.2356792660537
 20
341.8667651608045
 30
0.0
 11
197.2356792660537
 21
341.8667651608045
 31
0.0
  0
HATCH
  5
219A
330
1101
100
AcDbEntity
  8
SCHRAFF
100
AcDbHatch
 10
0.0
 20
0.0
 30
0.0
210
0.0
220
0.0
230
1.0
  2
NET
 70
     0
 71
     1
 91
        4
 92
        7
 72
     0
 73
     1
 93
        4
 10
414.5080926255753
 20
341.8667651608045
 10
414.5080926255752
 20
338.8667651608044
 10
467.2356792660537
 20
338.8667651608045
 10
467.2356792660537
 20
341.8667651608045
 97
        4
330
2019
330
1A07
330
19F7
330
2017
 92
        7
 72
     0
 73
     1
 93
        4
 10
397.2356792660538
 20
341.8667651608045
 10
397.2356792660537
 20
338.8667651608044
 10
414.5080926255753
 20
338.8667651608045
 10
414.5080926255752
 20
341.8667651608045
 97
        4
330
2019
330
2016
330
19F7
330
1A07
 92
        7
 72
     0
 73
     1
 93
        4
 10
267.2356792660537
 20
338.8667651608045
 10
267.2356792660537
 20
341.8667651608045
 10
249.9632659065321
 20
341.8667651608046
 10
249.9632659065321
 20
338.8667651608045
 97
        4
330
2019
330
1A1C
330
19F7
330
2015
 92
        7
 72
     0
 73
     1
 93
        4
 10
249.9632659065321
 20
338.8667651608045
 10
249.9632659065321
 20
341.8667651608045
 10
197.2356792660537
 20
341.8667651608046
 10
197.2356792660537
 20
338.8667651608046
 97
        4
330
2019
330
2018
330
19F7
330
1A1C
 75
     0
 76
     1
 52
45.0
 41
15.0
 77
     0
 78
     2
 53
45.0
 43
0.0
 44
0.0
 45
-1.325825214724776
 46
1.325825214724776
 79
     0
 53
135.0
 43
0.0
 44
0.0
 45
-1.325825214724776
 46
-1.325825214724776
 79
     0
 47
0.3367606837783143
 98
        4
 10
421.945078202741
 20
340.4055920478811
 10
406.7853167398939
 20
340.4055920478811
 10
256.87211561712
 20
340.0688304647918
 10
242.3861215521306
 20
340.0688304647918
  0
TEXT
  5
219B
330
1101
100
AcDbEntity
  8
TEXT
 62
     1
100
AcDbText
 10
534.8099431691023
 20
351.4008902254527
 30
0.0
 40
7.0
  1
EDV-Art.Nr. 21810.100X
 41
0.8
  7
GREEKS
100
AcDbText
  0
LINE
  5
219C
330
1101
100
AcDbEntity
  8
TEXT
 62
     2
100
AcDbLine
 10
534.5974119990914
 20
360.4616646177802
 30
0.0
 11
638.9398285751617
 21
360.4616646177802
 31
0.0
  0
TEXT
  5
219D
330
1101
100
AcDbEntity
  8
TEXT
 62
     1
100
AcDbText
 10
534.9450852586257
 20
363.673174567776
 30
0.0
 40
7.0
  1
Kompressionsdichtung
 41
0.8
  7
GREEKS
100
AcDbText
  0
LINE
  5
219E
330
1101
100
AcDbEntity
  8
HILF
100
AcDbLine
 10
534.5974119990914
 20
360.4616646177802
 30
0.0
 11
496.1361371884378
 21
349.9876880691366
 31
0.0
  0
LINE
  5
219F
330
1101
100
AcDbEntity
  8
HILF
100
AcDbLine
 10
491.6304721195996
 20
348.7606816711588
 30
0.0
 11
461.2767002172836
 21
340.4945829359273
 31
0.0
  0
DIMENSION
  5
2265
330
1101
100
AcDbEntity
  8
BEM
100
AcDbDimension
  2
*D4
 10
772.4568559561494
 20
492.2311303555859
 30
0.0
 11
552.3462676111015
 21
498.7311303555859
 31
0.0
 70
    32
  1
800
 71
     5
 42
440.2211766900958
  3
STANDARD
100
AcDbAlignedDimension
 13
332.2356792660536
 23
368.866765160804
 33
0.0
 14
772.4568559561494
 24
245.0504178502541
 34
0.0
100
AcDbRotatedDimension
  0
LINE
  5
2266
102
{ACAD_REACTORS
330
248F
102
}
330
1101
100
AcDbEntity
  8
HILF
100
AcDbLine
 10
652.0736049652192
 20
289.2196434982206
 30
0.0
 11
649.2831860891674
 21
302.5811032382541
 31
0.0
210
0.0
220
0.0
230
-1.0
  0
LINE
  5
2267
102
{ACAD_REACTORS
330
248F
102
}
330
1101
100
AcDbEntity
  8
STEMPEL
100
AcDbLine
 10
649.7483113349844
 20
300.5539823650366
 30
0.0
 11
767.9994138154486
 21
294.3501799260914
 31
0.0
  0
LINE
  5
2268
102
{ACAD_REACTORS
330
248F
102
}
330
1101
100
AcDbEntity
  8
STEMPEL
100
AcDbLine
 10
649.2831860891674
 20
302.5811032382543
 30
0.0
 11
768.191338204294
 21
296.3428618573206
 31
0.0
  0
DIMENSION
  5
2269
330
1101
100
AcDbEntity
  8
BEM
100
AcDbDimension
  2
*D5
 10
814.4696733494518
 20
335.8667651608045
 30
0.0
 11
807.9696733494516
 21
290.4585915055294
 31
0.0
 70
    32
  1
91
 71
     5
 42
90.81634731055041
  3
STANDARD
100
AcDbAlignedDimension
 13
792.9863643309554
 23
245.0504178502541
 33
0.0
 14
472.2594382713776
 24
335.8667651608046
 34
0.0
 50
90.0
100
AcDbRotatedDimension
  0
LINE
  5
226B
102
{ACAD_REACTORS
330
248F
102
}
330
1101
100
AcDbEntity
  8
STEMPEL
100
AcDbLine
 10
644.6515051557671
 20
200.6838600585333
 30
0.0
 11
762.7043081567151
 21
194.4904531903366
 31
0.0
  0
LINE
  5
226C
102
{ACAD_REACTORS
330
248F
102
}
330
1101
100
AcDbEntity
  8
STEMPEL
100
AcDbLine
 10
644.1368107207599
 20
202.7135787428771
 30
0.0
 11
762.7218281454181
 21
196.4922840904212
 31
0.0
  0
DIMENSION
  5
226D
330
1101
100
AcDbEntity
  8
BEM
100
AcDbDimension
  2
*D6
 10
782.2746561199984
 20
245.0504178502541
 30
0.0
 11
725.8103888613379
 21
269.236971269171
 31
0.0
 70
    34
 71
     5
 42
0.0523598775598206
  3
STANDARD
100
AcDb2LineAngularDimension
 13
639.4082244474557
 23
252.0232011642723
 33
0.0
 14
777.4500033544946
 24
244.7887380834739
 34
0.0
 15
774.4568559561494
 25
245.0504178502541
 35
0.0
 16
726.7867847140147
 26
245.8475919090621
 36
0.0
  0
LINE
  5
226E
330
1101
100
AcDbEntity
  8
MITTEL
100
AcDbLine
 10
639.4082244474557
 20
252.0232011642723
 30
0.0
 11
777.4500033544946
 21
244.7887380834739
 31
0.0
  0
LINE
  5
2270
102
{ACAD_REACTORS
330
248F
102
}
330
1101
100
AcDbEntity
  8
HILF
100
AcDbLine
 10
644.651505155767
 20
200.6838600585332
 30
0.0
 11
641.4577913305541
 21
214.091689574164
 31
0.0
210
0.0
220
0.0
230
-1.0
  0
LINE
  5
2273
330
1101
100
AcDbEntity
  8
HILF
100
AcDbLine
 10
642.1782611234935
 20
246.0446447612987
 30
0.0
 11
644.8779926636335
 21
251.9755491669709
 31
0.0
210
0.0
220
0.0
230
-1.0
  0
LINE
  5
2275
330
1101
100
AcDbEntity
  8
HILF
100
AcDbLine
 10
639.5908769187821
 20
227.2607309928209
 30
0.0
 11
639.5695943096367
 21
233.6810848854795
 31
0.0
210
0.0
220
0.0
230
-1.0
  0
LINE
  5
2276
330
1101
100
AcDbEntity
  8
HILF
100
AcDbLine
 10
641.4577913305541
 20
214.091689574164
 30
0.0
 11
639.5908769187821
 21
227.2607309928209
 31
0.0
210
0.0
220
0.0
230
-1.0
  0
LINE
  5
2278
330
1101
100
AcDbEntity
  8
HILF
100
AcDbLine
 10
639.5695943096367
 20
233.6810848854795
 30
0.0
 11
640.3775613338917
 21
239.952196217529
 31
0.0
210
0.0
220
0.0
230
-1.0
  0
LINE
  5
2279
330
1101
100
AcDbEntity
  8
HILF
100
AcDbLine
 10
640.3775613338917
 20
239.952196217529
 30
0.0
 11
642.1782611234935
 21
246.0446447612987
 31
0.0
210
0.0
220
0.0
230
-1.0
  0
LINE
  5
227A
330
1101
100
AcDbEntity
  8
HILF
100
AcDbLine
 10
644.8779926636335
 20
251.9755491669709
 30
0.0
 11
650.608081199151
 21
263.7816029719833
 31
0.0
210
0.0
220
0.0
230
-1.0
  0
LINE
  5
2281
330
1101
100
AcDbEntity
  8
HILF
100
AcDbLine
 10
652.3988331140303
 20
269.8813783084523
 30
0.0
 11
653.0992694800065
 21
276.179977778887
 31
0.0
210
0.0
220
0.0
230
-1.0
  0
LINE
  5
2282
330
1101
100
AcDbEntity
  8
HILF
100
AcDbLine
 10
650.608081199151
 20
263.7816029719833
 30
0.0
 11
652.3988331140303
 21
269.8813783084523
 31
0.0
210
0.0
220
0.0
230
-1.0
  0
LINE
  5
2283
330
1101
100
AcDbEntity
  8
HILF
100
AcDbLine
 10
652.9173286653499
 20
282.6394742596725
 30
0.0
 11
652.0736049652192
 21
289.2196434982206
 31
0.0
210
0.0
220
0.0
230
-1.0
  0
LINE
  5
2284
330
1101
100
AcDbEntity
  8
HILF
100
AcDbLine
 10
653.0992694800065
 20
276.179977778887
 30
0.0
 11
652.9173286653499
 21
282.6394742596725
 31
0.0
210
0.0
220
0.0
230
-1.0
  0
LINE
  5
2285
102
{ACAD_REACTORS
330
248F
102
}
330
1101
100
AcDbEntity
  8
STEMPEL
100
AcDbLine
 10
775.0941369386564
 20
295.3727367614107
 30
0.0
 11
769.8201433197996
 21
194.7389436298079
 31
0.0
  0
DIMENSION
  5
2286
330
1101
100
AcDbEntity
  8
BEM
100
AcDbDimension
  2
*D7
 10
795.6698605155507
 20
294.8625288975189
 30
0.0
 11
786.4357572631099
 21
244.2859878965212
 31
0.0
 70
    33
  1
%%c101.6
 71
     5
 42
102.0001012254858
  3
STANDARD
100
AcDbAlignedDimension
 13
762.7043081567151
 23
194.4904531903366
 33
0.0
 14
768.191338204294
 24
296.3428618573206
 34
0.0
  0
LINE
  5
2287
330
1101
100
AcDbEntity
  8
HILF
100
AcDbLine
 10
767.8956245936322
 20
292.3451114049214
 30
0.0
 11
763.038115271506
 21
198.5045481688422
 31
0.0
  0
LINE
  5
2288
102
{ACAD_REACTORS
330
248F
102
}
330
1101
100
AcDbEntity
  8
STEMPEL
100
AcDbLine
 10
762.7043081567151
 20
194.4904531903366
 30
0.0
 11
769.8201433197996
 21
194.7389436298079
 31
0.0
  0
LINE
  5
2289
102
{ACAD_REACTORS
330
248F
102
}
330
1101
100
AcDbEntity
  8
STEMPEL
100
AcDbLine
 10
762.7218281454181
 20
196.4922840904212
 30
0.0
 11
769.9252150619863
 21
196.7438319044946
 31
0.0
  0
LINE
  5
228A
330
1101
100
AcDbEntity
  8
BEM
100
AcDbLine
 10
774.4568559561494
 20
245.0504178502541
 30
0.0
 11
782.2746561199984
 21
245.0504178502541
 31
0.0
  0
LINE
  5
228B
102
{ACAD_REACTORS
330
248F
102
}
330
1101
100
AcDbEntity
  8
STEMPEL
100
AcDbLine
 10
767.9994138154486
 20
294.3501799260914
 30
0.0
 11
774.9890651964695
 21
293.367848486724
 31
0.0
  0
LINE
  5
228C
102
{ACAD_REACTORS
330
248F
102
}
330
1101
100
AcDbEntity
  8
STEMPEL
100
AcDbLine
 10
768.191338204294
 20
296.3428618573206
 30
0.0
 11
775.0941369386564
 21
295.3727367614107
 31
0.0
  0
TEXT
  5
2291
330
1101
100
AcDbEntity
  8
TEXT
 62
     1
100
AcDbText
 10
69.04343498566209
 20
238.470043284248
 30
0.0
 40
7.0
  1
EDV-Art.Nr. 01377.100X
 41
0.8
  7
GREEKS
100
AcDbText
  0
TEXT
  5
2293
330
1101
100
AcDbEntity
  8
TEXT
 62
     1
100
AcDbText
 10
68.79288197497283
 20
250.0027331958037
 30
0.0
 40
7.0
  1
Ablaufkörper DN100
 41
0.8
  7
GREEKS
100
AcDbText
  0
DIMENSION
  5
23E3
330
1101
100
AcDbEntity
  8
BEM
100
AcDbDimension
  2
*D8
 10
173.8869296706962
 20
335.8667651608045
 30
0.0
 11
167.3869296706961
 21
305.8667651608045
 31
0.0
 70
    32
 71
     5
 42
60.0
  3
STANDARD
100
AcDbAlignedDimension
 13
274.2356792660537
 23
275.8667651608045
 33
0.0
 14
197.2356792660537
 24
335.8667651608045
 34
0.0
 50
90.0
100
AcDbRotatedDimension
  0
DIMENSION
  5
23E4
330
1101
100
AcDbEntity
  8
BEM
100
AcDbDimension
  2
*D9
 10
265.2356792660537
 20
219.2255804227591
 30
0.0
 11
231.2356792660537
 21
225.725580422759
 31
0.0
 70
    32
 71
     5
 42
68.0
  3
STANDARD
100
AcDbAlignedDimension
 13
197.2356792660537
 23
335.8667651608045
 33
0.0
 14
265.2356792660537
 24
284.8667651608045
 34
0.0
100
AcDbRotatedDimension
  0
DIMENSION
  5
23E5
330
1101
100
AcDbEntity
  8
BEM
100
AcDbDimension
  2
*D10
 10
465.2356792660537
 20
219.2255804227591
 30
0.0
 11
365.2356792660537
 21
225.725580422759
 31
0.0
 70
    32
 71
     5
 42
200.0
  3
STANDARD
100
AcDbAlignedDimension
 13
265.2356792660537
 23
285.8667651608045
 33
0.0
 14
465.2356792660537
 24
285.866765160805
 34
0.0
100
AcDbRotatedDimension
  0
HATCH
  5
23E6
330
1101
100
AcDbEntity
  8
SCHRAFF
100
AcDbHatch
 10
0.0
 20
0.0
 30
0.0
210
0.0
220
0.0
230
1.0
  2
_USER
 70
     0
 71
     0
 91
        2
 92
        7
 72
     1
 73
     1
 93
        8
 10
463.7356792660536
 20
327.3667651608045
 42
0.0
 10
463.7356792660536
 20
321.8667651608046
 42
0.0
 10
465.2356792660536
 20
321.8667651608045
 42
0.0
 10
465.2356792660536
 20
327.3667651608045
 42
-0.4142135623730951
 10
472.2356792660536
 20
334.3667651608045
 42
0.0
 10
472.9856792660537
 20
334.3667651608045
 42
0.0
 10
472.9856792660538
 20
335.8667651608045
 42
0.0
 10
472.2356792660536
 20
335.8667651608045
 42
0.4142135623730951
 97
        0
 92
        7
 72
     1
 73
     1
 93
       16
 10
359.5056792660537
 20
275.8667651608044
 42
-0.2679491924311252
 10
360.8047173717304
 20
275.1167651608044
 42
0.0
 10
387.438691967946
 20
228.9853679526603
 42
0.0
 10
388.7377300736225
 20
229.7353679526603
 42
0.0
 10
362.1037554774072
 20
275.8667651608044
 42
0.2679491924311252
 10
359.5056792660539
 20
277.3667651608044
 42
0.0
 10
274.2356792660537
 20
277.3667651608044
 42
-0.4142135623730951
 10
266.7356792660537
 20
284.8667651608045
 42
0.0
 10
266.7356792660537
 20
327.3667651608044
 42
0.4142135623730972
 10
258.2356792660537
 20
335.8667651608045
 42
0.0
 10
257.4856792660537
 20
335.8667651608045
 42
0.0
 10
257.4856792660536
 20
334.3667651608044
 42
0.0
 10
258.2356792660537
 20
334.3667651608044
 42
-0.4142135623730951
 10
265.2356792660537
 20
327.3667651608044
 42
0.0
 10
265.2356792660537
 20
284.8667651608045
 42
0.4142135623730951
 10
274.2356792660537
 20
275.8667651608044
 42
0.0
 97
        0
 75
     0
 76
     0
 52
45.0
 41
2.0
 77
     0
 78
     1
 53
45.0
 43
82.41769742180258
 44
-161.5307767759043
 45
-1.414213562373094
 46
1.414213562373095
 79
     0
 47
0.2822011861769339
 98
        2
 10
463.1402047575829
 20
325.7472385573866
 10
312.672254234491
 20
276.3620304011821
  0
LINE
  5
23E7
102
{ACAD_REACTORS
330
2413
102
}
330
1101
100
AcDbEntity
  8
STEMPEL
100
AcDbLine
 10
387.4386919679459
 20
228.9853679526602
 30
0.0
 11
389.0263271972823
 21
229.9019895796925
 31
0.0
  0
LINE
  5
23E8
330
1101
100
AcDbEntity
  8
STEMPEL
100
AcDbLine
 10
380.2356792660536
 20
275.8667651608045
 30
0.0
 11
380.2356792660536
 21
277.3667651608044
 31
0.0
  0
LINE
  5
23E9
330
1101
100
AcDbEntity
  8
STEMPEL
100
AcDbLine
 10
372.2356792660536
 20
275.8667651608045
 30
0.0
 11
372.2356792660536
 21
277.3667651608044
 31
0.0
  0
LINE
  5
23EA
330
1101
100
AcDbEntity
  8
STEMPEL
100
AcDbLine
 10
463.7356792660536
 20
321.8667651608046
 30
0.0
 11
465.2356792660536
 21
321.8667651608045
 31
0.0
  0
LINE
  5
23EB
330
1101
100
AcDbEntity
  8
STEMPEL
100
AcDbLine
 10
362.1037554774072
 20
275.8667651608044
 30
0.0
 11
388.7377300736226
 21
229.7353679526603
 31
0.0
  0
LINE
  5
23EC
330
1101
100
AcDbEntity
  8
STEMPEL
100
AcDbLine
 10
362.103755477407
 20
275.8667651608044
 30
0.0
 11
456.2356792660536
 21
275.8667651608044
 31
0.0
  0
ARC
  5
23ED
330
1101
100
AcDbEntity
  8
STEMPEL
100
AcDbCircle
 10
359.5056792660537
 20
274.3667651608045
 30
0.0
 40
3.0
100
AcDbArc
 50
30.00000000000055
 51
90.0
  0
ARC
  5
23EE
330
1101
100
AcDbEntity
  8
STEMPEL
100
AcDbCircle
 10
359.5056792660537
 20
274.3667651608045
 30
0.0
 40
1.5
100
AcDbArc
 50
30.00000000000055
 51
90.0
  0
LINE
  5
23EF
102
{ACAD_REACTORS
330
2413
102
}
330
1101
100
AcDbEntity
  8
STEMPEL
100
AcDbLine
 10
360.8047173717304
 20
275.1167651608044
 30
0.0
 11
387.4386919679459
 21
228.9853679526602
 31
0.0
  0
ARC
  5
23F0
330
1101
100
AcDbEntity
  8
STEMPEL
100
AcDbCircle
 10
258.2356792660537
 20
327.3667651608044
 30
0.0
 40
8.5
100
AcDbArc
 50
0.0
 51
90.0
  0
ARC
  5
23F1
330
1101
100
AcDbEntity
  8
STEMPEL
100
AcDbCircle
 10
472.2356792660536
 20
327.3667651608045
 30
0.0
 40
8.5
100
AcDbArc
 50
90.0
 51
180.0
  0
ARC
  5
23F2
330
1101
100
AcDbEntity
  8
STEMPEL
100
AcDbCircle
 10
258.2356792660537
 20
327.3667651608044
 30
0.0
 40
7.0
100
AcDbArc
 50
0.0
 51
90.0
  0
ARC
  5
23F3
330
1101
100
AcDbEntity
  8
STEMPEL
100
AcDbCircle
 10
472.2356792660536
 20
327.3667651608045
 30
0.0
 40
7.0
100
AcDbArc
 50
90.0
 51
180.0
  0
LINE
  5
23F4
330
1101
100
AcDbEntity
  8
STEMPEL
100
AcDbLine
 10
472.2356792660536
 20
334.3667651608045
 30
0.0
 11
472.9856792660537
 21
334.3667651608045
 31
0.0
  0
LINE
  5
23F5
330
1101
100
AcDbEntity
  8
STEMPEL
100
AcDbLine
 10
266.7356792660537
 20
327.3667651608044
 30
0.0
 11
266.7356792660537
 21
284.8667651608045
 31
0.0
  0
ARC
  5
23F6
330
1101
100
AcDbEntity
  8
STEMPEL
100
AcDbCircle
 10
274.2356792660537
 20
284.8667651608045
 30
0.0
 40
7.5
100
AcDbArc
 50
180.0
 51
270.0
  0
LINE
  5
23F7
330
1101
100
AcDbEntity
  8
STEMPEL
100
AcDbLine
 10
274.2356792660537
 20
277.3667651608044
 30
0.0
 11
456.2356792660536
 21
277.3667651608044
 31
0.0
  0
ARC
  5
23F8
330
1101
100
AcDbEntity
  8
STEMPEL
100
AcDbCircle
 10
456.2356792660536
 20
284.8667651608045
 30
0.0
 40
7.5
100
AcDbArc
 50
270.0
 51
0.0
  0
LINE
  5
23F9
330
1101
100
AcDbEntity
  8
STEMPEL
100
AcDbLine
 10
463.7356792660536
 20
327.3667651608045
 30
0.0
 11
463.7356792660536
 21
284.8667651608045
 31
0.0
  0
LINE
  5
23FA
330
1101
100
AcDbEntity
  8
STEMPEL
100
AcDbLine
 10
257.4856792660537
 20
334.3667651608045
 30
0.0
 11
258.2356792660537
 21
334.3667651608044
 31
0.0
  0
LINE
  5
23FB
330
1101
100
AcDbEntity
  8
STEMPEL
100
AcDbLine
 10
472.9856792660538
 20
335.8667651608045
 30
0.0
 11
472.9856792660537
 21
334.3667651608044
 31
0.0
  0
LINE
  5
23FC
330
1101
100
AcDbEntity
  8
STEMPEL
100
AcDbLine
 10
257.4856792660537
 20
335.8667651608045
 30
0.0
 11
257.4856792660537
 21
334.3667651608044
 31
0.0
  0
ARC
  5
23FD
330
1101
100
AcDbEntity
  8
STEMPEL
100
AcDbCircle
 10
274.2356792660537
 20
284.8667651608045
 30
0.0
 40
9.0
100
AcDbArc
 50
180.0
 51
270.0
  0
ARC
  5
23FE
330
1101
100
AcDbEntity
  8
STEMPEL
100
AcDbCircle
 10
456.2356792660536
 20
284.8667651608045
 30
0.0
 40
9.0
100
AcDbArc
 50
270.0
 51
0.0
  0
LINE
  5
23FF
330
1101
100
AcDbEntity
  8
STEMPEL
100
AcDbLine
 10
274.2356792660537
 20
275.8667651608044
 30
0.0
 11
359.5056792660537
 21
275.8667651608044
 31
0.0
  0
LINE
  5
2400
102
{ACAD_REACTORS
330
248F
102
}
330
1101
100
AcDbEntity
  8
STEMPEL
100
AcDbLine
 10
465.2356792660536
 20
327.3667651608045
 30
0.0
 11
465.2356792660536
 21
284.8667651608045
 31
0.0
  0
LINE
  5
2401
330
1101
100
AcDbEntity
  8
STEMPEL
100
AcDbLine
 10
265.2356792660537
 20
327.3667651608044
 30
0.0
 11
265.2356792660537
 21
284.8667651608045
 31
0.0
  0
LINE
  5
2402
330
1101
100
AcDbEntity
  8
MITTEL
100
AcDbLine
 10
357.7209115396818
 20
280.4313857315818
 30
0.0
 11
632.9155417755567
 21
266.0090462903018
 31
0.0
  0
LINE
  5
2403
102
{ACAD_REACTORS
330
2413
330
248F
102
}
330
1101
100
AcDbEntity
  8
STEMPEL
100
AcDbLine
 10
390.2057244296658
 20
227.8592136508981
 30
0.0
 11
625.2637275246422
 21
215.5403457059841
 31
0.0
  0
LINE
  5
2404
102
{ACAD_REACTORS
330
248F
102
}
330
1101
100
AcDbEntity
  8
STEMPEL
100
AcDbLine
 10
465.2356792660536
 20
325.6664906916048
 30
0.0
 11
630.5810606789252
 21
317.0011064370488
 31
0.0
  0
LINE
  5
2405
102
{ACAD_REACTORS
330
248F
102
}
330
1101
100
AcDbEntity
  8
STEMPEL
100
AcDbLine
 10
389.4903064539644
 20
229.0983539334613
 30
0.0
 11
625.3265306721337
 21
216.7387011476896
 31
0.0
  0
LINE
  5
2406
102
{ACAD_REACTORS
330
248F
102
}
330
1101
100
AcDbEntity
  8
STEMPEL
100
AcDbLine
 10
465.2356792660535
 20
324.4648438764074
 30
0.0
 11
630.8718393808846
 21
315.7842205558188
 31
0.0
  0
LINE
  5
2407
102
{ACAD_REACTORS
330
2413
330
248F
102
}
330
1101
100
AcDbEntity
  8
STEMPEL
100
AcDbLine
 10
362.4885516422873
 20
275.8667651608044
 30
0.0
 11
390.2057244296658
 21
227.8592136508981
 31
0.0
  0
LINE
  5
2408
330
1101
100
AcDbEntity
  8
STEMPEL
100
AcDbLine
 10
380.2356792660535
 20
277.3667651608044
 30
0.0
 11
372.2356792660536
 21
277.3667651608044
 31
0.0
  0
LINE
  5
2409
330
1101
100
AcDbEntity
  8
STEMPEL
100
AcDbLine
 10
372.2356792660536
 20
277.3667651608044
 30
0.0
 11
372.2356792660536
 21
275.8667651608044
 31
0.0
  0
LINE
  5
240A
330
1101
100
AcDbEntity
  8
STEMPEL
100
AcDbLine
 10
380.2356792660535
 20
277.3667651608044
 30
0.0
 11
380.2356792660535
 21
275.8667651608044
 31
0.0
  0
LINE
  5
240B
330
1101
100
AcDbEntity
  8
STEMPEL
100
AcDbLine
 10
372.2356792660535
 20
275.8667651608044
 30
0.0
 11
362.4885516422873
 21
275.8667651608044
 31
0.0
  0
SPLINE
  5
240C
102
{ACAD_REACTORS
330
248F
102
}
330
1101
100
AcDbEntity
  8
HILF
100
AcDbSpline
210
0.0
220
0.0
230
1.0
 70
  1064
 71
     3
 72
    11
 73
     7
 74
     5
 42
0.000000001
 43
0.0000000001
 44
0.0000000001
 40
0.0
 40
0.0
 40
0.0
 40
0.0
 40
25.88744869623113
 40
51.77489739246226
 40
77.66234608869345
 40
103.5497947849245
 40
103.5497947849245
 40
103.5497947849245
 40
103.5497947849245
 10
625.2637275246421
 20
215.5403457059842
 30
0.0
 10
623.2102647839459
 20
224.1262489908469
 30
0.0
 10
619.1033393025536
 20
241.2980555605724
 30
0.0
 10
627.9223941017838
 20
266.2707260715165
 30
0.0
 10
636.7414489010139
 20
291.2433965824606
 30
0.0
 10
632.6345234196215
 20
308.4152031521861
 30
0.0
 10
630.5810606789252
 20
317.0011064370488
 30
0.0
 11
625.2637275246421
 21
215.5403457059842
 31
0.0
 11
621.5999131394401
 21
241.1672156699651
 31
0.0
 11
627.9223941017837
 21
266.2707260715165
 31
0.0
 11
634.2448750641274
 21
291.374236473068
 31
0.0
 11
630.5810606789252
 21
317.0011064370488
 31
0.0
  0
ARC
  5
240E
330
1101
100
AcDbEntity
  8
SCHRAFF
100
AcDbCircle
 10
472.9856792660538
 20
335.8667651608045
 30
0.0
 40
3.0
100
AcDbArc
 50
214.8159421986008
 51
23.30319950697824
  0
HATCH
  5
240F
330
1101
100
AcDbEntity
  8
SCHRAFF
100
AcDbHatch
 10
0.0
 20
0.0
 30
0.0
210
0.0
220
0.0
230
1.0
  2
_USER
 70
     0
 71
     0
 91
        1
 92
        7
 72
     1
 73
     1
 93
        6
 10
475.7409521417129
 20
337.0535555301022
 42
-0.1657586665733129
 10
472.2594382713776
 20
335.8667651608045
 42
0.0
 10
472.9856792660539
 20
335.8667651608045
 42
0.0
 10
472.9856792660537
 20
334.3667651608045
 42
0.0
 10
472.2356792660536
 20
334.3667651608045
 42
0.0618840054865123
 10
470.5227081266368
 20
334.1539390848708
 42
0.9042611509728198
 97
        0
 75
     0
 76
     0
 52
0.0
 41
0.1
 77
     0
 78
     1
 53
0.0
 43
97.86798935151086
 44
-110.4323157756603
 45
0.0
 46
0.1
 79
     0
 47
0.0163675284047689
 98
        1
 10
473.9475631458512
 20
334.9398924396464
  0
ARC
  5
2410
330
1101
100
AcDbEntity
  8
SCHRAFF
100
AcDbCircle
 10
257.4856792660537
 20
335.8667651608045
 30
0.0
 40
3.0
100
AcDbArc
 50
180.0
 51
325.1840578013947
  0
HATCH
  5
2411
330
1101
100
AcDbEntity
  8
SCHRAFF
100
AcDbHatch
 10
0.0
 20
0.0
 30
0.0
210
0.0
220
0.0
230
1.0
  2
_USER
 70
     0
 71
     0
 91
        1
 92
        7
 72
     1
 73
     1
 93
        5
 10
259.9486504054707
 20
334.1539390848707
 42
0.0618840054865186
 10
258.2356792660537
 20
334.3667651608044
 42
0.0
 10
257.4856792660537
 20
334.3667651608044
 42
0.0
 10
257.4856792660537
 20
335.8667651608045
 42
0.0
 10
254.4856792660537
 20
335.8667651608045
 42
0.7344659377783209
 97
        0
 75
     0
 76
     0
 52
0.0
 41
0.1
 77
     0
 78
     1
 53
0.0
 43
97.86798935151086
 44
-110.4323157756603
 45
0.0
 46
0.1
 79
     0
 47
0.0233643328893535
 98
        1
 10
258.0722395641366
 20
333.639008090189
  0
ARC
  5
2412
102
{ACAD_REACTORS
330
2413
102
}
330
1101
100
AcDbEntity
  8
SCHRAFF
100
AcDbCircle
 10
389.0263271972823
 20
229.9019895796925
 30
0.0
 40
3.0
100
AcDbArc
 50
157.6677135408415
 51
315.744562421018
  0
HATCH
  5
2413
330
1101
100
AcDbEntity
  8
SCHRAFF
100
AcDbHatch
 10
0.0
 20
0.0
 30
0.0
210
0.0
220
0.0
230
1.0
  2
_USER
 70
     0
 71
     1
 91
        1
 92
        7
 72
     1
 73
     1
 93
        5
 10
391.1750343492808
 20
227.808414270574
 42
0.0
 10
390.2057244296658
 20
227.8592136508981
 42
0.0
 10
389.0263271972823
 20
229.9019895796925
 42
0.0
 10
387.4386919679459
 20
228.9853679526602
 42
0.0
 10
386.2513399591227
 20
231.041921958411
 42
0.8248997158257608
 97
        5
330
2403
330
2407
330
23E7
330
23EF
330
2412
 75
     0
 76
     0
 52
0.0
 41
0.1
 77
     0
 78
     1
 53
0.0
 43
97.86798935151086
 44
-110.4323157756603
 45
0.0
 46
0.1
 79
     0
 47
0.0476095475366224
 98
        1
 10
388.4456635994813
 20
227.6643624391845
  0
HATCH
  5
248F
330
1101
100
AcDbEntity
  8
SCHRAFF
100
AcDbHatch
 10
0.0
 20
0.0
 30
0.0
210
0.0
220
0.0
230
1.0
  2
_USER
 70
     0
 71
     1
 91
        4
 92
        7
 72
     0
 73
     1
 93
        6
 10
767.999413815448
 20
294.3501799260914
 10
774.9890651964693
 20
293.367848486724
 10
775.0941369386564
 20
295.3727367614106
 10
768.1913382042937
 20
296.3428618573207
 10
649.2831860891673
 20
302.5811032382543
 10
649.7060689509894
 20
300.5561985253883
 97
        6
330
2266
330
2267
330
228B
330
2285
330
228C
330
2268
 92
        5
 93
        4
 72
     4
 94
        3
 73
     0
 74
     0
 95
        8
 96
        4
 40
102.3267657126617
 40
102.3267657126617
 40
102.3267657126617
 40
102.3267657126617
 40
103.5497947849245
 40
103.5497947849245
 40
103.5497947849245
 40
103.5497947849245
 10
630.8718393808846
 20
315.7842205558189
 10
630.7750886544241
 20
316.1898399849359
 10
630.6780746666746
 20
316.5954732109923
 10
630.5810606789252
 20
317.0011064370488
 72
     1
 10
630.5810606789251
 20
317.0011064370488
 11
465.2356792660535
 21
325.6664906916048
 72
     1
 10
465.2356792660535
 20
325.6664906916048
 11
465.2356792660535
 21
324.4648438764075
 72
     1
 10
465.2356792660535
 20
324.4648438764075
 11
630.8718393808848
 21
315.7842205558188
 97
        4
330
2404
330
2400
330
2406
330
240C
 92
        5
 93
        4
 72
     4
 94
        3
 73
     0
 74
     0
 95
        8
 96
        4
 40
0.0
 40
0.0
 40
0.0
 40
0.0
 40
1.223029072262853
 40
1.223029072262853
 40
1.223029072262853
 40
1.223029072262853
 10
625.2637275246421
 20
215.5403457059842
 10
625.1667135368927
 20
215.9459789320407
 10
625.0696995491432
 20
216.3516121580972
 10
624.9729488226827
 20
216.7572315872142
 72
     1
 10
624.9729488226827
 20
216.7572315872141
 11
389.4903064539643
 21
229.0983539334613
 72
     1
 10
389.4903064539643
 20
229.0983539334613
 11
390.205724429666
 21
227.8592136508981
 72
     1
 10
390.205724429666
 20
227.8592136508981
 11
625.2637275246421
 21
215.5403457059841
 97
        4
330
2407
330
2403
330
240C
330
2405
 92
        7
 72
     0
 73
     1
 93
        6
 10
644.1684259630153
 20
202.7119201207185
 10
644.6515051557669
 20
200.6838600585333
 10
762.7043081567151
 20
194.4904531903366
 10
769.8201433197996
 20
194.7389436298079
 10
769.9252150619864
 20
196.7438319044946
 10
762.7218281454179
 20
196.4922840904211
 97
        6
330
2270
330
226B
330
2288
330
2285
330
2289
330
226C
 75
     0
 76
     0
 52
135.0
 41
2.0
 77
     0
 78
     1
 53
135.0
 43
50.25078340804975
 44
-2.633531965649012
 45
-1.414213562373095
 46
-1.414213562373094
 79
     0
 47
0.3999383787783298
 98
        4
 10
706.1048001411659
 20
298.1155664135252
 10
622.4872703370038
 20
316.5127321562335
 10
585.2794711295537
 20
218.1278905776316
 10
698.5032067102975
 20
198.9308489779226
  0
TEXT
  5
2499
330
1101
100
AcDbEntity
  8
TEXT
 62
     1
100
AcDbText
 10
534.1116446030963
 20
292.6482266489868
 30
0.0
 40
7.0
  1
DN100
 50
357.0
 41
0.8
  7
GREEKS
100
AcDbText
  0
HATCH
  5
24C9
330
1101
100
AcDbEntity
  8
SCHRAFF
100
AcDbHatch
 10
0.0
 20
0.0
 30
0.0
210
0.0
220
0.0
230
1.0
  2
_USER
 70
     0
 71
     1
 91
        4
 92
        7
 72
     0
 73
     1
 93
       12
 10
213.2356792660537
 20
344.3667651608045
 10
214.2356792660537
 20
344.3667651608046
 10
214.2356792660537
 20
347.3667651608045
 10
213.7356792660537
 20
347.3667651608045
 10
213.7356792660537
 20
350.3667651608045
 10
214.2356792660537
 20
350.3667651608046
 10
214.2356792660537
 20
358.3667651608044
 10
213.7356792660537
 20
358.3667651608044
 10
213.7356792660537
 20
361.3667651608044
 10
214.2356792660537
 20
361.3667651608044
 10
214.2356792660537
 20
365.3667651608065
 10
213.2356792660536
 20
365.3667651608066
 97
       12
330
1DF6
330
1A8A
330
1A80
330
1A92
330
1A93
330
1A94
330
1A95
330
1A8B
330
1AA1
330
1AA2
330
1AA3
330
1AA0
 92
        7
 72
     0
 73
     1
 93
        4
 10
212.6221792660536
 20
344.3667651608045
 10
213.2356792660537
 20
344.3667651608045
 10
213.2356792660536
 20
365.3667651608066
 10
212.6221792660537
 20
365.3667651608066
 97
        4
330
1DF6
330
1A89
330
1A80
330
1A8A
 92
        7
 72
     0
 73
     1
 93
        4
 10
207.2356792660538
 20
344.3667651608045
 10
207.8491792660537
 20
344.3667651608045
 10
207.8491792660537
 20
365.3667651608066
 10
207.2356792660537
 20
365.3667651608066
 97
        4
330
1DF6
330
1A88
330
1A80
330
1A87
 92
        7
 72
     0
 73
     1
 93
       12
 10
207.2356792660537
 20
365.3667651608066
 10
206.2356792660537
 20
365.3667651608066
 10
206.2356792660537
 20
361.3667651608044
 10
206.7356792660537
 20
361.3667651608044
 10
206.7356792660537
 20
358.3667651608044
 10
206.2356792660537
 20
358.3667651608044
 10
206.2356792660537
 20
350.3667651608044
 10
206.7356792660537
 20
350.3667651608044
 10
206.7356792660537
 20
347.3667651608045
 10
206.2356792660537
 20
347.3667651608045
 10
206.2356792660537
 20
344.3667651608046
 10
207.2356792660537
 20
344.3667651608046
 97
       12
330
1DF6
330
1A9B
330
1A99
330
1AA5
330
1A9A
330
1A86
330
1A8C
330
1A96
330
1A8D
330
1A8E
330
1A80
330
1A88
 75
     0
 76
     0
 52
135.0
 41
1.0
 77
     0
 78
     1
 53
135.0
 43
0.0
 44
0.0
 45
-0.7071067811865476
 46
-0.7071067811865475
 79
     0
 47
0.0643063773667971
 98
        4
 10
213.722669279442
 20
363.7428760403182
 10
212.8863613044905
 20
363.6142631820153
 10
207.4825319189392
 20
364.3859403318322
 10
206.7748877848655
 20
364.2573274735294
  0
ENDSEC
  0
SECTION
  2
OBJECTS
  0
DICTIONARY
  5
10EF
330
0
100
AcDbDictionary
281
     1
  3
ACAD_CIP_PREVIOUS_PRODUCT_INFO
350
2536
  3
ACAD_COLOR
350
1802
  3
ACAD_DETAILVIEWSTYLE
350
2531
  3
ACAD_GROUP
350
10F0
  3
ACAD_LAYOUT
350
10FC
  3
ACAD_MATERIAL
350
1801
  3
ACAD_MLEADERSTYLE
350
252C
  3
ACAD_MLINESTYLE
350
10F9
  3
ACAD_PLOTSETTINGS
350
10FB
  3
ACAD_PLOTSTYLENAME
350
10F1
  3
ACAD_SCALELIST
350
251A
  3
ACAD_SECTIONVIEWSTYLE
350
252E
  3
ACAD_TABLESTYLE
350
2518
  3
ACAD_VISUALSTYLE
350
24FF
  3
ACDB_RECOMPOSE_DATA
350
26E6
  3
AcDbVariableDictionary
350
112B
  0
DICTIONARY
  5
25B6
330
10EB
100
AcDbDictionary
280
     1
281
     1
  0
DICTIONARY
  5
1945
330
10E5
100
AcDbDictionary
280
     1
281
     1
  3
ACAD_LAYERSTATES
360
1946
  0
DICTIONARY
  5
2539
330
10F3
100
AcDbDictionary
280
     1
281
     1
  3
ADSK_XREC_LAYER_RECONCILED
360
253A
  0
DICTIONARY
  5
253B
330
111D
100
AcDbDictionary
280
     1
281
     1
  3
ADSK_XREC_LAYER_RECONCILED
360
253C
  0
DICTIONARY
  5
253D
330
111E
100
AcDbDictionary
280
     1
281
     1
  3
ADSK_XREC_LAYER_RECONCILED
360
253E
  0
DICTIONARY
  5
253F
330
111F
100
AcDbDictionary
280
     1
281
     1
  3
ADSK_XREC_LAYER_RECONCILED
360
2540
  0
DICTIONARY
  5
2541
330
1120
100
AcDbDictionary
280
     1
281
     1
  3
ADSK_XREC_LAYER_RECONCILED
360
2542
  0
DICTIONARY
  5
2543
330
1121
100
AcDbDictionary
280
     1
281
     1
  3
ADSK_XREC_LAYER_RECONCILED
360
2544
  0
DICTIONARY
  5
2545
330
1122
100
AcDbDictionary
280
     1
281
     1
  3
ADSK_XREC_LAYER_RECONCILED
360
2546
  0
DICTIONARY
  5
2547
330
1123
100
AcDbDictionary
280
     1
281
     1
  3
ADSK_XREC_LAYER_RECONCILED
360
2548
  0
DICTIONARY
  5
1561
330
1101
100
AcDbDictionary
280
     1
281
     1
  3
ACAD_LAYOUTSELFREF
360
17A3
  0
DICTIONARY
  5
1563
330
10FD
100
AcDbDictionary
280
     1
281
     1
  3
ACAD_LAYOUTSELFREF
360
17A2
  0
XRECORD
  5
2536
102
{ACAD_REACTORS
330
10EF
102
}
330
10EF
100
AcDbXrecord
280
     1
300
ACD
300
2013
300
ACD_F_S
  0
DICTIONARY
  5
1802
102
{ACAD_REACTORS
330
10EF
102
}
330
10EF
100
AcDbDictionary
281
     1
  0
DICTIONARY
  5
2531
102
{ACAD_REACTORS
330
10EF
102
}
330
10EF
100
AcDbDictionary
281
     1
  3
Imperial24
350
2532
  0
DICTIONARY
  5
10F0
102
{ACAD_REACTORS
330
10EF
102
}
330
10EF
100
AcDbDictionary
281
     1
  0
DICTIONARY
  5
10FC
102
{ACAD_REACTORS
330
10EF
102
}
330
10EF
100
AcDbDictionary
281
     1
  3
Layout1
350
1100
  3
Model
350
1104
  0
DICTIONARY
  5
1801
102
{ACAD_REACTORS
330
10EF
102
}
330
10EF
100
AcDbDictionary
281
     1
  3
ByBlock
350
24EF
  3
ByLayer
350
24E7
  3
Global
350
24F7
  0
DICTIONARY
  5
252C
102
{ACAD_REACTORS
330
10EF
102
}
330
10EF
100
AcDbDictionary
281
     1
  3
Standard
350
252D
  0
DICTIONARY
  5
10F9
102
{ACAD_REACTORS
330
10EF
102
}
330
10EF
100
AcDbDictionary
281
     1
  3
Standard
350
10FA
  0
DICTIONARY
  5
10FB
102
{ACAD_REACTORS
330
10EF
102
}
330
10EF
100
AcDbDictionary
281
     1
  0
ACDBDICTIONARYWDFLT
  5
10F1
102
{ACAD_REACTORS
330
10EF
102
}
330
10EF
100
AcDbDictionary
281
     1
  3
Normal
350
10F2
100
AcDbDictionaryWithDefault
340
10F2
  0
DICTIONARY
  5
251A
102
{ACAD_REACTORS
330
10EF
102
}
330
10EF
100
AcDbDictionary
281
     1
  3
A0
350
251B
  3
A1
350
251C
  3
A2
350
251D
  3
A3
350
251E
  3
A4
350
251F
  3
A5
350
2520
  3
A6
350
2521
  3
A7
350
2522
  3
A8
350
2523
  3
A9
350
2524
  3
B0
350
2525
  3
B1
350
2526
  3
B2
350
2527
  3
B3
350
2528
  3
B4
350
2529
  3
B5
350
252A
  3
B6
350
252B
  0
DICTIONARY
  5
252E
102
{ACAD_REACTORS
330
10EF
102
}
330
10EF
100
AcDbDictionary
281
     1
  3
Imperial24
350
2530
  0
DICTIONARY
  5
2518
102
{ACAD_REACTORS
330
10EF
102
}
330
10EF
100
AcDbDictionary
281
     1
  3
Standard
350
2519
  0
DICTIONARY
  5
24FF
102
{ACAD_REACTORS
330
10EF
102
}
330
10EF
100
AcDbDictionary
281
     1
  3
2dWireframe
350
2505
  3
Basic
350
2504
  3
Brighten
350
250B
  3
ColorChange
350
250F
  3
Conceptual
350
2508
  3
Dim
350
250A
  3
EdgeColorOff
350
2517
  3
Facepattern
350
250E
  3
Flat
350
2500
  3
FlatWithEdges
350
2501
  3
Gouraud
350
2502
  3
GouraudWithEdges
350
2503
  3
Hidden
350
2507
  3
JitterOff
350
2515
  3
Linepattern
350
250D
  3
OverhangOff
350
2516
  3
Realistic
350
2509
  3
Shaded
350
2514
  3
Shaded with edges
350
2513
  3
Shades of Gray
350
2510
  3
Sketchy
350
2511
  3
Thicken
350
250C
  3
Wireframe
350
2506
  3
X-Ray
350
2512
  0
XRECORD
  5
26E6
102
{ACAD_REACTORS
330
10EF
102
}
330
10EF
100
AcDbXrecord
280
     1
 90
        1
330
2519
  0
DICTIONARY
  5
112B
102
{ACAD_REACTORS
330
10EF
102
}
330
10EF
100
AcDbDictionary
281
     1
  3
CANNOSCALE
350
25F5
  3
CMLEADERSTYLE
350
25F2
  3
CTABLESTYLE
350
25F1
  3
CVIEWDETAILSTYLE
350
25F3
  3
CVIEWSECTIONSTYLE
350
25F4
  3
DIMASSOC
350
180D
  3
PROJECTNAME
350
180E
  3
SORTENTS
350
112C
  0
DICTIONARY
  5
1946
102
{ACAD_REACTORS
330
1945
102
}
330
1945
100
AcDbDictionary
281
     1
  0
XRECORD
  5
253A
102
{ACAD_REACTORS
330
2539
102
}
330
2539
100
AcDbXrecord
280
     1
290
     1
  0
XRECORD
  5
253C
102
{ACAD_REACTORS
330
253B
102
}
330
253B
100
AcDbXrecord
280
     1
290
     1
  0
XRECORD
  5
253E
102
{ACAD_REACTORS
330
253D
102
}
330
253D
100
AcDbXrecord
280
     1
290
     1
  0
XRECORD
  5
2540
102
{ACAD_REACTORS
330
253F
102
}
330
253F
100
AcDbXrecord
280
     1
290
     1
  0
XRECORD
  5
2542
102
{ACAD_REACTORS
330
2541
102
}
330
2541
100
AcDbXrecord
280
     1
290
     1
  0
XRECORD
  5
2544
102
{ACAD_REACTORS
330
2543
102
}
330
2543
100
AcDbXrecord
280
     1
290
     1
  0
XRECORD
  5
2546
102
{ACAD_REACTORS
330
2545
102
}
330
2545
100
AcDbXrecord
280
     1
290
     1
  0
XRECORD
  5
2548
102
{ACAD_REACTORS
330
2547
102
}
330
2547
100
AcDbXrecord
280
     1
290
     1
  0
XRECORD
  5
17A3
102
{ACAD_REACTORS
330
1561
102
}
330
1561
100
AcDbXrecord
280
     1
340
1101
  0
XRECORD
  5
17A2
102
{ACAD_REACTORS
330
1563
102
}
330
1563
100
AcDbXrecord
280
     1
340
10FD
  0
ACDBDETAILVIEWSTYLE
  5
2532
102
{ACAD_REACTORS
330
2531
102
}
330
2531
100
AcDbModelDocViewStyle
 70
     0
  3
Imperial24
290
     0
100
AcDbDetailViewStyle
 70
     0
 71
     0
 90
        3
 71
     1
340
10F4
 62
   256
 40
0.24
340
0
 62
   256
 40
0.24
300

 40
0.36
280
     3
 71
     2
340
10F8
 90
       25
 62
   256
 71
     3
340
10F4
 62
   256
 40
0.24
 90
        1
 40
0.75
 90
        1
300
%<\AcVar ViewType \f "%tc1">% %<\AcVar ViewDetailId>%\PVARIA %<\AcVar ViewScale \f "%sn">%
 71
     4
340
10F8
 90
       25
 62
   256
340
10F8
 90
       25
 62
   256
280
     0
  0
LAYOUT
  5
1100
102
{ACAD_REACTORS
330
10FC
102
}
330
10FC
100
AcDbPlotSettings
  1

  2
\\NT_WORK01\HP LaserJet 5000 PCL 6
  4

  6

 40
0.0
 41
0.0
 42
0.0
 43
0.0
 44
0.0
 45
0.0
 46
0.0
 47
0.0
 48
0.0
 49
0.0
140
0.0
141
0.0
142
1.0
143
1.0
 70
   688
 72
     0
 73
     0
 74
     5
  7
monochrome.ctb
 75
    16
147
1.0
 76
     0
 77
     2
 78
   300
148
0.0
149
0.0
100
AcDbLayout
  1
Layout1
 70
     0
 71
     1
 10
0.0
 20
0.0
 11
12.0
 21
9.0
 12
0.0
 22
0.0
 32
0.0
 14
1.000000000000000E+20
 24
1.000000000000000E+20
 34
1.000000000000000E+20
 15
-1.000000000000000E+20
 25
-1.000000000000000E+20
 35
-1.000000000000000E+20
146
0.0
 13
0.0
 23
0.0
 33
0.0
 16
1.0
 26
0.0
 36
0.0
 17
0.0
 27
1.0
 37
0.0
 76
     0
330
10FD
  0
LAYOUT
  5
1104
102
{ACAD_XDICTIONARY
360
25B8
102
}
102
{ACAD_REACTORS
330
10FC
102
}
330
10FC
100
AcDbPlotSettings
  1

  2
none_device
  4
Letter_(8.50_x_11.00_Inches)
  6

 40
6.349999904632568
 41
6.349999904632568
 42
6.350006103515625
 43
6.350006103515625
 44
215.8999938964844
 45
279.3999938964844
 46
0.0
 47
0.0
 48
0.0
 49
0.0
140
0.0
141
0.0
142
1.0
143
1.0
 70
 11952
 72
     0
 73
     1
 74
     0
  7

 75
     0
147
1.0
 76
     0
 77
     2
 78
   300
148
-3439.080930369972
149
89.86823476943103
100
AcDbLayout
  1
Model
 70
     1
 71
     0
 10
0.0
 20
0.0
 11
12.0
 21
9.0
 12
0.0
 22
0.0
 32
0.0
 14
0.0
 24
0.0
 34
0.0
 15
0.0
 25
0.0
 35
0.0
146
0.0
 13
0.0
 23
0.0
 33
0.0
 16
1.0
 26
0.0
 36
0.0
 17
0.0
 27
1.0
 37
0.0
 76
     0
330
1101
331
24E5
  0
MATERIAL
  5
24EF
102
{ACAD_XDICTIONARY
360
24F0
102
}
102
{ACAD_REACTORS
330
1801
102
}
330
1801
100
AcDbMaterial
  1
ByBlock
 72
     0
 43
0.0208333333333333
 43
0.0
 43
0.0
 43
0.0
 43
0.0
 43
0.0208333333333333
 43
0.0
 43
0.0
 43
0.0
 43
0.0
 43
1.0
 43
0.0
 43
0.0
 43
0.0
 43
0.0
 43
1.0
 77
     0
 47
0.0208333333333333
 47
0.0
 47
0.0
 47
0.0
 47
0.0
 47
0.0208333333333333
 47
0.0
 47
0.0
 47
0.0
 47
0.0
 47
1.0
 47
0.0
 47
0.0
 47
0.0
 47
0.0
 47
1.0
171
     0
 49
0.0208333333333333
 49
0.0
 49
0.0
 49
0.0
 49
0.0
 49
0.0208333333333333
 49
0.0
 49
0.0
 49
0.0
 49
0.0
 49
1.0
 49
0.0
 49
0.0
 49
0.0
 49
0.0
 49
1.0
175
     0
142
0.0208333333333333
142
0.0
142
0.0
142
0.0
142
0.0
142
0.0208333333333333
142
0.0
142
0.0
142
0.0
142
0.0
142
1.0
142
0.0
142
0.0
142
0.0
142
0.0
142
1.0
179
     0
144
0.0208333333333333
144
0.0
144
0.0
144
0.0
144
0.0
144
0.0208333333333333
144
0.0
144
0.0
144
0.0
144
0.0
144
1.0
144
0.0
144
0.0
144
0.0
144
0.0
144
1.0
147
0.0208333333333333
147
0.0
147
0.0
147
0.0
147
0.0
147
0.0208333333333333
147
0.0
147
0.0
147
0.0
147
0.0
147
1.0
147
0.0
147
0.0
147
0.0
147
0.0
147
1.0
  0
MATERIAL
  5
24E7
102
{ACAD_XDICTIONARY
360
24E8
102
}
102
{ACAD_REACTORS
330
1801
102
}
330
1801
100
AcDbMaterial
  1
ByLayer
 72
     0
 43
0.0208333333333333
 43
0.0
 43
0.0
 43
0.0
 43
0.0
 43
0.0208333333333333
 43
0.0
 43
0.0
 43
0.0
 43
0.0
 43
1.0
 43
0.0
 43
0.0
 43
0.0
 43
0.0
 43
1.0
 77
     0
 47
0.0208333333333333
 47
0.0
 47
0.0
 47
0.0
 47
0.0
 47
0.0208333333333333
 47
0.0
 47
0.0
 47
0.0
 47
0.0
 47
1.0
 47
0.0
 47
0.0
 47
0.0
 47
0.0
 47
1.0
171
     0
 49
0.0208333333333333
 49
0.0
 49
0.0
 49
0.0
 49
0.0
 49
0.0208333333333333
 49
0.0
 49
0.0
 49
0.0
 49
0.0
 49
1.0
 49
0.0
 49
0.0
 49
0.0
 49
0.0
 49
1.0
175
     0
142
0.0208333333333333
142
0.0
142
0.0
142
0.0
142
0.0
142
0.0208333333333333
142
0.0
142
0.0
142
0.0
142
0.0
142
1.0
142
0.0
142
0.0
142
0.0
142
0.0
142
1.0
179
     0
144
0.0208333333333333
144
0.0
144
0.0
144
0.0
144
0.0
144
0.0208333333333333
144
0.0
144
0.0
144
0.0
144
0.0
144
1.0
144
0.0
144
0.0
144
0.0
144
0.0
144
1.0
147
0.0208333333333333
147
0.0
147
0.0
147
0.0
147
0.0
147
0.0208333333333333
147
0.0
147
0.0
147
0.0
147
0.0
147
1.0
147
0.0
147
0.0
147
0.0
147
0.0
147
1.0
  0
MATERIAL
  5
24F7
102
{ACAD_XDICTIONARY
360
24F8
102
}
102
{ACAD_REACTORS
330
1801
102
}
330
1801
100
AcDbMaterial
  1
Global
 72
     0
 43
0.0208333333333333
 43
0.0
 43
0.0
 43
0.0
 43
0.0
 43
0.0208333333333333
 43
0.0
 43
0.0
 43
0.0
 43
0.0
 43
1.0
 43
0.0
 43
0.0
 43
0.0
 43
0.0
 43
1.0
 77
     0
 47
0.0208333333333333
 47
0.0
 47
0.0
 47
0.0
 47
0.0
 47
0.0208333333333333
 47
0.0
 47
0.0
 47
0.0
 47
0.0
 47
1.0
 47
0.0
 47
0.0
 47
0.0
 47
0.0
 47
1.0
171
     0
 49
0.0208333333333333
 49
0.0
 49
0.0
 49
0.0
 49
0.0
 49
0.0208333333333333
 49
0.0
 49
0.0
 49
0.0
 49
0.0
 49
1.0
 49
0.0
 49
0.0
 49
0.0
 49
0.0
 49
1.0
175
     0
142
0.0208333333333333
142
0.0
142
0.0
142
0.0
142
0.0
142
0.0208333333333333
142
0.0
142
0.0
142
0.0
142
0.0
142
1.0
142
0.0
142
0.0
142
0.0
142
0.0
142
1.0
179
     0
144
0.0208333333333333
144
0.0
144
0.0
144
0.0
144
0.0
144
0.0208333333333333
144
0.0
144
0.0
144
0.0
144
0.0
144
1.0
144
0.0
144
0.0
144
0.0
144
0.0
144
1.0
147
0.0208333333333333
147
0.0
147
0.0
147
0.0
147
0.0
147
0.0208333333333333
147
0.0
147
0.0
147
0.0
147
0.0
147
1.0
147
0.0
147
0.0
147
0.0
147
0.0
147
1.0
  0
MLEADERSTYLE
  5
252D
102
{ACAD_XDICTIONARY
360
271B
102
}
102
{ACAD_REACTORS
330
252C
102
}
330
252C
100
AcDbMLeaderStyle
170
     2
171
     1
172
     0
 90
        2
 40
0.0
 41
0.0
173
     1
 91
-1056964608
340
10F6
 92
       -2
290
     1
 42
0.09
291
     1
 43
0.36
  3
Standard
 44
0.18
300

342
10F4
174
     1
178
     6
175
     1
176
     0
 93
-1056964608
 45
0.18
292
     0
297
     0
 46
0.18
 94
-1056964608
 47
1.0
 49
1.0
140
1.0
293
     1
141
0.0
294
     1
177
     0
142
1.0
295
     0
296
     0
143
0.125
1001
ACAD_MLEADERVER
1070
     2
  0
MLINESTYLE
  5
10FA
102
{ACAD_REACTORS
330
10F9
102
}
330
10F9
100
AcDbMlineStyle
  2
STANDARD
 70
     0
  3

 62
   256
 51
90.0
 52
90.0
 71
     2
 49
0.5
 62
   256
  6
BYLAYER
 49
-0.5
 62
   256
  6
BYLAYER
  0
ACDBPLACEHOLDER
  5
10F2
102
{ACAD_REACTORS
330
10F1
102
}
330
10F1
  0
SCALE
  5
251B
102
{ACAD_REACTORS
330
251A
102
}
330
251A
100
AcDbScale
 70
     0
300
1:1
140
1.0
141
1.0
290
     1
  0
SCALE
  5
251C
102
{ACAD_REACTORS
330
251A
102
}
330
251A
100
AcDbScale
 70
     0
300
1/128" = 1'-0"
140
0.0078125
141
12.0
290
     0
  0
SCALE
  5
251D
102
{ACAD_REACTORS
330
251A
102
}
330
251A
100
AcDbScale
 70
     0
300
1/64" = 1'-0"
140
0.015625
141
12.0
290
     0
  0
SCALE
  5
251E
102
{ACAD_REACTORS
330
251A
102
}
330
251A
100
AcDbScale
 70
     0
300
1/32" = 1'-0"
140
0.03125
141
12.0
290
     0
  0
SCALE
  5
251F
102
{ACAD_REACTORS
330
251A
102
}
330
251A
100
AcDbScale
 70
     0
300
1/16" = 1'-0"
140
0.0625
141
12.0
290
     0
  0
SCALE
  5
2520
102
{ACAD_REACTORS
330
251A
102
}
330
251A
100
AcDbScale
 70
     0
300
3/32" = 1'-0"
140
0.09375
141
12.0
290
     0
  0
SCALE
  5
2521
102
{ACAD_REACTORS
330
251A
102
}
330
251A
100
AcDbScale
 70
     0
300
1/8" = 1'-0"
140
0.125
141
12.0
290
     0
  0
SCALE
  5
2522
102
{ACAD_REACTORS
330
251A
102
}
330
251A
100
AcDbScale
 70
     0
300
3/16" = 1'-0"
140
0.1875
141
12.0
290
     0
  0
SCALE
  5
2523
102
{ACAD_REACTORS
330
251A
102
}
330
251A
100
AcDbScale
 70
     0
300
1/4" = 1'-0"
140
0.25
141
12.0
290
     0
  0
SCALE
  5
2524
102
{ACAD_REACTORS
330
251A
102
}
330
251A
100
AcDbScale
 70
     0
300
3/8" = 1'-0"
140
0.375
141
12.0
290
     0
  0
SCALE
  5
2525
102
{ACAD_REACTORS
330
251A
102
}
330
251A
100
AcDbScale
 70
     0
300
1/2" = 1'-0"
140
0.5
141
12.0
290
     0
  0
SCALE
  5
2526
102
{ACAD_REACTORS
330
251A
102
}
330
251A
100
AcDbScale
 70
     0
300
3/4" = 1'-0"
140
0.75
141
12.0
290
     0
  0
SCALE
  5
2527
102
{ACAD_REACTORS
330
251A
102
}
330
251A
100
AcDbScale
 70
     0
300
1" = 1'-0"
140
1.0
141
12.0
290
     0
  0
SCALE
  5
2528
102
{ACAD_REACTORS
330
251A
102
}
330
251A
100
AcDbScale
 70
     0
300
1-1/2" = 1'-0"
140
1.5
141
12.0
290
     0
  0
SCALE
  5
2529
102
{ACAD_REACTORS
330
251A
102
}
330
251A
100
AcDbScale
 70
     0
300
3" = 1'-0"
140
3.0
141
12.0
290
     0
  0
SCALE
  5
252A
102
{ACAD_REACTORS
330
251A
102
}
330
251A
100
AcDbScale
 70
     0
300
6" = 1'-0"
140
6.0
141
12.0
290
     0
  0
SCALE
  5
252B
102
{ACAD_REACTORS
330
251A
102
}
330
251A
100
AcDbScale
 70
     0
300
1'-0" = 1'-0"
140
12.0
141
12.0
290
     0
  0
ACDBSECTIONVIEWSTYLE
  5
2530
102
{ACAD_REACTORS
330
252E
102
}
330
252E
100
AcDbModelDocViewStyle
 70
     0
  3
Imperial24
290
     0
100
AcDbSectionViewStyle
 70
     0
 71
     0
 90
       78
 71
     1
340
10F4
 62
   256
 40
0.24
340
0
340
0
 62
   256
 40
0.24
300
I, O, Q, S, X, Z
 40
0.48
 90
        3
 40
0.18
 90
        1
 71
     2
340
252F
 90
       25
 62
   256
340
10F8
 90
       50
 62
   256
 40
0.24
 40
0.0
 40
0.24
 71
     3
340
10F4
 62
   256
 40
0.24
 90
        1
 40
0.75
 90
        1
300
%<\AcVar ViewType \f "%tc1">% %<\AcVar ViewSectionStartId>%-%<\AcVar ViewSectionEndId>%\PVARIA %<\AcVar ViewScale \f "%sn">%
 71
     4
 62
   256
 62
   257
300
ANSI31
 40
1.0
 90
        0
290
     0
290
     0
 90
        6
 40
0.0
 40
1.570796326794896
 40
0.2617993877991494
 40
1.308996938995747
 40
-0.2617993877991494
 40
1.832595714594046
  0
TABLESTYLE
  5
2519
102
{ACAD_XDICTIONARY
360
25AB
102
}
102
{ACAD_REACTORS
330
2518
102
}
330
2518
100
AcDbTableStyle
  3
Standard
 70
     0
 71
     0
 40
0.06
 41
0.06
280
     0
281
     0
  7
STANDARD
140
0.18
170
     2
 62
     0
 63
     7
283
     0
274
    -2
284
     1
 64
     0
275
    -2
285
     1
 65
     0
276
    -2
286
     1
 66
     0
277
    -2
287
     1
 67
     0
278
    -2
288
     1
 68
     0
279
    -2
289
     1
 69
     0
  7
STANDARD
140
0.25
170
     5
 62
     0
 63
     7
283
     0
274
    -2
284
     1
 64
     0
275
    -2
285
     1
 65
     0
276
    -2
286
     1
 66
     0
277
    -2
287
     1
 67
     0
278
    -2
288
     1
 68
     0
279
    -2
289
     1
 69
     0
  7
STANDARD
140
0.18
170
     5
 62
     0
 63
     7
283
     0
274
    -2
284
     1
 64
     0
275
    -2
285
     1
 65
     0
276
    -2
286
     1
 66
     0
277
    -2
287
     1
 67
     0
278
    -2
288
     1
 68
     0
279
    -2
289
     1
 69
     0
  0
VISUALSTYLE
  5
2505
102
{ACAD_XDICTIONARY
360
26F4
102
}
102
{ACAD_REACTORS
330
24FF
102
}
330
24FF
100
AcDbVisualStyle
  2
2dWireframe
 70
     4
 71
     0
 72
     2
 73
     0
 90
        0
 40
-0.6
 41
-30.0
 62
     5
 63
     7
421
 16777215
 74
     1
 91
        4
 64
     7
 65
   257
 75
     1
175
     1
 42
1.0
 92
        0
 66
   257
 43
1.0
 76
     1
 77
     6
 78
     2
 67
     7
 79
     5
170
     0
171
     0
290
     0
174
     0
 93
        1
 44
0.0
173
     0
291
     0
 45
0.0
1001
ACAD
1000
AcDbSavedByObjectVersion
1070
     0
  0
VISUALSTYLE
  5
2504
102
{ACAD_XDICTIONARY
360
26F2
102
}
102
{ACAD_REACTORS
330
24FF
102
}
330
24FF
100
AcDbVisualStyle
  2
Basic
 70
     7
 71
     1
 72
     0
 73
     1
 90
        0
 40
-0.6
 41
-30.0
 62
     5
 63
     7
421
 16777215
 74
     0
 91
        4
 64
     7
 65
   257
 75
     1
175
     1
 42
1.0
 92
        8
 66
     7
 43
1.0
 76
     1
 77
     6
 78
     2
 67
     7
 79
     5
170
     0
171
     0
290
     0
174
     0
 93
        1
 44
0.0
173
     0
291
     1
 45
0.0
1001
ACAD
1000
AcDbSavedByObjectVersion
1070
     0
  0
VISUALSTYLE
  5
250B
102
{ACAD_XDICTIONARY
360
2700
102
}
102
{ACAD_REACTORS
330
24FF
102
}
330
24FF
100
AcDbVisualStyle
  2
Brighten
 70
    12
 71
     2
 72
     2
 73
     0
 90
        0
 40
-0.6
 41
-30.0
 62
     5
 63
     7
421
 16777215
 74
     1
 91
        4
 64
     7
 65
   257
 75
     1
175
     1
 42
1.0
 92
        8
 66
     7
 43
1.0
 76
     1
 77
     6
 78
     2
 67
     7
 79
     5
170
     0
171
     0
290
     0
174
     0
 93
        1
 44
50.0
173
     0
291
     1
 45
0.0
1001
ACAD
1000
AcDbSavedByObjectVersion
1070
     0
  0
VISUALSTYLE
  5
250F
102
{ACAD_XDICTIONARY
360
2708
102
}
102
{ACAD_REACTORS
330
24FF
102
}
330
24FF
100
AcDbVisualStyle
  2
ColorChange
 70
    16
 71
     2
 72
     2
 73
     3
 90
        0
 40
-0.6
 41
-30.0
 62
     5
 63
     8
421
  8421504
 74
     1
 91
        4
 64
     7
 65
   257
 75
     1
175
     1
 42
1.0
 92
        8
 66
     8
424
  8421504
 43
1.0
 76
     1
 77
     6
 78
     2
 67
     7
 79
     5
170
     0
171
     0
290
     0
174
     0
 93
        1
 44
0.0
173
     0
291
     1
 45
0.0
1001
ACAD
1000
AcDbSavedByObjectVersion
1070
     0
  0
VISUALSTYLE
  5
2508
102
{ACAD_XDICTIONARY
360
26FA
102
}
102
{ACAD_REACTORS
330
24FF
102
}
330
24FF
100
AcDbVisualStyle
  2
Conceptual
 70
     9
 71
     3
 72
     2
 73
     0
 90
        0
 40
-0.6
 41
-30.0
 62
     5
 63
     7
421
 16777215
 74
     2
 91
        2
 64
     7
 65
   257
 75
     1
175
     1
 42
179.0
 92
        8
 66
     7
 43
1.0
 76
     1
 77
     6
 78
     2
 67
     7
 79
     3
170
     0
171
     0
290
     0
174
     0
 93
        1
 44
0.0
173
     0
291
     0
 45
0.0
1001
ACAD
1000
AcDbSavedByObjectVersion
1070
     0
  0
VISUALSTYLE
  5
250A
102
{ACAD_XDICTIONARY
360
26FE
102
}
102
{ACAD_REACTORS
330
24FF
102
}
330
24FF
100
AcDbVisualStyle
  2
Dim
 70
    11
 71
     2
 72
     2
 73
     0
 90
        0
 40
-0.6
 41
-30.0
 62
     5
 63
     7
421
 16777215
 74
     1
 91
        4
 64
     7
 65
   257
 75
     1
175
     1
 42
1.0
 92
        8
 66
     7
 43
1.0
 76
     1
 77
     6
 78
     2
 67
     7
 79
     5
170
     0
171
     0
290
     0
174
     0
 93
        1
 44
-50.0
173
     0
291
     1
 45
0.0
1001
ACAD
1000
AcDbSavedByObjectVersion
1070
     0
  0
VISUALSTYLE
  5
2517
102
{ACAD_XDICTIONARY
360
2718
102
}
102
{ACAD_REACTORS
330
24FF
102
}
330
24FF
100
AcDbVisualStyle
  2
EdgeColorOff
 70
    22
 71
     2
 72
     2
 73
     0
 90
        0
 40
-0.6
 41
-30.0
 62
     5
 63
     7
421
 16777215
 74
     1
 91
        4
 64
     7
 65
   257
 75
     1
175
     1
 42
1.0
 92
        8
 66
     7
 43
1.0
 76
     1
 77
     6
 78
     2
 67
     7
 79
     5
170
     0
171
     0
290
     0
174
     0
 93
        1
 44
0.0
173
     0
291
     1
 45
0.0
1001
ACAD
1000
AcDbSavedByObjectVersion
1070
     0
  0
VISUALSTYLE
  5
250E
102
{ACAD_XDICTIONARY
360
2706
102
}
102
{ACAD_REACTORS
330
24FF
102
}
330
24FF
100
AcDbVisualStyle
  2
Facepattern
 70
    15
 71
     2
 72
     2
 73
     0
 90
        0
 40
-0.6
 41
-30.0
 62
     5
 63
     7
421
 16777215
 74
     1
 91
        4
 64
     7
 65
   257
 75
     1
175
     1
 42
1.0
 92
        8
 66
     7
 43
1.0
 76
     1
 77
     6
 78
     2
 67
     7
 79
     5
170
     0
171
     0
290
     0
174
     0
 93
        1
 44
0.0
173
     0
291
     1
 45
0.0
1001
ACAD
1000
AcDbSavedByObjectVersion
1070
     0
  0
VISUALSTYLE
  5
2500
102
{ACAD_XDICTIONARY
360
26EA
102
}
102
{ACAD_REACTORS
330
24FF
102
}
330
24FF
100
AcDbVisualStyle
  2
Flat
 70
     0
 71
     2
 72
     1
 73
     1
 90
        2
 40
-0.6
 41
30.0
 62
     5
 63
     7
421
 16777215
 74
     0
 91
        0
 64
     7
 65
   257
 75
     1
175
     1
 42
1.0
 92
        8
 66
     7
 43
1.0
 76
     1
 77
     6
 78
     2
 67
     7
 79
     5
170
     0
171
     0
290
     0
174
     0
 93
       13
 44
0.0
173
     0
291
     1
 45
0.0
1001
ACAD
1000
AcDbSavedByObjectVersion
1070
     0
  0
VISUALSTYLE
  5
2501
102
{ACAD_XDICTIONARY
360
26EC
102
}
102
{ACAD_REACTORS
330
24FF
102
}
330
24FF
100
AcDbVisualStyle
  2
FlatWithEdges
 70
     1
 71
     2
 72
     1
 73
     1
 90
        2
 40
-0.6
 41
30.0
 62
     5
 63
     7
421
 16777215
 74
     1
 91
        0
 64
     7
 65
   257
 75
     1
175
     1
 42
1.0
 92
        0
 66
   257
 43
1.0
 76
     1
 77
     6
 78
     2
 67
     7
 79
     5
170
     0
171
     0
290
     0
174
     0
 93
       13
 44
0.0
173
     0
291
     1
 45
0.0
1001
ACAD
1000
AcDbSavedByObjectVersion
1070
     0
  0
VISUALSTYLE
  5
2502
102
{ACAD_XDICTIONARY
360
26EE
102
}
102
{ACAD_REACTORS
330
24FF
102
}
330
24FF
100
AcDbVisualStyle
  2
Gouraud
 70
     2
 71
     2
 72
     2
 73
     1
 90
        2
 40
-0.6
 41
30.0
 62
     5
 63
     7
421
 16777215
 74
     0
 91
        0
 64
     7
 65
   257
 75
     1
175
     1
 42
1.0
 92
        0
 66
     7
 43
1.0
 76
     1
 77
     6
 78
     2
 67
     7
 79
     5
170
     0
171
     0
290
     0
174
     0
 93
       13
 44
0.0
173
     0
291
     1
 45
0.0
1001
ACAD
1000
AcDbSavedByObjectVersion
1070
     0
  0
VISUALSTYLE
  5
2503
102
{ACAD_XDICTIONARY
360
26F0
102
}
102
{ACAD_REACTORS
330
24FF
102
}
330
24FF
100
AcDbVisualStyle
  2
GouraudWithEdges
 70
     3
 71
     2
 72
     2
 73
     1
 90
        2
 40
-0.6
 41
30.0
 62
     5
 63
     7
421
 16777215
 74
     1
 91
        0
 64
     7
 65
   257
 75
     1
175
     1
 42
1.0
 92
        0
 66
   257
 43
1.0
 76
     1
 77
     6
 78
     2
 67
     7
 79
     5
170
     0
171
     0
290
     0
174
     0
 93
       13
 44
0.0
173
     0
291
     1
 45
0.0
1001
ACAD
1000
AcDbSavedByObjectVersion
1070
     0
  0
VISUALSTYLE
  5
2507
102
{ACAD_XDICTIONARY
360
26F8
102
}
102
{ACAD_REACTORS
330
24FF
102
}
330
24FF
100
AcDbVisualStyle
  2
Hidden
 70
     6
 71
     1
 72
     2
 73
     2
 90
        0
 40
-0.6
 41
-30.0
 62
     5
 63
     7
421
 16777215
 74
     2
 91
        2
 64
     7
 65
   257
 75
     2
175
     1
 42
40.0
 92
        0
 66
   257
 43
1.0
 76
     1
 77
     6
 78
     2
 67
     7
 79
     3
170
     0
171
     0
290
     0
174
     0
 93
        1
 44
0.0
173
     0
291
     0
 45
0.0
1001
ACAD
1000
AcDbSavedByObjectVersion
1070
     0
  0
VISUALSTYLE
  5
2515
102
{ACAD_XDICTIONARY
360
2714
102
}
102
{ACAD_REACTORS
330
24FF
102
}
330
24FF
100
AcDbVisualStyle
  2
JitterOff
 70
    20
 71
     2
 72
     2
 73
     0
 90
        0
 40
-0.6
 41
-30.0
 62
     5
 63
     7
421
 16777215
 74
     1
 91
        4
 64
     7
 65
   257
 75
     1
175
     1
 42
1.0
 92
       10
 66
     7
 43
1.0
 76
     1
 77
     6
 78
     2
 67
     7
 79
     5
170
     0
171
     0
290
     0
174
     0
 93
        1
 44
0.0
173
     0
291
     1
 45
0.0
1001
ACAD
1000
AcDbSavedByObjectVersion
1070
     0
  0
VISUALSTYLE
  5
250D
102
{ACAD_XDICTIONARY
360
2704
102
}
102
{ACAD_REACTORS
330
24FF
102
}
330
24FF
100
AcDbVisualStyle
  2
Linepattern
 70
    14
 71
     2
 72
     2
 73
     0
 90
        0
 40
-0.6
 41
-30.0
 62
     5
 63
     7
421
 16777215
 74
     1
 91
        4
 64
     7
 65
   257
 75
     7
175
     7
 42
1.0
 92
        8
 66
     7
 43
1.0
 76
     1
 77
     6
 78
     2
 67
     7
 79
     5
170
     0
171
     0
290
     0
174
     0
 93
        1
 44
0.0
173
     0
291
     1
 45
0.0
1001
ACAD
1000
AcDbSavedByObjectVersion
1070
     0
  0
VISUALSTYLE
  5
2516
102
{ACAD_XDICTIONARY
360
2716
102
}
102
{ACAD_REACTORS
330
24FF
102
}
330
24FF
100
AcDbVisualStyle
  2
OverhangOff
 70
    21
 71
     2
 72
     2
 73
     0
 90
        0
 40
-0.6
 41
-30.0
 62
     5
 63
     7
421
 16777215
 74
     1
 91
        4
 64
     7
 65
   257
 75
     1
175
     1
 42
1.0
 92
        9
 66
     7
 43
1.0
 76
     1
 77
     6
 78
     2
 67
     7
 79
     5
170
     0
171
     0
290
     0
174
     0
 93
        1
 44
0.0
173
     0
291
     1
 45
0.0
1001
ACAD
1000
AcDbSavedByObjectVersion
1070
     0
  0
VISUALSTYLE
  5
2509
102
{ACAD_XDICTIONARY
360
26FC
102
}
102
{ACAD_REACTORS
330
24FF
102
}
330
24FF
100
AcDbVisualStyle
  2
Realistic
 70
     8
 71
     2
 72
     2
 73
     0
 90
        2
 40
-0.6
 41
30.0
 62
     5
 63
     7
421
 16777215
 74
     0
 91
        0
 64
     7
 65
   257
 75
     1
175
     1
 42
1.0
 92
        8
 66
   257
 43
1.0
 76
     1
 77
     6
 78
     2
 67
     7
 79
     3
170
     0
171
     0
290
     0
174
     0
 93
       13
 44
0.0
173
     0
291
     0
 45
0.0
1001
ACAD
1000
AcDbSavedByObjectVersion
1070
     0
  0
VISUALSTYLE
  5
2514
102
{ACAD_XDICTIONARY
360
2712
102
}
102
{ACAD_REACTORS
330
24FF
102
}
330
24FF
100
AcDbVisualStyle
  2
Shaded
 70
    27
 71
     2
 72
     2
 73
     1
 90
        2
 40
-0.6
 41
30.0
 62
     5
 63
     7
421
 16777215
 74
     0
 91
        4
 64
     7
 65
   257
 75
     1
175
     1
 42
1.0
 92
        8
 66
   257
 43
1.0
 76
     1
 77
     6
 78
     2
 67
     8
425
  7895160
 79
     3
170
     0
171
     0
290
     0
174
     0
 93
        5
 44
0.0
173
     0
291
     0
 45
0.0
1001
ACAD
1000
AcDbSavedByObjectVersion
1070
     0
  0
VISUALSTYLE
  5
2513
102
{ACAD_XDICTIONARY
360
2710
102
}
102
{ACAD_REACTORS
330
24FF
102
}
330
24FF
100
AcDbVisualStyle
  2
Shaded with edges
 70
    26
 71
     2
 72
     2
 73
     1
 90
        2
 40
-0.6
 41
30.0
 62
     5
 63
     7
421
 16777215
 74
     1
 91
       10
 64
     7
 65
   257
 75
     2
175
     1
 42
1.0
 92
        8
 66
   257
 43
1.0
 76
     1
 77
     6
 78
     2
 67
     7
 79
     3
170
     0
171
     0
290
     0
174
     0
 93
        5
 44
0.0
173
     0
291
     0
 45
0.0
1001
ACAD
1000
AcDbSavedByObjectVersion
1070
     0
  0
VISUALSTYLE
  5
2510
102
{ACAD_XDICTIONARY
360
270A
102
}
102
{ACAD_REACTORS
330
24FF
102
}
330
24FF
100
AcDbVisualStyle
  2
Shades of Gray
 70
    23
 71
     2
 72
     2
 73
     3
 90
        0
 40
-0.6
 41
-30.0
 62
     5
 63
     7
421
 16777215
 74
     2
 91
        2
 64
     7
 65
     7
 75
     1
175
     1
 42
40.0
 92
        8
 66
     7
 43
1.0
 76
     1
 77
     6
 78
     2
 67
     7
 79
     3
170
     0
171
     0
290
     0
174
     0
 93
        1
 44
0.0
173
     0
291
     0
 45
0.0
1001
ACAD
1000
AcDbSavedByObjectVersion
1070
     0
  0
VISUALSTYLE
  5
2511
102
{ACAD_XDICTIONARY
360
270C
102
}
102
{ACAD_REACTORS
330
24FF
102
}
330
24FF
100
AcDbVisualStyle
  2
Sketchy
 70
    24
 71
     1
 72
     2
 73
     2
 90
        0
 40
-0.6
 41
-30.0
 62
     5
 63
     7
421
 16777215
 74
     2
 91
        2
 64
     7
 65
     7
 75
     1
175
     1
 42
40.0
 92
       11
 66
     7
 43
1.0
 76
     1
 77
     6
 78
     2
 67
     7
 79
     6
170
     0
171
     0
290
     0
174
     0
 93
        1
 44
0.0
173
     0
291
     0
 45
0.0
1001
ACAD
1000
AcDbSavedByObjectVersion
1070
     0
  0
VISUALSTYLE
  5
250C
102
{ACAD_XDICTIONARY
360
2702
102
}
102
{ACAD_REACTORS
330
24FF
102
}
330
24FF
100
AcDbVisualStyle
  2
Thicken
 70
    13
 71
     2
 72
     2
 73
     0
 90
        0
 40
-0.6
 41
-30.0
 62
     5
 63
     7
421
 16777215
 74
     1
 91
        4
 64
     7
 65
   257
 75
     1
175
     1
 42
1.0
 92
       12
 66
     7
 43
1.0
 76
     1
 77
     6
 78
     2
 67
     7
 79
     5
170
     0
171
     0
290
     0
174
     0
 93
        1
 44
0.0
173
     0
291
     1
 45
0.0
1001
ACAD
1000
AcDbSavedByObjectVersion
1070
     0
  0
VISUALSTYLE
  5
2506
102
{ACAD_XDICTIONARY
360
26F6
102
}
102
{ACAD_REACTORS
330
24FF
102
}
330
24FF
100
AcDbVisualStyle
  2
Wireframe
 70
     5
 71
     0
 72
     2
 73
     0
 90
        0
 40
-0.6
 41
-30.0
 62
     5
 63
     7
421
 16777215
 74
     1
 91
        4
 64
     7
 65
   257
 75
     1
175
     1
 42
1.0
 92
        0
 66
   257
 43
1.0
 76
     1
 77
     6
 78
     2
 67
     7
 79
     3
170
     0
171
     0
290
     0
174
     0
 93
        1
 44
0.0
173
     0
291
     0
 45
0.0
1001
ACAD
1000
AcDbSavedByObjectVersion
1070
     0
  0
VISUALSTYLE
  5
2512
102
{ACAD_XDICTIONARY
360
270E
102
}
102
{ACAD_REACTORS
330
24FF
102
}
330
24FF
100
AcDbVisualStyle
  2
X-Ray
 70
    25
 71
     2
 72
     2
 73
     1
 90
        1
 40
0.5
 41
-30.0
 62
     5
 63
     7
421
 16777215
 74
     1
 91
        0
 64
     7
 65
   257
 75
     1
175
     1
 42
1.0
 92
        8
 66
     7
 43
1.0
 76
     1
 77
     6
 78
     2
 67
     7
 79
     3
170
     0
171
     0
290
     0
174
     0
 93
       13
 44
0.0
173
     0
291
     0
 45
0.0
1001
ACAD
1000
AcDbSavedByObjectVersion
1070
     0
  0
DICTIONARYVAR
  5
25F5
102
{ACAD_REACTORS
330
112B
102
}
330
112B
100
DictionaryVariables
280
     0
  1
1:1
  0
DICTIONARYVAR
  5
25F2
102
{ACAD_REACTORS
330
112B
102
}
330
112B
100
DictionaryVariables
280
     0
  1
STANDARD
  0
DICTIONARYVAR
  5
25F1
102
{ACAD_REACTORS
330
112B
102
}
330
112B
100
DictionaryVariables
280
     0
  1
STANDARD
  0
DICTIONARYVAR
  5
25F3
102
{ACAD_REACTORS
330
112B
102
}
330
112B
100
DictionaryVariables
280
     0
  1
Imperial24
  0
DICTIONARYVAR
  5
25F4
102
{ACAD_REACTORS
330
112B
102
}
330
112B
100
DictionaryVariables
280
     0
  1
Imperial24
  0
DICTIONARYVAR
  5
180D
102
{ACAD_REACTORS
330
112B
102
}
330
112B
100
DictionaryVariables
280
     0
  1
1
  0
DICTIONARYVAR
  5
180E
102
{ACAD_REACTORS
330
112B
102
}
330
112B
100
DictionaryVariables
280
     0
  1

  0
DICTIONARYVAR
  5
112C
102
{ACAD_REACTORS
330
112B
102
}
330
112B
100
DictionaryVariables
280
     0
  1
96
  0
DICTIONARY
  5
25B8
330
1104
100
AcDbDictionary
280
     1
281
     1
  3
ADSK_XREC_LAYOUTTHUMBNAIL
360
25B9
  0
DICTIONARY
  5
24F0
330
24EF
100
AcDbDictionary
280
     1
281
     1
  3
ACAD_XREC_ROUNDTRIP
360
26E8
  3
BUMPTILE
360
24F2
  3
DIFFUSETILE
360
24F1
  3
OPACITYTILE
360
24F5
  3
REFLECTIONTILE
360
24F4
  3
REFRACTIONTILE
360
24F6
  3
SPECULARTILE
360
24F3
  0
DICTIONARY
  5
24E8
330
24E7
100
AcDbDictionary
280
     1
281
     1
  3
ACAD_XREC_ROUNDTRIP
360
26E7
  3
BUMPTILE
360
24EA
  3
DIFFUSETILE
360
24E9
  3
OPACITYTILE
360
24ED
  3
REFLECTIONTILE
360
24EC
  3
REFRACTIONTILE
360
24EE
  3
SPECULARTILE
360
24EB
  0
DICTIONARY
  5
24F8
330
24F7
100
AcDbDictionary
280
     1
281
     1
  3
ACAD_XREC_ROUNDTRIP
360
26E9
  3
BUMPTILE
360
24FA
  3
DIFFUSETILE
360
24F9
  3
OPACITYTILE
360
24FD
  3
REFLECTIONTILE
360
24FC
  3
REFRACTIONTILE
360
24FE
  3
SPECULARTILE
360
24FB
  0
DICTIONARY
  5
271B
330
252D
100
AcDbDictionary
280
     1
281
     1
  3
ACAD_XREC_ROUNDTRIP
360
271C
  0
DICTIONARY
  5
25AB
330
2519
100
AcDbDictionary
280
     1
281
     1
  3
ACAD_ROUNDTRIP_2008_TABLESTYLE_CELLSTYLEMAP
360
26E5
  3
ACAD_XREC_ROUNDTRIP
360
271A
  0
DICTIONARY
  5
26F4
330
2505
100
AcDbDictionary
280
     1
281
     1
  3
ACAD_XREC_ROUNDTRIP
360
26F5
  0
DICTIONARY
  5
26F2
330
2504
100
AcDbDictionary
280
     1
281
     1
  3
ACAD_XREC_ROUNDTRIP
360
26F3
  0
DICTIONARY
  5
2700
330
250B
100
AcDbDictionary
280
     1
281
     1
  3
ACAD_XREC_ROUNDTRIP
360
2701
  0
DICTIONARY
  5
2708
330
250F
100
AcDbDictionary
280
     1
281
     1
  3
ACAD_XREC_ROUNDTRIP
360
2709
  0
DICTIONARY
  5
26FA
330
2508
100
AcDbDictionary
280
     1
281
     1
  3
ACAD_XREC_ROUNDTRIP
360
26FB
  0
DICTIONARY
  5
26FE
330
250A
100
AcDbDictionary
280
     1
281
     1
  3
ACAD_XREC_ROUNDTRIP
360
26FF
  0
DICTIONARY
  5
2718
330
2517
100
AcDbDictionary
280
     1
281
     1
  3
ACAD_XREC_ROUNDTRIP
360
2719
  0
DICTIONARY
  5
2706
330
250E
100
AcDbDictionary
280
     1
281
     1
  3
ACAD_XREC_ROUNDTRIP
360
2707
  0
DICTIONARY
  5
26EA
330
2500
100
AcDbDictionary
280
     1
281
     1
  3
ACAD_XREC_ROUNDTRIP
360
26EB
  0
DICTIONARY
  5
26EC
330
2501
100
AcDbDictionary
280
     1
281
     1
  3
ACAD_XREC_ROUNDTRIP
360
26ED
  0
DICTIONARY
  5
26EE
330
2502
100
AcDbDictionary
280
     1
281
     1
  3
ACAD_XREC_ROUNDTRIP
360
26EF
  0
DICTIONARY
  5
26F0
330
2503
100
AcDbDictionary
280
     1
281
     1
  3
ACAD_XREC_ROUNDTRIP
360
26F1
  0
DICTIONARY
  5
26F8
330
2507
100
AcDbDictionary
280
     1
281
     1
  3
ACAD_XREC_ROUNDTRIP
360
26F9
  0
DICTIONARY
  5
2714
330
2515
100
AcDbDictionary
280
     1
281
     1
  3
ACAD_XREC_ROUNDTRIP
360
2715
  0
DICTIONARY
  5
2704
330
250D
100
AcDbDictionary
280
     1
281
     1
  3
ACAD_XREC_ROUNDTRIP
360
2705
  0
DICTIONARY
  5
2716
330
2516
100
AcDbDictionary
280
     1
281
     1
  3
ACAD_XREC_ROUNDTRIP
360
2717
  0
DICTIONARY
  5
26FC
330
2509
100
AcDbDictionary
280
     1
281
     1
  3
ACAD_XREC_ROUNDTRIP
360
26FD
  0
DICTIONARY
  5
2712
330
2514
100
AcDbDictionary
280
     1
281
     1
  3
ACAD_XREC_ROUNDTRIP
360
2713
  0
DICTIONARY
  5
2710
330
2513
100
AcDbDictionary
280
     1
281
     1
  3
ACAD_XREC_ROUNDTRIP
360
2711
  0
DICTIONARY
  5
270A
330
2510
100
AcDbDictionary
280
     1
281
     1
  3
ACAD_XREC_ROUNDTRIP
360
270B
  0
DICTIONARY
  5
270C
330
2511
100
AcDbDictionary
280
     1
281
     1
  3
ACAD_XREC_ROUNDTRIP
360
270D
  0
DICTIONARY
  5
2702
330
250C
100
AcDbDictionary
280
     1
281
     1
  3
ACAD_XREC_ROUNDTRIP
360
2703
  0
DICTIONARY
  5
26F6
330
2506
100
AcDbDictionary
280
     1
281
     1
  3
ACAD_XREC_ROUNDTRIP
360
26F7
  0
DICTIONARY
  5
270E
330
2512
100
AcDbDictionary
280
     1
281
     1
  3
ACAD_XREC_ROUNDTRIP
360
270F
  0
XRECORD
  5
25B9
102
{ACAD_REACTORS
330
25B8
102
}
330
25B8
100
AcDbXrecord
280
     1
310
28000000000100008A0000000100080000000000008A0000010000000100000000010000000000000000002B000000C0C8C8C8000000003D00000000000000C000000014000000400000001400000040000000AF33000040660000AF99000040CC0000CDFF0000C0003300E6333300C0663300AF993300C0CC3300D7FF3300
310
C0006600CD33660040666600CD99660040CC660053FF660040009900533399004066990000999900BFCC990000FF9900C000CC00F433CC003F66CC00C199CC00C0CCCC00BEFFCC004000FF004133FF00C066FF007A99FF0040CCFF000BFFFF00C0000033003300334066003300990033BDCC003300FF003340003333003333
310
33006633330099333340CC333300FF333300006633003366334066663300996633BDCC6633BBFF663340009933BB33993340669933FF99993340CC9933FFFF99334000CC33F733CC33C066CC33BB99CC33C0CCCC337FFFCC33C000FF33FF33FF33C066FF33CB99FF3340CCFF33CBFFFF33400000662D330066406600662D99
310
006640CC00664BFF0066C0003366CB333366C066336666993366C0CC3366E6FF3366C00066661E336666406666661E99666640CC6666FAFF666640009966FA33996640669966B0999966C0CC9966B0FF9966C000CC664033CC66C066CC664099CC66C0CCCC66CEFFCC664000FF661933FF66C066FF660099FF6640CCFF6600
310
FFFF66BD000099E433009940660099E499009940CC0099A7FF009940003399A733339940663399C8993399C0CC3399E4FF3399C00066999C3366993F666699B3996699C0CC669900FF66994000999900339999006699999C9999993FCC9999B3FF9999C000CC993D33CC994066CC99ED99CC9940CCCC99B4FFCC994000FF99
310
5133FF994066FF992099FF99BFCCFF99B2FFFF99C00000CC9C3300CC3F6600CCB39900CCC0CC00CC20FF00CCBF0033CCB23333CCC06633CC9C9933CC3FCC33CCB3FF33CCC00066CC203366CCBF6666CCB29966CCC0CC66CC9CFF66CC3F0099CCB33399CCC06699CC209999CCBFCC99CCB2FF99CCC000CCCC9C33CCCC3F66CC
310
CCB399CCCCC0CCCCCC11FFCCCC4000FFCCDD33FFCCC066FFCC5899FFCC40CCFFCC9EFFFFCCBF0000FF003300FF406600FF009900FF00CC00FF00FF00FF400033FF003333FFBD6633FF009933FF40CC33FF00FF33FF000066FF003366FF406666FF009966FF3DCC66FF00FF66FF400099FF003399FF3D6699FF009999FF40CC
310
99FF00FF99FF3D00CCFF0033CCFF4066CCFF0099CCFF3DCCCCFF00FFCCFF4000FFFF0033FFFF0066FFFF0099FFFF40CCFFFF00FFFFFF3D000000000D0D0D401A1A1A00282828003535350043434340505050005D5D5DBD6B6B6B0078787840868686009393933DA1A1A100AEAEAE40BBBBBB00C9C9C93DD6D6D600E4E4E440
310
F1F1F100FFFFFF000000000000000040000000000000003D000000CD00000040000000C8000000BF000000000000000000000000000000000000000000000000000000000000000000000000000000000000000000000000000000000000000000000000000000000000000000000000000000000000000000000000000000
310
00000000000000000000000000000000000000000000000000000000000000000000000000000000000000000000000000000000000000000000000000000000000000000000000000000000000000000000000000000000000000000000000000000000000000000000000000000000000000000000000000000000000000
310
000000000000000000000000000000000000000000000000000000000000000000000000000000000000000000000000000000000000000000000000000000000000000000000000000000000000000000DCDCDCDCDCDCDCDCDCDCDCDCDCDCDCDCDCDCDCDCDCDCDCDCDCDCDCDCDCDCDCDCDCDCDCDCDCDCDCDCDCDCDCDCDCDC
310
DCDCDCDCDCDCDCDCDCDCDCDCDCDCDCDCDCDCDCDCDCDCDCDCDCDCDCDCDCDCDCDCDCDCDCDCDCDCDCDCDCDCDCDCDCDCDCDCDCDCDCDCDCDCDCDCDCDCDCDCF5DCDCDCDCDCDCDCDCDCDCDCDCDCDCDCDCDCDCDCDCDCDCDCDCDCDCDCDCDCDCDCDCDCDCDCDCDCDCDCDCDCDCDCDCDCDCDCDCDCDCDCDCDCDCDCDCDCDCDCDCDCDCDCDCDCDC
310
DCDCDCDCDCDCDCDCDCDCDCDCDCDCDCDCDCDCDCDCDC0000000000000000000000000000000000000000000000000000000000000000000000000000000000000000000000000000000000000000000000000000DC00000000000000000000000000000000000000000000000000000000000000000000000000000000000000
310
0000000000000000000000000000000000000000000000000000000000000000000000000000000000000000000000000000000000000000000000000000F500000000000000000000000000000000000000000000000000000000000000000000000000000000000000000000000000000000000000000000000000000000
310
00000000000000000000000000000000000000000000DC0000000000000000000000000000000000000000000000000000000000000000000000000000000000000000000000000000000000000000000000000000DC0000000000000000282828282828282828282828282828282828282828282828282828282828282828
310
28282828282828282828282828282828282828282828282828282828282828282828282828282828282828282828282828282828282828282828282828282828F52828282828282828282828282828282828282828282828282828282828282828282828282828282828282828282828282828282828282828282828282828
310
28282828282828282828282828282828282828282828F5F5DC0000000000000000000000000000000000000000000000000000000000000000000000000000000000000000000000000000000000000000000000000000DC000000000000000028000000000000000000000000000000000000000000000000000000000000
310
000000000000000000000000000000000000000000000000000000000000000000000000000000000000000000000000000000000000000000000000000000000000000028F5F5BE0000000000000000BE00000000BE000000002800000000000000000000000000000000000028DCDCDCDCDCDCDCDCDCDCDCDCDCDCDCDCDC
310
DCDCDCDCDCDCDCDCDCDCDCDCDCDCDCDCDCDCDCDCDCDCDCDCF5F5DC0000000000000000000000000000000000000000000000000000000000000000000000000000000000000000000000000000000000000000000000000000DC00000000000000002800000000000000000000000000000000000000000000000000000000
310
0000000000000000000000000000000000000000000000000000000000000000000000000000000000000000000000000000000000000000000000000000000000000000000028F5F5BE00F5F5F5F5F5F500BE00F5F5F5BEF5F5F5F52800282828282828282828002828282828280028000000000000000000000000000000
310
000000000000000000000000000000000000000000000000000028F5DC0000000000000000000000000000000000000000000000000000000000000000000000000000000000000000000000000000000000000000000000000000DC0000000000000000280000000000000000000000000000000000000000000000000000
310
00000000000000000000000000000000000000000000000000000000000000000000000000000000000000000000000000000000000000000000000000000000000000000000000028F5F5BE00F5F5F500000000BE00F50000BEF5F50000280028282828000028282828280028000028282800000000000000000000000000
310
0000000000000000000000000000000000000000000000000000000028F5DC0000000000000000000000000000000000000000000000000000000000000000000000000000000000000000000000000000000000000000000000000000DC000000000000000028000000000000000000000000000000000000000000000000
310
0000000000000000000000000000000000000000000000000000000000000000000000000000000000000000000000000000000000000000000000000000000000000000000000000000282828BE2828282828282828BE28282828BE2828282828002828282800002828282828282800002828280000000000000000000000
310
000000000000000000000000000000000000000000000000000000000000F5F5DC0000000000000000000000000000000000000000000000000000000000000000000000000000000000000000000000000000000000000000000000000000DC00000000000000002800000000000000000000000000000000000000000000
310
00000000000000000000000000000000000000000000000000000000000000000000000000000000000000000000000000000000000000000000000000000000000000000000000000000000280000BE0000000000000000BE00000000BE000000002800282800282828282828282828282828280028F5F5F5F5F5F5F5F5F5
310
F500000000000000000000000000000000000000000000000000000000000000F5F5DC0000000000000000000000000000000000000000000000000000000000000000000000000000000000000000000000000000000000000000000000000000DC0000000000000000280000000000000000000000000000000000000000
310
000000000000000000000000000000000000000000000000000000000000000000000000000000000000000000000000000000000000000000000000000000000000000000000000000000000000280000BE0000000000000000BE00000000BE000000002800282800002828002828282800002828000028F5F5000000F500
310
F5000000000000000000000000000000000000000000000000000000000000000000F5F5DC0000000000000000000000000000000000000000000000000000000000000000000000000000000000000000000000000000000000000000000000000000DC000000000000000028000000000000000000000000000000000000
310
000000000000000000000000000000000000000000000000000000000000000000000000000000000000000000000000000000000000000000000000000000000000000000000000000000000000000028DCDCDCDCDCDCDCDCDCDCDCDCDCDCDCDCDCDCDCDCDCDC282828BE28F5F5F5F5BE2828F5F5F5F528282828F5F5F5F5
310
F5F5F5F5F52828282828282828282828282828282828282828282828282828282828282828F5DC0000000000000000000000000000000000000000000000000000000000000000000000000000000000000000000000000000000000000000000000000000DC00000000000000002800000000000000000000000000000000
310
00000000000000000000000000000000000000000000000000000000000000000000000000000000000000000000000000000000000000000000000000000000000000000000000000000000000000000000280000BE0000000000000000BE00000000BE00000000F5F5F5F5BE00F5F5F500BE0000F5F5F5F500002800F5F5
310
F5F5F5F5F5F5F50000000000000000000000000028000000000000000000000000000000000028F5DC0000000000000000000000000000000000000000000000000000000000000000000000000000000000000000000000000000000000000000000000000000DC0000000000000000280000000000000000000000000000
310
00000000000000000000000000000000000000000000000000000000000000000000000000000000000000000000000000000000000000000000000000000000000000000000000000000000000000000000000028DCDCDCDCDCDCDCDCDCDCDCDCDCDCDCDCDCDCDCDCDCDCDCDCDCDCDCDCDCDCDCDCDCDCDCDCDCDCDCDCDCDC
310
F5F5F5F5F5F5F5F5F5F5F5F5F5F5F5F5F5DCDCDCDC0028F5F5F5F5F5F5F5F5F5F5F500000000000028F5F50000000000000000000000000000000000000000000000000000000000000000000000000000000000000000000000000000000000000000000000000000DC000000000000000028000000000000000000000000
310
0000000000000000000000000000000000000000000000000000000000000000000000000000000000000000000000000000000000000000000000000000000000000000000000000000000000000000000000000000280000BE0000000000000000BE00000000BE00000000F5F5F5F5BE00F5F5F5F5BE000000F5F5000000
310
2800F5F5F5F5F5F5F5F500F5F5F5F5F5F5F5F5000000000028F5F5F5F5F5F5F5F5F5F5F5000000000000F5F5DC0000000000000000000000000000000000000000000000000000000000000000000000000000000000000000000000000000000000000000000000000000DC00000000000000002800000000000000000000
310
0000000000000000000000000000000000000000000000000000000000000000000000000000000000000000000000000000000000000000000000000000000000000000000000000000000000000000000000000000000028DCDCDCDCDCDCDCDCDCDCDCDCDCDCDCDCDCDCDCDCDCF5F5DCDCDCDCF5F5F5DCDCDCDCDCF5F5DC
310
DCDCDCDCF5F5F5DCF5F5F5F5DCF5F5F5F5F5F5F5F5DCDCDCDC00BEBEBEBEF5F5BEF5BEBEF5BEBEBEBEBEBEBEF5F5DC0000000000000000000000000000000000000000000000000000000000000000000000000000000000000000000000000000000000000000000000000000DC0000000000000000280000000000000000
310
000000000000000000000000000000000000000000000000000000000000000000000000000000000000000000000000000000000000000000000000000000000000000000000000000000000000000000000000000000000000280000BE0000000000000000BE00000000BE00000000F5F5F500BE00F5F5F5F5BE0000F5F5
310
F5F500002800F5F5F5F5F5F5F5F5F5F5F5F5F5F5000000000000000028000000000000000000000000000000000028F5DC0000000000000000000000000000000000000000000000000000000000000000000000000000000000000000000000000000000000000000000000000000DC000000000000000028000000000000
310
0000000000000000000000000000000000000000000000000000000000000000000000000000000000000000000000000000000000000000000000000000000000000000000000000000000000000000000000000000000000000000280000BE0000000000000000BE00000000BE00000000F5F5F500BE00F5F5F500BE0000
310
F5F5F5F500002800F5F5F5F5F5F5F5F5F5F5F5F5F5F50000000000000000280000000000000000000000000000000000F5F5DC0000000000000000000000000000000000000000000000000000000000000000000000000000000000000000000000000000000000000000000000000000DC00000000000000002800000000
310
0000000000000000000000000000000000000000000000000000000000000000000000000000000000000000000000000000000000000000000000000000000000000000000000000000000000000000000000000000000000000000000028DCDCDCDCDCDCDCDCDCDCDCDCDCDCDCDCDCDCDCDCDCDCF5F5F5DCDCF5F5F5DCDC
310
DCDCF5F5F5F5DCDCDCDCF5F5F5F5F5F5F5F5F5F5DCDCDCDCDCDCDCDCDCDCDC0028F5F5F5F5F5F5F5F5000000000000000000F5F5DC0000000000000000000000000000000000000000000000000000000000000000000000000000000000000000000000000000000000000000000000000000DC0000000000000000280000
310
000000000000000000000000000000000000000000000000000000000000000000000000000000000000000000000000000000000000000000000000000000000000000000000000000000000000000000000000000000000000000000000000280000BE0000000000000000BE00000000BE0000000028F5F5F5BE00F5F5F5
310
00BE0000F5F5F5F500002800F5F5F5F5F5F5F5F5F5F500000000000000000000000028F5F5F5F5F5F5F5F500000000000000000028F5DC0000000000000000000000000000000000000000000000000000000000000000000000000000000000000000000000000000000000000000000000000000DC000000000000000028
310
000000000000000000000000000000000000000000000000000000000000000000000000000000000000000000000000000000000000000000000000000000000000000000000000000000000000000000000000000000000000000000000000000028DCDCDCDCDCDCDCDCDCDCDCDCDCDCDCDCDCDCDCDCDCDC282828BE2828
310
282828BE282828282828282828282828282828282828282828282828282828282828282828282828282828282828282828282828282828F5DC0000000000000000000000000000000000000000000000000000000000000000000000000000000000000000000000000000000000000000000000000000DC00000000000000
310
00280000000000000000000000000000000000000000000000000000000000000000000000000000000000000000000000000000000000000000000000000000000000000000000000000000000000000000000000000000000000000000000000000000280000BE0000000000000000BE00000000BE000000002800000000
310
0000000000BE000000000000000028DCDCDCDCDCDCDCDCDCDCDCDCDCDCDCDCDCDCDCDCDCDC0028DCDCDCDCDCDCDCDCDCDCDCDCDCDCDCDCDC28F5DC0000000000000000000000000000000000000000000000000000000000000000000000000000000000000000000000000000000000000000000000000000DC0000000000
310
00000028000000000000000000000000000000000000000000000000000000000000000000000000000000000000000000000000000000000000000000000000000000000000000000000000000000000000000000000000000000000000000000000000000028DCDCDCDCDCDCDCDCDCDCDCDCDCDCDCDCDCDCDCDCDCDC0000
310
00BEBEBE000000BEF5F5F5F5F5F5F5F5F500BEBEBEBEBEBEBEBE00BEBEBEBEBEBEBEBEBEBEBEBE0028000000BEBEBEBEBEBEBEBEBEBEBE000000F5F5DC0000000000000000000000000000000000000000000000000000000000000000000000000000000000000000000000000000000000000000000000000000DC000000
310
0000000000280000000000000000000000000000000000000000000000000000000000000000000000000000000000000000000000000000000000000000000000000000000000000000000000000000000000000000000000000000000000000000000000000000280000BE0000000000000000BE00000000BE0000000028
310
0000BEBEBEBE000000BEF5F5F5F5F5F5F5F5F500BEBEBEBEBEBEBEBE00BEBEBEBEBEBEBEBEBEBEBEBE0028000000BEBEBEBEBEBEBEBEBEBEBE000000F5F5DC0000000000000000000000000000000000000000000000000000000000000000000000000000000000000000000000000000000000000000000000000000DC00
310
0000000000000028000000000000000000000000000000000000000000000000000000000000000000000000000000000000000000000000000000000000000000000000000000000000000000000000000000000000000000000000000000000000000000000000000028DCDCDCDCDCDCDCDCDCDCDCDCDCDCDCDCDCDCDCDC
310
DCDC000000000000000000BE0000000000000000280000000000000000000000000000000000000000000000280000000000000000000000000000000000F5F5DC0000000000000000000000000000000000000000000000000000000000000000000000000000000000000000000000000000000000000000000000000000
310
DC0000000000000000280000000000000000000000000000000000000000000000000000000000000000000000000000000000000000000000000000000000000000000000000000000000000000000000000000000000000000000000000000000000000000000000000000280000BE0000000000000000BE00000000BE00
310
0000002800F5F5F5F5F5F50000BEF5F5F5F5F5F5F50028F5F5F5F5F5F5F5F5F5000000000000000000000000000028F5F5F5F5F5F5F5F5F5F5F500000000000028F5DC000000000000000000000000000000000000000000000000000000000000000000000000000000000000000000000000000000000000000000000000
310
0000DC0000000000000000280000000000000000000000000000000000000000000000000000000000000000000000000000000000000000000000000000000000000000000000000000000000000000000000000000000000000000000000000000000000000000000000000000280000BE0000000000000000BE00000000
310
BE000000002800F5F5F5F5F5F50000BEF5F5F500F5F5F50028F5F5F5F5F5F5F5F5F5000000000000000000000000000028F5F5F5F5F5F5F5F5F5F5F500000000000028F5F500000000000000000000000000000000000000000000000000000000000000000000000000000000000000000000000000000000000000000000
310
00000000DC0000000000000000280000000000000000000000000000000000000000000000000000000000000000000000000000000000000000000000000000000000000000000000000000000000000000000000000000000000000000000000000000000000000000000000000000F5F5F5F5F5F5F5F5F5F5F5F5F5F5F5
310
F528F5F5F5F52828282828282828282828BE282828282828282828282828282828282828282828282828282828282828282828282828282828282828282828282828282828F5DC0000000000000000000000000000000000000000000000000000000000000000000000000000000000000000000000000000000000000000
310
000000000000DC0000000000000000280000000000000000000000000000000000000000000000000000000000000000000000000000000000000000000000000000000000000000000000000000000000000000000000000000000000000000000000000000000000000000000000000000F5F5F5F5F5F5F5F5F500F5F5F5
310
F5F5F500F5F5F5F50000000000000000000000000000000000000000000000000000000000000000000000000000000000000000000000000000000000000000000000000000F5F5DC000000000000000000000000000000000000000000000000000000000000000000000000000000000000000000000000000000000000
310
0000000000000000DC00000000000000002800000000000000000000000000000000000000000000000000000000000000000000000000000000000000000000000000000000000000000000000000000000000000000000000000000000000000000000000000000000000000000000000000000000000000000000000000
310
000000000000000000000000000000000000000000000000000000000000000000000000000000000000000000000000000000000000000000000000000000000000000000000000F5F5DC00000000000000000000000000000000000000000000000000000000000000000000000000000000000000000000000000000000
310
00000000000000000000DC0000000000000000280000000000000000000000000000000000000000000000000000000000000000000000000000000000000000000000000000000000000000000000000000000000000000000000000000000000000000000000000000000000000000000000000000000000000000000000
310
0000000000000000000000000000000000000000000000000000000000000000000000000000000000000000000000000000000000000000000000000000000000000000000000000000F5F5DC0000000000000000000000000000000000000000000000000000000000000000000000000000000000000000000000000000
310
000000000000000000000000DC000000000000000028000000000000000000000000000000000000000000000000000000000000000000000000000000000000000000000000000000000000000000000000000000000000000000000000000000000000000000000000000000000000000000000000000000000000000000
310
00000000000000000000000000000000000000000000000000000000000000000000000000000000000000000000000000000000000000000000000000000000000000000000000000000000F5F5DC000000000000000000000000000000000000000000000000000000000000000000000000000000000000000000000000
310
0000000000000000000000000000DC00000000000000002800000000000000000000000000000000000000000000000000000000000000000000000000000000000000000000000000000000000000000000000000000000000000000000000000000000000000000000000000000000000000000000000000000000000000
310
00000000000000000000000000000000000000000000000000000000000000000000000000000000000000000000000000000000000000000000000000000000000000000000000000000000000028F5DC00000000000000000000000000000000000000000000000000000000000000000000000000000000000000000000
310
00000000000000000000000000000000DC0000000000000000280000000000000000000000000000000000000000000000000000000000000000000000000000000000000000000000000000000000000000000000000000000000000000000000000000000000000000000000000000000000000000000000000000000000
310
0000000000000000000000000000000000000000000000000000000000000000000000000000000000000000000000000000000000000000000000000000000000000000000000000000000000000000F5F5DC0000000000000000000000000000000000000000000000000000000000000000000000000000000000000000
310
000000000000000000000000000000000000DC0000000000000000280000000000000000000000000000000000000000000000000000000000000000BEBEBEBEBEBEBEBEBEBEBEBEBEBEBEBEBEBEBEBE00BEBEBEBEBE0000BEBEBEBE00BEBEBEBEBEBEBEBEBEBE00BEBEBEBEBE00BEBEBEBEBEBEBEBEBEBEBEBEBEBE00BEBE
310
BEBEBEBEBE0000000000000000000000000000000000000000000000000000000000000000000000000000000000000000000000000000000000000000000000000000000000000000000000000000000000F5F5DC000000000000000000000000000000000000000000000000000000000000000000000000000000000000
310
0000000000000000000000000000000000000000DC0000000000000000280000000000000000000000000000000000000000000000000000000000000000BEBEBEBEBEBEBEBEBEBEBEBEBEBEBEBEBEBEBEBE00BEBEBEBEBEBE00BEBEBEBE00BEBEBEBEBEBEBEBEBEBE00BEBEBEBEBE00BEBEBEBEBEBEBEBEBEBEBEBEBEBE00
310
BEBEBEBEBEBEBE0000000000000000000000000000000000000000000000000000000000000000000000000000000000000000000000000000000000000000000000000000000000000000000000000000000000F5F5DC00000000000000000000000000000000000000000000000000000000000000000000000000000000
310
00000000000000000000000000000000000000000000DC0000000000000000280000000000000000000000000000000000000000000000000000000000000000BEBE00BEBEBE0000BE0000000000BE00BE00000000BEBE00BE000000000000BE00BE0000BEBE00000000BE0000BE00000000BEBEBE00BE0000000000000000
310
0000BEBEBEBE0000000000000000000000000000000000000000000000000000000000000000000000000000000000000000000000000000000000000000000000000000000000000000000000000000000000000000F5F5DC0000000000000000000000000000000000000000000000000000000000000000000000000000
310
000000000000000000000000000000000000000000000000DC000000000000000028000000000000000000000000000000000000000000000000000000000000000000000000000000000000000000000000000000000000000000000000000000000000000000000000000000000000000000000000000000000000000000
310
00000000000000000000000000000000000000000000000000000000000000000000000000000000000000000000000000000000000000000000000000000000000000000000000000000000000000000000000000000000F5F5DC000000000000000000000000000000000000000000000000000000000000000000000000
310
0000000000000000000000000000000000000000000000000000DC00000000000000002800000000000000000000000000000000000000000000000000000000000000000000000000000000000000000000000000000000000000000000000000000000000000000000000000000000000000000000000000000000000000
310
00000000000000000000000000000000000000000000000000000000000000000000000000000000000000000000000000000000000000000000000000000000000000000000000000000000000000000000000000000000000028F5DC00000000000000000000000000000000000000000000000000000000000000000000
310
00000000000000000000000000000000000000000000000000000000DC0000000000000000280000000000000000000000000000000000000000000000000000000000000000000000000000000000000000000000000000000000000000000000000000000000000000000000000000000000000000000000000000000000
310
000000000000000000000000000000000000000000000000000000000000000000000000000000000000000000000000000000000000000000000000000000000000000000000000000000000000000000000000000000000000000028F5DC0000000000000000000000000000000000000000000000000000000000000000
310
000000000000000000000000000000000000000000000000000000000000DC000000000000000028000000000000000000000000000000000000000000000000000000000000000000000000000000000000000000000000000000000000000000000000000000000000000000000000000000000000000000000000000000
310
0000000000000000000000000000000000000000000000000000000000000000000000000000000000000000000000000000000000000000000000000000000000000000000000000000000000000000000000000000000000000000000028F5DC000000000000000000000000000000000000000000000000000000000000
310
0000000000000000000000000000000000000000000000000000000000000000DC00000000000000002800000000000000000000000000000000000000000000000000000000000000000000000000000000000000000000000000000000000000000000000000000000000000000000000000000000000000000000000000
310
00000000000000000000000000000000000000000000000000000000000000000000000000000000000000000000000000000000000000000000000000000000000000000000000000000000000000000000000000000000000000000000000028F5DC00000000000000000000000000000000000000000000000000000000
310
00000000000000000000000000000000000000000000000000000000000000000000DC0000000000000000280000000000000000000000000000000000000000000000000000000000000000000000000000000000000000000000000000000000000000000000000000000000000000000000000000000000000000000000
310
0000000000000000000000000000000000000000000000000000000000000000000000000000000000000000000000000000000000000000000000000000000000000000000000000000000000000000000000000000000000000000000000000000F5F5DC0000000000000000000000000000000000000000000000000000
310
000000000000000000000000000000000000000000000000000000000000000000000000DC000000000000000028000000000000000000000000000000000000000000000000000000000000000000000000000000000000000000000000000000000000000000000000000000000000000000000000000000000000000000
310
0000000000000000000000000000000000000000000000000000000000000000000000000000000000000000000000000000000000000000000000000000000000000000000000000000000000000000000000000000000000000000000000000000000028F5F5000000000000000000000000000000000000000000000000
310
0000000000000000000000000000000000000000000000000000000000000000000000000000DC00000000000000002800000000000000000000000000000000000000000000000000000000000000000000000000000000000000000000000000000000000000000000000000000000000000000000000000000000000000
310
00000000000000000000000000000000000000000000000000000000000000000000000000000000000000000000000000000000000000000000000000000000000000000000000000000000000000000000000000000000000000000000000000000000000028F5DC00000000000000000000000000000000000000000000
310
00000000000000000000000000000000000000000000000000000000000000000000000000000000DC0000000000000000280000000000000000000000000000000000000000000000000000000000000000000000000000000000000000000000000000000000000000000000000000000000000000000000000000000000
310
0000000000000000000000000000000000000000000000000000000000000000000000000000000000000000000000000000000000000000000000000000000000000000000000000000000000000000000000000000000000000000000000000000000000000000F5F5DC0000000000000000000000000000000000000000
310
000000000000000000000000000000000000000000000000000000000000000000000000000000000000DC000000000000000028000000000000000000000000000000000000000000000000000000000000000000000000000000000000000000000000000000000000000000000000000000000000000000000000000000
310
00000000000000000000000000000000000000000000000000000000000000000000000000000000000000000000000000000000000000000000000000000000000000000000000000000000002828282828F5F5F5F5F5F5F5F5F5F5F5F5F5F5F5F5000000000000000028F5DC000000000000000000000000000000000000
310
0000000000000000000000000000000000000000000000000000000000000000000000000000000000000000DC00000000000000002800000000000000000000000000000000000000000000000000000000000000000000000000000000000000000000000000000000000000000000000000000000000000000000000000
310
0000000000000000000000000000000000000000000000000000000000000000000000000000000000000000000000000000000000000000000000000000000000DCF5F5F5F5F5F5F5F5F5F5F5F5F5F5F5F5F5F5F5F5F5F5F5F5F5F5F5F528000000F5F5000000000000000028F5DC00000000000000000000000000000000
310
00000000000000000000000000000000000000000000000000000000000000000000000000000000000000000000DC0000000000000000280000000000000000000000000000000000000000000000000000000000000000000000F5F5F5F5F5F5F5F5F5F5F5F5F5F5F5F5F5F5F5F5F5F5F5F5F5F5F5F5F5F5F5F5F5F5F5F5
310
F5F5F5F5F5F5F5F5F5F5F5F5F5F5F5F5F5F5F5F5F5F5F5F5F5F5F5F5F5F500000000000000000000000000000000000000000000000000000000000000000000000000F5F5F5F5F5F5F5F5F5282828282800000000000000000000000000DC002800000000F50000000000000000F5F5DC0000000000000000000000000000
310
000000000000000000000000000000000000000000000000000000000000000000000000000000000000000000000000DC0000000000000000280000000000000000000000000000000000000000000000000000000000000000000000F5F5F500000000000000000000000000000000000000000000000000000000BEBEBE
310
BE00000000000000000000000000000000000000000000000000000000F5F5F500000000000000000000000000000000000000000000000000000000000000000000000000DC0000000000000000000000000000000000000000000000000000DC002800000000F5000000000000000028F5DC000000000000000000000000
310
0000000000000000000000000000000000000000000000000000000000000000000000000000000000000000000000000000DC0000000000000000280000000000000000000000000000000000000000000000000000000000000000000000F5000000000000000000000000000000000000000000000000000000000000BE
310
BEBEBE000000000000000000000000000000000000000000000000000000000000F5000000000000000000000000000000000000000000000000000000000000000000000000DC000000000000000000000000000000000000000000000000000000DC002800000000F50000000000000000F5F5DC00000000000000000000
310
00000000000000000000000000000000000000000000000000000000000000000000000000000000000000000000000000000000DC0000000000000000280000000000000000000000000000000000000000000000000000000000000000000000F500F50000000000000000000000F500F500F50000000000000000000000
310
00BEBEBEBE00000000000000000000000000000000000000000000000000F500F50000F5000000000000000000000000000000000000000000F5F5F5F5F5F5F5F5F5F5F5F5DC0000DC000000000000000000000000000000000000000000000000000000DC002800000000F5000000000000000028F5DC0000000000000000
310
000000000000000000000000000000000000000000000000000000000000000000000000000000000000000000000000000000000000DC0000000000000000280000000000000000000000000000000000000000000000000000000000000000000000F5F5F5F5F5F5F5BEBEBEF5F5F5F5F5F5F5F5F5F5F5F5F5F5F5F5F5F5
310
F5F5F5F5F5F5F5F5F5BEBEBEBEF5F5F5F5F5F5F5F5F5F5F5F5F5F5F5F5F5F5F5F5F5F50000F50000F5F5F5F5F5F5F5F5F5F5F5F5F5F5F5F5F5F5F5F5F5F5F5F5000000000000DC000000DC000000000000000000000000000000000000000000000000000000DC002800000000F50000000000000000F5F5DC000000000000
310
0000000000000000000000000000000000000000000000000000000000000000000000000000000000000000000000000000000000000000DC0000000000000000280000000000000000000000000000000000000000000000000000000000000000000000F5000000000000BEBEBE000000000000F5000000000000000000
310
000000000000000000000000BEBEBEBE0000F5F50000F5F5F5F5F5F5F5F5F5F5F5F5F5F5F5F5F5F5F5F5F5F5F5F5F500000000000000000000000000000000000000000000000000DC000000DC000000000000000000000000000000000000000000000000000000DC002800000000F5000000000000000028F5DC00000000
310
00000000000000000000000000000000000000000000000000000000000000000000000000000000000000000000000000000000000000000000DC0000000000000000280000000000000000000000000000000000000000000000000000000000000000000000F5000000000000BEBEBE000000000000F500000000000000
310
00000000000000000000000000BEBEBEBEBE0000F5F5F5F5F5F5F5F5F5F52800000000000000F50000F50000000000000000000000000000000000000000000000000000000000000000DC000000DC00000000000000000000000000000000000000F500000000000000DC002800000000F5000000000000000028F5DC0000
310
000000000000000000000000000000000000000000000000000000000000000000000000000000000000000000000000000000000000000000000000DC0000000000000000280000000000000000000000000000000000000000000000000000000000000000000000F5000000000000000000000000000000F50000000000
310
00000000000000000000000000000000000000000028280000000000000000000000000000000000F50000F50000000000000000000000000000000000000000000000000000000000000000DC000000DC00000000000000000000000000000000000000F500000000000000DC00280000BEBEF50000000000000000F5F5DC
310
0000000000000000000000000000000000000000000000000000000000000000000000000000000000000000000000000000000000000000000000000000DC000000000000000028000000000000BEBEBEBE00BEBEBEBEBEBEBE00BEBEBEBE00BEBEBEBEBEBE0000000000F5000000000000000000000000000000F5000000
310
000000000000000000000000000000000000000000000028280000000000000000000000000000000000F50000F50000000000000000000000000000000000000000000000000000000000000000DC000000DC00000000000000000000000000000000000000F500000000000000DC00280000BEBEF5000000000000000028
310
F5DC0000000000000000000000000000000000000000000000000000000000000000000000000000000000000000000000000000000000000000000000000000DC000000000000000028000000000000BEBEBEBEBEBEBEBEBEBEBEBE00BEBEBEBEBEBEBEBEBEBEBE0000000000F5000000000000000000000000000000F500
310
0000000000000000000000000000000000000000000000002828000000000000000000000000000000000000F50000F50000000000000000000000000000000000000000000000000000000000000000DC00000000DC000000000000000000000000000000000000F500000000000000DC00280000BEBEBE00000000000000
310
0028F5F50000000000000000000000000000000000000000000000000000000000000000000000000000000000000000000000000000000000000000000000000000DC0000000000000000280000000000DCBEBEBEBEDCDCBEBEDCBEBEDCDCBEBEBEBEBEBEBEBEBEBEBEDCDC000000F5000000000000000000000000000000
310
F5000000000000000000000000000000000000000000000000F52800000000000000000000000000000000000000F50000F50000000000000000000000000000000000000000000000000000000000000000DC00000000DC00000000000000000000000000DCDCDCDCDCDCDCDCDCDCDCDCDCDCDCDCF5F5F5BEBEF5F5F5F5F5
310
F5000028F5DC0000000000000000000000000000000000000000000000000000000000000000000000000000000000000000000000000000000000000000000000000000DC000000000000000028000000000000BEBEBEBEBEBEBEBEBEBEBEBE00BEBEBEBEBEBEBE000000000000DCDC00F500000000000000000000000000
310
0000F5000000000000000000000000000000000000000000000000282800000000000000000000000000000000000000F50000F50000000000000000000000000000000000000000000000000000000000000000DC000000DCDCDCDCDCDCDCDCDCDCDCDCDCDC000000000000F50000000000000000DC00280000BEBEF50000
310
00F500000028F5DC0000000000000000000000000000000000000000000000000000000000000000000000000000000000000000000000000000000000000000000000000000DC000000000000000028000000000000BEBEBEBEBEBEBEBEBEBEBEBEBEBEBEBEBEBEBEBE0000000000000000DCF5DC00000000000000000000
310
00000000F5000000000000000000000000000000000000000000000028280000000000000000000000000000000000000000F50000F50000000000000000000000000000000000000000000000000000000000000000DCDC00000000DC0000000000000000000000000000000000F50000000000000000DC002800BEBEBEF5
310
000000F500000028F5DC0000000000000000000000000000000000000000000000000000000000000000000000000000000000000000000000000000000000000000000000000000DC0000000000000000280000000000000000000000000000000000000000000000000000000000000000000000F500DCDCDC0000000000
310
000000000000F5000000000000000000000000000000000000000000000028280000000000000000000000000000000000000000F50000F5000000000000000000000000000000000000000000000000000000000000000000DC00000000DC0000000000000000000000000000000000F5F500000000000000DC0028000000
310
00F5000000F500000028F5DC0000000000000000000000000000000000000000000000000000000000000000000000000000000000000000000000000000000000000000000000000000DC0000000000000000280000000000000000000000000000000000000000000000000000000000000000000000F500000000DCDC00
310
0000000000000000F5000000000000000000000000000000000000000000002828000000000000000000000000000000000000000000F50000F5000000000000000000000000000000000000000000000000000000000000000000DCDC00000000DC00000000000000000000000000000000BEF500000000000000DC002800
310
000000F5000000F5000000F5F5DC0000000000000000000000000000000000000000000000000000000000000000000000000000000000000000000000000000000000000000000000000000DC0000000000000000280000000000000000000000000000000000000000000000000000000000000000000000F50000000000
310
00DCDCDC000000000000F5000000000000000000000000000000000000000000002800000000000000000000000000000000000000000000F50000F5000000000000000000000000000000DC00DCDCDCDCDCDCDCDCDCDCDCDCDCDC00DCDCDC00000000DC000000000000000000000000000000BEBE00F5000000000000DC00
310
2800000000F5000000F5000000F5F5DC0000000000000000000000000000000000000000000000000000000000000000000000000000000000000000000000000000000000000000000000000000DC0000000000000000280000000000000000000000000000000000000000000000000000000000000000000000F5000000
310
000000000000DCDCDC000000F50000000000000000000000000000000000000000002828000000000000000000000000000000000000000000DCDCDCDCDCDCDCDCDCDCDCDCDC00DCDCDCDCDCDC00000000000000000000000000000000000000DC00000000DC000000000000000000000000000000BEBE00F5000000000000
310
DC002800000000F5000000F5000000F5F5DC0000000000000000000000000000000000000000000000000000000000000000000000000000000000000000000000000000000000000000000000000000DC0000000000000000280000000000000000000000000000000000000000000000000000000000F5F5F5F5F5F5F5F5
310
F5F5F5F5F5F5F5F5F5F5F5F5F5F5282828282828282828282828282828282828282828282828282828DCDCDCDCDCDCDCDC28DCDCDCDCDCDCDC28DC28F50000F500000000000000000000000000000000000000000000000000000000000000000000DC00000000DC0000000000000000000000000000000000000000000000
310
0000DC002800000000F5000000F5000000F5F5DC0000000000000000000000000000000000000000000000000000000000000000000000000000000000000000000000000000000000000000000000000000DC000000000000000028000000000000000000000000000000000000000000000000000000000000F500000000
310
F50000000000000000000000000000DC282800000000000000000000000000000000000000DCDCDCDC000000000000000000000000000000000000000028280000F500000000000000000000000000000000000000000000000000000000000000000000DC00000000DC000000000000000000000000000000000000000000
310
00000000DC002800000000F5000000F5000000F5F5DC0000000000000000000000000000000000000000000000000000000000000000000000000000000000000000000000000000000000000000000000000000DC000000000000000028000000000000000000000000000000000000000000000000000000000000F50000
310
0000F500000000000000000000000000000028000000000000000000000000000000000000000000000000000000000000000000000000000000000000000000280000F50000000000000000000000000000000000000000000000000000000000000000000000DC000000DC00000000000000000000000000000000000000
310
000000000000DC0028000000F5F500BEBEF500000028F5DC0000000000000000000000000000000000000000000000000000000000000000000000000000000000000000000000000000000000000000000000000000DC000000000000000028000000000000000000000000000000000000000000000000000000000000F5
310
00000000F500000000000000000000000000000028000000000000000000000000000000000000000000000000000000000000000000000000000000000000000000280000F5000000000000000000000000BEBEBEBEBEBE0000000000000000000000000000000000DC000000DC0000000000000000000000000000000000
310
0000000000000000DC002800000000F500BEBEF500000028F5DC0000000000000000000000000000000000000000000000000000000000000000000000000000000000000000000000000000000000000000000000000000DCDCDCDCDCDCDCDC00280000000000000000000000000000000000000000000000000000000000
310
00F500000000F500000000000000000000000000000028000000000000000000000000000000000000000000000000000000000000000000000000000000000000000000280000F5000000000000000000000000BEBEBEBEBEBE0000000000000000000000000000000000DC000000DC0000000000000000000000002828F5
310
F5F5F5F5F5F5F5F5F5F5F5F5F5F5F5F5F5F500BEBEF500000028F5DC0000000000000000000000000000000000000000000000000000000000000000000000000000000000000000000000000000000000000000000000000000DC000000000000000028000000000000000000000000000000000000000000000000000000
310
00BEBEF500000000F500000000000000000000000000000028000000000000000000000000000000000000000000000000000000000000000000000000000000000000000000280000F5000000000000000000000000BEBEBEBEBEBE0000000000000000000000000000000000DC000028F5F5F5F5F5F5F5F5F5F5F5F5F5F5
310
F5F5F5F5F5F5F5F5F5F500000000F50000000000000000F500000028F5DC0000000000000000000000000000000000000000000000000000000000000000000000000000000000000000000000000000000000000000000000000000DC00000000000000002800000000000000000000000000000000000000000000000000
310
000000BEBEF500000000F500000000000000000000000000000028000000000000000000000000000000000000000000000000000000000000000000000000000000000000000000280000F50000000000000000000000000000000000000000000000000000000000000000000000DC0000F5F5F5F5F5F528280000000000
310
00000000000000000000000000000000F50000000000000000F5000000F5F5DC0000000000000000000000000000000000000000000000000000000000000000000000000000000000000000000000000000000000000000000000000000DC0000000000000000280000000000000000000000000000000000000000000000
310
0000000000BEBEF500000000F500000000000000000000000000000028000000000000000000000000000000000000000000000000000000000000000000000000000000000000000000280000F500000000000000000000000000000000000000000000000000000000000000000000DC0000000000000000000000000000
310
000000000000000000000000000000000000F50000000000000000F5000000F5F5DC0000000000000000000000000000000000000000000000000000000000000000000000000000000000000000000000000000000000000000000000000000DC000000000000000028000000000000000000000000000000000000000000
310
00000000000000BEBEF500000000F500000000000000000000000000000028000000000000000000000000000000000000000000000000000000000000000000000000000000000000000000280000F500000000000000000000000000000000000000000000000000000000000000000000DC000000000000000000000000
310
0000000000000000000000000000000000000000F50000000000000000F5000000F5F5DC0000000000000000000000000000000000000000000000000000000000000000000000000000000000000000000000000000000000000000000000000000DC00000000000000002800000000000000000000000000000000000000
310
0000000000000000000000F500000000F500000000000000000000000000000028000000000000000000000000000000000000000000000000000000000000000000000000000000000000000000280000F5000000000000000000000000000000000000000000F5F5F5F5F5F5F5F5F5F5F5F5F5F500000000000000000000
310
00000000000000000000000000000000000000000000F50000000000000000F5000000F5F5F50000000000000000000000000000000000000000000000000000000000000000000000000000000000000000000000000000000000000000000000000000DC0000000000000000280000000000000000000000000000000000
310
00000000000000000000000000F500000000F500000000000000000000000000000028000000000000000000000000000000000000000000000000000000000000000000000000000000000000000000280000F50000F5F5F5F5F5F5F5F5F5F5F5F5F5F5F5F5F5F5F5F5F5F5F5F5F500000000000000000000000000000000
310
000000000000000000000000000000000000000000000000F50000000000000000F5000000F5F5DC0000000000000000000000000000000000000000000000000000000000000000000000000000000000000000000000000000000000000000000000000000DC000000000000000028000000000000000000000000000000
310
000000000000000000000000000000F500000000F500000000000000000000000000000028000000000000000000000000000000000000000000000000000000000000000000000000000000000000000000F5F5F5F5F5F5F5F5F5F5F500000000000000000000000000000000000000000000000000000000000000000000
310
0000000000000000000000000000000000000000000000000000F50000000000000000F500000028F5DC0000000000000000000000000000000000000000000000000000000000000000000000000000000000000000000000000000000000000000000000000000DC00000000000000002800000000000000000000000000
310
0000000000000000000000000000000000F500000000F5000000000000000000000000000000280000000000000000000000000000DC000000000000000000000000000000000000000000000000000000000000280000F5000000000000000000000000000000000000000000000000000000000000000000000000000000
310
00000000000000000000000000000000000000000000000000000000F50000000000000000F5000000F5F5DC0000000000000000000000000000000000000000000000000000000000000000000000000000000000000000000000000000000000000000000000000000DC0000000000000000280000000000000000000000
310
000000000000000000000000000000000000F5F5F5F5F5F5F5F5F5F5F5F5F5F5F5F5F5F5F5F5F5F528F528282828282828282828282828282828282828282828282828282828F5F5F5F5F5F5F5F5F5F5F5F5F5F5F5F528F5F5F5F5F5F5F5F5F5F5F5F5F5F5F5F5F5F5F5F5F5F5F5F5F5F5F5F5F5F5F5F5F5F5F5F5F5F5F5F5
310
F5F5F5F5F5F5F5F5F5F5F5F5F5F5F5F5F5F5F5F5F5F5F5F5F5F5F5F5F5F5F5F5F5F5F5F5F5F5F5F5F5000028F5DC0000000000000000000000000000000000000000000000000000000000000000000000000000000000000000000000000000000000000000000000000000DC000000000000000028000000000000000000
310
0000000000000000000000000000000000000000F5F5F5F5F5F5F5F5F5F5F5F5F5F5F5F5F5F5F5F5F5F5F5F528282828282828282828282828DC28282828282828282828282828F5F5F5F5F5F5F5F5F5F5F5F5F5F5F5F5DCDCF5F5280000F5F500000000000000000000000000000000000000000000000000000000000000
310
0000000000000000000000000000000000000000000000000000000000000000F5000000000000000000000000F5F5DC0000000000000000000000000000000000000000000000000000000000000000000000000000000000000000000000000000000000000000000000000000DC00000000000000002800000000000000
310
0000000000000000000000000000000000000000000000F500000000F5F5F5F5F5F5F5F5F5F5F5F5F5F5F5F5F52828282828282828282828282828282828282828282828282828282828F5F5F5F5F5F5F5F5F5F5F5F5F5F5F5F5F5DCDCDCDC00F5F50000000000000000000000000000000000000000000000000000000000
310
00000000000000000000000000000000000000000000000000000000000000000000F5000000000000000000000000F5F5DC0000000000000000000000000000000000000000000000000000000000000000000000000000000000000000000000000000000000000000000000000000DC0000000000000000280000000000
310
00000000000000000000000000000000000000000000000000F50000000000F5F5F5F50000F5F500F5F5F50000F52828000000000000000000000000000000000000000000000000000000DC28F500F5F500F500F5F500F500F5F5280000282800DCDC00000000000000000000000000000000000000000000000000000000
310
000000000000000000000000000000000000000000000000000000000000000000000000F5000000000000000000000000F5F5DC0000000000000000000000000000000000000000000000000000000000000000000000000000000000000000000000000000000000000000000000000000DC000000000000000028000000
310
000000000000000000000000000000000000000000000000000000F5000000000028F5F5F528282828282828282828282828282828282828282828282828282828282828282828282828282828DC2828DCDCDCDCDC282828282828282828000028280000F5DCDCDC000000000000BEBEBEBE00BEBEBEBEBEBEBE00BEBEBEBE
310
BEBEBEBEBEBEBE00000000000000000000000000000000000000000000000000000000000000F500000000000000000000000028F5DC0000000000000000000000000000000000000000000000000000000000000000000000000000000000000000000000000000000000000000000000000000DC00000000000000002800
310
000000000000000000000000000000000000000000000000000000BEBEF50000000000DCF5F5F528000000002828DC282800000000000000000000000000002828DC28280000000000000000000028DC00282828DC2828000000000000000000000028280000F5000000DCDCDCDC0000BEBEBEBEBEBEBEBEBEBEBEBE00BEBE
310
BEBEBEBEBEBEBEBEBE00000000000000000000000000000000000000000000000000000000000000F500000000000000000000000028F5DC0000000000000000000000000000000000000000000000000000000000000000000000000000000000000000000000000000000000000000000000000000DC0000000000000000
310
2800000000000000000000000000000000000000000000000000000000BEBEF5000000DCDC00F5F5F528000000002828282828000000000000000000000000000028282828280000000000000000000028DC00282828282828000000000000000000000028280000F500000000000000DCDCDCDCDCDCBEDCDCDCDCDCDCDCDC
310
DCDCDCDCDCDCDCDCBEDCDCDC000000000000000000000000000000000000000000000000000000000000F5000000000000000000000000F5F5DC0000000000000000000000000000000000000000000000000000000000000000000000000000000000000000000000000000000000000000000000000000DC000000000000
310
00002800BEBEBEBE0000BEBEBEBEBEBE00BEBEBEBEBEBEBEBEBEBEBEBE00000000F5DCDC00000000F5F5F528000000000028DCDC2800000000000000000000000000000028DC280000000000000000000000282828280028DC2800000000000000000000000028280000F5000000000000000000BEBEBEBEBEBEBEBEBEBEBE
310
BEBEBEBEBEBEBEBEBEBEBE000000000000000000000000000000000000000000000000000000000000000000F5000000000000000000000000F5F5DC0000000000000000000000000000000000000000000000000000000000000000000000000000000000000000000000000000000000000000000000000000DC00000000
310
000000002800BEBEBEBEBEBEBEBEBEBEBEBE00BEBEBEBEBEBEBEBEBEBEBEBE0000DCDCDC00000000000000DC0000000000000000DC000000000000000000000000000000000000F500000000000000000000000000DC00000000DC0000000000000000000000000028280000F5000000000000000000BEBEBEBEBEBEBEBEBE
310
BEBEBEBEBEBEBEBEBEBEBEBEBE000000000000000000000000000000000000000000000000000000000000000000F5000000000000000000000000F5F5DC0000000000000000000000000000000000000000000000000000000000000000000000000000000000000000000000000000000000000000000000000000DC0000
310
0000000000002800BEBEBEBEBEDCBEDCBEBEBEDCDCBEBEBEBEBEBEBEBEBEBEBEBEDCDC0000000000000000000000000000000000000000000000000000000000000000000000000000F500000000000000000000000000000000000000000000000000000000002828F528280000F500000000000000000000000000000000
310
000000000000000000000000000000000000000000000000000000000000000000000000000000000000000000000000F500000000000000000000000028F5DC0000000000000000000000000000000000000000000000000000000000000000000000000000000000000000000000000000000000000000000000000000DC
310
00000000000000002800BEBEBEBEBEBEBEBEBEBEBE000000000000000000000000000000000000000000000000000000000000000000000000000000000000000000000000000000000000F50000000000000000000000000000000000000000000000000000000000F5F5F5F5280000F50000000000000000000000000000
310
0000000000000000000000000000000000000000000000000000000000000000000000000000000000000000000000000000F500000000000000000000000028F5DC00000000000000000000000000000000000000000000000000000000000000000000000000000000000000000000000000000000000000000000000000
310
00DC00000000000000002800BEBEBEBEBEBEBEBEBEBEBE000000000000000000000000000000000000000000000000000000000000000000000000000000000000000000000000000000000000F500000000000000000000000000000000000000000000000000000000002800F5F528BEBEBE000000000000000000000000
310
00000000000000000000000000000000000000000000000000000000000000000000000000000000000000000000000000000000F5000000000000000000000000F5F5DC0000000000000000000000000000000000000000000000000000000000000000000000000000000000000000000000000000000000000000000000
310
000000DC00000000000000002800BE000000BE00000000BE00000000000000000000000000000000000000000000000000000000000000000000000000000000000000000000000000000000000000F50000000000000000000000000000000000000000000000000000000000F5F5F5F528BEBEBE00000000000000000000
310
000000000000000000000000000000000000000000000000000000000000000000000000000000000000000000000000000000000000F500000000000000000000000028F5DC000000000000000000000000000000000000000000000000000000000000000000000000000000000000000000000000000000000000000000
310
0000000000DC000000000000000028000000000000000000000000000000000000000000000000000000000000000000000000000000000000000000000000000000000000000000000000000000000000F5000000000000000000000000000000000000000000000000000000000028F5F5F528BEBEBE0000000000000000
310
0000000000000000000000000000000000000000000000000000000000000000000000000000000000000000000000000000000000000000F500000000000000000000000028F5F500000000000000000000000000000000000000000000000000000000000000000000000000000000000000000000000000000000000000
310
00000000000000DC000000000000000028000000000000000000000000000000000000000000000000000000000000000000000000000000000000000000000000000000000000000000000000000000000000F500000000000000000000000000000000000000000000000000000028282800F5F528BEBEBE000000000000
310
00000000000000000000000000000000000000000000000000000000000000000000000000000000000000000000000000000000000000000000F500000000000000000000000028F5F50000000000000000000000000000000000000000000000000000000000000000000000000000000000000000000000000000000000
310
000000000000000000DC000000000000000028000000000000000000000000000000000000000000000000000000000000000000000000000000000000000000000000000000000000000000000000000000000000F5000000000000000000000000000000000000000000000000000028282828F5F5F5280000F500000000
310
000000000000000000000000000000000000000000000000000000000000000000000000000000000000000000000000000000000000000000000000F5000000000000000000000000F5F5DC000000000000000000000000000000000000000000000000000000000000000000000000000000000000000000000000000000
310
0000000000000000000000DC000000000000000028000000000000000000000000000000000000000000000000000000000000000000000000000000000000000000000000000000000000000000000000000000000000F500000000000000000000000000000000000000000000000000DCDC28DC28F5F5F5280000F50000
310
0000000000000000000000000000000000000000000000000000000000000000000000000000000000000000000000000000000000000000000000000000F500000000000000000000000028F5DC00000000000000000000000000000000000000000000000000000000000000000000000000000000000000000000000000
310
00000000000000000000000000DC000000000000000028000000000000000000000000000000000000000000000000000000000000000000000000000000000000000000000000000000000000000000000000000000000000F500000000000000000000000000000000000000000000000000002828282800F5F5280000F5
310
00000000000000000000000000000000000000000000000000000000000000000000000000000000000000000000000000000000000000000000000000000000F500000000000000000000000028F5DC0000000000000000000000000000000000000000000000000000000000000000000000000000000000000000000000
310
000000000000000000000000000000DC000000000000000028000000000000000000000000000000000000000000000000000000000000000000000000000000000000000000000000000000000000000000000000000000000000F5000000000000000000000000000000000000000000000000000000282828F5F5F52800
310
00F500000000000000000000000000000000000000000000000000000000000000000000000000000000000000000000000000000000000000000000000000000000F500000000000000000000000028F5DC000000000000000000000000000000000000000000000000000000000000000000000000000000000000000000
310
0000000000000000000000000000000000DC000000000000000028000000000000000000000000000000000000000000000000000000000000000000000000000000000000000000000000000000000000000000000000000000000000F500000000000000000000000000000000000000000000000000000000002800F5F5
310
280000F5000000000000000000BEBEBEBE00BEBEBEBEBEBEBE00BEBEBEBEBEBEBEBEBEBEBE00000000000000000000000000000000000000000000000000000000000000F500000000000000000000000028F5DC00000000000000000000000000000000000000000000000000000000000000000000000000000000000000
310
00000000000000000000000000000000000000DC000000000000000028000000000000000000000000000000000000000000000000000000000000000000000000000000000000000000000000000000000000000000000000000000000000F50000000000000000000000000000000000000000000000000000000000F5F5
310
F5DCDCDCDCDCDCDCDC000000000000BEBEBEBEBEBEBEBEBEBEBEBE00BEBEBEBEBEBEBEBEBEBEBE00000000000000000000000000000000000000000000000000000000000000F5000000000000000000000000F5F5DC0000000000000000000000000000000000000000000000000000000000000000000000000000000000
310
000000000000000000000000000000000000000000DC000000000000000028000000000000000000000000000000000000000000000000000000000000000000000000000000000000000000000000000000000000000000000000000000000000F50000000000000000000000000000000000000000000000000000000000
310
28F5F5F5280000F5000000DCDCDCDC0000BEBEBEBE0000BEBEBEBEBEBE00BEBEBEBEBEBEBEBEBEBEBE00000000000000000000000000000000000000000000000000000000000000F500000000000000000000000028F5DC000000000000000000000000000000000000000000000000000000000000000000000000000000
310
0000000000000000000000000000000000000000000000DC000000000000000028000000000000000000000000000000000000000000000000000000000000000000000000000000000000000000000000000000000000000000000000000000000000F5000000000000000000000000000000000000000000000000000000
310
0000F500F5F5280000F500000000000000DCDCDCDCDCDCDCDCDCDCDCDCDCDCDCDCDCDCDCDCDCDCDCDCDCDCDC000000000000000000000000000000000000000000000000000000000000F500000000000000000000000028F5DC00000000000000000000000000000000000000000000000000000000000000000000000000
310
00000000000000000000000000000000000000000000000000DC000000000000000028000000000000000000000000000000000000000000000000000000000000000000000000000000000000000000000000000000000000000000000000000000000000F500000000000000000000000000000000000000000000000000
310
00000000F5F5F5F5280000F5F50000000000000000BEBEBEBEBEBEBEBEBEBEBEBEBEBEBEBEBEBEBEBEBEBE000000000000000000000000000000000000000000000000000000000000000000F50000000000000000000000002800DC0000000000000000000000000000000000000000000000000000000000000000000000
310
000000000000000000000000000000000000000000000000000000DC000000000000000028000000000000000000000000000000000000000000000000000000000000000000000000000000000000000000000000000000000000000000000000000000000000F50000000000000000000000000000000000000000000000
310
0000000000002828DC2828F5F5F5F50000000000000000BEBE00000000000000BEBE000000BEBEBEBE00000000000000000000000000000000000000000000000000000000000000000000000000F50000000000000000000000002800DC000000000000000000000000000000000000000000000000000000000000000000
310
0000000000000000000000000000000000000000000000000000000000DC000000000000000028000000000000000000000000000000000000000000000000000000000000000000000000000000000000000000000000000000000000000000000000000000000000F5000000000000000000000000000000000000000000
310
000000000000000000000000DC00000000000000000000000000000000000000000000000000000000000000000000000000000000000000000000000000000000000000000000000000000000000000F50000000000000000000000002800DC00000000000000000000000000000000000000000000000000000000000000
310
00000000000000000000000000000000000000000000000000000000000000DC000000000000000028000000000000000000000000000000000000000000000000000000000000000000000000000000000000000000000000000000000000000000000000000000000000F500000000000000000000000000000000000000
310
000000000000000000000000000000DCDC0000000000000000000000000000000000000000000000000000000000000000000000000000000000000000000000000000000000000000000000000000000000F50000000000000000000000002800DC0000000000000000000000000000000000000000000000000000000000
310
000000000000000000000000000000000000000000000000000000000000000000DC000000000000000028000000000000000000000000000000000000000000000000000000000000000000000000000000000000000000000000000000000000000000000000000000000000F50000000000000000000000000000000000
310
00000000000000000000000000000000000000DC000000BEBEBEBEBEBEBEBEBEBEBEBEBEBEBEBEBEBEBEBEBEBEBEBE00000000000000000000000000000000000000000000000000000000000000000000000000F50000000000000000000000002800DC000000000000000000000000000000000000000000000000000000
310
0000000000000000000000000000000000000000000000000000000000000000000000DC000000000000000028000000000000000000000000000000000000000000000000000000000000000000000000000000000000000000000000000000000000000000000000000000000000F5000000000000000000000000000000
310
00000000000000000000000000000000000000000000DCDC00BEBEBEBE00BEBEBEBEBEBE00BEBEBEBEBEBEBEBEBEBEBEBE00000000000000000000000000000000000000000000000000000000000000000000000000F50000000000000000000000002800DC00000000000000000000000000000000000000000000000000
310
00000000000000000000000000000000000000000000000000000000000000000000000000DC000000000000000028000000000000000000000000000000000000000000000000000000000000000000000000000000000000000000000000000000000000000000000000000000000000F500000000000000000000000000
310
0000000000000000000000000000000000000000000000000000DCDCDCDCDCDCDCDCDCDCDCDCDCDCDCDCDCDCDCDCDCDCDCDCDCDC000000000000000000000000000000000000000000000000000000000000000000000000F50000000000000000000000002800DC0000000000000000000000000000000000000000000000
310
000000000000000000000000000000000000000000000000000000000000000000000000000000DC000000000000000028000000000000000000000000000000000000000000000000000000000000000000000000000000000000000000000000000000000000000000000000000000000000F50000000000000000000000
310
0000000000000000000000000000000000000000000000000000000000BEBEBEBEBEBEBEBEBEBE000000000000000000000000000000000000000000000000000000000000000000000000000000000000000000000000000000F50000000000000000000000002800DC000000000000000000000000000000000000000000
310
0000000000000000000000000000000000000000000000000000000000000000000000000000000000DC000000000000000028000000000000000000000000000000000000000000000000000000000000000000000000000000000000000000000000000000000000000000000000000000000000F5000000000000000000
310
00000000000000000000000000000000000000000000000000000000000000BEBEBEBEBEBEBEBEBEBE000000000000000000000000000000000000000000000000000000000000000000000000000000000000000000000000000000F50000000000000000000000002800DC00000000000000000000000000000000000000
310
00000000000000000000000000000000000000000000000000000000000000000000000000000000000000DC000000000000000028000000000000000000000000000000000000000000000000000000000000000000000000000000000000000000000000000000000000000000000000000000000000F500000000000000
310
00000000000000000000000000000000000000000000000000000000000000000000000000000000000000000000000000000000000000000000000000000000000000000000000000000000000000000000000000000000000000000000F50000000000000000000000002800DC0000000000000000000000000000000000
310
000000000000000000000000000000000000000000000000000000000000000000000000000000000000000000DC000000000000000028000000000000000000000000000000000000000000000000000000000000000000000000000000000000000000000000000000000000000000000000000000000000F50000000000
310
000000000000000000000000000000000000000000000000000000000000000000000000000000000000000000000000000000000000000000000000000000000000000000000000000000000000000000000000000000000000000000000000F50000000000000000000000002800DC000000000000000000000000000000
310
0000000000000000000000000000000000000000000000000000000000000000000000000000000000000000000000DC000000000000000028000000000000000000000000000000000000000000000000000000000000000000000000000000000000000000000000000000000000000000000000000000000000F5000000
310
0000000000000000000000000000000000000000000000000000000000000000000000000000000000000000000000000000000000000000000000000000000000000000000000000000000000000000000000000000000000000000000000000000F50000000000000000000000002800DC00000000000000000000000000
310
00000000000000000000000000000000000000000000000000000000000000000000000000000000000000000000000000DC000000000000000028000000000000000000000000000000000000000000000000000000000000000000000000000000000000000000000000000000000000000000000000000000000000F500
310
00000000000000000000000000000000000000000000000000000000000000000000000000000000000000000000000000000000000000000000000000000000000000000000000000000000000000000000000000000000000000000000000000000000F50000000000000000000000002800DC0000000000000000000000
310
000000000000000000000000000000000000000000000000000000000000000000000000000000000000000000000000000000DC000000000000000028000000000000000000000000000000000000000000000000000000000000000000000000000000000000000000000000000000000000000000000000000000000000
310
F5F5F5F5F5F5F5F5F5F5F5F5F5F5F5F5F5F5F5F5F5F5F5F5F5F5F5F5F5F5F5F5F5F5F5F5F5F5F5F5F5F5F5F5F5F5F5F5F5F5F5F5F5F5F5F5F5F5F5F5F5F5F5F5F5F5F5F5F5F5F5F5F5F5F5F5F5F5F5F5F5F5F5F5F5F5F5F5F5F5F5F5F5F5F5F5F5F5F5F5F5F5F50000000000000000000000002800DC000000000000000000
310
0000000000000000000000000000000000000000000000000000000000000000000000000000000000000000000000000000000000DC00000000000000002800000000000000000000000000000000000000000000000000000000000000000000000000000000000000000000000000000000000000000000000000000000
310
0000F5000000000000000000000000000000000000000000000000000000000000000000000000000000000000000000000000BEBEBEBEBE000000000000000000000000000000000000000000000000000000000000000000000000000000000000000000000000F50000000000000000000000002800DC00000000000000
310
00000000000000000000000000000000000000000000000000000000000000000000000000000000000000000000000000000000000000DC0000000000000000280000000000000000000000000000000000000000000000000000000000000000000000000000000000000000000000000000000000000000000000000000
310
0000000000000000000000000000000000000000000000000000000000000000000000000000000000000000000000000000000000BEBEBEBEBE000000000000000000000000000000000000000000000000000000000000000000000000000000000000000000000000000000000000000000000000002800DC0000000000
310
000000000000000000000000000000000000000000000000000000000000000000000000000000000000000000000000000000000000000000DC000000000000000028000000000000000000000000000000000000000000000000000000000000000000000000000000000000000000000000000000000000000000000000
310
000000000000000000000000000000000000000000000000000000000000000000000000000000000000000000000000000000000000000000000000000000000000000000000000000000000000000000000000000000000000000000000000000000000000000000000000000000000000000000000000002800DC000000
310
0000000000000000000000000000000000000000000000000000000000000000000000000000000000000000000000000000000000000000000000DC00000000000000002800000000000000000000000000000000000000000000000000000000000000000000000000000000000000000000000000000000000000000000
310
0000000000000000000000000000000000000000000000000000000000000000000000000000000000000000000000000000000000000000000000000000000000000000000000000000000000000000000000000000000000000000000000000000000000000000000000000000000000000000000000000000002800DC00
310
00000000000000000000000000000000000000000000000000000000000000000000000000000000000000000000000000000000000000000000000000DC0000000000000000280000000000000000000000000000000000000000000000000000000000000000000000000000000000000000000000000000000000000000
310
00000000000000000000000000000000000000000000000000000000000000000000000000000000000000000000000000000000000000000000000000000000000000000000000000000000000000000000000000000000000000000000000000000000000000000000000000000000000000000000000000000000002800
310
DC0000000000000000000000000000000000000000000000000000000000000000000000000000000000000000000000000000000000000000000000000000DC000000000000000028000000000000000000000000000000000000000000000000000000000000000000000000000000000000000000000000000000000000
310
00000000000000000000000000000000000000000000000000000000000000000000000000000000000000000000000000000000000000000000000000000000000000000000000000000000000000000000000000000000000000000000000000000000000000000000000000000000000000000000000000000000000000
310
2800DC0000000000000000000000000000000000000000000000000000000000000000000000000000000000000000000000000000000000000000000000000000DC00000000000000002800000000000000000000000000000000000000000000000000000000000000000000000000000000000000000000000000000000
310
00000000000000000000000000000000000000000000000000000000000000000000000000000000000000000000000000000000000000000000000000000000000000000000000000000000000000000000000000000000000000000000000000000000000000000000000000000000000000000000000000000000000000
310
00002800DC0000000000000000000000000000000000000000000000000000000000000000000000000000000000000000000000000000000000000000000000000000DC0000000000000000280000000000000000000000000000000000000000000000000000000000000000000000000000000000000000000000000000
310
00000000000000000000000000000000000000000000000000000000000000000000000000000000000000000000000000000000000000000000000000000000000000000000000000000000000000000000000000000000000000000000000000000000000000000000000000000000000000000000000000000000000000
310
000000002800DC0000000000000000000000000000000000000000000000000000000000000000000000000000000000000000000000000000000000000000000000000000DC000000000000000028000000000000000000000000000000000000000000000000000000000000000000000000000000000000000000000000
310
00000000000000000000000000000000000000000000000000000000000000000000000000000000000000000000000000000000000000000000000000000000000000000000000000000000000000000000000000000000000000000000000000000000000000000000000000000000000000000000000000000000000000
310
0000000000002800DC0000000000000000000000000000000000000000000000000000000000000000000000000000000000000000000000000000000000000000000000000000DC00000000000000002800000000000000000000000000000000000000000000000000000000000000000000000000000000000000000000
310
00000000000000000000000000000000000000000000000000000000000000000000000000000000000000000000000000000000000000000000000000000000000000000000000000000000000000000000000000000000000000000000000000000000000000000000000000000000000000000000000000000000000000
310
00000000000000002800DC0000000000000000000000000000000000000000000000000000000000000000000000000000000000000000000000000000000000000000000000000000DC0000000000000000280000000000000000000000000000000000000000000000000000000000000000000000000000000000000000
310
00000000000000000000000000000000000000000000000000000000000000000000000000000000000000000000000000000000000000000000000000000000000000000000000000000000000000000000000000000000000000000000000000000000000000000000000000000000000000000000000000000000000000
310
000000000000000000002800DC0000000000000000000000000000000000000000000000000000000000000000000000000000000000000000000000000000000000000000000000000000DC000000000000000028000000000000000000000000000000000000000000000000000000000000000000000000000000000000
310
00000000000000000000000000000000000000000000000000000000000000000000000000000000000000000000000000000000000000000000000000000000000000000000000000000000000000000000000000000000000000000000000000000000000000000000000000000000000000000000000000000000000000
310
0000000000000000000000002800DC0000000000000000000000000000000000000000000000000000000000000000000000000000000000000000000000000000000000000000000000000000DC00000000000000002800000000000000000000000000000000000000000000000000000000000000000000000000000000
310
00000000000000000000000000000000000000000000000000000000000000000000000000000000000000000000000000000000000000000000000000000000000000000000000000000000000000000000000000000000000000000000000000000000000000000000000000000000000000000000000000000000000000
310
00000000000000000000000000002800DC0000000000000000000000000000000000000000000000000000000000000000000000000000000000000000000000000000000000000000000000000000DC0000000000000000280000000000000000000000000000000000000000000000000000000000000000000000000000
310
00000000000000000000000000000000000000000000000000000000000000000000000000000000000000000000000000000000000000000000000000000000000000000000000000000000000000000000000000000000000000000000000000000000000000000000000000000000000000000000000000000000000000
310
000000000000000000000000000000002800DC0000000000000000000000000000000000000000000000000000000000000000000000000000000000000000000000000000000000000000000000000000DC000000000000000028000000000000000000000000000000000000000000000000000000000000000000000000
310
00000000000000000000000000000000000000000000000000000000000000000000000000000000000000000000000000000000000000000000000000000000000000000000000000000000000000000000000000000000000000000000000000000000000000000000000000000000000000000000000000000000000000
310
0000000000000000000000000000000000002800DC0000000000000000000000000000000000000000000000000000000000000000000000000000000000000000000000000000000000000000000000000000DC00000000000000002800000000000000000000000000000000000000000000000000000000000000000000
310
00000000000000000000000000000000000000000000000000000000000000000000000000000000000000000000000000000000000000000000000000000000000000000000000000000000000000000000000000000000000000000000000000000000000000000000000000000000000000000000000000000000000000
310
00000000000000000000000000000000000000002800DC0000000000000000000000000000000000000000000000000000000000000000000000000000000000000000000000000000000000000000000000000000DC0000000000000000280000000000000000000000000000000000000000000000000000000000000000
310
00000000000000000000000000000000000000000000000000000000000000000000000000000000000000000000000000000000000000000000000000000000000000000000000000000000000000000000000000000000000000000000000000000000000000000000000000000000000000000000000000000000000000
310
000000000000000000000000000000000000000000002800DC0000000000000000000000000000000000000000000000000000000000000000000000000000000000000000000000000000000000000000000000000000DC000000000000000028000000000000000000000000000000000000000000000000000000000000
310
00000000000000000000000000000000000000000000000000000000000000000000000000000000000000000000000000000000000000000000000000000000000000000000000000000000000000000000000000000000000000000000000000000000000000000000000000000000000000000000000000000000000000
310
0000000000000000000000000000000000000000000000002800DC0000000000000000000000000000000000000000000000000000000000000000000000000000000000000000000000000000000000000000000000000000DC00000000000000002800000000000000000000000000000000000000000000000000000000
310
00000000000000000000000000000000000000000000000000000000000000000000000000000000000000000000000000000000000000000000000000000000000000000000000000000000000000000000000000000000000000000000000000000000000000000000000000000000000000000000000000000000000000
310
00000000000000000000000000000000000000000000000000002800DC0000000000000000000000000000000000000000000000000000000000000000000000000000000000000000000000000000000000000000000000000000DC0000000000000000280000000000000000000000000000000000000000000000000000
310
00000000000000000000000000000000000000000000000000000000000000000000000000000000000000000000000000000000000000000000000000000000000000000000000000000000000000000000000000000000000000000000000000000000000000000000000000000000000000000000000000000000000000
310
000000000000000000000000000000000000000000000000000000002800DC0000000000000000000000000000000000000000000000000000000000000000000000000000000000000000000000000000000000000000000000000000DC000000000000000028282828282828282828282828282828282828282828282828
310
282828282828282828282828282828282828282828282828282828282828282828282828282828282828282828282828282828282828282828282828282828282828282828282828F5282828282828282828282828282828282828282828282828282828282828282828282828282828282828282828282828282828282828
310
2828282828282828282828282828282828282828282828282828282828282800DC0000000000000000000000000000000000000000000000000000000000000000000000000000000000000000000000000000000000000000000000000000DC00000000000000000000000000000000000000000000000000000000000000
310
0000000000000000000000000000000000000000000000000000000000000000000000000000000000000000000000000000000000000000000000000000000000000000000000000000F500000000000000000000000000000000000000000000000000000000000000000000000000000000000000000000000000000000
310
00000000000000000000000000000000000000000000000000000000000000000000DC0000000000000000000000000000000000000000000000000000000000000000000000000000000000000000000000000000000000000000000000000000DCDCDCDCDCDCDCDCDCDCDCDCDCDCDCDCDCDCDCDCDCDCDCDCDCDCDCDCDCDC
310
DCDCDCDCDCDCDCDCDCDCDCDCDCDCDCDCDCDCDCDCDCDCDCDCDCDCDCDCDCDCDCDCDCDCDCDCDCDCDCDCDCDCDCDCDCDCDCDCDCDCDCDCDCDCDCDCDCDCDCDCDCDCDCDCDCDCDCDCDCDCDCDCDCDCDCDCF5DCDCDCDCDCDCDCDCDCDCDCDCDCDCDCDCDCDCDCDCDCDCDCDCDCDCDCDCDCDCDCDCDCDCDCDCDCDCDCDCDCDCDCDCDCDCDCDCDCDC
310
DCDCDCDCDCDCDCDCDCDCDCDCDCDCDCDCDCDCDCDCDCDCDCDCDCDCDCDCDCDCDCDCDCDCDCDCDC000000000000000000000000000000000000000000000000000000000000000000000000000000000000000000000000000000000000000000000000000000000000000000000000000000000000000000000000000000000000
310
00000000000000000000000000000000000000000000000000000000000000000000000000000000000000000000000000000000000000000000000000000000000000000000000000000000000000000000000000000000000000000000000000000000000000000000000000000000000000000000000000000000000000
310
00000000000000000000000000000000000000000000000000000000000000000000000000000000000000000000000000000000000000000000000000000000000000000000
  0
XRECORD
  5
26E8
102
{ACAD_REACTORS
330
24F0
102
}
330
24F0
100
AcDbXrecord
280
     1
102
MATERIAL
148
0.0
149
0.0
149
0.0
 93
        0
 94
      127
282
     0
 72
     0
 77
     0
171
     0
175
     0
179
     0
273
     0
  0
XRECORD
  5
24F2
102
{ACAD_REACTORS
330
24F0
102
}
330
24F0
100
AcDbXrecord
280
     1
270
     1
271
     1
  0
XRECORD
  5
24F1
102
{ACAD_REACTORS
330
24F0
102
}
330
24F0
100
AcDbXrecord
280
     1
270
     1
271
     1
  0
XRECORD
  5
24F5
102
{ACAD_REACTORS
330
24F0
102
}
330
24F0
100
AcDbXrecord
280
     1
270
     1
271
     1
  0
XRECORD
  5
24F4
102
{ACAD_REACTORS
330
24F0
102
}
330
24F0
100
AcDbXrecord
280
     1
270
     1
271
     1
  0
XRECORD
  5
24F6
102
{ACAD_REACTORS
330
24F0
102
}
330
24F0
100
AcDbXrecord
280
     1
270
     1
271
     1
  0
XRECORD
  5
24F3
102
{ACAD_REACTORS
330
24F0
102
}
330
24F0
100
AcDbXrecord
280
     1
270
     1
271
     1
  0
XRECORD
  5
26E7
102
{ACAD_REACTORS
330
24E8
102
}
330
24E8
100
AcDbXrecord
280
     1
102
MATERIAL
148
0.0
149
0.0
149
0.0
 93
        0
 94
      127
282
     0
 72
     0
 77
     0
171
     0
175
     0
179
     0
273
     0
  0
XRECORD
  5
24EA
102
{ACAD_REACTORS
330
24E8
102
}
330
24E8
100
AcDbXrecord
280
     1
270
     1
271
     1
  0
XRECORD
  5
24E9
102
{ACAD_REACTORS
330
24E8
102
}
330
24E8
100
AcDbXrecord
280
     1
270
     1
271
     1
  0
XRECORD
  5
24ED
102
{ACAD_REACTORS
330
24E8
102
}
330
24E8
100
AcDbXrecord
280
     1
270
     1
271
     1
  0
XRECORD
  5
24EC
102
{ACAD_REACTORS
330
24E8
102
}
330
24E8
100
AcDbXrecord
280
     1
270
     1
271
     1
  0
XRECORD
  5
24EE
102
{ACAD_REACTORS
330
24E8
102
}
330
24E8
100
AcDbXrecord
280
     1
270
     1
271
     1
  0
XRECORD
  5
24EB
102
{ACAD_REACTORS
330
24E8
102
}
330
24E8
100
AcDbXrecord
280
     1
270
     1
271
     1
  0
XRECORD
  5
26E9
102
{ACAD_REACTORS
330
24F8
102
}
330
24F8
100
AcDbXrecord
280
     1
102
MATERIAL
148
0.0
149
0.0
149
0.0
 93
        0
 94
      127
282
     0
 72
     0
 77
     0
171
     0
175
     0
179
     0
273
     0
  0
XRECORD
  5
24FA
102
{ACAD_REACTORS
330
24F8
102
}
330
24F8
100
AcDbXrecord
280
     1
270
     1
271
     1
  0
XRECORD
  5
24F9
102
{ACAD_REACTORS
330
24F8
102
}
330
24F8
100
AcDbXrecord
280
     1
270
     1
271
     1
  0
XRECORD
  5
24FD
102
{ACAD_REACTORS
330
24F8
102
}
330
24F8
100
AcDbXrecord
280
     1
270
     1
271
     1
  0
XRECORD
  5
24FC
102
{ACAD_REACTORS
330
24F8
102
}
330
24F8
100
AcDbXrecord
280
     1
270
     1
271
     1
  0
XRECORD
  5
24FE
102
{ACAD_REACTORS
330
24F8
102
}
330
24F8
100
AcDbXrecord
280
     1
270
     1
271
     1
  0
XRECORD
  5
24FB
102
{ACAD_REACTORS
330
24F8
102
}
330
24F8
100
AcDbXrecord
280
     1
270
     1
271
     1
  0
XRECORD
  5
271C
102
{ACAD_REACTORS
330
271B
102
}
330
271B
100
AcDbXrecord
280
     1
102
ACAD_ROUNDTRIP_2012_MLEADER_STYLE
298
     1
  0
CELLSTYLEMAP
  5
26E5
102
{ACAD_REACTORS
330
25AB
102
}
330
25AB
100
AcDbCellStyleMap
 90
        3
300
CELLSTYLE
  1
TABLEFORMAT_BEGIN
 90
        5
170
     1
 91
        0
 92
    32768
 62
   257
 93
        1
300
CONTENTFORMAT
  1
CONTENTFORMAT_BEGIN
 90
        0
 91
        0
 92
      512
 93
        0
300

 40
0.0
140
1.0
 94
        5
 62
     0
340
10F4
144
0.25
309
CONTENTFORMAT_END
171
     0
 94
        0
309
TABLEFORMAT_END
  1
CELLSTYLE_BEGIN
 90
        1
 91
        1
300
_TITLE
309
CELLSTYLE_END
300
CELLSTYLE
  1
TABLEFORMAT_BEGIN
 90
        5
170
     1
 91
        0
 92
        0
 62
   257
 93
        1
300
CONTENTFORMAT
  1
CONTENTFORMAT_BEGIN
 90
        0
 91
        0
 92
      512
 93
        0
300

 40
0.0
140
1.0
 94
        5
 62
     0
340
10F4
144
0.18
309
CONTENTFORMAT_END
171
     0
 94
        0
309
TABLEFORMAT_END
  1
CELLSTYLE_BEGIN
 90
        2
 91
        1
300
_HEADER
309
CELLSTYLE_END
300
CELLSTYLE
  1
TABLEFORMAT_BEGIN
 90
        5
170
     1
 91
        0
 92
        0
 62
   257
 93
        1
300
CONTENTFORMAT
  1
CONTENTFORMAT_BEGIN
 90
        0
 91
        0
 92
      512
 93
        0
300

 40
0.0
140
1.0
 94
        2
 62
     0
340
10F4
144
0.18
309
CONTENTFORMAT_END
171
     0
 94
        0
309
TABLEFORMAT_END
  1
CELLSTYLE_BEGIN
 90
        3
 91
        2
300
_DATA
309
CELLSTYLE_END
  0
XRECORD
  5
271A
102
{ACAD_REACTORS
330
25AB
102
}
330
25AB
100
AcDbXrecord
280
     1
102
ACAD_ROUNDTRIP_PRE2007_TABLESTYLE
 90
      512
 91
        0
  1

 92
      512
 93
        0
  2

 94
      512
 95
        0
  3

  0
XRECORD
  5
26F5
102
{ACAD_REACTORS
330
26F4
102
}
330
26F4
100
AcDbXrecord
280
     1
102
RTVSPost2010Prop28
280
     1
102
RTVSPost2010PropOp28
 70
     1
102
RTVSPost2010Prop29
280
     1
102
RTVSPost2010PropOp29
 70
     1
102
RTVSPost2010Prop30
280
     0
102
RTVSPost2010PropOp30
 70
     1
102
RTVSPost2010Prop31
280
     0
102
RTVSPost2010PropOp31
 70
     1
102
RTVSPost2010Prop32
280
     0
102
RTVSPost2010PropOp32
 70
     1
102
RTVSPost2010Prop33
280
     0
102
RTVSPost2010PropOp33
 70
     1
102
RTVSPost2010Prop34
280
     0
102
RTVSPost2010PropOp34
 70
     1
102
RTVSPost2010Prop35
280
     0
102
RTVSPost2010PropOp35
 70
     1
102
RTVSPost2010Prop36
280
     0
102
RTVSPost2010PropOp36
 70
     1
102
RTVSPost2010Prop37
 90
       50
102
RTVSPost2010PropOp37
 70
     1
102
RTVSPost2010Prop38
140
0.0
102
RTVSPost2010PropOp38
 70
     1
102
RTVSPost2010Prop39
140
1.0
102
RTVSPost2010PropOp39
 70
     1
102
RTVSPost2010Prop40
 90
        0
102
RTVSPost2010PropOp40
 70
     1
102
RTVSPost2010Prop41ColorIndex
 90
       18
102
RTVSPost2010Prop41ColorRGB
 90
        0
102
RTVSPost2010PropOp41
 70
     1
102
RTVSPost2010Prop42
 90
       50
102
RTVSPost2010PropOp42
 70
     1
102
RTVSPost2010Prop43
 90
        3
102
RTVSPost2010PropOp43
 70
     1
102
RTVSPost2010Prop44ColorIndex
 90
        5
102
RTVSPost2010Prop44ColorRGB
 90
      255
102
RTVSPost2010PropOp44
 70
     1
102
RTVSPost2010Prop45
280
     0
102
RTVSPost2010PropOp45
 70
     1
102
RTVSPost2010Prop46
 90
       50
102
RTVSPost2010PropOp46
 70
     1
102
RTVSPost2010Prop47
 90
       50
102
RTVSPost2010PropOp47
 70
     1
102
RTVSPost2010Prop48
 90
       50
102
RTVSPost2010PropOp48
 70
     1
102
RTVSPost2010Prop49
280
     0
102
RTVSPost2010PropOp49
 70
     1
102
RTVSPost2010Prop50
 90
       50
102
RTVSPost2010PropOp50
 70
     1
102
RTVSPost2010Prop51ColorIndex
 90
      256
102
RTVSPost2010Prop51ColorRGB
 90
-16777216
102
RTVSPost2010PropOp51
 70
     0
102
RTVSPost2010Prop52
140
1.0
102
RTVSPost2010PropOp52
 70
     0
102
RTVSPost2010Prop53
 90
        2
102
RTVSPost2010PropOp53
 70
     1
102
RTVSPost2010Prop54
  1
strokes_ogs.tif
102
RTVSPost2010PropOp54
 70
     1
102
RTVSPost2010Prop55
280
     0
102
RTVSPost2010PropOp55
 70
     1
102
RTVSPost2010Prop56
140
1.0
102
RTVSPost2010PropOp56
 70
     1
102
RTVSPost2010Prop57
140
1.0
102
RTVSPost2010PropOp57
 70
     1
102
RTVSPropertyOp0
 70
     1
102
RTVSPropertyOp1
 70
     1
102
RTVSPropertyOp2
 70
     1
102
RTVSPropertyOp3
 70
     1
102
RTVSPropertyOp4
 70
     1
102
RTVSPropertyOp5
 70
     1
102
RTVSPropertyOp6
 70
     1
102
RTVSPropertyOp7
 70
     1
102
RTVSPropertyOp8
 70
     1
102
RTVSPropertyOp9
 70
     1
102
RTVSPropertyOp10
 70
     1
102
RTVSPropertyOp11
 70
     1
102
RTVSPropertyOp12
 70
     1
102
RTVSPropertyOp13
 70
     1
102
RTVSPropertyOp14
 70
     1
102
RTVSPropertyOp15
 70
     1
102
RTVSPropertyOp16
 70
     1
102
RTVSPropertyOp17
 70
     1
102
RTVSPropertyOp18
 70
     1
102
RTVSPropertyOp19
 70
     1
102
RTVSPropertyOp20
 70
     1
102
RTVSPropertyOp21
 70
     1
102
RTVSPropertyOp22
 70
     1
102
RTVSPropertyOp23
 70
     1
102
RTVSPropertyOp24
 70
     1
102
RTVSPropertyOp25
 70
     1
102
RTVSPropertyOp26
 70
     1
102
RTVSPropertyOp27
 70
     1
102
RTVSPropertyOp28
 70
     1
102
RTVSPropertyOp29
 70
     1
102
RTVSPropertyOp30
 70
     1
102
RTVSPropertyOp31
 70
     1
102
RTVSPropertyOp32
 70
     1
102
RTVSPropertyOp33
 70
     1
102
RTVSPropertyOp34
 70
     1
102
RTVSPropertyOp35
 70
     1
102
RTVSPropertyOp36
 70
     1
102
RTVSPropertyOp37
 70
     1
102
RTVSPropertyOp38
 70
     1
102
RTVSPropertyOp39
 70
     1
102
RTVSPropertyOp40
 70
     1
102
RTVSPropertyOp41
 70
     1
102
RTVSPropertyOp42
 70
     1
102
RTVSPropertyOp43
 70
     1
102
RTVSPropertyOp44
 70
     1
102
RTVSPropertyOp45
 70
     1
102
RTVSPropertyOp46
 70
     1
102
RTVSPropertyOp47
 70
     1
102
RTVSPropertyOp48
 70
     1
102
RTVSPropertyOp49
 70
     1
102
RTVSPropertyOp50
 70
     1
102
RTVSPropertyOp51
 70
     0
102
RTVSPropertyOp52
 70
     0
102
RTVSPropertyOp53
 70
     1
102
RTVSPropertyOp54
 70
     1
102
RTVSPropertyOp55
 70
     1
102
RTVSPropertyOp56
 70
     1
102
RTVSPropertyOp57
 70
     1
102
RTVSPropertyOp58
 70
     1
102
RTVSPropertyOp59
 70
     1
102
RTVSPropertyOp60
 70
     1
102
RTVSPropertyOp61
 70
     1
102
RTVSPropertyOp62
 70
     1
  0
XRECORD
  5
26F3
102
{ACAD_REACTORS
330
26F2
102
}
330
26F2
100
AcDbXrecord
280
     1
102
RTVSPost2010Prop28
280
     0
102
RTVSPost2010PropOp28
 70
     1
102
RTVSPost2010Prop29
280
     1
102
RTVSPost2010PropOp29
 70
     1
102
RTVSPost2010Prop30
280
     1
102
RTVSPost2010PropOp30
 70
     1
102
RTVSPost2010Prop31
280
     0
102
RTVSPost2010PropOp31
 70
     1
102
RTVSPost2010Prop32
280
     0
102
RTVSPost2010PropOp32
 70
     1
102
RTVSPost2010Prop33
280
     0
102
RTVSPost2010PropOp33
 70
     1
102
RTVSPost2010Prop34
280
     0
102
RTVSPost2010PropOp34
 70
     1
102
RTVSPost2010Prop35
280
     0
102
RTVSPost2010PropOp35
 70
     1
102
RTVSPost2010Prop36
280
     0
102
RTVSPost2010PropOp36
 70
     1
102
RTVSPost2010Prop37
 90
       50
102
RTVSPost2010PropOp37
 70
     1
102
RTVSPost2010Prop38
140
0.0
102
RTVSPost2010PropOp38
 70
     1
102
RTVSPost2010Prop39
140
1.0
102
RTVSPost2010PropOp39
 70
     1
102
RTVSPost2010Prop40
 90
        0
102
RTVSPost2010PropOp40
 70
     1
102
RTVSPost2010Prop41ColorIndex
 90
       18
102
RTVSPost2010Prop41ColorRGB
 90
        0
102
RTVSPost2010PropOp41
 70
     1
102
RTVSPost2010Prop42
 90
       50
102
RTVSPost2010PropOp42
 70
     1
102
RTVSPost2010Prop43
 90
        3
102
RTVSPost2010PropOp43
 70
     1
102
RTVSPost2010Prop44ColorIndex
 90
        5
102
RTVSPost2010Prop44ColorRGB
 90
      255
102
RTVSPost2010PropOp44
 70
     1
102
RTVSPost2010Prop45
280
     0
102
RTVSPost2010PropOp45
 70
     1
102
RTVSPost2010Prop46
 90
       50
102
RTVSPost2010PropOp46
 70
     1
102
RTVSPost2010Prop47
 90
       50
102
RTVSPost2010PropOp47
 70
     1
102
RTVSPost2010Prop48
 90
       50
102
RTVSPost2010PropOp48
 70
     1
102
RTVSPost2010Prop49
280
     0
102
RTVSPost2010PropOp49
 70
     1
102
RTVSPost2010Prop50
 90
       50
102
RTVSPost2010PropOp50
 70
     1
102
RTVSPost2010Prop51ColorIndex
 90
      256
102
RTVSPost2010Prop51ColorRGB
 90
-16777216
102
RTVSPost2010PropOp51
 70
     0
102
RTVSPost2010Prop52
140
1.0
102
RTVSPost2010PropOp52
 70
     0
102
RTVSPost2010Prop53
 90
        2
102
RTVSPost2010PropOp53
 70
     1
102
RTVSPost2010Prop54
  1
strokes_ogs.tif
102
RTVSPost2010PropOp54
 70
     1
102
RTVSPost2010Prop55
280
     0
102
RTVSPost2010PropOp55
 70
     1
102
RTVSPost2010Prop56
140
1.0
102
RTVSPost2010PropOp56
 70
     1
102
RTVSPost2010Prop57
140
1.0
102
RTVSPost2010PropOp57
 70
     1
102
RTVSPropertyOp0
 70
     1
102
RTVSPropertyOp1
 70
     1
102
RTVSPropertyOp2
 70
     1
102
RTVSPropertyOp3
 70
     1
102
RTVSPropertyOp4
 70
     1
102
RTVSPropertyOp5
 70
     1
102
RTVSPropertyOp6
 70
     1
102
RTVSPropertyOp7
 70
     1
102
RTVSPropertyOp8
 70
     1
102
RTVSPropertyOp9
 70
     1
102
RTVSPropertyOp10
 70
     1
102
RTVSPropertyOp11
 70
     1
102
RTVSPropertyOp12
 70
     1
102
RTVSPropertyOp13
 70
     1
102
RTVSPropertyOp14
 70
     1
102
RTVSPropertyOp15
 70
     1
102
RTVSPropertyOp16
 70
     1
102
RTVSPropertyOp17
 70
     1
102
RTVSPropertyOp18
 70
     1
102
RTVSPropertyOp19
 70
     1
102
RTVSPropertyOp20
 70
     1
102
RTVSPropertyOp21
 70
     1
102
RTVSPropertyOp22
 70
     1
102
RTVSPropertyOp23
 70
     1
102
RTVSPropertyOp24
 70
     1
102
RTVSPropertyOp25
 70
     1
102
RTVSPropertyOp26
 70
     1
102
RTVSPropertyOp27
 70
     1
102
RTVSPropertyOp28
 70
     1
102
RTVSPropertyOp29
 70
     1
102
RTVSPropertyOp30
 70
     1
102
RTVSPropertyOp31
 70
     1
102
RTVSPropertyOp32
 70
     1
102
RTVSPropertyOp33
 70
     1
102
RTVSPropertyOp34
 70
     1
102
RTVSPropertyOp35
 70
     1
102
RTVSPropertyOp36
 70
     1
102
RTVSPropertyOp37
 70
     1
102
RTVSPropertyOp38
 70
     1
102
RTVSPropertyOp39
 70
     1
102
RTVSPropertyOp40
 70
     1
102
RTVSPropertyOp41
 70
     1
102
RTVSPropertyOp42
 70
     1
102
RTVSPropertyOp43
 70
     1
102
RTVSPropertyOp44
 70
     1
102
RTVSPropertyOp45
 70
     1
102
RTVSPropertyOp46
 70
     1
102
RTVSPropertyOp47
 70
     1
102
RTVSPropertyOp48
 70
     1
102
RTVSPropertyOp49
 70
     1
102
RTVSPropertyOp50
 70
     1
102
RTVSPropertyOp51
 70
     0
102
RTVSPropertyOp52
 70
     0
102
RTVSPropertyOp53
 70
     1
102
RTVSPropertyOp54
 70
     1
102
RTVSPropertyOp55
 70
     1
102
RTVSPropertyOp56
 70
     1
102
RTVSPropertyOp57
 70
     1
102
RTVSPropertyOp58
 70
     1
102
RTVSPropertyOp59
 70
     1
102
RTVSPropertyOp60
 70
     1
102
RTVSPropertyOp61
 70
     1
102
RTVSPropertyOp62
 70
     1
  0
XRECORD
  5
2701
102
{ACAD_REACTORS
330
2700
102
}
330
2700
100
AcDbXrecord
280
     1
102
RTVSPost2010Prop28
280
     0
102
RTVSPost2010PropOp28
 70
     1
102
RTVSPost2010Prop29
280
     1
102
RTVSPost2010PropOp29
 70
     1
102
RTVSPost2010Prop30
280
     1
102
RTVSPost2010PropOp30
 70
     1
102
RTVSPost2010Prop31
280
     0
102
RTVSPost2010PropOp31
 70
     1
102
RTVSPost2010Prop32
280
     0
102
RTVSPost2010PropOp32
 70
     1
102
RTVSPost2010Prop33
280
     0
102
RTVSPost2010PropOp33
 70
     1
102
RTVSPost2010Prop34
280
     0
102
RTVSPost2010PropOp34
 70
     1
102
RTVSPost2010Prop35
280
     0
102
RTVSPost2010PropOp35
 70
     1
102
RTVSPost2010Prop36
280
     0
102
RTVSPost2010PropOp36
 70
     1
102
RTVSPost2010Prop37
 90
       50
102
RTVSPost2010PropOp37
 70
     1
102
RTVSPost2010Prop38
140
0.0
102
RTVSPost2010PropOp38
 70
     1
102
RTVSPost2010Prop39
140
1.0
102
RTVSPost2010PropOp39
 70
     1
102
RTVSPost2010Prop40
 90
        0
102
RTVSPost2010PropOp40
 70
     1
102
RTVSPost2010Prop41ColorIndex
 90
       18
102
RTVSPost2010Prop41ColorRGB
 90
        0
102
RTVSPost2010PropOp41
 70
     1
102
RTVSPost2010Prop42
 90
       50
102
RTVSPost2010PropOp42
 70
     1
102
RTVSPost2010Prop43
 90
        3
102
RTVSPost2010PropOp43
 70
     1
102
RTVSPost2010Prop44ColorIndex
 90
        5
102
RTVSPost2010Prop44ColorRGB
 90
      255
102
RTVSPost2010PropOp44
 70
     1
102
RTVSPost2010Prop45
280
     0
102
RTVSPost2010PropOp45
 70
     1
102
RTVSPost2010Prop46
 90
       50
102
RTVSPost2010PropOp46
 70
     1
102
RTVSPost2010Prop47
 90
       50
102
RTVSPost2010PropOp47
 70
     1
102
RTVSPost2010Prop48
 90
       50
102
RTVSPost2010PropOp48
 70
     1
102
RTVSPost2010Prop49
280
     0
102
RTVSPost2010PropOp49
 70
     1
102
RTVSPost2010Prop50
 90
       50
102
RTVSPost2010PropOp50
 70
     1
102
RTVSPost2010Prop51ColorIndex
 90
      256
102
RTVSPost2010Prop51ColorRGB
 90
-16777216
102
RTVSPost2010PropOp51
 70
     0
102
RTVSPost2010Prop52
140
1.0
102
RTVSPost2010PropOp52
 70
     0
102
RTVSPost2010Prop53
 90
        2
102
RTVSPost2010PropOp53
 70
     1
102
RTVSPost2010Prop54
  1
strokes_ogs.tif
102
RTVSPost2010PropOp54
 70
     1
102
RTVSPost2010Prop55
280
     0
102
RTVSPost2010PropOp55
 70
     1
102
RTVSPost2010Prop56
140
1.0
102
RTVSPost2010PropOp56
 70
     1
102
RTVSPost2010Prop57
140
1.0
102
RTVSPost2010PropOp57
 70
     1
102
RTVSPropertyOp0
 70
     1
102
RTVSPropertyOp1
 70
     1
102
RTVSPropertyOp2
 70
     1
102
RTVSPropertyOp3
 70
     1
102
RTVSPropertyOp4
 70
     1
102
RTVSPropertyOp5
 70
     1
102
RTVSPropertyOp6
 70
     1
102
RTVSPropertyOp7
 70
     1
102
RTVSPropertyOp8
 70
     1
102
RTVSPropertyOp9
 70
     1
102
RTVSPropertyOp10
 70
     1
102
RTVSPropertyOp11
 70
     1
102
RTVSPropertyOp12
 70
     1
102
RTVSPropertyOp13
 70
     1
102
RTVSPropertyOp14
 70
     1
102
RTVSPropertyOp15
 70
     1
102
RTVSPropertyOp16
 70
     1
102
RTVSPropertyOp17
 70
     1
102
RTVSPropertyOp18
 70
     1
102
RTVSPropertyOp19
 70
     1
102
RTVSPropertyOp20
 70
     1
102
RTVSPropertyOp21
 70
     1
102
RTVSPropertyOp22
 70
     1
102
RTVSPropertyOp23
 70
     1
102
RTVSPropertyOp24
 70
     1
102
RTVSPropertyOp25
 70
     1
102
RTVSPropertyOp26
 70
     1
102
RTVSPropertyOp27
 70
     1
102
RTVSPropertyOp28
 70
     1
102
RTVSPropertyOp29
 70
     1
102
RTVSPropertyOp30
 70
     1
102
RTVSPropertyOp31
 70
     1
102
RTVSPropertyOp32
 70
     1
102
RTVSPropertyOp33
 70
     1
102
RTVSPropertyOp34
 70
     1
102
RTVSPropertyOp35
 70
     1
102
RTVSPropertyOp36
 70
     1
102
RTVSPropertyOp37
 70
     1
102
RTVSPropertyOp38
 70
     1
102
RTVSPropertyOp39
 70
     1
102
RTVSPropertyOp40
 70
     1
102
RTVSPropertyOp41
 70
     1
102
RTVSPropertyOp42
 70
     1
102
RTVSPropertyOp43
 70
     1
102
RTVSPropertyOp44
 70
     1
102
RTVSPropertyOp45
 70
     1
102
RTVSPropertyOp46
 70
     1
102
RTVSPropertyOp47
 70
     1
102
RTVSPropertyOp48
 70
     1
102
RTVSPropertyOp49
 70
     1
102
RTVSPropertyOp50
 70
     1
102
RTVSPropertyOp51
 70
     0
102
RTVSPropertyOp52
 70
     0
102
RTVSPropertyOp53
 70
     1
102
RTVSPropertyOp54
 70
     1
102
RTVSPropertyOp55
 70
     1
102
RTVSPropertyOp56
 70
     1
102
RTVSPropertyOp57
 70
     1
102
RTVSPropertyOp58
 70
     1
102
RTVSPropertyOp59
 70
     1
102
RTVSPropertyOp60
 70
     1
102
RTVSPropertyOp61
 70
     1
102
RTVSPropertyOp62
 70
     1
  0
XRECORD
  5
2709
102
{ACAD_REACTORS
330
2708
102
}
330
2708
100
AcDbXrecord
280
     1
102
RTVSPost2010Prop28
280
     0
102
RTVSPost2010PropOp28
 70
     1
102
RTVSPost2010Prop29
280
     1
102
RTVSPost2010PropOp29
 70
     1
102
RTVSPost2010Prop30
280
     1
102
RTVSPost2010PropOp30
 70
     1
102
RTVSPost2010Prop31
280
     0
102
RTVSPost2010PropOp31
 70
     1
102
RTVSPost2010Prop32
280
     0
102
RTVSPost2010PropOp32
 70
     1
102
RTVSPost2010Prop33
280
     0
102
RTVSPost2010PropOp33
 70
     1
102
RTVSPost2010Prop34
280
     0
102
RTVSPost2010PropOp34
 70
     1
102
RTVSPost2010Prop35
280
     0
102
RTVSPost2010PropOp35
 70
     1
102
RTVSPost2010Prop36
280
     0
102
RTVSPost2010PropOp36
 70
     1
102
RTVSPost2010Prop37
 90
       50
102
RTVSPost2010PropOp37
 70
     1
102
RTVSPost2010Prop38
140
0.0
102
RTVSPost2010PropOp38
 70
     1
102
RTVSPost2010Prop39
140
1.0
102
RTVSPost2010PropOp39
 70
     1
102
RTVSPost2010Prop40
 90
        0
102
RTVSPost2010PropOp40
 70
     1
102
RTVSPost2010Prop41ColorIndex
 90
       18
102
RTVSPost2010Prop41ColorRGB
 90
        0
102
RTVSPost2010PropOp41
 70
     1
102
RTVSPost2010Prop42
 90
       50
102
RTVSPost2010PropOp42
 70
     1
102
RTVSPost2010Prop43
 90
        3
102
RTVSPost2010PropOp43
 70
     1
102
RTVSPost2010Prop44ColorIndex
 90
        5
102
RTVSPost2010Prop44ColorRGB
 90
      255
102
RTVSPost2010PropOp44
 70
     1
102
RTVSPost2010Prop45
280
     0
102
RTVSPost2010PropOp45
 70
     1
102
RTVSPost2010Prop46
 90
       50
102
RTVSPost2010PropOp46
 70
     1
102
RTVSPost2010Prop47
 90
       50
102
RTVSPost2010PropOp47
 70
     1
102
RTVSPost2010Prop48
 90
       50
102
RTVSPost2010PropOp48
 70
     1
102
RTVSPost2010Prop49
280
     0
102
RTVSPost2010PropOp49
 70
     1
102
RTVSPost2010Prop50
 90
       50
102
RTVSPost2010PropOp50
 70
     1
102
RTVSPost2010Prop51ColorIndex
 90
      256
102
RTVSPost2010Prop51ColorRGB
 90
-16777216
102
RTVSPost2010PropOp51
 70
     0
102
RTVSPost2010Prop52
140
1.0
102
RTVSPost2010PropOp52
 70
     0
102
RTVSPost2010Prop53
 90
        2
102
RTVSPost2010PropOp53
 70
     1
102
RTVSPost2010Prop54
  1
strokes_ogs.tif
102
RTVSPost2010PropOp54
 70
     1
102
RTVSPost2010Prop55
280
     0
102
RTVSPost2010PropOp55
 70
     1
102
RTVSPost2010Prop56
140
1.0
102
RTVSPost2010PropOp56
 70
     1
102
RTVSPost2010Prop57
140
1.0
102
RTVSPost2010PropOp57
 70
     1
102
RTVSPropertyOp0
 70
     1
102
RTVSPropertyOp1
 70
     1
102
RTVSPropertyOp2
 70
     1
102
RTVSPropertyOp3
 70
     1
102
RTVSPropertyOp4
 70
     1
102
RTVSPropertyOp5
 70
     1
102
RTVSPropertyOp6
 70
     1
102
RTVSPropertyOp7
 70
     1
102
RTVSPropertyOp8
 70
     1
102
RTVSPropertyOp9
 70
     1
102
RTVSPropertyOp10
 70
     1
102
RTVSPropertyOp11
 70
     1
102
RTVSPropertyOp12
 70
     1
102
RTVSPropertyOp13
 70
     1
102
RTVSPropertyOp14
 70
     1
102
RTVSPropertyOp15
 70
     1
102
RTVSPropertyOp16
 70
     1
102
RTVSPropertyOp17
 70
     1
102
RTVSPropertyOp18
 70
     1
102
RTVSPropertyOp19
 70
     1
102
RTVSPropertyOp20
 70
     1
102
RTVSPropertyOp21
 70
     1
102
RTVSPropertyOp22
 70
     1
102
RTVSPropertyOp23
 70
     1
102
RTVSPropertyOp24
 70
     1
102
RTVSPropertyOp25
 70
     1
102
RTVSPropertyOp26
 70
     1
102
RTVSPropertyOp27
 70
     1
102
RTVSPropertyOp28
 70
     1
102
RTVSPropertyOp29
 70
     1
102
RTVSPropertyOp30
 70
     1
102
RTVSPropertyOp31
 70
     1
102
RTVSPropertyOp32
 70
     1
102
RTVSPropertyOp33
 70
     1
102
RTVSPropertyOp34
 70
     1
102
RTVSPropertyOp35
 70
     1
102
RTVSPropertyOp36
 70
     1
102
RTVSPropertyOp37
 70
     1
102
RTVSPropertyOp38
 70
     1
102
RTVSPropertyOp39
 70
     1
102
RTVSPropertyOp40
 70
     1
102
RTVSPropertyOp41
 70
     1
102
RTVSPropertyOp42
 70
     1
102
RTVSPropertyOp43
 70
     1
102
RTVSPropertyOp44
 70
     1
102
RTVSPropertyOp45
 70
     1
102
RTVSPropertyOp46
 70
     1
102
RTVSPropertyOp47
 70
     1
102
RTVSPropertyOp48
 70
     1
102
RTVSPropertyOp49
 70
     1
102
RTVSPropertyOp50
 70
     1
102
RTVSPropertyOp51
 70
     0
102
RTVSPropertyOp52
 70
     0
102
RTVSPropertyOp53
 70
     1
102
RTVSPropertyOp54
 70
     1
102
RTVSPropertyOp55
 70
     1
102
RTVSPropertyOp56
 70
     1
102
RTVSPropertyOp57
 70
     1
102
RTVSPropertyOp58
 70
     1
102
RTVSPropertyOp59
 70
     1
102
RTVSPropertyOp60
 70
     1
102
RTVSPropertyOp61
 70
     1
102
RTVSPropertyOp62
 70
     1
  0
XRECORD
  5
26FB
102
{ACAD_REACTORS
330
26FA
102
}
330
26FA
100
AcDbXrecord
280
     1
102
RTVSPost2010Prop28
280
     0
102
RTVSPost2010PropOp28
 70
     1
102
RTVSPost2010Prop29
280
     1
102
RTVSPost2010PropOp29
 70
     1
102
RTVSPost2010Prop30
280
     1
102
RTVSPost2010PropOp30
 70
     1
102
RTVSPost2010Prop31
280
     0
102
RTVSPost2010PropOp31
 70
     1
102
RTVSPost2010Prop32
280
     0
102
RTVSPost2010PropOp32
 70
     1
102
RTVSPost2010Prop33
280
     0
102
RTVSPost2010PropOp33
 70
     1
102
RTVSPost2010Prop34
280
     0
102
RTVSPost2010PropOp34
 70
     1
102
RTVSPost2010Prop35
280
     0
102
RTVSPost2010PropOp35
 70
     1
102
RTVSPost2010Prop36
280
     0
102
RTVSPost2010PropOp36
 70
     1
102
RTVSPost2010Prop37
 90
       50
102
RTVSPost2010PropOp37
 70
     1
102
RTVSPost2010Prop38
140
0.0
102
RTVSPost2010PropOp38
 70
     1
102
RTVSPost2010Prop39
140
1.0
102
RTVSPost2010PropOp39
 70
     1
102
RTVSPost2010Prop40
 90
        0
102
RTVSPost2010PropOp40
 70
     1
102
RTVSPost2010Prop41ColorIndex
 90
       18
102
RTVSPost2010Prop41ColorRGB
 90
        0
102
RTVSPost2010PropOp41
 70
     1
102
RTVSPost2010Prop42
 90
       50
102
RTVSPost2010PropOp42
 70
     1
102
RTVSPost2010Prop43
 90
        3
102
RTVSPost2010PropOp43
 70
     1
102
RTVSPost2010Prop44ColorIndex
 90
        5
102
RTVSPost2010Prop44ColorRGB
 90
      255
102
RTVSPost2010PropOp44
 70
     1
102
RTVSPost2010Prop45
280
     0
102
RTVSPost2010PropOp45
 70
     1
102
RTVSPost2010Prop46
 90
       50
102
RTVSPost2010PropOp46
 70
     1
102
RTVSPost2010Prop47
 90
       50
102
RTVSPost2010PropOp47
 70
     1
102
RTVSPost2010Prop48
 90
       50
102
RTVSPost2010PropOp48
 70
     1
102
RTVSPost2010Prop49
280
     0
102
RTVSPost2010PropOp49
 70
     1
102
RTVSPost2010Prop50
 90
       50
102
RTVSPost2010PropOp50
 70
     1
102
RTVSPost2010Prop51ColorIndex
 90
      256
102
RTVSPost2010Prop51ColorRGB
 90
-16777216
102
RTVSPost2010PropOp51
 70
     0
102
RTVSPost2010Prop52
140
1.0
102
RTVSPost2010PropOp52
 70
     0
102
RTVSPost2010Prop53
 90
        2
102
RTVSPost2010PropOp53
 70
     1
102
RTVSPost2010Prop54
  1
strokes_ogs.tif
102
RTVSPost2010PropOp54
 70
     1
102
RTVSPost2010Prop55
280
     0
102
RTVSPost2010PropOp55
 70
     1
102
RTVSPost2010Prop56
140
1.0
102
RTVSPost2010PropOp56
 70
     1
102
RTVSPost2010Prop57
140
1.0
102
RTVSPost2010PropOp57
 70
     1
102
RTVSPropertyOp0
 70
     1
102
RTVSPropertyOp1
 70
     1
102
RTVSPropertyOp2
 70
     1
102
RTVSPropertyOp3
 70
     1
102
RTVSPropertyOp4
 70
     1
102
RTVSPropertyOp5
 70
     1
102
RTVSPropertyOp6
 70
     1
102
RTVSPropertyOp7
 70
     1
102
RTVSPropertyOp8
 70
     1
102
RTVSPropertyOp9
 70
     1
102
RTVSPropertyOp10
 70
     1
102
RTVSPropertyOp11
 70
     1
102
RTVSPropertyOp12
 70
     1
102
RTVSPropertyOp13
 70
     1
102
RTVSPropertyOp14
 70
     1
102
RTVSPropertyOp15
 70
     1
102
RTVSPropertyOp16
 70
     1
102
RTVSPropertyOp17
 70
     1
102
RTVSPropertyOp18
 70
     1
102
RTVSPropertyOp19
 70
     1
102
RTVSPropertyOp20
 70
     1
102
RTVSPropertyOp21
 70
     1
102
RTVSPropertyOp22
 70
     1
102
RTVSPropertyOp23
 70
     1
102
RTVSPropertyOp24
 70
     1
102
RTVSPropertyOp25
 70
     1
102
RTVSPropertyOp26
 70
     1
102
RTVSPropertyOp27
 70
     1
102
RTVSPropertyOp28
 70
     1
102
RTVSPropertyOp29
 70
     1
102
RTVSPropertyOp30
 70
     1
102
RTVSPropertyOp31
 70
     1
102
RTVSPropertyOp32
 70
     1
102
RTVSPropertyOp33
 70
     1
102
RTVSPropertyOp34
 70
     1
102
RTVSPropertyOp35
 70
     1
102
RTVSPropertyOp36
 70
     1
102
RTVSPropertyOp37
 70
     1
102
RTVSPropertyOp38
 70
     1
102
RTVSPropertyOp39
 70
     1
102
RTVSPropertyOp40
 70
     1
102
RTVSPropertyOp41
 70
     1
102
RTVSPropertyOp42
 70
     1
102
RTVSPropertyOp43
 70
     1
102
RTVSPropertyOp44
 70
     1
102
RTVSPropertyOp45
 70
     1
102
RTVSPropertyOp46
 70
     1
102
RTVSPropertyOp47
 70
     1
102
RTVSPropertyOp48
 70
     1
102
RTVSPropertyOp49
 70
     1
102
RTVSPropertyOp50
 70
     1
102
RTVSPropertyOp51
 70
     0
102
RTVSPropertyOp52
 70
     0
102
RTVSPropertyOp53
 70
     1
102
RTVSPropertyOp54
 70
     1
102
RTVSPropertyOp55
 70
     1
102
RTVSPropertyOp56
 70
     1
102
RTVSPropertyOp57
 70
     1
102
RTVSPropertyOp58
 70
     1
102
RTVSPropertyOp59
 70
     1
102
RTVSPropertyOp60
 70
     1
102
RTVSPropertyOp61
 70
     1
102
RTVSPropertyOp62
 70
     1
  0
XRECORD
  5
26FF
102
{ACAD_REACTORS
330
26FE
102
}
330
26FE
100
AcDbXrecord
280
     1
102
RTVSPost2010Prop28
280
     0
102
RTVSPost2010PropOp28
 70
     1
102
RTVSPost2010Prop29
280
     1
102
RTVSPost2010PropOp29
 70
     1
102
RTVSPost2010Prop30
280
     1
102
RTVSPost2010PropOp30
 70
     1
102
RTVSPost2010Prop31
280
     0
102
RTVSPost2010PropOp31
 70
     1
102
RTVSPost2010Prop32
280
     0
102
RTVSPost2010PropOp32
 70
     1
102
RTVSPost2010Prop33
280
     0
102
RTVSPost2010PropOp33
 70
     1
102
RTVSPost2010Prop34
280
     0
102
RTVSPost2010PropOp34
 70
     1
102
RTVSPost2010Prop35
280
     0
102
RTVSPost2010PropOp35
 70
     1
102
RTVSPost2010Prop36
280
     0
102
RTVSPost2010PropOp36
 70
     1
102
RTVSPost2010Prop37
 90
       50
102
RTVSPost2010PropOp37
 70
     1
102
RTVSPost2010Prop38
140
0.0
102
RTVSPost2010PropOp38
 70
     1
102
RTVSPost2010Prop39
140
1.0
102
RTVSPost2010PropOp39
 70
     1
102
RTVSPost2010Prop40
 90
        0
102
RTVSPost2010PropOp40
 70
     1
102
RTVSPost2010Prop41ColorIndex
 90
       18
102
RTVSPost2010Prop41ColorRGB
 90
        0
102
RTVSPost2010PropOp41
 70
     1
102
RTVSPost2010Prop42
 90
       50
102
RTVSPost2010PropOp42
 70
     1
102
RTVSPost2010Prop43
 90
        3
102
RTVSPost2010PropOp43
 70
     1
102
RTVSPost2010Prop44ColorIndex
 90
        5
102
RTVSPost2010Prop44ColorRGB
 90
      255
102
RTVSPost2010PropOp44
 70
     1
102
RTVSPost2010Prop45
280
     0
102
RTVSPost2010PropOp45
 70
     1
102
RTVSPost2010Prop46
 90
       50
102
RTVSPost2010PropOp46
 70
     1
102
RTVSPost2010Prop47
 90
       50
102
RTVSPost2010PropOp47
 70
     1
102
RTVSPost2010Prop48
 90
       50
102
RTVSPost2010PropOp48
 70
     1
102
RTVSPost2010Prop49
280
     0
102
RTVSPost2010PropOp49
 70
     1
102
RTVSPost2010Prop50
 90
       50
102
RTVSPost2010PropOp50
 70
     1
102
RTVSPost2010Prop51ColorIndex
 90
      256
102
RTVSPost2010Prop51ColorRGB
 90
-16777216
102
RTVSPost2010PropOp51
 70
     0
102
RTVSPost2010Prop52
140
1.0
102
RTVSPost2010PropOp52
 70
     0
102
RTVSPost2010Prop53
 90
        2
102
RTVSPost2010PropOp53
 70
     1
102
RTVSPost2010Prop54
  1
strokes_ogs.tif
102
RTVSPost2010PropOp54
 70
     1
102
RTVSPost2010Prop55
280
     0
102
RTVSPost2010PropOp55
 70
     1
102
RTVSPost2010Prop56
140
1.0
102
RTVSPost2010PropOp56
 70
     1
102
RTVSPost2010Prop57
140
1.0
102
RTVSPost2010PropOp57
 70
     1
102
RTVSPropertyOp0
 70
     1
102
RTVSPropertyOp1
 70
     1
102
RTVSPropertyOp2
 70
     1
102
RTVSPropertyOp3
 70
     1
102
RTVSPropertyOp4
 70
     1
102
RTVSPropertyOp5
 70
     1
102
RTVSPropertyOp6
 70
     1
102
RTVSPropertyOp7
 70
     1
102
RTVSPropertyOp8
 70
     1
102
RTVSPropertyOp9
 70
     1
102
RTVSPropertyOp10
 70
     1
102
RTVSPropertyOp11
 70
     1
102
RTVSPropertyOp12
 70
     1
102
RTVSPropertyOp13
 70
     1
102
RTVSPropertyOp14
 70
     1
102
RTVSPropertyOp15
 70
     1
102
RTVSPropertyOp16
 70
     1
102
RTVSPropertyOp17
 70
     1
102
RTVSPropertyOp18
 70
     1
102
RTVSPropertyOp19
 70
     1
102
RTVSPropertyOp20
 70
     1
102
RTVSPropertyOp21
 70
     1
102
RTVSPropertyOp22
 70
     1
102
RTVSPropertyOp23
 70
     1
102
RTVSPropertyOp24
 70
     1
102
RTVSPropertyOp25
 70
     1
102
RTVSPropertyOp26
 70
     1
102
RTVSPropertyOp27
 70
     1
102
RTVSPropertyOp28
 70
     1
102
RTVSPropertyOp29
 70
     1
102
RTVSPropertyOp30
 70
     1
102
RTVSPropertyOp31
 70
     1
102
RTVSPropertyOp32
 70
     1
102
RTVSPropertyOp33
 70
     1
102
RTVSPropertyOp34
 70
     1
102
RTVSPropertyOp35
 70
     1
102
RTVSPropertyOp36
 70
     1
102
RTVSPropertyOp37
 70
     1
102
RTVSPropertyOp38
 70
     1
102
RTVSPropertyOp39
 70
     1
102
RTVSPropertyOp40
 70
     1
102
RTVSPropertyOp41
 70
     1
102
RTVSPropertyOp42
 70
     1
102
RTVSPropertyOp43
 70
     1
102
RTVSPropertyOp44
 70
     1
102
RTVSPropertyOp45
 70
     1
102
RTVSPropertyOp46
 70
     1
102
RTVSPropertyOp47
 70
     1
102
RTVSPropertyOp48
 70
     1
102
RTVSPropertyOp49
 70
     1
102
RTVSPropertyOp50
 70
     1
102
RTVSPropertyOp51
 70
     0
102
RTVSPropertyOp52
 70
     0
102
RTVSPropertyOp53
 70
     1
102
RTVSPropertyOp54
 70
     1
102
RTVSPropertyOp55
 70
     1
102
RTVSPropertyOp56
 70
     1
102
RTVSPropertyOp57
 70
     1
102
RTVSPropertyOp58
 70
     1
102
RTVSPropertyOp59
 70
     1
102
RTVSPropertyOp60
 70
     1
102
RTVSPropertyOp61
 70
     1
102
RTVSPropertyOp62
 70
     1
  0
XRECORD
  5
2719
102
{ACAD_REACTORS
330
2718
102
}
330
2718
100
AcDbXrecord
280
     1
102
RTVSPost2010Prop28
280
     0
102
RTVSPost2010PropOp28
 70
     0
102
RTVSPost2010Prop29
280
     1
102
RTVSPost2010PropOp29
 70
     0
102
RTVSPost2010Prop30
280
     1
102
RTVSPost2010PropOp30
 70
     0
102
RTVSPost2010Prop31
280
     0
102
RTVSPost2010PropOp31
 70
     0
102
RTVSPost2010Prop32
280
     0
102
RTVSPost2010PropOp32
 70
     0
102
RTVSPost2010Prop33
280
     0
102
RTVSPost2010PropOp33
 70
     0
102
RTVSPost2010Prop34
280
     0
102
RTVSPost2010PropOp34
 70
     0
102
RTVSPost2010Prop35
280
     0
102
RTVSPost2010PropOp35
 70
     0
102
RTVSPost2010Prop36
280
     0
102
RTVSPost2010PropOp36
 70
     0
102
RTVSPost2010Prop37
 90
       50
102
RTVSPost2010PropOp37
 70
     0
102
RTVSPost2010Prop38
140
0.0
102
RTVSPost2010PropOp38
 70
     0
102
RTVSPost2010Prop39
140
1.0
102
RTVSPost2010PropOp39
 70
     0
102
RTVSPost2010Prop40
 90
        0
102
RTVSPost2010PropOp40
 70
     0
102
RTVSPost2010Prop41ColorIndex
 90
       18
102
RTVSPost2010Prop41ColorRGB
 90
        0
102
RTVSPost2010PropOp41
 70
     0
102
RTVSPost2010Prop42
 90
       50
102
RTVSPost2010PropOp42
 70
     0
102
RTVSPost2010Prop43
 90
        3
102
RTVSPost2010PropOp43
 70
     0
102
RTVSPost2010Prop44ColorIndex
 90
        5
102
RTVSPost2010Prop44ColorRGB
 90
      255
102
RTVSPost2010PropOp44
 70
     0
102
RTVSPost2010Prop45
280
     0
102
RTVSPost2010PropOp45
 70
     0
102
RTVSPost2010Prop46
 90
       50
102
RTVSPost2010PropOp46
 70
     0
102
RTVSPost2010Prop47
 90
       50
102
RTVSPost2010PropOp47
 70
     0
102
RTVSPost2010Prop48
 90
       50
102
RTVSPost2010PropOp48
 70
     0
102
RTVSPost2010Prop49
280
     0
102
RTVSPost2010PropOp49
 70
     0
102
RTVSPost2010Prop50
 90
       50
102
RTVSPost2010PropOp50
 70
     0
102
RTVSPost2010Prop51ColorIndex
 90
      256
102
RTVSPost2010Prop51ColorRGB
 90
-16777216
102
RTVSPost2010PropOp51
 70
     0
102
RTVSPost2010Prop52
140
1.0
102
RTVSPost2010PropOp52
 70
     0
102
RTVSPost2010Prop53
 90
        2
102
RTVSPost2010PropOp53
 70
     0
102
RTVSPost2010Prop54
  1
strokes_ogs.tif
102
RTVSPost2010PropOp54
 70
     0
102
RTVSPost2010Prop55
280
     0
102
RTVSPost2010PropOp55
 70
     0
102
RTVSPost2010Prop56
140
1.0
102
RTVSPost2010PropOp56
 70
     0
102
RTVSPost2010Prop57
140
1.0
102
RTVSPost2010PropOp57
 70
     0
102
RTVSPropertyOp0
 70
     0
102
RTVSPropertyOp1
 70
     0
102
RTVSPropertyOp2
 70
     0
102
RTVSPropertyOp3
 70
     0
102
RTVSPropertyOp4
 70
     0
102
RTVSPropertyOp5
 70
     0
102
RTVSPropertyOp6
 70
     0
102
RTVSPropertyOp7
 70
     0
102
RTVSPropertyOp8
 70
     0
102
RTVSPropertyOp9
 70
     0
102
RTVSPropertyOp10
 70
     0
102
RTVSPropertyOp11
 70
     0
102
RTVSPropertyOp12
 70
     0
102
RTVSPropertyOp13
 70
     0
102
RTVSPropertyOp14
 70
     2
102
RTVSPropertyOp15
 70
     0
102
RTVSPropertyOp16
 70
     0
102
RTVSPropertyOp17
 70
     0
102
RTVSPropertyOp18
 70
     0
102
RTVSPropertyOp19
 70
     0
102
RTVSPropertyOp20
 70
     0
102
RTVSPropertyOp21
 70
     0
102
RTVSPropertyOp22
 70
     0
102
RTVSPropertyOp23
 70
     0
102
RTVSPropertyOp24
 70
     0
102
RTVSPropertyOp25
 70
     0
102
RTVSPropertyOp26
 70
     0
102
RTVSPropertyOp27
 70
     0
102
RTVSPropertyOp28
 70
     0
102
RTVSPropertyOp29
 70
     0
102
RTVSPropertyOp30
 70
     0
102
RTVSPropertyOp31
 70
     0
102
RTVSPropertyOp32
 70
     0
102
RTVSPropertyOp33
 70
     0
102
RTVSPropertyOp34
 70
     0
102
RTVSPropertyOp35
 70
     0
102
RTVSPropertyOp36
 70
     0
102
RTVSPropertyOp37
 70
     0
102
RTVSPropertyOp38
 70
     0
102
RTVSPropertyOp39
 70
     0
102
RTVSPropertyOp40
 70
     0
102
RTVSPropertyOp41
 70
     0
102
RTVSPropertyOp42
 70
     0
102
RTVSPropertyOp43
 70
     0
102
RTVSPropertyOp44
 70
     0
102
RTVSPropertyOp45
 70
     0
102
RTVSPropertyOp46
 70
     0
102
RTVSPropertyOp47
 70
     0
102
RTVSPropertyOp48
 70
     0
102
RTVSPropertyOp49
 70
     0
102
RTVSPropertyOp50
 70
     0
102
RTVSPropertyOp51
 70
     0
102
RTVSPropertyOp52
 70
     0
102
RTVSPropertyOp53
 70
     0
102
RTVSPropertyOp54
 70
     0
102
RTVSPropertyOp55
 70
     0
102
RTVSPropertyOp56
 70
     0
102
RTVSPropertyOp57
 70
     0
102
RTVSPropertyOp58
 70
     0
102
RTVSPropertyOp59
 70
     0
102
RTVSPropertyOp60
 70
     0
102
RTVSPropertyOp61
 70
     0
102
RTVSPropertyOp62
 70
     0
  0
XRECORD
  5
2707
102
{ACAD_REACTORS
330
2706
102
}
330
2706
100
AcDbXrecord
280
     1
102
RTVSPost2010Prop28
280
     0
102
RTVSPost2010PropOp28
 70
     1
102
RTVSPost2010Prop29
280
     1
102
RTVSPost2010PropOp29
 70
     1
102
RTVSPost2010Prop30
280
     1
102
RTVSPost2010PropOp30
 70
     1
102
RTVSPost2010Prop31
280
     0
102
RTVSPost2010PropOp31
 70
     1
102
RTVSPost2010Prop32
280
     0
102
RTVSPost2010PropOp32
 70
     1
102
RTVSPost2010Prop33
280
     0
102
RTVSPost2010PropOp33
 70
     1
102
RTVSPost2010Prop34
280
     0
102
RTVSPost2010PropOp34
 70
     1
102
RTVSPost2010Prop35
280
     0
102
RTVSPost2010PropOp35
 70
     1
102
RTVSPost2010Prop36
280
     0
102
RTVSPost2010PropOp36
 70
     1
102
RTVSPost2010Prop37
 90
       50
102
RTVSPost2010PropOp37
 70
     1
102
RTVSPost2010Prop38
140
0.0
102
RTVSPost2010PropOp38
 70
     1
102
RTVSPost2010Prop39
140
1.0
102
RTVSPost2010PropOp39
 70
     1
102
RTVSPost2010Prop40
 90
        0
102
RTVSPost2010PropOp40
 70
     1
102
RTVSPost2010Prop41ColorIndex
 90
       18
102
RTVSPost2010Prop41ColorRGB
 90
        0
102
RTVSPost2010PropOp41
 70
     1
102
RTVSPost2010Prop42
 90
       50
102
RTVSPost2010PropOp42
 70
     1
102
RTVSPost2010Prop43
 90
        3
102
RTVSPost2010PropOp43
 70
     1
102
RTVSPost2010Prop44ColorIndex
 90
        5
102
RTVSPost2010Prop44ColorRGB
 90
      255
102
RTVSPost2010PropOp44
 70
     1
102
RTVSPost2010Prop45
280
     0
102
RTVSPost2010PropOp45
 70
     1
102
RTVSPost2010Prop46
 90
       50
102
RTVSPost2010PropOp46
 70
     1
102
RTVSPost2010Prop47
 90
       50
102
RTVSPost2010PropOp47
 70
     1
102
RTVSPost2010Prop48
 90
       50
102
RTVSPost2010PropOp48
 70
     1
102
RTVSPost2010Prop49
280
     0
102
RTVSPost2010PropOp49
 70
     1
102
RTVSPost2010Prop50
 90
       50
102
RTVSPost2010PropOp50
 70
     1
102
RTVSPost2010Prop51ColorIndex
 90
      256
102
RTVSPost2010Prop51ColorRGB
 90
-16777216
102
RTVSPost2010PropOp51
 70
     0
102
RTVSPost2010Prop52
140
1.0
102
RTVSPost2010PropOp52
 70
     0
102
RTVSPost2010Prop53
 90
        2
102
RTVSPost2010PropOp53
 70
     1
102
RTVSPost2010Prop54
  1
strokes_ogs.tif
102
RTVSPost2010PropOp54
 70
     1
102
RTVSPost2010Prop55
280
     0
102
RTVSPost2010PropOp55
 70
     1
102
RTVSPost2010Prop56
140
1.0
102
RTVSPost2010PropOp56
 70
     1
102
RTVSPost2010Prop57
140
1.0
102
RTVSPost2010PropOp57
 70
     1
102
RTVSPropertyOp0
 70
     1
102
RTVSPropertyOp1
 70
     1
102
RTVSPropertyOp2
 70
     1
102
RTVSPropertyOp3
 70
     1
102
RTVSPropertyOp4
 70
     1
102
RTVSPropertyOp5
 70
     1
102
RTVSPropertyOp6
 70
     1
102
RTVSPropertyOp7
 70
     1
102
RTVSPropertyOp8
 70
     1
102
RTVSPropertyOp9
 70
     1
102
RTVSPropertyOp10
 70
     1
102
RTVSPropertyOp11
 70
     1
102
RTVSPropertyOp12
 70
     1
102
RTVSPropertyOp13
 70
     1
102
RTVSPropertyOp14
 70
     1
102
RTVSPropertyOp15
 70
     1
102
RTVSPropertyOp16
 70
     1
102
RTVSPropertyOp17
 70
     1
102
RTVSPropertyOp18
 70
     1
102
RTVSPropertyOp19
 70
     1
102
RTVSPropertyOp20
 70
     1
102
RTVSPropertyOp21
 70
     1
102
RTVSPropertyOp22
 70
     1
102
RTVSPropertyOp23
 70
     1
102
RTVSPropertyOp24
 70
     1
102
RTVSPropertyOp25
 70
     1
102
RTVSPropertyOp26
 70
     1
102
RTVSPropertyOp27
 70
     1
102
RTVSPropertyOp28
 70
     1
102
RTVSPropertyOp29
 70
     1
102
RTVSPropertyOp30
 70
     1
102
RTVSPropertyOp31
 70
     1
102
RTVSPropertyOp32
 70
     1
102
RTVSPropertyOp33
 70
     1
102
RTVSPropertyOp34
 70
     1
102
RTVSPropertyOp35
 70
     1
102
RTVSPropertyOp36
 70
     1
102
RTVSPropertyOp37
 70
     1
102
RTVSPropertyOp38
 70
     1
102
RTVSPropertyOp39
 70
     1
102
RTVSPropertyOp40
 70
     1
102
RTVSPropertyOp41
 70
     1
102
RTVSPropertyOp42
 70
     1
102
RTVSPropertyOp43
 70
     1
102
RTVSPropertyOp44
 70
     1
102
RTVSPropertyOp45
 70
     1
102
RTVSPropertyOp46
 70
     1
102
RTVSPropertyOp47
 70
     1
102
RTVSPropertyOp48
 70
     1
102
RTVSPropertyOp49
 70
     1
102
RTVSPropertyOp50
 70
     1
102
RTVSPropertyOp51
 70
     0
102
RTVSPropertyOp52
 70
     0
102
RTVSPropertyOp53
 70
     1
102
RTVSPropertyOp54
 70
     1
102
RTVSPropertyOp55
 70
     1
102
RTVSPropertyOp56
 70
     1
102
RTVSPropertyOp57
 70
     1
102
RTVSPropertyOp58
 70
     1
102
RTVSPropertyOp59
 70
     1
102
RTVSPropertyOp60
 70
     1
102
RTVSPropertyOp61
 70
     1
102
RTVSPropertyOp62
 70
     1
  0
XRECORD
  5
26EB
102
{ACAD_REACTORS
330
26EA
102
}
330
26EA
100
AcDbXrecord
280
     1
102
RTVSPost2010Prop28
280
     0
102
RTVSPost2010PropOp28
 70
     1
102
RTVSPost2010Prop29
280
     1
102
RTVSPost2010PropOp29
 70
     1
102
RTVSPost2010Prop30
280
     1
102
RTVSPost2010PropOp30
 70
     1
102
RTVSPost2010Prop31
280
     0
102
RTVSPost2010PropOp31
 70
     1
102
RTVSPost2010Prop32
280
     0
102
RTVSPost2010PropOp32
 70
     1
102
RTVSPost2010Prop33
280
     0
102
RTVSPost2010PropOp33
 70
     1
102
RTVSPost2010Prop34
280
     0
102
RTVSPost2010PropOp34
 70
     1
102
RTVSPost2010Prop35
280
     0
102
RTVSPost2010PropOp35
 70
     1
102
RTVSPost2010Prop36
280
     0
102
RTVSPost2010PropOp36
 70
     1
102
RTVSPost2010Prop37
 90
       50
102
RTVSPost2010PropOp37
 70
     1
102
RTVSPost2010Prop38
140
0.0
102
RTVSPost2010PropOp38
 70
     1
102
RTVSPost2010Prop39
140
1.0
102
RTVSPost2010PropOp39
 70
     1
102
RTVSPost2010Prop40
 90
        0
102
RTVSPost2010PropOp40
 70
     1
102
RTVSPost2010Prop41ColorIndex
 90
       18
102
RTVSPost2010Prop41ColorRGB
 90
        0
102
RTVSPost2010PropOp41
 70
     1
102
RTVSPost2010Prop42
 90
       50
102
RTVSPost2010PropOp42
 70
     1
102
RTVSPost2010Prop43
 90
        3
102
RTVSPost2010PropOp43
 70
     1
102
RTVSPost2010Prop44ColorIndex
 90
        5
102
RTVSPost2010Prop44ColorRGB
 90
      255
102
RTVSPost2010PropOp44
 70
     1
102
RTVSPost2010Prop45
280
     0
102
RTVSPost2010PropOp45
 70
     1
102
RTVSPost2010Prop46
 90
       50
102
RTVSPost2010PropOp46
 70
     1
102
RTVSPost2010Prop47
 90
       50
102
RTVSPost2010PropOp47
 70
     1
102
RTVSPost2010Prop48
 90
       50
102
RTVSPost2010PropOp48
 70
     1
102
RTVSPost2010Prop49
280
     0
102
RTVSPost2010PropOp49
 70
     1
102
RTVSPost2010Prop50
 90
       50
102
RTVSPost2010PropOp50
 70
     1
102
RTVSPost2010Prop51ColorIndex
 90
      256
102
RTVSPost2010Prop51ColorRGB
 90
-16777216
102
RTVSPost2010PropOp51
 70
     0
102
RTVSPost2010Prop52
140
1.0
102
RTVSPost2010PropOp52
 70
     0
102
RTVSPost2010Prop53
 90
        2
102
RTVSPost2010PropOp53
 70
     1
102
RTVSPost2010Prop54
  1
strokes_ogs.tif
102
RTVSPost2010PropOp54
 70
     1
102
RTVSPost2010Prop55
280
     0
102
RTVSPost2010PropOp55
 70
     1
102
RTVSPost2010Prop56
140
1.0
102
RTVSPost2010PropOp56
 70
     1
102
RTVSPost2010Prop57
140
1.0
102
RTVSPost2010PropOp57
 70
     1
102
RTVSPropertyOp0
 70
     1
102
RTVSPropertyOp1
 70
     1
102
RTVSPropertyOp2
 70
     1
102
RTVSPropertyOp3
 70
     1
102
RTVSPropertyOp4
 70
     1
102
RTVSPropertyOp5
 70
     1
102
RTVSPropertyOp6
 70
     1
102
RTVSPropertyOp7
 70
     1
102
RTVSPropertyOp8
 70
     1
102
RTVSPropertyOp9
 70
     1
102
RTVSPropertyOp10
 70
     1
102
RTVSPropertyOp11
 70
     1
102
RTVSPropertyOp12
 70
     1
102
RTVSPropertyOp13
 70
     1
102
RTVSPropertyOp14
 70
     1
102
RTVSPropertyOp15
 70
     1
102
RTVSPropertyOp16
 70
     1
102
RTVSPropertyOp17
 70
     1
102
RTVSPropertyOp18
 70
     1
102
RTVSPropertyOp19
 70
     1
102
RTVSPropertyOp20
 70
     1
102
RTVSPropertyOp21
 70
     1
102
RTVSPropertyOp22
 70
     1
102
RTVSPropertyOp23
 70
     1
102
RTVSPropertyOp24
 70
     1
102
RTVSPropertyOp25
 70
     1
102
RTVSPropertyOp26
 70
     1
102
RTVSPropertyOp27
 70
     1
102
RTVSPropertyOp28
 70
     1
102
RTVSPropertyOp29
 70
     1
102
RTVSPropertyOp30
 70
     1
102
RTVSPropertyOp31
 70
     1
102
RTVSPropertyOp32
 70
     1
102
RTVSPropertyOp33
 70
     1
102
RTVSPropertyOp34
 70
     1
102
RTVSPropertyOp35
 70
     1
102
RTVSPropertyOp36
 70
     1
102
RTVSPropertyOp37
 70
     1
102
RTVSPropertyOp38
 70
     1
102
RTVSPropertyOp39
 70
     1
102
RTVSPropertyOp40
 70
     1
102
RTVSPropertyOp41
 70
     1
102
RTVSPropertyOp42
 70
     1
102
RTVSPropertyOp43
 70
     1
102
RTVSPropertyOp44
 70
     1
102
RTVSPropertyOp45
 70
     1
102
RTVSPropertyOp46
 70
     1
102
RTVSPropertyOp47
 70
     1
102
RTVSPropertyOp48
 70
     1
102
RTVSPropertyOp49
 70
     1
102
RTVSPropertyOp50
 70
     1
102
RTVSPropertyOp51
 70
     0
102
RTVSPropertyOp52
 70
     0
102
RTVSPropertyOp53
 70
     1
102
RTVSPropertyOp54
 70
     1
102
RTVSPropertyOp55
 70
     1
102
RTVSPropertyOp56
 70
     1
102
RTVSPropertyOp57
 70
     1
102
RTVSPropertyOp58
 70
     1
102
RTVSPropertyOp59
 70
     1
102
RTVSPropertyOp60
 70
     1
102
RTVSPropertyOp61
 70
     1
102
RTVSPropertyOp62
 70
     1
  0
XRECORD
  5
26ED
102
{ACAD_REACTORS
330
26EC
102
}
330
26EC
100
AcDbXrecord
280
     1
102
RTVSPost2010Prop28
280
     0
102
RTVSPost2010PropOp28
 70
     1
102
RTVSPost2010Prop29
280
     1
102
RTVSPost2010PropOp29
 70
     1
102
RTVSPost2010Prop30
280
     1
102
RTVSPost2010PropOp30
 70
     1
102
RTVSPost2010Prop31
280
     0
102
RTVSPost2010PropOp31
 70
     1
102
RTVSPost2010Prop32
280
     0
102
RTVSPost2010PropOp32
 70
     1
102
RTVSPost2010Prop33
280
     0
102
RTVSPost2010PropOp33
 70
     1
102
RTVSPost2010Prop34
280
     0
102
RTVSPost2010PropOp34
 70
     1
102
RTVSPost2010Prop35
280
     0
102
RTVSPost2010PropOp35
 70
     1
102
RTVSPost2010Prop36
280
     0
102
RTVSPost2010PropOp36
 70
     1
102
RTVSPost2010Prop37
 90
       50
102
RTVSPost2010PropOp37
 70
     1
102
RTVSPost2010Prop38
140
0.0
102
RTVSPost2010PropOp38
 70
     1
102
RTVSPost2010Prop39
140
1.0
102
RTVSPost2010PropOp39
 70
     1
102
RTVSPost2010Prop40
 90
        0
102
RTVSPost2010PropOp40
 70
     1
102
RTVSPost2010Prop41ColorIndex
 90
       18
102
RTVSPost2010Prop41ColorRGB
 90
        0
102
RTVSPost2010PropOp41
 70
     1
102
RTVSPost2010Prop42
 90
       50
102
RTVSPost2010PropOp42
 70
     1
102
RTVSPost2010Prop43
 90
        3
102
RTVSPost2010PropOp43
 70
     1
102
RTVSPost2010Prop44ColorIndex
 90
        5
102
RTVSPost2010Prop44ColorRGB
 90
      255
102
RTVSPost2010PropOp44
 70
     1
102
RTVSPost2010Prop45
280
     0
102
RTVSPost2010PropOp45
 70
     1
102
RTVSPost2010Prop46
 90
       50
102
RTVSPost2010PropOp46
 70
     1
102
RTVSPost2010Prop47
 90
       50
102
RTVSPost2010PropOp47
 70
     1
102
RTVSPost2010Prop48
 90
       50
102
RTVSPost2010PropOp48
 70
     1
102
RTVSPost2010Prop49
280
     0
102
RTVSPost2010PropOp49
 70
     1
102
RTVSPost2010Prop50
 90
       50
102
RTVSPost2010PropOp50
 70
     1
102
RTVSPost2010Prop51ColorIndex
 90
      256
102
RTVSPost2010Prop51ColorRGB
 90
-16777216
102
RTVSPost2010PropOp51
 70
     0
102
RTVSPost2010Prop52
140
1.0
102
RTVSPost2010PropOp52
 70
     0
102
RTVSPost2010Prop53
 90
        2
102
RTVSPost2010PropOp53
 70
     1
102
RTVSPost2010Prop54
  1
strokes_ogs.tif
102
RTVSPost2010PropOp54
 70
     1
102
RTVSPost2010Prop55
280
     0
102
RTVSPost2010PropOp55
 70
     1
102
RTVSPost2010Prop56
140
1.0
102
RTVSPost2010PropOp56
 70
     1
102
RTVSPost2010Prop57
140
1.0
102
RTVSPost2010PropOp57
 70
     1
102
RTVSPropertyOp0
 70
     1
102
RTVSPropertyOp1
 70
     1
102
RTVSPropertyOp2
 70
     1
102
RTVSPropertyOp3
 70
     1
102
RTVSPropertyOp4
 70
     1
102
RTVSPropertyOp5
 70
     1
102
RTVSPropertyOp6
 70
     1
102
RTVSPropertyOp7
 70
     1
102
RTVSPropertyOp8
 70
     1
102
RTVSPropertyOp9
 70
     1
102
RTVSPropertyOp10
 70
     1
102
RTVSPropertyOp11
 70
     1
102
RTVSPropertyOp12
 70
     1
102
RTVSPropertyOp13
 70
     1
102
RTVSPropertyOp14
 70
     1
102
RTVSPropertyOp15
 70
     1
102
RTVSPropertyOp16
 70
     1
102
RTVSPropertyOp17
 70
     1
102
RTVSPropertyOp18
 70
     1
102
RTVSPropertyOp19
 70
     1
102
RTVSPropertyOp20
 70
     1
102
RTVSPropertyOp21
 70
     1
102
RTVSPropertyOp22
 70
     1
102
RTVSPropertyOp23
 70
     1
102
RTVSPropertyOp24
 70
     1
102
RTVSPropertyOp25
 70
     1
102
RTVSPropertyOp26
 70
     1
102
RTVSPropertyOp27
 70
     1
102
RTVSPropertyOp28
 70
     1
102
RTVSPropertyOp29
 70
     1
102
RTVSPropertyOp30
 70
     1
102
RTVSPropertyOp31
 70
     1
102
RTVSPropertyOp32
 70
     1
102
RTVSPropertyOp33
 70
     1
102
RTVSPropertyOp34
 70
     1
102
RTVSPropertyOp35
 70
     1
102
RTVSPropertyOp36
 70
     1
102
RTVSPropertyOp37
 70
     1
102
RTVSPropertyOp38
 70
     1
102
RTVSPropertyOp39
 70
     1
102
RTVSPropertyOp40
 70
     1
102
RTVSPropertyOp41
 70
     1
102
RTVSPropertyOp42
 70
     1
102
RTVSPropertyOp43
 70
     1
102
RTVSPropertyOp44
 70
     1
102
RTVSPropertyOp45
 70
     1
102
RTVSPropertyOp46
 70
     1
102
RTVSPropertyOp47
 70
     1
102
RTVSPropertyOp48
 70
     1
102
RTVSPropertyOp49
 70
     1
102
RTVSPropertyOp50
 70
     1
102
RTVSPropertyOp51
 70
     0
102
RTVSPropertyOp52
 70
     0
102
RTVSPropertyOp53
 70
     1
102
RTVSPropertyOp54
 70
     1
102
RTVSPropertyOp55
 70
     1
102
RTVSPropertyOp56
 70
     1
102
RTVSPropertyOp57
 70
     1
102
RTVSPropertyOp58
 70
     1
102
RTVSPropertyOp59
 70
     1
102
RTVSPropertyOp60
 70
     1
102
RTVSPropertyOp61
 70
     1
102
RTVSPropertyOp62
 70
     1
  0
XRECORD
  5
26EF
102
{ACAD_REACTORS
330
26EE
102
}
330
26EE
100
AcDbXrecord
280
     1
102
RTVSPost2010Prop28
280
     0
102
RTVSPost2010PropOp28
 70
     1
102
RTVSPost2010Prop29
280
     1
102
RTVSPost2010PropOp29
 70
     1
102
RTVSPost2010Prop30
280
     1
102
RTVSPost2010PropOp30
 70
     1
102
RTVSPost2010Prop31
280
     0
102
RTVSPost2010PropOp31
 70
     1
102
RTVSPost2010Prop32
280
     0
102
RTVSPost2010PropOp32
 70
     1
102
RTVSPost2010Prop33
280
     0
102
RTVSPost2010PropOp33
 70
     1
102
RTVSPost2010Prop34
280
     0
102
RTVSPost2010PropOp34
 70
     1
102
RTVSPost2010Prop35
280
     0
102
RTVSPost2010PropOp35
 70
     1
102
RTVSPost2010Prop36
280
     0
102
RTVSPost2010PropOp36
 70
     1
102
RTVSPost2010Prop37
 90
       50
102
RTVSPost2010PropOp37
 70
     1
102
RTVSPost2010Prop38
140
0.0
102
RTVSPost2010PropOp38
 70
     1
102
RTVSPost2010Prop39
140
1.0
102
RTVSPost2010PropOp39
 70
     1
102
RTVSPost2010Prop40
 90
        0
102
RTVSPost2010PropOp40
 70
     1
102
RTVSPost2010Prop41ColorIndex
 90
       18
102
RTVSPost2010Prop41ColorRGB
 90
        0
102
RTVSPost2010PropOp41
 70
     1
102
RTVSPost2010Prop42
 90
       50
102
RTVSPost2010PropOp42
 70
     1
102
RTVSPost2010Prop43
 90
        3
102
RTVSPost2010PropOp43
 70
     1
102
RTVSPost2010Prop44ColorIndex
 90
        5
102
RTVSPost2010Prop44ColorRGB
 90
      255
102
RTVSPost2010PropOp44
 70
     1
102
RTVSPost2010Prop45
280
     0
102
RTVSPost2010PropOp45
 70
     1
102
RTVSPost2010Prop46
 90
       50
102
RTVSPost2010PropOp46
 70
     1
102
RTVSPost2010Prop47
 90
       50
102
RTVSPost2010PropOp47
 70
     1
102
RTVSPost2010Prop48
 90
       50
102
RTVSPost2010PropOp48
 70
     1
102
RTVSPost2010Prop49
280
     0
102
RTVSPost2010PropOp49
 70
     1
102
RTVSPost2010Prop50
 90
       50
102
RTVSPost2010PropOp50
 70
     1
102
RTVSPost2010Prop51ColorIndex
 90
      256
102
RTVSPost2010Prop51ColorRGB
 90
-16777216
102
RTVSPost2010PropOp51
 70
     0
102
RTVSPost2010Prop52
140
1.0
102
RTVSPost2010PropOp52
 70
     0
102
RTVSPost2010Prop53
 90
        2
102
RTVSPost2010PropOp53
 70
     1
102
RTVSPost2010Prop54
  1
strokes_ogs.tif
102
RTVSPost2010PropOp54
 70
     1
102
RTVSPost2010Prop55
280
     0
102
RTVSPost2010PropOp55
 70
     1
102
RTVSPost2010Prop56
140
1.0
102
RTVSPost2010PropOp56
 70
     1
102
RTVSPost2010Prop57
140
1.0
102
RTVSPost2010PropOp57
 70
     1
102
RTVSPropertyOp0
 70
     1
102
RTVSPropertyOp1
 70
     1
102
RTVSPropertyOp2
 70
     1
102
RTVSPropertyOp3
 70
     1
102
RTVSPropertyOp4
 70
     1
102
RTVSPropertyOp5
 70
     1
102
RTVSPropertyOp6
 70
     1
102
RTVSPropertyOp7
 70
     1
102
RTVSPropertyOp8
 70
     1
102
RTVSPropertyOp9
 70
     1
102
RTVSPropertyOp10
 70
     1
102
RTVSPropertyOp11
 70
     1
102
RTVSPropertyOp12
 70
     1
102
RTVSPropertyOp13
 70
     1
102
RTVSPropertyOp14
 70
     1
102
RTVSPropertyOp15
 70
     1
102
RTVSPropertyOp16
 70
     1
102
RTVSPropertyOp17
 70
     1
102
RTVSPropertyOp18
 70
     1
102
RTVSPropertyOp19
 70
     1
102
RTVSPropertyOp20
 70
     1
102
RTVSPropertyOp21
 70
     1
102
RTVSPropertyOp22
 70
     1
102
RTVSPropertyOp23
 70
     1
102
RTVSPropertyOp24
 70
     1
102
RTVSPropertyOp25
 70
     1
102
RTVSPropertyOp26
 70
     1
102
RTVSPropertyOp27
 70
     1
102
RTVSPropertyOp28
 70
     1
102
RTVSPropertyOp29
 70
     1
102
RTVSPropertyOp30
 70
     1
102
RTVSPropertyOp31
 70
     1
102
RTVSPropertyOp32
 70
     1
102
RTVSPropertyOp33
 70
     1
102
RTVSPropertyOp34
 70
     1
102
RTVSPropertyOp35
 70
     1
102
RTVSPropertyOp36
 70
     1
102
RTVSPropertyOp37
 70
     1
102
RTVSPropertyOp38
 70
     1
102
RTVSPropertyOp39
 70
     1
102
RTVSPropertyOp40
 70
     1
102
RTVSPropertyOp41
 70
     1
102
RTVSPropertyOp42
 70
     1
102
RTVSPropertyOp43
 70
     1
102
RTVSPropertyOp44
 70
     1
102
RTVSPropertyOp45
 70
     1
102
RTVSPropertyOp46
 70
     1
102
RTVSPropertyOp47
 70
     1
102
RTVSPropertyOp48
 70
     1
102
RTVSPropertyOp49
 70
     1
102
RTVSPropertyOp50
 70
     1
102
RTVSPropertyOp51
 70
     0
102
RTVSPropertyOp52
 70
     0
102
RTVSPropertyOp53
 70
     1
102
RTVSPropertyOp54
 70
     1
102
RTVSPropertyOp55
 70
     1
102
RTVSPropertyOp56
 70
     1
102
RTVSPropertyOp57
 70
     1
102
RTVSPropertyOp58
 70
     1
102
RTVSPropertyOp59
 70
     1
102
RTVSPropertyOp60
 70
     1
102
RTVSPropertyOp61
 70
     1
102
RTVSPropertyOp62
 70
     1
  0
XRECORD
  5
26F1
102
{ACAD_REACTORS
330
26F0
102
}
330
26F0
100
AcDbXrecord
280
     1
102
RTVSPost2010Prop28
280
     0
102
RTVSPost2010PropOp28
 70
     1
102
RTVSPost2010Prop29
280
     1
102
RTVSPost2010PropOp29
 70
     1
102
RTVSPost2010Prop30
280
     1
102
RTVSPost2010PropOp30
 70
     1
102
RTVSPost2010Prop31
280
     0
102
RTVSPost2010PropOp31
 70
     1
102
RTVSPost2010Prop32
280
     0
102
RTVSPost2010PropOp32
 70
     1
102
RTVSPost2010Prop33
280
     0
102
RTVSPost2010PropOp33
 70
     1
102
RTVSPost2010Prop34
280
     0
102
RTVSPost2010PropOp34
 70
     1
102
RTVSPost2010Prop35
280
     0
102
RTVSPost2010PropOp35
 70
     1
102
RTVSPost2010Prop36
280
     0
102
RTVSPost2010PropOp36
 70
     1
102
RTVSPost2010Prop37
 90
       50
102
RTVSPost2010PropOp37
 70
     1
102
RTVSPost2010Prop38
140
0.0
102
RTVSPost2010PropOp38
 70
     1
102
RTVSPost2010Prop39
140
1.0
102
RTVSPost2010PropOp39
 70
     1
102
RTVSPost2010Prop40
 90
        0
102
RTVSPost2010PropOp40
 70
     1
102
RTVSPost2010Prop41ColorIndex
 90
       18
102
RTVSPost2010Prop41ColorRGB
 90
        0
102
RTVSPost2010PropOp41
 70
     1
102
RTVSPost2010Prop42
 90
       50
102
RTVSPost2010PropOp42
 70
     1
102
RTVSPost2010Prop43
 90
        3
102
RTVSPost2010PropOp43
 70
     1
102
RTVSPost2010Prop44ColorIndex
 90
        5
102
RTVSPost2010Prop44ColorRGB
 90
      255
102
RTVSPost2010PropOp44
 70
     1
102
RTVSPost2010Prop45
280
     0
102
RTVSPost2010PropOp45
 70
     1
102
RTVSPost2010Prop46
 90
       50
102
RTVSPost2010PropOp46
 70
     1
102
RTVSPost2010Prop47
 90
       50
102
RTVSPost2010PropOp47
 70
     1
102
RTVSPost2010Prop48
 90
       50
102
RTVSPost2010PropOp48
 70
     1
102
RTVSPost2010Prop49
280
     0
102
RTVSPost2010PropOp49
 70
     1
102
RTVSPost2010Prop50
 90
       50
102
RTVSPost2010PropOp50
 70
     1
102
RTVSPost2010Prop51ColorIndex
 90
      256
102
RTVSPost2010Prop51ColorRGB
 90
-16777216
102
RTVSPost2010PropOp51
 70
     0
102
RTVSPost2010Prop52
140
1.0
102
RTVSPost2010PropOp52
 70
     0
102
RTVSPost2010Prop53
 90
        2
102
RTVSPost2010PropOp53
 70
     1
102
RTVSPost2010Prop54
  1
strokes_ogs.tif
102
RTVSPost2010PropOp54
 70
     1
102
RTVSPost2010Prop55
280
     0
102
RTVSPost2010PropOp55
 70
     1
102
RTVSPost2010Prop56
140
1.0
102
RTVSPost2010PropOp56
 70
     1
102
RTVSPost2010Prop57
140
1.0
102
RTVSPost2010PropOp57
 70
     1
102
RTVSPropertyOp0
 70
     1
102
RTVSPropertyOp1
 70
     1
102
RTVSPropertyOp2
 70
     1
102
RTVSPropertyOp3
 70
     1
102
RTVSPropertyOp4
 70
     1
102
RTVSPropertyOp5
 70
     1
102
RTVSPropertyOp6
 70
     1
102
RTVSPropertyOp7
 70
     1
102
RTVSPropertyOp8
 70
     1
102
RTVSPropertyOp9
 70
     1
102
RTVSPropertyOp10
 70
     1
102
RTVSPropertyOp11
 70
     1
102
RTVSPropertyOp12
 70
     1
102
RTVSPropertyOp13
 70
     1
102
RTVSPropertyOp14
 70
     1
102
RTVSPropertyOp15
 70
     1
102
RTVSPropertyOp16
 70
     1
102
RTVSPropertyOp17
 70
     1
102
RTVSPropertyOp18
 70
     1
102
RTVSPropertyOp19
 70
     1
102
RTVSPropertyOp20
 70
     1
102
RTVSPropertyOp21
 70
     1
102
RTVSPropertyOp22
 70
     1
102
RTVSPropertyOp23
 70
     1
102
RTVSPropertyOp24
 70
     1
102
RTVSPropertyOp25
 70
     1
102
RTVSPropertyOp26
 70
     1
102
RTVSPropertyOp27
 70
     1
102
RTVSPropertyOp28
 70
     1
102
RTVSPropertyOp29
 70
     1
102
RTVSPropertyOp30
 70
     1
102
RTVSPropertyOp31
 70
     1
102
RTVSPropertyOp32
 70
     1
102
RTVSPropertyOp33
 70
     1
102
RTVSPropertyOp34
 70
     1
102
RTVSPropertyOp35
 70
     1
102
RTVSPropertyOp36
 70
     1
102
RTVSPropertyOp37
 70
     1
102
RTVSPropertyOp38
 70
     1
102
RTVSPropertyOp39
 70
     1
102
RTVSPropertyOp40
 70
     1
102
RTVSPropertyOp41
 70
     1
102
RTVSPropertyOp42
 70
     1
102
RTVSPropertyOp43
 70
     1
102
RTVSPropertyOp44
 70
     1
102
RTVSPropertyOp45
 70
     1
102
RTVSPropertyOp46
 70
     1
102
RTVSPropertyOp47
 70
     1
102
RTVSPropertyOp48
 70
     1
102
RTVSPropertyOp49
 70
     1
102
RTVSPropertyOp50
 70
     1
102
RTVSPropertyOp51
 70
     0
102
RTVSPropertyOp52
 70
     0
102
RTVSPropertyOp53
 70
     1
102
RTVSPropertyOp54
 70
     1
102
RTVSPropertyOp55
 70
     1
102
RTVSPropertyOp56
 70
     1
102
RTVSPropertyOp57
 70
     1
102
RTVSPropertyOp58
 70
     1
102
RTVSPropertyOp59
 70
     1
102
RTVSPropertyOp60
 70
     1
102
RTVSPropertyOp61
 70
     1
102
RTVSPropertyOp62
 70
     1
  0
XRECORD
  5
26F9
102
{ACAD_REACTORS
330
26F8
102
}
330
26F8
100
AcDbXrecord
280
     1
102
RTVSPost2010Prop28
280
     0
102
RTVSPost2010PropOp28
 70
     1
102
RTVSPost2010Prop29
280
     1
102
RTVSPost2010PropOp29
 70
     1
102
RTVSPost2010Prop30
280
     1
102
RTVSPost2010PropOp30
 70
     1
102
RTVSPost2010Prop31
280
     0
102
RTVSPost2010PropOp31
 70
     1
102
RTVSPost2010Prop32
280
     0
102
RTVSPost2010PropOp32
 70
     1
102
RTVSPost2010Prop33
280
     0
102
RTVSPost2010PropOp33
 70
     1
102
RTVSPost2010Prop34
280
     0
102
RTVSPost2010PropOp34
 70
     1
102
RTVSPost2010Prop35
280
     0
102
RTVSPost2010PropOp35
 70
     1
102
RTVSPost2010Prop36
280
     0
102
RTVSPost2010PropOp36
 70
     1
102
RTVSPost2010Prop37
 90
       50
102
RTVSPost2010PropOp37
 70
     1
102
RTVSPost2010Prop38
140
0.0
102
RTVSPost2010PropOp38
 70
     1
102
RTVSPost2010Prop39
140
1.0
102
RTVSPost2010PropOp39
 70
     1
102
RTVSPost2010Prop40
 90
        0
102
RTVSPost2010PropOp40
 70
     1
102
RTVSPost2010Prop41ColorIndex
 90
       18
102
RTVSPost2010Prop41ColorRGB
 90
        0
102
RTVSPost2010PropOp41
 70
     1
102
RTVSPost2010Prop42
 90
       50
102
RTVSPost2010PropOp42
 70
     1
102
RTVSPost2010Prop43
 90
        3
102
RTVSPost2010PropOp43
 70
     1
102
RTVSPost2010Prop44ColorIndex
 90
        5
102
RTVSPost2010Prop44ColorRGB
 90
      255
102
RTVSPost2010PropOp44
 70
     1
102
RTVSPost2010Prop45
280
     0
102
RTVSPost2010PropOp45
 70
     1
102
RTVSPost2010Prop46
 90
       50
102
RTVSPost2010PropOp46
 70
     1
102
RTVSPost2010Prop47
 90
       50
102
RTVSPost2010PropOp47
 70
     1
102
RTVSPost2010Prop48
 90
       50
102
RTVSPost2010PropOp48
 70
     1
102
RTVSPost2010Prop49
280
     0
102
RTVSPost2010PropOp49
 70
     1
102
RTVSPost2010Prop50
 90
       50
102
RTVSPost2010PropOp50
 70
     1
102
RTVSPost2010Prop51ColorIndex
 90
      256
102
RTVSPost2010Prop51ColorRGB
 90
-16777216
102
RTVSPost2010PropOp51
 70
     0
102
RTVSPost2010Prop52
140
1.0
102
RTVSPost2010PropOp52
 70
     0
102
RTVSPost2010Prop53
 90
        2
102
RTVSPost2010PropOp53
 70
     1
102
RTVSPost2010Prop54
  1
strokes_ogs.tif
102
RTVSPost2010PropOp54
 70
     1
102
RTVSPost2010Prop55
280
     0
102
RTVSPost2010PropOp55
 70
     1
102
RTVSPost2010Prop56
140
1.0
102
RTVSPost2010PropOp56
 70
     1
102
RTVSPost2010Prop57
140
1.0
102
RTVSPost2010PropOp57
 70
     1
102
RTVSPropertyOp0
 70
     1
102
RTVSPropertyOp1
 70
     1
102
RTVSPropertyOp2
 70
     1
102
RTVSPropertyOp3
 70
     1
102
RTVSPropertyOp4
 70
     1
102
RTVSPropertyOp5
 70
     1
102
RTVSPropertyOp6
 70
     1
102
RTVSPropertyOp7
 70
     1
102
RTVSPropertyOp8
 70
     1
102
RTVSPropertyOp9
 70
     1
102
RTVSPropertyOp10
 70
     1
102
RTVSPropertyOp11
 70
     1
102
RTVSPropertyOp12
 70
     1
102
RTVSPropertyOp13
 70
     1
102
RTVSPropertyOp14
 70
     1
102
RTVSPropertyOp15
 70
     1
102
RTVSPropertyOp16
 70
     1
102
RTVSPropertyOp17
 70
     1
102
RTVSPropertyOp18
 70
     1
102
RTVSPropertyOp19
 70
     1
102
RTVSPropertyOp20
 70
     1
102
RTVSPropertyOp21
 70
     1
102
RTVSPropertyOp22
 70
     1
102
RTVSPropertyOp23
 70
     1
102
RTVSPropertyOp24
 70
     1
102
RTVSPropertyOp25
 70
     1
102
RTVSPropertyOp26
 70
     1
102
RTVSPropertyOp27
 70
     1
102
RTVSPropertyOp28
 70
     1
102
RTVSPropertyOp29
 70
     1
102
RTVSPropertyOp30
 70
     1
102
RTVSPropertyOp31
 70
     1
102
RTVSPropertyOp32
 70
     1
102
RTVSPropertyOp33
 70
     1
102
RTVSPropertyOp34
 70
     1
102
RTVSPropertyOp35
 70
     1
102
RTVSPropertyOp36
 70
     1
102
RTVSPropertyOp37
 70
     1
102
RTVSPropertyOp38
 70
     1
102
RTVSPropertyOp39
 70
     1
102
RTVSPropertyOp40
 70
     1
102
RTVSPropertyOp41
 70
     1
102
RTVSPropertyOp42
 70
     1
102
RTVSPropertyOp43
 70
     1
102
RTVSPropertyOp44
 70
     1
102
RTVSPropertyOp45
 70
     1
102
RTVSPropertyOp46
 70
     1
102
RTVSPropertyOp47
 70
     1
102
RTVSPropertyOp48
 70
     1
102
RTVSPropertyOp49
 70
     1
102
RTVSPropertyOp50
 70
     1
102
RTVSPropertyOp51
 70
     0
102
RTVSPropertyOp52
 70
     0
102
RTVSPropertyOp53
 70
     1
102
RTVSPropertyOp54
 70
     1
102
RTVSPropertyOp55
 70
     1
102
RTVSPropertyOp56
 70
     1
102
RTVSPropertyOp57
 70
     1
102
RTVSPropertyOp58
 70
     1
102
RTVSPropertyOp59
 70
     1
102
RTVSPropertyOp60
 70
     1
102
RTVSPropertyOp61
 70
     1
102
RTVSPropertyOp62
 70
     1
  0
XRECORD
  5
2715
102
{ACAD_REACTORS
330
2714
102
}
330
2714
100
AcDbXrecord
280
     1
102
RTVSPost2010Prop28
280
     0
102
RTVSPost2010PropOp28
 70
     0
102
RTVSPost2010Prop29
280
     1
102
RTVSPost2010PropOp29
 70
     0
102
RTVSPost2010Prop30
280
     1
102
RTVSPost2010PropOp30
 70
     0
102
RTVSPost2010Prop31
280
     0
102
RTVSPost2010PropOp31
 70
     0
102
RTVSPost2010Prop32
280
     0
102
RTVSPost2010PropOp32
 70
     0
102
RTVSPost2010Prop33
280
     0
102
RTVSPost2010PropOp33
 70
     0
102
RTVSPost2010Prop34
280
     0
102
RTVSPost2010PropOp34
 70
     0
102
RTVSPost2010Prop35
280
     0
102
RTVSPost2010PropOp35
 70
     0
102
RTVSPost2010Prop36
280
     0
102
RTVSPost2010PropOp36
 70
     0
102
RTVSPost2010Prop37
 90
       50
102
RTVSPost2010PropOp37
 70
     0
102
RTVSPost2010Prop38
140
0.0
102
RTVSPost2010PropOp38
 70
     0
102
RTVSPost2010Prop39
140
1.0
102
RTVSPost2010PropOp39
 70
     0
102
RTVSPost2010Prop40
 90
        0
102
RTVSPost2010PropOp40
 70
     0
102
RTVSPost2010Prop41ColorIndex
 90
       18
102
RTVSPost2010Prop41ColorRGB
 90
        0
102
RTVSPost2010PropOp41
 70
     0
102
RTVSPost2010Prop42
 90
       50
102
RTVSPost2010PropOp42
 70
     0
102
RTVSPost2010Prop43
 90
        3
102
RTVSPost2010PropOp43
 70
     0
102
RTVSPost2010Prop44ColorIndex
 90
        5
102
RTVSPost2010Prop44ColorRGB
 90
      255
102
RTVSPost2010PropOp44
 70
     0
102
RTVSPost2010Prop45
280
     0
102
RTVSPost2010PropOp45
 70
     0
102
RTVSPost2010Prop46
 90
       50
102
RTVSPost2010PropOp46
 70
     0
102
RTVSPost2010Prop47
 90
       50
102
RTVSPost2010PropOp47
 70
     0
102
RTVSPost2010Prop48
 90
       50
102
RTVSPost2010PropOp48
 70
     0
102
RTVSPost2010Prop49
280
     0
102
RTVSPost2010PropOp49
 70
     0
102
RTVSPost2010Prop50
 90
       50
102
RTVSPost2010PropOp50
 70
     0
102
RTVSPost2010Prop51ColorIndex
 90
      256
102
RTVSPost2010Prop51ColorRGB
 90
-16777216
102
RTVSPost2010PropOp51
 70
     0
102
RTVSPost2010Prop52
140
1.0
102
RTVSPost2010PropOp52
 70
     0
102
RTVSPost2010Prop53
 90
        2
102
RTVSPost2010PropOp53
 70
     0
102
RTVSPost2010Prop54
  1
strokes_ogs.tif
102
RTVSPost2010PropOp54
 70
     0
102
RTVSPost2010Prop55
280
     0
102
RTVSPost2010PropOp55
 70
     0
102
RTVSPost2010Prop56
140
1.0
102
RTVSPost2010PropOp56
 70
     0
102
RTVSPost2010Prop57
140
1.0
102
RTVSPost2010PropOp57
 70
     0
102
RTVSPropertyOp0
 70
     0
102
RTVSPropertyOp1
 70
     0
102
RTVSPropertyOp2
 70
     0
102
RTVSPropertyOp3
 70
     0
102
RTVSPropertyOp4
 70
     0
102
RTVSPropertyOp5
 70
     0
102
RTVSPropertyOp6
 70
     0
102
RTVSPropertyOp7
 70
     0
102
RTVSPropertyOp8
 70
     0
102
RTVSPropertyOp9
 70
     0
102
RTVSPropertyOp10
 70
     0
102
RTVSPropertyOp11
 70
     0
102
RTVSPropertyOp12
 70
     0
102
RTVSPropertyOp13
 70
     0
102
RTVSPropertyOp14
 70
     2
102
RTVSPropertyOp15
 70
     0
102
RTVSPropertyOp16
 70
     0
102
RTVSPropertyOp17
 70
     0
102
RTVSPropertyOp18
 70
     0
102
RTVSPropertyOp19
 70
     0
102
RTVSPropertyOp20
 70
     0
102
RTVSPropertyOp21
 70
     0
102
RTVSPropertyOp22
 70
     0
102
RTVSPropertyOp23
 70
     0
102
RTVSPropertyOp24
 70
     0
102
RTVSPropertyOp25
 70
     0
102
RTVSPropertyOp26
 70
     0
102
RTVSPropertyOp27
 70
     0
102
RTVSPropertyOp28
 70
     0
102
RTVSPropertyOp29
 70
     0
102
RTVSPropertyOp30
 70
     0
102
RTVSPropertyOp31
 70
     0
102
RTVSPropertyOp32
 70
     0
102
RTVSPropertyOp33
 70
     0
102
RTVSPropertyOp34
 70
     0
102
RTVSPropertyOp35
 70
     0
102
RTVSPropertyOp36
 70
     0
102
RTVSPropertyOp37
 70
     0
102
RTVSPropertyOp38
 70
     0
102
RTVSPropertyOp39
 70
     0
102
RTVSPropertyOp40
 70
     0
102
RTVSPropertyOp41
 70
     0
102
RTVSPropertyOp42
 70
     0
102
RTVSPropertyOp43
 70
     0
102
RTVSPropertyOp44
 70
     0
102
RTVSPropertyOp45
 70
     0
102
RTVSPropertyOp46
 70
     0
102
RTVSPropertyOp47
 70
     0
102
RTVSPropertyOp48
 70
     0
102
RTVSPropertyOp49
 70
     0
102
RTVSPropertyOp50
 70
     0
102
RTVSPropertyOp51
 70
     0
102
RTVSPropertyOp52
 70
     0
102
RTVSPropertyOp53
 70
     0
102
RTVSPropertyOp54
 70
     0
102
RTVSPropertyOp55
 70
     0
102
RTVSPropertyOp56
 70
     0
102
RTVSPropertyOp57
 70
     0
102
RTVSPropertyOp58
 70
     0
102
RTVSPropertyOp59
 70
     0
102
RTVSPropertyOp60
 70
     0
102
RTVSPropertyOp61
 70
     0
102
RTVSPropertyOp62
 70
     0
  0
XRECORD
  5
2705
102
{ACAD_REACTORS
330
2704
102
}
330
2704
100
AcDbXrecord
280
     1
102
RTVSPost2010Prop28
280
     0
102
RTVSPost2010PropOp28
 70
     1
102
RTVSPost2010Prop29
280
     1
102
RTVSPost2010PropOp29
 70
     1
102
RTVSPost2010Prop30
280
     1
102
RTVSPost2010PropOp30
 70
     1
102
RTVSPost2010Prop31
280
     0
102
RTVSPost2010PropOp31
 70
     1
102
RTVSPost2010Prop32
280
     0
102
RTVSPost2010PropOp32
 70
     1
102
RTVSPost2010Prop33
280
     0
102
RTVSPost2010PropOp33
 70
     1
102
RTVSPost2010Prop34
280
     0
102
RTVSPost2010PropOp34
 70
     1
102
RTVSPost2010Prop35
280
     0
102
RTVSPost2010PropOp35
 70
     1
102
RTVSPost2010Prop36
280
     0
102
RTVSPost2010PropOp36
 70
     1
102
RTVSPost2010Prop37
 90
       50
102
RTVSPost2010PropOp37
 70
     1
102
RTVSPost2010Prop38
140
0.0
102
RTVSPost2010PropOp38
 70
     1
102
RTVSPost2010Prop39
140
1.0
102
RTVSPost2010PropOp39
 70
     1
102
RTVSPost2010Prop40
 90
        0
102
RTVSPost2010PropOp40
 70
     1
102
RTVSPost2010Prop41ColorIndex
 90
       18
102
RTVSPost2010Prop41ColorRGB
 90
        0
102
RTVSPost2010PropOp41
 70
     1
102
RTVSPost2010Prop42
 90
       50
102
RTVSPost2010PropOp42
 70
     1
102
RTVSPost2010Prop43
 90
        3
102
RTVSPost2010PropOp43
 70
     1
102
RTVSPost2010Prop44ColorIndex
 90
        5
102
RTVSPost2010Prop44ColorRGB
 90
      255
102
RTVSPost2010PropOp44
 70
     1
102
RTVSPost2010Prop45
280
     0
102
RTVSPost2010PropOp45
 70
     1
102
RTVSPost2010Prop46
 90
       50
102
RTVSPost2010PropOp46
 70
     1
102
RTVSPost2010Prop47
 90
       50
102
RTVSPost2010PropOp47
 70
     1
102
RTVSPost2010Prop48
 90
       50
102
RTVSPost2010PropOp48
 70
     1
102
RTVSPost2010Prop49
280
     0
102
RTVSPost2010PropOp49
 70
     1
102
RTVSPost2010Prop50
 90
       50
102
RTVSPost2010PropOp50
 70
     1
102
RTVSPost2010Prop51ColorIndex
 90
      256
102
RTVSPost2010Prop51ColorRGB
 90
-16777216
102
RTVSPost2010PropOp51
 70
     0
102
RTVSPost2010Prop52
140
1.0
102
RTVSPost2010PropOp52
 70
     0
102
RTVSPost2010Prop53
 90
        2
102
RTVSPost2010PropOp53
 70
     1
102
RTVSPost2010Prop54
  1
strokes_ogs.tif
102
RTVSPost2010PropOp54
 70
     1
102
RTVSPost2010Prop55
280
     0
102
RTVSPost2010PropOp55
 70
     1
102
RTVSPost2010Prop56
140
1.0
102
RTVSPost2010PropOp56
 70
     1
102
RTVSPost2010Prop57
140
1.0
102
RTVSPost2010PropOp57
 70
     1
102
RTVSPropertyOp0
 70
     1
102
RTVSPropertyOp1
 70
     1
102
RTVSPropertyOp2
 70
     1
102
RTVSPropertyOp3
 70
     1
102
RTVSPropertyOp4
 70
     1
102
RTVSPropertyOp5
 70
     1
102
RTVSPropertyOp6
 70
     1
102
RTVSPropertyOp7
 70
     1
102
RTVSPropertyOp8
 70
     1
102
RTVSPropertyOp9
 70
     1
102
RTVSPropertyOp10
 70
     1
102
RTVSPropertyOp11
 70
     1
102
RTVSPropertyOp12
 70
     1
102
RTVSPropertyOp13
 70
     1
102
RTVSPropertyOp14
 70
     1
102
RTVSPropertyOp15
 70
     1
102
RTVSPropertyOp16
 70
     1
102
RTVSPropertyOp17
 70
     1
102
RTVSPropertyOp18
 70
     1
102
RTVSPropertyOp19
 70
     1
102
RTVSPropertyOp20
 70
     1
102
RTVSPropertyOp21
 70
     1
102
RTVSPropertyOp22
 70
     1
102
RTVSPropertyOp23
 70
     1
102
RTVSPropertyOp24
 70
     1
102
RTVSPropertyOp25
 70
     1
102
RTVSPropertyOp26
 70
     1
102
RTVSPropertyOp27
 70
     1
102
RTVSPropertyOp28
 70
     1
102
RTVSPropertyOp29
 70
     1
102
RTVSPropertyOp30
 70
     1
102
RTVSPropertyOp31
 70
     1
102
RTVSPropertyOp32
 70
     1
102
RTVSPropertyOp33
 70
     1
102
RTVSPropertyOp34
 70
     1
102
RTVSPropertyOp35
 70
     1
102
RTVSPropertyOp36
 70
     1
102
RTVSPropertyOp37
 70
     1
102
RTVSPropertyOp38
 70
     1
102
RTVSPropertyOp39
 70
     1
102
RTVSPropertyOp40
 70
     1
102
RTVSPropertyOp41
 70
     1
102
RTVSPropertyOp42
 70
     1
102
RTVSPropertyOp43
 70
     1
102
RTVSPropertyOp44
 70
     1
102
RTVSPropertyOp45
 70
     1
102
RTVSPropertyOp46
 70
     1
102
RTVSPropertyOp47
 70
     1
102
RTVSPropertyOp48
 70
     1
102
RTVSPropertyOp49
 70
     1
102
RTVSPropertyOp50
 70
     1
102
RTVSPropertyOp51
 70
     0
102
RTVSPropertyOp52
 70
     0
102
RTVSPropertyOp53
 70
     1
102
RTVSPropertyOp54
 70
     1
102
RTVSPropertyOp55
 70
     1
102
RTVSPropertyOp56
 70
     1
102
RTVSPropertyOp57
 70
     1
102
RTVSPropertyOp58
 70
     1
102
RTVSPropertyOp59
 70
     1
102
RTVSPropertyOp60
 70
     1
102
RTVSPropertyOp61
 70
     1
102
RTVSPropertyOp62
 70
     1
  0
XRECORD
  5
2717
102
{ACAD_REACTORS
330
2716
102
}
330
2716
100
AcDbXrecord
280
     1
102
RTVSPost2010Prop28
280
     0
102
RTVSPost2010PropOp28
 70
     0
102
RTVSPost2010Prop29
280
     1
102
RTVSPost2010PropOp29
 70
     0
102
RTVSPost2010Prop30
280
     1
102
RTVSPost2010PropOp30
 70
     0
102
RTVSPost2010Prop31
280
     0
102
RTVSPost2010PropOp31
 70
     0
102
RTVSPost2010Prop32
280
     0
102
RTVSPost2010PropOp32
 70
     0
102
RTVSPost2010Prop33
280
     0
102
RTVSPost2010PropOp33
 70
     0
102
RTVSPost2010Prop34
280
     0
102
RTVSPost2010PropOp34
 70
     0
102
RTVSPost2010Prop35
280
     0
102
RTVSPost2010PropOp35
 70
     0
102
RTVSPost2010Prop36
280
     0
102
RTVSPost2010PropOp36
 70
     0
102
RTVSPost2010Prop37
 90
       50
102
RTVSPost2010PropOp37
 70
     0
102
RTVSPost2010Prop38
140
0.0
102
RTVSPost2010PropOp38
 70
     0
102
RTVSPost2010Prop39
140
1.0
102
RTVSPost2010PropOp39
 70
     0
102
RTVSPost2010Prop40
 90
        0
102
RTVSPost2010PropOp40
 70
     0
102
RTVSPost2010Prop41ColorIndex
 90
       18
102
RTVSPost2010Prop41ColorRGB
 90
        0
102
RTVSPost2010PropOp41
 70
     0
102
RTVSPost2010Prop42
 90
       50
102
RTVSPost2010PropOp42
 70
     0
102
RTVSPost2010Prop43
 90
        3
102
RTVSPost2010PropOp43
 70
     0
102
RTVSPost2010Prop44ColorIndex
 90
        5
102
RTVSPost2010Prop44ColorRGB
 90
      255
102
RTVSPost2010PropOp44
 70
     0
102
RTVSPost2010Prop45
280
     0
102
RTVSPost2010PropOp45
 70
     0
102
RTVSPost2010Prop46
 90
       50
102
RTVSPost2010PropOp46
 70
     0
102
RTVSPost2010Prop47
 90
       50
102
RTVSPost2010PropOp47
 70
     0
102
RTVSPost2010Prop48
 90
       50
102
RTVSPost2010PropOp48
 70
     0
102
RTVSPost2010Prop49
280
     0
102
RTVSPost2010PropOp49
 70
     0
102
RTVSPost2010Prop50
 90
       50
102
RTVSPost2010PropOp50
 70
     0
102
RTVSPost2010Prop51ColorIndex
 90
      256
102
RTVSPost2010Prop51ColorRGB
 90
-16777216
102
RTVSPost2010PropOp51
 70
     0
102
RTVSPost2010Prop52
140
1.0
102
RTVSPost2010PropOp52
 70
     0
102
RTVSPost2010Prop53
 90
        2
102
RTVSPost2010PropOp53
 70
     0
102
RTVSPost2010Prop54
  1
strokes_ogs.tif
102
RTVSPost2010PropOp54
 70
     0
102
RTVSPost2010Prop55
280
     0
102
RTVSPost2010PropOp55
 70
     0
102
RTVSPost2010Prop56
140
1.0
102
RTVSPost2010PropOp56
 70
     0
102
RTVSPost2010Prop57
140
1.0
102
RTVSPost2010PropOp57
 70
     0
102
RTVSPropertyOp0
 70
     0
102
RTVSPropertyOp1
 70
     0
102
RTVSPropertyOp2
 70
     0
102
RTVSPropertyOp3
 70
     0
102
RTVSPropertyOp4
 70
     0
102
RTVSPropertyOp5
 70
     0
102
RTVSPropertyOp6
 70
     0
102
RTVSPropertyOp7
 70
     0
102
RTVSPropertyOp8
 70
     0
102
RTVSPropertyOp9
 70
     0
102
RTVSPropertyOp10
 70
     0
102
RTVSPropertyOp11
 70
     0
102
RTVSPropertyOp12
 70
     0
102
RTVSPropertyOp13
 70
     0
102
RTVSPropertyOp14
 70
     2
102
RTVSPropertyOp15
 70
     0
102
RTVSPropertyOp16
 70
     0
102
RTVSPropertyOp17
 70
     0
102
RTVSPropertyOp18
 70
     0
102
RTVSPropertyOp19
 70
     0
102
RTVSPropertyOp20
 70
     0
102
RTVSPropertyOp21
 70
     0
102
RTVSPropertyOp22
 70
     0
102
RTVSPropertyOp23
 70
     0
102
RTVSPropertyOp24
 70
     0
102
RTVSPropertyOp25
 70
     0
102
RTVSPropertyOp26
 70
     0
102
RTVSPropertyOp27
 70
     0
102
RTVSPropertyOp28
 70
     0
102
RTVSPropertyOp29
 70
     0
102
RTVSPropertyOp30
 70
     0
102
RTVSPropertyOp31
 70
     0
102
RTVSPropertyOp32
 70
     0
102
RTVSPropertyOp33
 70
     0
102
RTVSPropertyOp34
 70
     0
102
RTVSPropertyOp35
 70
     0
102
RTVSPropertyOp36
 70
     0
102
RTVSPropertyOp37
 70
     0
102
RTVSPropertyOp38
 70
     0
102
RTVSPropertyOp39
 70
     0
102
RTVSPropertyOp40
 70
     0
102
RTVSPropertyOp41
 70
     0
102
RTVSPropertyOp42
 70
     0
102
RTVSPropertyOp43
 70
     0
102
RTVSPropertyOp44
 70
     0
102
RTVSPropertyOp45
 70
     0
102
RTVSPropertyOp46
 70
     0
102
RTVSPropertyOp47
 70
     0
102
RTVSPropertyOp48
 70
     0
102
RTVSPropertyOp49
 70
     0
102
RTVSPropertyOp50
 70
     0
102
RTVSPropertyOp51
 70
     0
102
RTVSPropertyOp52
 70
     0
102
RTVSPropertyOp53
 70
     0
102
RTVSPropertyOp54
 70
     0
102
RTVSPropertyOp55
 70
     0
102
RTVSPropertyOp56
 70
     0
102
RTVSPropertyOp57
 70
     0
102
RTVSPropertyOp58
 70
     0
102
RTVSPropertyOp59
 70
     0
102
RTVSPropertyOp60
 70
     0
102
RTVSPropertyOp61
 70
     0
102
RTVSPropertyOp62
 70
     0
  0
XRECORD
  5
26FD
102
{ACAD_REACTORS
330
26FC
102
}
330
26FC
100
AcDbXrecord
280
     1
102
RTVSPost2010Prop28
280
     0
102
RTVSPost2010PropOp28
 70
     1
102
RTVSPost2010Prop29
280
     1
102
RTVSPost2010PropOp29
 70
     1
102
RTVSPost2010Prop30
280
     1
102
RTVSPost2010PropOp30
 70
     1
102
RTVSPost2010Prop31
280
     0
102
RTVSPost2010PropOp31
 70
     1
102
RTVSPost2010Prop32
280
     0
102
RTVSPost2010PropOp32
 70
     1
102
RTVSPost2010Prop33
280
     0
102
RTVSPost2010PropOp33
 70
     1
102
RTVSPost2010Prop34
280
     0
102
RTVSPost2010PropOp34
 70
     1
102
RTVSPost2010Prop35
280
     0
102
RTVSPost2010PropOp35
 70
     1
102
RTVSPost2010Prop36
280
     0
102
RTVSPost2010PropOp36
 70
     1
102
RTVSPost2010Prop37
 90
       50
102
RTVSPost2010PropOp37
 70
     1
102
RTVSPost2010Prop38
140
0.0
102
RTVSPost2010PropOp38
 70
     1
102
RTVSPost2010Prop39
140
1.0
102
RTVSPost2010PropOp39
 70
     1
102
RTVSPost2010Prop40
 90
        0
102
RTVSPost2010PropOp40
 70
     1
102
RTVSPost2010Prop41ColorIndex
 90
       18
102
RTVSPost2010Prop41ColorRGB
 90
        0
102
RTVSPost2010PropOp41
 70
     1
102
RTVSPost2010Prop42
 90
       50
102
RTVSPost2010PropOp42
 70
     1
102
RTVSPost2010Prop43
 90
        3
102
RTVSPost2010PropOp43
 70
     1
102
RTVSPost2010Prop44ColorIndex
 90
        5
102
RTVSPost2010Prop44ColorRGB
 90
      255
102
RTVSPost2010PropOp44
 70
     1
102
RTVSPost2010Prop45
280
     0
102
RTVSPost2010PropOp45
 70
     1
102
RTVSPost2010Prop46
 90
       50
102
RTVSPost2010PropOp46
 70
     1
102
RTVSPost2010Prop47
 90
       50
102
RTVSPost2010PropOp47
 70
     1
102
RTVSPost2010Prop48
 90
       50
102
RTVSPost2010PropOp48
 70
     1
102
RTVSPost2010Prop49
280
     0
102
RTVSPost2010PropOp49
 70
     1
102
RTVSPost2010Prop50
 90
       50
102
RTVSPost2010PropOp50
 70
     1
102
RTVSPost2010Prop51ColorIndex
 90
      256
102
RTVSPost2010Prop51ColorRGB
 90
-16777216
102
RTVSPost2010PropOp51
 70
     0
102
RTVSPost2010Prop52
140
1.0
102
RTVSPost2010PropOp52
 70
     0
102
RTVSPost2010Prop53
 90
        2
102
RTVSPost2010PropOp53
 70
     1
102
RTVSPost2010Prop54
  1
strokes_ogs.tif
102
RTVSPost2010PropOp54
 70
     1
102
RTVSPost2010Prop55
280
     0
102
RTVSPost2010PropOp55
 70
     1
102
RTVSPost2010Prop56
140
1.0
102
RTVSPost2010PropOp56
 70
     1
102
RTVSPost2010Prop57
140
1.0
102
RTVSPost2010PropOp57
 70
     1
102
RTVSPropertyOp0
 70
     1
102
RTVSPropertyOp1
 70
     1
102
RTVSPropertyOp2
 70
     1
102
RTVSPropertyOp3
 70
     1
102
RTVSPropertyOp4
 70
     1
102
RTVSPropertyOp5
 70
     1
102
RTVSPropertyOp6
 70
     1
102
RTVSPropertyOp7
 70
     1
102
RTVSPropertyOp8
 70
     1
102
RTVSPropertyOp9
 70
     1
102
RTVSPropertyOp10
 70
     1
102
RTVSPropertyOp11
 70
     1
102
RTVSPropertyOp12
 70
     1
102
RTVSPropertyOp13
 70
     1
102
RTVSPropertyOp14
 70
     1
102
RTVSPropertyOp15
 70
     1
102
RTVSPropertyOp16
 70
     1
102
RTVSPropertyOp17
 70
     1
102
RTVSPropertyOp18
 70
     1
102
RTVSPropertyOp19
 70
     1
102
RTVSPropertyOp20
 70
     1
102
RTVSPropertyOp21
 70
     1
102
RTVSPropertyOp22
 70
     1
102
RTVSPropertyOp23
 70
     1
102
RTVSPropertyOp24
 70
     1
102
RTVSPropertyOp25
 70
     1
102
RTVSPropertyOp26
 70
     1
102
RTVSPropertyOp27
 70
     1
102
RTVSPropertyOp28
 70
     1
102
RTVSPropertyOp29
 70
     1
102
RTVSPropertyOp30
 70
     1
102
RTVSPropertyOp31
 70
     1
102
RTVSPropertyOp32
 70
     1
102
RTVSPropertyOp33
 70
     1
102
RTVSPropertyOp34
 70
     1
102
RTVSPropertyOp35
 70
     1
102
RTVSPropertyOp36
 70
     1
102
RTVSPropertyOp37
 70
     1
102
RTVSPropertyOp38
 70
     1
102
RTVSPropertyOp39
 70
     1
102
RTVSPropertyOp40
 70
     1
102
RTVSPropertyOp41
 70
     1
102
RTVSPropertyOp42
 70
     1
102
RTVSPropertyOp43
 70
     1
102
RTVSPropertyOp44
 70
     1
102
RTVSPropertyOp45
 70
     1
102
RTVSPropertyOp46
 70
     1
102
RTVSPropertyOp47
 70
     1
102
RTVSPropertyOp48
 70
     1
102
RTVSPropertyOp49
 70
     1
102
RTVSPropertyOp50
 70
     1
102
RTVSPropertyOp51
 70
     0
102
RTVSPropertyOp52
 70
     0
102
RTVSPropertyOp53
 70
     1
102
RTVSPropertyOp54
 70
     1
102
RTVSPropertyOp55
 70
     1
102
RTVSPropertyOp56
 70
     1
102
RTVSPropertyOp57
 70
     1
102
RTVSPropertyOp58
 70
     1
102
RTVSPropertyOp59
 70
     1
102
RTVSPropertyOp60
 70
     1
102
RTVSPropertyOp61
 70
     1
102
RTVSPropertyOp62
 70
     1
  0
XRECORD
  5
2713
102
{ACAD_REACTORS
330
2712
102
}
330
2712
100
AcDbXrecord
280
     1
102
RTVSPost2010Prop28
280
     0
102
RTVSPost2010PropOp28
 70
     1
102
RTVSPost2010Prop29
280
     1
102
RTVSPost2010PropOp29
 70
     1
102
RTVSPost2010Prop30
280
     1
102
RTVSPost2010PropOp30
 70
     1
102
RTVSPost2010Prop31
280
     0
102
RTVSPost2010PropOp31
 70
     1
102
RTVSPost2010Prop32
280
     0
102
RTVSPost2010PropOp32
 70
     1
102
RTVSPost2010Prop33
280
     0
102
RTVSPost2010PropOp33
 70
     1
102
RTVSPost2010Prop34
280
     0
102
RTVSPost2010PropOp34
 70
     1
102
RTVSPost2010Prop35
280
     0
102
RTVSPost2010PropOp35
 70
     1
102
RTVSPost2010Prop36
280
     0
102
RTVSPost2010PropOp36
 70
     1
102
RTVSPost2010Prop37
 90
       50
102
RTVSPost2010PropOp37
 70
     1
102
RTVSPost2010Prop38
140
0.0
102
RTVSPost2010PropOp38
 70
     1
102
RTVSPost2010Prop39
140
1.0
102
RTVSPost2010PropOp39
 70
     1
102
RTVSPost2010Prop40
 90
        0
102
RTVSPost2010PropOp40
 70
     1
102
RTVSPost2010Prop41ColorIndex
 90
       18
102
RTVSPost2010Prop41ColorRGB
 90
        0
102
RTVSPost2010PropOp41
 70
     1
102
RTVSPost2010Prop42
 90
       50
102
RTVSPost2010PropOp42
 70
     1
102
RTVSPost2010Prop43
 90
        3
102
RTVSPost2010PropOp43
 70
     1
102
RTVSPost2010Prop44ColorIndex
 90
        5
102
RTVSPost2010Prop44ColorRGB
 90
      255
102
RTVSPost2010PropOp44
 70
     1
102
RTVSPost2010Prop45
280
     0
102
RTVSPost2010PropOp45
 70
     1
102
RTVSPost2010Prop46
 90
       50
102
RTVSPost2010PropOp46
 70
     1
102
RTVSPost2010Prop47
 90
       50
102
RTVSPost2010PropOp47
 70
     1
102
RTVSPost2010Prop48
 90
       50
102
RTVSPost2010PropOp48
 70
     1
102
RTVSPost2010Prop49
280
     0
102
RTVSPost2010PropOp49
 70
     1
102
RTVSPost2010Prop50
 90
       50
102
RTVSPost2010PropOp50
 70
     1
102
RTVSPost2010Prop51ColorIndex
 90
      256
102
RTVSPost2010Prop51ColorRGB
 90
-16777216
102
RTVSPost2010PropOp51
 70
     0
102
RTVSPost2010Prop52
140
1.0
102
RTVSPost2010PropOp52
 70
     0
102
RTVSPost2010Prop53
 90
        2
102
RTVSPost2010PropOp53
 70
     1
102
RTVSPost2010Prop54
  1
strokes_ogs.tif
102
RTVSPost2010PropOp54
 70
     1
102
RTVSPost2010Prop55
280
     0
102
RTVSPost2010PropOp55
 70
     1
102
RTVSPost2010Prop56
140
1.0
102
RTVSPost2010PropOp56
 70
     1
102
RTVSPost2010Prop57
140
1.0
102
RTVSPost2010PropOp57
 70
     1
102
RTVSPropertyOp0
 70
     1
102
RTVSPropertyOp1
 70
     1
102
RTVSPropertyOp2
 70
     1
102
RTVSPropertyOp3
 70
     1
102
RTVSPropertyOp4
 70
     1
102
RTVSPropertyOp5
 70
     1
102
RTVSPropertyOp6
 70
     1
102
RTVSPropertyOp7
 70
     1
102
RTVSPropertyOp8
 70
     1
102
RTVSPropertyOp9
 70
     1
102
RTVSPropertyOp10
 70
     1
102
RTVSPropertyOp11
 70
     1
102
RTVSPropertyOp12
 70
     1
102
RTVSPropertyOp13
 70
     1
102
RTVSPropertyOp14
 70
     1
102
RTVSPropertyOp15
 70
     1
102
RTVSPropertyOp16
 70
     1
102
RTVSPropertyOp17
 70
     1
102
RTVSPropertyOp18
 70
     1
102
RTVSPropertyOp19
 70
     1
102
RTVSPropertyOp20
 70
     1
102
RTVSPropertyOp21
 70
     1
102
RTVSPropertyOp22
 70
     1
102
RTVSPropertyOp23
 70
     1
102
RTVSPropertyOp24
 70
     1
102
RTVSPropertyOp25
 70
     1
102
RTVSPropertyOp26
 70
     1
102
RTVSPropertyOp27
 70
     1
102
RTVSPropertyOp28
 70
     1
102
RTVSPropertyOp29
 70
     1
102
RTVSPropertyOp30
 70
     1
102
RTVSPropertyOp31
 70
     1
102
RTVSPropertyOp32
 70
     1
102
RTVSPropertyOp33
 70
     1
102
RTVSPropertyOp34
 70
     1
102
RTVSPropertyOp35
 70
     1
102
RTVSPropertyOp36
 70
     1
102
RTVSPropertyOp37
 70
     1
102
RTVSPropertyOp38
 70
     1
102
RTVSPropertyOp39
 70
     1
102
RTVSPropertyOp40
 70
     1
102
RTVSPropertyOp41
 70
     1
102
RTVSPropertyOp42
 70
     1
102
RTVSPropertyOp43
 70
     1
102
RTVSPropertyOp44
 70
     1
102
RTVSPropertyOp45
 70
     1
102
RTVSPropertyOp46
 70
     1
102
RTVSPropertyOp47
 70
     1
102
RTVSPropertyOp48
 70
     1
102
RTVSPropertyOp49
 70
     1
102
RTVSPropertyOp50
 70
     1
102
RTVSPropertyOp51
 70
     0
102
RTVSPropertyOp52
 70
     0
102
RTVSPropertyOp53
 70
     1
102
RTVSPropertyOp54
 70
     1
102
RTVSPropertyOp55
 70
     1
102
RTVSPropertyOp56
 70
     1
102
RTVSPropertyOp57
 70
     1
102
RTVSPropertyOp58
 70
     1
102
RTVSPropertyOp59
 70
     1
102
RTVSPropertyOp60
 70
     1
102
RTVSPropertyOp61
 70
     1
102
RTVSPropertyOp62
 70
     1
  0
XRECORD
  5
2711
102
{ACAD_REACTORS
330
2710
102
}
330
2710
100
AcDbXrecord
280
     1
102
RTVSPost2010Prop28
280
     0
102
RTVSPost2010PropOp28
 70
     1
102
RTVSPost2010Prop29
280
     1
102
RTVSPost2010PropOp29
 70
     1
102
RTVSPost2010Prop30
280
     1
102
RTVSPost2010PropOp30
 70
     1
102
RTVSPost2010Prop31
280
     0
102
RTVSPost2010PropOp31
 70
     1
102
RTVSPost2010Prop32
280
     0
102
RTVSPost2010PropOp32
 70
     1
102
RTVSPost2010Prop33
280
     0
102
RTVSPost2010PropOp33
 70
     1
102
RTVSPost2010Prop34
280
     0
102
RTVSPost2010PropOp34
 70
     1
102
RTVSPost2010Prop35
280
     0
102
RTVSPost2010PropOp35
 70
     1
102
RTVSPost2010Prop36
280
     0
102
RTVSPost2010PropOp36
 70
     1
102
RTVSPost2010Prop37
 90
       50
102
RTVSPost2010PropOp37
 70
     1
102
RTVSPost2010Prop38
140
0.0
102
RTVSPost2010PropOp38
 70
     1
102
RTVSPost2010Prop39
140
1.0
102
RTVSPost2010PropOp39
 70
     1
102
RTVSPost2010Prop40
 90
        0
102
RTVSPost2010PropOp40
 70
     1
102
RTVSPost2010Prop41ColorIndex
 90
       18
102
RTVSPost2010Prop41ColorRGB
 90
        0
102
RTVSPost2010PropOp41
 70
     1
102
RTVSPost2010Prop42
 90
       50
102
RTVSPost2010PropOp42
 70
     1
102
RTVSPost2010Prop43
 90
        3
102
RTVSPost2010PropOp43
 70
     1
102
RTVSPost2010Prop44ColorIndex
 90
        5
102
RTVSPost2010Prop44ColorRGB
 90
      255
102
RTVSPost2010PropOp44
 70
     1
102
RTVSPost2010Prop45
280
     0
102
RTVSPost2010PropOp45
 70
     1
102
RTVSPost2010Prop46
 90
       50
102
RTVSPost2010PropOp46
 70
     1
102
RTVSPost2010Prop47
 90
       50
102
RTVSPost2010PropOp47
 70
     1
102
RTVSPost2010Prop48
 90
       50
102
RTVSPost2010PropOp48
 70
     1
102
RTVSPost2010Prop49
280
     0
102
RTVSPost2010PropOp49
 70
     1
102
RTVSPost2010Prop50
 90
       50
102
RTVSPost2010PropOp50
 70
     1
102
RTVSPost2010Prop51ColorIndex
 90
      256
102
RTVSPost2010Prop51ColorRGB
 90
-16777216
102
RTVSPost2010PropOp51
 70
     0
102
RTVSPost2010Prop52
140
1.0
102
RTVSPost2010PropOp52
 70
     0
102
RTVSPost2010Prop53
 90
        2
102
RTVSPost2010PropOp53
 70
     1
102
RTVSPost2010Prop54
  1
strokes_ogs.tif
102
RTVSPost2010PropOp54
 70
     1
102
RTVSPost2010Prop55
280
     0
102
RTVSPost2010PropOp55
 70
     1
102
RTVSPost2010Prop56
140
1.0
102
RTVSPost2010PropOp56
 70
     1
102
RTVSPost2010Prop57
140
1.0
102
RTVSPost2010PropOp57
 70
     1
102
RTVSPropertyOp0
 70
     1
102
RTVSPropertyOp1
 70
     1
102
RTVSPropertyOp2
 70
     1
102
RTVSPropertyOp3
 70
     1
102
RTVSPropertyOp4
 70
     1
102
RTVSPropertyOp5
 70
     1
102
RTVSPropertyOp6
 70
     1
102
RTVSPropertyOp7
 70
     1
102
RTVSPropertyOp8
 70
     1
102
RTVSPropertyOp9
 70
     1
102
RTVSPropertyOp10
 70
     1
102
RTVSPropertyOp11
 70
     1
102
RTVSPropertyOp12
 70
     1
102
RTVSPropertyOp13
 70
     1
102
RTVSPropertyOp14
 70
     1
102
RTVSPropertyOp15
 70
     1
102
RTVSPropertyOp16
 70
     1
102
RTVSPropertyOp17
 70
     1
102
RTVSPropertyOp18
 70
     1
102
RTVSPropertyOp19
 70
     1
102
RTVSPropertyOp20
 70
     1
102
RTVSPropertyOp21
 70
     1
102
RTVSPropertyOp22
 70
     1
102
RTVSPropertyOp23
 70
     1
102
RTVSPropertyOp24
 70
     1
102
RTVSPropertyOp25
 70
     1
102
RTVSPropertyOp26
 70
     1
102
RTVSPropertyOp27
 70
     1
102
RTVSPropertyOp28
 70
     1
102
RTVSPropertyOp29
 70
     1
102
RTVSPropertyOp30
 70
     1
102
RTVSPropertyOp31
 70
     1
102
RTVSPropertyOp32
 70
     1
102
RTVSPropertyOp33
 70
     1
102
RTVSPropertyOp34
 70
     1
102
RTVSPropertyOp35
 70
     1
102
RTVSPropertyOp36
 70
     1
102
RTVSPropertyOp37
 70
     1
102
RTVSPropertyOp38
 70
     1
102
RTVSPropertyOp39
 70
     1
102
RTVSPropertyOp40
 70
     1
102
RTVSPropertyOp41
 70
     1
102
RTVSPropertyOp42
 70
     1
102
RTVSPropertyOp43
 70
     1
102
RTVSPropertyOp44
 70
     1
102
RTVSPropertyOp45
 70
     1
102
RTVSPropertyOp46
 70
     1
102
RTVSPropertyOp47
 70
     1
102
RTVSPropertyOp48
 70
     1
102
RTVSPropertyOp49
 70
     1
102
RTVSPropertyOp50
 70
     1
102
RTVSPropertyOp51
 70
     0
102
RTVSPropertyOp52
 70
     0
102
RTVSPropertyOp53
 70
     1
102
RTVSPropertyOp54
 70
     1
102
RTVSPropertyOp55
 70
     1
102
RTVSPropertyOp56
 70
     1
102
RTVSPropertyOp57
 70
     1
102
RTVSPropertyOp58
 70
     1
102
RTVSPropertyOp59
 70
     1
102
RTVSPropertyOp60
 70
     1
102
RTVSPropertyOp61
 70
     1
102
RTVSPropertyOp62
 70
     1
  0
XRECORD
  5
270B
102
{ACAD_REACTORS
330
270A
102
}
330
270A
100
AcDbXrecord
280
     1
102
RTVSPost2010Prop28
280
     0
102
RTVSPost2010PropOp28
 70
     1
102
RTVSPost2010Prop29
280
     1
102
RTVSPost2010PropOp29
 70
     1
102
RTVSPost2010Prop30
280
     1
102
RTVSPost2010PropOp30
 70
     1
102
RTVSPost2010Prop31
280
     0
102
RTVSPost2010PropOp31
 70
     1
102
RTVSPost2010Prop32
280
     0
102
RTVSPost2010PropOp32
 70
     1
102
RTVSPost2010Prop33
280
     0
102
RTVSPost2010PropOp33
 70
     1
102
RTVSPost2010Prop34
280
     0
102
RTVSPost2010PropOp34
 70
     1
102
RTVSPost2010Prop35
280
     0
102
RTVSPost2010PropOp35
 70
     1
102
RTVSPost2010Prop36
280
     0
102
RTVSPost2010PropOp36
 70
     1
102
RTVSPost2010Prop37
 90
       50
102
RTVSPost2010PropOp37
 70
     1
102
RTVSPost2010Prop38
140
0.0
102
RTVSPost2010PropOp38
 70
     1
102
RTVSPost2010Prop39
140
1.0
102
RTVSPost2010PropOp39
 70
     1
102
RTVSPost2010Prop40
 90
        0
102
RTVSPost2010PropOp40
 70
     1
102
RTVSPost2010Prop41ColorIndex
 90
       18
102
RTVSPost2010Prop41ColorRGB
 90
        0
102
RTVSPost2010PropOp41
 70
     1
102
RTVSPost2010Prop42
 90
       50
102
RTVSPost2010PropOp42
 70
     1
102
RTVSPost2010Prop43
 90
        3
102
RTVSPost2010PropOp43
 70
     1
102
RTVSPost2010Prop44ColorIndex
 90
        5
102
RTVSPost2010Prop44ColorRGB
 90
      255
102
RTVSPost2010PropOp44
 70
     1
102
RTVSPost2010Prop45
280
     0
102
RTVSPost2010PropOp45
 70
     1
102
RTVSPost2010Prop46
 90
       50
102
RTVSPost2010PropOp46
 70
     1
102
RTVSPost2010Prop47
 90
       50
102
RTVSPost2010PropOp47
 70
     1
102
RTVSPost2010Prop48
 90
       50
102
RTVSPost2010PropOp48
 70
     1
102
RTVSPost2010Prop49
280
     0
102
RTVSPost2010PropOp49
 70
     1
102
RTVSPost2010Prop50
 90
       50
102
RTVSPost2010PropOp50
 70
     1
102
RTVSPost2010Prop51ColorIndex
 90
      256
102
RTVSPost2010Prop51ColorRGB
 90
-16777216
102
RTVSPost2010PropOp51
 70
     0
102
RTVSPost2010Prop52
140
1.0
102
RTVSPost2010PropOp52
 70
     0
102
RTVSPost2010Prop53
 90
        2
102
RTVSPost2010PropOp53
 70
     1
102
RTVSPost2010Prop54
  1
strokes_ogs.tif
102
RTVSPost2010PropOp54
 70
     1
102
RTVSPost2010Prop55
280
     0
102
RTVSPost2010PropOp55
 70
     1
102
RTVSPost2010Prop56
140
1.0
102
RTVSPost2010PropOp56
 70
     1
102
RTVSPost2010Prop57
140
1.0
102
RTVSPost2010PropOp57
 70
     1
102
RTVSPropertyOp0
 70
     1
102
RTVSPropertyOp1
 70
     1
102
RTVSPropertyOp2
 70
     1
102
RTVSPropertyOp3
 70
     1
102
RTVSPropertyOp4
 70
     1
102
RTVSPropertyOp5
 70
     1
102
RTVSPropertyOp6
 70
     1
102
RTVSPropertyOp7
 70
     1
102
RTVSPropertyOp8
 70
     1
102
RTVSPropertyOp9
 70
     1
102
RTVSPropertyOp10
 70
     1
102
RTVSPropertyOp11
 70
     1
102
RTVSPropertyOp12
 70
     1
102
RTVSPropertyOp13
 70
     1
102
RTVSPropertyOp14
 70
     1
102
RTVSPropertyOp15
 70
     1
102
RTVSPropertyOp16
 70
     1
102
RTVSPropertyOp17
 70
     1
102
RTVSPropertyOp18
 70
     1
102
RTVSPropertyOp19
 70
     1
102
RTVSPropertyOp20
 70
     1
102
RTVSPropertyOp21
 70
     1
102
RTVSPropertyOp22
 70
     1
102
RTVSPropertyOp23
 70
     1
102
RTVSPropertyOp24
 70
     1
102
RTVSPropertyOp25
 70
     1
102
RTVSPropertyOp26
 70
     1
102
RTVSPropertyOp27
 70
     1
102
RTVSPropertyOp28
 70
     1
102
RTVSPropertyOp29
 70
     1
102
RTVSPropertyOp30
 70
     1
102
RTVSPropertyOp31
 70
     1
102
RTVSPropertyOp32
 70
     1
102
RTVSPropertyOp33
 70
     1
102
RTVSPropertyOp34
 70
     1
102
RTVSPropertyOp35
 70
     1
102
RTVSPropertyOp36
 70
     1
102
RTVSPropertyOp37
 70
     1
102
RTVSPropertyOp38
 70
     1
102
RTVSPropertyOp39
 70
     1
102
RTVSPropertyOp40
 70
     1
102
RTVSPropertyOp41
 70
     1
102
RTVSPropertyOp42
 70
     1
102
RTVSPropertyOp43
 70
     1
102
RTVSPropertyOp44
 70
     1
102
RTVSPropertyOp45
 70
     1
102
RTVSPropertyOp46
 70
     1
102
RTVSPropertyOp47
 70
     1
102
RTVSPropertyOp48
 70
     1
102
RTVSPropertyOp49
 70
     1
102
RTVSPropertyOp50
 70
     1
102
RTVSPropertyOp51
 70
     0
102
RTVSPropertyOp52
 70
     0
102
RTVSPropertyOp53
 70
     1
102
RTVSPropertyOp54
 70
     1
102
RTVSPropertyOp55
 70
     1
102
RTVSPropertyOp56
 70
     1
102
RTVSPropertyOp57
 70
     1
102
RTVSPropertyOp58
 70
     1
102
RTVSPropertyOp59
 70
     1
102
RTVSPropertyOp60
 70
     1
102
RTVSPropertyOp61
 70
     1
102
RTVSPropertyOp62
 70
     1
  0
XRECORD
  5
270D
102
{ACAD_REACTORS
330
270C
102
}
330
270C
100
AcDbXrecord
280
     1
102
RTVSPost2010Prop28
280
     0
102
RTVSPost2010PropOp28
 70
     1
102
RTVSPost2010Prop29
280
     1
102
RTVSPost2010PropOp29
 70
     1
102
RTVSPost2010Prop30
280
     1
102
RTVSPost2010PropOp30
 70
     1
102
RTVSPost2010Prop31
280
     0
102
RTVSPost2010PropOp31
 70
     1
102
RTVSPost2010Prop32
280
     0
102
RTVSPost2010PropOp32
 70
     1
102
RTVSPost2010Prop33
280
     0
102
RTVSPost2010PropOp33
 70
     1
102
RTVSPost2010Prop34
280
     0
102
RTVSPost2010PropOp34
 70
     1
102
RTVSPost2010Prop35
280
     0
102
RTVSPost2010PropOp35
 70
     1
102
RTVSPost2010Prop36
280
     0
102
RTVSPost2010PropOp36
 70
     1
102
RTVSPost2010Prop37
 90
       50
102
RTVSPost2010PropOp37
 70
     1
102
RTVSPost2010Prop38
140
0.0
102
RTVSPost2010PropOp38
 70
     1
102
RTVSPost2010Prop39
140
1.0
102
RTVSPost2010PropOp39
 70
     1
102
RTVSPost2010Prop40
 90
        0
102
RTVSPost2010PropOp40
 70
     1
102
RTVSPost2010Prop41ColorIndex
 90
       18
102
RTVSPost2010Prop41ColorRGB
 90
        0
102
RTVSPost2010PropOp41
 70
     1
102
RTVSPost2010Prop42
 90
       50
102
RTVSPost2010PropOp42
 70
     1
102
RTVSPost2010Prop43
 90
        3
102
RTVSPost2010PropOp43
 70
     1
102
RTVSPost2010Prop44ColorIndex
 90
        5
102
RTVSPost2010Prop44ColorRGB
 90
      255
102
RTVSPost2010PropOp44
 70
     1
102
RTVSPost2010Prop45
280
     0
102
RTVSPost2010PropOp45
 70
     1
102
RTVSPost2010Prop46
 90
       50
102
RTVSPost2010PropOp46
 70
     1
102
RTVSPost2010Prop47
 90
       50
102
RTVSPost2010PropOp47
 70
     1
102
RTVSPost2010Prop48
 90
       50
102
RTVSPost2010PropOp48
 70
     1
102
RTVSPost2010Prop49
280
     0
102
RTVSPost2010PropOp49
 70
     1
102
RTVSPost2010Prop50
 90
       50
102
RTVSPost2010PropOp50
 70
     1
102
RTVSPost2010Prop51ColorIndex
 90
      256
102
RTVSPost2010Prop51ColorRGB
 90
-16777216
102
RTVSPost2010PropOp51
 70
     0
102
RTVSPost2010Prop52
140
1.0
102
RTVSPost2010PropOp52
 70
     0
102
RTVSPost2010Prop53
 90
        2
102
RTVSPost2010PropOp53
 70
     1
102
RTVSPost2010Prop54
  1
strokes_ogs.tif
102
RTVSPost2010PropOp54
 70
     1
102
RTVSPost2010Prop55
280
     0
102
RTVSPost2010PropOp55
 70
     1
102
RTVSPost2010Prop56
140
1.0
102
RTVSPost2010PropOp56
 70
     1
102
RTVSPost2010Prop57
140
1.0
102
RTVSPost2010PropOp57
 70
     1
102
RTVSPropertyOp0
 70
     1
102
RTVSPropertyOp1
 70
     1
102
RTVSPropertyOp2
 70
     1
102
RTVSPropertyOp3
 70
     1
102
RTVSPropertyOp4
 70
     1
102
RTVSPropertyOp5
 70
     1
102
RTVSPropertyOp6
 70
     1
102
RTVSPropertyOp7
 70
     1
102
RTVSPropertyOp8
 70
     1
102
RTVSPropertyOp9
 70
     1
102
RTVSPropertyOp10
 70
     1
102
RTVSPropertyOp11
 70
     1
102
RTVSPropertyOp12
 70
     1
102
RTVSPropertyOp13
 70
     1
102
RTVSPropertyOp14
 70
     1
102
RTVSPropertyOp15
 70
     1
102
RTVSPropertyOp16
 70
     1
102
RTVSPropertyOp17
 70
     1
102
RTVSPropertyOp18
 70
     1
102
RTVSPropertyOp19
 70
     1
102
RTVSPropertyOp20
 70
     1
102
RTVSPropertyOp21
 70
     1
102
RTVSPropertyOp22
 70
     1
102
RTVSPropertyOp23
 70
     1
102
RTVSPropertyOp24
 70
     1
102
RTVSPropertyOp25
 70
     1
102
RTVSPropertyOp26
 70
     1
102
RTVSPropertyOp27
 70
     1
102
RTVSPropertyOp28
 70
     1
102
RTVSPropertyOp29
 70
     1
102
RTVSPropertyOp30
 70
     1
102
RTVSPropertyOp31
 70
     1
102
RTVSPropertyOp32
 70
     1
102
RTVSPropertyOp33
 70
     1
102
RTVSPropertyOp34
 70
     1
102
RTVSPropertyOp35
 70
     1
102
RTVSPropertyOp36
 70
     1
102
RTVSPropertyOp37
 70
     1
102
RTVSPropertyOp38
 70
     1
102
RTVSPropertyOp39
 70
     1
102
RTVSPropertyOp40
 70
     1
102
RTVSPropertyOp41
 70
     1
102
RTVSPropertyOp42
 70
     1
102
RTVSPropertyOp43
 70
     1
102
RTVSPropertyOp44
 70
     1
102
RTVSPropertyOp45
 70
     1
102
RTVSPropertyOp46
 70
     1
102
RTVSPropertyOp47
 70
     1
102
RTVSPropertyOp48
 70
     1
102
RTVSPropertyOp49
 70
     1
102
RTVSPropertyOp50
 70
     1
102
RTVSPropertyOp51
 70
     0
102
RTVSPropertyOp52
 70
     0
102
RTVSPropertyOp53
 70
     1
102
RTVSPropertyOp54
 70
     1
102
RTVSPropertyOp55
 70
     1
102
RTVSPropertyOp56
 70
     1
102
RTVSPropertyOp57
 70
     1
102
RTVSPropertyOp58
 70
     1
102
RTVSPropertyOp59
 70
     1
102
RTVSPropertyOp60
 70
     1
102
RTVSPropertyOp61
 70
     1
102
RTVSPropertyOp62
 70
     1
  0
XRECORD
  5
2703
102
{ACAD_REACTORS
330
2702
102
}
330
2702
100
AcDbXrecord
280
     1
102
RTVSPost2010Prop28
280
     0
102
RTVSPost2010PropOp28
 70
     1
102
RTVSPost2010Prop29
280
     1
102
RTVSPost2010PropOp29
 70
     1
102
RTVSPost2010Prop30
280
     1
102
RTVSPost2010PropOp30
 70
     1
102
RTVSPost2010Prop31
280
     0
102
RTVSPost2010PropOp31
 70
     1
102
RTVSPost2010Prop32
280
     0
102
RTVSPost2010PropOp32
 70
     1
102
RTVSPost2010Prop33
280
     0
102
RTVSPost2010PropOp33
 70
     1
102
RTVSPost2010Prop34
280
     0
102
RTVSPost2010PropOp34
 70
     1
102
RTVSPost2010Prop35
280
     0
102
RTVSPost2010PropOp35
 70
     1
102
RTVSPost2010Prop36
280
     0
102
RTVSPost2010PropOp36
 70
     1
102
RTVSPost2010Prop37
 90
       50
102
RTVSPost2010PropOp37
 70
     1
102
RTVSPost2010Prop38
140
0.0
102
RTVSPost2010PropOp38
 70
     1
102
RTVSPost2010Prop39
140
1.0
102
RTVSPost2010PropOp39
 70
     1
102
RTVSPost2010Prop40
 90
        0
102
RTVSPost2010PropOp40
 70
     1
102
RTVSPost2010Prop41ColorIndex
 90
       18
102
RTVSPost2010Prop41ColorRGB
 90
        0
102
RTVSPost2010PropOp41
 70
     1
102
RTVSPost2010Prop42
 90
       50
102
RTVSPost2010PropOp42
 70
     1
102
RTVSPost2010Prop43
 90
        3
102
RTVSPost2010PropOp43
 70
     1
102
RTVSPost2010Prop44ColorIndex
 90
        5
102
RTVSPost2010Prop44ColorRGB
 90
      255
102
RTVSPost2010PropOp44
 70
     1
102
RTVSPost2010Prop45
280
     0
102
RTVSPost2010PropOp45
 70
     1
102
RTVSPost2010Prop46
 90
       50
102
RTVSPost2010PropOp46
 70
     1
102
RTVSPost2010Prop47
 90
       50
102
RTVSPost2010PropOp47
 70
     1
102
RTVSPost2010Prop48
 90
       50
102
RTVSPost2010PropOp48
 70
     1
102
RTVSPost2010Prop49
280
     0
102
RTVSPost2010PropOp49
 70
     1
102
RTVSPost2010Prop50
 90
       50
102
RTVSPost2010PropOp50
 70
     1
102
RTVSPost2010Prop51ColorIndex
 90
      256
102
RTVSPost2010Prop51ColorRGB
 90
-16777216
102
RTVSPost2010PropOp51
 70
     0
102
RTVSPost2010Prop52
140
1.0
102
RTVSPost2010PropOp52
 70
     0
102
RTVSPost2010Prop53
 90
        2
102
RTVSPost2010PropOp53
 70
     1
102
RTVSPost2010Prop54
  1
strokes_ogs.tif
102
RTVSPost2010PropOp54
 70
     1
102
RTVSPost2010Prop55
280
     0
102
RTVSPost2010PropOp55
 70
     1
102
RTVSPost2010Prop56
140
1.0
102
RTVSPost2010PropOp56
 70
     1
102
RTVSPost2010Prop57
140
1.0
102
RTVSPost2010PropOp57
 70
     1
102
RTVSPropertyOp0
 70
     1
102
RTVSPropertyOp1
 70
     1
102
RTVSPropertyOp2
 70
     1
102
RTVSPropertyOp3
 70
     1
102
RTVSPropertyOp4
 70
     1
102
RTVSPropertyOp5
 70
     1
102
RTVSPropertyOp6
 70
     1
102
RTVSPropertyOp7
 70
     1
102
RTVSPropertyOp8
 70
     1
102
RTVSPropertyOp9
 70
     1
102
RTVSPropertyOp10
 70
     1
102
RTVSPropertyOp11
 70
     1
102
RTVSPropertyOp12
 70
     1
102
RTVSPropertyOp13
 70
     1
102
RTVSPropertyOp14
 70
     1
102
RTVSPropertyOp15
 70
     1
102
RTVSPropertyOp16
 70
     1
102
RTVSPropertyOp17
 70
     1
102
RTVSPropertyOp18
 70
     1
102
RTVSPropertyOp19
 70
     1
102
RTVSPropertyOp20
 70
     1
102
RTVSPropertyOp21
 70
     1
102
RTVSPropertyOp22
 70
     1
102
RTVSPropertyOp23
 70
     1
102
RTVSPropertyOp24
 70
     1
102
RTVSPropertyOp25
 70
     1
102
RTVSPropertyOp26
 70
     1
102
RTVSPropertyOp27
 70
     1
102
RTVSPropertyOp28
 70
     1
102
RTVSPropertyOp29
 70
     1
102
RTVSPropertyOp30
 70
     1
102
RTVSPropertyOp31
 70
     1
102
RTVSPropertyOp32
 70
     1
102
RTVSPropertyOp33
 70
     1
102
RTVSPropertyOp34
 70
     1
102
RTVSPropertyOp35
 70
     1
102
RTVSPropertyOp36
 70
     1
102
RTVSPropertyOp37
 70
     1
102
RTVSPropertyOp38
 70
     1
102
RTVSPropertyOp39
 70
     1
102
RTVSPropertyOp40
 70
     1
102
RTVSPropertyOp41
 70
     1
102
RTVSPropertyOp42
 70
     1
102
RTVSPropertyOp43
 70
     1
102
RTVSPropertyOp44
 70
     1
102
RTVSPropertyOp45
 70
     1
102
RTVSPropertyOp46
 70
     1
102
RTVSPropertyOp47
 70
     1
102
RTVSPropertyOp48
 70
     1
102
RTVSPropertyOp49
 70
     1
102
RTVSPropertyOp50
 70
     1
102
RTVSPropertyOp51
 70
     0
102
RTVSPropertyOp52
 70
     0
102
RTVSPropertyOp53
 70
     1
102
RTVSPropertyOp54
 70
     1
102
RTVSPropertyOp55
 70
     1
102
RTVSPropertyOp56
 70
     1
102
RTVSPropertyOp57
 70
     1
102
RTVSPropertyOp58
 70
     1
102
RTVSPropertyOp59
 70
     1
102
RTVSPropertyOp60
 70
     1
102
RTVSPropertyOp61
 70
     1
102
RTVSPropertyOp62
 70
     1
  0
XRECORD
  5
26F7
102
{ACAD_REACTORS
330
26F6
102
}
330
26F6
100
AcDbXrecord
280
     1
102
RTVSPost2010Prop28
280
     0
102
RTVSPost2010PropOp28
 70
     1
102
RTVSPost2010Prop29
280
     1
102
RTVSPost2010PropOp29
 70
     1
102
RTVSPost2010Prop30
280
     1
102
RTVSPost2010PropOp30
 70
     1
102
RTVSPost2010Prop31
280
     0
102
RTVSPost2010PropOp31
 70
     1
102
RTVSPost2010Prop32
280
     0
102
RTVSPost2010PropOp32
 70
     1
102
RTVSPost2010Prop33
280
     0
102
RTVSPost2010PropOp33
 70
     1
102
RTVSPost2010Prop34
280
     0
102
RTVSPost2010PropOp34
 70
     1
102
RTVSPost2010Prop35
280
     0
102
RTVSPost2010PropOp35
 70
     1
102
RTVSPost2010Prop36
280
     0
102
RTVSPost2010PropOp36
 70
     1
102
RTVSPost2010Prop37
 90
       50
102
RTVSPost2010PropOp37
 70
     1
102
RTVSPost2010Prop38
140
0.0
102
RTVSPost2010PropOp38
 70
     1
102
RTVSPost2010Prop39
140
1.0
102
RTVSPost2010PropOp39
 70
     1
102
RTVSPost2010Prop40
 90
        0
102
RTVSPost2010PropOp40
 70
     1
102
RTVSPost2010Prop41ColorIndex
 90
       18
102
RTVSPost2010Prop41ColorRGB
 90
        0
102
RTVSPost2010PropOp41
 70
     1
102
RTVSPost2010Prop42
 90
       50
102
RTVSPost2010PropOp42
 70
     1
102
RTVSPost2010Prop43
 90
        3
102
RTVSPost2010PropOp43
 70
     1
102
RTVSPost2010Prop44ColorIndex
 90
        5
102
RTVSPost2010Prop44ColorRGB
 90
      255
102
RTVSPost2010PropOp44
 70
     1
102
RTVSPost2010Prop45
280
     0
102
RTVSPost2010PropOp45
 70
     1
102
RTVSPost2010Prop46
 90
       50
102
RTVSPost2010PropOp46
 70
     1
102
RTVSPost2010Prop47
 90
       50
102
RTVSPost2010PropOp47
 70
     1
102
RTVSPost2010Prop48
 90
       50
102
RTVSPost2010PropOp48
 70
     1
102
RTVSPost2010Prop49
280
     0
102
RTVSPost2010PropOp49
 70
     1
102
RTVSPost2010Prop50
 90
       50
102
RTVSPost2010PropOp50
 70
     1
102
RTVSPost2010Prop51ColorIndex
 90
      256
102
RTVSPost2010Prop51ColorRGB
 90
-16777216
102
RTVSPost2010PropOp51
 70
     0
102
RTVSPost2010Prop52
140
1.0
102
RTVSPost2010PropOp52
 70
     0
102
RTVSPost2010Prop53
 90
        2
102
RTVSPost2010PropOp53
 70
     1
102
RTVSPost2010Prop54
  1
strokes_ogs.tif
102
RTVSPost2010PropOp54
 70
     1
102
RTVSPost2010Prop55
280
     0
102
RTVSPost2010PropOp55
 70
     1
102
RTVSPost2010Prop56
140
1.0
102
RTVSPost2010PropOp56
 70
     1
102
RTVSPost2010Prop57
140
1.0
102
RTVSPost2010PropOp57
 70
     1
102
RTVSPropertyOp0
 70
     1
102
RTVSPropertyOp1
 70
     1
102
RTVSPropertyOp2
 70
     1
102
RTVSPropertyOp3
 70
     1
102
RTVSPropertyOp4
 70
     1
102
RTVSPropertyOp5
 70
     1
102
RTVSPropertyOp6
 70
     1
102
RTVSPropertyOp7
 70
     1
102
RTVSPropertyOp8
 70
     1
102
RTVSPropertyOp9
 70
     1
102
RTVSPropertyOp10
 70
     1
102
RTVSPropertyOp11
 70
     1
102
RTVSPropertyOp12
 70
     1
102
RTVSPropertyOp13
 70
     1
102
RTVSPropertyOp14
 70
     1
102
RTVSPropertyOp15
 70
     1
102
RTVSPropertyOp16
 70
     1
102
RTVSPropertyOp17
 70
     1
102
RTVSPropertyOp18
 70
     1
102
RTVSPropertyOp19
 70
     1
102
RTVSPropertyOp20
 70
     1
102
RTVSPropertyOp21
 70
     1
102
RTVSPropertyOp22
 70
     1
102
RTVSPropertyOp23
 70
     1
102
RTVSPropertyOp24
 70
     1
102
RTVSPropertyOp25
 70
     1
102
RTVSPropertyOp26
 70
     1
102
RTVSPropertyOp27
 70
     1
102
RTVSPropertyOp28
 70
     1
102
RTVSPropertyOp29
 70
     1
102
RTVSPropertyOp30
 70
     1
102
RTVSPropertyOp31
 70
     1
102
RTVSPropertyOp32
 70
     1
102
RTVSPropertyOp33
 70
     1
102
RTVSPropertyOp34
 70
     1
102
RTVSPropertyOp35
 70
     1
102
RTVSPropertyOp36
 70
     1
102
RTVSPropertyOp37
 70
     1
102
RTVSPropertyOp38
 70
     1
102
RTVSPropertyOp39
 70
     1
102
RTVSPropertyOp40
 70
     1
102
RTVSPropertyOp41
 70
     1
102
RTVSPropertyOp42
 70
     1
102
RTVSPropertyOp43
 70
     1
102
RTVSPropertyOp44
 70
     1
102
RTVSPropertyOp45
 70
     1
102
RTVSPropertyOp46
 70
     1
102
RTVSPropertyOp47
 70
     1
102
RTVSPropertyOp48
 70
     1
102
RTVSPropertyOp49
 70
     1
102
RTVSPropertyOp50
 70
     1
102
RTVSPropertyOp51
 70
     0
102
RTVSPropertyOp52
 70
     0
102
RTVSPropertyOp53
 70
     1
102
RTVSPropertyOp54
 70
     1
102
RTVSPropertyOp55
 70
     1
102
RTVSPropertyOp56
 70
     1
102
RTVSPropertyOp57
 70
     1
102
RTVSPropertyOp58
 70
     1
102
RTVSPropertyOp59
 70
     1
102
RTVSPropertyOp60
 70
     1
102
RTVSPropertyOp61
 70
     1
102
RTVSPropertyOp62
 70
     1
  0
XRECORD
  5
270F
102
{ACAD_REACTORS
330
270E
102
}
330
270E
100
AcDbXrecord
280
     1
102
RTVSPost2010Prop28
280
     0
102
RTVSPost2010PropOp28
 70
     1
102
RTVSPost2010Prop29
280
     1
102
RTVSPost2010PropOp29
 70
     1
102
RTVSPost2010Prop30
280
     1
102
RTVSPost2010PropOp30
 70
     1
102
RTVSPost2010Prop31
280
     0
102
RTVSPost2010PropOp31
 70
     1
102
RTVSPost2010Prop32
280
     0
102
RTVSPost2010PropOp32
 70
     1
102
RTVSPost2010Prop33
280
     0
102
RTVSPost2010PropOp33
 70
     1
102
RTVSPost2010Prop34
280
     0
102
RTVSPost2010PropOp34
 70
     1
102
RTVSPost2010Prop35
280
     0
102
RTVSPost2010PropOp35
 70
     1
102
RTVSPost2010Prop36
280
     0
102
RTVSPost2010PropOp36
 70
     1
102
RTVSPost2010Prop37
 90
       50
102
RTVSPost2010PropOp37
 70
     1
102
RTVSPost2010Prop38
140
0.0
102
RTVSPost2010PropOp38
 70
     1
102
RTVSPost2010Prop39
140
1.0
102
RTVSPost2010PropOp39
 70
     1
102
RTVSPost2010Prop40
 90
        0
102
RTVSPost2010PropOp40
 70
     1
102
RTVSPost2010Prop41ColorIndex
 90
       18
102
RTVSPost2010Prop41ColorRGB
 90
        0
102
RTVSPost2010PropOp41
 70
     1
102
RTVSPost2010Prop42
 90
       50
102
RTVSPost2010PropOp42
 70
     1
102
RTVSPost2010Prop43
 90
        3
102
RTVSPost2010PropOp43
 70
     1
102
RTVSPost2010Prop44ColorIndex
 90
        5
102
RTVSPost2010Prop44ColorRGB
 90
      255
102
RTVSPost2010PropOp44
 70
     1
102
RTVSPost2010Prop45
280
     0
102
RTVSPost2010PropOp45
 70
     1
102
RTVSPost2010Prop46
 90
       50
102
RTVSPost2010PropOp46
 70
     1
102
RTVSPost2010Prop47
 90
       50
102
RTVSPost2010PropOp47
 70
     1
102
RTVSPost2010Prop48
 90
       50
102
RTVSPost2010PropOp48
 70
     1
102
RTVSPost2010Prop49
280
     0
102
RTVSPost2010PropOp49
 70
     1
102
RTVSPost2010Prop50
 90
       50
102
RTVSPost2010PropOp50
 70
     1
102
RTVSPost2010Prop51ColorIndex
 90
      256
102
RTVSPost2010Prop51ColorRGB
 90
-16777216
102
RTVSPost2010PropOp51
 70
     0
102
RTVSPost2010Prop52
140
1.0
102
RTVSPost2010PropOp52
 70
     0
102
RTVSPost2010Prop53
 90
        2
102
RTVSPost2010PropOp53
 70
     1
102
RTVSPost2010Prop54
  1
strokes_ogs.tif
102
RTVSPost2010PropOp54
 70
     1
102
RTVSPost2010Prop55
280
     0
102
RTVSPost2010PropOp55
 70
     1
102
RTVSPost2010Prop56
140
1.0
102
RTVSPost2010PropOp56
 70
     1
102
RTVSPost2010Prop57
140
1.0
102
RTVSPost2010PropOp57
 70
     1
102
RTVSPropertyOp0
 70
     1
102
RTVSPropertyOp1
 70
     1
102
RTVSPropertyOp2
 70
     1
102
RTVSPropertyOp3
 70
     1
102
RTVSPropertyOp4
 70
     1
102
RTVSPropertyOp5
 70
     1
102
RTVSPropertyOp6
 70
     1
102
RTVSPropertyOp7
 70
     1
102
RTVSPropertyOp8
 70
     1
102
RTVSPropertyOp9
 70
     1
102
RTVSPropertyOp10
 70
     1
102
RTVSPropertyOp11
 70
     1
102
RTVSPropertyOp12
 70
     1
102
RTVSPropertyOp13
 70
     1
102
RTVSPropertyOp14
 70
     1
102
RTVSPropertyOp15
 70
     1
102
RTVSPropertyOp16
 70
     1
102
RTVSPropertyOp17
 70
     1
102
RTVSPropertyOp18
 70
     1
102
RTVSPropertyOp19
 70
     1
102
RTVSPropertyOp20
 70
     1
102
RTVSPropertyOp21
 70
     1
102
RTVSPropertyOp22
 70
     1
102
RTVSPropertyOp23
 70
     1
102
RTVSPropertyOp24
 70
     1
102
RTVSPropertyOp25
 70
     1
102
RTVSPropertyOp26
 70
     1
102
RTVSPropertyOp27
 70
     1
102
RTVSPropertyOp28
 70
     1
102
RTVSPropertyOp29
 70
     1
102
RTVSPropertyOp30
 70
     1
102
RTVSPropertyOp31
 70
     1
102
RTVSPropertyOp32
 70
     1
102
RTVSPropertyOp33
 70
     1
102
RTVSPropertyOp34
 70
     1
102
RTVSPropertyOp35
 70
     1
102
RTVSPropertyOp36
 70
     1
102
RTVSPropertyOp37
 70
     1
102
RTVSPropertyOp38
 70
     1
102
RTVSPropertyOp39
 70
     1
102
RTVSPropertyOp40
 70
     1
102
RTVSPropertyOp41
 70
     1
102
RTVSPropertyOp42
 70
     1
102
RTVSPropertyOp43
 70
     1
102
RTVSPropertyOp44
 70
     1
102
RTVSPropertyOp45
 70
     1
102
RTVSPropertyOp46
 70
     1
102
RTVSPropertyOp47
 70
     1
102
RTVSPropertyOp48
 70
     1
102
RTVSPropertyOp49
 70
     1
102
RTVSPropertyOp50
 70
     1
102
RTVSPropertyOp51
 70
     0
102
RTVSPropertyOp52
 70
     0
102
RTVSPropertyOp53
 70
     1
102
RTVSPropertyOp54
 70
     1
102
RTVSPropertyOp55
 70
     1
102
RTVSPropertyOp56
 70
     1
102
RTVSPropertyOp57
 70
     1
102
RTVSPropertyOp58
 70
     1
102
RTVSPropertyOp59
 70
     1
102
RTVSPropertyOp60
 70
     1
102
RTVSPropertyOp61
 70
     1
102
RTVSPropertyOp62
 70
     1
  0
ENDSEC
  0
EOF
