  0
SECTION
  2
HEADER
  9
$ACADVER
  1
AC1018
  9
$ACADMAINTVER
 70
   104
  9
$DWGCODEPAGE
  3
ANSI_1252
  9
$LASTSAVEDBY
  1
w.koehlhoff
  9
$INSBASE
 10
0.0
 20
0.0
 30
0.0
  9
$EXTMIN
 10
-0.064064420354498
 20
-0.0453026972511452
 30
-0.0000000000000053
  9
$EXTMAX
 10
840.0000097800214
 20
594.000006915872
 30
0.0000000000000099
  9
$LIMMIN
 10
0.0
 20
0.0
  9
$LIMMAX
 10
839.9999999999998
 20
594.0000000000001
  9
$ORTHOMODE
 70
     0
  9
$REGENMODE
 70
     1
  9
$FILLMODE
 70
     1
  9
$QTEXTMODE
 70
     0
  9
$MIRRTEXT
 70
     1
  9
$LTSCALE
 40
20.0
  9
$ATTMODE
 70
     1
  9
$TEXTSIZE
 40
2.5
  9
$TRACEWID
 40
0.5
  9
$TEXTSTYLE
  7
GREEKS
  9
$CLAYER
  8
VOLL
  9
$CELTYPE
  6
ByLayer
  9
$CECOLOR
 62
   256
  9
$CELTSCALE
 40
1.0
  9
$DISPSILH
 70
     0
  9
$DIMSCALE
 40
2.0
  9
$DIMASZ
 40
3.5
  9
$DIMEXO
 40
1.0
  9
$DIMDLI
 40
0.38
  9
$DIMRND
 40
0.0
  9
$DIMDLE
 40
0.0
  9
$DIMEXE
 40
1.0
  9
$DIMTP
 40
0.0
  9
$DIMTM
 40
0.0
  9
$DIMTXT
 40
3.5
  9
$DIMCEN
 40
0.09
  9
$DIMTSZ
 40
0.0
  9
$DIMTOL
 70
     0
  9
$DIMLIM
 70
     0
  9
$DIMTIH
 70
     0
  9
$DIMTOH
 70
     0
  9
$DIMSE1
 70
     0
  9
$DIMSE2
 70
     0
  9
$DIMTAD
 70
     1
  9
$DIMZIN
 70
     8
  9
$DIMBLK
  1

  9
$DIMASO
 70
     1
  9
$DIMSHO
 70
     0
  9
$DIMPOST
  1

  9
$DIMAPOST
  1

  9
$DIMALT
 70
     0
  9
$DIMALTD
 70
     2
  9
$DIMALTF
 40
25.4
  9
$DIMLFAC
 40
1.0
  9
$DIMTOFL
 70
     1
  9
$DIMTVP
 40
0.0
  9
$DIMTIX
 70
     0
  9
$DIMSOXD
 70
     0
  9
$DIMSAH
 70
     0
  9
$DIMBLK1
  1

  9
$DIMBLK2
  1

  9
$DIMSTYLE
  2
STANDARD
  9
$DIMCLRD
 70
     0
  9
$DIMCLRE
 70
     0
  9
$DIMCLRT
 70
     1
  9
$DIMTFAC
 40
0.5142857142857144
  9
$DIMGAP
 40
1.5
  9
$DIMJUST
 70
     0
  9
$DIMSD1
 70
     0
  9
$DIMSD2
 70
     0
  9
$DIMTOLJ
 70
     1
  9
$DIMTZIN
 70
     8
  9
$DIMALTZ
 70
     8
  9
$DIMALTTZ
 70
     8
  9
$DIMUPT
 70
     0
  9
$DIMDEC
 70
     2
  9
$DIMTDEC
 70
     2
  9
$DIMALTU
 70
     2
  9
$DIMALTTD
 70
     2
  9
$DIMTXSTY
  7
GREEKS
  9
$DIMAUNIT
 70
     0
  9
$DIMADEC
 70
     0
  9
$DIMALTRND
 40
0.0
  9
$DIMAZIN
 70
     2
  9
$DIMDSEP
 70
    46
  9
$DIMATFIT
 70
     0
  9
$DIMFRAC
 70
     0
  9
$DIMLDRBLK
  1

  9
$DIMLUNIT
 70
     2
  9
$DIMLWD
 70
    -2
  9
$DIMLWE
 70
    -2
  9
$DIMTMOVE
 70
     2
  9
$LUNITS
 70
     2
  9
$LUPREC
 70
     2
  9
$SKETCHINC
 40
1.0
  9
$FILLETRAD
 40
5.0
  9
$AUNITS
 70
     0
  9
$AUPREC
 70
     0
  9
$MENU
  1
ACAD
  9
$ELEVATION
 40
0.0
  9
$PELEVATION
 40
0.0
  9
$THICKNESS
 40
0.0
  9
$LIMCHECK
 70
     0
  9
$CHAMFERA
 40
0.0
  9
$CHAMFERB
 40
0.0
  9
$CHAMFERC
 40
0.0
  9
$CHAMFERD
 40
0.0
  9
$SKPOLY
 70
     0
  9
$TDCREATE
 40
2452806.196353935
  9
$TDUCREATE
 40
2452806.154687269
  9
$TDUPDATE
 40
2457053.406593206
  9
$TDUUPDATE
 40
2457053.364926539
  9
$TDINDWG
 40
0.1617119444
  9
$TDUSRTIMER
 40
0.1617119444
  9
$USRTIMER
 70
     1
  9
$ANGBASE
 50
0.0
  9
$ANGDIR
 70
     0
  9
$PDMODE
 70
     0
  9
$PDSIZE
 40
0.0
  9
$PLINEWID
 40
0.0
  9
$SPLFRAME
 70
     0
  9
$SPLINETYPE
 70
     6
  9
$SPLINESEGS
 70
     8
  9
$HANDSEED
  5
266B
  9
$SURFTAB1
 70
     6
  9
$SURFTAB2
 70
     6
  9
$SURFTYPE
 70
     6
  9
$SURFU
 70
     6
  9
$SURFV
 70
     6
  9
$UCSBASE
  2

  9
$UCSNAME
  2

  9
$UCSORG
 10
0.0
 20
0.0
 30
0.0
  9
$UCSXDIR
 10
1.0
 20
0.0
 30
0.0
  9
$UCSYDIR
 10
0.0
 20
1.0
 30
0.0
  9
$UCSORTHOREF
  2

  9
$UCSORTHOVIEW
 70
     0
  9
$UCSORGTOP
 10
0.0
 20
0.0
 30
0.0
  9
$UCSORGBOTTOM
 10
0.0
 20
0.0
 30
0.0
  9
$UCSORGLEFT
 10
0.0
 20
0.0
 30
0.0
  9
$UCSORGRIGHT
 10
0.0
 20
0.0
 30
0.0
  9
$UCSORGFRONT
 10
0.0
 20
0.0
 30
0.0
  9
$UCSORGBACK
 10
0.0
 20
0.0
 30
0.0
  9
$PUCSBASE
  2

  9
$PUCSNAME
  2

  9
$PUCSORG
 10
0.0
 20
0.0
 30
0.0
  9
$PUCSXDIR
 10
1.0
 20
0.0
 30
0.0
  9
$PUCSYDIR
 10
0.0
 20
1.0
 30
0.0
  9
$PUCSORTHOREF
  2

  9
$PUCSORTHOVIEW
 70
     0
  9
$PUCSORGTOP
 10
0.0
 20
0.0
 30
0.0
  9
$PUCSORGBOTTOM
 10
0.0
 20
0.0
 30
0.0
  9
$PUCSORGLEFT
 10
0.0
 20
0.0
 30
0.0
  9
$PUCSORGRIGHT
 10
0.0
 20
0.0
 30
0.0
  9
$PUCSORGFRONT
 10
0.0
 20
0.0
 30
0.0
  9
$PUCSORGBACK
 10
0.0
 20
0.0
 30
0.0
  9
$USERI1
 70
     0
  9
$USERI2
 70
     0
  9
$USERI3
 70
     0
  9
$USERI4
 70
     0
  9
$USERI5
 70
     0
  9
$USERR1
 40
0.0
  9
$USERR2
 40
0.0
  9
$USERR3
 40
0.0
  9
$USERR4
 40
0.0
  9
$USERR5
 40
0.0
  9
$WORLDVIEW
 70
     1
  9
$SHADEDGE
 70
     3
  9
$SHADEDIF
 70
    70
  9
$TILEMODE
 70
     1
  9
$MAXACTVP
 70
    16
  9
$PINSBASE
 10
0.0
 20
0.0
 30
0.0
  9
$PLIMCHECK
 70
     0
  9
$PEXTMIN
 10
1.000000000000000E+20
 20
1.000000000000000E+20
 30
1.000000000000000E+20
  9
$PEXTMAX
 10
-1.000000000000000E+20
 20
-1.000000000000000E+20
 30
-1.000000000000000E+20
  9
$PLIMMIN
 10
0.0
 20
0.0
  9
$PLIMMAX
 10
12.0
 20
9.0
  9
$UNITMODE
 70
     0
  9
$VISRETAIN
 70
     0
  9
$PLINEGEN
 70
     0
  9
$PSLTSCALE
 70
     0
  9
$TREEDEPTH
 70
  3020
  9
$CMLSTYLE
  2
Standard
  9
$CMLJUST
 70
     0
  9
$CMLSCALE
 40
1.0
  9
$PROXYGRAPHICS
 70
     1
  9
$MEASUREMENT
 70
     0
  9
$CELWEIGHT
370
    -1
  9
$ENDCAPS
280
     0
  9
$JOINSTYLE
280
     0
  9
$LWDISPLAY
290
     0
  9
$INSUNITS
 70
     0
  9
$HYPERLINKBASE
  1

  9
$STYLESHEET
  1
monochrome1.ctb
  9
$XEDIT
290
     1
  9
$CEPSNTYPE
380
     0
  9
$PSTYLEMODE
290
     1
  9
$FINGERPRINTGUID
  2
{CEB2A312-A602-11D7-B633-000102183313}
  9
$VERSIONGUID
  2
{50AB05DC-CD0A-4B2E-B8B9-F58C60BEEBBE}
  9
$EXTNAMES
290
     1
  9
$PSVPSCALE
 40
0.0
  9
$OLESTARTUP
290
     0
  9
$SORTENTS
280
    96
  9
$INDEXCTL
280
     0
  9
$HIDETEXT
280
     0
  9
$XCLIPFRAME
290
     0
  9
$HALOGAP
280
     0
  9
$OBSCOLOR
 70
   257
  9
$OBSLTYPE
280
     0
  9
$INTERSECTIONDISPLAY
280
     0
  9
$INTERSECTIONCOLOR
 70
   257
  9
$DIMASSOC
280
     1
  9
$PROJECTNAME
  1

  0
ENDSEC
  0
SECTION
  2
CLASSES
  0
CLASS
  1
ACDBDICTIONARYWDFLT
  2
AcDbDictionaryWithDefault
  3
ObjectDBX Classes
 90
        0
 91
        1
280
     0
281
     0
  0
CLASS
  1
DICTIONARYVAR
  2
AcDbDictionaryVar
  3
ObjectDBX Classes
 90
        0
 91
        8
280
     0
281
     0
  0
CLASS
  1
MATERIAL
  2
AcDbMaterial
  3
ObjectDBX Classes
 90
     1153
 91
        3
280
     0
281
     0
  0
CLASS
  1
VISUALSTYLE
  2
AcDbVisualStyle
  3
ObjectDBX Classes
 90
     4095
 91
       24
280
     0
281
     0
  0
CLASS
  1
TABLESTYLE
  2
AcDbTableStyle
  3
ObjectDBX Classes
 90
     4095
 91
        1
280
     0
281
     0
  0
CLASS
  1
SCALE
  2
AcDbScale
  3
ObjectDBX Classes
 90
     1153
 91
       17
280
     0
281
     0
  0
CLASS
  1
MLEADERSTYLE
  2
AcDbMLeaderStyle
  3
ACDB_MLEADERSTYLE_CLASS
 90
     4095
 91
        1
280
     0
281
     0
  0
CLASS
  1
ACDBSECTIONVIEWSTYLE
  2
AcDbSectionViewStyle
  3
ObjectDBX Classes
 90
     1025
 91
        1
280
     0
281
     0
  0
CLASS
  1
ACDBDETAILVIEWSTYLE
  2
AcDbDetailViewStyle
  3
ObjectDBX Classes
 90
     1025
 91
        1
280
     0
281
     0
  0
CLASS
  1
SORTENTSTABLE
  2
AcDbSortentsTable
  3
ObjectDBX Classes
 90
        0
 91
        1
280
     0
281
     0
  0
CLASS
  1
CELLSTYLEMAP
  2
AcDbCellStyleMap
  3
ObjectDBX Classes
 90
     1152
 91
        3
280
     0
281
     0
  0
ENDSEC
  0
SECTION
  2
TABLES
  0
TABLE
  2
VPORT
  5
10EB
102
{ACAD_XDICTIONARY
360
231C
102
}
330
0
100
AcDbSymbolTable
 70
     1
  0
VPORT
  5
2140
330
10EB
100
AcDbSymbolTableRecord
100
AcDbViewportTableRecord
  2
*Active
 70
     0
 10
0.0
 20
0.0
 11
1.0
 21
1.0
 12
419.9679726798335
 22
296.9773521093104
 13
0.0
 23
0.0
 14
1.0
 24
1.0
 15
10.0
 25
10.0
 16
0.0
 26
0.0
 36
1.0
 17
0.0
 27
0.0
 37
0.0
 40
598.4079434658511
 41
1.852941176470588
 42
50.0
 43
0.0
 44
0.0
 50
0.0
 51
0.0
 71
     0
 72
  1500
 73
     1
 74
     0
 75
     0
 76
     0
 77
     0
 78
     0
281
     0
 65
     1
110
0.0
120
0.0
130
0.0
111
1.0
121
0.0
131
0.0
112
0.0
122
1.0
132
0.0
 79
     0
146
0.0
1001
ACAD_NAV_VCDISPLAY
1070
     3
  0
ENDTAB
  0
TABLE
  2
LTYPE
  5
10E8
330
0
100
AcDbSymbolTable
 70
     5
  0
LTYPE
  5
10F6
330
10E8
100
AcDbSymbolTableRecord
100
AcDbLinetypeTableRecord
  2
ByBlock
 70
     0
  3

 72
    65
 73
     0
 40
0.0
  0
LTYPE
  5
10F7
330
10E8
100
AcDbSymbolTableRecord
100
AcDbLinetypeTableRecord
  2
ByLayer
 70
     0
  3

 72
    65
 73
     0
 40
0.0
  0
LTYPE
  5
10F8
330
10E8
100
AcDbSymbolTableRecord
100
AcDbLinetypeTableRecord
  2
AUSGEZOGEN
 70
     0
  3
Ausgezogene Linie
 72
    65
 73
     0
 40
0.0
  0
LTYPE
  5
1118
330
10E8
100
AcDbSymbolTableRecord
100
AcDbLinetypeTableRecord
  2
STRICHPUNKT
 70
     0
  3
__ . __ . __ . __ . __ . __ . __ . __ . __ . __
 72
    65
 73
     4
 40
1.0
 49
0.5
 74
     0
 49
-0.25
 74
     0
 49
0.0
 74
     0
 49
-0.25
 74
     0
  0
LTYPE
  5
1119
330
10E8
100
AcDbSymbolTableRecord
100
AcDbLinetypeTableRecord
  2
CONTINUOUS
 70
     0
  3
Solid line
 72
    65
 73
     0
 40
0.0
  0
LTYPE
  5
218A
330
10E8
100
AcDbSymbolTableRecord
100
AcDbLinetypeTableRecord
  2
PHANTOM2
 70
     0
  3
Phantom (.5x) ___ _ _ ___ _ _ ___ _ _ ___ _ _
 72
    65
 73
     6
 40
1.25
 49
0.625
 74
     0
 49
-0.125
 74
     0
 49
0.125
 74
     0
 49
-0.125
 74
     0
 49
0.125
 74
     0
 49
-0.125
 74
     0
  0
ENDTAB
  0
TABLE
  2
LAYER
  5
10E5
102
{ACAD_XDICTIONARY
360
1945
102
}
330
0
100
AcDbSymbolTable
 70
     9
  0
LAYER
  5
10F3
102
{ACAD_XDICTIONARY
360
2309
102
}
330
10E5
100
AcDbSymbolTableRecord
100
AcDbLayerTableRecord
  2
0
 70
     0
 62
     7
  6
AUSGEZOGEN
370
    -3
390
10F2
  0
LAYER
  5
111D
102
{ACAD_XDICTIONARY
360
230B
102
}
330
10E5
100
AcDbSymbolTableRecord
100
AcDbLayerTableRecord
  2
VOLL
 70
     0
 62
     1
  6
AUSGEZOGEN
370
    -3
390
10F2
  0
LAYER
  5
111E
102
{ACAD_XDICTIONARY
360
230D
102
}
330
10E5
100
AcDbSymbolTableRecord
100
AcDbLayerTableRecord
  2
HILF
 70
     0
 62
     2
  6
AUSGEZOGEN
370
    -3
390
10F2
  0
LAYER
  5
111F
102
{ACAD_XDICTIONARY
360
230F
102
}
330
10E5
100
AcDbSymbolTableRecord
100
AcDbLayerTableRecord
  2
MITTEL
 70
     0
 62
     2
  6
STRICHPUNKT
370
    -3
390
10F2
  0
LAYER
  5
1120
102
{ACAD_XDICTIONARY
360
2311
102
}
330
10E5
100
AcDbSymbolTableRecord
100
AcDbLayerTableRecord
  2
BEM
 70
     0
 62
     7
  6
AUSGEZOGEN
370
    -3
390
10F2
  0
LAYER
  5
1121
102
{ACAD_XDICTIONARY
360
2313
102
}
330
10E5
100
AcDbSymbolTableRecord
100
AcDbLayerTableRecord
  2
STEMPEL
 70
     0
 62
     3
  6
AUSGEZOGEN
370
    -3
390
10F2
  0
LAYER
  5
1122
102
{ACAD_XDICTIONARY
360
2315
102
}
330
10E5
100
AcDbSymbolTableRecord
100
AcDbLayerTableRecord
  2
TEXT
 70
     0
 62
     7
  6
AUSGEZOGEN
370
    -3
390
10F2
  0
LAYER
  5
1123
102
{ACAD_XDICTIONARY
360
2317
102
}
330
10E5
100
AcDbSymbolTableRecord
100
AcDbLayerTableRecord
  2
SCHRAFF
 70
     0
 62
     7
  6
AUSGEZOGEN
370
    -3
390
10F2
  0
LAYER
  5
1124
330
10E5
100
AcDbSymbolTableRecord
100
AcDbLayerTableRecord
  2
DEFPOINTS
 70
     0
 62
     7
  6
AUSGEZOGEN
290
     0
370
    -3
390
10F2
  0
ENDTAB
  0
TABLE
  2
STYLE
  5
10E6
330
0
100
AcDbSymbolTable
 70
     3
  0
STYLE
  5
10F4
330
10E6
100
AcDbSymbolTableRecord
100
AcDbTextStyleTableRecord
  2
STANDARD
 70
     0
 40
0.0
 41
1.0
 50
0.0
 71
     0
 42
3.5
  3
txt
  4

  0
STYLE
  5
1117
330
10E6
100
AcDbSymbolTableRecord
100
AcDbTextStyleTableRecord
  2
GREEKS
 70
     0
 40
0.0
 41
0.8
 50
0.0
 71
     0
 42
2.5
  3
SIMPLEX.shx
  4

  0
ENDTAB
  0
TABLE
  2
VIEW
  5
10E9
330
0
100
AcDbSymbolTable
 70
     0
  0
ENDTAB
  0
TABLE
  2
UCS
  5
10EA
330
0
100
AcDbSymbolTable
 70
     0
  0
ENDTAB
  0
TABLE
  2
APPID
  5
10EC
330
0
100
AcDbSymbolTable
 70
     7
  0
APPID
  5
10F5
330
10EC
100
AcDbSymbolTableRecord
100
AcDbRegAppTableRecord
  2
ACAD
 70
     0
  0
APPID
  5
219E
330
10EC
100
AcDbSymbolTableRecord
100
AcDbRegAppTableRecord
  2
ACAD_NAV_VCDISPLAY
 70
     0
  0
APPID
  5
219F
330
10EC
100
AcDbSymbolTableRecord
100
AcDbRegAppTableRecord
  2
GradientColor1ACI
 70
     0
  0
APPID
  5
21A0
330
10EC
100
AcDbSymbolTableRecord
100
AcDbRegAppTableRecord
  2
GradientColor2ACI
 70
     0
  0
APPID
  5
22E2
330
10EC
100
AcDbSymbolTableRecord
100
AcDbRegAppTableRecord
  2
AcadAnnoMonitorAlertIconDisabled
 70
     0
  0
APPID
  5
22E3
330
10EC
100
AcDbSymbolTableRecord
100
AcDbRegAppTableRecord
  2
ACAD_EXEMPT_FROM_CAD_STANDARDS
 70
     0
  0
APPID
  5
2352
330
10EC
100
AcDbSymbolTableRecord
100
AcDbRegAppTableRecord
  2
ACAD_MLEADERVER
 70
     0
  0
ENDTAB
  0
TABLE
  2
DIMSTYLE
  5
10ED
330
0
100
AcDbSymbolTable
 70
     2
100
AcDbDimStyleTable
 71
     1
340
111C
  0
DIMSTYLE
105
111C
102
{ACAD_REACTORS
330
1E86
330
1E88
330
1E89
330
1E8F
330
1E90
330
1E92
330
20B5
330
20CE
330
20CF
330
229D
330
22BA
102
}
330
10ED
100
AcDbSymbolTableRecord
100
AcDbDimStyleTableRecord
  2
STANDARD
 70
     0
 40
2.0
 41
3.5
 42
1.0
 44
1.0
 73
     0
 74
     0
 77
     1
 78
     8
 79
     2
140
3.5
146
0.5142857142857144
147
1.5
172
     1
178
     1
271
     2
272
     2
279
     2
284
     8
285
     8
286
     8
289
     0
340
1117
  0
ENDTAB
  0
TABLE
  2
BLOCK_RECORD
  5
10E4
330
0
100
AcDbSymbolTable
 70
    13
  0
BLOCK_RECORD
  5
1101
102
{ACAD_XDICTIONARY
360
1561
102
}
330
10E4
100
AcDbSymbolTableRecord
100
AcDbBlockTableRecord
  2
*Model_Space
340
1104
  0
BLOCK_RECORD
  5
10FD
102
{ACAD_XDICTIONARY
360
1563
102
}
330
10E4
100
AcDbSymbolTableRecord
100
AcDbBlockTableRecord
  2
*Paper_Space
340
1100
  0
BLOCK_RECORD
  5
1105
330
10E4
100
AcDbSymbolTableRecord
100
AcDbBlockTableRecord
  2
LOGO
340
0
102
{BLKREFS
331
2FC
102
}
  0
BLOCK_RECORD
  5
1E9E
330
10E4
100
AcDbSymbolTableRecord
100
AcDbBlockTableRecord
  2
*D1
340
0
  0
BLOCK_RECORD
  5
1EAD
330
10E4
100
AcDbSymbolTableRecord
100
AcDbBlockTableRecord
  2
*D2
340
0
  0
BLOCK_RECORD
  5
1EB9
330
10E4
100
AcDbSymbolTableRecord
100
AcDbBlockTableRecord
  2
*D3
340
0
  0
BLOCK_RECORD
  5
1ED1
330
10E4
100
AcDbSymbolTableRecord
100
AcDbBlockTableRecord
  2
*D4
340
0
  0
BLOCK_RECORD
  5
1EDD
330
10E4
100
AcDbSymbolTableRecord
100
AcDbBlockTableRecord
  2
*D5
340
0
  0
BLOCK_RECORD
  5
1EF5
330
10E4
100
AcDbSymbolTableRecord
100
AcDbBlockTableRecord
  2
*D6
340
0
  0
BLOCK_RECORD
  5
20D6
330
10E4
100
AcDbSymbolTableRecord
100
AcDbBlockTableRecord
  2
*D7
340
0
  0
BLOCK_RECORD
  5
20E2
330
10E4
100
AcDbSymbolTableRecord
100
AcDbBlockTableRecord
  2
*D8
340
0
  0
BLOCK_RECORD
  5
20EE
330
10E4
100
AcDbSymbolTableRecord
100
AcDbBlockTableRecord
  2
*D9
340
0
  0
BLOCK_RECORD
  5
22A3
330
10E4
100
AcDbSymbolTableRecord
100
AcDbBlockTableRecord
  2
*D10
340
0
  0
BLOCK_RECORD
  5
22BB
330
10E4
100
AcDbSymbolTableRecord
100
AcDbBlockTableRecord
  2
*D11
340
0
  0
ENDTAB
  0
ENDSEC
  0
SECTION
  2
BLOCKS
  0
BLOCK
  5
1127
330
1101
100
AcDbEntity
  8
0
100
AcDbBlockBegin
  2
*Model_Space
 70
     0
 10
0.0
 20
0.0
 30
0.0
  3
*Model_Space
  1

  0
ENDBLK
  5
1128
330
1101
100
AcDbEntity
  8
0
100
AcDbBlockEnd
  0
BLOCK
  5
1125
330
10FD
100
AcDbEntity
 67
     1
  8
0
100
AcDbBlockBegin
  2
*Paper_Space
 70
     0
 10
0.0
 20
0.0
 30
0.0
  3
*Paper_Space
  1

  0
ENDBLK
  5
1126
330
10FD
100
AcDbEntity
 67
     1
  8
0
100
AcDbBlockEnd
  0
BLOCK
  5
42
330
1105
100
AcDbEntity
  8
0
100
AcDbBlockBegin
  2
LOGO
 70
     0
 10
0.0
 20
0.0
 30
0.0
  3
LOGO
  1

  0
ARC
  5
43
330
1105
100
AcDbEntity
  8
0
100
AcDbCircle
 10
11.59973089678112
 20
-9.271599258481501
 30
0.0
 40
4.5
100
AcDbArc
 50
270.0
 51
231.0575587310159
  0
LINE
  5
44
330
1105
100
AcDbEntity
  8
0
100
AcDbLine
 10
3.599730896781125
 20
-4.771599258481529
 30
0.0
 11
3.599730896781153
 21
-11.77159925848133
 31
0.0
  0
LINE
  5
45
330
1105
100
AcDbEntity
  8
0
100
AcDbLine
 10
2.599730896781125
 20
-4.771599258481529
 30
0.0
 11
2.599730896781153
 21
-11.77159925848133
 31
0.0
  0
CIRCLE
  5
46
330
1105
100
AcDbEntity
  8
0
100
AcDbCircle
 10
11.59973089678112
 20
-9.271599258481501
 30
0.0
 40
3.5
  0
ARC
  5
47
330
1105
100
AcDbEntity
  8
0
100
AcDbCircle
 10
31.59973089678115
 20
-9.271599258481472
 30
0.0
 40
4.5
100
AcDbArc
 50
270.0
 51
231.0575587310182
  0
LINE
  5
48
330
1105
100
AcDbEntity
  8
0
100
AcDbLine
 10
17.59973089678112
 20
-4.771599258481472
 30
0.0
 11
17.59973089678115
 21
-13.77159925848147
 31
0.0
  0
ARC
  5
49
330
1105
100
AcDbEntity
  8
0
100
AcDbCircle
 10
22.59973089678116
 20
-7.271599258481472
 30
0.0
 40
2.5
100
AcDbArc
 50
293.1161887722295
 51
90.0
  0
CIRCLE
  5
4A
330
1105
100
AcDbEntity
  8
0
100
AcDbCircle
 10
31.59973089678115
 20
-9.271599258481472
 30
0.0
 40
3.5
  0
ARC
  5
4B
330
1105
100
AcDbEntity
  8
0
100
AcDbCircle
 10
4.599730896781153
 20
-11.77159925848133
 30
0.0
 40
1.0
100
AcDbArc
 50
180.0
 51
270.0
  0
ARC
  5
4C
330
1105
100
AcDbEntity
  8
0
100
AcDbCircle
 10
4.599730896781153
 20
-11.77159925848133
 30
0.0
 40
2.0
100
AcDbArc
 50
179.9999999999992
 51
270.0
  0
LINE
  5
4D
330
1105
100
AcDbEntity
  8
0
100
AcDbLine
 10
11.59973089678115
 20
-13.77159925848144
 30
0.0
 11
4.599730896781153
 21
-13.77159925848147
 31
0.0
  0
LINE
  5
4E
330
1105
100
AcDbEntity
  8
0
100
AcDbLine
 10
8.771303772034769
 20
-12.77159925848136
 30
0.0
 11
4.599730896781153
 21
-12.77159925848133
 31
0.0
  0
LINE
  5
4F
330
1105
100
AcDbEntity
  8
0
100
AcDbLine
 10
31.59973089678115
 20
-13.77159925848147
 30
0.0
 11
23.6715276665056
 21
-13.77159925848144
 31
0.0
  0
LINE
  5
50
330
1105
100
AcDbEntity
  8
0
100
AcDbLine
 10
23.56565672307022
 20
-9.51278021337896
 30
0.0
 11
24.4388546544846
 21
-12.77159925848144
 31
0.0
  0
LINE
  5
51
330
1105
100
AcDbEntity
  8
0
100
AcDbLine
 10
22.59973089678116
 20
-9.771599258481472
 30
0.0
 11
18.59973089678112
 21
-9.771599258481472
 31
0.0
  0
LINE
  5
52
330
1105
100
AcDbEntity
  8
0
100
AcDbLine
 10
18.59973089678115
 20
-13.77159925848144
 30
0.0
 11
17.59973089678115
 21
-13.77159925848144
 31
0.0
  0
LINE
  5
53
330
1105
100
AcDbEntity
  8
0
100
AcDbLine
 10
18.59973089678115
 20
-9.771599258481472
 30
0.0
 11
18.59973089678115
 21
-13.77159925848144
 31
0.0
  0
LINE
  5
54
330
1105
100
AcDbEntity
  8
0
100
AcDbLine
 10
22.59973089678116
 20
-9.771599258481472
 30
0.0
 11
23.67152766650562
 21
-13.77159925848147
 31
0.0
  0
ARC
  5
55
330
1105
100
AcDbEntity
  8
0
100
AcDbCircle
 10
22.59973089678116
 20
-7.271599258481472
 30
0.0
 40
2.5
100
AcDbArc
 50
270.0
 51
270.0000000000007
  0
LINE
  5
56
330
1105
100
AcDbEntity
  8
0
100
AcDbLine
 10
28.77130377203494
 20
-12.77159925848147
 30
0.0
 11
24.43885465448463
 21
-12.77159925848144
 31
0.0
  0
LINE
  5
57
330
1105
100
AcDbEntity
  8
0
100
AcDbLine
 10
3.599730896781125
 20
-4.771599258481472
 30
0.0
 11
2.599730896781125
 21
-4.771599258481472
 31
0.0
  0
LINE
  5
58
330
1105
100
AcDbEntity
  8
0
100
AcDbLine
 10
22.59973089678116
 20
-8.771599258481472
 30
0.0
 11
18.59973089678115
 21
-8.771599258481472
 31
0.0
  0
LINE
  5
59
330
1105
100
AcDbEntity
  8
0
100
AcDbLine
 10
22.59973089678116
 20
-5.771599258481472
 30
0.0
 11
18.59973089678115
 21
-5.771599258481472
 31
0.0
  0
LINE
  5
5A
330
1105
100
AcDbEntity
  8
0
100
AcDbLine
 10
22.59973089678116
 20
-4.771599258481472
 30
0.0
 11
17.59973089678115
 21
-4.771599258481472
 31
0.0
  0
LINE
  5
5B
330
1105
100
AcDbEntity
  8
0
100
AcDbLine
 10
18.59973089678115
 20
-5.771599258481472
 30
0.0
 11
18.59973089678115
 21
-8.771599258481472
 31
0.0
  0
ARC
  5
5C
330
1105
100
AcDbEntity
  8
0
100
AcDbCircle
 10
22.59973089678116
 20
-7.271599258481472
 30
0.0
 40
1.5
100
AcDbArc
 50
270.0
 51
90.0
  0
ENDBLK
  5
5D
330
1105
100
AcDbEntity
  8
0
100
AcDbBlockEnd
  0
BLOCK
  5
1EAB
330
1E9E
100
AcDbEntity
  8
0
100
AcDbBlockBegin
  2
*D1
 70
     1
 10
0.0
 20
0.0
 30
0.0
  3
*D1
  1

  0
LINE
  5
1F27
330
1E9E
100
AcDbEntity
  8
BEM
 62
     0
440
 16777216
370
    -2
100
AcDbLine
 10
770.4568559561492
 20
244.5840403272035
 30
0.0
 11
741.3756243954542
 21
244.5840403272034
 31
0.0
  0
ARC
  5
1F28
330
1E9E
100
AcDbEntity
  8
BEM
 62
     0
440
 16777216
370
    -2
100
AcDbCircle
 10
772.4568559561491
 20
244.5840403272035
 30
0.0
 40
29.08123156069493
100
AcDbArc
 50
149.3502042979943
 51
163.1751021489972
  0
ARC
  5
1F29
330
1E9E
100
AcDbEntity
  8
BEM
 62
     0
440
 16777216
370
    -2
100
AcDbCircle
 10
772.4568559561491
 20
244.5840403272035
 30
0.0
 40
29.08123156069493
100
AcDbArc
 50
193.8248978510032
 51
207.6497957020061
  0
ARC
  5
1F2A
330
1E9E
100
AcDbEntity
  8
BEM
 62
     0
440
 16777216
370
    -2
100
AcDbCircle
 10
772.4568559561491
 20
244.5840403272035
 30
0.0
 40
29.08123156069493
100
AcDbArc
 50
177.0000000000001
 51
180.0000000000003
  0
SOLID
  5
1F2B
330
1E9E
100
AcDbEntity
  8
BEM
 62
     0
440
 16777216
100
AcDbTrace
 10
745.7697317666304
 20
252.8007043608308
 30
0.0
 11
743.4712305568421
 21
253.2023716772087
 31
0.0
 12
743.4154792126023
 22
246.1060343896549
 32
0.0
 13
743.4154792126023
 23
246.1060343896549
 33
0.0
  0
SOLID
  5
1F2C
330
1E9E
100
AcDbEntity
  8
BEM
 62
     0
440
 16777216
100
AcDbTrace
 10
743.0599057366478
 20
237.4945105233594
 30
0.0
 11
745.3762785735055
 21
237.7753331099001
 31
0.0
 12
743.3756243954542
 22
244.5840403272033
 32
0.0
 13
743.3756243954542
 23
244.5840403272033
 33
0.0
  0
MTEXT
  5
1F2D
330
1E9E
100
AcDbEntity
  8
BEM
 62
     1
440
 16777216
100
AcDbMText
 10
738.9790472793244
 20
259.0432563462639
 30
0.0
 40
7.0
 41
0.0
 71
     5
 72
     1
  1
\A1;3°
  7
GREEKS
 11
0.3965027996969355
 21
0.9180335123689616
 31
0.0
 73
     1
 44
1.0
  0
POINT
  5
1F2E
330
1E9E
100
AcDbEntity
  8
DEFPOINTS
 62
     0
440
 16777216
100
AcDbPoint
 10
743.380053607879
 20
245.0915778000973
 30
0.0
  0
POINT
  5
1F2F
330
1E9E
100
AcDbEntity
  8
DEFPOINTS
 62
     0
440
 16777216
100
AcDbPoint
 10
774.4568559561494
 20
244.5840403272035
 30
0.0
  0
POINT
  5
1F30
330
1E9E
100
AcDbEntity
  8
DEFPOINTS
 62
     0
440
 16777216
100
AcDbPoint
 10
613.6567989217581
 20
252.906398666396
 30
0.0
  0
POINT
  5
1F31
330
1E9E
100
AcDbEntity
  8
DEFPOINTS
 62
     0
440
 16777216
100
AcDbPoint
 10
777.4500036299224
 20
244.3223605459888
 30
0.0
  0
POINT
  5
1F32
330
1E9E
100
AcDbEntity
  8
DEFPOINTS
 62
     0
440
 16777216
100
AcDbPoint
 10
780.0527790914629
 20
244.5840403272036
 30
0.0
  0
ENDBLK
  5
1EAC
330
1E9E
100
AcDbEntity
  8
0
100
AcDbBlockEnd
  0
BLOCK
  5
1EB7
330
1EAD
100
AcDbEntity
  8
0
100
AcDbBlockBegin
  2
*D2
 70
     1
 10
0.0
 20
0.0
 30
0.0
  3
*D2
  1

  0
LINE
  5
1F33
330
1EAD
100
AcDbEntity
  8
BEM
 62
     0
440
 16777216
370
    -2
100
AcDbLine
 10
476.6204555769045
 20
335.8667651608046
 30
0.0
 11
813.6001722545735
 21
335.8667651608045
 31
0.0
  0
LINE
  5
1F34
330
1EAD
100
AcDbEntity
  8
BEM
 62
     0
440
 16777216
370
    -2
100
AcDbLine
 10
793.1029352534878
 20
244.5840403272035
 30
0.0
 11
813.6001722545733
 21
244.5840403272035
 31
0.0
  0
LINE
  5
1F35
330
1EAD
100
AcDbEntity
  8
BEM
 62
     0
440
 16777216
370
    -2
100
AcDbLine
 10
811.6001722545735
 20
328.8667651608045
 30
0.0
 11
811.6001722545734
 21
251.5840403272035
 31
0.0
  0
SOLID
  5
1F36
330
1EAD
100
AcDbEntity
  8
BEM
 62
     0
440
 16777216
100
AcDbTrace
 10
810.4335055879069
 20
328.8667651608045
 30
0.0
 11
812.76683892124
 21
328.8667651608045
 31
0.0
 12
811.6001722545735
 22
335.8667651608045
 32
0.0
 13
811.6001722545735
 23
335.8667651608045
 33
0.0
  0
SOLID
  5
1F37
330
1EAD
100
AcDbEntity
  8
BEM
 62
     0
440
 16777216
100
AcDbTrace
 10
810.4335055879067
 20
251.5840403272035
 30
0.0
 11
812.76683892124
 21
251.5840403272035
 31
0.0
 12
811.6001722545734
 22
244.5840403272035
 32
0.0
 13
811.6001722545734
 23
244.5840403272035
 33
0.0
  0
MTEXT
  5
1F38
330
1EAD
100
AcDbEntity
  8
BEM
 62
     1
440
 16777216
100
AcDbMText
 10
805.1001722545734
 20
290.2254027440041
 30
0.0
 40
7.0
 41
0.0
 71
     5
 72
     1
  1
\A1;91
  7
GREEKS
 11
0.0000000000000001
 21
1.0
 31
0.0
 73
     1
 44
1.0
  0
POINT
  5
1F39
330
1EAD
100
AcDbEntity
  8
DEFPOINTS
 62
     0
440
 16777216
100
AcDbPoint
 10
474.6204555769045
 20
335.8667651608046
 30
0.0
  0
POINT
  5
1F3A
330
1EAD
100
AcDbEntity
  8
DEFPOINTS
 62
     0
440
 16777216
100
AcDbPoint
 10
791.1029352534877
 20
244.5840403272035
 30
0.0
  0
POINT
  5
1F3B
330
1EAD
100
AcDbEntity
  8
DEFPOINTS
 62
     0
440
 16777216
100
AcDbPoint
 10
811.6001722545734
 20
244.5840403272035
 30
0.0
  0
ENDBLK
  5
1EB8
330
1EAD
100
AcDbEntity
  8
0
100
AcDbBlockEnd
  0
BLOCK
  5
1EC3
330
1EB9
100
AcDbEntity
  8
0
100
AcDbBlockBegin
  2
*D3
 70
     1
 10
0.0
 20
0.0
 30
0.0
  3
*D3
  1

  0
LINE
  5
1F3C
330
1EB9
100
AcDbEntity
  8
BEM
 62
     0
440
 16777216
370
    -2
100
AcDbLine
 10
767.6204667203833
 20
208.2874141178745
 30
0.0
 11
791.1388593334477
 21
207.0548673887165
 31
0.0
  0
LINE
  5
1F3D
330
1EB9
100
AcDbEntity
  8
BEM
 62
     0
440
 16777216
370
    -2
100
AcDbLine
 10
771.4409915261199
 20
281.1873701549579
 30
0.0
 11
794.9593841391843
 21
279.9548234258
 31
0.0
  0
LINE
  5
1F3E
330
1EB9
100
AcDbEntity
  8
BEM
 62
     0
440
 16777216
370
    -2
100
AcDbLine
 10
789.5079519576393
 20
214.1499460444844
 30
0.0
 11
792.5957733759743
 21
273.0690885950039
 31
0.0
  0
SOLID
  5
1F3F
330
1EB9
100
AcDbEntity
  8
BEM
 62
     0
440
 16777216
100
AcDbTrace
 10
788.3428841670924
 20
214.2110046601013
 30
0.0
 11
790.6730197481863
 21
214.0888874288677
 31
0.0
 12
789.1416002639386
 22
207.1595393012024
 32
0.0
 13
789.1416002639386
 23
207.1595393012024
 33
0.0
  0
SOLID
  5
1F40
330
1EB9
100
AcDbEntity
  8
BEM
 62
     0
440
 16777216
100
AcDbTrace
 10
791.4307055854274
 20
273.1301472106206
 30
0.0
 11
793.7608411665213
 21
273.0080299793871
 31
0.0
 12
792.9621250696751
 22
280.0594953382859
 32
0.0
 13
792.9621250696751
 23
280.0594953382859
 33
0.0
  0
MTEXT
  5
1F41
330
1EB9
100
AcDbEntity
  8
BEM
 62
     1
440
 16777216
100
AcDbMText
 10
784.5607706909021
 20
243.9497010353234
 30
0.0
 40
7.0
 41
0.0
 71
     5
 72
     1
  1
\A1;%%c73
  7
GREEKS
 11
0.052335956242967
 21
0.9986295347545725
 31
0.0
 73
     1
 44
1.0
  0
POINT
  5
1F42
330
1EB9
100
AcDbEntity
  8
DEFPOINTS
 62
     0
440
 16777216
100
AcDbPoint
 10
765.6232076508741
 20
208.3920860303604
 30
0.0
  0
POINT
  5
1F43
330
1EB9
100
AcDbEntity
  8
DEFPOINTS
 62
     0
440
 16777216
100
AcDbPoint
 10
769.4437324566107
 20
281.2920420674439
 30
0.0
  0
POINT
  5
1F44
330
1EB9
100
AcDbEntity
  8
DEFPOINTS
 62
     0
440
 16777216
100
AcDbPoint
 10
792.9621250696751
 20
280.0594953382859
 30
0.0
  0
ENDBLK
  5
1EC4
330
1EB9
100
AcDbEntity
  8
0
100
AcDbBlockEnd
  0
BLOCK
  5
1EDB
330
1ED1
100
AcDbEntity
  8
0
100
AcDbBlockBegin
  2
*D4
 70
     1
 10
0.0
 20
0.0
 30
0.0
  3
*D4
  1

  0
LINE
  5
1F4E
330
1ED1
100
AcDbEntity
  8
BEM
 62
     0
440
 16777216
370
    -2
100
AcDbLine
 10
550.2808811638643
 20
408.6987636230194
 30
0.0
 11
562.2335029154247
 21
396.7461418714592
 31
0.0
  0
LINE
  5
1F4F
330
1ED1
100
AcDbEntity
  8
BEM
 62
     0
440
 16777216
370
    -2
100
AcDbLine
 10
476.0346691392776
 20
334.4525515984315
 30
0.0
 11
487.9872908908379
 21
322.4999298468713
 31
0.0
  0
LINE
  5
1F50
330
1ED1
100
AcDbEntity
  8
BEM
 62
     0
440
 16777216
370
    -2
100
AcDbLine
 10
555.8695418847459
 20
393.2106079655264
 30
0.0
 11
491.5228247967706
 21
328.8638908775502
 31
0.0
  0
SOLID
  5
1F51
330
1ED1
100
AcDbEntity
  8
BEM
 62
     0
440
 16777216
100
AcDbTrace
 10
555.0445839733615
 20
394.0355658769107
 30
0.0
 11
556.6944997961302
 21
392.3856500541422
 31
0.0
 12
560.8192893530516
 22
398.1603554338323
 32
0.0
 13
560.8192893530516
 23
398.1603554338323
 33
0.0
  0
SOLID
  5
1F52
330
1ED1
100
AcDbEntity
  8
BEM
 62
     0
440
 16777216
100
AcDbTrace
 10
490.6978668853863
 20
329.6888487889345
 30
0.0
 11
492.347782708155
 21
328.0389329661659
 31
0.0
 12
486.5730773284647
 22
323.9141434092444
 32
0.0
 13
486.5730773284647
 23
323.9141434092444
 33
0.0
  0
MTEXT
  5
1F53
330
1ED1
100
AcDbEntity
  8
BEM
 62
     1
440
 16777216
100
AcDbMText
 10
519.0999892630457
 20
365.6334434992509
 30
0.0
 40
7.0
 41
0.0
 71
     5
 72
     1
  1
\A1;105
  7
GREEKS
 11
0.7071067811865423
 21
0.7071067811865528
 31
0.0
 73
     1
 44
1.0
  0
POINT
  5
1F54
330
1ED1
100
AcDbEntity
  8
DEFPOINTS
 62
     0
440
 16777216
100
AcDbPoint
 10
548.8666676014912
 20
410.1129771853925
 30
0.0
  0
POINT
  5
1F55
330
1ED1
100
AcDbEntity
  8
DEFPOINTS
 62
     0
440
 16777216
100
AcDbPoint
 10
474.6204555769044
 20
335.8667651608046
 30
0.0
  0
POINT
  5
1F56
330
1ED1
100
AcDbEntity
  8
DEFPOINTS
 62
     0
440
 16777216
100
AcDbPoint
 10
486.5730773284647
 20
323.9141434092444
 30
0.0
  0
ENDBLK
  5
1EDC
330
1ED1
100
AcDbEntity
  8
0
100
AcDbBlockEnd
  0
BLOCK
  5
1EE7
330
1EDD
100
AcDbEntity
  8
0
100
AcDbBlockBegin
  2
*D5
 70
     1
 10
0.0
 20
0.0
 30
0.0
  3
*D5
  1

  0
LINE
  5
211E
330
1EDD
100
AcDbEntity
  8
BEM
 62
     0
440
 16777216
370
    -2
100
AcDbLine
 10
197.2356792660537
 20
333.8667651608045
 30
0.0
 11
197.2356792660537
 21
210.1628250174611
 31
0.0
  0
LINE
  5
211F
330
1EDD
100
AcDbEntity
  8
BEM
 62
     0
440
 16777216
370
    -2
100
AcDbLine
 10
474.6204555769045
 20
333.8667651608046
 30
0.0
 11
474.6204555769045
 21
210.1628250174611
 31
0.0
  0
LINE
  5
2120
330
1EDD
100
AcDbEntity
  8
BEM
 62
     0
440
 16777216
370
    -2
100
AcDbLine
 10
204.2356792660537
 20
212.1628250174611
 30
0.0
 11
467.6204555769045
 21
212.1628250174611
 31
0.0
  0
SOLID
  5
2121
330
1EDD
100
AcDbEntity
  8
BEM
 62
     0
440
 16777216
100
AcDbTrace
 10
204.2356792660537
 20
213.3294916841277
 30
0.0
 11
204.2356792660537
 21
210.9961583507944
 31
0.0
 12
197.2356792660537
 22
212.1628250174611
 32
0.0
 13
197.2356792660537
 23
212.1628250174611
 33
0.0
  0
SOLID
  5
2122
330
1EDD
100
AcDbEntity
  8
BEM
 62
     0
440
 16777216
100
AcDbTrace
 10
467.6204555769045
 20
213.3294916841277
 30
0.0
 11
467.6204555769045
 21
210.9961583507944
 31
0.0
 12
474.6204555769045
 22
212.1628250174611
 32
0.0
 13
474.6204555769045
 23
212.1628250174611
 33
0.0
  0
MTEXT
  5
2123
330
1EDD
100
AcDbEntity
  8
BEM
 62
     1
440
 16777216
100
AcDbMText
 10
335.9280674214791
 20
218.6628250174611
 30
0.0
 40
7.0
 41
0.0
 71
     5
 72
     1
  1
\A1;277
  7
GREEKS
 73
     1
 44
1.0
  0
POINT
  5
2124
330
1EDD
100
AcDbEntity
  8
DEFPOINTS
 62
     0
440
 16777216
100
AcDbPoint
 10
197.2356792660537
 20
335.8667651608045
 30
0.0
  0
POINT
  5
2125
330
1EDD
100
AcDbEntity
  8
DEFPOINTS
 62
     0
440
 16777216
100
AcDbPoint
 10
474.6204555769045
 20
335.8667651608046
 30
0.0
  0
POINT
  5
2126
330
1EDD
100
AcDbEntity
  8
DEFPOINTS
 62
     0
440
 16777216
100
AcDbPoint
 10
474.6204555769045
 20
212.1628250174611
 30
0.0
  0
ENDBLK
  5
1EE8
330
1EDD
100
AcDbEntity
  8
0
100
AcDbBlockEnd
  0
BLOCK
  5
1F01
330
1EF5
100
AcDbEntity
  8
0
100
AcDbBlockBegin
  2
*D6
 70
     1
 10
0.0
 20
0.0
 30
0.0
  3
*D6
  1

  0
LINE
  5
1FBC
330
1EF5
100
AcDbEntity
  8
BEM
 62
     0
440
 16777216
370
    -2
100
AcDbLine
 10
195.2356792660537
 20
335.8667651608045
 30
0.0
 11
163.7565359771793
 21
335.8667651608045
 31
0.0
  0
LINE
  5
1FBD
330
1EF5
100
AcDbEntity
  8
BEM
 62
     0
440
 16777216
370
    -2
100
AcDbLine
 10
195.2356792660537
 20
338.8667651608045
 30
0.0
 11
163.7565359771793
 21
338.8667651608045
 31
0.0
  0
LINE
  5
1FBE
330
1EF5
100
AcDbEntity
  8
BEM
 62
     0
440
 16777216
370
    -2
100
AcDbLine
 10
165.7565359771792
 20
328.8667651608045
 30
0.0
 11
165.7565359771792
 21
321.8667651608045
 31
0.0
  0
LINE
  5
1FBF
330
1EF5
100
AcDbEntity
  8
BEM
 62
     0
440
 16777216
370
    -2
100
AcDbLine
 10
165.7565359771792
 20
345.8667651608045
 30
0.0
 11
165.7565359771792
 21
352.8667651608045
 31
0.0
  0
MTEXT
  5
1FC0
330
1EF5
100
AcDbEntity
  8
BEM
 62
     1
440
 16777216
100
AcDbMText
 10
155.7565359771792
 20
337.3667651608045
 30
0.0
 40
7.0
 41
0.0
 71
     5
 72
     1
  1
\A1;3
  7
GREEKS
 11
0.0000000000000001
 21
1.0
 31
0.0
 73
     1
 44
1.0
  0
LINE
  5
1FC1
330
1EF5
100
AcDbEntity
  8
BEM
 62
     0
440
 16777216
370
    -2
100
AcDbLine
 10
165.7565359771792
 20
335.8667651608045
 30
0.0
 11
165.7565359771792
 21
338.8667651608045
 31
0.0
  0
SOLID
  5
1FC2
330
1EF5
100
AcDbEntity
  8
BEM
 62
     0
440
 16777216
100
AcDbTrace
 10
164.5898693105126
 20
328.8667651608045
 30
0.0
 11
166.9232026438459
 21
328.8667651608045
 31
0.0
 12
165.7565359771792
 22
335.8667651608045
 32
0.0
 13
165.7565359771792
 23
335.8667651608045
 33
0.0
  0
SOLID
  5
1FC3
330
1EF5
100
AcDbEntity
  8
BEM
 62
     0
440
 16777216
100
AcDbTrace
 10
164.5898693105126
 20
345.8667651608045
 30
0.0
 11
166.9232026438459
 21
345.8667651608045
 31
0.0
 12
165.7565359771792
 22
338.8667651608045
 32
0.0
 13
165.7565359771792
 23
338.8667651608045
 33
0.0
  0
POINT
  5
1FC4
330
1EF5
100
AcDbEntity
  8
DEFPOINTS
 62
     0
440
 16777216
100
AcDbPoint
 10
197.2356792660537
 20
335.8667651608045
 30
0.0
  0
POINT
  5
1FC5
330
1EF5
100
AcDbEntity
  8
DEFPOINTS
 62
     0
440
 16777216
100
AcDbPoint
 10
197.2356792660537
 20
338.8667651608045
 30
0.0
  0
POINT
  5
1FC6
330
1EF5
100
AcDbEntity
  8
DEFPOINTS
 62
     0
440
 16777216
100
AcDbPoint
 10
165.7565359771792
 20
338.8667651608045
 30
0.0
  0
ENDBLK
  5
1F02
330
1EF5
100
AcDbEntity
  8
0
100
AcDbBlockEnd
  0
BLOCK
  5
20E0
330
20D6
100
AcDbEntity
  8
0
100
AcDbBlockBegin
  2
*D7
 70
     1
 10
0.0
 20
0.0
 30
0.0
  3
*D7
  1

  0
LINE
  5
20FA
330
20D6
100
AcDbEntity
  8
BEM
 62
     0
440
 16777216
370
    -2
100
AcDbLine
 10
465.2356792660537
 20
287.866765160805
 30
0.0
 11
465.2356792660537
 21
228.7258959153782
 31
0.0
  0
LINE
  5
20FB
330
20D6
100
AcDbEntity
  8
BEM
 62
     0
440
 16777216
370
    -2
100
AcDbLine
 10
265.2356792660537
 20
287.8667651608045
 30
0.0
 11
265.2356792660537
 21
228.7258959153782
 31
0.0
  0
LINE
  5
20FC
330
20D6
100
AcDbEntity
  8
BEM
 62
     0
440
 16777216
370
    -2
100
AcDbLine
 10
458.2356792660537
 20
230.7258959153782
 30
0.0
 11
272.2356792660537
 21
230.7258959153782
 31
0.0
  0
SOLID
  5
20FD
330
20D6
100
AcDbEntity
  8
BEM
 62
     0
440
 16777216
100
AcDbTrace
 10
458.2356792660537
 20
231.8925625820448
 30
0.0
 11
458.2356792660537
 21
229.5592292487115
 31
0.0
 12
465.2356792660537
 22
230.7258959153782
 32
0.0
 13
465.2356792660537
 23
230.7258959153782
 33
0.0
  0
SOLID
  5
20FE
330
20D6
100
AcDbEntity
  8
BEM
 62
     0
440
 16777216
100
AcDbTrace
 10
272.2356792660537
 20
231.8925625820448
 30
0.0
 11
272.2356792660537
 21
229.5592292487115
 31
0.0
 12
265.2356792660537
 22
230.7258959153782
 32
0.0
 13
265.2356792660537
 23
230.7258959153782
 33
0.0
  0
MTEXT
  5
20FF
330
20D6
100
AcDbEntity
  8
BEM
 62
     1
440
 16777216
100
AcDbMText
 10
365.2356792660537
 20
237.2258959153782
 30
0.0
 40
7.0
 41
0.0
 71
     5
 72
     1
  1
\A1;200
  7
GREEKS
 73
     1
 44
1.0
  0
POINT
  5
2100
330
20D6
100
AcDbEntity
  8
DEFPOINTS
 62
     0
440
 16777216
100
AcDbPoint
 10
465.2356792660537
 20
289.866765160805
 30
0.0
  0
POINT
  5
2101
330
20D6
100
AcDbEntity
  8
DEFPOINTS
 62
     0
440
 16777216
100
AcDbPoint
 10
265.2356792660537
 20
289.8667651608045
 30
0.0
  0
POINT
  5
2102
330
20D6
100
AcDbEntity
  8
DEFPOINTS
 62
     0
440
 16777216
100
AcDbPoint
 10
265.2356792660537
 20
230.7258959153782
 30
0.0
  0
ENDBLK
  5
20E1
330
20D6
100
AcDbEntity
  8
0
100
AcDbBlockEnd
  0
BLOCK
  5
20EC
330
20E2
100
AcDbEntity
  8
0
100
AcDbBlockBegin
  2
*D8
 70
     1
 10
0.0
 20
0.0
 30
0.0
  3
*D8
  1

  0
LINE
  5
2103
330
20E2
100
AcDbEntity
  8
BEM
 62
     0
440
 16777216
370
    -2
100
AcDbLine
 10
197.2356792660537
 20
333.8667651608045
 30
0.0
 11
197.2356792660537
 21
228.7258959153782
 31
0.0
  0
LINE
  5
2104
330
20E2
100
AcDbEntity
  8
BEM
 62
     0
440
 16777216
370
    -2
100
AcDbLine
 10
265.2356792660537
 20
287.8667651608045
 30
0.0
 11
265.2356792660537
 21
228.7258959153782
 31
0.0
  0
LINE
  5
2105
330
20E2
100
AcDbEntity
  8
BEM
 62
     0
440
 16777216
370
    -2
100
AcDbLine
 10
204.2356792660537
 20
230.7258959153782
 30
0.0
 11
258.2356792660537
 21
230.7258959153782
 31
0.0
  0
SOLID
  5
2106
330
20E2
100
AcDbEntity
  8
BEM
 62
     0
440
 16777216
100
AcDbTrace
 10
204.2356792660537
 20
231.8925625820448
 30
0.0
 11
204.2356792660537
 21
229.5592292487115
 31
0.0
 12
197.2356792660537
 22
230.7258959153782
 32
0.0
 13
197.2356792660537
 23
230.7258959153782
 33
0.0
  0
SOLID
  5
2107
330
20E2
100
AcDbEntity
  8
BEM
 62
     0
440
 16777216
100
AcDbTrace
 10
258.2356792660537
 20
231.8925625820448
 30
0.0
 11
258.2356792660537
 21
229.5592292487115
 31
0.0
 12
265.2356792660537
 22
230.7258959153782
 32
0.0
 13
265.2356792660537
 23
230.7258959153782
 33
0.0
  0
MTEXT
  5
2108
330
20E2
100
AcDbEntity
  8
BEM
 62
     1
440
 16777216
100
AcDbMText
 10
231.2356792660537
 20
237.2258959153782
 30
0.0
 40
7.0
 41
0.0
 71
     5
 72
     1
  1
\A1;68
  7
GREEKS
 73
     1
 44
1.0
  0
POINT
  5
2109
330
20E2
100
AcDbEntity
  8
DEFPOINTS
 62
     0
440
 16777216
100
AcDbPoint
 10
197.2356792660537
 20
335.8667651608045
 30
0.0
  0
POINT
  5
210A
330
20E2
100
AcDbEntity
  8
DEFPOINTS
 62
     0
440
 16777216
100
AcDbPoint
 10
265.2356792660537
 20
289.8667651608045
 30
0.0
  0
POINT
  5
210B
330
20E2
100
AcDbEntity
  8
DEFPOINTS
 62
     0
440
 16777216
100
AcDbPoint
 10
265.2356792660537
 20
230.7258959153782
 30
0.0
  0
ENDBLK
  5
20ED
330
20E2
100
AcDbEntity
  8
0
100
AcDbBlockEnd
  0
BLOCK
  5
20F8
330
20EE
100
AcDbEntity
  8
0
100
AcDbBlockBegin
  2
*D9
 70
     1
 10
0.0
 20
0.0
 30
0.0
  3
*D9
  1

  0
LINE
  5
2115
330
20EE
100
AcDbEntity
  8
BEM
 62
     0
440
 16777216
370
    -2
100
AcDbLine
 10
272.2356792660537
 20
280.8667651608045
 30
0.0
 11
163.7565359771792
 21
280.8667651608045
 31
0.0
  0
LINE
  5
2116
330
20EE
100
AcDbEntity
  8
BEM
 62
     0
440
 16777216
370
    -2
100
AcDbLine
 10
195.2356792660537
 20
335.8667651608045
 30
0.0
 11
163.7565359771793
 21
335.8667651608045
 31
0.0
  0
LINE
  5
2117
330
20EE
100
AcDbEntity
  8
BEM
 62
     0
440
 16777216
370
    -2
100
AcDbLine
 10
165.7565359771792
 20
287.8667651608045
 30
0.0
 11
165.7565359771792
 21
328.8667651608045
 31
0.0
  0
SOLID
  5
2118
330
20EE
100
AcDbEntity
  8
BEM
 62
     0
440
 16777216
100
AcDbTrace
 10
164.5898693105126
 20
287.8667651608045
 30
0.0
 11
166.9232026438459
 21
287.8667651608045
 31
0.0
 12
165.7565359771792
 22
280.8667651608045
 32
0.0
 13
165.7565359771792
 23
280.8667651608045
 33
0.0
  0
SOLID
  5
2119
330
20EE
100
AcDbEntity
  8
BEM
 62
     0
440
 16777216
100
AcDbTrace
 10
164.5898693105126
 20
328.8667651608045
 30
0.0
 11
166.9232026438459
 21
328.8667651608045
 31
0.0
 12
165.7565359771792
 22
335.8667651608045
 32
0.0
 13
165.7565359771792
 23
335.8667651608045
 33
0.0
  0
MTEXT
  5
211A
330
20EE
100
AcDbEntity
  8
BEM
 62
     1
440
 16777216
100
AcDbMText
 10
159.2565359771792
 20
308.3667651608046
 30
0.0
 40
7.0
 41
0.0
 71
     5
 72
     1
  1
\A1;55
  7
GREEKS
 11
0.0000000000000001
 21
1.0
 31
0.0
 73
     1
 44
1.0
  0
POINT
  5
211B
330
20EE
100
AcDbEntity
  8
DEFPOINTS
 62
     0
440
 16777216
100
AcDbPoint
 10
274.2356792660537
 20
280.8667651608045
 30
0.0
  0
POINT
  5
211C
330
20EE
100
AcDbEntity
  8
DEFPOINTS
 62
     0
440
 16777216
100
AcDbPoint
 10
197.2356792660537
 20
335.8667651608045
 30
0.0
  0
POINT
  5
211D
330
20EE
100
AcDbEntity
  8
DEFPOINTS
 62
     0
440
 16777216
100
AcDbPoint
 10
165.7565359771792
 20
335.8667651608045
 30
0.0
  0
ENDBLK
  5
20F9
330
20EE
100
AcDbEntity
  8
0
100
AcDbBlockEnd
  0
BLOCK
  5
22A4
330
22A3
100
AcDbEntity
  8
0
100
AcDbBlockBegin
  2
*D10
 70
     1
 10
0.0
 20
0.0
 30
0.0
  3
*D10
  1

  0
LINE
  5
22AF
330
22A3
100
AcDbEntity
  8
BEM
 62
     0
440
 16777216
370
    -2
100
AcDbLine
 10
203.2356792660537
 20
344.3667651608045
 30
0.0
 11
182.6995276006864
 21
344.3667651608045
 31
0.0
  0
LINE
  5
22B0
330
22A3
100
AcDbEntity
  8
BEM
 62
     0
440
 16777216
370
    -2
100
AcDbLine
 10
262.9962967212459
 20
379.3667651608046
 30
0.0
 11
182.6995276006864
 21
379.3667651608046
 31
0.0
  0
LINE
  5
22B1
330
22A3
100
AcDbEntity
  8
BEM
 62
     0
440
 16777216
370
    -2
100
AcDbLine
 10
184.6995276006864
 20
351.3667651608045
 30
0.0
 11
184.6995276006864
 21
372.3667651608046
 31
0.0
  0
SOLID
  5
22B2
330
22A3
100
AcDbEntity
  8
BEM
 62
     0
440
 16777216
100
AcDbTrace
 10
183.5328609340198
 20
351.3667651608045
 30
0.0
 11
185.8661942673531
 21
351.3667651608045
 31
0.0
 12
184.6995276006864
 22
344.3667651608045
 32
0.0
 13
184.6995276006864
 23
344.3667651608045
 33
0.0
  0
SOLID
  5
22B3
330
22A3
100
AcDbEntity
  8
BEM
 62
     0
440
 16777216
100
AcDbTrace
 10
183.5328609340198
 20
372.3667651608046
 30
0.0
 11
185.8661942673531
 21
372.3667651608046
 31
0.0
 12
184.6995276006864
 22
379.3667651608046
 32
0.0
 13
184.6995276006864
 23
379.3667651608046
 33
0.0
  0
MTEXT
  5
22B4
330
22A3
100
AcDbEntity
  8
BEM
 62
     1
440
 16777216
100
AcDbMText
 10
178.1995276006864
 20
361.8667651608046
 30
0.0
 40
7.0
 41
0.0
 71
     5
 72
     1
  1
\A1;35
  7
GREEKS
 11
0.0000000000000001
 21
1.0
 31
0.0
 73
     1
 44
1.0
  0
POINT
  5
22B5
330
22A3
100
AcDbEntity
  8
DEFPOINTS
 62
     0
440
 16777216
100
AcDbPoint
 10
205.2356792660537
 20
344.3667651608045
 30
0.0
  0
POINT
  5
22B6
330
22A3
100
AcDbEntity
  8
DEFPOINTS
 62
     0
440
 16777216
100
AcDbPoint
 10
264.9962967212459
 20
379.3667651608046
 30
0.0
  0
POINT
  5
22B7
330
22A3
100
AcDbEntity
  8
DEFPOINTS
 62
     0
440
 16777216
100
AcDbPoint
 10
184.6995276006864
 20
379.3667651608046
 30
0.0
  0
ENDBLK
  5
22A5
330
22A3
100
AcDbEntity
  8
0
100
AcDbBlockEnd
  0
BLOCK
  5
22BC
330
22BB
100
AcDbEntity
  8
0
100
AcDbBlockBegin
  2
*D11
 70
     1
 10
0.0
 20
0.0
 30
0.0
  3
*D11
  1

  0
LINE
  5
2300
330
22BB
100
AcDbEntity
  8
BEM
 62
     0
440
 16777216
370
    -2
100
AcDbLine
 10
332.2356792660536
 20
386.3667651608044
 30
0.0
 11
332.2356792660536
 21
467.4456136661294
 31
0.0
  0
LINE
  5
2301
330
22BB
100
AcDbEntity
  8
BEM
 62
     0
440
 16777216
370
    -2
100
AcDbLine
 10
772.4568559561494
 20
246.5840403272035
 30
0.0
 11
772.4568559561494
 21
467.4456136661294
 31
0.0
  0
LINE
  5
2302
330
22BB
100
AcDbEntity
  8
BEM
 62
     0
440
 16777216
370
    -2
100
AcDbLine
 10
339.2356792660536
 20
465.4456136661294
 30
0.0
 11
765.4568559561494
 21
465.4456136661294
 31
0.0
  0
SOLID
  5
2303
330
22BB
100
AcDbEntity
  8
BEM
 62
     0
440
 16777216
100
AcDbTrace
 10
339.2356792660536
 20
466.6122803327962
 30
0.0
 11
339.2356792660536
 21
464.2789469994627
 31
0.0
 12
332.2356792660536
 22
465.4456136661294
 32
0.0
 13
332.2356792660536
 23
465.4456136661294
 33
0.0
  0
SOLID
  5
2304
330
22BB
100
AcDbEntity
  8
BEM
 62
     0
440
 16777216
100
AcDbTrace
 10
765.4568559561494
 20
466.6122803327962
 30
0.0
 11
765.4568559561494
 21
464.2789469994627
 31
0.0
 12
772.4568559561494
 22
465.4456136661294
 32
0.0
 13
772.4568559561494
 23
465.4456136661294
 33
0.0
  0
MTEXT
  5
2305
330
22BB
100
AcDbEntity
  8
BEM
 62
     1
440
 16777216
100
AcDbMText
 10
552.3462676111015
 20
471.9456136661294
 30
0.0
 40
7.0
 41
0.0
 71
     5
 72
     1
  1
\A1;800
  7
GREEKS
 73
     1
 44
1.0
  0
POINT
  5
2306
330
22BB
100
AcDbEntity
  8
DEFPOINTS
 62
     0
440
 16777216
100
AcDbPoint
 10
332.2356792660536
 20
384.3667651608044
 30
0.0
  0
POINT
  5
2307
330
22BB
100
AcDbEntity
  8
DEFPOINTS
 62
     0
440
 16777216
100
AcDbPoint
 10
772.4568559561494
 20
244.5840403272035
 30
0.0
  0
POINT
  5
2308
330
22BB
100
AcDbEntity
  8
DEFPOINTS
 62
     0
440
 16777216
100
AcDbPoint
 10
772.4568559561494
 20
465.4456136661294
 30
0.0
  0
ENDBLK
  5
22BD
330
22BB
100
AcDbEntity
  8
0
100
AcDbBlockEnd
  0
ENDSEC
  0
SECTION
  2
ENTITIES
  0
LINE
  5
2B9
330
1101
100
AcDbEntity
  8
STEMPEL
100
AcDbLine
 10
830.0
 20
109.9999999999999
 30
0.0
 11
470.0
 21
109.9999999999999
 31
0.0
  0
LINE
  5
2BA
330
1101
100
AcDbEntity
  8
STEMPEL
100
AcDbLine
 10
566.0
 20
109.9999999999996
 30
0.0
 11
566.0
 21
10.0
 31
0.0
  0
LINE
  5
2BB
330
1101
100
AcDbEntity
  8
STEMPEL
100
AcDbLine
 10
650.0
 20
109.9999999999999
 30
0.0
 11
650.0
 21
10.0
 31
0.0
  0
LINE
  5
2BC
330
1101
100
AcDbEntity
  8
STEMPEL
100
AcDbLine
 10
752.0
 20
109.9999999999996
 30
0.0
 11
752.0
 21
40.0
 31
0.0
  0
LINE
  5
2BD
330
1101
100
AcDbEntity
  8
STEMPEL
100
AcDbLine
 10
565.9999999999997
 20
30.0
 30
0.0
 11
470.0
 21
30.0
 31
0.0
  0
LINE
  5
2BE
330
1101
100
AcDbEntity
  8
STEMPEL
100
AcDbLine
 10
830.0
 20
40.0
 30
0.0
 11
566.0
 21
40.0
 31
0.0
  0
LINE
  5
2BF
330
1101
100
AcDbEntity
  8
STEMPEL
100
AcDbLine
 10
830.0
 20
80.0
 30
0.0
 11
566.0
 21
79.99999999999977
 31
0.0
  0
LINE
  5
2C0
330
1101
100
AcDbEntity
  8
VOLL
100
AcDbLine
 10
484.0000000000001
 20
109.9999999999999
 30
0.0
 11
484.0
 21
10.0
 31
0.0
  0
LINE
  5
2C1
330
1101
100
AcDbEntity
  8
VOLL
100
AcDbLine
 10
524.0
 20
109.9999999999996
 30
0.0
 11
524.0
 21
10.0
 31
0.0
  0
LINE
  5
2C2
330
1101
100
AcDbEntity
  8
VOLL
100
AcDbLine
 10
544.0
 20
109.9999999999996
 30
0.0
 11
544.0
 21
10.0
 31
0.0
  0
LINE
  5
2C3
330
1101
100
AcDbEntity
  8
VOLL
100
AcDbLine
 10
584.0
 20
79.99999999999977
 30
0.0
 11
584.0
 21
40.0
 31
0.0
  0
LINE
  5
2C4
330
1101
100
AcDbEntity
  8
VOLL
100
AcDbLine
 10
610.0
 20
109.9999999999996
 30
0.0
 11
610.0
 21
40.0
 31
0.0
  0
LINE
  5
2C5
330
1101
100
AcDbEntity
  8
HILF
100
AcDbLine
 10
470.0000000000001
 20
99.99999999999989
 30
0.0
 11
566.0
 21
99.99999999999989
 31
0.0
  0
LINE
  5
2C6
330
1101
100
AcDbEntity
  8
HILF
100
AcDbLine
 10
470.0000000000001
 20
89.99999999999989
 30
0.0
 11
566.0
 21
89.99999999999989
 31
0.0
  0
LINE
  5
2C7
330
1101
100
AcDbEntity
  8
HILF
100
AcDbLine
 10
470.0000000000001
 20
79.99999999999977
 30
0.0
 11
566.0
 21
79.99999999999977
 31
0.0
  0
LINE
  5
2C8
330
1101
100
AcDbEntity
  8
HILF
100
AcDbLine
 10
470.0000000000001
 20
69.99999999999977
 30
0.0
 11
566.0
 21
69.99999999999977
 31
0.0
  0
LINE
  5
2C9
330
1101
100
AcDbEntity
  8
HILF
100
AcDbLine
 10
470.0000000000001
 20
60.0
 30
0.0
 11
566.0
 21
60.0
 31
0.0
  0
LINE
  5
2CA
330
1101
100
AcDbEntity
  8
HILF
100
AcDbLine
 10
470.0000000000001
 20
50.0
 30
0.0
 11
566.0
 21
50.0
 31
0.0
  0
LINE
  5
2CB
330
1101
100
AcDbEntity
  8
HILF
100
AcDbLine
 10
470.0000000000001
 20
40.0
 30
0.0
 11
566.0
 21
40.0
 31
0.0
  0
LINE
  5
2CC
330
1101
100
AcDbEntity
  8
HILF
100
AcDbLine
 10
566.0
 20
69.99999999999977
 30
0.0
 11
650.0
 21
69.99999999999977
 31
0.0
  0
LINE
  5
2CD
330
1101
100
AcDbEntity
  8
HILF
100
AcDbLine
 10
566.0
 20
60.0
 30
0.0
 11
650.0
 21
60.0
 31
0.0
  0
LINE
  5
2CE
330
1101
100
AcDbEntity
  8
HILF
100
AcDbLine
 10
566.0
 20
50.0
 30
0.0
 11
650.0
 21
50.0
 31
0.0
  0
LINE
  5
2CF
330
1101
100
AcDbEntity
  8
HILF
100
AcDbLine
 10
654.7736801096946
 20
84.03758247564121
 30
0.0
 11
744.8353916556309
 21
84.03758247564121
 31
0.0
  0
LINE
  5
2D0
330
1101
100
AcDbEntity
  8
HILF
100
AcDbLine
 10
654.7736801096946
 20
69.99999999999977
 30
0.0
 11
744.8353916556309
 21
69.99999999999977
 31
0.0
  0
LINE
  5
2D1
330
1101
100
AcDbEntity
  8
HILF
100
AcDbLine
 10
654.7736801096946
 20
60.0
 30
0.0
 11
744.8353916556309
 21
60.0
 31
0.0
  0
LINE
  5
2D2
330
1101
100
AcDbEntity
  8
HILF
100
AcDbLine
 10
654.7736801096946
 20
50.0
 30
0.0
 11
744.8353916556309
 21
50.0
 31
0.0
  0
LINE
  5
2D3
330
1101
100
AcDbEntity
  8
VOLL
100
AcDbLine
 10
752.0
 20
60.0
 30
0.0
 11
830.0
 21
60.0
 31
0.0
  0
LINE
  5
2D4
330
1101
100
AcDbEntity
  8
HILF
100
AcDbLine
 10
756.7238616296992
 20
83.77983636955798
 30
0.0
 11
824.8588839326728
 21
83.77983636955798
 31
0.0
  0
LINE
  5
2D5
330
1101
100
AcDbEntity
  8
HILF
100
AcDbLine
 10
653.4909699289885
 20
14.89398258028314
 30
0.0
 11
824.8588839326728
 21
14.89398258028314
 31
0.0
  0
TEXT
  5
2D6
330
1101
100
AcDbEntity
  8
TEXT
100
AcDbText
 10
492.7826069847975
 20
18.67381894984123
 30
0.0
 40
4.0
  1
Änderung
 41
0.8
  7
GREEKS
 72
     1
 11
503.5254641276546
 21
18.67381894984123
 31
0.0
100
AcDbText
  0
TEXT
  5
2D7
330
1101
100
AcDbEntity
  8
TEXT
100
AcDbText
 10
573.5163572150376
 20
102.4620895087085
 30
0.0
 40
5.0
  1
Maßstab
 41
0.8
  7
GREEKS
100
AcDbText
  0
TEXT
  5
2D8
330
1101
100
AcDbEntity
  8
TEXT
100
AcDbText
 10
614.2858954734052
 20
102.4184168434816
 30
0.0
 40
5.0
  1
Zul. Abw.
 41
0.8
  7
GREEKS
100
AcDbText
  0
TEXT
  5
2D9
330
1101
100
AcDbEntity
  8
TEXT
100
AcDbText
 10
654.8779403809009
 20
102.5489328011778
 30
0.0
 40
5.0
  1
Benennung
 41
0.8
  7
GREEKS
100
AcDbText
  0
TEXT
  5
2DA
330
1101
100
AcDbEntity
  8
TEXT
100
AcDbText
 10
756.178754957634
 20
102.3132034537135
 30
0.0
 40
5.0
  1
Zeichnungs Nr.
 41
0.8
  7
GREEKS
100
AcDbText
  0
TEXT
  5
2DB
330
1101
100
AcDbEntity
  8
TEXT
100
AcDbText
 10
654.7422383911359
 20
30.84560570193048
 30
0.0
 40
5.0
  1
Bauvorhaben
 41
0.8
  7
GREEKS
100
AcDbText
  0
TEXT
  5
2DC
330
1101
100
AcDbEntity
  8
TEXT
100
AcDbText
 10
756.7238616296992
 20
73.18118237099952
 30
0.0
 40
5.0
  1
Ersatz für:
 41
0.8
  7
GREEKS
100
AcDbText
  0
TEXT
  5
2DD
330
1101
100
AcDbEntity
  8
TEXT
100
AcDbText
 10
478.2664110704575
 20
13.65465846027177
 30
0.0
 40
4.0
  1
Index
 50
90.0
 41
0.8
  7
GREEKS
100
AcDbText
  0
TEXT
  5
2DE
330
1101
100
AcDbEntity
  8
TEXT
100
AcDbText
 10
530.0571803261054
 20
18.67156269339807
 30
0.0
 40
4.0
  1
Tag
 41
0.8
  7
GREEKS
 72
     1
 11
533.7905136594388
 21
18.67156269339807
 31
0.0
100
AcDbText
  0
TEXT
  5
2DF
330
1101
100
AcDbEntity
  8
TEXT
100
AcDbText
 10
548.6614567187547
 20
18.59324216966411
 30
0.0
 40
4.0
  1
Name
 41
0.8
  7
GREEKS
 72
     1
 11
554.9852662425641
 21
18.59324216966411
 31
0.0
100
AcDbText
  0
TEXT
  5
2E0
330
1101
100
AcDbEntity
  8
TEXT
100
AcDbText
 10
592.3311673153651
 20
73.31880501229921
 30
0.0
 40
4.0
  1
Tag
 41
0.8
  7
GREEKS
100
AcDbText
  0
TEXT
  5
2E1
330
1101
100
AcDbEntity
  8
TEXT
100
AcDbText
 10
622.4626584226293
 20
73.30961091915219
 30
0.0
 40
4.0
  1
Name
 41
0.8
  7
GREEKS
100
AcDbText
  0
TEXT
  5
2E2
330
1101
100
AcDbEntity
  8
TEXT
100
AcDbText
 10
567.5836127167615
 20
63.62990369617955
 30
0.0
 40
4.0
  1
Gez.
 41
0.8
  7
GREEKS
100
AcDbText
  0
TEXT
  5
2E3
330
1101
100
AcDbEntity
  8
TEXT
100
AcDbText
 10
567.5515086571672
 20
53.68926291428374
 30
0.0
 40
4.0
  1
Gepr.
 41
0.8
  7
GREEKS
100
AcDbText
  0
TEXT
  5
2E4
330
1101
100
AcDbEntity
  8
TEXT
100
AcDbText
 10
567.6006777387303
 20
43.5294638964981
 30
0.0
 40
4.0
  1
Norm.
 41
0.8
  7
GREEKS
100
AcDbText
  0
LINE
  5
2E5
330
1101
100
AcDbEntity
  8
STEMPEL
100
AcDbLine
 10
479.9999999999998
 20
10.0
 30
0.0
 11
830.0
 21
10.0
 31
0.0
  0
TEXT
  5
2E6
330
1101
100
AcDbEntity
  8
TEXT
100
AcDbText
 10
757.2400861497006
 20
52.07416177878599
 30
0.0
 40
5.0
  1
ersetzt durch:
 41
0.8
  7
GREEKS
100
AcDbText
  0
LINE
  5
2E7
330
1101
100
AcDbEntity
  8
STEMPEL
100
AcDbLine
 10
830.0
 20
10.0
 30
0.0
 11
39.99999999999997
 21
10.0
 31
0.0
  0
LINE
  5
2E8
330
1101
100
AcDbEntity
  8
STEMPEL
100
AcDbLine
 10
830.0
 20
10.0
 30
0.0
 11
830.0
 21
583.9999999999998
 31
0.0
  0
LINE
  5
2E9
330
1101
100
AcDbEntity
  8
STEMPEL
100
AcDbLine
 10
470.0
 20
10.0
 30
0.0
 11
470.0
 21
109.9999999999999
 31
0.0
  0
LINE
  5
2EA
330
1101
100
AcDbEntity
  8
STEMPEL
100
AcDbLine
 10
830.0
 20
583.9999999999998
 30
0.0
 11
39.99999999999986
 21
583.9999999999998
 31
0.0
  0
LINE
  5
2EB
330
1101
100
AcDbEntity
  8
HILF
100
AcDbLine
 10
839.9999999999998
 20
594.0000000000001
 30
0.0
 11
-0.0000000000002274
 21
593.9999999999996
 31
0.0
  0
LINE
  5
2EC
330
1101
100
AcDbEntity
  8
HILF
100
AcDbLine
 10
840.0
 20
0.0
 30
0.0
 11
0.0
 21
0.0
 31
0.0
  0
LINE
  5
2ED
330
1101
100
AcDbEntity
  8
HILF
100
AcDbLine
 10
31.08767135713847
 20
296.9999999999998
 30
0.0
 11
0.0
 21
296.9999999999998
 31
0.0
  0
TEXT
  5
2EE
330
1101
100
AcDbEntity
  8
TEXT
100
AcDbText
 10
568.6221098221039
 20
73.14025471151649
 30
0.0
 40
4.0
  1
2015
 41
0.8
  7
GREEKS
100
AcDbText
  0
LINE
  5
2EF
330
1101
100
AcDbEntity
  8
HILF
100
AcDbLine
 10
840.0
 20
-0.0000000000002274
 30
0.0
 11
839.9999999999998
 21
593.9999999999998
 31
0.0
  0
TEXT
  5
2F0
330
1101
100
AcDbEntity
  8
VOLL
100
AcDbText
 10
78.07675471698113
 20
31.02594776470585
 30
0.0
 40
1.8
  1

  7
GREEKS
100
AcDbText
  0
TEXT
  5
2F1
330
1101
100
AcDbEntity
  8
TEXT
100
AcDbText
 10
471.8550995097768
 20
111.6719999999997
 30
0.0
 40
5.0
  1
Erstellt mit AUTOCAD 2004
 41
0.8
  7
GREEKS
100
AcDbText
  0
TEXT
  5
2F2
330
1101
100
AcDbEntity
  8
TEXT
100
AcDbText
 10
624.4216048581257
 20
63.0896391972351
 30
0.0
 40
4.0
  1
Koeh
 41
0.8
  7
GREEKS
 72
     1
 11
629.6787477152686
 21
63.0896391972351
 31
0.0
100
AcDbText
  0
TEXT
  5
2F3
330
1101
100
AcDbEntity
  8
TEXT
 62
     1
100
AcDbText
 10
768.6977935463264
 20
88.14901428913946
 30
0.0
 40
7.0
  1
13710070X
 41
0.8
  7
GREEKS
 72
     1
 11
790.8311268796597
 21
88.14901428913946
 31
0.0
100
AcDbText
  0
TEXT
  5
2F4
330
1101
100
AcDbEntity
  8
TEXT
 62
     1
100
AcDbText
 10
580.5006306481886
 20
88.14901428913946
 30
0.0
 40
7.0
  1
1:2
 41
0.8
  7
GREEKS
100
AcDbText
  0
TEXT
  5
2F5
330
1101
100
AcDbEntity
  8
TEXT
100
AcDbText
 10
590.703759012998
 20
63.10765040825732
 30
0.0
 40
4.0
  1
30.01.
 41
0.8
  7
GREEKS
 72
     1
 11
597.4085209177599
 21
63.10765040825732
 31
0.0
100
AcDbText
  0
TEXT
  5
2F6
330
1101
100
AcDbEntity
  8
TEXT
 62
     1
100
AcDbText
 10
655.0506768857031
 20
87.41748789253767
 30
0.0
 40
7.0
  1
Rainstar Attika-Notablauf
 41
0.65
  7
GREEKS
100
AcDbText
  0
TEXT
  5
2F7
330
1101
100
AcDbEntity
  8
TEXT
100
AcDbText
 10
655.1296391125315
 20
71.50334417585281
 30
0.0
 40
5.0
  1
Grundeinheit DN70 Typ RB
 41
0.8
  7
GREEKS
100
AcDbText
  0
TEXT
  5
2F8
330
1101
100
AcDbEntity
  8
TEXT
100
AcDbText
 10
655.1296391125315
 20
62.11580706774862
 30
0.0
 40
5.0
  1
für Bitumenklemmung
 41
0.8
  7
GREEKS
100
AcDbText
  0
TEXT
  5
2F9
330
1101
100
AcDbEntity
  8
TEXT
100
AcDbText
 10
655.1296391125315
 20
51.64011943042146
 30
0.0
 40
5.0
  1
EDV-Art.Nr. 13710.070X
 41
0.8
  7
GREEKS
100
AcDbText
  0
TEXT
  5
2FA
330
1101
100
AcDbEntity
  8
TEXT
100
AcDbText
 10
654.9837501577826
 20
42.62974153022628
 30
0.0
 40
4.0
  1
13710.070X.DWG
 41
0.8
  7
GREEKS
100
AcDbText
  0
TEXT
  5
2FB
330
1101
100
AcDbEntity
  8
TEXT
100
AcDbText
 10
612.6261322080839
 20
90.7636384102301
 30
0.0
 40
4.0
  1
DIN EN1124-3
 41
0.8
  7
GREEKS
 72
     1
 11
629.6166083985601
 21
90.7636384102301
 31
0.0
100
AcDbText
  0
INSERT
  5
2FC
330
1101
100
AcDbEntity
  8
STEMPEL
100
AcDbBlockReference
  2
LOGO
 10
570.9955485457794
 20
45.0210527644831
 30
0.0
 41
2.0
 42
2.0
 43
2.0
  0
LINE
  5
2FD
330
1101
100
AcDbEntity
  8
HILF
100
AcDbLine
 10
0.0
 20
0.0
 30
0.0
 11
-0.0000000000002274
 21
593.9999999999996
 31
0.0
  0
LINE
  5
2FE
330
1101
100
AcDbEntity
  8
STEMPEL
100
AcDbLine
 10
39.99999999999997
 20
10.0
 30
0.0
 11
39.99999999999986
 21
583.9999999999998
 31
0.0
  0
LINE
  5
2FF
330
1101
100
AcDbEntity
  8
HILF
 62
     7
100
AcDbLine
 10
460.0
 20
-0.0000000000002274
 30
0.0
 11
460.0
 21
10.0
 31
0.0
  0
LINE
  5
300
330
1101
100
AcDbEntity
  8
HILF
 62
     7
100
AcDbLine
 10
459.9999999999998
 20
583.9999999999998
 30
0.0
 11
459.9999999999998
 21
593.9999999999996
 31
0.0
  0
TEXT
  5
301
330
1101
100
AcDbEntity
  8
TEXT
100
AcDbText
 10
836.5811541437437
 20
12.14804815338303
 30
0.0
 40
4.0
  1
Diese Zeichnung ist urheberrechtlich geschützt und bleibt unser Eigentum. Sie darf weder ganz noch teilweise vervielfältigt und nicht an Dritte weitergegeben werden.
 50
90.0
 41
0.8
  7
GREEKS
100
AcDbText
  0
TEXT
  5
17F8
330
1101
100
AcDbEntity
  8
TEXT
 62
     1
100
AcDbText
 10
790.8311268796597
 20
62.05217299597996
 30
0.0
 40
7.0
  1

 41
0.8
  7
GREEKS
 72
     1
 11
790.8311268796597
 21
62.05217299597996
 31
0.0
100
AcDbText
  0
TEXT
  5
1895
330
1101
100
AcDbEntity
  8
TEXT
 62
     1
100
AcDbText
 10
182.2186771577113
 20
143.6803049909653
 30
0.0
 40
7.0
  1
Spaltbreite zwischen Fest- und Losflansch ohne Dichtung max. 3.5mm
 41
0.8
  7
GREEKS
100
AcDbText
  0
LINE
  5
19BF
330
1101
100
AcDbEntity
  8
MITTEL
100
AcDbLine
 10
613.6567989217581
 20
252.9063986663959
 30
0.0
 11
777.4500036299223
 21
244.3223605459888
 31
0.0
  0
LINE
  5
19CA
330
1101
100
AcDbEntity
  8
HILF
100
AcDbLine
 10
619.788453236408
 20
279.7205395350074
 30
0.0
 11
617.1949691936099
 21
289.2710616486472
 31
0.0
210
0.0
220
0.0
230
-1.0
  0
LINE
  5
19CB
330
1101
100
AcDbEntity
  8
HILF
100
AcDbLine
 10
620.6528674078033
 20
270.4227561701418
 30
0.0
 11
619.788453236408
 21
279.7205395350074
 31
0.0
210
0.0
220
0.0
230
-1.0
  0
LINE
  5
19CC
330
1101
100
AcDbEntity
  8
HILF
100
AcDbLine
 10
619.8982112289256
 20
265.9473483176427
 30
0.0
 11
620.6528674078033
 21
270.4227561701418
 31
0.0
210
0.0
220
0.0
230
-1.0
  0
LINE
  5
19CD
330
1101
100
AcDbEntity
  8
HILF
100
AcDbLine
 10
618.2605454217044
 20
261.6009692041056
 30
0.0
 11
619.8982112289256
 21
265.9473483176427
 31
0.0
210
0.0
220
0.0
230
-1.0
  0
LINE
  5
19CE
330
1101
100
AcDbEntity
  8
HILF
100
AcDbLine
 10
613.7348813682367
 20
253.0903787827189
 30
0.0
 11
618.2605454217044
 21
261.6009692041056
 31
0.0
210
0.0
220
0.0
230
-1.0
  0
LINE
  5
19CF
330
1101
100
AcDbEntity
  8
HILF
100
AcDbLine
 10
610.0689097257361
 20
244.4525104827257
 30
0.0
 11
613.7348813682367
 21
253.0903787827189
 31
0.0
210
0.0
220
0.0
230
-1.0
  0
LINE
  5
19D0
330
1101
100
AcDbEntity
  8
HILF
100
AcDbLine
 10
609.372450723132
 20
239.9665916810006
 30
0.0
 11
610.0689097257361
 21
244.4525104827257
 31
0.0
210
0.0
220
0.0
230
-1.0
  0
LINE
  5
19D1
330
1101
100
AcDbEntity
  8
HILF
100
AcDbLine
 10
609.4206167460863
 20
235.3713162705878
 30
0.0
 11
609.372450723132
 21
239.9665916810006
 31
0.0
210
0.0
220
0.0
230
-1.0
  0
LINE
  5
19D2
330
1101
100
AcDbEntity
  8
HILF
100
AcDbLine
 10
611.1551238482236
 20
225.9401809106488
 30
0.0
 11
609.4206167460863
 21
235.3713162705878
 31
0.0
210
0.0
220
0.0
230
-1.0
  0
LINE
  5
19D3
330
1101
100
AcDbEntity
  8
HILF
100
AcDbLine
 10
614.0810309912556
 20
216.3340749768094
 30
0.0
 11
611.1551238482236
 21
225.9401809106488
 31
0.0
210
0.0
220
0.0
230
-1.0
  0
LINE
  5
19D4
330
1101
100
AcDbEntity
  8
STEMPEL
100
AcDbLine
 10
769.4437324566106
 20
281.2920420674438
 30
0.0
 11
774.3445442084476
 21
280.6032778931213
 31
0.0
  0
LINE
  5
19D5
330
1101
100
AcDbEntity
  8
STEMPEL
100
AcDbLine
 10
769.2902331552554
 20
279.6978908713526
 30
0.0
 11
774.2604868146981
 21
278.9993672733719
 31
0.0
  0
LINE
  5
19D6
330
1101
100
AcDbEntity
  8
STEMPEL
100
AcDbLine
 10
765.623207650874
 20
208.3920860303603
 30
0.0
 11
770.5691677038512
 21
208.5648027612857
 31
0.0
  0
LINE
  5
19D7
330
1101
100
AcDbEntity
  8
STEMPEL
100
AcDbLine
 10
765.6371834094978
 20
209.9935493454839
 30
0.0
 11
770.653225097601
 21
210.1687133810351
 31
0.0
  0
LINE
  5
19D8
330
1101
100
AcDbEntity
  8
HILF
100
AcDbLine
 10
769.2061757615061
 20
278.0939802516034
 30
0.0
 11
765.7212408032473
 21
211.5974599652332
 31
0.0
  0
LINE
  5
19DB
330
1101
100
AcDbEntity
  8
STEMPEL
100
AcDbLine
 10
774.3445442084476
 20
280.6032778931213
 30
0.0
 11
770.5691677038512
 21
208.5648027612857
 31
0.0
  0
LINE
  5
19DE
330
1101
100
AcDbEntity
  8
STEMPEL
100
AcDbLine
 10
614.0810309912556
 20
216.3340749768094
 30
0.0
 11
765.623207650874
 21
208.3920860303603
 31
0.0
  0
LINE
  5
19DF
330
1101
100
AcDbEntity
  8
STEMPEL
100
AcDbLine
 10
613.5534285876176
 20
217.9639212007252
 30
0.0
 11
765.6371834094978
 21
209.9935493454839
 31
0.0
  0
LINE
  5
19E0
330
1101
100
AcDbEntity
  8
STEMPEL
100
AcDbLine
 10
617.6826044580573
 20
287.6433100137408
 30
0.0
 11
769.2902331552554
 21
279.6978908713526
 31
0.0
  0
LINE
  5
19E1
330
1101
100
AcDbEntity
  8
STEMPEL
100
AcDbLine
 10
617.1949691936099
 20
289.2710616486472
 30
0.0
 11
769.4437324566106
 21
281.2920420674438
 31
0.0
  0
LINE
  5
19E3
330
1101
100
AcDbEntity
  8
STEMPEL
100
AcDbLine
 10
271.2356792660537
 20
335.8667651608045
 30
0.0
 11
271.2356792660537
 21
338.8667651608045
 31
0.0
  0
LINE
  5
19EE
330
1101
100
AcDbEntity
  8
STEMPEL
100
AcDbLine
 10
507.1473675114872
 20
407.9916568418347
 30
0.0
 11
501.4905132619948
 21
402.3348025923423
 31
0.0
  0
LINE
  5
19EF
330
1101
100
AcDbEntity
  8
STEMPEL
100
AcDbLine
 10
501.4905132619944
 20
400.9205890299693
 30
0.0
 11
503.2582802149611
 21
399.1528220770027
 31
0.0
  0
LINE
  5
19F0
330
1101
100
AcDbEntity
  8
STEMPEL
100
AcDbLine
 10
508.56158107386
 20
407.9916568418351
 30
0.0
 11
510.3293480268269
 21
406.2238898888685
 31
0.0
  0
LINE
  5
19F1
330
1101
100
AcDbEntity
  8
HILF
100
AcDbLine
 10
501.4905132619948
 20
402.3348025923423
 30
0.0
 11
503.9653869961477
 21
399.8599288581893
 31
0.0
  0
LINE
  5
19F2
330
1101
100
AcDbEntity
  8
HILF
100
AcDbLine
 10
507.1473675114872
 20
407.9916568418347
 30
0.0
 11
509.6222412456401
 21
405.5167831076818
 31
0.0
  0
ARC
  5
19F4
330
1101
100
AcDbEntity
  8
STEMPEL
100
AcDbCircle
 10
472.2594382713776
 20
341.5667651608044
 30
0.0
 40
5.7
100
AcDbArc
 50
270.0
 51
315.0
  0
ARC
  5
19F5
330
1101
100
AcDbEntity
  8
STEMPEL
100
AcDbCircle
 10
472.2594382713776
 20
341.5667651608044
 30
0.0
 40
2.7
100
AcDbArc
 50
270.0
 51
315.0
  0
LINE
  5
19F7
330
1101
100
AcDbEntity
  8
STEMPEL
100
AcDbLine
 10
197.2356792660537
 20
338.8667651608045
 30
0.0
 11
472.2594382713776
 21
338.8667651608045
 31
0.0
  0
LINE
  5
19F8
330
1101
100
AcDbEntity
  8
STEMPEL
100
AcDbLine
 10
546.7453472579318
 20
412.2342975289524
 30
0.0
 11
548.8666676014913
 21
410.1129771853925
 31
0.0
  0
LINE
  5
19F9
330
1101
100
AcDbEntity
  8
STEMPEL
100
AcDbLine
 10
507.1473675114872
 20
407.9916568418347
 30
0.0
 11
508.56158107386
 21
407.9916568418351
 31
0.0
  0
LINE
  5
19FA
330
1101
100
AcDbEntity
  8
STEMPEL
100
AcDbLine
 10
501.4905132619944
 20
400.9205890299693
 30
0.0
 11
501.4905132619948
 21
402.3348025923423
 31
0.0
  0
LINE
  5
19FB
330
1101
100
AcDbEntity
  8
STEMPEL
100
AcDbLine
 10
501.4905132619944
 20
400.9205890299693
 30
0.0
 11
508.56158107386
 21
407.9916568418351
 31
0.0
  0
LINE
  5
19FC
102
{ACAD_REACTORS
330
1ADF
102
}
330
1101
100
AcDbEntity
  8
MITTEL
100
AcDbLine
 10
500.7834064808082
 20
408.6987636230212
 30
0.0
 11
524.1179302599643
 21
385.3642398438652
 31
0.0
  0
LINE
  5
19FD
330
1101
100
AcDbEntity
  8
STEMPEL
100
AcDbLine
 10
548.8666676014913
 20
410.1129771853925
 30
0.0
 11
476.289946924141
 21
337.5362565080411
 31
0.0
  0
LINE
  5
1A08
330
1101
100
AcDbEntity
  8
STEMPEL
100
AcDbLine
 10
393.2356792660537
 20
335.8667651608045
 30
0.0
 11
393.2356792660537
 21
338.8667651608045
 31
0.0
  0
LINE
  5
1A12
330
1101
100
AcDbEntity
  8
MITTEL
100
AcDbLine
 10
332.2356792660536
 20
384.3667651608044
 30
0.0
 11
332.2356792660537
 21
330.8667651608045
 31
0.0
  0
LINE
  5
1A1D
330
1101
100
AcDbEntity
  8
STEMPEL
100
AcDbLine
 10
197.2356792660537
 20
335.8667651608045
 30
0.0
 11
197.2356792660537
 21
338.8667651608045
 31
0.0
  0
LINE
  5
1A1E
330
1101
100
AcDbEntity
  8
STEMPEL
100
AcDbLine
 10
197.2356792660537
 20
335.8667651608045
 30
0.0
 11
472.2594382713776
 21
335.8667651608045
 31
0.0
  0
TEXT
  5
1AC5
330
1101
100
AcDbEntity
  8
TEXT
 62
     1
100
AcDbText
 10
518.6468670231453
 20
289.5009042994302
 30
0.0
 40
7.0
  1
DN70
 50
357.0
 41
0.8
  7
GREEKS
100
AcDbText
  0
LINE
  5
1AC6
102
{ACAD_REACTORS
330
1ADF
102
}
330
1101
100
AcDbEntity
  8
STEMPEL
100
AcDbLine
 10
539.6742794460682
 20
415.7698314348865
 30
0.0
 11
536.8458523213219
 21
418.5982585596327
 31
0.0
  0
LINE
  5
1AC7
102
{ACAD_REACTORS
330
1ADF
102
}
330
1101
100
AcDbEntity
  8
STEMPEL
100
AcDbLine
 10
539.6742794460691
 20
415.7698314348856
 30
0.0
 11
539.6742794460691
 21
412.9414043101394
 31
0.0
  0
LINE
  5
1AC8
102
{ACAD_REACTORS
330
1ADF
102
}
330
1101
100
AcDbEntity
  8
STEMPEL
100
AcDbLine
 10
536.8458523213219
 20
418.5982585596327
 30
0.0
 11
490.8839115441963
 21
372.6363177825072
 31
0.0
  0
LINE
  5
1AC9
102
{ACAD_REACTORS
330
1ADF
102
}
330
1101
100
AcDbEntity
  8
STEMPEL
100
AcDbLine
 10
539.6742794460687
 20
412.9414043101408
 30
0.0
 11
496.5407657936887
 21
369.807890657761
 31
0.0
  0
LINE
  5
1ACA
102
{ACAD_REACTORS
330
1ADF
102
}
330
1101
100
AcDbEntity
  8
STEMPEL
100
AcDbLine
 10
493.7123386689425
 20
369.807890657761
 30
0.0
 11
490.8839115441959
 21
372.6363177825074
 31
0.0
  0
LINE
  5
1ACB
102
{ACAD_REACTORS
330
1ADF
102
}
330
1101
100
AcDbEntity
  8
STEMPEL
100
AcDbLine
 10
493.7123386689425
 20
369.807890657761
 30
0.0
 11
496.5407657936887
 21
369.807890657761
 31
0.0
  0
LINE
  5
1AD1
330
1101
100
AcDbEntity
  8
STEMPEL
100
AcDbLine
 10
521.6430565258117
 20
394.9101813898837
 30
0.0
 11
525.5321438223377
 21
391.0210940933578
 31
0.0
  0
LINE
  5
1AD2
330
1101
100
AcDbEntity
  8
HILF
100
AcDbLine
 10
520.9359497446244
 20
394.2030746086964
 30
0.0
 11
524.8250370411501
 21
390.3139873121704
 31
0.0
  0
LINE
  5
1AD3
330
1101
100
AcDbEntity
  8
HILF
100
AcDbLine
 10
515.2790954951326
 20
388.5462203592047
 30
0.0
 11
519.1681827916586
 21
384.6571330626787
 31
0.0
  0
LINE
  5
1AD4
330
1101
100
AcDbEntity
  8
STEMPEL
100
AcDbLine
 10
514.5719887139456
 20
387.8391135780177
 30
0.0
 11
518.4610760104717
 21
383.9500262814918
 31
0.0
  0
HATCH
  5
1ADF
330
1101
100
AcDbEntity
  8
SCHRAFF
100
AcDbHatch
 10
0.0
 20
0.0
 30
0.0
210
0.0
220
0.0
230
1.0
  2
_USER
 70
     0
 71
     1
 91
        2
 92
        7
 72
     0
 73
     1
 93
        5
 10
539.674279446069
 20
412.9414043101411
 10
539.6742794460692
 20
415.7698314348856
 10
536.8458523213218
 20
418.5982585596326
 10
513.8648819327593
 20
395.6172881710701
 10
518.1075226198786
 20
391.3746474839507
 97
        5
330
1AC7
330
1AC6
330
1AC8
330
19FC
330
1AC9
 92
        7
 72
     0
 73
     1
 93
        5
 10
490.8839115441962
 20
372.636317782507
 10
493.7123386689425
 20
369.8078906577609
 10
496.5407657936889
 20
369.807890657761
 10
518.1075226198788
 20
391.3746474839509
 10
513.8648819327593
 20
395.6172881710701
 97
        5
330
19FC
330
1AC8
330
1ACA
330
1ACB
330
1AC9
 75
     0
 76
     0
 52
90.0
 41
5.0
 77
     0
 78
     1
 53
90.0
 43
0.0
 44
0.0
 45
-5.0
 46
0.0000000000000003
 79
     0
 47
0.1488260208780745
 98
        2
 10
523.6972528287099
 20
399.6851554787665
 10
505.9814263650643
 20
384.8025533470898
  0
TEXT
  5
1AFE
330
1101
100
AcDbEntity
  8
VOLL
100
AcDbText
 10
364.2669859905487
 20
410.1493348905401
 30
0.0
 40
1.8
  1

  7
GREEKS
100
AcDbText
  0
ARC
  5
1B28
330
1101
100
AcDbEntity
  8
STEMPEL
100
AcDbCircle
 10
506.157418017826
 20
388.9704844279167
 30
0.0
 40
0.7500000000000013
100
AcDbArc
 50
154.9999999999995
 51
314.9999991462264
  0
ARC
  5
1B29
330
1101
100
AcDbEntity
  8
STEMPEL
100
AcDbCircle
 10
520.5116856759129
 20
403.3247520860035
 30
0.0
 40
0.750000000000001
100
AcDbArc
 50
314.9999991462264
 51
115.0000000000005
  0
LINE
  5
1B2A
330
1101
100
AcDbEntity
  8
STEMPEL
100
AcDbLine
 10
521.0420157618028
 20
402.7944220001136
 30
0.0
 11
506.687748103716
 21
388.4401543420267
 31
0.0
  0
ARC
  5
1B2B
330
1101
100
AcDbEntity
  8
STEMPEL
100
AcDbCircle
 10
528.2268493702464
 20
381.2553207335832
 30
0.0
 40
30.31088913245485
100
AcDbArc
 50
126.7867892982606
 51
143.2132107017394
  0
ARC
  5
1B2C
330
1101
100
AcDbEntity
  8
HILF
100
AcDbCircle
 10
527.9352186747371
 20
381.5469514290926
 30
0.0
 40
22.41111549782308
100
AcDbArc
 50
123.8596278389045
 51
146.1403721610954
  0
LINE
  5
1B2D
330
1101
100
AcDbEntity
  8
STEMPEL
100
AcDbLine
 10
501.4905132619948
 20
397.3850551240365
 30
0.0
 11
512.0971149797931
 21
407.9916568418346
 31
0.0
  0
LINE
  5
1B2E
330
1101
100
AcDbEntity
  8
STEMPEL
100
AcDbLine
 10
520.1947219796075
 20
404.004482926281
 30
0.0
 11
505.4776871775485
 21
389.2874481242221
 31
0.0
  0
ARC
  5
1B2F
330
1101
100
AcDbEntity
  8
STEMPEL
100
AcDbCircle
 10
507.6417165956723
 20
392.6548669727205
 30
0.0
 40
7.694305707784447
100
AcDbArc
 50
118.6571066940166
 51
151.3428933059865
  0
ARC
  5
1B30
330
1101
100
AcDbEntity
  8
HILF
100
AcDbCircle
 10
511.569115249964
 20
388.7274683184288
 30
0.0
 40
5.761140599691502
100
AcDbArc
 50
112.9259452632605
 51
157.0740547367394
  0
LINE
  5
1B31
330
1101
100
AcDbEntity
  8
STEMPEL
100
AcDbLine
 10
506.263052308099
 20
390.9716690818147
 30
0.0
 11
500.8899215776923
 21
396.3447998122214
 31
0.0
  0
LINE
  5
1B32
330
1101
100
AcDbEntity
  8
STEMPEL
100
AcDbLine
 10
501.4905132619948
 20
397.3850551240365
 30
0.0
 11
500.8899215776923
 21
396.3447998122214
 31
0.0
  0
LINE
  5
1B33
330
1101
100
AcDbEntity
  8
STEMPEL
100
AcDbLine
 10
506.263052308099
 20
390.9716690818147
 30
0.0
 11
505.4776871775485
 21
389.2874481242221
 31
0.0
  0
LINE
  5
1B34
330
1101
100
AcDbEntity
  8
STEMPEL
100
AcDbLine
 10
509.324914486578
 20
394.0335312602937
 30
0.0
 11
503.9517837561714
 21
399.4066619907003
 31
0.0
  0
LINE
  5
1B35
330
1101
100
AcDbEntity
  8
STEMPEL
100
AcDbLine
 10
520.1947219796075
 20
404.004482926281
 30
0.0
 11
518.510501022015
 21
403.2191177957305
 31
0.0
  0
ARC
  5
1B36
330
1101
100
AcDbEntity
  8
STEMPEL
100
AcDbCircle
 10
516.8273031311092
 20
401.8404535081573
 30
0.0
 40
7.694305707784447
100
AcDbArc
 50
118.6571066940134
 51
151.3428933059834
  0
ARC
  5
1B37
330
1101
100
AcDbEntity
  8
HILF
100
AcDbCircle
 10
520.7547017854009
 20
397.9130548538657
 30
0.0
 40
5.761140599691502
100
AcDbArc
 50
112.9259452632605
 51
157.0740547367394
  0
LINE
  5
1B38
330
1101
100
AcDbEntity
  8
STEMPEL
100
AcDbLine
 10
518.510501022015
 20
403.2191177957305
 30
0.0
 11
513.1373702916082
 21
408.5922485261372
 31
0.0
  0
LINE
  5
1B39
330
1101
100
AcDbEntity
  8
STEMPEL
100
AcDbLine
 10
515.4486388435359
 20
400.1572556172515
 30
0.0
 11
510.0755081131293
 21
405.5303863476582
 31
0.0
  0
LINE
  5
1B3A
330
1101
100
AcDbEntity
  8
STEMPEL
100
AcDbLine
 10
513.1373702916082
 20
408.5922485261372
 30
0.0
 11
512.0971149797931
 21
407.9916568418346
 31
0.0
  0
DIMENSION
  5
1E86
330
1101
100
AcDbEntity
  8
BEM
100
AcDbDimension
  2
*D1
 10
780.0527790914629
 20
244.5840403272035
 30
0.0
 11
738.9790472793245
 21
259.0432563462638
 31
0.0
 70
   162
 71
     5
 42
0.0523598775598335
  3
STANDARD
100
AcDb2LineAngularDimension
 13
613.6567989217581
 23
252.9063986663959
 33
0.0
 14
777.4500036299223
 24
244.3223605459888
 34
0.0
 15
774.4568559561494
 25
244.5840403272035
 35
0.0
 16
743.380053607879
 26
245.0915778000973
 36
0.0
  0
LINE
  5
1E87
330
1101
100
AcDbEntity
  8
BEM
100
AcDbLine
 10
774.4568559561494
 20
244.5840403272035
 30
0.0
 11
780.0527790914629
 21
244.5840403272035
 31
0.0
  0
DIMENSION
  5
1E88
330
1101
100
AcDbEntity
  8
BEM
100
AcDbDimension
  2
*D2
 10
811.6001722545734
 20
244.5840403272035
 30
0.0
 11
805.1001722545734
 21
290.2254027440041
 31
0.0
 70
    32
  1
91
 71
     5
 42
91.28272483360101
  3
STANDARD
100
AcDbAlignedDimension
 13
474.6204555769045
 23
335.8667651608046
 33
0.0
 14
791.1029352534877
 24
244.5840403272035
 34
0.0
 50
90.0
100
AcDbRotatedDimension
  0
DIMENSION
  5
1E89
330
1101
100
AcDbEntity
  8
BEM
100
AcDbDimension
  2
*D3
 10
792.9621250696751
 20
280.0594953382859
 30
0.0
 11
784.5607706909021
 21
243.9497010353234
 31
0.0
 70
    33
  1
%%c<>
 71
     5
 42
72.9999999999996
  3
STANDARD
100
AcDbAlignedDimension
 13
765.623207650874
 23
208.3920860303603
 33
0.0
 14
769.4437324566106
 24
281.2920420674438
 34
0.0
  0
LINE
  5
1E8B
330
1101
100
AcDbEntity
  8
TEXT
 62
     2
100
AcDbLine
 10
577.089667009127
 20
438.5342364239797
 30
0.0
 11
684.0018879076279
 21
438.5342364239797
 31
0.0
  0
LINE
  5
1E8C
330
1101
100
AcDbEntity
  8
TEXT
 62
     2
100
AcDbLine
 10
577.089667009127
 20
438.5342364239797
 30
0.0
 11
537.5299412828197
 21
414.2216191690627
 31
0.0
  0
TEXT
  5
1E8D
330
1101
100
AcDbEntity
  8
TEXT
 62
     1
100
AcDbText
 10
577.6136347494647
 20
429.5765319308465
 30
0.0
 40
7.0
  1
EDV-Art.Nr. 01378.000X
 41
0.8
  7
GREEKS
100
AcDbText
  0
TEXT
  5
1E8E
330
1101
100
AcDbEntity
  8
TEXT
 62
     1
100
AcDbText
 10
577.6136347494647
 20
441.594738758063
 30
0.0
 40
7.0
  1
Losflansch
 41
0.8
  7
GREEKS
100
AcDbText
  0
DIMENSION
  5
1E8F
330
1101
100
AcDbEntity
  8
BEM
100
AcDbDimension
  2
*D4
 10
486.5730773284647
 20
323.9141434092444
 30
0.0
 11
519.0999892630457
 21
365.6334434992509
 31
0.0
 70
    33
 71
     5
 42
104.9999999999999
  3
STANDARD
100
AcDbAlignedDimension
 13
548.8666676014913
 23
410.1129771853925
 33
0.0
 14
474.6204555769045
 24
335.8667651608046
 34
0.0
  0
DIMENSION
  5
1E90
330
1101
100
AcDbEntity
  8
BEM
100
AcDbDimension
  2
*D5
 10
474.6204555769045
 20
212.1628250174611
 30
0.0
 11
335.9280674214791
 21
218.6628250174611
 31
0.0
 70
    32
  1
277
 71
     5
 42
277.3847763108508
  3
STANDARD
100
AcDbAlignedDimension
 13
197.2356792660537
 23
335.8667651608045
 33
0.0
 14
474.6204555769045
 24
335.8667651608046
 34
0.0
100
AcDbRotatedDimension
  0
DIMENSION
  5
1E92
330
1101
100
AcDbEntity
  8
BEM
100
AcDbDimension
  2
*D6
 10
165.7565359771792
 20
338.8667651608045
 30
0.0
 11
155.7565359771792
 21
337.3667651608045
 31
0.0
 70
    32
 71
     5
 42
3.0
  3
STANDARD
100
AcDbAlignedDimension
 13
197.2356792660537
 23
335.8667651608045
 33
0.0
 14
197.2356792660537
 24
338.8667651608045
 34
0.0
 50
90.0
100
AcDbRotatedDimension
  0
TEXT
  5
1E9A
330
1101
100
AcDbEntity
  8
TEXT
 62
     1
100
AcDbText
 10
69.04343498566209
 20
238.470043284248
 30
0.0
 40
7.0
  1
EDV-Art.Nr. 01376.070X
 41
0.8
  7
GREEKS
100
AcDbText
  0
LINE
  5
1E9B
330
1101
100
AcDbEntity
  8
TEXT
 62
     2
100
AcDbLine
 10
67.43539496309598
 20
246.9422308617206
 30
0.0
 11
173.7610901411028
 21
246.9422308617206
 31
0.0
  0
TEXT
  5
1E9C
330
1101
100
AcDbEntity
  8
TEXT
 62
     1
100
AcDbText
 10
68.79288197497283
 20
250.0027331958037
 30
0.0
 40
7.0
  1
Ablaufkörper DN70
 41
0.8
  7
GREEKS
100
AcDbText
  0
LINE
  5
1E9D
330
1101
100
AcDbEntity
  8
TEXT
 62
     2
100
AcDbLine
 10
267.7895727768805
 20
284.6474001796988
 30
0.0
 11
173.7610901411028
 21
246.9422308617206
 31
0.0
  0
HATCH
  5
20A4
330
1101
100
AcDbEntity
  8
SCHRAFF
100
AcDbHatch
 10
0.0
 20
0.0
 30
0.0
210
0.0
220
0.0
230
1.0
  2
_USER
 70
     0
 71
     1
 91
        2
 92
        5
 93
        4
 72
     4
 94
        3
 73
     0
 74
     0
 95
        8
 96
        4
 40
74.44593610728398
 40
74.44593610728398
 40
74.44593610728398
 40
74.44593610728398
 40
75.69015788066501
 40
75.69015788066501
 40
75.69015788066501
 40
75.69015788066501
 10
604.9246550675841
 20
307.8244303165567
 10
604.7821409108278
 20
308.232448105428
 10
604.6389170136393
 20
308.6405030902192
 10
604.4956931164509
 20
309.0485580750104
 72
     1
 10
604.4956931164509
 20
309.0485580750104
 11
465.2356792660537
 21
316.3468661438353
 72
     1
 10
465.2356792660537
 20
316.3468661438353
 11
465.2356792660536
 21
315.1452193286377
 72
     1
 10
465.2356792660536
 20
315.1452193286377
 11
604.924655067584
 21
307.8244303165569
 97
        4
330
20AD
330
20A7
330
20A5
330
20A9
 92
        5
 93
        4
 72
     4
 94
        3
 73
     0
 74
     0
 95
        8
 96
        4
 40
0.0
 40
0.0
 40
0.0
 40
0.0
 40
1.244221773380716
 40
1.244221773380716
 40
1.244221773380716
 40
1.244221773380716
 10
600.6751683107158
 20
236.1486020379264
 10
600.5319444135274
 20
236.5566570227175
 10
600.3887205163389
 20
236.9647120075085
 10
600.2462063595828
 20
237.3727297963796
 72
     1
 10
600.2462063595827
 20
237.3727297963796
 11
380.9649089101877
 21
248.8647756340065
 72
     1
 10
380.9649089101877
 20
248.8647756340065
 11
381.6803268858893
 21
247.6256353514434
 72
     1
 10
381.6803268858893
 20
247.6256353514434
 11
600.6751683107158
 21
236.1486020379264
 97
        4
330
20C1
330
20AA
330
20A5
330
20A8
 75
     0
 76
     0
 52
135.0
 41
2.0
 77
     0
 78
     1
 53
135.0
 43
97.86798935151086
 44
-110.4323157756603
 45
-1.414213562373095
 46
-1.414213562373094
 79
     0
 47
0.3235332255481849
 98
        2
 10
528.5606132363835
 20
312.3958419614394
 10
503.3158413224084
 20
241.5420653983774
  0
SPLINE
  5
20A5
102
{ACAD_REACTORS
330
20A4
102
}
330
1101
100
AcDbEntity
  8
HILF
100
AcDbSpline
210
0.0
220
0.0
230
1.0
 70
  1064
 71
     3
 72
    11
 73
     7
 74
     5
 42
0.000000001
 43
0.0000000001
 44
0.0000000001
 40
0.0
 40
0.0
 40
0.0
 40
0.0
 40
18.92253947016633
 40
37.84507894033253
 40
56.76761841049884
 40
75.69015788066494
 40
75.69015788066494
 40
75.69015788066494
 40
75.69015788066494
 10
600.6751683107158
 20
236.1486020379264
 30
0.0
 10
598.496971540974
 20
242.3544382649575
 30
0.0
 10
594.1405780014905
 20
254.7661107190196
 30
0.0
 10
602.5854307135831
 20
272.5985800564684
 30
0.0
 10
611.0302834256763
 20
290.4310493939174
 30
0.0
 10
606.6738898861927
 20
302.8427218479794
 30
0.0
 10
604.4956931164509
 20
309.0485580750104
 30
0.0
 11
600.6751683107158
 21
236.1486020379264
 31
0.0
 11
596.6371518383769
 21
254.6352708284122
 31
0.0
 11
602.5854307135833
 21
272.5985800564684
 31
0.0
 11
608.5337095887898
 21
290.5618892845248
 31
0.0
 11
604.4956931164509
 21
309.0485580750104
 31
0.0
  0
LINE
  5
20A6
330
1101
100
AcDbEntity
  8
MITTEL
100
AcDbLine
 10
357.7209115396818
 20
285.4313857315823
 30
0.0
 11
607.5785783873562
 21
272.3369002752538
 31
0.0
  0
LINE
  5
20A7
102
{ACAD_REACTORS
330
20A4
102
}
330
1101
100
AcDbEntity
  8
STEMPEL
100
AcDbLine
 10
465.2356792660535
 20
315.1452193286377
 30
0.0
 11
604.924655067584
 21
307.824430316557
 31
0.0
  0
LINE
  5
20A8
102
{ACAD_REACTORS
330
20A4
102
}
330
1101
100
AcDbEntity
  8
STEMPEL
100
AcDbLine
 10
380.9649089101877
 20
248.8647756340065
 30
0.0
 11
600.2462063595828
 21
237.3727297963796
 31
0.0
  0
LINE
  5
20A9
102
{ACAD_REACTORS
330
20A4
330
20AB
102
}
330
1101
100
AcDbEntity
  8
STEMPEL
100
AcDbLine
 10
465.2356792660535
 20
316.3468661438353
 30
0.0
 11
604.4956931164509
 21
309.0485580750104
 31
0.0
  0
LINE
  5
20AA
102
{ACAD_REACTORS
330
20A4
330
20BC
102
}
330
1101
100
AcDbEntity
  8
STEMPEL
100
AcDbLine
 10
381.6803268858892
 20
247.6256353514434
 30
0.0
 11
600.6751683107158
 21
236.1486020379263
 31
0.0
  0
HATCH
  5
20AB
330
1101
100
AcDbEntity
  8
SCHRAFF
100
AcDbHatch
 10
0.0
 20
0.0
 30
0.0
210
0.0
220
0.0
230
1.0
  2
_USER
 70
     0
 71
     1
 91
        1
 92
        7
 72
     1
 73
     1
 93
        3
 10
465.2356792660537
 20
319.3468661438353
 42
0.0
 10
465.2356792660537
 20
316.3468661438353
 42
0.0
 10
468.2315678703172
 20
316.1898582751065
 42
0.4296339059668199
 97
        3
330
20AD
330
20A9
330
20AC
 75
     0
 76
     0
 52
0.0
 41
0.1
 77
     0
 78
     1
 53
0.0
 43
97.86798935151086
 44
-110.4323157756603
 45
0.0
 46
0.1
 79
     0
 47
0.0207080729692965
 98
        1
 10
467.2797709215494
 20
317.3180906010021
  0
ARC
  5
20AC
102
{ACAD_REACTORS
330
20AB
102
}
330
1101
100
AcDbEntity
  8
SCHRAFF
100
AcDbCircle
 10
465.2356792660535
 20
316.3468661438353
 30
0.0
 40
3.0
100
AcDbArc
 50
357.0000000000009
 51
89.99999999999674
  0
LINE
  5
20AD
102
{ACAD_REACTORS
330
20A4
330
20AB
102
}
330
1101
100
AcDbEntity
  8
STEMPEL
100
AcDbLine
 10
465.2356792660537
 20
327.366765160805
 30
0.0
 11
465.2356792660537
 21
289.866765160805
 31
0.0
  0
ARC
  5
20AE
330
1101
100
AcDbEntity
  8
STEMPEL
100
AcDbCircle
 10
456.2356792660536
 20
289.866765160805
 30
0.0
 40
9.0
100
AcDbArc
 50
270.0
 51
0.0
  0
LINE
  5
20AF
330
1101
100
AcDbEntity
  8
STEMPEL
100
AcDbLine
 10
463.7356792660536
 20
327.366765160805
 30
0.0
 11
463.7356792660536
 21
289.866765160805
 31
0.0
  0
ARC
  5
20B0
330
1101
100
AcDbEntity
  8
STEMPEL
100
AcDbCircle
 10
456.2356792660536
 20
289.866765160805
 30
0.0
 40
7.5
100
AcDbArc
 50
270.0
 51
0.0
  0
LINE
  5
20B1
330
1101
100
AcDbEntity
  8
STEMPEL
100
AcDbLine
 10
274.2356792660538
 20
282.366765160805
 30
0.0
 11
456.2356792660536
 21
282.366765160805
 31
0.0
  0
LINE
  5
20B2
330
1101
100
AcDbEntity
  8
STEMPEL
100
AcDbLine
 10
362.103755477407
 20
280.8667651608049
 30
0.0
 11
456.2356792660536
 21
280.8667651608049
 31
0.0
  0
LINE
  5
20B3
330
1101
100
AcDbEntity
  8
STEMPEL
100
AcDbLine
 10
463.7356792660536
 20
314.3667651608051
 30
0.0
 11
465.2356792660537
 21
314.366765160805
 31
0.0
  0
HATCH
  5
20B4
330
1101
100
AcDbEntity
  8
SCHRAFF
100
AcDbHatch
 10
0.0
 20
0.0
 30
0.0
210
0.0
220
0.0
230
1.0
  2
_USER
 70
     0
 71
     0
 91
        2
 92
        7
 72
     1
 73
     1
 93
        8
 10
463.7356792660536
 20
327.366765160805
 42
0.0
 10
463.7356792660536
 20
314.366765160805
 42
0.0
 10
465.2356792660537
 20
314.3667651608049
 42
0.0
 10
465.2356792660537
 20
327.366765160805
 42
-0.4142135623730951
 10
472.2356792660536
 20
334.366765160805
 42
0.0
 10
472.9856792660537
 20
334.366765160805
 42
0.0
 10
472.9856792660539
 20
335.866765160805
 42
0.0
 10
472.2356792660536
 20
335.866765160805
 42
0.4142135623730933
 97
        0
 92
        7
 72
     1
 73
     1
 93
       16
 10
359.5056792660537
 20
280.8667651608049
 42
-0.2679491924311252
 10
360.8047173717304
 20
280.116765160805
 42
0.0
 10
378.9386919679456
 20
248.7077998169959
 42
0.0
 10
380.2377300736223
 20
249.457799816996
 42
0.0
 10
362.1037554774072
 20
280.8667651608049
 42
0.2679491924311252
 10
359.5056792660539
 20
282.366765160805
 42
0.0
 10
274.2356792660538
 20
282.366765160805
 42
-0.4142135623730951
 10
266.7356792660537
 20
289.866765160805
 42
0.0
 10
266.7356792660537
 20
327.366765160805
 42
0.4142135623730972
 10
258.2356792660537
 20
335.866765160805
 42
0.0
 10
257.4856792660538
 20
335.866765160805
 42
0.0
 10
257.4856792660537
 20
334.366765160805
 42
0.0
 10
258.2356792660537
 20
334.366765160805
 42
-0.4142135623730951
 10
265.2356792660537
 20
327.366765160805
 42
0.0
 10
265.2356792660537
 20
289.866765160805
 42
0.4142135623730951
 10
274.2356792660538
 20
280.8667651608049
 42
0.0
 97
        0
 75
     0
 76
     0
 52
45.0
 41
2.0
 77
     0
 78
     1
 53
45.0
 43
82.41769742180265
 44
-156.5307767759038
 45
-1.414213562373094
 46
1.414213562373095
 79
     0
 47
0.2385324373895608
 98
        2
 10
463.2916769722597
 20
320.4836791122878
 10
331.5738705410118
 20
281.6028915485956
  0
DIMENSION
  5
20B5
330
1101
100
AcDbEntity
  8
BEM
100
AcDbDimension
  2
*D7
 10
265.2356792660537
 20
230.7258959153782
 30
0.0
 11
365.2356792660537
 21
237.2258959153782
 31
0.0
 70
    32
 71
     5
 42
200.0
  3
STANDARD
100
AcDbAlignedDimension
 13
465.2356792660537
 23
289.866765160805
 33
0.0
 14
265.2356792660537
 24
289.8667651608045
 34
0.0
100
AcDbRotatedDimension
  0
HATCH
  5
20B6
330
1101
100
AcDbEntity
  8
SCHRAFF
100
AcDbHatch
 10
0.0
 20
0.0
 30
0.0
210
0.0
220
0.0
230
1.0
  2
_USER
 70
     0
 71
     0
 91
        1
 92
        7
 72
     1
 73
     1
 93
        6
 10
475.7409521417131
 20
337.0535555301024
 42
-0.1657586665733174
 10
472.2594382713776
 20
335.866765160805
 42
0.0
 10
472.9856792660539
 20
335.866765160805
 42
0.0
 10
472.9856792660537
 20
334.366765160805
 42
0.0
 10
472.2356792660536
 20
334.366765160805
 42
0.0618840054865102
 10
470.5227081266369
 20
334.1539390848713
 42
0.9042611509727635
 97
        0
 75
     0
 76
     0
 52
0.0
 41
0.1
 77
     0
 78
     1
 53
0.0
 43
97.86798935151086
 44
-110.4323157756603
 45
0.0
 46
0.1
 79
     0
 47
0.0128455015808765
 98
        1
 10
475.041922089412
 20
335.716448735237
  0
ARC
  5
20B7
330
1101
100
AcDbEntity
  8
SCHRAFF
100
AcDbCircle
 10
472.9856792660539
 20
335.866765160805
 30
0.0
 40
3.0
100
AcDbArc
 50
214.8159421986008
 51
23.30319950697225
  0
ARC
  5
20B8
330
1101
100
AcDbEntity
  8
STEMPEL
100
AcDbCircle
 10
472.2356792660536
 20
327.366765160805
 30
0.0
 40
7.0
100
AcDbArc
 50
90.0
 51
180.0
  0
ARC
  5
20B9
330
1101
100
AcDbEntity
  8
STEMPEL
100
AcDbCircle
 10
472.2356792660536
 20
327.366765160805
 30
0.0
 40
8.5
100
AcDbArc
 50
90.0
 51
180.0
  0
LINE
  5
20BA
330
1101
100
AcDbEntity
  8
STEMPEL
100
AcDbLine
 10
472.9856792660539
 20
335.866765160805
 30
0.0
 11
472.9856792660537
 21
334.366765160805
 31
0.0
  0
LINE
  5
20BB
330
1101
100
AcDbEntity
  8
STEMPEL
100
AcDbLine
 10
472.2356792660536
 20
334.366765160805
 30
0.0
 11
472.9856792660537
 21
334.366765160805
 31
0.0
  0
HATCH
  5
20BC
330
1101
100
AcDbEntity
  8
SCHRAFF
100
AcDbHatch
 10
0.0
 20
0.0
 30
0.0
210
0.0
220
0.0
230
1.0
  2
_USER
 70
     0
 71
     1
 91
        1
 92
        7
 72
     1
 73
     1
 93
        5
 10
382.7138798961457
 20
247.5714691334045
 42
0.0
 10
381.6803268858892
 20
247.6256353514433
 42
0.0
 10
380.5263271972825
 20
249.6244214440287
 42
0.0
 10
378.9386919679455
 20
248.7077998169959
 42
0.0
 10
377.7513399591226
 20
250.7643538227463
 42
0.8328015244165369
 97
        5
330
20AA
330
20C1
330
20CD
330
20C7
330
20BD
 75
     0
 76
     0
 52
0.0
 41
0.1
 77
     0
 78
     1
 53
0.0
 43
97.86798935151086
 44
-110.4323157756603
 45
0.0
 46
0.1
 79
     0
 47
0.0333521390166309
 98
        1
 10
380.6915024729848
 20
247.3019985144033
  0
ARC
  5
20BD
102
{ACAD_REACTORS
330
20BC
102
}
330
1101
100
AcDbEntity
  8
SCHRAFF
100
AcDbCircle
 10
380.5263271972826
 20
249.6244214440287
 30
0.0
 40
3.0
100
AcDbArc
 50
157.667713540859
 51
316.8180489545734
  0
LINE
  5
20BE
330
1101
100
AcDbEntity
  8
STEMPEL
100
AcDbLine
 10
382.2356792660536
 20
282.3667651608049
 30
0.0
 11
374.2356792660536
 21
282.3667651608049
 31
0.0
  0
LINE
  5
20BF
330
1101
100
AcDbEntity
  8
STEMPEL
100
AcDbLine
 10
382.2356792660536
 20
282.3667651608049
 30
0.0
 11
382.2356792660536
 21
280.8667651608049
 31
0.0
  0
LINE
  5
20C0
330
1101
100
AcDbEntity
  8
STEMPEL
100
AcDbLine
 10
374.2356792660536
 20
282.3667651608049
 30
0.0
 11
374.2356792660536
 21
280.8667651608049
 31
0.0
  0
LINE
  5
20C1
102
{ACAD_REACTORS
330
20A4
330
20BC
102
}
330
1101
100
AcDbEntity
  8
STEMPEL
100
AcDbLine
 10
362.4885516422873
 20
280.8667651608049
 30
0.0
 11
381.6803268858892
 21
247.6256353514434
 31
0.0
  0
LINE
  5
20C2
330
1101
100
AcDbEntity
  8
STEMPEL
100
AcDbLine
 10
265.2356792660537
 20
327.366765160805
 30
0.0
 11
265.2356792660537
 21
289.866765160805
 31
0.0
  0
LINE
  5
20C3
330
1101
100
AcDbEntity
  8
STEMPEL
100
AcDbLine
 10
274.2356792660538
 20
280.8667651608049
 30
0.0
 11
359.5056792660537
 21
280.8667651608049
 31
0.0
  0
ARC
  5
20C4
330
1101
100
AcDbEntity
  8
STEMPEL
100
AcDbCircle
 10
274.2356792660538
 20
289.866765160805
 30
0.0
 40
9.0
100
AcDbArc
 50
180.0
 51
270.0
  0
ARC
  5
20C5
330
1101
100
AcDbEntity
  8
STEMPEL
100
AcDbCircle
 10
274.2356792660538
 20
289.866765160805
 30
0.0
 40
7.5
100
AcDbArc
 50
180.0
 51
270.0
  0
LINE
  5
20C6
330
1101
100
AcDbEntity
  8
STEMPEL
100
AcDbLine
 10
266.7356792660537
 20
327.366765160805
 30
0.0
 11
266.7356792660537
 21
289.866765160805
 31
0.0
  0
LINE
  5
20C7
102
{ACAD_REACTORS
330
20BC
102
}
330
1101
100
AcDbEntity
  8
STEMPEL
100
AcDbLine
 10
360.8047173717304
 20
280.116765160805
 30
0.0
 11
378.9386919679456
 21
248.7077998169959
 31
0.0
  0
ARC
  5
20C8
330
1101
100
AcDbEntity
  8
STEMPEL
100
AcDbCircle
 10
359.5056792660537
 20
279.366765160805
 30
0.0
 40
1.5
100
AcDbArc
 50
30.00000000000055
 51
90.0
  0
ARC
  5
20C9
330
1101
100
AcDbEntity
  8
STEMPEL
100
AcDbCircle
 10
359.5056792660537
 20
279.366765160805
 30
0.0
 40
3.0
100
AcDbArc
 50
30.00000000000055
 51
90.0
  0
LINE
  5
20CA
330
1101
100
AcDbEntity
  8
STEMPEL
100
AcDbLine
 10
362.1037554774072
 20
280.8667651608049
 30
0.0
 11
380.2377300736223
 21
249.457799816996
 31
0.0
  0
LINE
  5
20CB
330
1101
100
AcDbEntity
  8
STEMPEL
100
AcDbLine
 10
374.2356792660536
 20
280.866765160805
 30
0.0
 11
374.2356792660536
 21
282.3667651608049
 31
0.0
  0
LINE
  5
20CC
330
1101
100
AcDbEntity
  8
STEMPEL
100
AcDbLine
 10
382.2356792660537
 20
280.866765160805
 30
0.0
 11
382.2356792660537
 21
282.366765160805
 31
0.0
  0
LINE
  5
20CD
102
{ACAD_REACTORS
330
20BC
102
}
330
1101
100
AcDbEntity
  8
STEMPEL
100
AcDbLine
 10
378.9386919679456
 20
248.7077998169959
 30
0.0
 11
380.5263271972826
 21
249.6244214440287
 31
0.0
  0
DIMENSION
  5
20CE
330
1101
100
AcDbEntity
  8
BEM
100
AcDbDimension
  2
*D8
 10
265.2356792660537
 20
230.7258959153782
 30
0.0
 11
231.2356792660537
 21
237.2258959153782
 31
0.0
 70
    32
 71
     5
 42
68.0
  3
STANDARD
100
AcDbAlignedDimension
 13
197.2356792660537
 23
335.8667651608045
 33
0.0
 14
265.2356792660537
 24
289.8667651608045
 34
0.0
100
AcDbRotatedDimension
  0
DIMENSION
  5
20CF
330
1101
100
AcDbEntity
  8
BEM
100
AcDbDimension
  2
*D9
 10
165.7565359771792
 20
335.8667651608045
 30
0.0
 11
159.2565359771792
 21
308.3667651608046
 31
0.0
 70
    32
 71
     5
 42
55.0
  3
STANDARD
100
AcDbAlignedDimension
 13
274.2356792660537
 23
280.8667651608045
 33
0.0
 14
197.2356792660537
 24
335.8667651608045
 34
0.0
 50
90.0
100
AcDbRotatedDimension
  0
HATCH
  5
20D0
330
1101
100
AcDbEntity
  8
SCHRAFF
100
AcDbHatch
 10
0.0
 20
0.0
 30
0.0
210
0.0
220
0.0
230
1.0
  2
_USER
 70
     0
 71
     0
 91
        1
 92
        7
 72
     1
 73
     1
 93
        5
 10
259.9486504054707
 20
334.1539390848712
 42
0.0618840054865186
 10
258.2356792660537
 20
334.366765160805
 42
0.0
 10
257.4856792660537
 20
334.366765160805
 42
0.0
 10
257.4856792660537
 20
335.8667651608045
 42
0.0
 10
254.4856792660537
 20
335.8667651608045
 42
0.7344659377782554
 97
        0
 75
     0
 76
     0
 52
0.0
 41
0.1
 77
     0
 78
     1
 53
0.0
 43
97.86798935151086
 44
-110.4323157756603
 45
0.0
 46
0.1
 79
     0
 47
0.0970140547803645
 98
        1
 10
258.0610643088707
 20
333.2126635010697
  0
ARC
  5
20D1
330
1101
100
AcDbEntity
  8
SCHRAFF
100
AcDbCircle
 10
257.4856792660538
 20
335.866765160805
 30
0.0
 40
3.0
100
AcDbArc
 50
180.0000000000098
 51
325.1840578013947
  0
LINE
  5
20D2
330
1101
100
AcDbEntity
  8
STEMPEL
100
AcDbLine
 10
257.4856792660538
 20
335.866765160805
 30
0.0
 11
257.4856792660537
 21
334.366765160805
 31
0.0
  0
LINE
  5
20D3
330
1101
100
AcDbEntity
  8
STEMPEL
100
AcDbLine
 10
257.4856792660538
 20
334.366765160805
 30
0.0
 11
258.2356792660537
 21
334.366765160805
 31
0.0
  0
ARC
  5
20D4
330
1101
100
AcDbEntity
  8
STEMPEL
100
AcDbCircle
 10
258.2356792660537
 20
327.366765160805
 30
0.0
 40
7.0
100
AcDbArc
 50
0.0
 51
90.0
  0
ARC
  5
20D5
330
1101
100
AcDbEntity
  8
STEMPEL
100
AcDbCircle
 10
258.2356792660537
 20
327.366765160805
 30
0.0
 40
8.5
100
AcDbArc
 50
0.0
 51
90.0
  0
HATCH
  5
213B
330
1101
100
AcDbEntity
  8
SCHRAFF
100
AcDbHatch
 10
0.0
 20
0.0
 30
0.0
210
0.0
220
0.0
230
1.0
  2
_USER
 70
     0
 71
     0
 91
        2
 92
        7
 72
     0
 73
     1
 93
        6
 10
617.19496919361
 20
289.2710616486473
 10
617.6363334184388
 20
287.6457349761723
 10
769.2902331552562
 20
279.6978908713526
 10
774.2604868146978
 20
278.9993672733719
 10
774.3445442084476
 20
280.6032778931213
 10
769.4437324566115
 20
281.2920420674437
 97
        0
 92
        7
 72
     0
 73
     1
 93
        6
 10
613.5851045947418
 20
217.9622611315353
 10
614.0810309912555
 20
216.3340749768094
 10
765.6232076508743
 20
208.3920860303603
 10
770.5691677038511
 20
208.5648027612857
 10
770.6532250976007
 20
210.168713381035
 10
765.6371834094971
 20
209.9935493454839
 97
        0
 75
     0
 76
     0
 52
135.0
 41
2.0
 77
     0
 78
     1
 53
135.0
 43
0.0
 44
0.0
 45
-1.414213562373095
 46
-1.414213562373094
 79
     0
 47
0.282183960521123
 98
        2
 10
662.8121537233
 20
285.9859821259488
 10
656.8841334167305
 20
214.5934387086934
  0
HATCH
  5
2225
330
1101
100
AcDbEntity
  8
SCHRAFF
100
AcDbHatch
 10
0.0
 20
0.0
 30
0.0
210
0.0
220
0.0
230
1.0
  2
_USER
 70
     0
 71
     0
 91
        5
 92
        7
 72
     0
 73
     1
 93
        4
 10
548.8666676014913
 20
410.1129771853926
 10
546.745347257932
 20
412.2342975289524
 10
521.9966099164047
 20
387.4855601874248
 10
524.1179302599643
 20
385.3642398438651
 97
        0
 92
        7
 72
     1
 73
     1
 93
        9
 10
474.1686265805813
 20
339.6575768516008
 42
-0.1989123673796598
 10
472.2594382713776
 20
338.8667651608045
 42
0.0
 10
414.5080926255753
 20
338.8667651608045
 42
0.0
 10
414.5080926255753
 20
335.8667651608046
 42
0.0
 10
472.2356792660536
 20
335.8667651608045
 42
0.0000041264093939
 10
472.235679265645
 20
335.8668146777172
 42
0.1999958875020906
 10
476.289946924141
 20
337.5362565080411
 42
0.0
 10
524.1179302599643
 20
385.3642398438652
 42
0.0
 10
521.9966099164047
 20
387.4855601874249
 42
0.0
 97
        0
 92
        7
 72
     0
 73
     1
 93
        4
 10
414.5080926255753
 20
335.8667651608044
 10
414.5080926255753
 20
338.8667651608044
 10
393.2356792660538
 20
338.8667651608044
 10
393.2356792660538
 20
335.8667651608046
 97
        0
 92
        7
 72
     0
 73
     1
 93
        4
 10
271.2356792660537
 20
335.8667651608045
 10
271.2356792660537
 20
338.8667651608045
 10
249.9632659065321
 20
338.8667651608045
 10
249.9632659065321
 20
335.8667651608045
 97
        0
 92
        7
 72
     0
 73
     1
 93
        4
 10
249.9632659065321
 20
335.8667651608045
 10
249.9632659065321
 20
338.8667651608045
 10
197.2356792660537
 20
338.8667651608045
 10
197.2356792660537
 20
335.8667651608045
 97
        0
 75
     0
 76
     0
 52
135.0
 41
2.0
 77
     0
 78
     1
 53
135.0
 43
97.86798935151086
 44
-110.4323157756603
 45
-1.414213562373095
 46
-1.414213562373094
 79
     0
 47
0.4782083509549157
 98
        5
 10
542.4266773708882
 20
405.3505210458399
 10
505.5846608815031
 20
370.4413099685964
 10
400.8002277486133
 20
336.966725136399
 10
263.4799877783602
 20
336.966725136399
 10
239.5566002450377
 20
336.966725136399
  0
LINE
  5
2226
330
1101
100
AcDbEntity
  8
STEMPEL
100
AcDbLine
 10
546.7453472579318
 20
412.2342975289524
 30
0.0
 11
474.1686265805813
 21
339.6575768516008
 31
0.0
  0
LINE
  5
2227
330
1101
100
AcDbEntity
  8
STEMPEL
100
AcDbLine
 10
418.5080926255753
 20
363.8667651608041
 30
0.0
 11
419.5080926255752
 21
362.866765160804
 31
0.0
  0
LINE
  5
2228
330
1101
100
AcDbEntity
  8
HILF
100
AcDbLine
 10
418.5080926255753
 20
363.8667651608041
 30
0.0
 11
418.5080926255753
 21
360.3667651608048
 31
0.0
  0
LINE
  5
2229
330
1101
100
AcDbEntity
  8
STEMPEL
100
AcDbLine
 10
419.5080926255752
 20
362.866765160804
 30
0.0
 11
419.5080926255752
 21
360.3667651608048
 31
0.0
  0
LINE
  5
222A
330
1101
100
AcDbEntity
  8
STEMPEL
100
AcDbLine
 10
409.5080926255752
 20
362.866765160804
 30
0.0
 11
410.5080926255753
 21
363.8667651608041
 31
0.0
  0
LINE
  5
222B
330
1101
100
AcDbEntity
  8
HILF
100
AcDbLine
 10
410.5080926255753
 20
363.8667651608041
 30
0.0
 11
410.5080926255753
 21
360.3667651608048
 31
0.0
  0
LINE
  5
222C
330
1101
100
AcDbEntity
  8
STEMPEL
100
AcDbLine
 10
409.5080926255752
 20
362.866765160804
 30
0.0
 11
409.5080926255752
 21
360.3667651608048
 31
0.0
  0
LINE
  5
222D
330
1101
100
AcDbEntity
  8
STEMPEL
100
AcDbLine
 10
410.5080926255753
 20
363.8667651608041
 30
0.0
 11
418.5080926255753
 21
363.8667651608041
 31
0.0
  0
LINE
  5
222E
330
1101
100
AcDbEntity
  8
STEMPEL
100
AcDbLine
 10
410.5080926255753
 20
363.8667651608041
 30
0.0
 11
418.5080926255753
 21
363.8667651608041
 31
0.0
  0
LINE
  5
222F
330
1101
100
AcDbEntity
  8
STEMPEL
100
AcDbLine
 10
409.5080926255752
 20
362.866765160804
 30
0.0
 11
419.5080926255752
 21
362.866765160804
 31
0.0
  0
LINE
  5
2230
102
{ACAD_REACTORS
330
2298
102
}
330
1101
100
AcDbEntity
  8
MITTEL
100
AcDbLine
 10
414.5080926255753
 20
368.866765160804
 30
0.0
 11
414.5080926255753
 21
335.8667651608045
 31
0.0
  0
LINE
  5
2231
330
1101
100
AcDbEntity
  8
STEMPEL
100
AcDbLine
 10
253.9632659065321
 20
363.8667651608041
 30
0.0
 11
254.9632659065321
 21
362.866765160804
 31
0.0
  0
LINE
  5
2232
330
1101
100
AcDbEntity
  8
STEMPEL
100
AcDbLine
 10
244.9632659065321
 20
362.866765160804
 30
0.0
 11
245.9632659065321
 21
363.8667651608041
 31
0.0
  0
LINE
  5
2233
330
1101
100
AcDbEntity
  8
STEMPEL
100
AcDbLine
 10
245.9632659065321
 20
363.8667651608041
 30
0.0
 11
253.9632659065321
 21
363.8667651608041
 31
0.0
  0
LINE
  5
2234
330
1101
100
AcDbEntity
  8
STEMPEL
100
AcDbLine
 10
245.9632659065321
 20
363.8667651608041
 30
0.0
 11
253.9632659065321
 21
363.8667651608041
 31
0.0
  0
LINE
  5
2235
330
1101
100
AcDbEntity
  8
STEMPEL
100
AcDbLine
 10
244.9632659065321
 20
362.866765160804
 30
0.0
 11
254.9632659065321
 21
362.866765160804
 31
0.0
  0
LINE
  5
2236
330
1101
100
AcDbEntity
  8
HILF
100
AcDbLine
 10
245.9632659065321
 20
363.8667651608041
 30
0.0
 11
245.9632659065321
 21
360.3667651608049
 31
0.0
  0
LINE
  5
2237
330
1101
100
AcDbEntity
  8
STEMPEL
100
AcDbLine
 10
244.9632659065321
 20
362.866765160804
 30
0.0
 11
244.9632659065321
 21
360.3667651608049
 31
0.0
  0
LINE
  5
2238
330
1101
100
AcDbEntity
  8
HILF
100
AcDbLine
 10
253.9632659065321
 20
363.8667651608041
 30
0.0
 11
253.9632659065321
 21
360.3667651608049
 31
0.0
  0
LINE
  5
2239
330
1101
100
AcDbEntity
  8
STEMPEL
100
AcDbLine
 10
254.9632659065321
 20
362.866765160804
 30
0.0
 11
254.9632659065321
 21
360.3667651608049
 31
0.0
  0
LINE
  5
223A
102
{ACAD_REACTORS
330
2298
102
}
330
1101
100
AcDbEntity
  8
MITTEL
100
AcDbLine
 10
249.9632659065321
 20
368.8667651608043
 30
0.0
 11
249.9632659065321
 21
335.8667651608045
 31
0.0
  0
HATCH
  5
223B
330
1101
100
AcDbEntity
  8
SCHRAFF
100
AcDbHatch
 10
0.0
 20
0.0
 30
0.0
210
0.0
220
0.0
230
1.0
  2
_USER
 70
     0
 71
     1
 91
        4
 92
        7
 72
     0
 73
     1
 93
       12
 10
207.2356792660536
 20
365.3667651608066
 10
206.2356792660537
 20
365.3667651608066
 10
206.2356792660537
 20
361.3667651608044
 10
206.7356792660537
 20
361.3667651608044
 10
206.7356792660537
 20
358.3667651608044
 10
206.2356792660537
 20
358.3667651608044
 10
206.2356792660537
 20
350.3667651608044
 10
206.7356792660537
 20
350.3667651608044
 10
206.7356792660537
 20
347.3667651608045
 10
206.2356792660537
 20
347.3667651608045
 10
206.2356792660537
 20
344.3667651608045
 10
207.2356792660537
 20
344.3667651608045
 97
       12
330
224E
330
2251
330
224F
330
2256
330
2250
330
2240
330
2242
330
224C
330
2243
330
2244
330
223C
330
22A1
 92
        7
 72
     0
 73
     1
 93
        4
 10
207.8491792660536
 20
365.3667651608066
 10
207.2356792660536
 20
365.3667651608066
 10
207.2356792660537
 20
344.3667651608045
 10
207.8491792660536
 20
344.3667651608045
 97
        3
330
224E
330
223C
330
22A2
 92
        7
 72
     0
 73
     1
 93
        4
 10
213.2356792660536
 20
365.3667651608066
 10
212.6221792660536
 20
365.3667651608066
 10
212.6221792660536
 20
344.3667651608045
 10
213.2356792660537
 20
344.3667651608045
 97
        4
330
224E
330
22A0
330
223C
330
229F
 92
        7
 72
     0
 73
     1
 93
       12
 10
214.2356792660537
 20
365.3667651608065
 10
213.2356792660536
 20
365.3667651608066
 10
213.2356792660537
 20
344.3667651608045
 10
214.2356792660537
 20
344.3667651608045
 10
214.2356792660537
 20
347.3667651608045
 10
213.7356792660537
 20
347.3667651608045
 10
213.7356792660537
 20
350.3667651608045
 10
214.2356792660537
 20
350.3667651608046
 10
214.2356792660537
 20
358.3667651608044
 10
213.7356792660537
 20
358.3667651608044
 10
213.7356792660537
 20
361.3667651608044
 10
214.2356792660537
 20
361.3667651608044
 97
       11
330
224E
330
223C
330
2248
330
2249
330
224A
330
224B
330
2241
330
2253
330
2254
330
2255
330
2252
 75
     1
 76
     0
 52
135.0
 41
1.0
 77
     0
 78
     1
 53
135.0
 43
0.0
 44
0.0
 45
-0.7071067811865476
 46
-0.7071067811865475
 79
     0
 47
0.0701954375505362
 98
        4
 10
206.481646849415
 20
363.4558929604066
 10
207.5351707799505
 20
364.0876530556136
 10
212.8730156508609
 20
364.0876530556136
 10
213.9967700962493
 20
363.9472620814686
1001
GradientColor1ACI
1070
     5
1001
GradientColor2ACI
1070
     2
1001
ACAD
1010
0.0
1020
0.0
1030
0.0
  0
LINE
  5
223C
102
{ACAD_REACTORS
330
2298
330
223B
102
}
330
1101
100
AcDbEntity
  8
STEMPEL
100
AcDbLine
 10
205.2356792660537
 20
344.3667651608045
 30
0.0
 11
459.2356792660536
 21
344.3667651608045
 31
0.0
  0
LINE
  5
223D
102
{ACAD_REACTORS
330
2298
102
}
330
1101
100
AcDbEntity
  8
STEMPEL
100
AcDbLine
 10
459.2356792660536
 20
350.3667651608048
 30
0.0
 11
401.9362972883325
 21
350.3667651608048
 31
0.0
  0
LINE
  5
223E
102
{ACAD_REACTORS
330
2298
102
}
330
1101
100
AcDbEntity
  8
STEMPEL
100
AcDbLine
 10
202.7356792660537
 20
365.3667651608067
 30
0.0
 11
202.4522959241658
 21
349.1317443772489
 31
0.0
  0
LINE
  5
223F
102
{ACAD_REACTORS
330
2298
102
}
330
1101
100
AcDbEntity
  8
STEMPEL
100
AcDbLine
 10
217.7356792660537
 20
365.3667651608065
 30
0.0
 11
217.9117530797735
 21
355.2795031286185
 31
0.0
  0
LINE
  5
2240
102
{ACAD_REACTORS
330
2298
330
223B
102
}
330
1101
100
AcDbEntity
  8
STEMPEL
100
AcDbLine
 10
206.2356792660537
 20
350.3667651608043
 30
0.0
 11
206.2356792660537
 21
358.3667651608044
 31
0.0
  0
LINE
  5
2241
102
{ACAD_REACTORS
330
2298
330
223B
102
}
330
1101
100
AcDbEntity
  8
STEMPEL
100
AcDbLine
 10
214.2356792660537
 20
350.3667651608045
 30
0.0
 11
214.2356792660537
 21
358.3667651608044
 31
0.0
  0
LINE
  5
2242
102
{ACAD_REACTORS
330
2298
330
223B
102
}
330
1101
100
AcDbEntity
  8
STEMPEL
100
AcDbLine
 10
206.7356792660537
 20
350.3667651608044
 30
0.0
 11
206.2356792660537
 21
350.3667651608044
 31
0.0
  0
LINE
  5
2243
102
{ACAD_REACTORS
330
2298
330
223B
102
}
330
1101
100
AcDbEntity
  8
STEMPEL
100
AcDbLine
 10
206.7356792660537
 20
347.3667651608045
 30
0.0
 11
206.2356792660537
 21
347.3667651608045
 31
0.0
  0
LINE
  5
2244
102
{ACAD_REACTORS
330
2298
330
223B
102
}
330
1101
100
AcDbEntity
  8
STEMPEL
100
AcDbLine
 10
206.2356792660537
 20
344.3667651608045
 30
0.0
 11
206.2356792660537
 21
347.3667651608045
 31
0.0
  0
ARC
  5
2245
102
{ACAD_REACTORS
330
2298
102
}
330
1101
100
AcDbEntity
  8
STEMPEL
100
AcDbCircle
 10
205.2356792660537
 20
347.366765160805
 30
0.0
 40
3.0
100
AcDbArc
 50
166.6128248198277
 51
270.0
  0
ARC
  5
2246
102
{ACAD_REACTORS
330
2298
102
}
330
1101
100
AcDbEntity
  8
STEMPEL
100
AcDbCircle
 10
197.4530574483838
 20
349.2190064094353
 30
0.0
 40
5.0
100
AcDbArc
 50
346.6128248198278
 51
359.0000000000015
  0
POINT
  5
2247
330
1101
100
AcDbEntity
  8
STEMPEL
  6
ByBlock
 62
     0
100
AcDbPoint
 10
202.2356792660537
 20
347.3667651608045
 30
0.0
  0
LINE
  5
2248
102
{ACAD_REACTORS
330
2298
330
223B
102
}
330
1101
100
AcDbEntity
  8
STEMPEL
100
AcDbLine
 10
214.2356792660537
 20
344.3667651608045
 30
0.0
 11
214.2356792660537
 21
347.3667651608045
 31
0.0
  0
LINE
  5
2249
102
{ACAD_REACTORS
330
2298
330
223B
102
}
330
1101
100
AcDbEntity
  8
STEMPEL
100
AcDbLine
 10
214.2356792660537
 20
347.3667651608045
 30
0.0
 11
213.7356792660537
 21
347.3667651608045
 31
0.0
  0
LINE
  5
224A
102
{ACAD_REACTORS
330
2298
330
223B
102
}
330
1101
100
AcDbEntity
  8
STEMPEL
100
AcDbLine
 10
213.7356792660537
 20
347.3667651608045
 30
0.0
 11
213.7356792660537
 21
350.3667651608046
 31
0.0
  0
LINE
  5
224B
102
{ACAD_REACTORS
330
2298
330
223B
102
}
330
1101
100
AcDbEntity
  8
STEMPEL
100
AcDbLine
 10
214.2356792660537
 20
350.3667651608046
 30
0.0
 11
213.7356792660537
 21
350.3667651608045
 31
0.0
  0
LINE
  5
224C
102
{ACAD_REACTORS
330
2298
330
223B
102
}
330
1101
100
AcDbEntity
  8
STEMPEL
100
AcDbLine
 10
206.7356792660537
 20
347.3667651608044
 30
0.0
 11
206.7356792660537
 21
350.3667651608044
 31
0.0
  0
ARC
  5
224D
102
{ACAD_REACTORS
330
2298
102
}
330
1101
100
AcDbEntity
  8
STEMPEL
100
AcDbCircle
 10
222.9109915555555
 20
355.3667651608049
 30
0.0
 40
5.0
100
AcDbArc
 50
180.9999999999985
 51
270.0
  0
LINE
  5
224E
102
{ACAD_REACTORS
330
2298
330
223B
102
}
330
1101
100
AcDbEntity
  8
STEMPEL
100
AcDbLine
 10
217.7356792660535
 20
365.3667651608065
 30
0.0
 11
202.7356792660537
 21
365.3667651608066
 31
0.0
  0
LINE
  5
224F
102
{ACAD_REACTORS
330
2298
330
223B
102
}
330
1101
100
AcDbEntity
  8
STEMPEL
100
AcDbLine
 10
206.7356792660537
 20
361.3667651608044
 30
0.0
 11
206.2356792660537
 21
361.3667651608044
 31
0.0
  0
LINE
  5
2250
102
{ACAD_REACTORS
330
2298
330
223B
102
}
330
1101
100
AcDbEntity
  8
STEMPEL
100
AcDbLine
 10
206.7356792660537
 20
358.3667651608044
 30
0.0
 11
206.2356792660537
 21
358.3667651608044
 31
0.0
  0
LINE
  5
2251
102
{ACAD_REACTORS
330
2298
330
223B
102
}
330
1101
100
AcDbEntity
  8
STEMPEL
100
AcDbLine
 10
206.2356792660537
 20
361.3667651608043
 30
0.0
 11
206.2356792660537
 21
365.3667651608066
 31
0.0
  0
LINE
  5
2252
102
{ACAD_REACTORS
330
2298
330
223B
102
}
330
1101
100
AcDbEntity
  8
STEMPEL
100
AcDbLine
 10
214.2356792660537
 20
361.3667651608044
 30
0.0
 11
214.2356792660537
 21
365.3667651608065
 31
0.0
  0
LINE
  5
2253
102
{ACAD_REACTORS
330
2298
330
223B
102
}
330
1101
100
AcDbEntity
  8
STEMPEL
100
AcDbLine
 10
214.2356792660537
 20
358.3667651608044
 30
0.0
 11
213.7356792660537
 21
358.3667651608044
 31
0.0
  0
LINE
  5
2254
102
{ACAD_REACTORS
330
2298
330
223B
102
}
330
1101
100
AcDbEntity
  8
STEMPEL
100
AcDbLine
 10
213.7356792660537
 20
358.3667651608044
 30
0.0
 11
213.7356792660537
 21
361.3667651608045
 31
0.0
  0
LINE
  5
2255
102
{ACAD_REACTORS
330
2298
330
223B
102
}
330
1101
100
AcDbEntity
  8
STEMPEL
100
AcDbLine
 10
214.2356792660537
 20
361.3667651608044
 30
0.0
 11
213.7356792660537
 21
361.3667651608044
 31
0.0
  0
LINE
  5
2256
102
{ACAD_REACTORS
330
2298
330
223B
102
}
330
1101
100
AcDbEntity
  8
STEMPEL
100
AcDbLine
 10
206.7356792660537
 20
358.3667651608044
 30
0.0
 11
206.7356792660537
 21
361.3667651608045
 31
0.0
  0
LINE
  5
2257
330
1101
100
AcDbEntity
  8
STEMPEL
100
AcDbLine
 10
400.7361011719836
 20
365.3667651608065
 30
0.0
 11
400.9121749857033
 21
355.2795031286185
 31
0.0
  0
LINE
  5
2258
330
1101
100
AcDbEntity
  8
MITTEL
100
AcDbLine
 10
393.2361011719836
 20
377.0345084952037
 30
0.0
 11
393.2361011719836
 21
344.3667651608045
 31
0.0
  0
ARC
  5
2259
330
1101
100
AcDbEntity
  8
STEMPEL
100
AcDbCircle
 10
405.9114134614853
 20
355.3667651608049
 30
0.0
 40
5.0
100
AcDbArc
 50
180.9999999999985
 51
242.9278855327888
  0
ARC
  5
225A
102
{ACAD_REACTORS
330
2298
102
}
330
1101
100
AcDbEntity
  8
STEMPEL
100
AcDbCircle
 10
459.2356792660536
 20
347.366765160805
 30
0.0
 40
3.0
100
AcDbArc
 50
270.0
 51
90.0
  0
LINE
  5
225B
330
1101
100
AcDbEntity
  8
STEMPEL
100
AcDbLine
 10
400.7361011719837
 20
365.3667651608027
 30
0.0
 11
400.4467969711495
 21
365.3667651608028
 31
0.0
  0
LINE
  5
225C
330
1101
100
AcDbEntity
  8
STEMPEL
100
AcDbLine
 10
419.5080926255752
 20
344.3667651608046
 30
0.0
 11
419.5080926255752
 21
338.8667651608045
 31
0.0
  0
LINE
  5
225D
330
1101
100
AcDbEntity
  8
HILF
100
AcDbLine
 10
418.5080926255753
 20
344.3667651608044
 30
0.0
 11
418.5080926255753
 21
338.8667651608045
 31
0.0
  0
LINE
  5
225E
330
1101
100
AcDbEntity
  8
HILF
100
AcDbLine
 10
410.5080926255753
 20
344.3667651608044
 30
0.0
 11
410.5080926255753
 21
338.8667651608045
 31
0.0
  0
LINE
  5
225F
330
1101
100
AcDbEntity
  8
STEMPEL
100
AcDbLine
 10
409.5080926255752
 20
344.3667651608046
 30
0.0
 11
409.5080926255752
 21
338.8667651608045
 31
0.0
  0
LINE
  5
2260
330
1101
100
AcDbEntity
  8
HILF
100
AcDbLine
 10
336.2356792660538
 20
344.3667651608044
 30
0.0
 11
336.2356792660537
 21
338.8667651608045
 31
0.0
  0
LINE
  5
2261
330
1101
100
AcDbEntity
  8
STEMPEL
100
AcDbLine
 10
337.2356792660537
 20
344.3667651608046
 30
0.0
 11
337.2356792660537
 21
338.8667651608045
 31
0.0
  0
LINE
  5
2262
330
1101
100
AcDbEntity
  8
HILF
100
AcDbLine
 10
328.2356792660537
 20
344.3667651608044
 30
0.0
 11
328.2356792660537
 21
338.8667651608045
 31
0.0
  0
LINE
  5
2263
330
1101
100
AcDbEntity
  8
STEMPEL
100
AcDbLine
 10
327.2356792660537
 20
344.3667651608046
 30
0.0
 11
327.2356792660537
 21
338.8667651608045
 31
0.0
  0
LINE
  5
2264
330
1101
100
AcDbEntity
  8
STEMPEL
100
AcDbLine
 10
254.9632659065321
 20
344.3667651608046
 30
0.0
 11
254.9632659065321
 21
338.8667651608045
 31
0.0
  0
LINE
  5
2265
330
1101
100
AcDbEntity
  8
HILF
100
AcDbLine
 10
253.9632659065321
 20
344.3667651608044
 30
0.0
 11
253.9632659065321
 21
338.8667651608045
 31
0.0
  0
LINE
  5
2266
330
1101
100
AcDbEntity
  8
HILF
100
AcDbLine
 10
245.9632659065321
 20
344.3667651608044
 30
0.0
 11
245.9632659065321
 21
338.8667651608045
 31
0.0
  0
LINE
  5
2267
330
1101
100
AcDbEntity
  8
STEMPEL
100
AcDbLine
 10
244.9632659065321
 20
344.3667651608046
 30
0.0
 11
244.9632659065321
 21
338.8667651608045
 31
0.0
  0
ARC
  5
2268
330
1101
100
AcDbEntity
  8
STEMPEL
100
AcDbCircle
 10
424.6580926255752
 20
351.1167651608048
 30
0.0
 40
0.750000000000001
100
AcDbArc
 50
269.9999991462263
 51
70.00000000000047
  0
ARC
  5
2269
330
1101
100
AcDbEntity
  8
STEMPEL
100
AcDbCircle
 10
404.3580926255753
 20
351.1167651608048
 30
0.0
 40
0.7500000000000013
100
AcDbArc
 50
109.9999999999995
 51
269.9999991462263
  0
LINE
  5
226A
330
1101
100
AcDbEntity
  8
STEMPEL
100
AcDbLine
 10
405.8478385877308
 20
352.4571216770046
 30
0.0
 11
404.101577518081
 21
351.8215346263942
 31
0.0
  0
LINE
  5
226B
330
1101
100
AcDbEntity
  8
STEMPEL
100
AcDbLine
 10
424.9146077330695
 20
351.8215346263942
 30
0.0
 11
423.1683466634196
 21
352.4571216770046
 31
0.0
  0
LINE
  5
226C
330
1101
100
AcDbEntity
  8
STEMPEL
100
AcDbLine
 10
423.1683466634196
 20
360.0558760283494
 30
0.0
 11
422.0080926255752
 21
360.3667651608048
 31
0.0
  0
LINE
  5
226D
330
1101
100
AcDbEntity
  8
STEMPEL
100
AcDbLine
 10
407.0080926255752
 20
360.3667651608048
 30
0.0
 11
405.8478385877308
 21
360.0558760283494
 31
0.0
  0
LINE
  5
226E
330
1101
100
AcDbEntity
  8
STEMPEL
100
AcDbLine
 10
405.8478385877308
 20
352.4571216770046
 30
0.0
 11
405.8478385877308
 21
360.0558760283494
 31
0.0
  0
LINE
  5
226F
102
{ACAD_REACTORS
330
2298
102
}
330
1101
100
AcDbEntity
  8
STEMPEL
100
AcDbLine
 10
424.6580926255752
 20
350.3667651608048
 30
0.0
 11
404.3580926255753
 21
350.3667651608048
 31
0.0
  0
LINE
  5
2270
330
1101
100
AcDbEntity
  8
STEMPEL
100
AcDbLine
 10
424.9146077330695
 20
351.8215346263942
 30
0.0
 11
404.101577518081
 21
351.8215346263942
 31
0.0
  0
LINE
  5
2271
330
1101
100
AcDbEntity
  8
STEMPEL
100
AcDbLine
 10
410.177965606653
 20
352.4571216770046
 30
0.0
 11
410.177965606653
 21
360.0558760283494
 31
0.0
  0
LINE
  5
2272
330
1101
100
AcDbEntity
  8
STEMPEL
100
AcDbLine
 10
418.8382196444974
 20
352.4571216770046
 30
0.0
 11
418.8382196444974
 21
360.0558760283494
 31
0.0
  0
LINE
  5
2273
330
1101
100
AcDbEntity
  8
STEMPEL
100
AcDbLine
 10
423.1683466634196
 20
352.4571216770046
 30
0.0
 11
423.1683466634196
 21
360.0558760283494
 31
0.0
  0
LINE
  5
2274
330
1101
100
AcDbEntity
  8
STEMPEL
100
AcDbLine
 10
407.0080926255752
 20
360.3667651608048
 30
0.0
 11
422.0080926255752
 21
360.3667651608048
 31
0.0
  0
ARC
  5
2275
330
1101
100
AcDbEntity
  8
HILF
100
AcDbCircle
 10
408.012902097192
 20
347.1182790112751
 30
0.0
 40
5.761140599691502
100
AcDbArc
 50
67.92594526325932
 51
112.0740547367407
  0
ARC
  5
2276
330
1101
100
AcDbEntity
  8
HILF
100
AcDbCircle
 10
421.0032831539585
 20
347.1182790112751
 30
0.0
 40
5.761140599691502
100
AcDbArc
 50
67.92594526325932
 51
112.0740547367407
  0
ARC
  5
2277
330
1101
100
AcDbEntity
  8
HILF
100
AcDbCircle
 10
414.5080926255753
 20
330.4683041131436
 30
0.0
 40
22.41111549782308
100
AcDbArc
 50
78.85962783890455
 51
101.1403721610954
  0
ARC
  5
2278
330
1101
100
AcDbEntity
  8
STEMPEL
100
AcDbCircle
 10
421.0032831539585
 20
352.6724594530203
 30
0.0
 40
7.694305707784447
100
AcDbArc
 50
73.65710669401345
 51
106.3428933059825
  0
ARC
  5
2279
330
1101
100
AcDbEntity
  8
STEMPEL
100
AcDbCircle
 10
408.012902097192
 20
352.6724594530203
 30
0.0
 40
7.694305707784447
100
AcDbArc
 50
73.6571066940175
 51
106.3428933059865
  0
ARC
  5
227A
330
1101
100
AcDbEntity
  8
STEMPEL
100
AcDbCircle
 10
414.5080926255753
 20
330.0558760283499
 30
0.0
 40
30.31088913245485
100
AcDbArc
 50
81.78678929826059
 51
98.2132107017394
  0
ARC
  5
227B
330
1101
100
AcDbEntity
  8
STEMPEL
100
AcDbCircle
 10
239.8132659065321
 20
351.1167651608049
 30
0.0
 40
0.7500000000000013
100
AcDbArc
 50
109.9999999999995
 51
269.9999991462263
  0
ARC
  5
227C
330
1101
100
AcDbEntity
  8
STEMPEL
100
AcDbCircle
 10
260.1132659065321
 20
351.1167651608049
 30
0.0
 40
0.750000000000001
100
AcDbArc
 50
269.9999991462263
 51
70.00000000000047
  0
LINE
  5
227D
330
1101
100
AcDbEntity
  8
STEMPEL
100
AcDbLine
 10
260.1132659065321
 20
350.3667651608049
 30
0.0
 11
239.8132659065321
 21
350.3667651608049
 31
0.0
  0
ARC
  5
227E
330
1101
100
AcDbEntity
  8
STEMPEL
100
AcDbCircle
 10
249.9632659065321
 20
330.0558760283501
 30
0.0
 40
30.31088913245485
100
AcDbArc
 50
81.78678929826059
 51
98.2132107017394
  0
ARC
  5
227F
330
1101
100
AcDbEntity
  8
HILF
100
AcDbCircle
 10
249.9632659065321
 20
330.4683041131437
 30
0.0
 40
22.41111549782308
100
AcDbArc
 50
78.85962783890455
 51
101.1403721610954
  0
LINE
  5
2280
330
1101
100
AcDbEntity
  8
STEMPEL
100
AcDbLine
 10
242.4632659065321
 20
360.3667651608049
 30
0.0
 11
257.4632659065321
 21
360.3667651608049
 31
0.0
  0
LINE
  5
2281
330
1101
100
AcDbEntity
  8
STEMPEL
100
AcDbLine
 10
260.3697810140264
 20
351.8215346263943
 30
0.0
 11
239.5567507990378
 21
351.8215346263943
 31
0.0
  0
ARC
  5
2282
330
1101
100
AcDbEntity
  8
STEMPEL
100
AcDbCircle
 10
243.4680753781488
 20
352.6724594530204
 30
0.0
 40
7.694305707784447
100
AcDbArc
 50
73.6571066940175
 51
106.3428933059865
  0
ARC
  5
2283
330
1101
100
AcDbEntity
  8
HILF
100
AcDbCircle
 10
243.4680753781488
 20
347.1182790112753
 30
0.0
 40
5.761140599691502
100
AcDbArc
 50
67.92594526325932
 51
112.0740547367407
  0
LINE
  5
2284
330
1101
100
AcDbEntity
  8
STEMPEL
100
AcDbLine
 10
241.3030118686878
 20
352.4571216770048
 30
0.0
 11
241.3030118686878
 21
360.0558760283495
 31
0.0
  0
LINE
  5
2285
330
1101
100
AcDbEntity
  8
STEMPEL
100
AcDbLine
 10
242.4632659065321
 20
360.3667651608049
 30
0.0
 11
241.3030118686878
 21
360.0558760283495
 31
0.0
  0
LINE
  5
2286
330
1101
100
AcDbEntity
  8
STEMPEL
100
AcDbLine
 10
241.3030118686878
 20
352.4571216770048
 30
0.0
 11
239.5567507990379
 21
351.8215346263943
 31
0.0
  0
LINE
  5
2287
330
1101
100
AcDbEntity
  8
STEMPEL
100
AcDbLine
 10
245.6331388876099
 20
352.4571216770048
 30
0.0
 11
245.6331388876099
 21
360.0558760283495
 31
0.0
  0
LINE
  5
2288
330
1101
100
AcDbEntity
  8
STEMPEL
100
AcDbLine
 10
260.3697810140264
 20
351.8215346263943
 30
0.0
 11
258.6235199443765
 21
352.4571216770048
 31
0.0
  0
ARC
  5
2289
330
1101
100
AcDbEntity
  8
STEMPEL
100
AcDbCircle
 10
256.4584564349154
 20
352.6724594530204
 30
0.0
 40
7.694305707784447
100
AcDbArc
 50
73.65710669401345
 51
106.3428933059825
  0
ARC
  5
228A
330
1101
100
AcDbEntity
  8
HILF
100
AcDbCircle
 10
256.4584564349154
 20
347.1182790112753
 30
0.0
 40
5.761140599691502
100
AcDbArc
 50
67.92594526325932
 51
112.0740547367407
  0
LINE
  5
228B
330
1101
100
AcDbEntity
  8
STEMPEL
100
AcDbLine
 10
258.6235199443765
 20
352.4571216770048
 30
0.0
 11
258.6235199443765
 21
360.0558760283495
 31
0.0
  0
LINE
  5
228C
330
1101
100
AcDbEntity
  8
STEMPEL
100
AcDbLine
 10
254.2933929254543
 20
352.4571216770048
 30
0.0
 11
254.2933929254543
 21
360.0558760283495
 31
0.0
  0
LINE
  5
228D
330
1101
100
AcDbEntity
  8
STEMPEL
100
AcDbLine
 10
258.6235199443765
 20
360.0558760283495
 30
0.0
 11
257.4632659065321
 21
360.3667651608049
 31
0.0
  0
ARC
  5
228E
102
{ACAD_REACTORS
330
2298
102
}
330
1101
100
AcDbEntity
  8
STEMPEL
100
AcDbCircle
 10
399.4750618108615
 20
378.8667651608044
 30
0.0
 40
0.5
100
AcDbArc
 50
2.000000000000357
 51
90.0
  0
LINE
  5
228F
102
{ACAD_REACTORS
330
2298
102
}
330
1101
100
AcDbEntity
  8
STEMPEL
100
AcDbLine
 10
400.9369064613135
 20
351.3318656641018
 30
0.0
 11
399.9747572243709
 21
378.8842149091557
 31
0.0
  0
LINE
  5
2290
102
{ACAD_REACTORS
330
2298
102
}
330
1101
100
AcDbEntity
  8
STEMPEL
100
AcDbLine
 10
396.2356792660537
 20
344.3667651608042
 30
0.0
 11
397.457906198265
 21
379.3667651608042
 31
0.0
  0
LINE
  5
2291
102
{ACAD_REACTORS
330
2298
102
}
330
1101
100
AcDbEntity
  8
STEMPEL
100
AcDbLine
 10
399.4750618108615
 20
379.3667651608044
 30
0.0
 11
264.9962967212459
 21
379.3667651608045
 31
0.0
  0
ARC
  5
2292
102
{ACAD_REACTORS
330
2298
102
}
330
1101
100
AcDbEntity
  8
STEMPEL
100
AcDbCircle
 10
401.9362972883325
 20
351.3667651608043
 30
0.0
 40
1.0
100
AcDbArc
 50
182.0000000000004
 51
270.0
  0
ARC
  5
2293
102
{ACAD_REACTORS
330
2298
102
}
330
1101
100
AcDbEntity
  8
STEMPEL
100
AcDbCircle
 10
262.5350612437746
 20
351.3667651608047
 30
0.0
 40
1.0
100
AcDbArc
 50
270.0
 51
357.9999999999996
  0
LINE
  5
2294
102
{ACAD_REACTORS
330
2298
102
}
330
1101
100
AcDbEntity
  8
STEMPEL
100
AcDbLine
 10
268.2356792660534
 20
344.3667651608047
 30
0.0
 11
267.0134523338425
 21
379.3667651608044
 31
0.0
  0
LINE
  5
2295
102
{ACAD_REACTORS
330
2298
102
}
330
1101
100
AcDbEntity
  8
STEMPEL
100
AcDbLine
 10
263.5344520707938
 20
351.3318656641022
 30
0.0
 11
264.4966013077365
 21
378.8842149091559
 31
0.0
  0
ARC
  5
2296
102
{ACAD_REACTORS
330
2298
102
}
330
1101
100
AcDbEntity
  8
STEMPEL
100
AcDbCircle
 10
264.9962967212459
 20
378.8667651608046
 30
0.0
 40
0.5
100
AcDbArc
 50
90.0
 51
177.9999999999996
  0
LINE
  5
2297
102
{ACAD_REACTORS
330
2298
102
}
330
1101
100
AcDbEntity
  8
STEMPEL
100
AcDbLine
 10
262.5350612437746
 20
350.3667651608048
 30
0.0
 11
222.9109915555555
 21
350.3667651608049
 31
0.0
  0
HATCH
  5
2298
330
1101
100
AcDbEntity
  8
SCHRAFF
100
AcDbHatch
 10
0.0
 20
0.0
 30
0.0
210
0.0
220
0.0
230
1.0
  2
_USER
 70
     0
 71
     1
 91
        5
 92
        7
 72
     1
 73
     1
 93
        9
 10
396.2356792660537
 20
344.3667651608045
 42
0.0
 10
414.5080926255753
 20
344.3667651608045
 42
0.0
 10
414.5080926255753
 20
350.3667651608048
 42
0.0
 10
404.3580926255753
 20
350.3667651608048
 42
0.0
 10
401.9362972883325
 20
350.3667651608043
 42
-0.4040262258351638
 10
400.9369064613133
 20
351.3318656641018
 42
0.0
 10
399.974757224371
 20
378.8842149091556
 42
0.4040262258351568
 10
399.4750618108615
 20
379.3667651608044
 42
0.0
 10
397.457906198265
 20
379.3667651608044
 42
0.0
 97
        9
330
226F
330
223D
330
2292
330
228F
330
228E
330
2291
330
2290
330
223C
330
2230
 92
        7
 72
     1
 73
     1
 93
        4
 10
414.5080926255753
 20
350.3667651608048
 42
0.0
 10
414.5080926255753
 20
344.3667651608045
 42
0.0
 10
459.2356792660536
 20
344.366765160805
 42
1.0
 10
459.2356792660536
 20
350.366765160805
 42
0.0
 97
        4
330
223D
330
2230
330
223C
330
225A
 92
        7
 72
     1
 73
     1
 93
        8
 10
268.2356792660534
 20
344.3667651608045
 42
0.0
 10
267.0134523338425
 20
379.3667651608045
 42
0.0
 10
264.9962967212459
 20
379.3667651608046
 42
0.4040262258351596
 10
264.4966013077364
 20
378.8842149091558
 42
0.0
 10
263.5344520707938
 20
351.3318656641022
 42
-0.4040262258351599
 10
262.5350612437746
 20
350.3667651608048
 42
0.0
 10
249.9632659065321
 20
350.3667651608048
 42
0.0
 10
249.9632659065321
 20
344.3667651608045
 42
0.0
 97
        8
330
2291
330
2296
330
2295
330
2293
330
2297
330
223A
330
223C
330
2294
 92
        7
 72
     1
 73
     1
 93
       15
 10
222.9109915555555
 20
350.3667651608049
 42
-0.4091108014277105
 10
217.9117530797735
 20
355.2795031286185
 42
0.0
 10
217.7356792660537
 20
365.3667651608065
 42
0.0
 10
214.2356792660537
 20
365.3667651608065
 42
0.0
 10
214.2356792660537
 20
361.3667651608044
 42
0.0
 10
213.7356792660537
 20
361.3667651608044
 42
0.0
 10
213.7356792660537
 20
358.3667651608044
 42
0.0
 10
214.2356792660537
 20
358.3667651608044
 42
0.0
 10
214.2356792660537
 20
350.3667651608046
 42
0.0
 10
213.7356792660537
 20
350.3667651608045
 42
0.0
 10
213.7356792660537
 20
347.3667651608045
 42
0.0
 10
214.2356792660537
 20
347.3667651608045
 42
0.0
 10
214.2356792660537
 20
344.3667651608045
 42
0.0
 10
249.9632659065321
 20
344.3667651608045
 42
0.0
 10
249.9632659065321
 20
350.3667651608048
 42
0.0
 97
       15
330
2297
330
224D
330
223F
330
224E
330
2252
330
2255
330
2254
330
2253
330
2241
330
224B
330
224A
330
2249
330
2248
330
223C
330
223A
 92
        7
 72
     1
 73
     1
 93
       14
 10
202.4522959241657
 20
349.1317443772489
 42
-0.054101941291438
 10
202.3171960844274
 20
348.0613556290413
 42
0.4844268511313992
 10
205.2356792660537
 20
344.366765160805
 42
0.0
 10
206.2356792660537
 20
344.366765160805
 42
0.0
 10
206.2356792660537
 20
347.3667651608045
 42
0.0
 10
206.7356792660537
 20
347.3667651608045
 42
0.0
 10
206.7356792660537
 20
350.3667651608044
 42
0.0
 10
206.2356792660537
 20
350.3667651608044
 42
0.0
 10
206.2356792660537
 20
358.3667651608044
 42
0.0
 10
206.7356792660537
 20
358.3667651608044
 42
0.0
 10
206.7356792660537
 20
361.3667651608044
 42
0.0
 10
206.2356792660537
 20
361.3667651608044
 42
0.0
 10
206.2356792660537
 20
365.3667651608066
 42
0.0
 10
202.7356792660537
 20
365.3667651608066
 42
0.0
 97
       14
330
2250
330
2256
330
224F
330
2251
330
224E
330
223E
330
2246
330
2245
330
223C
330
2244
330
2243
330
224C
330
2242
330
2240
 75
     0
 76
     0
 52
45.0
 41
5.0
 77
     0
 78
     1
 53
45.0
 43
0.0
 44
0.0
 45
-3.535533905932737
 46
3.535533905932737
 79
     0
 47
0.2917187734262037
 98
        5
 10
398.0644141971825
 20
348.5044554034666
 10
420.8255823091494
 20
348.2127371945139
 10
257.4120664362972
 20
347.337579544215
 10
233.483660736043
 20
348.2127371945139
 10
204.0108651963069
 20
352.2967996784537
  0
LINE
  5
2299
330
1101
100
AcDbEntity
  8
TEXT
 62
     2
100
AcDbLine
 10
227.600236354894
 20
420.79629823979
 30
0.0
 11
265.4426093297922
 21
368.6900605972027
 31
0.0
  0
TEXT
  5
229A
330
1101
100
AcDbEntity
  8
TEXT
 62
     1
100
AcDbText
 10
121.2119831967308
 20
411.8385937466568
 30
0.0
 40
7.0
  1
EDV-Art.Nr. 19927.100X
 41
0.8
  7
GREEKS
100
AcDbText
  0
LINE
  5
229B
330
1101
100
AcDbEntity
  8
TEXT
 62
     2
100
AcDbLine
 10
120.6880154563931
 20
420.79629823979
 30
0.0
 11
227.600236354894
 21
420.79629823979
 31
0.0
  0
TEXT
  5
229C
330
1101
100
AcDbEntity
  8
TEXT
 62
     1
100
AcDbText
 10
121.2119831967308
 20
423.8568005738733
 30
0.0
 40
7.0
  1
Losflansch
 41
0.8
  7
GREEKS
100
AcDbText
  0
DIMENSION
  5
229D
330
1101
100
AcDbEntity
  8
BEM
100
AcDbDimension
  2
*D10
 10
184.6995276006864
 20
379.3667651608046
 30
0.0
 11
178.1995276006864
 21
361.8667651608046
 31
0.0
 70
    32
 71
     5
 42
35.00000000000011
  3
STANDARD
100
AcDbAlignedDimension
 13
205.2356792660537
 23
344.3667651608045
 33
0.0
 14
264.9962967212459
 24
379.3667651608046
 34
0.0
 50
90.0
100
AcDbRotatedDimension
  0
LINE
  5
229E
330
1101
100
AcDbEntity
  8
MITTEL
100
AcDbLine
 10
210.2356792660537
 20
370.3667651608065
 30
0.0
 11
210.2356792660537
 21
344.3667651608045
 31
0.0
  0
LINE
  5
229F
102
{ACAD_REACTORS
330
223B
102
}
330
1101
100
AcDbEntity
  8
HILF
100
AcDbLine
 10
213.2356792660537
 20
344.3667651608043
 30
0.0
 11
213.2356792660536
 21
365.3667651608066
 31
0.0
  0
LINE
  5
22A0
102
{ACAD_REACTORS
330
223B
102
}
330
1101
100
AcDbEntity
  8
STEMPEL
100
AcDbLine
 10
212.6221792660536
 20
344.3667651608043
 30
0.0
 11
212.6221792660536
 21
365.3667651608066
 31
0.0
  0
LINE
  5
22A1
102
{ACAD_REACTORS
330
223B
102
}
330
1101
100
AcDbEntity
  8
HILF
100
AcDbLine
 10
207.2356792660537
 20
344.3667651608043
 30
0.0
 11
207.2356792660536
 21
365.3667651608066
 31
0.0
  0
LINE
  5
22A2
102
{ACAD_REACTORS
330
223B
102
}
330
1101
100
AcDbEntity
  8
STEMPEL
100
AcDbLine
 10
207.8491792660536
 20
344.3667651608043
 30
0.0
 11
207.8491792660536
 21
365.3667651608066
 31
0.0
  0
DIMENSION
  5
22BA
330
1101
100
AcDbEntity
  8
BEM
100
AcDbDimension
  2
*D11
 10
772.4568559561494
 20
465.4456136661294
 30
0.0
 11
552.3462676111015
 21
471.9456136661294
 31
0.0
 70
    32
  1
800
 71
     5
 42
440.2211766900958
  3
STANDARD
100
AcDbAlignedDimension
 13
332.2356792660536
 23
384.3667651608044
 33
0.0
 14
772.4568559561494
 24
244.5840403272035
 34
0.0
100
AcDbRotatedDimension
  0
ENDSEC
  0
SECTION
  2
OBJECTS
  0
DICTIONARY
  5
10EF
330
0
100
AcDbDictionary
281
     1
  3
ACAD_CIP_PREVIOUS_PRODUCT_INFO
350
2191
  3
ACAD_COLOR
350
1802
  3
ACAD_DETAILVIEWSTYLE
350
218C
  3
ACAD_GROUP
350
10F0
  3
ACAD_LAYOUT
350
10FC
  3
ACAD_MATERIAL
350
1801
  3
ACAD_MLEADERSTYLE
350
2187
  3
ACAD_MLINESTYLE
350
10F9
  3
ACAD_PLOTSETTINGS
350
10FB
  3
ACAD_PLOTSTYLENAME
350
10F1
  3
ACAD_SCALELIST
350
2175
  3
ACAD_SECTIONVIEWSTYLE
350
2189
  3
ACAD_TABLESTYLE
350
2173
  3
ACAD_VISUALSTYLE
350
215A
  3
ACDB_RECOMPOSE_DATA
350
2634
  3
AcDbVariableDictionary
350
112B
  0
DICTIONARY
  5
231C
330
10EB
100
AcDbDictionary
280
     1
281
     1
  0
DICTIONARY
  5
1945
330
10E5
100
AcDbDictionary
280
     1
281
     1
  3
ACAD_LAYERSTATES
360
1946
  0
DICTIONARY
  5
2309
330
10F3
100
AcDbDictionary
280
     1
281
     1
  3
ADSK_XREC_LAYER_RECONCILED
360
230A
  0
DICTIONARY
  5
230B
330
111D
100
AcDbDictionary
280
     1
281
     1
  3
ADSK_XREC_LAYER_RECONCILED
360
230C
  0
DICTIONARY
  5
230D
330
111E
100
AcDbDictionary
280
     1
281
     1
  3
ADSK_XREC_LAYER_RECONCILED
360
230E
  0
DICTIONARY
  5
230F
330
111F
100
AcDbDictionary
280
     1
281
     1
  3
ADSK_XREC_LAYER_RECONCILED
360
2310
  0
DICTIONARY
  5
2311
330
1120
100
AcDbDictionary
280
     1
281
     1
  3
ADSK_XREC_LAYER_RECONCILED
360
2312
  0
DICTIONARY
  5
2313
330
1121
100
AcDbDictionary
280
     1
281
     1
  3
ADSK_XREC_LAYER_RECONCILED
360
2314
  0
DICTIONARY
  5
2315
330
1122
100
AcDbDictionary
280
     1
281
     1
  3
ADSK_XREC_LAYER_RECONCILED
360
2316
  0
DICTIONARY
  5
2317
330
1123
100
AcDbDictionary
280
     1
281
     1
  3
ADSK_XREC_LAYER_RECONCILED
360
2318
  0
DICTIONARY
  5
1561
330
1101
100
AcDbDictionary
280
     1
281
     1
  3
ACAD_LAYOUTSELFREF
360
17A3
  3
ACAD_SORTENTS
360
22B9
  0
DICTIONARY
  5
1563
330
10FD
100
AcDbDictionary
280
     1
281
     1
  3
ACAD_LAYOUTSELFREF
360
17A2
  0
XRECORD
  5
2191
102
{ACAD_REACTORS
330
10EF
102
}
330
10EF
100
AcDbXrecord
280
     1
300
ACD
300
2013
300
ACD_F_S
  0
DICTIONARY
  5
1802
102
{ACAD_REACTORS
330
10EF
102
}
330
10EF
100
AcDbDictionary
281
     1
  0
DICTIONARY
  5
218C
102
{ACAD_REACTORS
330
10EF
102
}
330
10EF
100
AcDbDictionary
281
     1
  3
Imperial24
350
218D
  0
DICTIONARY
  5
10F0
102
{ACAD_REACTORS
330
10EF
102
}
330
10EF
100
AcDbDictionary
281
     1
  0
DICTIONARY
  5
10FC
102
{ACAD_REACTORS
330
10EF
102
}
330
10EF
100
AcDbDictionary
281
     1
  3
Layout1
350
1100
  3
Model
350
1104
  0
DICTIONARY
  5
1801
102
{ACAD_REACTORS
330
10EF
102
}
330
10EF
100
AcDbDictionary
281
     1
  3
ByBlock
350
214A
  3
ByLayer
350
2142
  3
Global
350
2152
  0
DICTIONARY
  5
2187
102
{ACAD_REACTORS
330
10EF
102
}
330
10EF
100
AcDbDictionary
281
     1
  3
Standard
350
2188
  0
DICTIONARY
  5
10F9
102
{ACAD_REACTORS
330
10EF
102
}
330
10EF
100
AcDbDictionary
281
     1
  3
Standard
350
10FA
  0
DICTIONARY
  5
10FB
102
{ACAD_REACTORS
330
10EF
102
}
330
10EF
100
AcDbDictionary
281
     1
  0
ACDBDICTIONARYWDFLT
  5
10F1
102
{ACAD_REACTORS
330
10EF
102
}
330
10EF
100
AcDbDictionary
281
     1
  3
Normal
350
10F2
100
AcDbDictionaryWithDefault
340
10F2
  0
DICTIONARY
  5
2175
102
{ACAD_REACTORS
330
10EF
102
}
330
10EF
100
AcDbDictionary
281
     1
  3
A0
350
2176
  3
A1
350
2177
  3
A2
350
2178
  3
A3
350
2179
  3
A4
350
217A
  3
A5
350
217B
  3
A6
350
217C
  3
A7
350
217D
  3
A8
350
217E
  3
A9
350
217F
  3
B0
350
2180
  3
B1
350
2181
  3
B2
350
2182
  3
B3
350
2183
  3
B4
350
2184
  3
B5
350
2185
  3
B6
350
2186
  0
DICTIONARY
  5
2189
102
{ACAD_REACTORS
330
10EF
102
}
330
10EF
100
AcDbDictionary
281
     1
  3
Imperial24
350
218B
  0
DICTIONARY
  5
2173
102
{ACAD_REACTORS
330
10EF
102
}
330
10EF
100
AcDbDictionary
281
     1
  3
Standard
350
2174
  0
DICTIONARY
  5
215A
102
{ACAD_REACTORS
330
10EF
102
}
330
10EF
100
AcDbDictionary
281
     1
  3
2dWireframe
350
2160
  3
Basic
350
215F
  3
Brighten
350
2166
  3
ColorChange
350
216A
  3
Conceptual
350
2163
  3
Dim
350
2165
  3
EdgeColorOff
350
2172
  3
Facepattern
350
2169
  3
Flat
350
215B
  3
FlatWithEdges
350
215C
  3
Gouraud
350
215D
  3
GouraudWithEdges
350
215E
  3
Hidden
350
2162
  3
JitterOff
350
2170
  3
Linepattern
350
2168
  3
OverhangOff
350
2171
  3
Realistic
350
2164
  3
Shaded
350
216F
  3
Shaded with edges
350
216E
  3
Shades of Gray
350
216B
  3
Sketchy
350
216C
  3
Thicken
350
2167
  3
Wireframe
350
2161
  3
X-Ray
350
216D
  0
XRECORD
  5
2634
102
{ACAD_REACTORS
330
10EF
102
}
330
10EF
100
AcDbXrecord
280
     1
 90
        1
330
2174
  0
DICTIONARY
  5
112B
102
{ACAD_REACTORS
330
10EF
102
}
330
10EF
100
AcDbDictionary
281
     1
  3
CANNOSCALE
350
2359
  3
CMLEADERSTYLE
350
2356
  3
CTABLESTYLE
350
2355
  3
CVIEWDETAILSTYLE
350
2357
  3
CVIEWSECTIONSTYLE
350
2358
  3
DIMASSOC
350
180D
  3
PROJECTNAME
350
180E
  3
SORTENTS
350
112C
  0
DICTIONARY
  5
1946
102
{ACAD_REACTORS
330
1945
102
}
330
1945
100
AcDbDictionary
281
     1
  0
XRECORD
  5
230A
102
{ACAD_REACTORS
330
2309
102
}
330
2309
100
AcDbXrecord
280
     1
290
     1
  0
XRECORD
  5
230C
102
{ACAD_REACTORS
330
230B
102
}
330
230B
100
AcDbXrecord
280
     1
290
     1
  0
XRECORD
  5
230E
102
{ACAD_REACTORS
330
230D
102
}
330
230D
100
AcDbXrecord
280
     1
290
     1
  0
XRECORD
  5
2310
102
{ACAD_REACTORS
330
230F
102
}
330
230F
100
AcDbXrecord
280
     1
290
     1
  0
XRECORD
  5
2312
102
{ACAD_REACTORS
330
2311
102
}
330
2311
100
AcDbXrecord
280
     1
290
     1
  0
XRECORD
  5
2314
102
{ACAD_REACTORS
330
2313
102
}
330
2313
100
AcDbXrecord
280
     1
290
     1
  0
XRECORD
  5
2316
102
{ACAD_REACTORS
330
2315
102
}
330
2315
100
AcDbXrecord
280
     1
290
     1
  0
XRECORD
  5
2318
102
{ACAD_REACTORS
330
2317
102
}
330
2317
100
AcDbXrecord
280
     1
290
     1
  0
XRECORD
  5
17A3
102
{ACAD_REACTORS
330
1561
102
}
330
1561
100
AcDbXrecord
280
     1
340
1101
  0
SORTENTSTABLE
  5
22B9
102
{ACAD_REACTORS
330
1561
102
}
330
1561
100
AcDbSortentsTable
330
1101
331
223C
  5
223C
331
2238
  5
2238
331
227F
  5
227F
331
227B
  5
227B
331
19FD
  5
19FD
331
2277
  5
2277
331
19F9
  5
19F9
331
2273
  5
2273
331
2D4
  5
2D4
331
19F5
  5
19F5
331
2D0
  5
2D0
331
19F1
  5
19F1
331
1E9B
  5
1E9B
331
2CC
  5
2CC
331
2C8
  5
2C8
331
20B4
  5
20B4
331
20B0
  5
20B0
331
2234
  5
2234
331
2230
  5
2230
331
222C
  5
222C
331
2228
  5
2228
331
226F
  5
226F
331
226B
  5
226B
331
1AD4
  5
1AD4
331
2267
  5
2267
331
2263
  5
2263
331
22A2
  5
22B8
331
2C4
  5
2C4
331
1AC8
  5
1AC8
331
2FF
  5
2FF
331
1E8F
  5
1E8F
331
2C0
  5
2C0
331
19E1
  5
19E1
331
1E8B
  5
1E8B
331
20AC
  5
20AC
331
2BC
  5
2BC
331
2FB
  5
2FB
331
1E87
  5
1E87
331
20A8
  5
20A8
331
20A4
  5
20A4
331
20D3
  5
20D3
331
20CF
  5
20CF
331
20CB
  5
20CB
331
225F
  5
225F
331
229E
  5
229F
331
229A
  5
229B
331
225B
  5
225B
331
2296
  5
2297
331
2257
  5
2257
331
2F7
  5
2F7
331
2253
  5
2253
331
2292
  5
2293
331
2F3
  5
2F3
331
19D5
  5
19D5
331
2EF
  5
2EF
331
19D1
  5
19D1
331
2EB
  5
2EB
331
1B37
  5
1B37
331
1B33
  5
1B33
331
20C7
  5
20C7
331
20C3
  5
20C3
331
20BF
  5
20BF
331
20BB
  5
20BB
331
224F
  5
224F
331
228E
  5
228E
331
228A
  5
228A
331
224B
  5
224B
331
19CD
  5
19CD
331
2286
  5
2286
331
2247
  5
2247
331
2E7
  5
2E7
331
2243
  5
2243
331
2282
  5
2282
331
2E3
  5
2E3
331
1B2F
  5
1B2F
331
2DF
  5
2DF
331
1A08
  5
1A08
331
1B2B
  5
1B2B
331
2DB
  5
2DB
331
223F
  5
223F
331
223B
  5
223B
331
227E
  5
227E
331
19FC
  5
19FC
331
227A
  5
227A
331
2D7
  5
2D7
331
19F8
  5
19F8
331
1ADF
  5
1ADF
331
2276
  5
2276
331
2D3
  5
2D3
331
19F4
  5
19F4
331
2272
  5
2272
331
2CF
  5
2CF
331
19F0
  5
19F0
331
2CB
  5
2CB
331
1E9A
  5
1E9A
331
20B7
  5
20B7
331
20B3
  5
20B3
331
1E92
  5
1E92
331
2237
  5
2237
331
2233
  5
2233
331
222F
  5
222F
331
222B
  5
222B
331
1895
  5
1895
331
226E
  5
226E
331
1AD3
  5
1AD3
331
226A
  5
226A
331
2C7
  5
2C7
331
2266
  5
2266
331
2C3
  5
2C3
331
1ACB
  5
1ACB
331
2262
  5
2262
331
22A1
  5
22A2
331
2FE
  5
2FE
331
2BF
  5
2BF
331
19E0
  5
19E0
331
20AF
  5
20AF
331
1E8E
  5
1E8E
331
2BB
  5
2BB
331
2FA
  5
2FA
331
20AB
  5
20AB
331
20A7
  5
20A7
331
1E86
  5
1E86
331
2227
  5
2227
331
20D2
  5
20D2
331
20CE
  5
20CE
331
20CA
  5
20CA
331
1AC7
  5
1AC7
331
225E
  5
225E
331
229D
  5
229E
331
2299
  5
229A
331
225A
  5
225A
331
2295
  5
2296
331
2F6
  5
2F6
331
19D8
  5
19D8
331
2256
  5
2256
331
2F2
  5
2F2
331
19D4
  5
19D4
331
2252
  5
2252
331
2291
  5
2291
331
2EE
  5
2EE
331
19D0
  5
19D0
331
2EA
  5
2EA
331
1B3A
  5
1B3A
331
1B36
  5
1B36
331
1B32
  5
1B32
331
20C6
  5
20C6
331
20C2
  5
20C2
331
20BE
  5
20BE
331
20BA
  5
20BA
331
224E
  5
224E
331
228D
  5
228D
331
2289
  5
2289
331
19CC
  5
19CC
331
224A
  5
224A
331
2285
  5
2285
331
2E6
  5
2E6
331
2246
  5
2246
331
2E2
  5
2E2
331
2242
  5
2242
331
2281
  5
2281
331
2DE
  5
2DE
331
1B2E
  5
1B2E
331
2DA
  5
2DA
331
1B2A
  5
1B2A
331
1AFE
  5
1AFE
331
223E
  5
223E
331
223A
  5
223A
331
227D
  5
227D
331
19FB
  5
19FB
331
2279
  5
2279
331
2D6
  5
2D6
331
19F7
  5
19F7
331
2275
  5
2275
331
2D2
  5
2D2
331
2271
  5
2271
331
2CE
  5
2CE
331
1E9D
  5
1E9D
331
2CA
  5
2CA
331
20B6
  5
20B6
331
20B2
  5
20B2
331
2236
  5
2236
331
2232
  5
2232
331
222E
  5
222E
331
222A
  5
222A
331
19EF
  5
19EF
331
226D
  5
226D
331
1AD2
  5
1AD2
331
2269
  5
2269
331
2C6
  5
2C6
331
2265
  5
2265
331
1ACA
  5
1ACA
331
301
  5
301
331
2C2
  5
2C2
331
19E3
  5
19E3
331
2261
  5
2261
331
22A0
  5
22A1
331
2BE
  5
2BE
331
2FD
  5
2FD
331
20AE
  5
20AE
331
1E8D
  5
1E8D
331
2BA
  5
2BA
331
2F9
  5
2F9
331
1E89
  5
1E89
331
20AA
  5
20AA
331
20A6
  5
20A6
331
20D5
  5
20D5
331
2226
  5
2226
331
20D1
  5
20D1
331
20CD
  5
20CD
331
20C9
  5
20C9
331
229C
  5
229D
331
1AC6
  5
1AC6
331
19DF
  5
19DF
331
225D
  5
225D
331
2298
  5
2299
331
19DB
  5
19DB
331
2259
  5
2259
331
2F5
  5
2F5
331
19D7
  5
19D7
331
1A1E
  5
1A1E
331
2255
  5
2255
331
2294
  5
2295
331
17F8
  5
17F8
331
2F1
  5
2F1
331
19D3
  5
19D3
331
2251
  5
2251
331
2290
  5
2290
331
2ED
  5
2ED
331
2E9
  5
2E9
331
1B39
  5
1B39
331
1B35
  5
1B35
331
1B31
  5
1B31
331
20C5
  5
20C5
331
20C1
  5
20C1
331
20BD
  5
20BD
331
20B9
  5
20B9
331
19CF
  5
19CF
331
224D
  5
224D
331
228C
  5
228C
331
2288
  5
2288
331
19CB
  5
19CB
331
1A12
  5
1A12
331
2249
  5
2249
331
2284
  5
2284
331
2E5
  5
2E5
331
19BF
  5
19BF
331
2245
  5
2245
331
2E1
  5
2E1
331
2241
  5
2241
331
2280
  5
2280
331
2DD
  5
2DD
331
1B2D
  5
1B2D
331
2D9
  5
2D9
331
1B29
  5
1B29
331
223D
  5
223D
331
2239
  5
2239
331
227C
  5
227C
331
19FA
  5
19FA
331
2278
  5
2278
331
2D5
  5
2D5
331
2274
  5
2274
331
2D1
  5
2D1
331
19F2
  5
19F2
331
2270
  5
2270
331
2CD
  5
2CD
331
1E9C
  5
1E9C
331
2C9
  5
2C9
331
20B5
  5
20B5
331
20B1
  5
20B1
331
1E90
  5
1E90
331
2235
  5
2235
331
2231
  5
2231
331
222D
  5
222D
331
213B
  5
213B
331
2229
  5
2229
331
19EE
  5
19EE
331
226C
  5
226C
331
1AD1
  5
1AD1
331
2268
  5
2268
331
2C5
  5
2C5
331
2264
  5
2264
331
300
  5
300
331
2C1
  5
2C1
331
1AC9
  5
1AC9
331
2260
  5
2260
331
2BD
  5
2BD
331
2FC
  5
2FC
331
1E8C
  5
1E8C
331
20AD
  5
20AD
331
2F8
  5
2F8
331
2B9
  5
2B9
331
1E88
  5
1E88
331
20A9
  5
20A9
331
20A5
  5
20A5
331
20D4
  5
20D4
331
2225
  5
2225
331
20D0
  5
20D0
331
20CC
  5
20CC
331
20C8
  5
20C8
331
229F
  5
22A0
331
229B
  5
229C
331
1AC5
  5
1AC5
331
19DE
  5
19DE
331
225C
  5
225C
331
2297
  5
2298
331
2258
  5
2258
331
2F4
  5
2F4
331
19D6
  5
19D6
331
1A1D
  5
1A1D
331
2254
  5
2254
331
2293
  5
2294
331
2F0
  5
2F0
331
19D2
  5
19D2
331
2250
  5
2250
331
2EC
  5
2EC
331
2E8
  5
2E8
331
1B38
  5
1B38
331
1B34
  5
1B34
331
1B30
  5
1B30
331
20C4
  5
20C4
331
20C0
  5
20C0
331
20BC
  5
20BC
331
20B8
  5
20B8
331
228F
  5
228F
331
228B
  5
228B
331
19CE
  5
19CE
331
224C
  5
224C
331
2287
  5
2287
331
19CA
  5
19CA
331
2248
  5
2248
331
2E4
  5
2E4
331
2244
  5
2244
331
2283
  5
2283
331
2E0
  5
2E0
331
2240
  5
2240
331
2DC
  5
2DC
331
1B2C
  5
1B2C
331
2D8
  5
2D8
331
1B28
  5
1B28
  0
XRECORD
  5
17A2
102
{ACAD_REACTORS
330
1563
102
}
330
1563
100
AcDbXrecord
280
     1
340
10FD
  0
ACDBDETAILVIEWSTYLE
  5
218D
102
{ACAD_REACTORS
330
218C
102
}
330
218C
100
AcDbModelDocViewStyle
 70
     0
  3
Imperial24
290
     0
100
AcDbDetailViewStyle
 70
     0
 71
     0
 90
        3
 71
     1
340
10F4
 62
   256
 40
0.24
340
0
 62
   256
 40
0.24
300

 40
0.36
280
     3
 71
     2
340
10F8
 90
       25
 62
   256
 71
     3
340
10F4
 62
   256
 40
0.24
 90
        1
 40
0.75
 90
        1
300
%<\AcVar ViewType \f "%tc1">% %<\AcVar ViewDetailId>%\PVARIA %<\AcVar ViewScale \f "%sn">%
 71
     4
340
10F8
 90
       25
 62
   256
340
10F8
 90
       25
 62
   256
280
     0
  0
LAYOUT
  5
1100
102
{ACAD_REACTORS
330
10FC
102
}
330
10FC
100
AcDbPlotSettings
  1

  2
\\NT_WORK01\HP LaserJet 5000 PCL 6
  4

  6

 40
0.0
 41
0.0
 42
0.0
 43
0.0
 44
0.0
 45
0.0
 46
0.0
 47
0.0
 48
0.0
 49
0.0
140
0.0
141
0.0
142
1.0
143
1.0
 70
   688
 72
     0
 73
     0
 74
     5
  7
monochrome.ctb
 75
    16
147
1.0
 76
     0
 77
     2
 78
   300
148
0.0
149
0.0
100
AcDbLayout
  1
Layout1
 70
     0
 71
     1
 10
0.0
 20
0.0
 11
12.0
 21
9.0
 12
0.0
 22
0.0
 32
0.0
 14
1.000000000000000E+20
 24
1.000000000000000E+20
 34
1.000000000000000E+20
 15
-1.000000000000000E+20
 25
-1.000000000000000E+20
 35
-1.000000000000000E+20
146
0.0
 13
0.0
 23
0.0
 33
0.0
 16
1.0
 26
0.0
 36
0.0
 17
0.0
 27
1.0
 37
0.0
 76
     0
330
10FD
  0
LAYOUT
  5
1104
102
{ACAD_XDICTIONARY
360
23B2
102
}
102
{ACAD_REACTORS
330
10FC
102
}
330
10FC
100
AcDbPlotSettings
  1

  2
none_device
  4
Letter_(8.50_x_11.00_Inches)
  6

 40
6.349999904632568
 41
6.349999904632568
 42
6.350006103515625
 43
6.350006103515625
 44
215.8999938964844
 45
279.3999938964844
 46
0.0
 47
0.0
 48
0.0
 49
0.0
140
0.0
141
0.0
142
1.0
143
1.0
 70
 11952
 72
     0
 73
     1
 74
     0
  7

 75
     0
147
1.0
 76
     0
 77
     2
 78
   300
148
-3439.080930369972
149
89.86823476943103
100
AcDbLayout
  1
Model
 70
     1
 71
     0
 10
0.0
 20
0.0
 11
12.0
 21
9.0
 12
0.0
 22
0.0
 32
0.0
 14
0.0
 24
0.0
 34
0.0
 15
0.0
 25
0.0
 35
0.0
146
0.0
 13
0.0
 23
0.0
 33
0.0
 16
1.0
 26
0.0
 36
0.0
 17
0.0
 27
1.0
 37
0.0
 76
     0
330
1101
331
2140
  0
MATERIAL
  5
214A
102
{ACAD_XDICTIONARY
360
214B
102
}
102
{ACAD_REACTORS
330
1801
102
}
330
1801
100
AcDbMaterial
  1
ByBlock
 72
     0
 43
0.0208333333333333
 43
0.0
 43
0.0
 43
0.0
 43
0.0
 43
0.0208333333333333
 43
0.0
 43
0.0
 43
0.0
 43
0.0
 43
1.0
 43
0.0
 43
0.0
 43
0.0
 43
0.0
 43
1.0
 77
     0
 47
0.0208333333333333
 47
0.0
 47
0.0
 47
0.0
 47
0.0
 47
0.0208333333333333
 47
0.0
 47
0.0
 47
0.0
 47
0.0
 47
1.0
 47
0.0
 47
0.0
 47
0.0
 47
0.0
 47
1.0
171
     0
 49
0.0208333333333333
 49
0.0
 49
0.0
 49
0.0
 49
0.0
 49
0.0208333333333333
 49
0.0
 49
0.0
 49
0.0
 49
0.0
 49
1.0
 49
0.0
 49
0.0
 49
0.0
 49
0.0
 49
1.0
175
     0
142
0.0208333333333333
142
0.0
142
0.0
142
0.0
142
0.0
142
0.0208333333333333
142
0.0
142
0.0
142
0.0
142
0.0
142
1.0
142
0.0
142
0.0
142
0.0
142
0.0
142
1.0
179
     0
144
0.0208333333333333
144
0.0
144
0.0
144
0.0
144
0.0
144
0.0208333333333333
144
0.0
144
0.0
144
0.0
144
0.0
144
1.0
144
0.0
144
0.0
144
0.0
144
0.0
144
1.0
147
0.0208333333333333
147
0.0
147
0.0
147
0.0
147
0.0
147
0.0208333333333333
147
0.0
147
0.0
147
0.0
147
0.0
147
1.0
147
0.0
147
0.0
147
0.0
147
0.0
147
1.0
  0
MATERIAL
  5
2142
102
{ACAD_XDICTIONARY
360
2143
102
}
102
{ACAD_REACTORS
330
1801
102
}
330
1801
100
AcDbMaterial
  1
ByLayer
 72
     0
 43
0.0208333333333333
 43
0.0
 43
0.0
 43
0.0
 43
0.0
 43
0.0208333333333333
 43
0.0
 43
0.0
 43
0.0
 43
0.0
 43
1.0
 43
0.0
 43
0.0
 43
0.0
 43
0.0
 43
1.0
 77
     0
 47
0.0208333333333333
 47
0.0
 47
0.0
 47
0.0
 47
0.0
 47
0.0208333333333333
 47
0.0
 47
0.0
 47
0.0
 47
0.0
 47
1.0
 47
0.0
 47
0.0
 47
0.0
 47
0.0
 47
1.0
171
     0
 49
0.0208333333333333
 49
0.0
 49
0.0
 49
0.0
 49
0.0
 49
0.0208333333333333
 49
0.0
 49
0.0
 49
0.0
 49
0.0
 49
1.0
 49
0.0
 49
0.0
 49
0.0
 49
0.0
 49
1.0
175
     0
142
0.0208333333333333
142
0.0
142
0.0
142
0.0
142
0.0
142
0.0208333333333333
142
0.0
142
0.0
142
0.0
142
0.0
142
1.0
142
0.0
142
0.0
142
0.0
142
0.0
142
1.0
179
     0
144
0.0208333333333333
144
0.0
144
0.0
144
0.0
144
0.0
144
0.0208333333333333
144
0.0
144
0.0
144
0.0
144
0.0
144
1.0
144
0.0
144
0.0
144
0.0
144
0.0
144
1.0
147
0.0208333333333333
147
0.0
147
0.0
147
0.0
147
0.0
147
0.0208333333333333
147
0.0
147
0.0
147
0.0
147
0.0
147
1.0
147
0.0
147
0.0
147
0.0
147
0.0
147
1.0
  0
MATERIAL
  5
2152
102
{ACAD_XDICTIONARY
360
2153
102
}
102
{ACAD_REACTORS
330
1801
102
}
330
1801
100
AcDbMaterial
  1
Global
 72
     0
 43
0.0208333333333333
 43
0.0
 43
0.0
 43
0.0
 43
0.0
 43
0.0208333333333333
 43
0.0
 43
0.0
 43
0.0
 43
0.0
 43
1.0
 43
0.0
 43
0.0
 43
0.0
 43
0.0
 43
1.0
 77
     0
 47
0.0208333333333333
 47
0.0
 47
0.0
 47
0.0
 47
0.0
 47
0.0208333333333333
 47
0.0
 47
0.0
 47
0.0
 47
0.0
 47
1.0
 47
0.0
 47
0.0
 47
0.0
 47
0.0
 47
1.0
171
     0
 49
0.0208333333333333
 49
0.0
 49
0.0
 49
0.0
 49
0.0
 49
0.0208333333333333
 49
0.0
 49
0.0
 49
0.0
 49
0.0
 49
1.0
 49
0.0
 49
0.0
 49
0.0
 49
0.0
 49
1.0
175
     0
142
0.0208333333333333
142
0.0
142
0.0
142
0.0
142
0.0
142
0.0208333333333333
142
0.0
142
0.0
142
0.0
142
0.0
142
1.0
142
0.0
142
0.0
142
0.0
142
0.0
142
1.0
179
     0
144
0.0208333333333333
144
0.0
144
0.0
144
0.0
144
0.0
144
0.0208333333333333
144
0.0
144
0.0
144
0.0
144
0.0
144
1.0
144
0.0
144
0.0
144
0.0
144
0.0
144
1.0
147
0.0208333333333333
147
0.0
147
0.0
147
0.0
147
0.0
147
0.0208333333333333
147
0.0
147
0.0
147
0.0
147
0.0
147
1.0
147
0.0
147
0.0
147
0.0
147
0.0
147
1.0
  0
MLEADERSTYLE
  5
2188
102
{ACAD_XDICTIONARY
360
2669
102
}
102
{ACAD_REACTORS
330
2187
102
}
330
2187
100
AcDbMLeaderStyle
170
     2
171
     1
172
     0
 90
        2
 40
0.0
 41
0.0
173
     1
 91
-1056964608
340
10F6
 92
       -2
290
     1
 42
0.09
291
     1
 43
0.36
  3
Standard
 44
0.18
300

342
10F4
174
     1
178
     6
175
     1
176
     0
 93
-1056964608
 45
0.18
292
     0
297
     0
 46
0.18
 94
-1056964608
 47
1.0
 49
1.0
140
1.0
293
     1
141
0.0
294
     1
177
     0
142
1.0
295
     0
296
     0
143
0.125
1001
ACAD_MLEADERVER
1070
     2
  0
MLINESTYLE
  5
10FA
102
{ACAD_REACTORS
330
10F9
102
}
330
10F9
100
AcDbMlineStyle
  2
STANDARD
 70
     0
  3

 62
   256
 51
90.0
 52
90.0
 71
     2
 49
0.5
 62
   256
  6
BYLAYER
 49
-0.5
 62
   256
  6
BYLAYER
  0
ACDBPLACEHOLDER
  5
10F2
102
{ACAD_REACTORS
330
10F1
102
}
330
10F1
  0
SCALE
  5
2176
102
{ACAD_REACTORS
330
2175
102
}
330
2175
100
AcDbScale
 70
     0
300
1:1
140
1.0
141
1.0
290
     1
  0
SCALE
  5
2177
102
{ACAD_REACTORS
330
2175
102
}
330
2175
100
AcDbScale
 70
     0
300
1/128" = 1'-0"
140
0.0078125
141
12.0
290
     0
  0
SCALE
  5
2178
102
{ACAD_REACTORS
330
2175
102
}
330
2175
100
AcDbScale
 70
     0
300
1/64" = 1'-0"
140
0.015625
141
12.0
290
     0
  0
SCALE
  5
2179
102
{ACAD_REACTORS
330
2175
102
}
330
2175
100
AcDbScale
 70
     0
300
1/32" = 1'-0"
140
0.03125
141
12.0
290
     0
  0
SCALE
  5
217A
102
{ACAD_REACTORS
330
2175
102
}
330
2175
100
AcDbScale
 70
     0
300
1/16" = 1'-0"
140
0.0625
141
12.0
290
     0
  0
SCALE
  5
217B
102
{ACAD_REACTORS
330
2175
102
}
330
2175
100
AcDbScale
 70
     0
300
3/32" = 1'-0"
140
0.09375
141
12.0
290
     0
  0
SCALE
  5
217C
102
{ACAD_REACTORS
330
2175
102
}
330
2175
100
AcDbScale
 70
     0
300
1/8" = 1'-0"
140
0.125
141
12.0
290
     0
  0
SCALE
  5
217D
102
{ACAD_REACTORS
330
2175
102
}
330
2175
100
AcDbScale
 70
     0
300
3/16" = 1'-0"
140
0.1875
141
12.0
290
     0
  0
SCALE
  5
217E
102
{ACAD_REACTORS
330
2175
102
}
330
2175
100
AcDbScale
 70
     0
300
1/4" = 1'-0"
140
0.25
141
12.0
290
     0
  0
SCALE
  5
217F
102
{ACAD_REACTORS
330
2175
102
}
330
2175
100
AcDbScale
 70
     0
300
3/8" = 1'-0"
140
0.375
141
12.0
290
     0
  0
SCALE
  5
2180
102
{ACAD_REACTORS
330
2175
102
}
330
2175
100
AcDbScale
 70
     0
300
1/2" = 1'-0"
140
0.5
141
12.0
290
     0
  0
SCALE
  5
2181
102
{ACAD_REACTORS
330
2175
102
}
330
2175
100
AcDbScale
 70
     0
300
3/4" = 1'-0"
140
0.75
141
12.0
290
     0
  0
SCALE
  5
2182
102
{ACAD_REACTORS
330
2175
102
}
330
2175
100
AcDbScale
 70
     0
300
1" = 1'-0"
140
1.0
141
12.0
290
     0
  0
SCALE
  5
2183
102
{ACAD_REACTORS
330
2175
102
}
330
2175
100
AcDbScale
 70
     0
300
1-1/2" = 1'-0"
140
1.5
141
12.0
290
     0
  0
SCALE
  5
2184
102
{ACAD_REACTORS
330
2175
102
}
330
2175
100
AcDbScale
 70
     0
300
3" = 1'-0"
140
3.0
141
12.0
290
     0
  0
SCALE
  5
2185
102
{ACAD_REACTORS
330
2175
102
}
330
2175
100
AcDbScale
 70
     0
300
6" = 1'-0"
140
6.0
141
12.0
290
     0
  0
SCALE
  5
2186
102
{ACAD_REACTORS
330
2175
102
}
330
2175
100
AcDbScale
 70
     0
300
1'-0" = 1'-0"
140
12.0
141
12.0
290
     0
  0
ACDBSECTIONVIEWSTYLE
  5
218B
102
{ACAD_REACTORS
330
2189
102
}
330
2189
100
AcDbModelDocViewStyle
 70
     0
  3
Imperial24
290
     0
100
AcDbSectionViewStyle
 70
     0
 71
     0
 90
       78
 71
     1
340
10F4
 62
   256
 40
0.24
340
0
340
0
 62
   256
 40
0.24
300
I, O, Q, S, X, Z
 40
0.48
 90
        3
 40
0.18
 90
        1
 71
     2
340
218A
 90
       25
 62
   256
340
10F8
 90
       50
 62
   256
 40
0.24
 40
0.0
 40
0.24
 71
     3
340
10F4
 62
   256
 40
0.24
 90
        1
 40
0.75
 90
        1
300
%<\AcVar ViewType \f "%tc1">% %<\AcVar ViewSectionStartId>%-%<\AcVar ViewSectionEndId>%\PVARIA %<\AcVar ViewScale \f "%sn">%
 71
     4
 62
   256
 62
   257
300
ANSI31
 40
1.0
 90
        0
290
     0
290
     0
 90
        6
 40
0.0
 40
1.570796326794896
 40
0.2617993877991494
 40
1.308996938995747
 40
-0.2617993877991494
 40
1.832595714594046
  0
TABLESTYLE
  5
2174
102
{ACAD_XDICTIONARY
360
2319
102
}
102
{ACAD_REACTORS
330
2173
102
}
330
2173
100
AcDbTableStyle
  3
Standard
 70
     0
 71
     0
 40
0.06
 41
0.06
280
     0
281
     0
  7
STANDARD
140
0.18
170
     2
 62
     0
 63
     7
283
     0
274
    -2
284
     1
 64
     0
275
    -2
285
     1
 65
     0
276
    -2
286
     1
 66
     0
277
    -2
287
     1
 67
     0
278
    -2
288
     1
 68
     0
279
    -2
289
     1
 69
     0
  7
STANDARD
140
0.25
170
     5
 62
     0
 63
     7
283
     0
274
    -2
284
     1
 64
     0
275
    -2
285
     1
 65
     0
276
    -2
286
     1
 66
     0
277
    -2
287
     1
 67
     0
278
    -2
288
     1
 68
     0
279
    -2
289
     1
 69
     0
  7
STANDARD
140
0.18
170
     5
 62
     0
 63
     7
283
     0
274
    -2
284
     1
 64
     0
275
    -2
285
     1
 65
     0
276
    -2
286
     1
 66
     0
277
    -2
287
     1
 67
     0
278
    -2
288
     1
 68
     0
279
    -2
289
     1
 69
     0
  0
VISUALSTYLE
  5
2160
102
{ACAD_XDICTIONARY
360
2642
102
}
102
{ACAD_REACTORS
330
215A
102
}
330
215A
100
AcDbVisualStyle
  2
2dWireframe
 70
     4
 71
     0
 72
     2
 73
     0
 90
        0
 40
-0.6
 41
-30.0
 62
     5
 63
     7
421
 16777215
 74
     1
 91
        4
 64
     7
 65
   257
 75
     1
175
     1
 42
1.0
 92
        0
 66
   257
 43
1.0
 76
     1
 77
     6
 78
     2
 67
     7
 79
     5
170
     0
171
     0
290
     0
174
     0
 93
        1
 44
0.0
173
     0
291
     0
 45
0.0
1001
ACAD
1000
AcDbSavedByObjectVersion
1070
     0
  0
VISUALSTYLE
  5
215F
102
{ACAD_XDICTIONARY
360
2640
102
}
102
{ACAD_REACTORS
330
215A
102
}
330
215A
100
AcDbVisualStyle
  2
Basic
 70
     7
 71
     1
 72
     0
 73
     1
 90
        0
 40
-0.6
 41
-30.0
 62
     5
 63
     7
421
 16777215
 74
     0
 91
        4
 64
     7
 65
   257
 75
     1
175
     1
 42
1.0
 92
        8
 66
     7
 43
1.0
 76
     1
 77
     6
 78
     2
 67
     7
 79
     5
170
     0
171
     0
290
     0
174
     0
 93
        1
 44
0.0
173
     0
291
     1
 45
0.0
1001
ACAD
1000
AcDbSavedByObjectVersion
1070
     0
  0
VISUALSTYLE
  5
2166
102
{ACAD_XDICTIONARY
360
264E
102
}
102
{ACAD_REACTORS
330
215A
102
}
330
215A
100
AcDbVisualStyle
  2
Brighten
 70
    12
 71
     2
 72
     2
 73
     0
 90
        0
 40
-0.6
 41
-30.0
 62
     5
 63
     7
421
 16777215
 74
     1
 91
        4
 64
     7
 65
   257
 75
     1
175
     1
 42
1.0
 92
        8
 66
     7
 43
1.0
 76
     1
 77
     6
 78
     2
 67
     7
 79
     5
170
     0
171
     0
290
     0
174
     0
 93
        1
 44
50.0
173
     0
291
     1
 45
0.0
1001
ACAD
1000
AcDbSavedByObjectVersion
1070
     0
  0
VISUALSTYLE
  5
216A
102
{ACAD_XDICTIONARY
360
2656
102
}
102
{ACAD_REACTORS
330
215A
102
}
330
215A
100
AcDbVisualStyle
  2
ColorChange
 70
    16
 71
     2
 72
     2
 73
     3
 90
        0
 40
-0.6
 41
-30.0
 62
     5
 63
     8
421
  8421504
 74
     1
 91
        4
 64
     7
 65
   257
 75
     1
175
     1
 42
1.0
 92
        8
 66
     8
424
  8421504
 43
1.0
 76
     1
 77
     6
 78
     2
 67
     7
 79
     5
170
     0
171
     0
290
     0
174
     0
 93
        1
 44
0.0
173
     0
291
     1
 45
0.0
1001
ACAD
1000
AcDbSavedByObjectVersion
1070
     0
  0
VISUALSTYLE
  5
2163
102
{ACAD_XDICTIONARY
360
2648
102
}
102
{ACAD_REACTORS
330
215A
102
}
330
215A
100
AcDbVisualStyle
  2
Conceptual
 70
     9
 71
     3
 72
     2
 73
     0
 90
        0
 40
-0.6
 41
-30.0
 62
     5
 63
     7
421
 16777215
 74
     2
 91
        2
 64
     7
 65
   257
 75
     1
175
     1
 42
179.0
 92
        8
 66
     7
 43
1.0
 76
     1
 77
     6
 78
     2
 67
     7
 79
     3
170
     0
171
     0
290
     0
174
     0
 93
        1
 44
0.0
173
     0
291
     0
 45
0.0
1001
ACAD
1000
AcDbSavedByObjectVersion
1070
     0
  0
VISUALSTYLE
  5
2165
102
{ACAD_XDICTIONARY
360
264C
102
}
102
{ACAD_REACTORS
330
215A
102
}
330
215A
100
AcDbVisualStyle
  2
Dim
 70
    11
 71
     2
 72
     2
 73
     0
 90
        0
 40
-0.6
 41
-30.0
 62
     5
 63
     7
421
 16777215
 74
     1
 91
        4
 64
     7
 65
   257
 75
     1
175
     1
 42
1.0
 92
        8
 66
     7
 43
1.0
 76
     1
 77
     6
 78
     2
 67
     7
 79
     5
170
     0
171
     0
290
     0
174
     0
 93
        1
 44
-50.0
173
     0
291
     1
 45
0.0
1001
ACAD
1000
AcDbSavedByObjectVersion
1070
     0
  0
VISUALSTYLE
  5
2172
102
{ACAD_XDICTIONARY
360
2666
102
}
102
{ACAD_REACTORS
330
215A
102
}
330
215A
100
AcDbVisualStyle
  2
EdgeColorOff
 70
    22
 71
     2
 72
     2
 73
     0
 90
        0
 40
-0.6
 41
-30.0
 62
     5
 63
     7
421
 16777215
 74
     1
 91
        4
 64
     7
 65
   257
 75
     1
175
     1
 42
1.0
 92
        8
 66
     7
 43
1.0
 76
     1
 77
     6
 78
     2
 67
     7
 79
     5
170
     0
171
     0
290
     0
174
     0
 93
        1
 44
0.0
173
     0
291
     1
 45
0.0
1001
ACAD
1000
AcDbSavedByObjectVersion
1070
     0
  0
VISUALSTYLE
  5
2169
102
{ACAD_XDICTIONARY
360
2654
102
}
102
{ACAD_REACTORS
330
215A
102
}
330
215A
100
AcDbVisualStyle
  2
Facepattern
 70
    15
 71
     2
 72
     2
 73
     0
 90
        0
 40
-0.6
 41
-30.0
 62
     5
 63
     7
421
 16777215
 74
     1
 91
        4
 64
     7
 65
   257
 75
     1
175
     1
 42
1.0
 92
        8
 66
     7
 43
1.0
 76
     1
 77
     6
 78
     2
 67
     7
 79
     5
170
     0
171
     0
290
     0
174
     0
 93
        1
 44
0.0
173
     0
291
     1
 45
0.0
1001
ACAD
1000
AcDbSavedByObjectVersion
1070
     0
  0
VISUALSTYLE
  5
215B
102
{ACAD_XDICTIONARY
360
2638
102
}
102
{ACAD_REACTORS
330
215A
102
}
330
215A
100
AcDbVisualStyle
  2
Flat
 70
     0
 71
     2
 72
     1
 73
     1
 90
        2
 40
-0.6
 41
30.0
 62
     5
 63
     7
421
 16777215
 74
     0
 91
        0
 64
     7
 65
   257
 75
     1
175
     1
 42
1.0
 92
        8
 66
     7
 43
1.0
 76
     1
 77
     6
 78
     2
 67
     7
 79
     5
170
     0
171
     0
290
     0
174
     0
 93
       13
 44
0.0
173
     0
291
     1
 45
0.0
1001
ACAD
1000
AcDbSavedByObjectVersion
1070
     0
  0
VISUALSTYLE
  5
215C
102
{ACAD_XDICTIONARY
360
263A
102
}
102
{ACAD_REACTORS
330
215A
102
}
330
215A
100
AcDbVisualStyle
  2
FlatWithEdges
 70
     1
 71
     2
 72
     1
 73
     1
 90
        2
 40
-0.6
 41
30.0
 62
     5
 63
     7
421
 16777215
 74
     1
 91
        0
 64
     7
 65
   257
 75
     1
175
     1
 42
1.0
 92
        0
 66
   257
 43
1.0
 76
     1
 77
     6
 78
     2
 67
     7
 79
     5
170
     0
171
     0
290
     0
174
     0
 93
       13
 44
0.0
173
     0
291
     1
 45
0.0
1001
ACAD
1000
AcDbSavedByObjectVersion
1070
     0
  0
VISUALSTYLE
  5
215D
102
{ACAD_XDICTIONARY
360
263C
102
}
102
{ACAD_REACTORS
330
215A
102
}
330
215A
100
AcDbVisualStyle
  2
Gouraud
 70
     2
 71
     2
 72
     2
 73
     1
 90
        2
 40
-0.6
 41
30.0
 62
     5
 63
     7
421
 16777215
 74
     0
 91
        0
 64
     7
 65
   257
 75
     1
175
     1
 42
1.0
 92
        0
 66
     7
 43
1.0
 76
     1
 77
     6
 78
     2
 67
     7
 79
     5
170
     0
171
     0
290
     0
174
     0
 93
       13
 44
0.0
173
     0
291
     1
 45
0.0
1001
ACAD
1000
AcDbSavedByObjectVersion
1070
     0
  0
VISUALSTYLE
  5
215E
102
{ACAD_XDICTIONARY
360
263E
102
}
102
{ACAD_REACTORS
330
215A
102
}
330
215A
100
AcDbVisualStyle
  2
GouraudWithEdges
 70
     3
 71
     2
 72
     2
 73
     1
 90
        2
 40
-0.6
 41
30.0
 62
     5
 63
     7
421
 16777215
 74
     1
 91
        0
 64
     7
 65
   257
 75
     1
175
     1
 42
1.0
 92
        0
 66
   257
 43
1.0
 76
     1
 77
     6
 78
     2
 67
     7
 79
     5
170
     0
171
     0
290
     0
174
     0
 93
       13
 44
0.0
173
     0
291
     1
 45
0.0
1001
ACAD
1000
AcDbSavedByObjectVersion
1070
     0
  0
VISUALSTYLE
  5
2162
102
{ACAD_XDICTIONARY
360
2646
102
}
102
{ACAD_REACTORS
330
215A
102
}
330
215A
100
AcDbVisualStyle
  2
Hidden
 70
     6
 71
     1
 72
     2
 73
     2
 90
        0
 40
-0.6
 41
-30.0
 62
     5
 63
     7
421
 16777215
 74
     2
 91
        2
 64
     7
 65
   257
 75
     2
175
     1
 42
40.0
 92
        0
 66
   257
 43
1.0
 76
     1
 77
     6
 78
     2
 67
     7
 79
     3
170
     0
171
     0
290
     0
174
     0
 93
        1
 44
0.0
173
     0
291
     0
 45
0.0
1001
ACAD
1000
AcDbSavedByObjectVersion
1070
     0
  0
VISUALSTYLE
  5
2170
102
{ACAD_XDICTIONARY
360
2662
102
}
102
{ACAD_REACTORS
330
215A
102
}
330
215A
100
AcDbVisualStyle
  2
JitterOff
 70
    20
 71
     2
 72
     2
 73
     0
 90
        0
 40
-0.6
 41
-30.0
 62
     5
 63
     7
421
 16777215
 74
     1
 91
        4
 64
     7
 65
   257
 75
     1
175
     1
 42
1.0
 92
       10
 66
     7
 43
1.0
 76
     1
 77
     6
 78
     2
 67
     7
 79
     5
170
     0
171
     0
290
     0
174
     0
 93
        1
 44
0.0
173
     0
291
     1
 45
0.0
1001
ACAD
1000
AcDbSavedByObjectVersion
1070
     0
  0
VISUALSTYLE
  5
2168
102
{ACAD_XDICTIONARY
360
2652
102
}
102
{ACAD_REACTORS
330
215A
102
}
330
215A
100
AcDbVisualStyle
  2
Linepattern
 70
    14
 71
     2
 72
     2
 73
     0
 90
        0
 40
-0.6
 41
-30.0
 62
     5
 63
     7
421
 16777215
 74
     1
 91
        4
 64
     7
 65
   257
 75
     7
175
     7
 42
1.0
 92
        8
 66
     7
 43
1.0
 76
     1
 77
     6
 78
     2
 67
     7
 79
     5
170
     0
171
     0
290
     0
174
     0
 93
        1
 44
0.0
173
     0
291
     1
 45
0.0
1001
ACAD
1000
AcDbSavedByObjectVersion
1070
     0
  0
VISUALSTYLE
  5
2171
102
{ACAD_XDICTIONARY
360
2664
102
}
102
{ACAD_REACTORS
330
215A
102
}
330
215A
100
AcDbVisualStyle
  2
OverhangOff
 70
    21
 71
     2
 72
     2
 73
     0
 90
        0
 40
-0.6
 41
-30.0
 62
     5
 63
     7
421
 16777215
 74
     1
 91
        4
 64
     7
 65
   257
 75
     1
175
     1
 42
1.0
 92
        9
 66
     7
 43
1.0
 76
     1
 77
     6
 78
     2
 67
     7
 79
     5
170
     0
171
     0
290
     0
174
     0
 93
        1
 44
0.0
173
     0
291
     1
 45
0.0
1001
ACAD
1000
AcDbSavedByObjectVersion
1070
     0
  0
VISUALSTYLE
  5
2164
102
{ACAD_XDICTIONARY
360
264A
102
}
102
{ACAD_REACTORS
330
215A
102
}
330
215A
100
AcDbVisualStyle
  2
Realistic
 70
     8
 71
     2
 72
     2
 73
     0
 90
        2
 40
-0.6
 41
30.0
 62
     5
 63
     7
421
 16777215
 74
     0
 91
        0
 64
     7
 65
   257
 75
     1
175
     1
 42
1.0
 92
        8
 66
   257
 43
1.0
 76
     1
 77
     6
 78
     2
 67
     7
 79
     3
170
     0
171
     0
290
     0
174
     0
 93
       13
 44
0.0
173
     0
291
     0
 45
0.0
1001
ACAD
1000
AcDbSavedByObjectVersion
1070
     0
  0
VISUALSTYLE
  5
216F
102
{ACAD_XDICTIONARY
360
2660
102
}
102
{ACAD_REACTORS
330
215A
102
}
330
215A
100
AcDbVisualStyle
  2
Shaded
 70
    27
 71
     2
 72
     2
 73
     1
 90
        2
 40
-0.6
 41
30.0
 62
     5
 63
     7
421
 16777215
 74
     0
 91
        4
 64
     7
 65
   257
 75
     1
175
     1
 42
1.0
 92
        8
 66
   257
 43
1.0
 76
     1
 77
     6
 78
     2
 67
     8
425
  7895160
 79
     3
170
     0
171
     0
290
     0
174
     0
 93
        5
 44
0.0
173
     0
291
     0
 45
0.0
1001
ACAD
1000
AcDbSavedByObjectVersion
1070
     0
  0
VISUALSTYLE
  5
216E
102
{ACAD_XDICTIONARY
360
265E
102
}
102
{ACAD_REACTORS
330
215A
102
}
330
215A
100
AcDbVisualStyle
  2
Shaded with edges
 70
    26
 71
     2
 72
     2
 73
     1
 90
        2
 40
-0.6
 41
30.0
 62
     5
 63
     7
421
 16777215
 74
     1
 91
       10
 64
     7
 65
   257
 75
     2
175
     1
 42
1.0
 92
        8
 66
   257
 43
1.0
 76
     1
 77
     6
 78
     2
 67
     7
 79
     3
170
     0
171
     0
290
     0
174
     0
 93
        5
 44
0.0
173
     0
291
     0
 45
0.0
1001
ACAD
1000
AcDbSavedByObjectVersion
1070
     0
  0
VISUALSTYLE
  5
216B
102
{ACAD_XDICTIONARY
360
2658
102
}
102
{ACAD_REACTORS
330
215A
102
}
330
215A
100
AcDbVisualStyle
  2
Shades of Gray
 70
    23
 71
     2
 72
     2
 73
     3
 90
        0
 40
-0.6
 41
-30.0
 62
     5
 63
     7
421
 16777215
 74
     2
 91
        2
 64
     7
 65
     7
 75
     1
175
     1
 42
40.0
 92
        8
 66
     7
 43
1.0
 76
     1
 77
     6
 78
     2
 67
     7
 79
     3
170
     0
171
     0
290
     0
174
     0
 93
        1
 44
0.0
173
     0
291
     0
 45
0.0
1001
ACAD
1000
AcDbSavedByObjectVersion
1070
     0
  0
VISUALSTYLE
  5
216C
102
{ACAD_XDICTIONARY
360
265A
102
}
102
{ACAD_REACTORS
330
215A
102
}
330
215A
100
AcDbVisualStyle
  2
Sketchy
 70
    24
 71
     1
 72
     2
 73
     2
 90
        0
 40
-0.6
 41
-30.0
 62
     5
 63
     7
421
 16777215
 74
     2
 91
        2
 64
     7
 65
     7
 75
     1
175
     1
 42
40.0
 92
       11
 66
     7
 43
1.0
 76
     1
 77
     6
 78
     2
 67
     7
 79
     6
170
     0
171
     0
290
     0
174
     0
 93
        1
 44
0.0
173
     0
291
     0
 45
0.0
1001
ACAD
1000
AcDbSavedByObjectVersion
1070
     0
  0
VISUALSTYLE
  5
2167
102
{ACAD_XDICTIONARY
360
2650
102
}
102
{ACAD_REACTORS
330
215A
102
}
330
215A
100
AcDbVisualStyle
  2
Thicken
 70
    13
 71
     2
 72
     2
 73
     0
 90
        0
 40
-0.6
 41
-30.0
 62
     5
 63
     7
421
 16777215
 74
     1
 91
        4
 64
     7
 65
   257
 75
     1
175
     1
 42
1.0
 92
       12
 66
     7
 43
1.0
 76
     1
 77
     6
 78
     2
 67
     7
 79
     5
170
     0
171
     0
290
     0
174
     0
 93
        1
 44
0.0
173
     0
291
     1
 45
0.0
1001
ACAD
1000
AcDbSavedByObjectVersion
1070
     0
  0
VISUALSTYLE
  5
2161
102
{ACAD_XDICTIONARY
360
2644
102
}
102
{ACAD_REACTORS
330
215A
102
}
330
215A
100
AcDbVisualStyle
  2
Wireframe
 70
     5
 71
     0
 72
     2
 73
     0
 90
        0
 40
-0.6
 41
-30.0
 62
     5
 63
     7
421
 16777215
 74
     1
 91
        4
 64
     7
 65
   257
 75
     1
175
     1
 42
1.0
 92
        0
 66
   257
 43
1.0
 76
     1
 77
     6
 78
     2
 67
     7
 79
     3
170
     0
171
     0
290
     0
174
     0
 93
        1
 44
0.0
173
     0
291
     0
 45
0.0
1001
ACAD
1000
AcDbSavedByObjectVersion
1070
     0
  0
VISUALSTYLE
  5
216D
102
{ACAD_XDICTIONARY
360
265C
102
}
102
{ACAD_REACTORS
330
215A
102
}
330
215A
100
AcDbVisualStyle
  2
X-Ray
 70
    25
 71
     2
 72
     2
 73
     1
 90
        1
 40
0.5
 41
-30.0
 62
     5
 63
     7
421
 16777215
 74
     1
 91
        0
 64
     7
 65
   257
 75
     1
175
     1
 42
1.0
 92
        8
 66
     7
 43
1.0
 76
     1
 77
     6
 78
     2
 67
     7
 79
     3
170
     0
171
     0
290
     0
174
     0
 93
       13
 44
0.0
173
     0
291
     0
 45
0.0
1001
ACAD
1000
AcDbSavedByObjectVersion
1070
     0
  0
DICTIONARYVAR
  5
2359
102
{ACAD_REACTORS
330
112B
102
}
330
112B
100
DictionaryVariables
280
     0
  1
1:1
  0
DICTIONARYVAR
  5
2356
102
{ACAD_REACTORS
330
112B
102
}
330
112B
100
DictionaryVariables
280
     0
  1
STANDARD
  0
DICTIONARYVAR
  5
2355
102
{ACAD_REACTORS
330
112B
102
}
330
112B
100
DictionaryVariables
280
     0
  1
STANDARD
  0
DICTIONARYVAR
  5
2357
102
{ACAD_REACTORS
330
112B
102
}
330
112B
100
DictionaryVariables
280
     0
  1
Imperial24
  0
DICTIONARYVAR
  5
2358
102
{ACAD_REACTORS
330
112B
102
}
330
112B
100
DictionaryVariables
280
     0
  1
Imperial24
  0
DICTIONARYVAR
  5
180D
102
{ACAD_REACTORS
330
112B
102
}
330
112B
100
DictionaryVariables
280
     0
  1
1
  0
DICTIONARYVAR
  5
180E
102
{ACAD_REACTORS
330
112B
102
}
330
112B
100
DictionaryVariables
280
     0
  1

  0
DICTIONARYVAR
  5
112C
102
{ACAD_REACTORS
330
112B
102
}
330
112B
100
DictionaryVariables
280
     0
  1
96
  0
DICTIONARY
  5
23B2
330
1104
100
AcDbDictionary
280
     1
281
     1
  3
ADSK_XREC_LAYOUTTHUMBNAIL
360
23B3
  0
DICTIONARY
  5
214B
330
214A
100
AcDbDictionary
280
     1
281
     1
  3
ACAD_XREC_ROUNDTRIP
360
2636
  3
BUMPTILE
360
214D
  3
DIFFUSETILE
360
214C
  3
OPACITYTILE
360
2150
  3
REFLECTIONTILE
360
214F
  3
REFRACTIONTILE
360
2151
  3
SPECULARTILE
360
214E
  0
DICTIONARY
  5
2143
330
2142
100
AcDbDictionary
280
     1
281
     1
  3
ACAD_XREC_ROUNDTRIP
360
2635
  3
BUMPTILE
360
2145
  3
DIFFUSETILE
360
2144
  3
OPACITYTILE
360
2148
  3
REFLECTIONTILE
360
2147
  3
REFRACTIONTILE
360
2149
  3
SPECULARTILE
360
2146
  0
DICTIONARY
  5
2153
330
2152
100
AcDbDictionary
280
     1
281
     1
  3
ACAD_XREC_ROUNDTRIP
360
2637
  3
BUMPTILE
360
2155
  3
DIFFUSETILE
360
2154
  3
OPACITYTILE
360
2158
  3
REFLECTIONTILE
360
2157
  3
REFRACTIONTILE
360
2159
  3
SPECULARTILE
360
2156
  0
DICTIONARY
  5
2669
330
2188
100
AcDbDictionary
280
     1
281
     1
  3
ACAD_XREC_ROUNDTRIP
360
266A
  0
DICTIONARY
  5
2319
330
2174
100
AcDbDictionary
280
     1
281
     1
  3
ACAD_ROUNDTRIP_2008_TABLESTYLE_CELLSTYLEMAP
360
2633
  3
ACAD_XREC_ROUNDTRIP
360
2668
  0
DICTIONARY
  5
2642
330
2160
100
AcDbDictionary
280
     1
281
     1
  3
ACAD_XREC_ROUNDTRIP
360
2643
  0
DICTIONARY
  5
2640
330
215F
100
AcDbDictionary
280
     1
281
     1
  3
ACAD_XREC_ROUNDTRIP
360
2641
  0
DICTIONARY
  5
264E
330
2166
100
AcDbDictionary
280
     1
281
     1
  3
ACAD_XREC_ROUNDTRIP
360
264F
  0
DICTIONARY
  5
2656
330
216A
100
AcDbDictionary
280
     1
281
     1
  3
ACAD_XREC_ROUNDTRIP
360
2657
  0
DICTIONARY
  5
2648
330
2163
100
AcDbDictionary
280
     1
281
     1
  3
ACAD_XREC_ROUNDTRIP
360
2649
  0
DICTIONARY
  5
264C
330
2165
100
AcDbDictionary
280
     1
281
     1
  3
ACAD_XREC_ROUNDTRIP
360
264D
  0
DICTIONARY
  5
2666
330
2172
100
AcDbDictionary
280
     1
281
     1
  3
ACAD_XREC_ROUNDTRIP
360
2667
  0
DICTIONARY
  5
2654
330
2169
100
AcDbDictionary
280
     1
281
     1
  3
ACAD_XREC_ROUNDTRIP
360
2655
  0
DICTIONARY
  5
2638
330
215B
100
AcDbDictionary
280
     1
281
     1
  3
ACAD_XREC_ROUNDTRIP
360
2639
  0
DICTIONARY
  5
263A
330
215C
100
AcDbDictionary
280
     1
281
     1
  3
ACAD_XREC_ROUNDTRIP
360
263B
  0
DICTIONARY
  5
263C
330
215D
100
AcDbDictionary
280
     1
281
     1
  3
ACAD_XREC_ROUNDTRIP
360
263D
  0
DICTIONARY
  5
263E
330
215E
100
AcDbDictionary
280
     1
281
     1
  3
ACAD_XREC_ROUNDTRIP
360
263F
  0
DICTIONARY
  5
2646
330
2162
100
AcDbDictionary
280
     1
281
     1
  3
ACAD_XREC_ROUNDTRIP
360
2647
  0
DICTIONARY
  5
2662
330
2170
100
AcDbDictionary
280
     1
281
     1
  3
ACAD_XREC_ROUNDTRIP
360
2663
  0
DICTIONARY
  5
2652
330
2168
100
AcDbDictionary
280
     1
281
     1
  3
ACAD_XREC_ROUNDTRIP
360
2653
  0
DICTIONARY
  5
2664
330
2171
100
AcDbDictionary
280
     1
281
     1
  3
ACAD_XREC_ROUNDTRIP
360
2665
  0
DICTIONARY
  5
264A
330
2164
100
AcDbDictionary
280
     1
281
     1
  3
ACAD_XREC_ROUNDTRIP
360
264B
  0
DICTIONARY
  5
2660
330
216F
100
AcDbDictionary
280
     1
281
     1
  3
ACAD_XREC_ROUNDTRIP
360
2661
  0
DICTIONARY
  5
265E
330
216E
100
AcDbDictionary
280
     1
281
     1
  3
ACAD_XREC_ROUNDTRIP
360
265F
  0
DICTIONARY
  5
2658
330
216B
100
AcDbDictionary
280
     1
281
     1
  3
ACAD_XREC_ROUNDTRIP
360
2659
  0
DICTIONARY
  5
265A
330
216C
100
AcDbDictionary
280
     1
281
     1
  3
ACAD_XREC_ROUNDTRIP
360
265B
  0
DICTIONARY
  5
2650
330
2167
100
AcDbDictionary
280
     1
281
     1
  3
ACAD_XREC_ROUNDTRIP
360
2651
  0
DICTIONARY
  5
2644
330
2161
100
AcDbDictionary
280
     1
281
     1
  3
ACAD_XREC_ROUNDTRIP
360
2645
  0
DICTIONARY
  5
265C
330
216D
100
AcDbDictionary
280
     1
281
     1
  3
ACAD_XREC_ROUNDTRIP
360
265D
  0
XRECORD
  5
23B3
102
{ACAD_REACTORS
330
23B2
102
}
330
23B2
100
AcDbXrecord
280
     1
310
28000000000100008A0000000100080000000000008A0000010000000100000000010000000000000000006600000052C8C8C85600000050000000730000003200000031000000500000006F0000004F00000032330000466600006699000052CC000056FF00005000330073333300326633003199330050CC33006FFF3300
310
3200660018336600006666000099660000CC660000FF66000000990000339900006699000099990000CC990000FF99000000CC000033CC000066CC000099CC0000CCCC0000FFCC000000FF000033FF000066FF000099FF0000CCFF0000FFFF00010000331433003354660033539900336FCC003374FF003330003333303333
310
33726633337099333370CC333330FF3333010066331233663354666633539966336FCC663374FF66333000993330339933726699337099993331CC993300FF99330000CC330033CC330066CC330099CC3300CCCC3300FFCC330000FF330033FF330066FF330099FF3300CCFF3300FFFF330000006600330066006600660099
310
006600CC006600FF00660000336600333366006633660099336666CC336652FF33665600666650336666736666663299666631CC666650FF66666F0099664F339966336699664699996666CC996652FF99665600CC665033CC667366CC663299CC6631CCCC6650FFCC666F00FF663333FF661866FF660099FF6600CCFF6600
310
FFFF660000009900330099006600990099009900CC009900FF00990000339900333399006633990099339900CC339900FF33990000669900336699006666990099669900CC669900FF66990000999901339999146699995499999953CC99996FFF99997400CC993033CC993066CC997299CC9970CCCC9970FFCC993400FF99
310
0133FF991266FF995499FF9953CCFF996FFFFF99740000CC303300CC306600CC729900CC70CC00CC35FF00CC000033CC003333CC006633CC009933CC00CC33CC00FF33CC000066CC003366CC006666CC009966CC00CC66CC00FF66CC000099CC003399CC006699CC009999CC00CC99CC00FF99CC0000CCCC0033CCCC0066CC
310
CC0099CCCC00CCCCCC66FFCCCC5200FFCC5633FFCC5066FFCC7399FFCC32CCFFCC31FFFFCC500000FF6F3300FF4F6600FF339900FF46CC00FF66FF00FF520033FF563333FF506633FF739933FF32CC33FF31FF33FF500066FF6F3366FF336666FF5A9966FF00CC66FF14FF66FF540099FF533399FF6F6699FF749999FF30CC
310
99FF30FF99FF7200CCFF7033CCFF7066CCFF3799CCFF01CCCCFF12FFCCFF5400FFFF5333FFFF6F66FFFF7499FFFF30CCFFFF30FFFFFF72000000700D0D0D381A1A1A00282828003535356643434352505050565D5D5D506B6B6B73787878328686863193939350A1A1A16FAEAEAE4FBBBBBB33C9C9C946D6D6D666E4E4E452
310
F1F1F156FFFFFF50000000730000003200000031000000500000006F000000330000008C00000000000000F00000000000000000000000000000000000000000000000000000000000000000000000000000000000000000000000000000000000000000000000000000000000000000000000000000000000000000000000
310
00000000000000000000000000000000000000000000000000000000000000000000000000000000000000000000000000000000000000000000000000000000000000000000000000000000000000000000000000000000000000000000000000000000000000000000000000000000000000000000000000000000000000
310
000000000000000000000000000000000000000000000000000000000000000000000000000000000000000000000000000000000000000000000000000000000000000000000000000000000000000000DCDCDCDCDCDCDCDCDCDCDCDCDCDCDCDCDCDCDCDCDCDCDCDCDCDCDCDCDCDCDCDCDCDCDCDCDCDCDCDCDCDCDCDCDCDC
310
DCDCDCDCDCDCDCDCDCDCDCDCDCDCDCDCDCDCDCDCDCDCDCDCDCDCDCDCDCDCDCDCDCDCDCDCDCDCDCDCDCDCDCDCDCDCDCDCDCDCDCDCDCDCDCDCDCDCDCDCF5DCDCDCDCDCDCDCDCDCDCDCDCDCDCDCDCDCDCDCDCDCDCDCDCDCDCDCDCDCDCDCDCDCDCDCDCDCDCDCDCDCDCDCDCDCDCDCDCDCDCDCDCDCDCDCDCDCDCDCDCDCDCDCDCDCDC
310
DCDCDCDCDCDCDCDCDCDCDCDCDCDCDCDCDCDCDCDCDC0000000000000000000000000000000000000000000000000000000000000000000000000000000000000000000000000000000000000000000000000000DC00000000000000000000000000000000000000000000000000000000000000000000000000000000000000
310
0000000000000000000000000000000000000000000000000000000000000000000000000000000000000000000000000000000000000000000000000000F500000000000000000000000000000000000000000000000000000000000000000000000000000000000000000000000000000000000000000000000000000000
310
00000000000000000000000000000000000000000000DC0000000000000000000000000000000000000000000000000000000000000000000000000000000000000000000000000000000000000000000000000000DC0000000000000000282828282828282828282828282828282828282828282828282828282828282828
310
28282828282828282828282828282828282828282828282828282828282828282828282828282828282828282828282828282828282828282828282828282828F52828282828282828282828282828282828282828282828282828282828282828282828282828282828282828282828282828282828282828282828282828
310
28282828282828282828282828282828282828282828F5F5DC0000000000000000000000000000000000000000000000000000000000000000000000000000000000000000000000000000000000000000000000000000DC000000000000000028000000000000000000000000000000000000000000000000000000000000
310
000000000000000000000000000000000000000000000000000000000000000000000000000000000000000000000000000000000000000000000000000000000000000028F5F5BE000000000000F500BE0000F500BE000000002800000000000000000000000000000000000028DCDCDCDCDCDCDCDCDCDCDCDCDCDCDCDCDC
310
DCDCDCDCDCDCDCDCDCDCDCDCDCDCDCDCDCDCDCDCDCDCDCDCF5F5DC0000000000000000000000000000000000000000000000000000000000000000000000000000000000000000000000000000000000000000000000000000DC00000000000000002800000000000000000000000000000000000000000000000000000000
310
0000000000000000000000000000000000000000000000000000000000000000000000000000000000000000000000000000000000000000000000000000000000000000000028F5F5BE00F5F5F5F5F5F500BE00F5F5F5BEF5F5F5F52800282828282828282828002828282828280028000000000000000000000000000000
310
000000000000000000000000000000000000000000000000000028F5DC0000000000000000000000000000000000000000000000000000000000000000000000000000000000000000000000000000000000000000000000000000DC0000000000000000280000000000000000000000000000000000000000000000000000
310
00000000000000000000000000000000000000000000000000000000000000000000000000000000000000000000000000000000000000000000000000000000000000000000000028F5F5BE00F5F5F500000000BE00F50000BEF5F50000280028280028000028282828280028000028282800000000000000000000000000
310
0000000000000000000000000000000000000000000000000000000028F5DC0000000000000000000000000000000000000000000000000000000000000000000000000000000000000000000000000000000000000000000000000000DC000000000000000028000000000000000000000000000000000000000000000000
310
0000000000000000000000000000000000000000000000000000000000000000000000000000000000000000000000000000000000000000000000000000000000000000000000000000282828BE2828282828282828BE28282828BE2828282828002828282800002828282828282800002828280000000000000000000000
310
000000000000000000000000000000000000000000000000000000000000F5F5DC0000000000000000000000000000000000000000000000000000000000000000000000000000000000000000000000000000000000000000000000000000DC00000000000000002800000000000000000000000000000000000000000000
310
00000000000000000000000000000000000000000000000000000000000000000000000000000000000000000000000000000000000000000000000000000000000000000000000000000000280000BE0000000000000000BE00000000BE000000002800282800282828282828282828282828280028F5F5F5F5F5F5F5F5F5
310
F500000000000000000000000000000000000000000000000000000000000000F5F5DC0000000000000000000000000000000000000000000000000000000000000000000000000000000000000000000000000000000000000000000000000000DC0000000000000000280000000000000000000000000000000000000000
310
000000000000000000000000000000000000000000000000000000000000000000000000000000000000000000000000000000000000000000000000000000000000000000000000000000000000280000BE0000000000000000BE00000000BE000000002800282800002828002828282800002828000028F5F5000000F500
310
F5000000000000000000000000000000000000000000000000000000000000000000F5F5DC0000000000000000000000000000000000000000000000000000000000000000000000000000000000000000000000000000000000000000000000000000DC000000000000000028000000000000000000000000000000000000
310
000000000000000000000000000000000000000000000000000000000000000000000000000000000000000000000000000000000000000000000000000000000000000000000000000000000000000028DCDCDCDCDCDCDCDCDCDCDCDCDCDCDCDCDCDCDCDCDCF5F5F5F5BE28F5F5F5F5BE2828F5F5F5F528282828F5F5F5F5
310
F5F5F5F5F52828282828282828282828282828282828282828282828282828282828282828F5DC0000000000000000000000000000000000000000000000000000000000000000000000000000000000000000000000000000000000000000000000000000DC00000000000000002800000000000000000000000000000000
310
00000000000000000000000000000000000000000000000000000000000000000000000000000000000000000000000000000000000000000000000000000000000000000000000000000000000000000000280000BE0000000000000000BE00000000BE00000000F5F5F5F5BE00F5F5F500BE0000F5F5F5F500002800F5F5
310
F5F5F5F5F5F5F50000000000000000000000000028000000000000000000000000000000000028F5DC0000000000000000000000000000000000000000000000000000000000000000000000000000000000000000000000000000000000000000000000000000DC0000000000000000280000000000000000000000000000
310
00000000000000000000000000000000000000000000000000000000000000000000000000000000000000000000000000000000000000000000000000000000000000000000000000000000000000000000000028DCDCDCDCDCDCDCDCDCDCDCDCDCDCDCDCDCDCDCDCDCDCDCDCDCDCDCDCDCDCDCDCDCDCDCDCDCDCDCDCDCDC
310
F5F5F5F5F5F5F5F5F5F5F5F5F5F5F5F5F5DCDCDCDC0028F5F5F5F5F5F5F5F5F5F5F500000000000028F5F50000000000000000000000000000000000000000000000000000000000000000000000000000000000000000000000000000000000000000000000000000DC000000000000000028000000000000000000000000
310
0000000000000000000000000000000000000000000000000000000000000000000000000000000000000000000000000000000000000000000000000000000000000000000000000000000000000000000000000000280000BE0000000000000000BE00000000BE00000000F5F5F5F5BE00F5F5F5F5BE000000F5F5000000
310
2800F5F5F5F5F5F5F5F500F5F5F5F5F5F5F5F5000000000028F5F5F5F5F5F5F5F5F5F5F5000000000000F5F5DC0000000000000000000000000000000000000000000000000000000000000000000000000000000000000000000000000000000000000000000000000000DC00000000000000002800000000000000000000
310
0000000000000000000000000000000000000000000000000000000000000000000000000000000000000000000000000000000000000000000000000000000000000000000000000000000000000000000000000000000028DCDCDCDCDCDCDCDCDCDCDCDCDCDCDCDCDCDCDCDCDCF5F5DCDCDCDCF5F5F5DCDCDCDCDCF5F5DC
310
DCDCDCDCDCDCDCDCDCDCDCDCDCDCDCDCDCDCF5F5DCDCDCDCDC00BEBEBEBEF5F5BEF5BEBEF5BEBEBEBEBEBEBEF5F5DC0000000000000000000000000000000000000000000000000000000000000000000000000000000000000000000000000000000000000000000000000000DC0000000000000000280000000000000000
310
000000000000000000000000000000000000000000000000000000000000000000000000000000000000000000000000000000000000000000000000000000000000000000000000000000000000000000000000000000000000280000BE0000000000000000BE00000000BE00000000F5F5F500BE00F5F5F5F5BE0000F5F5
310
F5F500002800F5F5F5F5F5F5F5F5F5F5F5F5F5F5F5F500000000000028000000000000000000000000000000000028F5DC0000000000000000000000000000000000000000000000000000000000000000000000000000000000000000000000000000000000000000000000000000DC000000000000000028000000000000
310
0000000000000000000000000000000000000000000000000000000000000000000000000000000000000000000000000000000000000000000000000000000000000000000000000000000000000000000000000000000000000000280000BE0000000000000000BE00000000BE00000000F5F5F500BE00F5F5F500BE0000
310
F5F5F5F500002800F5F5F5F5F5F5F5F5F5F5F5F5F5F5F5F5000000000000280000000000000000000000000000000000F5F5DC0000000000000000000000000000000000000000000000000000000000000000000000000000000000000000000000000000000000000000000000000000DC00000000000000002800000000
310
0000000000000000000000000000000000000000000000000000000000000000000000000000000000000000000000000000000000000000000000000000000000000000000000000000000000000000000000000000000000000000000028DCDCDCDCDCDCDCDCDCDCDCDCDCDCDCDCDCDCDCDCDCDCF5F5F5DCDCF5F5F5DCDC
310
DCDCF5F5F5F5DCDCDCDCF5F5F5F5F5F5F5F5F5F5F5F5F5DCF5F5DCF5F5DCDC0028F5F5F5F5F5F5F5F5000000000000000000F5F5DC0000000000000000000000000000000000000000000000000000000000000000000000000000000000000000000000000000000000000000000000000000DC0000000000000000280000
310
000000000000000000000000000000000000000000000000000000000000000000000000000000000000000000000000000000000000000000000000000000000000000000000000000000000000000000000000000000000000000000000000280000BE0000000000000000BE00000000BE0000000028F5F5F5BE00F5F5F5
310
00BE0000F5F5F5F500002800F5F5F5F5F5F5F5F5F5F5F5F5F5F5F5F500F5F500000028F5F5F5F5F5F5F5F500000000000000000028F5DC0000000000000000000000000000000000000000000000000000000000000000000000000000000000000000000000000000000000000000000000000000DC000000000000000028
310
000000000000000000000000000000000000000000000000000000000000000000000000000000000000000000000000000000000000000000000000000000000000000000000000000000000000000000000000000000000000000000000000000028DCDCDCDCDCDCDCDCDCDCDCDCDCDCDCDCDCDCDCDCDCDC282828BE2828
310
282828BE282828282828282828282828282828282828282828282828282828282828282828282828282828282828282828282828282828F5DC0000000000000000000000000000000000000000000000000000000000000000000000000000000000000000000000000000000000000000000000000000DC00000000000000
310
00280000000000000000000000000000000000000000000000000000000000000000000000000000000000000000000000000000000000000000000000000000000000000000000000000000000000000000000000000000000000000000000000000000280000BE0000000000000000BE00000000BE000000002800000000
310
0000000000BE000000000000000028DCDCDCDCDCDCDCDCDCDCDCDCDCDCDCDCDCDCDCDCDCDC0028DCDCDCDCDCDCDCDCDCDCDCDCDCDCDCDCDC28F5DC0000000000000000000000000000000000000000000000000000000000000000000000000000000000000000000000000000000000000000000000000000DC0000000000
310
00000028000000000000000000000000000000000000000000000000000000000000000000000000000000000000000000000000000000000000000000000000000000000000000000000000000000000000000000000000000000000000000000000000000028DCDCDCDCDCDCDCDCDCDCDCDCDCDCDCDCDCDCDCDCDCDC0000
310
00BEBEBE000000BEF5F5F5F5F5F5F5F5F500BEBEBEBEBEBE00BEBEBEBEBEBEBEBEBEBEBEBEBEBE0028000000BEBEBEBEBEBEBEBEBEBEBE000000F5F5DC0000000000000000000000000000000000000000000000000000000000000000000000000000000000000000000000000000000000000000000000000000DC000000
310
0000000000280000000000000000000000000000000000000000000000000000000000000000000000000000000000000000000000000000000000000000000000000000000000000000000000000000000000000000000000000000000000000000000000000000280000BE0000000000000000BE00000000BE0000000028
310
0000BEBEBEBE000000BEF5F5F5F5F5F5F5F5F500BEBEBEBEBEBEBEBEBEBEBEBE00BEBEBEBEBEBEBEBE0028000000BEBEBEBEBEBEBEBEBEBEBE000000F5F5DC0000000000000000000000000000000000000000000000000000000000000000000000000000000000000000000000000000000000000000000000000000DC00
310
0000000000000028000000000000000000000000000000000000000000000000000000000000000000000000000000000000000000000000000000000000000000000000000000000000000000000000000000000000000000000000000000000000000000000000000028DCDCDCDCDCDCDCDCDCDCDCDCDCDCDCDCDCDCDCDC
310
DCDC000000000000000000BE0000000000000000280000000000000000000000000000000000000000000000280000000000000000000000000000000000F5F5DC0000000000000000000000000000000000000000000000000000000000000000000000000000000000000000000000000000000000000000000000000000
310
DC0000000000000000280000000000000000000000000000000000000000000000000000000000000000000000000000000000000000000000000000000000000000000000000000000000000000000000000000000000000000000000000000000000000000000000000000280000BE0000000000000000BE00000000BE00
310
0000002800F5F5F5F5F5F50000BEF5F5F5F5F5F5F50028F5F5F5F5F5F5F5F5F5000000000000000000000000000028F5F5F5F5F5F5F5F5F5F5F500000000000028F5DC000000000000000000000000000000000000000000000000000000000000000000000000000000000000000000000000000000000000000000000000
310
0000DC0000000000000000280000000000000000000000000000000000000000000000000000000000000000000000000000000000000000000000000000000000000000000000000000000000000000000000000000000000000000000000000000000000000000000000000000280000BE0000000000000000BE00000000
310
BE000000002800F5F5F5F5F5F50000BEF5F5F500F5F5F50028F5F5F5F5F5F5F5F5F5000000000000000000000000000028F5F5F5F5F5F5F5F5F5F5F500000000000028F5F500000000000000000000000000000000000000000000000000000000000000000000000000000000000000000000000000000000000000000000
310
00000000DC0000000000000000280000000000000000000000000000000000000000000000000000000000000000000000000000000000000000000000000000000000000000000000000000000000000000000000000000000000000000000000000000000000000000000000000000F5F5F5F5F5F5F5F5F5F5F5F5F5F5F5
310
F528F5F5F5F52828282828282828282828BE282828282828282828282828282828282828282828282828282828282828282828282828282828282828282828282828282828F5DC0000000000000000000000000000000000000000000000000000000000000000000000000000000000000000000000000000000000000000
310
000000000000DC0000000000000000280000000000000000000000000000000000000000000000000000000000000000000000000000000000000000000000000000000000000000000000000000000000000000000000000000000000000000000000000000000000000000000000000000F5F5F5F5F5F5F5F5F500F5F5F5
310
F5F5F500F5F5F5F50000000000000000000000000000000000000000000000000000000000000000000000000000000000000000000000000000000000000000000000000000F5F5DC000000000000000000000000000000000000000000000000000000000000000000000000000000000000000000000000000000000000
310
0000000000000000DC00000000000000002800000000000000000000000000000000000000000000000000000000000000000000000000000000000000000000000000000000000000000000000000000000000000000000000000000000000000000000000000000000000000000000000000000000000000000000000000
310
000000000000000000000000000000000000000000000000000000000000000000000000000000000000000000000000000000000000000000000000000000000000000000000000F5F5DC00000000000000000000000000000000000000000000000000000000000000000000000000000000000000000000000000000000
310
00000000000000000000DC0000000000000000280000000000000000000000000000000000000000000000000000000000000000000000000000000000000000000000000000000000000000000000000000000000000000000000000000000000000000000000000000000000000000000000000000000000000000000000
310
0000000000000000000000000000000000000000000000000000000000000000000000000000000000000000000000000000000000000000000000000000000000000000000000000000F5F5DC0000000000000000000000000000000000000000000000000000000000000000000000000000000000000000000000000000
310
000000000000000000000000DC000000000000000028000000000000000000000000000000000000000000000000000000000000000000000000000000000000000000000000000000000000000000000000000000000000000000000000000000000000000000000000000000000000000000000000000000000000000000
310
00000000000000000000000000000000000000000000000000000000000000000000000000000000000000000000000000000000000000000000000000000000000000000000000000000000F5F5DC000000000000000000000000000000000000000000000000000000000000000000000000000000000000000000000000
310
0000000000000000000000000000DC00000000000000002800000000000000000000000000000000000000000000000000000000000000000000000000000000000000000000000000000000000000000000000000000000000000000000000000000000000000000000000000000000000000000000000000000000000000
310
00000000000000000000000000000000000000000000000000000000000000000000000000000000000000000000000000000000000000000000000000000000000000000000000000000000000028F5DC00000000000000000000000000000000000000000000000000000000000000000000000000000000000000000000
310
00000000000000000000000000000000DC0000000000000000280000000000000000000000000000000000000000000000000000000000000000000000000000000000000000000000000000000000000000000000000000000000000000000000000000000000000000000000000000000000000000000000000000000000
310
0000000000000000000000000000000000000000000000000000000000000000000000000000000000000000000000000000000000000000000000000000000000000000000000000000000000000000F5F5DC0000000000000000000000000000000000000000000000000000000000000000000000000000000000000000
310
000000000000000000000000000000000000DC0000000000000000280000000000000000000000000000000000000000000000000000000000000000BEBEBEBEBEBEBEBEBEBEBEBEBEBEBEBEBEBEBEBE00BEBEBEBEBE0000BEBEBEBE00BEBEBEBEBEBEBEBEBEBE00BEBEBEBEBE00BEBEBEBEBEBEBEBEBEBEBEBEBEBE00BEBE
310
BEBEBEBEBE0000000000000000000000000000000000000000000000000000000000000000000000000000000000000000000000000000000000000000000000000000000000000000000000000000000000F5F5DC000000000000000000000000000000000000000000000000000000000000000000000000000000000000
310
0000000000000000000000000000000000000000DC0000000000000000280000000000000000000000000000000000000000000000000000000000000000BEBEBEBEBEBEBEBEBEBEBEBEBEBEBEBEBEBEBEBE00BEBEBEBEBEBE00BEBEBEBE00BEBEBEBEBEBEBEBEBEBE00BEBEBEBEBE00BEBEBEBEBEBEBEBEBEBEBEBEBEBE00
310
BEBEBEBEBEBEBE0000000000000000000000000000000000000000000000000000000000000000000000000000000000000000000000000000000000000000000000000000000000000000000000000000000000F5F5DC00000000000000000000000000000000000000000000000000000000000000000000000000000000
310
00000000000000000000000000000000000000000000DC0000000000000000280000000000000000000000000000000000000000000000000000000000000000BEBE00BEBEBE0000BE0000000000BE00BE00000000BEBE00BE000000000000BE00BE0000BEBE00000000BE0000BE00000000BEBEBE00BE0000000000000000
310
0000BEBEBEBE0000000000000000000000000000000000000000000000000000000000000000000000000000000000000000000000000000000000000000000000000000000000000000000000000000000000000000F5F5DC0000000000000000000000000000000000000000000000000000000000000000000000000000
310
000000000000000000000000000000000000000000000000DC000000000000000028000000000000000000000000000000000000000000000000000000000000000000000000000000000000000000000000000000000000000000000000000000000000000000000000000000000000000000000000000000000000000000
310
00000000000000000000000000000000000000000000000000000000000000000000000000000000000000000000000000000000000000000000000000000000000000000000000000000000000000000000000000000000F5F5DC000000000000000000000000000000000000000000000000000000000000000000000000
310
0000000000000000000000000000000000000000000000000000DC00000000000000002800000000000000000000000000000000000000000000000000000000000000000000000000000000000000000000000000000000000000000000000000000000000000000000000000000000000000000000000000000000000000
310
00000000000000000000000000000000000000000000000000000000000000000000000000000000000000000000000000000000000000000000000000000000000000000000000000000000000000000000000000000000000028F5DC00000000000000000000000000000000000000000000000000000000000000000000
310
00000000000000000000000000000000000000000000000000000000DC0000000000000000280000000000000000000000000000000000000000000000000000000000000000000000000000000000000000000000000000000000000000000000000000000000000000000000000000000000000000000000000000000000
310
000000000000000000000000000000000000000000000000000000000000000000000000000000000000000000000000000000000000000000000000000000000000000000000000000000000000000000000000000000000000000028F5DC0000000000000000000000000000000000000000000000000000000000000000
310
000000000000000000000000000000000000000000000000000000000000DC000000000000000028000000000000000000000000000000000000000000000000000000000000000000000000000000000000000000000000000000000000000000000000000000000000000000000000000000000000000000000000000000
310
0000000000000000000000000000000000000000000000000000000000000000000000000000000000000000000000000000000000000000000000000000000000000000000000000000000000000000000000000000000000000000000028F5DC000000000000000000000000000000000000000000000000000000000000
310
0000000000000000000000000000000000000000000000000000000000000000DC00000000000000002800000000000000000000000000000000000000000000000000000000000000000000000000000000000000000000000000000000000000000000000000000000000000000000000000000000000000000000000000
310
00000000000000000000000000000000000000000000000000000000000000000000000000000000000000000000000000000000000000000000000000000000000000000000000000000000000000000000000000000000000000000000000028F5DC00000000000000000000000000000000000000000000000000000000
310
00000000000000000000000000000000000000000000000000000000000000000000DC0000000000000000280000000000000000000000000000000000000000000000000000000000000000000000000000000000000000000000000000000000000000000000000000000000000000000000000000000000000000000000
310
0000000000000000000000000000000000000000000000000000000000000000000000000000000000000000000000000000000000000000000000000000000000000000000000000000000000000000000000000000000000000000000000000000F5F5DC0000000000000000000000000000000000000000000000000000
310
000000000000000000000000000000000000000000000000000000000000000000000000DC000000000000000028000000000000000000000000000000000000000000000000000000000000000000000000000000000000000000000000000000000000000000000000000000000000000000000000000000000000000000
310
0000000000000000000000000000000000000000000000000000000000000000000000000000000000000000000000000000000000000000000000000000000000000000000000000000000000000000000000000000000000000000000000000000000028F5F5000000000000000000000000000000000000000000000000
310
0000000000000000000000000000000000000000000000000000000000000000000000000000DC00000000000000002800000000000000000000000000000000000000000000000000000000000000000000000000000000000000000000000000000000000000000000000000000000000000000000000000000000000000
310
00000000000000000000000000000000000000000000000000000000000000000000000000000000000000000000000000000000000000000000000000000000000000000000000000000000000000000000000000000000000000000000000000000000000028F5DC00000000000000000000000000000000000000000000
310
00000000000000000000000000000000000000000000000000000000000000000000000000000000DC0000000000000000280000000000000000000000000000000000000000000000000000000000000000000000000000000000000000000000000000000000000000000000000000000000000000000000000000000000
310
0000000000000000000000000000000000000000000000000000000000000000000000000000000000000000000000000000000000000000000000000000000000000000000000000000000000000000000000000000000000000000000000000000000000000000F5F5DC0000000000000000000000000000000000000000
310
000000000000000000000000000000000000000000000000000000000000000000000000000000000000DC000000000000000028000000000000000000000000000000000000000000000000000000000000000000000000000000000000000000000000000000000000000000000000000000000000000000000000000000
310
0000000000000000000000000000000000000000000000000000000000000000000000000000000000000000000000000000000000000000000000000000000000000000000000000000000000000000000000000000000000000000000000000000000000000000000028F5DC000000000000000000000000000000000000
310
0000000000000000000000000000000000000000000000000000000000000000000000000000000000000000DC00000000000000002800000000000000000000000000000000000000000000000000000000000000000000000000000000000000000000000000000000000000000000000000000000000000000000000000
310
00000000000000000000000000000000000000000000000000000000000000000000000000000000000000000000000000000000000000000000000000000000000000000000000000000000000000000000000000000000000000000000000000000000000000000000000028F5DC00000000000000000000000000000000
310
00000000000000000000000000000000000000000000000000000000000000000000000000000000000000000000DC0000000000000000280000000000000000000000000000000000000000000000000000000000000000000000000000000000000000000000000000000000000000000000000000000000000000000000
310
0000000000000000000000000000000000000000000000000000000000000000000000000000000000000000000000000000000000000000000000000000000000000000000000000000000000000000000000000000000000000000000000000000000000000000000000000000F5F5DC0000000000000000000000000000
310
000000000000000000000000000000000000000000000000000000000000000000000000000000000000000000000000DC000000000000000028000000000000000000000000000000000000000000000000000000000000000000000000000000000000000000000000000000000000000000000000000000000000000000
310
0000000000000000000000000000000000000000000000000000000000000000000000000000000000000000000000000000000000000000000000000000000000000000000000000000000000000000000000000000000000282828F5F5F5F5F5F5F5F5F5F5F5F5000000000000000028F5DC000000000000000000000000
310
0000000000000000000000000000000000000000000000000000000000000000000000000000000000000000000000000000DC0000000000000000280000000000000000000000000000000000000000000000000000000000000000000000F5F5F5F5F5F5F5F5F5F5F5F5F5F5F5F5F5F5F5F5F5F5F5F5F5F5F5F5F5F5F5F5
310
F5F5F5F5F5F5F5F5F5F5F5F5F5F5F5F5F5F5F5F5F5F5F5F5F5F5F5F5F5F5F5F5F5000000000000000000000000000000000000000000000000000000000000000000000000000000002828F5F5F5F5F5F5F5F5F5F5F5F5F5F5F5F5F5F5F5F5F5F5F5F5F5F5000000F5F50000000000000000F5F5DC00000000000000000000
310
00000000000000000000000000000000000000000000000000000000000000000000000000000000000000000000000000000000DC0000000000000000280000000000000000000000000000000000000000000000000000000000000000000000F50000000000000000000000000000000000000000000000000000000000
310
00BEBEBE000000000000000000000000000000000000000000000000000000000000F500000000000000000000000000000000000000000000000000000000000000F5F5F5F5F5F5F5F5F5F5F5F5F5F5F5F5F5F50000000000000000000000000000000000DC28000000F5F5000000000000000028F5DC0000000000000000
310
000000000000000000000000000000000000000000000000000000000000000000000000000000000000000000000000000000000000DC0000000000000000280000000000000000000000000000000000000000000000000000000000000000000000F5000000000000000000000000000000000000000000000000000000
310
000000BEBEBEBE0000000000000000000000000000000000000000000000000000000000F500000000000000000000000000000000000000000000000000000000000000DC00000000000000000000000000000000000000000000000000000000000000000000DC28000000F5000000000000000000F5F5DC000000000000
310
0000000000000000000000000000000000000000000000000000000000000000000000000000000000000000000000000000000000000000DC0000000000000000280000000000000000000000000000000000000000000000000000000000000000000000F500000000000000000000000000000000000000000000000000
310
0000000000000000000000000000000000000000000000000000000000000000000000000000F5000000000000000000000000000000000000000000000000000000000000DC0000000000000000000000000000000000000000000000000000000000000000000000DC28000000F500000000000000000028F5DC00000000
310
00000000000000000000000000000000000000000000000000000000000000000000000000000000000000000000000000000000000000000000DC0000000000000000280000000000000000000000000000000000000000000000000000000000000000000000F5F5F5F5F5F5F5F5F5F5F5F5F5F5F5F5F5F5F5F5F5F5F5F5
310
F5F5F5F5F5F5F5F5F5F5F5F5F5F5F5F5F5F5F5F5F5F5F5F5F5F5F5F5F5F5F5F5F5F5F5F5F5F5F500F5000000000000000000000000000000000000000000000000000000000000DC00000000000000000000000000000000000000000000000000000000000000F5000000DC28000000F500000000000000000028F5DC0000
310
000000000000000000000000000000000000000000000000000000000000000000000000000000000000000000000000000000000000000000000000DC0000000000000000280000000000000000000000000000000000000000000000000000000000000000000000F5F5F500000000BEBEBE00000000F5F5F5F5F5000000
310
000000000000000000000000000000BEBEBEBEBE000000000000000000000000000000000000F5F5F500F5000000000000000000000000000000000000000000000000000000000000DC000000000000000000000000000000000000000000000000000000000000F500000000DC28000000F5000000000000000000F5F5DC
310
0000000000000000000000000000000000000000000000000000000000000000000000000000000000000000000000000000000000000000000000000000DC000000000000000028000000000000BEBEBEBE00BEBEBEBEBEBEBE00BEBEBEBEBEBEBEBEBEBEBEBE00000000F5000000000000BEBEBE000000000000F5000000
310
0000000000000000000000000000000000BEBEBEBEBE0000000000000000000000000000000000000000F500F50000000000000000000000F5F5F5F5F52828282828282828282828282800DC000000000000000000000000000000000000000000000000000000000000F500000000DC280000BEBE00000000000000000028
310
F5DC0000000000000000000000000000000000000000000000000000000000000000000000000000000000000000000000000000000000000000000000000000DC000000000000000028000000000000BEBEBEBEBEBEBEBEBEBEBEBE00BEBEBEBEBEBEBEBEBEBE00BE00000000F5000000000000BEBEBE000000000000F500
310
00000000000000000000000000000000000000BEBEBEBE000000000000000000000000000000282828282828F5282828282828282828282828282828282828000000000000000000000000DC00DC000000000000000000000000000000000000000000000000000000000000F500000000DC2800BEBEBE0000000000000000
310
0028F5F50000000000000000000000000000000000000000000000000000000000000000000000000000000000000000000000000000000000000000000000000000DC0000000000000000280000000000DCDCDCDCDCDCDCDCDCDCBEDCDCDCDCDCDCDCDCDCDCDCDCDCDCDCDC000000F5000000000000000000000000000000
310
F5000000000000000000000000000000000000000000000000002828282828282828282828282828F5F5F5F5F5F5F500F5000000000000000000000000000000000000000000000000000000DC000000DC0000000000000000000000000000000000DCDCDCDCDCDCDCDCDCDCDCF5F5F5F5F5F5F5F5F5F5BEBEF5F5F5F5F5F5
310
00000028F5DC0000000000000000000000000000000000000000000000000000000000000000000000000000000000000000000000000000000000000000000000000000DC000000000000000028000000000000BEBEBEBEBEBEBEBEBEBEBEBE00BEBEBEBEBEBE00000000000000DCDC00F500000000000000000000000000
310
0000F5000000000000000000000000000000000000000000000000F528F5000000000000000000000000000000000000F500F5000000000000000000000000000000000000000000000000000000DC000000F5DCDCDCDCDCDCDC00DCDCDCDCDCDCDC00DC000000000000000000000000F50000000000DCF500BEBEF5000000
310
F5F500000028F5DC0000000000000000000000000000000000000000000000000000000000000000000000000000000000000000000000000000000000000000000000000000DC000000000000000028000000000000BEBEBEBEBEBEBEBEBEBEBEBEBEBEBEBEBEBEBE000000000000000000DCF5DC00000000000000000000
310
00000000F5000000000000000000000000000000000000000000000000282800000000000000000000000000000000000000F500F5000000000000000000000000000000000000000000000000000000DC00000000DC000000000000000000000000000000000000000000000000000000BEF5F500000000DCF5000000F500
310
000000F500000028F5DC0000000000000000000000000000000000000000000000000000000000000000000000000000000000000000000000000000000000000000000000000000DC0000000000000000280000000000000000000000000000000000000000000000000000000000000000000000F500DCDC000000000000
310
000000000000F50000000000000000000000000000000000000000000000F5280000000000000000000000000000000000000000F500F5000000000000000000000000000000000000000000000000000000DC00000000DC0000000000000000000000000000000000000000000000000000BEBE00F500000000DCF5000000
310
F500000000F500000028F5DC0000000000000000000000000000000000000000000000000000000000000000000000000000000000000000000000000000000000000000000000000000DC0000000000000000280000000000000000000000000000000000000000000000000000000000000000000000F5000000DCDCDC00
310
0000000000000000F5000000000000000000000000000000000000000000000028280000000000000000000000000000000000000000F500F500000000000000000000000000000000000000000000000000000000DC000000DC0000000000000000000000000000000000000000000000000000BEBE000000000000DCF500
310
0000F500000000F5000000F5F5DC0000000000000000000000000000000000000000000000000000000000000000000000000000000000000000000000000000000000000000000000000000DC0000000000000000280000000000000000000000000000000000000000000000000000000000000000000000F50000000000
310
00DCDC00000000000000F500000000000000000000000000000000000000000000F528000000000000000000000000000000000000000000F500F500000000000000000000000000000000000000000000000000000000DC00000000DC000000000000000000000000000000000000000000000000000000000000000000DC
310
F5000000F500000000F5000000F5F5DC0000000000000000000000000000000000000000000000000000000000000000000000000000000000000000000000000000000000000000000000000000DC0000000000000000280000000000000000000000000000000000000000000000000000000000000000000000F5000000
310
0000000000DCDC0000000000F5000000000000000000000000000000000000000000002800000000000000000000000000000000000000000000F500F5000000000000000000000000000000000000DCDCDC00DCDCDCDCDCDCDCDCDC0000DC0000000000000000000000000000000000000000000000000000000000000000
310
00DCF5000000F500000000F5000000F5F5DC0000000000000000000000000000000000000000000000000000000000000000000000000000000000000000000000000000000000000000000000000000DC0000000000000000280000000000000000000000000000000000000000000000000000000000000000000000F500
310
000000000000000000DCDCDC0000F5000000000000000000000000000000000000000000F52800000000000000000000000000000000000000000000F500DCDCDCDCDCDCDCDCDCDCDCDCDCDC00DCDCDCDC0000000000000000000000DC0000DC00000000000000000000000000000000000000000000000000000000000000
310
000000DCF5000000F500000000F5000000F5F5DC0000000000000000000000000000000000000000000000000000000000000000000000000000000000000000000000000000000000000000000000000000DC00000000000000002800000000000000000000000000000000000000000000000000000000F5F5F5F5F5F5F5
310
F5F5F5F5F5F5F5F5F5F5F5F5F5F5F5F5F5F5F528282828282828282828282828282828282828282828282828282828282828282828282828282828282828F500F50000000000000000000000000000000000000000000000000000000000DCDC00DC00000000000000000000000000000000F5F5F5F5F5F5F5F5F5F5F5F5F5
310
F5F5F5F5F5F5F5F5F5F5F5F5000000F5000000F5F5DC0000000000000000000000000000000000000000000000000000000000000000000000000000000000000000000000000000000000000000000000000000DC00000000000000002800000000000000000000000000000000000000000000000000000000F500000000
310
0000F5000000000000000000000000000000F52800000000000000000000000000000000000000DCDCDCDCDCDCDC000000000000000000000000000000000028F500F5000000000000000000000000000000000000000000000000000000000000DC0028F5F5F5F5F5F5F5F5F5F5F5F5F5F5F5F5F5F5F5F5F5F5F528282800
310
0000000000000000F50000000000BEBEBEF500000028F5DC0000000000000000000000000000000000000000000000000000000000000000000000000000000000000000000000000000000000000000000000000000DC00000000000000002800000000000000000000000000000000000000000000000000000000F50000
310
00000000F5000000000000000000000000000000F5000000000000000000000000000000000000000000000000000000000000000000000000000000000000000000F500F5000000000000000000BEBEBEBEBEBE000000000000000000000000000000DC00F5F5F5F5F5282828280000000000000000000000000000000000
310
00000000000000000000F50000000000BEBEBEF500000028F5DC0000000000000000000000000000000000000000000000000000000000000000000000000000000000000000000000000000000000000000000000000000DCDCDCDCDCDCDCDC002800000000000000000000000000000000000000000000000000000000F5
310
000000000000F5000000000000000000000000000000280000000000000000000000000000000000000000000000000000000000000000000000000000000000000000002800F5000000000000000000BEBEBEBEBEBE000000000000000000000000000000DC00000000000000000000000000000000000000000000000000
310
000000000000000000000000F50000000000BEBEBEF500000028F5DC0000000000000000000000000000000000000000000000000000000000000000000000000000000000000000000000000000000000000000000000000000DC000000000000000028000000000000000000000000000000000000000000000000000000
310
00F5000000000000F5000000000000000000000000000000280000000000000000000000000000000000000000000000000000000000000000000000000000000000000000002800F5000000000000000000000000000000000000000000000000000000000000DC0000000000000000000000000000000000000000000000
310
0000000000000000000000000000F50000000000000000F500000028F5DC0000000000000000000000000000000000000000000000000000000000000000000000000000000000000000000000000000000000000000000000000000DC00000000000000002800000000000000000000000000000000000000000000000000
310
00BEBEF5000000000000F5000000000000000000000000000000280000000000000000000000000000000000000000000000000000000000000000000000000000000000000000002800F50000000000000000000000000000000000000000000000000000000000DC00000000000000000000000000000000000000000000
310
00000000000000000000000000000000F50000000000000000F5000000F5F5DC0000000000000000000000000000000000000000000000000000000000000000000000000000000000000000000000000000000000000000000000000000DC0000000000000000280000000000000000000000000000000000000000000000
310
000000BEBEF5000000000000F5000000000000000000000000000000280000000000000000000000000000000000000000000000000000000000000000000000000000000000000000002800F500000000000000000000000000000000000000F5F5F528282828282828280000000000000000000000000000000000000000
310
000000000000000000000000000000000000F50000000000000000F5000000F5F5DC0000000000000000000000000000000000000000000000000000000000000000000000000000000000000000000000000000000000000000000000000000DC000000000000000028000000000000000000000000000000000000000000
310
0000000000BEBEF5000000000000F5000000000000000000000000000000280000000000000000000000000000000000000000000000000000000000000000000000000000000000000000002800F5F5F5F5F5F5F528282828282828282828282828282828F5F5F50000000000000000000000000000000000000000000000
310
0000000000000000000000000000000000000000F50000000000000000F5000000F5F5DC0000000000000000000000000000000000000000000000000000000000000000000000000000000000000000000000000000000000000000000000000000DC00000000000000002800000000000000000000000000000000000000
310
000000000000000000F5000000000000F500000000000000000000000000000028000000000000000000000000000000000000000000000000000000000000000000000000000000000000000000F5F52828282828282800000000000000000000000000000000000000000000000000000000000000000000000000000000
310
00000000000000000000000000000000000000000000F50000000000000000F5000000F5F5F50000000000000000000000000000000000000000000000000000000000000000000000000000000000000000000000000000000000000000000000000000DC0000000000000000280000000000000000000000000000000000
310
0000000000000000000000F5000000000000F500000000000000000000000000000028000000000000000000000000000000000000000000000000000000000000000000000000000000000000000000F500F50000F50000000000000000000000000000000000000000000000000000000000000000000000000000000000
310
000000000000000000000000000000000000000000000000F50000000000000000F5000000F5F5DC0000000000000000000000000000000000000000000000000000000000000000000000000000000000000000000000000000000000000000000000000000DC000000000000000028000000000000000000000000000000
310
00000000000000000000000000F5000000000000F5000000000000000000000000000000280000000000000000000000000000000000000000000000000000000000000000000000000000000000000000002800F500F5F5000000000000000000000000000000000000000000000000000000000000000000000000000000
310
0000000000000000000000000000000000000000000000000000F50000000000000000F500000028F5DC0000000000000000000000000000000000000000000000000000000000000000000000000000000000000000000000000000000000000000000000000000DC00000000000000002800000000000000000000000000
310
000000000000000000000000000000F5000000000000F5000000000000000000000000000000280000000000000000000000000000DC0000000000000000000000000000000000000000000000000000000000002800F5F50000F5000000000000000000000000000000000000000000000000000000000000000000000000
310
00000000000000000000000000000000000000000000000000000000F500000000000000F5F5000000F5F5DC0000000000000000000000000000000000000000000000000000000000000000000000000000000000000000000000000000000000000000000000000000DC0000000000000000280000000000000000000000
310
0000000000000000000000000000BEBE00F5F5F5F5F5F5F5F5F5F5F5F5F5F5F5F5F5F5F5DCF5F5F5F5F528282828282828282828282828282828282828282828282828282828F5F5F5F5DCF5F5F5F5F5F5F5F5F5F5F5F5F5F5F5F5F5F5F5F5F5F5F5F5F5F5F5F5F5F5F5F5F5F5F5F5F5F5F5F5F5F5F5F5F5F5F5F5F5F5F5F5
310
F5F5F5F5F5F5F5F5F5F5F5F5F5F5F5F5F5F5F5F5F5F5F5F5F5F5F5F5F5F5F5F5F5F5F5F5F5F5F5F500000028F5DC0000000000000000000000000000000000000000000000000000000000000000000000000000000000000000000000000000000000000000000000000000DC000000000000000028000000000000000000
310
00000000000000000000000000000000BEBEBEF5F5F5F5F5F5F5F5F5F5F5F5F5F5F5F5F5F528DCDC28F5F5F528282828282828282828282828DC28282828282828282828282828F5F5F5F528DCDCF5F5F5F5F5F5F5F5F5F5F5F528F500000000F5000000000000000000000000000000000000000000000000000000000000
310
0000000000000000000000000000000000000000000000000000000000000000F5000000000000000000000000F5F5DC0000000000000000000000000000000000000000000000000000000000000000000000000000000000000000000000000000000000000000000000000000DC00000000000000002800000000000000
310
000000000000000000000000000000000000000000F5000000F5F5F5F5F5F52828F5F528F528F5F528F528F5F528282828282828282828282828282828282828282828282828282828DC28F528F5F5DCF528F5F528F5F528F5280000F528F500000000F5000000000000000000000000000000000000000000000000000000
310
00000000000000000000000000000000000000000000000000000000000000000000F5000000000000000000000000F5F5DC0000000000000000000000000000000000000000000000000000000000000000000000000000000000000000000000000000000000000000000000000000DC0000000000000000280000000000
310
0000000000000000000000000000000000000000000000F5000000F5F50000F5F5282800F5F500F500F5F500F500F5F500000000000000000000000000DC00000000000000000000000000DCF500F500F5F500F500F5F500F5F500F5000000F528F500000000F5000000000000000000000000000000000000000000000000
310
000000000000000000000000000000000000000000000000000000000000000000000000F5000000000000000000000000F5F5DC0000000000000000000000000000000000000000000000000000000000000000000000000000000000000000000000000000000000000000000000000000DC000000000000000028000000
310
00000000000000000000000000000000000000000000000000F5000000F5F50000F5282828F5F528F5F528F528F5F52828F500000000000000000000000000DC00000000000000000000000000DC28F5F5DCF5DCF5F528F528F5F528F52800000000F528F500000000F5000000000000000000000000000000000000000000
310
0000000000000000000000000000000000000000000000000000000000000000000000000000F500000000000000000000000028F5DC0000000000000000000000000000000000000000000000000000000000000000000000000000000000000000000000000000000000000000000000000000DC00000000000000002800
310
0000000000000000000000000000000000000000000000000000000000BEBEBE00000000F5282828000000002828DC282800F52800000000000000000000000000DC00000000000000000000000000DCF5282828DC28280000000000000000000000000000F528F500000000F5000000000000000000000000000000000000
310
00000000000000000000000000000000000000000000000000000000000000000000000000000000F500000000000000000000000028F5DC0000000000000000000000000000000000000000000000000000000000000000000000000000000000000000000000000000000000000000000000000000DC0000000000000000
310
28000000000000000000000000000000000000000000000000000000000000BEBEBE00000000F52828F500000000282828282800F52800000000000000000000000000DC00000000000000000000000000DCF5F52828282828000000000000000000000000000000F528F50000BEBEBE000000000000000000000000000000
310
000000000000000000000000000000000000000000000000000000000000000000000000000000000000F5000000000000000000000000F5F5DC0000000000000000000000000000000000000000000000000000000000000000000000000000000000000000000000000000000000000000000000000000DC000000000000
310
000028000000000000000000000000000000000000000000000000000000000000BEBEBE00000000282828F5000000000028DCDC2800F50000000000000000000000000000DC00000000000000000000000000DC28F50028DC280000000000000000000000000000000000F528F500BEBEBEBE000000000000000000000000
310
0000000000000000000000000000000000000000000000000000000000000000000000000000000000000000F5000000000000000000000000F5F5DC0000000000000000000000000000000000000000000000000000000000000000000000000000000000000000000000000000000000000000000000000000DC00000000
310
00000000280000000000000000000000000000000000000000000000000000000000000000F50000000000DC0000000000000000DC000000DC0000000000000000000000000000DC00000000000000000000000000DCF5280000DC000000000000000000000000000000000028F5F528F500BEBEBEF5000000000000000000
310
00000000000000000000000000000000000000000000000000000000000000000000000000000000000000000000F5000000000000000000000000F5F5DC0000000000000000000000000000000000000000000000000000000000000000000000000000000000000000000000000000000000000000000000000000DC0000
310
000000000000280000000000000000000000000000000000000000000000000000000000000000F5F500000000000000000000000000000000DCF50000000000000000000000000000DC00000000000000000000000000DC28F5000000000000000000000000000000000000000028F5F5F528F500BE0000F5000000000000
310
000000000000000000000000000000000000000000000000000000000000000000000000000000000000000000000000F500000000000000000000000028F5DC0000000000000000000000000000000000000000000000000000000000000000000000000000000000000000000000000000000000000000000000000000DC
310
0000000000000000280000000000000000000000000000000000000000000000000000000000000000F5F5F5F5F5F5F5F5F5F5F5F5F5F5F5F5F5F5F5F52828282828282828282828282828282828282828282828282828282828F5F5000000000000000000000000000000000000000000F5F5F5F528F500000000F5000000
310
0000000000000000000000000000000000000000000000000000000000000000000000000000000000000000000000000000F500000000000000000000000028F5DC00000000000000000000000000000000000000000000000000000000000000000000000000000000000000000000000000000000000000000000000000
310
00DC00000000000000002800000000000000000000000000000000000000000000000000000000000000000000000000000000000000000000000000DC00000000000000000000000000000000F50000000000000000000000000000000000000000000000000000000000000000000000000000F5F5F5F528F500000000F5
310
00000000000000000000000000000000000000000000000000000000000000000000000000000000000000000000000000000000F5000000000000000000000000F5F5DC0000000000000000000000000000000000000000000000000000000000000000000000000000000000000000000000000000000000000000000000
310
000000DC000000000000000028000000000000000000000000000000000000000000000000000000000000000000000000000000000000000000000000DC0000000000000000000000000000000000F500000000000000000000000000000000000000000000000000000000000000000000000000000028F5F5F528F50000
310
0000F5000000000000000000000000000000000000000000000000000000000000000000000000000000000000000000000000000000F500000000000000000000000028F5DC000000000000000000000000000000000000000000000000000000000000000000000000000000000000000000000000000000000000000000
310
0000000000DC0000000000000000280000000000000000000000000000000000000000000000000000000000000000000000000000000000000000000000DC000000000000000000000000000000000000F500000000000000000000000000000000000000000000000000000000000000000000000000000028DCF528F528
310
F500000000F5F500000000000000000000000000000000000000000000000000000000000000000000000000000000000000000000000000F500000000000000000000000028F5F500000000000000000000000000000000000000000000000000000000000000000000000000000000000000000000000000000000000000
310
00000000000000DC0000000000000000280000000000000000000000000000000000000000000000000000000000000000000000000000000000000000000000DC000000000000000000000000000000000000F5000000000000000000000000000000000000000000000000000000000000000000000000000028002828F5
310
DCF528F500000000F5F5000000000000000000000000000000000000000000000000000000000000000000000000000000000000000000000000F500000000000000000000000028F5F50000000000000000000000000000000000000000000000000000000000000000000000000000000000000000000000000000000000
310
000000000000000000DC00000000000000002800000000000000000000000000000000000000000000000000000000000000000000000000000000000000000000DC00000000000000000000000000000000000000F500000000000000000000000000000000000000000000000000000000000000000000000000002828DC
310
28DC00F50028F5000000F5F5000000000000000000000000000000000000000000000000000000000000000000000000000000000000000000000000F5000000000000000000000000F5F5DC000000000000000000000000000000000000000000000000000000000000000000000000000000000000000000000000000000
310
0000000000000000000000DC000000000000000028000000000000000000000000000000000000000000000000000000000000000000000000000000000000000000DC0000000000000000000000000000000000000000F5000000000000000000000000000000000000000000000000000000000000000000000000000028
310
2828002828F5F50028F500F50000000000000000000000000000000000000000000000000000000000000000000000000000000000000000000000000000F500000000000000000000000028F5DC00000000000000000000000000000000000000000000000000000000000000000000000000000000000000000000000000
310
00000000000000000000000000DC0000000000000000280000000000000000000000000000000000000000000000000000000000000000000000000000000000000000DC000000000000000000000000000000000000000000F500000000000000000000000000000000000000000000000000000000000000000000000000
310
00DC2828280000F5F5F50028F5000000000000000000000000000000000000000000000000000000000000000000000000000000000000000000000000000000F500000000000000000000000028F5DC0000000000000000000000000000000000000000000000000000000000000000000000000000000000000000000000
310
000000000000000000000000000000DC000000000000000028000000000000000000000000000000000000BEBEBEBEBEBEBEBEBEBEBEBE00BEBEBEBEBEBEBEBEBEBEBE0000DC000000000000000000000000000000000000000000F50000000000000000000000000000000000000000000000000000000000000000000000
310
00000000000000000000F5F5DCF528000000000000000000000000000000000000000000000000000000000000000000000000000000000000000000000000000000F500000000000000000000000028F5DC000000000000000000000000000000000000000000000000000000000000000000000000000000000000000000
310
0000000000000000000000000000000000DC000000000000000028000000000000000000000000000000000000BEBEBEBE0000BEBEBEBEBEBE00BEBEBEBEBEBEBEBEBEBEBE00DC00000000000000000000000000000000000000000000F5000000000000000000000000000000000000000000000000000000000000000000
310
00000000000000000000000000F528DCDC000000000000000000000000000000000000000000000000000000000000000000000000000000000000000000000000000000F500000000000000000000000028F5DC00000000000000000000000000000000000000000000000000000000000000000000000000000000000000
310
00000000000000000000000000000000000000DC000000000000000028000000000000000000000000000000000000DCDCDCDCDCDCDCDCDCDCDCDCDCDCDCDCDCDCDCDCDCDCDCDCDC0000000000000000000000000000000000000000000000F500000000000000000000000000000000000000000000000000000000000000
310
00000000000000000000000000000000000000DC0000000000000000000000000000000000000000000000000000000000000000000000000000000000000000000000000000F5000000000000000000000000F5F5DC0000000000000000000000000000000000000000000000000000000000000000000000000000000000
310
000000000000000000000000000000000000000000DC000000000000000028000000000000000000000000000000000000BEBEBEBEBEBEBEBEBEBE0000000000000000000000000000000000000000000000000000000000000000000000000000F50000000000000000000000000000000000000000000000000000000000
310
00000000000000000000000000000000000000000000DCDC000000000000000000000000000000000000000000000000000000000000000000000000000000000000000000000000F500000000000000000000000028F5DC000000000000000000000000000000000000000000000000000000000000000000000000000000
310
0000000000000000000000000000000000000000000000DC000000000000000028000000000000000000000000000000000000BEBEBEBEBEBEBEBEBEBE0000000000000000000000000000000000000000000000000000000000000000000000000000F5000000000000000000000000000000000000000000000000000000
310
0000000000000000000000000000000000000000000000000000DC0000BEBEBEBE00BEBEBEBEBEBEBE00BEBEBEBEBEBEBEBEBEBEBEBE0000000000000000000000000000000000000000F500000000000000000000000028F5DC00000000000000000000000000000000000000000000000000000000000000000000000000
310
00000000000000000000000000000000000000000000000000DC000000000000000028000000000000000000000000000000000000000000000000000000000000000000000000000000000000000000000000000000000000000000000000000000000000F500000000000000000000000000000000000000000000000000
310
0000000000000000000000000000000000000000000000000000000000DCDCBEBEBEBEBEBEBEBEBEBEBE0000BEBEBEBEBEBEBEBEBEBEBEBE0000000000000000000000000000000000000000F50000000000000000000000002800DC0000000000000000000000000000000000000000000000000000000000000000000000
310
000000000000000000000000000000000000000000000000000000DC000000000000000028000000000000000000000000000000000000000000000000000000000000000000000000000000000000000000000000000000000000000000000000000000000000F50000000000000000000000000000000000000000000000
310
000000000000000000000000000000000000000000000000000000000000000000DCDCDCDCDCDCDCDCDCDCDCDCDCDCDCDCDCDCDCDCDCDCDCDCDC0000000000000000000000000000000000000000F50000000000000000000000002800DC000000000000000000000000000000000000000000000000000000000000000000
310
0000000000000000000000000000000000000000000000000000000000DC000000000000000028000000000000000000000000000000000000000000000000000000000000000000000000000000000000000000000000000000000000000000000000000000000000F5000000000000000000000000000000000000000000
310
0000000000000000000000000000000000000000000000000000000000000000000000BEBEBEBEBEBEBEBEBEBE0000000000000000000000000000000000000000000000000000000000000000000000F50000000000000000000000002800DC00000000000000000000000000000000000000000000000000000000000000
310
00000000000000000000000000000000000000000000000000000000000000DC000000000000000028000000000000000000000000000000000000000000000000000000000000000000000000000000000000000000000000000000000000000000000000000000000000F500000000000000000000000000000000000000
310
00000000000000000000000000000000000000000000000000000000000000000000000000BEBEBEBEBEBEBEBEBEBE0000000000000000000000000000000000000000000000000000000000000000000000F50000000000000000000000002800DC0000000000000000000000000000000000000000000000000000000000
310
000000000000000000000000000000000000000000000000000000000000000000DC000000000000000028000000000000000000000000000000000000000000000000000000000000000000000000000000000000000000000000000000000000000000000000000000000000F50000000000000000000000000000000000
310
000000000000000000000000000000000000000000000000000000000000000000000000000000000000000000000000000000000000000000000000000000000000000000000000000000000000000000000000F50000000000000000000000002800DC000000000000000000000000000000000000000000000000000000
310
0000000000000000000000000000000000000000000000000000000000000000000000DC000000000000000028000000000000000000000000000000000000000000000000000000000000000000000000000000000000000000000000000000000000000000000000000000000000F5000000000000000000000000000000
310
0000000000000000000000000000000000000000000000000000000000000000000000000000000000000000000000000000000000000000000000000000000000000000000000000000000000000000000000000000F50000000000000000000000002800DC00000000000000000000000000000000000000000000000000
310
00000000000000000000000000000000000000000000000000000000000000000000000000DC000000000000000028000000000000000000000000000000000000000000000000000000000000000000000000000000000000000000000000000000000000000000000000000000000000F500000000000000000000000000
310
00000000000000000000000000000000000000000000000000000000000000000000000000000000000000000000000000000000000000000000000000000000000000000000000000000000000000000000000000000000F50000000000000000000000002800DC0000000000000000000000000000000000000000000000
310
000000000000000000000000000000000000000000000000000000000000000000000000000000DC000000000000000028000000000000000000000000000000000000000000000000000000000000000000000000000000000000000000000000000000000000000000000000000000000000F5F5F5F5F5F5F5F5F5F5F5F5
310
F5F5F5F5F5F5F5F5F5F5F5F5F5F5F5F5F5F5F5F5F5F5F5F5F5F5F5F5F5F5F5F5F5F5F5F5F5F5F5F5F5F5F5F5F5F5F5F5F5F5F5F5F5F5F5F5F5F5F5F5F5F5F5F5F5F5F5F5F5F5F5F5F5F5F5F5F5F5F5F5F5F5F5F5F5F5F5F5F5F5F50000000000000000000000002800DC000000000000000000000000000000000000000000
310
0000000000000000000000000000000000000000000000000000000000000000000000000000000000DC000000000000000028000000000000000000000000000000000000000000000000000000000000000000000000000000000000000000000000000000000000000000000000000000000000F5000000000000000000
310
000000000000000000000000000000000000000000000000000000000000000000000000000000BEBEBEBEBE000000000000000000000000000000000000000000000000000000000000000000000000000000000000000000000000F50000000000000000000000002800DC00000000000000000000000000000000000000
310
00000000000000000000000000000000000000000000000000000000000000000000000000000000000000DC0000000000000000280000000000000000000000000000000000000000000000000000000000000000000000000000000000000000000000000000000000000000000000000000000000000000000000000000
310
0000000000000000000000000000000000000000000000000000000000000000000000000000000000BEBEBEBEBE000000000000000000000000000000000000000000000000000000000000000000000000000000000000000000000000000000000000000000000000002800DC0000000000000000000000000000000000
310
000000000000000000000000000000000000000000000000000000000000000000000000000000000000000000DC000000000000000028000000000000000000000000000000000000000000000000000000000000000000000000000000000000000000000000000000000000000000000000000000000000000000000000
310
000000000000000000000000000000000000000000000000000000000000000000000000000000000000000000000000000000000000000000000000000000000000000000000000000000000000000000000000000000000000000000000000000000000000000000000000002800DC000000000000000000000000000000
310
0000000000000000000000000000000000000000000000000000000000000000000000000000000000000000000000DC00000000000000002800000000000000000000000000000000000000000000000000000000000000000000000000000000000000000000000000000000000000000000000000000000000000000000
310
0000000000000000000000000000000000000000000000000000000000000000000000000000000000000000000000000000000000000000000000000000000000000000000000000000000000000000000000000000000000000000000000000000000000000000000000000000002800DC00000000000000000000000000
310
00000000000000000000000000000000000000000000000000000000000000000000000000000000000000000000000000DC0000000000000000280000000000000000000000000000000000000000000000000000000000000000000000000000000000000000000000000000000000000000000000000000000000000000
310
00000000000000000000000000000000000000000000000000000000000000000000000000000000000000000000000000000000000000000000000000000000000000000000000000000000000000000000000000000000000000000000000000000000000000000000000000000000002800DC0000000000000000000000
310
000000000000000000000000000000000000000000000000000000000000000000000000000000000000000000000000000000DC000000000000000028000000000000000000000000000000000000000000000000000000000000000000000000000000000000000000000000000000000000000000000000000000000000
310
000000000000000000000000000000000000000000000000000000000000000000000000000000000000000000000000000000000000000000000000000000000000000000000000000000000000000000000000000000000000000000000000000000000000000000000000000000000000002800DC000000000000000000
310
0000000000000000000000000000000000000000000000000000000000000000000000000000000000000000000000000000000000DC00000000000000002800000000000000000000000000000000000000000000000000000000000000000000000000000000000000000000000000000000000000000000000000000000
310
0000000000000000000000000000000000000000000000000000000000000000000000000000000000000000000000000000000000000000000000000000000000000000000000000000000000000000000000000000000000000000000000000000000000000000000000000000000000000000002800DC00000000000000
310
00000000000000000000000000000000000000000000000000000000000000000000000000000000000000000000000000000000000000DC0000000000000000280000000000000000000000000000000000000000000000000000000000000000000000000000000000000000000000000000000000000000000000000000
310
00000000000000000000000000000000000000000000000000000000000000000000000000000000000000000000000000000000000000000000000000000000000000000000000000000000000000000000000000000000000000000000000000000000000000000000000000000000000000000000002800DC0000000000
310
000000000000000000000000000000000000000000000000000000000000000000000000000000000000000000000000000000000000000000DC000000000000000028000000000000000000000000000000000000000000000000000000000000000000000000000000000000000000000000000000000000000000000000
310
000000000000000000000000000000000000000000000000000000000000000000000000000000000000000000000000000000000000000000000000000000000000000000000000000000000000000000000000000000000000000000000000000000000000000000000000000000000000000000000000002800DC000000
310
0000000000000000000000000000000000000000000000000000000000000000000000000000000000000000000000000000000000000000000000DC00000000000000002800000000000000000000000000000000000000000000000000000000000000000000000000000000000000000000000000000000000000000000
310
0000000000000000000000000000000000000000000000000000000000000000000000000000000000000000000000000000000000000000000000000000000000000000000000000000000000000000000000000000000000000000000000000000000000000000000000000000000000000000000000000000002800DC00
310
00000000000000000000000000000000000000000000000000000000000000000000000000000000000000000000000000000000000000000000000000DC0000000000000000280000000000000000000000000000000000000000000000000000000000000000000000000000000000000000000000000000000000000000
310
00000000000000000000000000000000000000000000000000000000000000000000000000000000000000000000000000000000000000000000000000000000000000000000000000000000000000000000000000000000000000000000000000000000000000000000000000000000000000000000000000000000002800
310
DC0000000000000000000000000000000000000000000000000000000000000000000000000000000000000000000000000000000000000000000000000000DC000000000000000028000000000000000000000000000000000000000000000000000000000000000000000000000000000000000000000000000000000000
310
00000000000000000000000000000000000000000000000000000000000000000000000000000000000000000000000000000000000000000000000000000000000000000000000000000000000000000000000000000000000000000000000000000000000000000000000000000000000000000000000000000000000000
310
2800DC0000000000000000000000000000000000000000000000000000000000000000000000000000000000000000000000000000000000000000000000000000DC00000000000000002800000000000000000000000000000000000000000000000000000000000000000000000000000000000000000000000000000000
310
00000000000000000000000000000000000000000000000000000000000000000000000000000000000000000000000000000000000000000000000000000000000000000000000000000000000000000000000000000000000000000000000000000000000000000000000000000000000000000000000000000000000000
310
00002800DC0000000000000000000000000000000000000000000000000000000000000000000000000000000000000000000000000000000000000000000000000000DC0000000000000000280000000000000000000000000000000000000000000000000000000000000000000000000000000000000000000000000000
310
00000000000000000000000000000000000000000000000000000000000000000000000000000000000000000000000000000000000000000000000000000000000000000000000000000000000000000000000000000000000000000000000000000000000000000000000000000000000000000000000000000000000000
310
000000002800DC0000000000000000000000000000000000000000000000000000000000000000000000000000000000000000000000000000000000000000000000000000DC000000000000000028000000000000000000000000000000000000000000000000000000000000000000000000000000000000000000000000
310
00000000000000000000000000000000000000000000000000000000000000000000000000000000000000000000000000000000000000000000000000000000000000000000000000000000000000000000000000000000000000000000000000000000000000000000000000000000000000000000000000000000000000
310
0000000000002800DC0000000000000000000000000000000000000000000000000000000000000000000000000000000000000000000000000000000000000000000000000000DC00000000000000002800000000000000000000000000000000000000000000000000000000000000000000000000000000000000000000
310
00000000000000000000000000000000000000000000000000000000000000000000000000000000000000000000000000000000000000000000000000000000000000000000000000000000000000000000000000000000000000000000000000000000000000000000000000000000000000000000000000000000000000
310
00000000000000002800DC0000000000000000000000000000000000000000000000000000000000000000000000000000000000000000000000000000000000000000000000000000DC0000000000000000280000000000000000000000000000000000000000000000000000000000000000000000000000000000000000
310
00000000000000000000000000000000000000000000000000000000000000000000000000000000000000000000000000000000000000000000000000000000000000000000000000000000000000000000000000000000000000000000000000000000000000000000000000000000000000000000000000000000000000
310
000000000000000000002800DC0000000000000000000000000000000000000000000000000000000000000000000000000000000000000000000000000000000000000000000000000000DC000000000000000028000000000000000000000000000000000000000000000000000000000000000000000000000000000000
310
00000000000000000000000000000000000000000000000000000000000000000000000000000000000000000000000000000000000000000000000000000000000000000000000000000000000000000000000000000000000000000000000000000000000000000000000000000000000000000000000000000000000000
310
0000000000000000000000002800DC0000000000000000000000000000000000000000000000000000000000000000000000000000000000000000000000000000000000000000000000000000DC00000000000000002800000000000000000000000000000000000000000000000000000000000000000000000000000000
310
00000000000000000000000000000000000000000000000000000000000000000000000000000000000000000000000000000000000000000000000000000000000000000000000000000000000000000000000000000000000000000000000000000000000000000000000000000000000000000000000000000000000000
310
00000000000000000000000000002800DC0000000000000000000000000000000000000000000000000000000000000000000000000000000000000000000000000000000000000000000000000000DC0000000000000000280000000000000000000000000000000000000000000000000000000000000000000000000000
310
00000000000000000000000000000000000000000000000000000000000000000000000000000000000000000000000000000000000000000000000000000000000000000000000000000000000000000000000000000000000000000000000000000000000000000000000000000000000000000000000000000000000000
310
000000000000000000000000000000002800DC0000000000000000000000000000000000000000000000000000000000000000000000000000000000000000000000000000000000000000000000000000DC000000000000000028000000000000000000000000000000000000000000000000000000000000000000000000
310
00000000000000000000000000000000000000000000000000000000000000000000000000000000000000000000000000000000000000000000000000000000000000000000000000000000000000000000000000000000000000000000000000000000000000000000000000000000000000000000000000000000000000
310
0000000000000000000000000000000000002800DC0000000000000000000000000000000000000000000000000000000000000000000000000000000000000000000000000000000000000000000000000000DC00000000000000002800000000000000000000000000000000000000000000000000000000000000000000
310
00000000000000000000000000000000000000000000000000000000000000000000000000000000000000000000000000000000000000000000000000000000000000000000000000000000000000000000000000000000000000000000000000000000000000000000000000000000000000000000000000000000000000
310
00000000000000000000000000000000000000002800DC0000000000000000000000000000000000000000000000000000000000000000000000000000000000000000000000000000000000000000000000000000DC0000000000000000280000000000000000000000000000000000000000000000000000000000000000
310
00000000000000000000000000000000000000000000000000000000000000000000000000000000000000000000000000000000000000000000000000000000000000000000000000000000000000000000000000000000000000000000000000000000000000000000000000000000000000000000000000000000000000
310
000000000000000000000000000000000000000000002800DC0000000000000000000000000000000000000000000000000000000000000000000000000000000000000000000000000000000000000000000000000000DC000000000000000028000000000000000000000000000000000000000000000000000000000000
310
00000000000000000000000000000000000000000000000000000000000000000000000000000000000000000000000000000000000000000000000000000000000000000000000000000000000000000000000000000000000000000000000000000000000000000000000000000000000000000000000000000000000000
310
0000000000000000000000000000000000000000000000002800DC0000000000000000000000000000000000000000000000000000000000000000000000000000000000000000000000000000000000000000000000000000DC00000000000000002800000000000000000000000000000000000000000000000000000000
310
00000000000000000000000000000000000000000000000000000000000000000000000000000000000000000000000000000000000000000000000000000000000000000000000000000000000000000000000000000000000000000000000000000000000000000000000000000000000000000000000000000000000000
310
00000000000000000000000000000000000000000000000000002800DC0000000000000000000000000000000000000000000000000000000000000000000000000000000000000000000000000000000000000000000000000000DC0000000000000000280000000000000000000000000000000000000000000000000000
310
00000000000000000000000000000000000000000000000000000000000000000000000000000000000000000000000000000000000000000000000000000000000000000000000000000000000000000000000000000000000000000000000000000000000000000000000000000000000000000000000000000000000000
310
000000000000000000000000000000000000000000000000000000002800DC0000000000000000000000000000000000000000000000000000000000000000000000000000000000000000000000000000000000000000000000000000DC000000000000000028282828282828282828282828282828282828282828282828
310
282828282828282828282828282828282828282828282828282828282828282828282828282828282828282828282828282828282828282828282828282828282828282828282828F5282828282828282828282828282828282828282828282828282828282828282828282828282828282828282828282828282828282828
310
2828282828282828282828282828282828282828282828282828282828282800DC0000000000000000000000000000000000000000000000000000000000000000000000000000000000000000000000000000000000000000000000000000DC00000000000000000000000000000000000000000000000000000000000000
310
0000000000000000000000000000000000000000000000000000000000000000000000000000000000000000000000000000000000000000000000000000000000000000000000000000F500000000000000000000000000000000000000000000000000000000000000000000000000000000000000000000000000000000
310
00000000000000000000000000000000000000000000000000000000000000000000DC0000000000000000000000000000000000000000000000000000000000000000000000000000000000000000000000000000000000000000000000000000DCDCDCDCDCDCDCDCDCDCDCDCDCDCDCDCDCDCDCDCDCDCDCDCDCDCDCDCDCDC
310
DCDCDCDCDCDCDCDCDCDCDCDCDCDCDCDCDCDCDCDCDCDCDCDCDCDCDCDCDCDCDCDCDCDCDCDCDCDCDCDCDCDCDCDCDCDCDCDCDCDCDCDCDCDCDCDCDCDCDCDCDCDCDCDCDCDCDCDCDCDCDCDCDCDCDCDCF5DCDCDCDCDCDCDCDCDCDCDCDCDCDCDCDCDCDCDCDCDCDCDCDCDCDCDCDCDCDCDCDCDCDCDCDCDCDCDCDCDCDCDCDCDCDCDCDCDCDC
310
DCDCDCDCDCDCDCDCDCDCDCDCDCDCDCDCDCDCDCDCDCDCDCDCDCDCDCDCDCDCDCDCDCDCDCDCDC000000000000000000000000000000000000000000000000000000000000000000000000000000000000000000000000000000000000000000000000000000000000000000000000000000000000000000000000000000000000
310
00000000000000000000000000000000000000000000000000000000000000000000000000000000000000000000000000000000000000000000000000000000000000000000000000000000000000000000000000000000000000000000000000000000000000000000000000000000000000000000000000000000000000
310
00000000000000000000000000000000000000000000000000000000000000000000000000000000000000000000000000000000000000000000000000000000000000000000
  0
XRECORD
  5
2636
102
{ACAD_REACTORS
330
214B
102
}
330
214B
100
AcDbXrecord
280
     1
102
MATERIAL
148
0.0
149
0.0
149
0.0
 93
        0
 94
      127
282
     0
 72
     0
 77
     0
171
     0
175
     0
179
     0
273
     0
  0
XRECORD
  5
214D
102
{ACAD_REACTORS
330
214B
102
}
330
214B
100
AcDbXrecord
280
     1
270
     1
271
     1
  0
XRECORD
  5
214C
102
{ACAD_REACTORS
330
214B
102
}
330
214B
100
AcDbXrecord
280
     1
270
     1
271
     1
  0
XRECORD
  5
2150
102
{ACAD_REACTORS
330
214B
102
}
330
214B
100
AcDbXrecord
280
     1
270
     1
271
     1
  0
XRECORD
  5
214F
102
{ACAD_REACTORS
330
214B
102
}
330
214B
100
AcDbXrecord
280
     1
270
     1
271
     1
  0
XRECORD
  5
2151
102
{ACAD_REACTORS
330
214B
102
}
330
214B
100
AcDbXrecord
280
     1
270
     1
271
     1
  0
XRECORD
  5
214E
102
{ACAD_REACTORS
330
214B
102
}
330
214B
100
AcDbXrecord
280
     1
270
     1
271
     1
  0
XRECORD
  5
2635
102
{ACAD_REACTORS
330
2143
102
}
330
2143
100
AcDbXrecord
280
     1
102
MATERIAL
148
0.0
149
0.0
149
0.0
 93
        0
 94
      127
282
     0
 72
     0
 77
     0
171
     0
175
     0
179
     0
273
     0
  0
XRECORD
  5
2145
102
{ACAD_REACTORS
330
2143
102
}
330
2143
100
AcDbXrecord
280
     1
270
     1
271
     1
  0
XRECORD
  5
2144
102
{ACAD_REACTORS
330
2143
102
}
330
2143
100
AcDbXrecord
280
     1
270
     1
271
     1
  0
XRECORD
  5
2148
102
{ACAD_REACTORS
330
2143
102
}
330
2143
100
AcDbXrecord
280
     1
270
     1
271
     1
  0
XRECORD
  5
2147
102
{ACAD_REACTORS
330
2143
102
}
330
2143
100
AcDbXrecord
280
     1
270
     1
271
     1
  0
XRECORD
  5
2149
102
{ACAD_REACTORS
330
2143
102
}
330
2143
100
AcDbXrecord
280
     1
270
     1
271
     1
  0
XRECORD
  5
2146
102
{ACAD_REACTORS
330
2143
102
}
330
2143
100
AcDbXrecord
280
     1
270
     1
271
     1
  0
XRECORD
  5
2637
102
{ACAD_REACTORS
330
2153
102
}
330
2153
100
AcDbXrecord
280
     1
102
MATERIAL
148
0.0
149
0.0
149
0.0
 93
        0
 94
      127
282
     0
 72
     0
 77
     0
171
     0
175
     0
179
     0
273
     0
  0
XRECORD
  5
2155
102
{ACAD_REACTORS
330
2153
102
}
330
2153
100
AcDbXrecord
280
     1
270
     1
271
     1
  0
XRECORD
  5
2154
102
{ACAD_REACTORS
330
2153
102
}
330
2153
100
AcDbXrecord
280
     1
270
     1
271
     1
  0
XRECORD
  5
2158
102
{ACAD_REACTORS
330
2153
102
}
330
2153
100
AcDbXrecord
280
     1
270
     1
271
     1
  0
XRECORD
  5
2157
102
{ACAD_REACTORS
330
2153
102
}
330
2153
100
AcDbXrecord
280
     1
270
     1
271
     1
  0
XRECORD
  5
2159
102
{ACAD_REACTORS
330
2153
102
}
330
2153
100
AcDbXrecord
280
     1
270
     1
271
     1
  0
XRECORD
  5
2156
102
{ACAD_REACTORS
330
2153
102
}
330
2153
100
AcDbXrecord
280
     1
270
     1
271
     1
  0
XRECORD
  5
266A
102
{ACAD_REACTORS
330
2669
102
}
330
2669
100
AcDbXrecord
280
     1
102
ACAD_ROUNDTRIP_2012_MLEADER_STYLE
298
     1
  0
CELLSTYLEMAP
  5
2633
102
{ACAD_REACTORS
330
2319
102
}
330
2319
100
AcDbCellStyleMap
 90
        3
300
CELLSTYLE
  1
TABLEFORMAT_BEGIN
 90
        5
170
     1
 91
        0
 92
    32768
 62
   257
 93
        1
300
CONTENTFORMAT
  1
CONTENTFORMAT_BEGIN
 90
        0
 91
        0
 92
      512
 93
        0
300

 40
0.0
140
1.0
 94
        5
 62
     0
340
10F4
144
0.25
309
CONTENTFORMAT_END
171
     0
 94
        0
309
TABLEFORMAT_END
  1
CELLSTYLE_BEGIN
 90
        1
 91
        1
300
_TITLE
309
CELLSTYLE_END
300
CELLSTYLE
  1
TABLEFORMAT_BEGIN
 90
        5
170
     1
 91
        0
 92
        0
 62
   257
 93
        1
300
CONTENTFORMAT
  1
CONTENTFORMAT_BEGIN
 90
        0
 91
        0
 92
      512
 93
        0
300

 40
0.0
140
1.0
 94
        5
 62
     0
340
10F4
144
0.18
309
CONTENTFORMAT_END
171
     0
 94
        0
309
TABLEFORMAT_END
  1
CELLSTYLE_BEGIN
 90
        2
 91
        1
300
_HEADER
309
CELLSTYLE_END
300
CELLSTYLE
  1
TABLEFORMAT_BEGIN
 90
        5
170
     1
 91
        0
 92
        0
 62
   257
 93
        1
300
CONTENTFORMAT
  1
CONTENTFORMAT_BEGIN
 90
        0
 91
        0
 92
      512
 93
        0
300

 40
0.0
140
1.0
 94
        2
 62
     0
340
10F4
144
0.18
309
CONTENTFORMAT_END
171
     0
 94
        0
309
TABLEFORMAT_END
  1
CELLSTYLE_BEGIN
 90
        3
 91
        2
300
_DATA
309
CELLSTYLE_END
  0
XRECORD
  5
2668
102
{ACAD_REACTORS
330
2319
102
}
330
2319
100
AcDbXrecord
280
     1
102
ACAD_ROUNDTRIP_PRE2007_TABLESTYLE
 90
      512
 91
        0
  1

 92
      512
 93
        0
  2

 94
      512
 95
        0
  3

  0
XRECORD
  5
2643
102
{ACAD_REACTORS
330
2642
102
}
330
2642
100
AcDbXrecord
280
     1
102
RTVSPost2010Prop28
280
     1
102
RTVSPost2010PropOp28
 70
     1
102
RTVSPost2010Prop29
280
     1
102
RTVSPost2010PropOp29
 70
     1
102
RTVSPost2010Prop30
280
     0
102
RTVSPost2010PropOp30
 70
     1
102
RTVSPost2010Prop31
280
     0
102
RTVSPost2010PropOp31
 70
     1
102
RTVSPost2010Prop32
280
     0
102
RTVSPost2010PropOp32
 70
     1
102
RTVSPost2010Prop33
280
     0
102
RTVSPost2010PropOp33
 70
     1
102
RTVSPost2010Prop34
280
     0
102
RTVSPost2010PropOp34
 70
     1
102
RTVSPost2010Prop35
280
     0
102
RTVSPost2010PropOp35
 70
     1
102
RTVSPost2010Prop36
280
     0
102
RTVSPost2010PropOp36
 70
     1
102
RTVSPost2010Prop37
 90
       50
102
RTVSPost2010PropOp37
 70
     1
102
RTVSPost2010Prop38
140
0.0
102
RTVSPost2010PropOp38
 70
     1
102
RTVSPost2010Prop39
140
1.0
102
RTVSPost2010PropOp39
 70
     1
102
RTVSPost2010Prop40
 90
        0
102
RTVSPost2010PropOp40
 70
     1
102
RTVSPost2010Prop41ColorIndex
 90
       18
102
RTVSPost2010Prop41ColorRGB
 90
        0
102
RTVSPost2010PropOp41
 70
     1
102
RTVSPost2010Prop42
 90
       50
102
RTVSPost2010PropOp42
 70
     1
102
RTVSPost2010Prop43
 90
        3
102
RTVSPost2010PropOp43
 70
     1
102
RTVSPost2010Prop44ColorIndex
 90
        5
102
RTVSPost2010Prop44ColorRGB
 90
      255
102
RTVSPost2010PropOp44
 70
     1
102
RTVSPost2010Prop45
280
     0
102
RTVSPost2010PropOp45
 70
     1
102
RTVSPost2010Prop46
 90
       50
102
RTVSPost2010PropOp46
 70
     1
102
RTVSPost2010Prop47
 90
       50
102
RTVSPost2010PropOp47
 70
     1
102
RTVSPost2010Prop48
 90
       50
102
RTVSPost2010PropOp48
 70
     1
102
RTVSPost2010Prop49
280
     0
102
RTVSPost2010PropOp49
 70
     1
102
RTVSPost2010Prop50
 90
       50
102
RTVSPost2010PropOp50
 70
     1
102
RTVSPost2010Prop51ColorIndex
 90
      256
102
RTVSPost2010Prop51ColorRGB
 90
-16777216
102
RTVSPost2010PropOp51
 70
     0
102
RTVSPost2010Prop52
140
1.0
102
RTVSPost2010PropOp52
 70
     0
102
RTVSPost2010Prop53
 90
        2
102
RTVSPost2010PropOp53
 70
     1
102
RTVSPost2010Prop54
  1
strokes_ogs.tif
102
RTVSPost2010PropOp54
 70
     1
102
RTVSPost2010Prop55
280
     0
102
RTVSPost2010PropOp55
 70
     1
102
RTVSPost2010Prop56
140
1.0
102
RTVSPost2010PropOp56
 70
     1
102
RTVSPost2010Prop57
140
1.0
102
RTVSPost2010PropOp57
 70
     1
102
RTVSPropertyOp0
 70
     1
102
RTVSPropertyOp1
 70
     1
102
RTVSPropertyOp2
 70
     1
102
RTVSPropertyOp3
 70
     1
102
RTVSPropertyOp4
 70
     1
102
RTVSPropertyOp5
 70
     1
102
RTVSPropertyOp6
 70
     1
102
RTVSPropertyOp7
 70
     1
102
RTVSPropertyOp8
 70
     1
102
RTVSPropertyOp9
 70
     1
102
RTVSPropertyOp10
 70
     1
102
RTVSPropertyOp11
 70
     1
102
RTVSPropertyOp12
 70
     1
102
RTVSPropertyOp13
 70
     1
102
RTVSPropertyOp14
 70
     1
102
RTVSPropertyOp15
 70
     1
102
RTVSPropertyOp16
 70
     1
102
RTVSPropertyOp17
 70
     1
102
RTVSPropertyOp18
 70
     1
102
RTVSPropertyOp19
 70
     1
102
RTVSPropertyOp20
 70
     1
102
RTVSPropertyOp21
 70
     1
102
RTVSPropertyOp22
 70
     1
102
RTVSPropertyOp23
 70
     1
102
RTVSPropertyOp24
 70
     1
102
RTVSPropertyOp25
 70
     1
102
RTVSPropertyOp26
 70
     1
102
RTVSPropertyOp27
 70
     1
102
RTVSPropertyOp28
 70
     1
102
RTVSPropertyOp29
 70
     1
102
RTVSPropertyOp30
 70
     1
102
RTVSPropertyOp31
 70
     1
102
RTVSPropertyOp32
 70
     1
102
RTVSPropertyOp33
 70
     1
102
RTVSPropertyOp34
 70
     1
102
RTVSPropertyOp35
 70
     1
102
RTVSPropertyOp36
 70
     1
102
RTVSPropertyOp37
 70
     1
102
RTVSPropertyOp38
 70
     1
102
RTVSPropertyOp39
 70
     1
102
RTVSPropertyOp40
 70
     1
102
RTVSPropertyOp41
 70
     1
102
RTVSPropertyOp42
 70
     1
102
RTVSPropertyOp43
 70
     1
102
RTVSPropertyOp44
 70
     1
102
RTVSPropertyOp45
 70
     1
102
RTVSPropertyOp46
 70
     1
102
RTVSPropertyOp47
 70
     1
102
RTVSPropertyOp48
 70
     1
102
RTVSPropertyOp49
 70
     1
102
RTVSPropertyOp50
 70
     1
102
RTVSPropertyOp51
 70
     0
102
RTVSPropertyOp52
 70
     0
102
RTVSPropertyOp53
 70
     1
102
RTVSPropertyOp54
 70
     1
102
RTVSPropertyOp55
 70
     1
102
RTVSPropertyOp56
 70
     1
102
RTVSPropertyOp57
 70
     1
102
RTVSPropertyOp58
 70
     1
102
RTVSPropertyOp59
 70
     1
102
RTVSPropertyOp60
 70
     1
102
RTVSPropertyOp61
 70
     1
102
RTVSPropertyOp62
 70
     1
  0
XRECORD
  5
2641
102
{ACAD_REACTORS
330
2640
102
}
330
2640
100
AcDbXrecord
280
     1
102
RTVSPost2010Prop28
280
     0
102
RTVSPost2010PropOp28
 70
     1
102
RTVSPost2010Prop29
280
     1
102
RTVSPost2010PropOp29
 70
     1
102
RTVSPost2010Prop30
280
     1
102
RTVSPost2010PropOp30
 70
     1
102
RTVSPost2010Prop31
280
     0
102
RTVSPost2010PropOp31
 70
     1
102
RTVSPost2010Prop32
280
     0
102
RTVSPost2010PropOp32
 70
     1
102
RTVSPost2010Prop33
280
     0
102
RTVSPost2010PropOp33
 70
     1
102
RTVSPost2010Prop34
280
     0
102
RTVSPost2010PropOp34
 70
     1
102
RTVSPost2010Prop35
280
     0
102
RTVSPost2010PropOp35
 70
     1
102
RTVSPost2010Prop36
280
     0
102
RTVSPost2010PropOp36
 70
     1
102
RTVSPost2010Prop37
 90
       50
102
RTVSPost2010PropOp37
 70
     1
102
RTVSPost2010Prop38
140
0.0
102
RTVSPost2010PropOp38
 70
     1
102
RTVSPost2010Prop39
140
1.0
102
RTVSPost2010PropOp39
 70
     1
102
RTVSPost2010Prop40
 90
        0
102
RTVSPost2010PropOp40
 70
     1
102
RTVSPost2010Prop41ColorIndex
 90
       18
102
RTVSPost2010Prop41ColorRGB
 90
        0
102
RTVSPost2010PropOp41
 70
     1
102
RTVSPost2010Prop42
 90
       50
102
RTVSPost2010PropOp42
 70
     1
102
RTVSPost2010Prop43
 90
        3
102
RTVSPost2010PropOp43
 70
     1
102
RTVSPost2010Prop44ColorIndex
 90
        5
102
RTVSPost2010Prop44ColorRGB
 90
      255
102
RTVSPost2010PropOp44
 70
     1
102
RTVSPost2010Prop45
280
     0
102
RTVSPost2010PropOp45
 70
     1
102
RTVSPost2010Prop46
 90
       50
102
RTVSPost2010PropOp46
 70
     1
102
RTVSPost2010Prop47
 90
       50
102
RTVSPost2010PropOp47
 70
     1
102
RTVSPost2010Prop48
 90
       50
102
RTVSPost2010PropOp48
 70
     1
102
RTVSPost2010Prop49
280
     0
102
RTVSPost2010PropOp49
 70
     1
102
RTVSPost2010Prop50
 90
       50
102
RTVSPost2010PropOp50
 70
     1
102
RTVSPost2010Prop51ColorIndex
 90
      256
102
RTVSPost2010Prop51ColorRGB
 90
-16777216
102
RTVSPost2010PropOp51
 70
     0
102
RTVSPost2010Prop52
140
1.0
102
RTVSPost2010PropOp52
 70
     0
102
RTVSPost2010Prop53
 90
        2
102
RTVSPost2010PropOp53
 70
     1
102
RTVSPost2010Prop54
  1
strokes_ogs.tif
102
RTVSPost2010PropOp54
 70
     1
102
RTVSPost2010Prop55
280
     0
102
RTVSPost2010PropOp55
 70
     1
102
RTVSPost2010Prop56
140
1.0
102
RTVSPost2010PropOp56
 70
     1
102
RTVSPost2010Prop57
140
1.0
102
RTVSPost2010PropOp57
 70
     1
102
RTVSPropertyOp0
 70
     1
102
RTVSPropertyOp1
 70
     1
102
RTVSPropertyOp2
 70
     1
102
RTVSPropertyOp3
 70
     1
102
RTVSPropertyOp4
 70
     1
102
RTVSPropertyOp5
 70
     1
102
RTVSPropertyOp6
 70
     1
102
RTVSPropertyOp7
 70
     1
102
RTVSPropertyOp8
 70
     1
102
RTVSPropertyOp9
 70
     1
102
RTVSPropertyOp10
 70
     1
102
RTVSPropertyOp11
 70
     1
102
RTVSPropertyOp12
 70
     1
102
RTVSPropertyOp13
 70
     1
102
RTVSPropertyOp14
 70
     1
102
RTVSPropertyOp15
 70
     1
102
RTVSPropertyOp16
 70
     1
102
RTVSPropertyOp17
 70
     1
102
RTVSPropertyOp18
 70
     1
102
RTVSPropertyOp19
 70
     1
102
RTVSPropertyOp20
 70
     1
102
RTVSPropertyOp21
 70
     1
102
RTVSPropertyOp22
 70
     1
102
RTVSPropertyOp23
 70
     1
102
RTVSPropertyOp24
 70
     1
102
RTVSPropertyOp25
 70
     1
102
RTVSPropertyOp26
 70
     1
102
RTVSPropertyOp27
 70
     1
102
RTVSPropertyOp28
 70
     1
102
RTVSPropertyOp29
 70
     1
102
RTVSPropertyOp30
 70
     1
102
RTVSPropertyOp31
 70
     1
102
RTVSPropertyOp32
 70
     1
102
RTVSPropertyOp33
 70
     1
102
RTVSPropertyOp34
 70
     1
102
RTVSPropertyOp35
 70
     1
102
RTVSPropertyOp36
 70
     1
102
RTVSPropertyOp37
 70
     1
102
RTVSPropertyOp38
 70
     1
102
RTVSPropertyOp39
 70
     1
102
RTVSPropertyOp40
 70
     1
102
RTVSPropertyOp41
 70
     1
102
RTVSPropertyOp42
 70
     1
102
RTVSPropertyOp43
 70
     1
102
RTVSPropertyOp44
 70
     1
102
RTVSPropertyOp45
 70
     1
102
RTVSPropertyOp46
 70
     1
102
RTVSPropertyOp47
 70
     1
102
RTVSPropertyOp48
 70
     1
102
RTVSPropertyOp49
 70
     1
102
RTVSPropertyOp50
 70
     1
102
RTVSPropertyOp51
 70
     0
102
RTVSPropertyOp52
 70
     0
102
RTVSPropertyOp53
 70
     1
102
RTVSPropertyOp54
 70
     1
102
RTVSPropertyOp55
 70
     1
102
RTVSPropertyOp56
 70
     1
102
RTVSPropertyOp57
 70
     1
102
RTVSPropertyOp58
 70
     1
102
RTVSPropertyOp59
 70
     1
102
RTVSPropertyOp60
 70
     1
102
RTVSPropertyOp61
 70
     1
102
RTVSPropertyOp62
 70
     1
  0
XRECORD
  5
264F
102
{ACAD_REACTORS
330
264E
102
}
330
264E
100
AcDbXrecord
280
     1
102
RTVSPost2010Prop28
280
     0
102
RTVSPost2010PropOp28
 70
     1
102
RTVSPost2010Prop29
280
     1
102
RTVSPost2010PropOp29
 70
     1
102
RTVSPost2010Prop30
280
     1
102
RTVSPost2010PropOp30
 70
     1
102
RTVSPost2010Prop31
280
     0
102
RTVSPost2010PropOp31
 70
     1
102
RTVSPost2010Prop32
280
     0
102
RTVSPost2010PropOp32
 70
     1
102
RTVSPost2010Prop33
280
     0
102
RTVSPost2010PropOp33
 70
     1
102
RTVSPost2010Prop34
280
     0
102
RTVSPost2010PropOp34
 70
     1
102
RTVSPost2010Prop35
280
     0
102
RTVSPost2010PropOp35
 70
     1
102
RTVSPost2010Prop36
280
     0
102
RTVSPost2010PropOp36
 70
     1
102
RTVSPost2010Prop37
 90
       50
102
RTVSPost2010PropOp37
 70
     1
102
RTVSPost2010Prop38
140
0.0
102
RTVSPost2010PropOp38
 70
     1
102
RTVSPost2010Prop39
140
1.0
102
RTVSPost2010PropOp39
 70
     1
102
RTVSPost2010Prop40
 90
        0
102
RTVSPost2010PropOp40
 70
     1
102
RTVSPost2010Prop41ColorIndex
 90
       18
102
RTVSPost2010Prop41ColorRGB
 90
        0
102
RTVSPost2010PropOp41
 70
     1
102
RTVSPost2010Prop42
 90
       50
102
RTVSPost2010PropOp42
 70
     1
102
RTVSPost2010Prop43
 90
        3
102
RTVSPost2010PropOp43
 70
     1
102
RTVSPost2010Prop44ColorIndex
 90
        5
102
RTVSPost2010Prop44ColorRGB
 90
      255
102
RTVSPost2010PropOp44
 70
     1
102
RTVSPost2010Prop45
280
     0
102
RTVSPost2010PropOp45
 70
     1
102
RTVSPost2010Prop46
 90
       50
102
RTVSPost2010PropOp46
 70
     1
102
RTVSPost2010Prop47
 90
       50
102
RTVSPost2010PropOp47
 70
     1
102
RTVSPost2010Prop48
 90
       50
102
RTVSPost2010PropOp48
 70
     1
102
RTVSPost2010Prop49
280
     0
102
RTVSPost2010PropOp49
 70
     1
102
RTVSPost2010Prop50
 90
       50
102
RTVSPost2010PropOp50
 70
     1
102
RTVSPost2010Prop51ColorIndex
 90
      256
102
RTVSPost2010Prop51ColorRGB
 90
-16777216
102
RTVSPost2010PropOp51
 70
     0
102
RTVSPost2010Prop52
140
1.0
102
RTVSPost2010PropOp52
 70
     0
102
RTVSPost2010Prop53
 90
        2
102
RTVSPost2010PropOp53
 70
     1
102
RTVSPost2010Prop54
  1
strokes_ogs.tif
102
RTVSPost2010PropOp54
 70
     1
102
RTVSPost2010Prop55
280
     0
102
RTVSPost2010PropOp55
 70
     1
102
RTVSPost2010Prop56
140
1.0
102
RTVSPost2010PropOp56
 70
     1
102
RTVSPost2010Prop57
140
1.0
102
RTVSPost2010PropOp57
 70
     1
102
RTVSPropertyOp0
 70
     1
102
RTVSPropertyOp1
 70
     1
102
RTVSPropertyOp2
 70
     1
102
RTVSPropertyOp3
 70
     1
102
RTVSPropertyOp4
 70
     1
102
RTVSPropertyOp5
 70
     1
102
RTVSPropertyOp6
 70
     1
102
RTVSPropertyOp7
 70
     1
102
RTVSPropertyOp8
 70
     1
102
RTVSPropertyOp9
 70
     1
102
RTVSPropertyOp10
 70
     1
102
RTVSPropertyOp11
 70
     1
102
RTVSPropertyOp12
 70
     1
102
RTVSPropertyOp13
 70
     1
102
RTVSPropertyOp14
 70
     1
102
RTVSPropertyOp15
 70
     1
102
RTVSPropertyOp16
 70
     1
102
RTVSPropertyOp17
 70
     1
102
RTVSPropertyOp18
 70
     1
102
RTVSPropertyOp19
 70
     1
102
RTVSPropertyOp20
 70
     1
102
RTVSPropertyOp21
 70
     1
102
RTVSPropertyOp22
 70
     1
102
RTVSPropertyOp23
 70
     1
102
RTVSPropertyOp24
 70
     1
102
RTVSPropertyOp25
 70
     1
102
RTVSPropertyOp26
 70
     1
102
RTVSPropertyOp27
 70
     1
102
RTVSPropertyOp28
 70
     1
102
RTVSPropertyOp29
 70
     1
102
RTVSPropertyOp30
 70
     1
102
RTVSPropertyOp31
 70
     1
102
RTVSPropertyOp32
 70
     1
102
RTVSPropertyOp33
 70
     1
102
RTVSPropertyOp34
 70
     1
102
RTVSPropertyOp35
 70
     1
102
RTVSPropertyOp36
 70
     1
102
RTVSPropertyOp37
 70
     1
102
RTVSPropertyOp38
 70
     1
102
RTVSPropertyOp39
 70
     1
102
RTVSPropertyOp40
 70
     1
102
RTVSPropertyOp41
 70
     1
102
RTVSPropertyOp42
 70
     1
102
RTVSPropertyOp43
 70
     1
102
RTVSPropertyOp44
 70
     1
102
RTVSPropertyOp45
 70
     1
102
RTVSPropertyOp46
 70
     1
102
RTVSPropertyOp47
 70
     1
102
RTVSPropertyOp48
 70
     1
102
RTVSPropertyOp49
 70
     1
102
RTVSPropertyOp50
 70
     1
102
RTVSPropertyOp51
 70
     0
102
RTVSPropertyOp52
 70
     0
102
RTVSPropertyOp53
 70
     1
102
RTVSPropertyOp54
 70
     1
102
RTVSPropertyOp55
 70
     1
102
RTVSPropertyOp56
 70
     1
102
RTVSPropertyOp57
 70
     1
102
RTVSPropertyOp58
 70
     1
102
RTVSPropertyOp59
 70
     1
102
RTVSPropertyOp60
 70
     1
102
RTVSPropertyOp61
 70
     1
102
RTVSPropertyOp62
 70
     1
  0
XRECORD
  5
2657
102
{ACAD_REACTORS
330
2656
102
}
330
2656
100
AcDbXrecord
280
     1
102
RTVSPost2010Prop28
280
     0
102
RTVSPost2010PropOp28
 70
     1
102
RTVSPost2010Prop29
280
     1
102
RTVSPost2010PropOp29
 70
     1
102
RTVSPost2010Prop30
280
     1
102
RTVSPost2010PropOp30
 70
     1
102
RTVSPost2010Prop31
280
     0
102
RTVSPost2010PropOp31
 70
     1
102
RTVSPost2010Prop32
280
     0
102
RTVSPost2010PropOp32
 70
     1
102
RTVSPost2010Prop33
280
     0
102
RTVSPost2010PropOp33
 70
     1
102
RTVSPost2010Prop34
280
     0
102
RTVSPost2010PropOp34
 70
     1
102
RTVSPost2010Prop35
280
     0
102
RTVSPost2010PropOp35
 70
     1
102
RTVSPost2010Prop36
280
     0
102
RTVSPost2010PropOp36
 70
     1
102
RTVSPost2010Prop37
 90
       50
102
RTVSPost2010PropOp37
 70
     1
102
RTVSPost2010Prop38
140
0.0
102
RTVSPost2010PropOp38
 70
     1
102
RTVSPost2010Prop39
140
1.0
102
RTVSPost2010PropOp39
 70
     1
102
RTVSPost2010Prop40
 90
        0
102
RTVSPost2010PropOp40
 70
     1
102
RTVSPost2010Prop41ColorIndex
 90
       18
102
RTVSPost2010Prop41ColorRGB
 90
        0
102
RTVSPost2010PropOp41
 70
     1
102
RTVSPost2010Prop42
 90
       50
102
RTVSPost2010PropOp42
 70
     1
102
RTVSPost2010Prop43
 90
        3
102
RTVSPost2010PropOp43
 70
     1
102
RTVSPost2010Prop44ColorIndex
 90
        5
102
RTVSPost2010Prop44ColorRGB
 90
      255
102
RTVSPost2010PropOp44
 70
     1
102
RTVSPost2010Prop45
280
     0
102
RTVSPost2010PropOp45
 70
     1
102
RTVSPost2010Prop46
 90
       50
102
RTVSPost2010PropOp46
 70
     1
102
RTVSPost2010Prop47
 90
       50
102
RTVSPost2010PropOp47
 70
     1
102
RTVSPost2010Prop48
 90
       50
102
RTVSPost2010PropOp48
 70
     1
102
RTVSPost2010Prop49
280
     0
102
RTVSPost2010PropOp49
 70
     1
102
RTVSPost2010Prop50
 90
       50
102
RTVSPost2010PropOp50
 70
     1
102
RTVSPost2010Prop51ColorIndex
 90
      256
102
RTVSPost2010Prop51ColorRGB
 90
-16777216
102
RTVSPost2010PropOp51
 70
     0
102
RTVSPost2010Prop52
140
1.0
102
RTVSPost2010PropOp52
 70
     0
102
RTVSPost2010Prop53
 90
        2
102
RTVSPost2010PropOp53
 70
     1
102
RTVSPost2010Prop54
  1
strokes_ogs.tif
102
RTVSPost2010PropOp54
 70
     1
102
RTVSPost2010Prop55
280
     0
102
RTVSPost2010PropOp55
 70
     1
102
RTVSPost2010Prop56
140
1.0
102
RTVSPost2010PropOp56
 70
     1
102
RTVSPost2010Prop57
140
1.0
102
RTVSPost2010PropOp57
 70
     1
102
RTVSPropertyOp0
 70
     1
102
RTVSPropertyOp1
 70
     1
102
RTVSPropertyOp2
 70
     1
102
RTVSPropertyOp3
 70
     1
102
RTVSPropertyOp4
 70
     1
102
RTVSPropertyOp5
 70
     1
102
RTVSPropertyOp6
 70
     1
102
RTVSPropertyOp7
 70
     1
102
RTVSPropertyOp8
 70
     1
102
RTVSPropertyOp9
 70
     1
102
RTVSPropertyOp10
 70
     1
102
RTVSPropertyOp11
 70
     1
102
RTVSPropertyOp12
 70
     1
102
RTVSPropertyOp13
 70
     1
102
RTVSPropertyOp14
 70
     1
102
RTVSPropertyOp15
 70
     1
102
RTVSPropertyOp16
 70
     1
102
RTVSPropertyOp17
 70
     1
102
RTVSPropertyOp18
 70
     1
102
RTVSPropertyOp19
 70
     1
102
RTVSPropertyOp20
 70
     1
102
RTVSPropertyOp21
 70
     1
102
RTVSPropertyOp22
 70
     1
102
RTVSPropertyOp23
 70
     1
102
RTVSPropertyOp24
 70
     1
102
RTVSPropertyOp25
 70
     1
102
RTVSPropertyOp26
 70
     1
102
RTVSPropertyOp27
 70
     1
102
RTVSPropertyOp28
 70
     1
102
RTVSPropertyOp29
 70
     1
102
RTVSPropertyOp30
 70
     1
102
RTVSPropertyOp31
 70
     1
102
RTVSPropertyOp32
 70
     1
102
RTVSPropertyOp33
 70
     1
102
RTVSPropertyOp34
 70
     1
102
RTVSPropertyOp35
 70
     1
102
RTVSPropertyOp36
 70
     1
102
RTVSPropertyOp37
 70
     1
102
RTVSPropertyOp38
 70
     1
102
RTVSPropertyOp39
 70
     1
102
RTVSPropertyOp40
 70
     1
102
RTVSPropertyOp41
 70
     1
102
RTVSPropertyOp42
 70
     1
102
RTVSPropertyOp43
 70
     1
102
RTVSPropertyOp44
 70
     1
102
RTVSPropertyOp45
 70
     1
102
RTVSPropertyOp46
 70
     1
102
RTVSPropertyOp47
 70
     1
102
RTVSPropertyOp48
 70
     1
102
RTVSPropertyOp49
 70
     1
102
RTVSPropertyOp50
 70
     1
102
RTVSPropertyOp51
 70
     0
102
RTVSPropertyOp52
 70
     0
102
RTVSPropertyOp53
 70
     1
102
RTVSPropertyOp54
 70
     1
102
RTVSPropertyOp55
 70
     1
102
RTVSPropertyOp56
 70
     1
102
RTVSPropertyOp57
 70
     1
102
RTVSPropertyOp58
 70
     1
102
RTVSPropertyOp59
 70
     1
102
RTVSPropertyOp60
 70
     1
102
RTVSPropertyOp61
 70
     1
102
RTVSPropertyOp62
 70
     1
  0
XRECORD
  5
2649
102
{ACAD_REACTORS
330
2648
102
}
330
2648
100
AcDbXrecord
280
     1
102
RTVSPost2010Prop28
280
     0
102
RTVSPost2010PropOp28
 70
     1
102
RTVSPost2010Prop29
280
     1
102
RTVSPost2010PropOp29
 70
     1
102
RTVSPost2010Prop30
280
     1
102
RTVSPost2010PropOp30
 70
     1
102
RTVSPost2010Prop31
280
     0
102
RTVSPost2010PropOp31
 70
     1
102
RTVSPost2010Prop32
280
     0
102
RTVSPost2010PropOp32
 70
     1
102
RTVSPost2010Prop33
280
     0
102
RTVSPost2010PropOp33
 70
     1
102
RTVSPost2010Prop34
280
     0
102
RTVSPost2010PropOp34
 70
     1
102
RTVSPost2010Prop35
280
     0
102
RTVSPost2010PropOp35
 70
     1
102
RTVSPost2010Prop36
280
     0
102
RTVSPost2010PropOp36
 70
     1
102
RTVSPost2010Prop37
 90
       50
102
RTVSPost2010PropOp37
 70
     1
102
RTVSPost2010Prop38
140
0.0
102
RTVSPost2010PropOp38
 70
     1
102
RTVSPost2010Prop39
140
1.0
102
RTVSPost2010PropOp39
 70
     1
102
RTVSPost2010Prop40
 90
        0
102
RTVSPost2010PropOp40
 70
     1
102
RTVSPost2010Prop41ColorIndex
 90
       18
102
RTVSPost2010Prop41ColorRGB
 90
        0
102
RTVSPost2010PropOp41
 70
     1
102
RTVSPost2010Prop42
 90
       50
102
RTVSPost2010PropOp42
 70
     1
102
RTVSPost2010Prop43
 90
        3
102
RTVSPost2010PropOp43
 70
     1
102
RTVSPost2010Prop44ColorIndex
 90
        5
102
RTVSPost2010Prop44ColorRGB
 90
      255
102
RTVSPost2010PropOp44
 70
     1
102
RTVSPost2010Prop45
280
     0
102
RTVSPost2010PropOp45
 70
     1
102
RTVSPost2010Prop46
 90
       50
102
RTVSPost2010PropOp46
 70
     1
102
RTVSPost2010Prop47
 90
       50
102
RTVSPost2010PropOp47
 70
     1
102
RTVSPost2010Prop48
 90
       50
102
RTVSPost2010PropOp48
 70
     1
102
RTVSPost2010Prop49
280
     0
102
RTVSPost2010PropOp49
 70
     1
102
RTVSPost2010Prop50
 90
       50
102
RTVSPost2010PropOp50
 70
     1
102
RTVSPost2010Prop51ColorIndex
 90
      256
102
RTVSPost2010Prop51ColorRGB
 90
-16777216
102
RTVSPost2010PropOp51
 70
     0
102
RTVSPost2010Prop52
140
1.0
102
RTVSPost2010PropOp52
 70
     0
102
RTVSPost2010Prop53
 90
        2
102
RTVSPost2010PropOp53
 70
     1
102
RTVSPost2010Prop54
  1
strokes_ogs.tif
102
RTVSPost2010PropOp54
 70
     1
102
RTVSPost2010Prop55
280
     0
102
RTVSPost2010PropOp55
 70
     1
102
RTVSPost2010Prop56
140
1.0
102
RTVSPost2010PropOp56
 70
     1
102
RTVSPost2010Prop57
140
1.0
102
RTVSPost2010PropOp57
 70
     1
102
RTVSPropertyOp0
 70
     1
102
RTVSPropertyOp1
 70
     1
102
RTVSPropertyOp2
 70
     1
102
RTVSPropertyOp3
 70
     1
102
RTVSPropertyOp4
 70
     1
102
RTVSPropertyOp5
 70
     1
102
RTVSPropertyOp6
 70
     1
102
RTVSPropertyOp7
 70
     1
102
RTVSPropertyOp8
 70
     1
102
RTVSPropertyOp9
 70
     1
102
RTVSPropertyOp10
 70
     1
102
RTVSPropertyOp11
 70
     1
102
RTVSPropertyOp12
 70
     1
102
RTVSPropertyOp13
 70
     1
102
RTVSPropertyOp14
 70
     1
102
RTVSPropertyOp15
 70
     1
102
RTVSPropertyOp16
 70
     1
102
RTVSPropertyOp17
 70
     1
102
RTVSPropertyOp18
 70
     1
102
RTVSPropertyOp19
 70
     1
102
RTVSPropertyOp20
 70
     1
102
RTVSPropertyOp21
 70
     1
102
RTVSPropertyOp22
 70
     1
102
RTVSPropertyOp23
 70
     1
102
RTVSPropertyOp24
 70
     1
102
RTVSPropertyOp25
 70
     1
102
RTVSPropertyOp26
 70
     1
102
RTVSPropertyOp27
 70
     1
102
RTVSPropertyOp28
 70
     1
102
RTVSPropertyOp29
 70
     1
102
RTVSPropertyOp30
 70
     1
102
RTVSPropertyOp31
 70
     1
102
RTVSPropertyOp32
 70
     1
102
RTVSPropertyOp33
 70
     1
102
RTVSPropertyOp34
 70
     1
102
RTVSPropertyOp35
 70
     1
102
RTVSPropertyOp36
 70
     1
102
RTVSPropertyOp37
 70
     1
102
RTVSPropertyOp38
 70
     1
102
RTVSPropertyOp39
 70
     1
102
RTVSPropertyOp40
 70
     1
102
RTVSPropertyOp41
 70
     1
102
RTVSPropertyOp42
 70
     1
102
RTVSPropertyOp43
 70
     1
102
RTVSPropertyOp44
 70
     1
102
RTVSPropertyOp45
 70
     1
102
RTVSPropertyOp46
 70
     1
102
RTVSPropertyOp47
 70
     1
102
RTVSPropertyOp48
 70
     1
102
RTVSPropertyOp49
 70
     1
102
RTVSPropertyOp50
 70
     1
102
RTVSPropertyOp51
 70
     0
102
RTVSPropertyOp52
 70
     0
102
RTVSPropertyOp53
 70
     1
102
RTVSPropertyOp54
 70
     1
102
RTVSPropertyOp55
 70
     1
102
RTVSPropertyOp56
 70
     1
102
RTVSPropertyOp57
 70
     1
102
RTVSPropertyOp58
 70
     1
102
RTVSPropertyOp59
 70
     1
102
RTVSPropertyOp60
 70
     1
102
RTVSPropertyOp61
 70
     1
102
RTVSPropertyOp62
 70
     1
  0
XRECORD
  5
264D
102
{ACAD_REACTORS
330
264C
102
}
330
264C
100
AcDbXrecord
280
     1
102
RTVSPost2010Prop28
280
     0
102
RTVSPost2010PropOp28
 70
     1
102
RTVSPost2010Prop29
280
     1
102
RTVSPost2010PropOp29
 70
     1
102
RTVSPost2010Prop30
280
     1
102
RTVSPost2010PropOp30
 70
     1
102
RTVSPost2010Prop31
280
     0
102
RTVSPost2010PropOp31
 70
     1
102
RTVSPost2010Prop32
280
     0
102
RTVSPost2010PropOp32
 70
     1
102
RTVSPost2010Prop33
280
     0
102
RTVSPost2010PropOp33
 70
     1
102
RTVSPost2010Prop34
280
     0
102
RTVSPost2010PropOp34
 70
     1
102
RTVSPost2010Prop35
280
     0
102
RTVSPost2010PropOp35
 70
     1
102
RTVSPost2010Prop36
280
     0
102
RTVSPost2010PropOp36
 70
     1
102
RTVSPost2010Prop37
 90
       50
102
RTVSPost2010PropOp37
 70
     1
102
RTVSPost2010Prop38
140
0.0
102
RTVSPost2010PropOp38
 70
     1
102
RTVSPost2010Prop39
140
1.0
102
RTVSPost2010PropOp39
 70
     1
102
RTVSPost2010Prop40
 90
        0
102
RTVSPost2010PropOp40
 70
     1
102
RTVSPost2010Prop41ColorIndex
 90
       18
102
RTVSPost2010Prop41ColorRGB
 90
        0
102
RTVSPost2010PropOp41
 70
     1
102
RTVSPost2010Prop42
 90
       50
102
RTVSPost2010PropOp42
 70
     1
102
RTVSPost2010Prop43
 90
        3
102
RTVSPost2010PropOp43
 70
     1
102
RTVSPost2010Prop44ColorIndex
 90
        5
102
RTVSPost2010Prop44ColorRGB
 90
      255
102
RTVSPost2010PropOp44
 70
     1
102
RTVSPost2010Prop45
280
     0
102
RTVSPost2010PropOp45
 70
     1
102
RTVSPost2010Prop46
 90
       50
102
RTVSPost2010PropOp46
 70
     1
102
RTVSPost2010Prop47
 90
       50
102
RTVSPost2010PropOp47
 70
     1
102
RTVSPost2010Prop48
 90
       50
102
RTVSPost2010PropOp48
 70
     1
102
RTVSPost2010Prop49
280
     0
102
RTVSPost2010PropOp49
 70
     1
102
RTVSPost2010Prop50
 90
       50
102
RTVSPost2010PropOp50
 70
     1
102
RTVSPost2010Prop51ColorIndex
 90
      256
102
RTVSPost2010Prop51ColorRGB
 90
-16777216
102
RTVSPost2010PropOp51
 70
     0
102
RTVSPost2010Prop52
140
1.0
102
RTVSPost2010PropOp52
 70
     0
102
RTVSPost2010Prop53
 90
        2
102
RTVSPost2010PropOp53
 70
     1
102
RTVSPost2010Prop54
  1
strokes_ogs.tif
102
RTVSPost2010PropOp54
 70
     1
102
RTVSPost2010Prop55
280
     0
102
RTVSPost2010PropOp55
 70
     1
102
RTVSPost2010Prop56
140
1.0
102
RTVSPost2010PropOp56
 70
     1
102
RTVSPost2010Prop57
140
1.0
102
RTVSPost2010PropOp57
 70
     1
102
RTVSPropertyOp0
 70
     1
102
RTVSPropertyOp1
 70
     1
102
RTVSPropertyOp2
 70
     1
102
RTVSPropertyOp3
 70
     1
102
RTVSPropertyOp4
 70
     1
102
RTVSPropertyOp5
 70
     1
102
RTVSPropertyOp6
 70
     1
102
RTVSPropertyOp7
 70
     1
102
RTVSPropertyOp8
 70
     1
102
RTVSPropertyOp9
 70
     1
102
RTVSPropertyOp10
 70
     1
102
RTVSPropertyOp11
 70
     1
102
RTVSPropertyOp12
 70
     1
102
RTVSPropertyOp13
 70
     1
102
RTVSPropertyOp14
 70
     1
102
RTVSPropertyOp15
 70
     1
102
RTVSPropertyOp16
 70
     1
102
RTVSPropertyOp17
 70
     1
102
RTVSPropertyOp18
 70
     1
102
RTVSPropertyOp19
 70
     1
102
RTVSPropertyOp20
 70
     1
102
RTVSPropertyOp21
 70
     1
102
RTVSPropertyOp22
 70
     1
102
RTVSPropertyOp23
 70
     1
102
RTVSPropertyOp24
 70
     1
102
RTVSPropertyOp25
 70
     1
102
RTVSPropertyOp26
 70
     1
102
RTVSPropertyOp27
 70
     1
102
RTVSPropertyOp28
 70
     1
102
RTVSPropertyOp29
 70
     1
102
RTVSPropertyOp30
 70
     1
102
RTVSPropertyOp31
 70
     1
102
RTVSPropertyOp32
 70
     1
102
RTVSPropertyOp33
 70
     1
102
RTVSPropertyOp34
 70
     1
102
RTVSPropertyOp35
 70
     1
102
RTVSPropertyOp36
 70
     1
102
RTVSPropertyOp37
 70
     1
102
RTVSPropertyOp38
 70
     1
102
RTVSPropertyOp39
 70
     1
102
RTVSPropertyOp40
 70
     1
102
RTVSPropertyOp41
 70
     1
102
RTVSPropertyOp42
 70
     1
102
RTVSPropertyOp43
 70
     1
102
RTVSPropertyOp44
 70
     1
102
RTVSPropertyOp45
 70
     1
102
RTVSPropertyOp46
 70
     1
102
RTVSPropertyOp47
 70
     1
102
RTVSPropertyOp48
 70
     1
102
RTVSPropertyOp49
 70
     1
102
RTVSPropertyOp50
 70
     1
102
RTVSPropertyOp51
 70
     0
102
RTVSPropertyOp52
 70
     0
102
RTVSPropertyOp53
 70
     1
102
RTVSPropertyOp54
 70
     1
102
RTVSPropertyOp55
 70
     1
102
RTVSPropertyOp56
 70
     1
102
RTVSPropertyOp57
 70
     1
102
RTVSPropertyOp58
 70
     1
102
RTVSPropertyOp59
 70
     1
102
RTVSPropertyOp60
 70
     1
102
RTVSPropertyOp61
 70
     1
102
RTVSPropertyOp62
 70
     1
  0
XRECORD
  5
2667
102
{ACAD_REACTORS
330
2666
102
}
330
2666
100
AcDbXrecord
280
     1
102
RTVSPost2010Prop28
280
     0
102
RTVSPost2010PropOp28
 70
     0
102
RTVSPost2010Prop29
280
     1
102
RTVSPost2010PropOp29
 70
     0
102
RTVSPost2010Prop30
280
     1
102
RTVSPost2010PropOp30
 70
     0
102
RTVSPost2010Prop31
280
     0
102
RTVSPost2010PropOp31
 70
     0
102
RTVSPost2010Prop32
280
     0
102
RTVSPost2010PropOp32
 70
     0
102
RTVSPost2010Prop33
280
     0
102
RTVSPost2010PropOp33
 70
     0
102
RTVSPost2010Prop34
280
     0
102
RTVSPost2010PropOp34
 70
     0
102
RTVSPost2010Prop35
280
     0
102
RTVSPost2010PropOp35
 70
     0
102
RTVSPost2010Prop36
280
     0
102
RTVSPost2010PropOp36
 70
     0
102
RTVSPost2010Prop37
 90
       50
102
RTVSPost2010PropOp37
 70
     0
102
RTVSPost2010Prop38
140
0.0
102
RTVSPost2010PropOp38
 70
     0
102
RTVSPost2010Prop39
140
1.0
102
RTVSPost2010PropOp39
 70
     0
102
RTVSPost2010Prop40
 90
        0
102
RTVSPost2010PropOp40
 70
     0
102
RTVSPost2010Prop41ColorIndex
 90
       18
102
RTVSPost2010Prop41ColorRGB
 90
        0
102
RTVSPost2010PropOp41
 70
     0
102
RTVSPost2010Prop42
 90
       50
102
RTVSPost2010PropOp42
 70
     0
102
RTVSPost2010Prop43
 90
        3
102
RTVSPost2010PropOp43
 70
     0
102
RTVSPost2010Prop44ColorIndex
 90
        5
102
RTVSPost2010Prop44ColorRGB
 90
      255
102
RTVSPost2010PropOp44
 70
     0
102
RTVSPost2010Prop45
280
     0
102
RTVSPost2010PropOp45
 70
     0
102
RTVSPost2010Prop46
 90
       50
102
RTVSPost2010PropOp46
 70
     0
102
RTVSPost2010Prop47
 90
       50
102
RTVSPost2010PropOp47
 70
     0
102
RTVSPost2010Prop48
 90
       50
102
RTVSPost2010PropOp48
 70
     0
102
RTVSPost2010Prop49
280
     0
102
RTVSPost2010PropOp49
 70
     0
102
RTVSPost2010Prop50
 90
       50
102
RTVSPost2010PropOp50
 70
     0
102
RTVSPost2010Prop51ColorIndex
 90
      256
102
RTVSPost2010Prop51ColorRGB
 90
-16777216
102
RTVSPost2010PropOp51
 70
     0
102
RTVSPost2010Prop52
140
1.0
102
RTVSPost2010PropOp52
 70
     0
102
RTVSPost2010Prop53
 90
        2
102
RTVSPost2010PropOp53
 70
     0
102
RTVSPost2010Prop54
  1
strokes_ogs.tif
102
RTVSPost2010PropOp54
 70
     0
102
RTVSPost2010Prop55
280
     0
102
RTVSPost2010PropOp55
 70
     0
102
RTVSPost2010Prop56
140
1.0
102
RTVSPost2010PropOp56
 70
     0
102
RTVSPost2010Prop57
140
1.0
102
RTVSPost2010PropOp57
 70
     0
102
RTVSPropertyOp0
 70
     0
102
RTVSPropertyOp1
 70
     0
102
RTVSPropertyOp2
 70
     0
102
RTVSPropertyOp3
 70
     0
102
RTVSPropertyOp4
 70
     0
102
RTVSPropertyOp5
 70
     0
102
RTVSPropertyOp6
 70
     0
102
RTVSPropertyOp7
 70
     0
102
RTVSPropertyOp8
 70
     0
102
RTVSPropertyOp9
 70
     0
102
RTVSPropertyOp10
 70
     0
102
RTVSPropertyOp11
 70
     0
102
RTVSPropertyOp12
 70
     0
102
RTVSPropertyOp13
 70
     0
102
RTVSPropertyOp14
 70
     2
102
RTVSPropertyOp15
 70
     0
102
RTVSPropertyOp16
 70
     0
102
RTVSPropertyOp17
 70
     0
102
RTVSPropertyOp18
 70
     0
102
RTVSPropertyOp19
 70
     0
102
RTVSPropertyOp20
 70
     0
102
RTVSPropertyOp21
 70
     0
102
RTVSPropertyOp22
 70
     0
102
RTVSPropertyOp23
 70
     0
102
RTVSPropertyOp24
 70
     0
102
RTVSPropertyOp25
 70
     0
102
RTVSPropertyOp26
 70
     0
102
RTVSPropertyOp27
 70
     0
102
RTVSPropertyOp28
 70
     0
102
RTVSPropertyOp29
 70
     0
102
RTVSPropertyOp30
 70
     0
102
RTVSPropertyOp31
 70
     0
102
RTVSPropertyOp32
 70
     0
102
RTVSPropertyOp33
 70
     0
102
RTVSPropertyOp34
 70
     0
102
RTVSPropertyOp35
 70
     0
102
RTVSPropertyOp36
 70
     0
102
RTVSPropertyOp37
 70
     0
102
RTVSPropertyOp38
 70
     0
102
RTVSPropertyOp39
 70
     0
102
RTVSPropertyOp40
 70
     0
102
RTVSPropertyOp41
 70
     0
102
RTVSPropertyOp42
 70
     0
102
RTVSPropertyOp43
 70
     0
102
RTVSPropertyOp44
 70
     0
102
RTVSPropertyOp45
 70
     0
102
RTVSPropertyOp46
 70
     0
102
RTVSPropertyOp47
 70
     0
102
RTVSPropertyOp48
 70
     0
102
RTVSPropertyOp49
 70
     0
102
RTVSPropertyOp50
 70
     0
102
RTVSPropertyOp51
 70
     0
102
RTVSPropertyOp52
 70
     0
102
RTVSPropertyOp53
 70
     0
102
RTVSPropertyOp54
 70
     0
102
RTVSPropertyOp55
 70
     0
102
RTVSPropertyOp56
 70
     0
102
RTVSPropertyOp57
 70
     0
102
RTVSPropertyOp58
 70
     0
102
RTVSPropertyOp59
 70
     0
102
RTVSPropertyOp60
 70
     0
102
RTVSPropertyOp61
 70
     0
102
RTVSPropertyOp62
 70
     0
  0
XRECORD
  5
2655
102
{ACAD_REACTORS
330
2654
102
}
330
2654
100
AcDbXrecord
280
     1
102
RTVSPost2010Prop28
280
     0
102
RTVSPost2010PropOp28
 70
     1
102
RTVSPost2010Prop29
280
     1
102
RTVSPost2010PropOp29
 70
     1
102
RTVSPost2010Prop30
280
     1
102
RTVSPost2010PropOp30
 70
     1
102
RTVSPost2010Prop31
280
     0
102
RTVSPost2010PropOp31
 70
     1
102
RTVSPost2010Prop32
280
     0
102
RTVSPost2010PropOp32
 70
     1
102
RTVSPost2010Prop33
280
     0
102
RTVSPost2010PropOp33
 70
     1
102
RTVSPost2010Prop34
280
     0
102
RTVSPost2010PropOp34
 70
     1
102
RTVSPost2010Prop35
280
     0
102
RTVSPost2010PropOp35
 70
     1
102
RTVSPost2010Prop36
280
     0
102
RTVSPost2010PropOp36
 70
     1
102
RTVSPost2010Prop37
 90
       50
102
RTVSPost2010PropOp37
 70
     1
102
RTVSPost2010Prop38
140
0.0
102
RTVSPost2010PropOp38
 70
     1
102
RTVSPost2010Prop39
140
1.0
102
RTVSPost2010PropOp39
 70
     1
102
RTVSPost2010Prop40
 90
        0
102
RTVSPost2010PropOp40
 70
     1
102
RTVSPost2010Prop41ColorIndex
 90
       18
102
RTVSPost2010Prop41ColorRGB
 90
        0
102
RTVSPost2010PropOp41
 70
     1
102
RTVSPost2010Prop42
 90
       50
102
RTVSPost2010PropOp42
 70
     1
102
RTVSPost2010Prop43
 90
        3
102
RTVSPost2010PropOp43
 70
     1
102
RTVSPost2010Prop44ColorIndex
 90
        5
102
RTVSPost2010Prop44ColorRGB
 90
      255
102
RTVSPost2010PropOp44
 70
     1
102
RTVSPost2010Prop45
280
     0
102
RTVSPost2010PropOp45
 70
     1
102
RTVSPost2010Prop46
 90
       50
102
RTVSPost2010PropOp46
 70
     1
102
RTVSPost2010Prop47
 90
       50
102
RTVSPost2010PropOp47
 70
     1
102
RTVSPost2010Prop48
 90
       50
102
RTVSPost2010PropOp48
 70
     1
102
RTVSPost2010Prop49
280
     0
102
RTVSPost2010PropOp49
 70
     1
102
RTVSPost2010Prop50
 90
       50
102
RTVSPost2010PropOp50
 70
     1
102
RTVSPost2010Prop51ColorIndex
 90
      256
102
RTVSPost2010Prop51ColorRGB
 90
-16777216
102
RTVSPost2010PropOp51
 70
     0
102
RTVSPost2010Prop52
140
1.0
102
RTVSPost2010PropOp52
 70
     0
102
RTVSPost2010Prop53
 90
        2
102
RTVSPost2010PropOp53
 70
     1
102
RTVSPost2010Prop54
  1
strokes_ogs.tif
102
RTVSPost2010PropOp54
 70
     1
102
RTVSPost2010Prop55
280
     0
102
RTVSPost2010PropOp55
 70
     1
102
RTVSPost2010Prop56
140
1.0
102
RTVSPost2010PropOp56
 70
     1
102
RTVSPost2010Prop57
140
1.0
102
RTVSPost2010PropOp57
 70
     1
102
RTVSPropertyOp0
 70
     1
102
RTVSPropertyOp1
 70
     1
102
RTVSPropertyOp2
 70
     1
102
RTVSPropertyOp3
 70
     1
102
RTVSPropertyOp4
 70
     1
102
RTVSPropertyOp5
 70
     1
102
RTVSPropertyOp6
 70
     1
102
RTVSPropertyOp7
 70
     1
102
RTVSPropertyOp8
 70
     1
102
RTVSPropertyOp9
 70
     1
102
RTVSPropertyOp10
 70
     1
102
RTVSPropertyOp11
 70
     1
102
RTVSPropertyOp12
 70
     1
102
RTVSPropertyOp13
 70
     1
102
RTVSPropertyOp14
 70
     1
102
RTVSPropertyOp15
 70
     1
102
RTVSPropertyOp16
 70
     1
102
RTVSPropertyOp17
 70
     1
102
RTVSPropertyOp18
 70
     1
102
RTVSPropertyOp19
 70
     1
102
RTVSPropertyOp20
 70
     1
102
RTVSPropertyOp21
 70
     1
102
RTVSPropertyOp22
 70
     1
102
RTVSPropertyOp23
 70
     1
102
RTVSPropertyOp24
 70
     1
102
RTVSPropertyOp25
 70
     1
102
RTVSPropertyOp26
 70
     1
102
RTVSPropertyOp27
 70
     1
102
RTVSPropertyOp28
 70
     1
102
RTVSPropertyOp29
 70
     1
102
RTVSPropertyOp30
 70
     1
102
RTVSPropertyOp31
 70
     1
102
RTVSPropertyOp32
 70
     1
102
RTVSPropertyOp33
 70
     1
102
RTVSPropertyOp34
 70
     1
102
RTVSPropertyOp35
 70
     1
102
RTVSPropertyOp36
 70
     1
102
RTVSPropertyOp37
 70
     1
102
RTVSPropertyOp38
 70
     1
102
RTVSPropertyOp39
 70
     1
102
RTVSPropertyOp40
 70
     1
102
RTVSPropertyOp41
 70
     1
102
RTVSPropertyOp42
 70
     1
102
RTVSPropertyOp43
 70
     1
102
RTVSPropertyOp44
 70
     1
102
RTVSPropertyOp45
 70
     1
102
RTVSPropertyOp46
 70
     1
102
RTVSPropertyOp47
 70
     1
102
RTVSPropertyOp48
 70
     1
102
RTVSPropertyOp49
 70
     1
102
RTVSPropertyOp50
 70
     1
102
RTVSPropertyOp51
 70
     0
102
RTVSPropertyOp52
 70
     0
102
RTVSPropertyOp53
 70
     1
102
RTVSPropertyOp54
 70
     1
102
RTVSPropertyOp55
 70
     1
102
RTVSPropertyOp56
 70
     1
102
RTVSPropertyOp57
 70
     1
102
RTVSPropertyOp58
 70
     1
102
RTVSPropertyOp59
 70
     1
102
RTVSPropertyOp60
 70
     1
102
RTVSPropertyOp61
 70
     1
102
RTVSPropertyOp62
 70
     1
  0
XRECORD
  5
2639
102
{ACAD_REACTORS
330
2638
102
}
330
2638
100
AcDbXrecord
280
     1
102
RTVSPost2010Prop28
280
     0
102
RTVSPost2010PropOp28
 70
     1
102
RTVSPost2010Prop29
280
     1
102
RTVSPost2010PropOp29
 70
     1
102
RTVSPost2010Prop30
280
     1
102
RTVSPost2010PropOp30
 70
     1
102
RTVSPost2010Prop31
280
     0
102
RTVSPost2010PropOp31
 70
     1
102
RTVSPost2010Prop32
280
     0
102
RTVSPost2010PropOp32
 70
     1
102
RTVSPost2010Prop33
280
     0
102
RTVSPost2010PropOp33
 70
     1
102
RTVSPost2010Prop34
280
     0
102
RTVSPost2010PropOp34
 70
     1
102
RTVSPost2010Prop35
280
     0
102
RTVSPost2010PropOp35
 70
     1
102
RTVSPost2010Prop36
280
     0
102
RTVSPost2010PropOp36
 70
     1
102
RTVSPost2010Prop37
 90
       50
102
RTVSPost2010PropOp37
 70
     1
102
RTVSPost2010Prop38
140
0.0
102
RTVSPost2010PropOp38
 70
     1
102
RTVSPost2010Prop39
140
1.0
102
RTVSPost2010PropOp39
 70
     1
102
RTVSPost2010Prop40
 90
        0
102
RTVSPost2010PropOp40
 70
     1
102
RTVSPost2010Prop41ColorIndex
 90
       18
102
RTVSPost2010Prop41ColorRGB
 90
        0
102
RTVSPost2010PropOp41
 70
     1
102
RTVSPost2010Prop42
 90
       50
102
RTVSPost2010PropOp42
 70
     1
102
RTVSPost2010Prop43
 90
        3
102
RTVSPost2010PropOp43
 70
     1
102
RTVSPost2010Prop44ColorIndex
 90
        5
102
RTVSPost2010Prop44ColorRGB
 90
      255
102
RTVSPost2010PropOp44
 70
     1
102
RTVSPost2010Prop45
280
     0
102
RTVSPost2010PropOp45
 70
     1
102
RTVSPost2010Prop46
 90
       50
102
RTVSPost2010PropOp46
 70
     1
102
RTVSPost2010Prop47
 90
       50
102
RTVSPost2010PropOp47
 70
     1
102
RTVSPost2010Prop48
 90
       50
102
RTVSPost2010PropOp48
 70
     1
102
RTVSPost2010Prop49
280
     0
102
RTVSPost2010PropOp49
 70
     1
102
RTVSPost2010Prop50
 90
       50
102
RTVSPost2010PropOp50
 70
     1
102
RTVSPost2010Prop51ColorIndex
 90
      256
102
RTVSPost2010Prop51ColorRGB
 90
-16777216
102
RTVSPost2010PropOp51
 70
     0
102
RTVSPost2010Prop52
140
1.0
102
RTVSPost2010PropOp52
 70
     0
102
RTVSPost2010Prop53
 90
        2
102
RTVSPost2010PropOp53
 70
     1
102
RTVSPost2010Prop54
  1
strokes_ogs.tif
102
RTVSPost2010PropOp54
 70
     1
102
RTVSPost2010Prop55
280
     0
102
RTVSPost2010PropOp55
 70
     1
102
RTVSPost2010Prop56
140
1.0
102
RTVSPost2010PropOp56
 70
     1
102
RTVSPost2010Prop57
140
1.0
102
RTVSPost2010PropOp57
 70
     1
102
RTVSPropertyOp0
 70
     1
102
RTVSPropertyOp1
 70
     1
102
RTVSPropertyOp2
 70
     1
102
RTVSPropertyOp3
 70
     1
102
RTVSPropertyOp4
 70
     1
102
RTVSPropertyOp5
 70
     1
102
RTVSPropertyOp6
 70
     1
102
RTVSPropertyOp7
 70
     1
102
RTVSPropertyOp8
 70
     1
102
RTVSPropertyOp9
 70
     1
102
RTVSPropertyOp10
 70
     1
102
RTVSPropertyOp11
 70
     1
102
RTVSPropertyOp12
 70
     1
102
RTVSPropertyOp13
 70
     1
102
RTVSPropertyOp14
 70
     1
102
RTVSPropertyOp15
 70
     1
102
RTVSPropertyOp16
 70
     1
102
RTVSPropertyOp17
 70
     1
102
RTVSPropertyOp18
 70
     1
102
RTVSPropertyOp19
 70
     1
102
RTVSPropertyOp20
 70
     1
102
RTVSPropertyOp21
 70
     1
102
RTVSPropertyOp22
 70
     1
102
RTVSPropertyOp23
 70
     1
102
RTVSPropertyOp24
 70
     1
102
RTVSPropertyOp25
 70
     1
102
RTVSPropertyOp26
 70
     1
102
RTVSPropertyOp27
 70
     1
102
RTVSPropertyOp28
 70
     1
102
RTVSPropertyOp29
 70
     1
102
RTVSPropertyOp30
 70
     1
102
RTVSPropertyOp31
 70
     1
102
RTVSPropertyOp32
 70
     1
102
RTVSPropertyOp33
 70
     1
102
RTVSPropertyOp34
 70
     1
102
RTVSPropertyOp35
 70
     1
102
RTVSPropertyOp36
 70
     1
102
RTVSPropertyOp37
 70
     1
102
RTVSPropertyOp38
 70
     1
102
RTVSPropertyOp39
 70
     1
102
RTVSPropertyOp40
 70
     1
102
RTVSPropertyOp41
 70
     1
102
RTVSPropertyOp42
 70
     1
102
RTVSPropertyOp43
 70
     1
102
RTVSPropertyOp44
 70
     1
102
RTVSPropertyOp45
 70
     1
102
RTVSPropertyOp46
 70
     1
102
RTVSPropertyOp47
 70
     1
102
RTVSPropertyOp48
 70
     1
102
RTVSPropertyOp49
 70
     1
102
RTVSPropertyOp50
 70
     1
102
RTVSPropertyOp51
 70
     0
102
RTVSPropertyOp52
 70
     0
102
RTVSPropertyOp53
 70
     1
102
RTVSPropertyOp54
 70
     1
102
RTVSPropertyOp55
 70
     1
102
RTVSPropertyOp56
 70
     1
102
RTVSPropertyOp57
 70
     1
102
RTVSPropertyOp58
 70
     1
102
RTVSPropertyOp59
 70
     1
102
RTVSPropertyOp60
 70
     1
102
RTVSPropertyOp61
 70
     1
102
RTVSPropertyOp62
 70
     1
  0
XRECORD
  5
263B
102
{ACAD_REACTORS
330
263A
102
}
330
263A
100
AcDbXrecord
280
     1
102
RTVSPost2010Prop28
280
     0
102
RTVSPost2010PropOp28
 70
     1
102
RTVSPost2010Prop29
280
     1
102
RTVSPost2010PropOp29
 70
     1
102
RTVSPost2010Prop30
280
     1
102
RTVSPost2010PropOp30
 70
     1
102
RTVSPost2010Prop31
280
     0
102
RTVSPost2010PropOp31
 70
     1
102
RTVSPost2010Prop32
280
     0
102
RTVSPost2010PropOp32
 70
     1
102
RTVSPost2010Prop33
280
     0
102
RTVSPost2010PropOp33
 70
     1
102
RTVSPost2010Prop34
280
     0
102
RTVSPost2010PropOp34
 70
     1
102
RTVSPost2010Prop35
280
     0
102
RTVSPost2010PropOp35
 70
     1
102
RTVSPost2010Prop36
280
     0
102
RTVSPost2010PropOp36
 70
     1
102
RTVSPost2010Prop37
 90
       50
102
RTVSPost2010PropOp37
 70
     1
102
RTVSPost2010Prop38
140
0.0
102
RTVSPost2010PropOp38
 70
     1
102
RTVSPost2010Prop39
140
1.0
102
RTVSPost2010PropOp39
 70
     1
102
RTVSPost2010Prop40
 90
        0
102
RTVSPost2010PropOp40
 70
     1
102
RTVSPost2010Prop41ColorIndex
 90
       18
102
RTVSPost2010Prop41ColorRGB
 90
        0
102
RTVSPost2010PropOp41
 70
     1
102
RTVSPost2010Prop42
 90
       50
102
RTVSPost2010PropOp42
 70
     1
102
RTVSPost2010Prop43
 90
        3
102
RTVSPost2010PropOp43
 70
     1
102
RTVSPost2010Prop44ColorIndex
 90
        5
102
RTVSPost2010Prop44ColorRGB
 90
      255
102
RTVSPost2010PropOp44
 70
     1
102
RTVSPost2010Prop45
280
     0
102
RTVSPost2010PropOp45
 70
     1
102
RTVSPost2010Prop46
 90
       50
102
RTVSPost2010PropOp46
 70
     1
102
RTVSPost2010Prop47
 90
       50
102
RTVSPost2010PropOp47
 70
     1
102
RTVSPost2010Prop48
 90
       50
102
RTVSPost2010PropOp48
 70
     1
102
RTVSPost2010Prop49
280
     0
102
RTVSPost2010PropOp49
 70
     1
102
RTVSPost2010Prop50
 90
       50
102
RTVSPost2010PropOp50
 70
     1
102
RTVSPost2010Prop51ColorIndex
 90
      256
102
RTVSPost2010Prop51ColorRGB
 90
-16777216
102
RTVSPost2010PropOp51
 70
     0
102
RTVSPost2010Prop52
140
1.0
102
RTVSPost2010PropOp52
 70
     0
102
RTVSPost2010Prop53
 90
        2
102
RTVSPost2010PropOp53
 70
     1
102
RTVSPost2010Prop54
  1
strokes_ogs.tif
102
RTVSPost2010PropOp54
 70
     1
102
RTVSPost2010Prop55
280
     0
102
RTVSPost2010PropOp55
 70
     1
102
RTVSPost2010Prop56
140
1.0
102
RTVSPost2010PropOp56
 70
     1
102
RTVSPost2010Prop57
140
1.0
102
RTVSPost2010PropOp57
 70
     1
102
RTVSPropertyOp0
 70
     1
102
RTVSPropertyOp1
 70
     1
102
RTVSPropertyOp2
 70
     1
102
RTVSPropertyOp3
 70
     1
102
RTVSPropertyOp4
 70
     1
102
RTVSPropertyOp5
 70
     1
102
RTVSPropertyOp6
 70
     1
102
RTVSPropertyOp7
 70
     1
102
RTVSPropertyOp8
 70
     1
102
RTVSPropertyOp9
 70
     1
102
RTVSPropertyOp10
 70
     1
102
RTVSPropertyOp11
 70
     1
102
RTVSPropertyOp12
 70
     1
102
RTVSPropertyOp13
 70
     1
102
RTVSPropertyOp14
 70
     1
102
RTVSPropertyOp15
 70
     1
102
RTVSPropertyOp16
 70
     1
102
RTVSPropertyOp17
 70
     1
102
RTVSPropertyOp18
 70
     1
102
RTVSPropertyOp19
 70
     1
102
RTVSPropertyOp20
 70
     1
102
RTVSPropertyOp21
 70
     1
102
RTVSPropertyOp22
 70
     1
102
RTVSPropertyOp23
 70
     1
102
RTVSPropertyOp24
 70
     1
102
RTVSPropertyOp25
 70
     1
102
RTVSPropertyOp26
 70
     1
102
RTVSPropertyOp27
 70
     1
102
RTVSPropertyOp28
 70
     1
102
RTVSPropertyOp29
 70
     1
102
RTVSPropertyOp30
 70
     1
102
RTVSPropertyOp31
 70
     1
102
RTVSPropertyOp32
 70
     1
102
RTVSPropertyOp33
 70
     1
102
RTVSPropertyOp34
 70
     1
102
RTVSPropertyOp35
 70
     1
102
RTVSPropertyOp36
 70
     1
102
RTVSPropertyOp37
 70
     1
102
RTVSPropertyOp38
 70
     1
102
RTVSPropertyOp39
 70
     1
102
RTVSPropertyOp40
 70
     1
102
RTVSPropertyOp41
 70
     1
102
RTVSPropertyOp42
 70
     1
102
RTVSPropertyOp43
 70
     1
102
RTVSPropertyOp44
 70
     1
102
RTVSPropertyOp45
 70
     1
102
RTVSPropertyOp46
 70
     1
102
RTVSPropertyOp47
 70
     1
102
RTVSPropertyOp48
 70
     1
102
RTVSPropertyOp49
 70
     1
102
RTVSPropertyOp50
 70
     1
102
RTVSPropertyOp51
 70
     0
102
RTVSPropertyOp52
 70
     0
102
RTVSPropertyOp53
 70
     1
102
RTVSPropertyOp54
 70
     1
102
RTVSPropertyOp55
 70
     1
102
RTVSPropertyOp56
 70
     1
102
RTVSPropertyOp57
 70
     1
102
RTVSPropertyOp58
 70
     1
102
RTVSPropertyOp59
 70
     1
102
RTVSPropertyOp60
 70
     1
102
RTVSPropertyOp61
 70
     1
102
RTVSPropertyOp62
 70
     1
  0
XRECORD
  5
263D
102
{ACAD_REACTORS
330
263C
102
}
330
263C
100
AcDbXrecord
280
     1
102
RTVSPost2010Prop28
280
     0
102
RTVSPost2010PropOp28
 70
     1
102
RTVSPost2010Prop29
280
     1
102
RTVSPost2010PropOp29
 70
     1
102
RTVSPost2010Prop30
280
     1
102
RTVSPost2010PropOp30
 70
     1
102
RTVSPost2010Prop31
280
     0
102
RTVSPost2010PropOp31
 70
     1
102
RTVSPost2010Prop32
280
     0
102
RTVSPost2010PropOp32
 70
     1
102
RTVSPost2010Prop33
280
     0
102
RTVSPost2010PropOp33
 70
     1
102
RTVSPost2010Prop34
280
     0
102
RTVSPost2010PropOp34
 70
     1
102
RTVSPost2010Prop35
280
     0
102
RTVSPost2010PropOp35
 70
     1
102
RTVSPost2010Prop36
280
     0
102
RTVSPost2010PropOp36
 70
     1
102
RTVSPost2010Prop37
 90
       50
102
RTVSPost2010PropOp37
 70
     1
102
RTVSPost2010Prop38
140
0.0
102
RTVSPost2010PropOp38
 70
     1
102
RTVSPost2010Prop39
140
1.0
102
RTVSPost2010PropOp39
 70
     1
102
RTVSPost2010Prop40
 90
        0
102
RTVSPost2010PropOp40
 70
     1
102
RTVSPost2010Prop41ColorIndex
 90
       18
102
RTVSPost2010Prop41ColorRGB
 90
        0
102
RTVSPost2010PropOp41
 70
     1
102
RTVSPost2010Prop42
 90
       50
102
RTVSPost2010PropOp42
 70
     1
102
RTVSPost2010Prop43
 90
        3
102
RTVSPost2010PropOp43
 70
     1
102
RTVSPost2010Prop44ColorIndex
 90
        5
102
RTVSPost2010Prop44ColorRGB
 90
      255
102
RTVSPost2010PropOp44
 70
     1
102
RTVSPost2010Prop45
280
     0
102
RTVSPost2010PropOp45
 70
     1
102
RTVSPost2010Prop46
 90
       50
102
RTVSPost2010PropOp46
 70
     1
102
RTVSPost2010Prop47
 90
       50
102
RTVSPost2010PropOp47
 70
     1
102
RTVSPost2010Prop48
 90
       50
102
RTVSPost2010PropOp48
 70
     1
102
RTVSPost2010Prop49
280
     0
102
RTVSPost2010PropOp49
 70
     1
102
RTVSPost2010Prop50
 90
       50
102
RTVSPost2010PropOp50
 70
     1
102
RTVSPost2010Prop51ColorIndex
 90
      256
102
RTVSPost2010Prop51ColorRGB
 90
-16777216
102
RTVSPost2010PropOp51
 70
     0
102
RTVSPost2010Prop52
140
1.0
102
RTVSPost2010PropOp52
 70
     0
102
RTVSPost2010Prop53
 90
        2
102
RTVSPost2010PropOp53
 70
     1
102
RTVSPost2010Prop54
  1
strokes_ogs.tif
102
RTVSPost2010PropOp54
 70
     1
102
RTVSPost2010Prop55
280
     0
102
RTVSPost2010PropOp55
 70
     1
102
RTVSPost2010Prop56
140
1.0
102
RTVSPost2010PropOp56
 70
     1
102
RTVSPost2010Prop57
140
1.0
102
RTVSPost2010PropOp57
 70
     1
102
RTVSPropertyOp0
 70
     1
102
RTVSPropertyOp1
 70
     1
102
RTVSPropertyOp2
 70
     1
102
RTVSPropertyOp3
 70
     1
102
RTVSPropertyOp4
 70
     1
102
RTVSPropertyOp5
 70
     1
102
RTVSPropertyOp6
 70
     1
102
RTVSPropertyOp7
 70
     1
102
RTVSPropertyOp8
 70
     1
102
RTVSPropertyOp9
 70
     1
102
RTVSPropertyOp10
 70
     1
102
RTVSPropertyOp11
 70
     1
102
RTVSPropertyOp12
 70
     1
102
RTVSPropertyOp13
 70
     1
102
RTVSPropertyOp14
 70
     1
102
RTVSPropertyOp15
 70
     1
102
RTVSPropertyOp16
 70
     1
102
RTVSPropertyOp17
 70
     1
102
RTVSPropertyOp18
 70
     1
102
RTVSPropertyOp19
 70
     1
102
RTVSPropertyOp20
 70
     1
102
RTVSPropertyOp21
 70
     1
102
RTVSPropertyOp22
 70
     1
102
RTVSPropertyOp23
 70
     1
102
RTVSPropertyOp24
 70
     1
102
RTVSPropertyOp25
 70
     1
102
RTVSPropertyOp26
 70
     1
102
RTVSPropertyOp27
 70
     1
102
RTVSPropertyOp28
 70
     1
102
RTVSPropertyOp29
 70
     1
102
RTVSPropertyOp30
 70
     1
102
RTVSPropertyOp31
 70
     1
102
RTVSPropertyOp32
 70
     1
102
RTVSPropertyOp33
 70
     1
102
RTVSPropertyOp34
 70
     1
102
RTVSPropertyOp35
 70
     1
102
RTVSPropertyOp36
 70
     1
102
RTVSPropertyOp37
 70
     1
102
RTVSPropertyOp38
 70
     1
102
RTVSPropertyOp39
 70
     1
102
RTVSPropertyOp40
 70
     1
102
RTVSPropertyOp41
 70
     1
102
RTVSPropertyOp42
 70
     1
102
RTVSPropertyOp43
 70
     1
102
RTVSPropertyOp44
 70
     1
102
RTVSPropertyOp45
 70
     1
102
RTVSPropertyOp46
 70
     1
102
RTVSPropertyOp47
 70
     1
102
RTVSPropertyOp48
 70
     1
102
RTVSPropertyOp49
 70
     1
102
RTVSPropertyOp50
 70
     1
102
RTVSPropertyOp51
 70
     0
102
RTVSPropertyOp52
 70
     0
102
RTVSPropertyOp53
 70
     1
102
RTVSPropertyOp54
 70
     1
102
RTVSPropertyOp55
 70
     1
102
RTVSPropertyOp56
 70
     1
102
RTVSPropertyOp57
 70
     1
102
RTVSPropertyOp58
 70
     1
102
RTVSPropertyOp59
 70
     1
102
RTVSPropertyOp60
 70
     1
102
RTVSPropertyOp61
 70
     1
102
RTVSPropertyOp62
 70
     1
  0
XRECORD
  5
263F
102
{ACAD_REACTORS
330
263E
102
}
330
263E
100
AcDbXrecord
280
     1
102
RTVSPost2010Prop28
280
     0
102
RTVSPost2010PropOp28
 70
     1
102
RTVSPost2010Prop29
280
     1
102
RTVSPost2010PropOp29
 70
     1
102
RTVSPost2010Prop30
280
     1
102
RTVSPost2010PropOp30
 70
     1
102
RTVSPost2010Prop31
280
     0
102
RTVSPost2010PropOp31
 70
     1
102
RTVSPost2010Prop32
280
     0
102
RTVSPost2010PropOp32
 70
     1
102
RTVSPost2010Prop33
280
     0
102
RTVSPost2010PropOp33
 70
     1
102
RTVSPost2010Prop34
280
     0
102
RTVSPost2010PropOp34
 70
     1
102
RTVSPost2010Prop35
280
     0
102
RTVSPost2010PropOp35
 70
     1
102
RTVSPost2010Prop36
280
     0
102
RTVSPost2010PropOp36
 70
     1
102
RTVSPost2010Prop37
 90
       50
102
RTVSPost2010PropOp37
 70
     1
102
RTVSPost2010Prop38
140
0.0
102
RTVSPost2010PropOp38
 70
     1
102
RTVSPost2010Prop39
140
1.0
102
RTVSPost2010PropOp39
 70
     1
102
RTVSPost2010Prop40
 90
        0
102
RTVSPost2010PropOp40
 70
     1
102
RTVSPost2010Prop41ColorIndex
 90
       18
102
RTVSPost2010Prop41ColorRGB
 90
        0
102
RTVSPost2010PropOp41
 70
     1
102
RTVSPost2010Prop42
 90
       50
102
RTVSPost2010PropOp42
 70
     1
102
RTVSPost2010Prop43
 90
        3
102
RTVSPost2010PropOp43
 70
     1
102
RTVSPost2010Prop44ColorIndex
 90
        5
102
RTVSPost2010Prop44ColorRGB
 90
      255
102
RTVSPost2010PropOp44
 70
     1
102
RTVSPost2010Prop45
280
     0
102
RTVSPost2010PropOp45
 70
     1
102
RTVSPost2010Prop46
 90
       50
102
RTVSPost2010PropOp46
 70
     1
102
RTVSPost2010Prop47
 90
       50
102
RTVSPost2010PropOp47
 70
     1
102
RTVSPost2010Prop48
 90
       50
102
RTVSPost2010PropOp48
 70
     1
102
RTVSPost2010Prop49
280
     0
102
RTVSPost2010PropOp49
 70
     1
102
RTVSPost2010Prop50
 90
       50
102
RTVSPost2010PropOp50
 70
     1
102
RTVSPost2010Prop51ColorIndex
 90
      256
102
RTVSPost2010Prop51ColorRGB
 90
-16777216
102
RTVSPost2010PropOp51
 70
     0
102
RTVSPost2010Prop52
140
1.0
102
RTVSPost2010PropOp52
 70
     0
102
RTVSPost2010Prop53
 90
        2
102
RTVSPost2010PropOp53
 70
     1
102
RTVSPost2010Prop54
  1
strokes_ogs.tif
102
RTVSPost2010PropOp54
 70
     1
102
RTVSPost2010Prop55
280
     0
102
RTVSPost2010PropOp55
 70
     1
102
RTVSPost2010Prop56
140
1.0
102
RTVSPost2010PropOp56
 70
     1
102
RTVSPost2010Prop57
140
1.0
102
RTVSPost2010PropOp57
 70
     1
102
RTVSPropertyOp0
 70
     1
102
RTVSPropertyOp1
 70
     1
102
RTVSPropertyOp2
 70
     1
102
RTVSPropertyOp3
 70
     1
102
RTVSPropertyOp4
 70
     1
102
RTVSPropertyOp5
 70
     1
102
RTVSPropertyOp6
 70
     1
102
RTVSPropertyOp7
 70
     1
102
RTVSPropertyOp8
 70
     1
102
RTVSPropertyOp9
 70
     1
102
RTVSPropertyOp10
 70
     1
102
RTVSPropertyOp11
 70
     1
102
RTVSPropertyOp12
 70
     1
102
RTVSPropertyOp13
 70
     1
102
RTVSPropertyOp14
 70
     1
102
RTVSPropertyOp15
 70
     1
102
RTVSPropertyOp16
 70
     1
102
RTVSPropertyOp17
 70
     1
102
RTVSPropertyOp18
 70
     1
102
RTVSPropertyOp19
 70
     1
102
RTVSPropertyOp20
 70
     1
102
RTVSPropertyOp21
 70
     1
102
RTVSPropertyOp22
 70
     1
102
RTVSPropertyOp23
 70
     1
102
RTVSPropertyOp24
 70
     1
102
RTVSPropertyOp25
 70
     1
102
RTVSPropertyOp26
 70
     1
102
RTVSPropertyOp27
 70
     1
102
RTVSPropertyOp28
 70
     1
102
RTVSPropertyOp29
 70
     1
102
RTVSPropertyOp30
 70
     1
102
RTVSPropertyOp31
 70
     1
102
RTVSPropertyOp32
 70
     1
102
RTVSPropertyOp33
 70
     1
102
RTVSPropertyOp34
 70
     1
102
RTVSPropertyOp35
 70
     1
102
RTVSPropertyOp36
 70
     1
102
RTVSPropertyOp37
 70
     1
102
RTVSPropertyOp38
 70
     1
102
RTVSPropertyOp39
 70
     1
102
RTVSPropertyOp40
 70
     1
102
RTVSPropertyOp41
 70
     1
102
RTVSPropertyOp42
 70
     1
102
RTVSPropertyOp43
 70
     1
102
RTVSPropertyOp44
 70
     1
102
RTVSPropertyOp45
 70
     1
102
RTVSPropertyOp46
 70
     1
102
RTVSPropertyOp47
 70
     1
102
RTVSPropertyOp48
 70
     1
102
RTVSPropertyOp49
 70
     1
102
RTVSPropertyOp50
 70
     1
102
RTVSPropertyOp51
 70
     0
102
RTVSPropertyOp52
 70
     0
102
RTVSPropertyOp53
 70
     1
102
RTVSPropertyOp54
 70
     1
102
RTVSPropertyOp55
 70
     1
102
RTVSPropertyOp56
 70
     1
102
RTVSPropertyOp57
 70
     1
102
RTVSPropertyOp58
 70
     1
102
RTVSPropertyOp59
 70
     1
102
RTVSPropertyOp60
 70
     1
102
RTVSPropertyOp61
 70
     1
102
RTVSPropertyOp62
 70
     1
  0
XRECORD
  5
2647
102
{ACAD_REACTORS
330
2646
102
}
330
2646
100
AcDbXrecord
280
     1
102
RTVSPost2010Prop28
280
     0
102
RTVSPost2010PropOp28
 70
     1
102
RTVSPost2010Prop29
280
     1
102
RTVSPost2010PropOp29
 70
     1
102
RTVSPost2010Prop30
280
     1
102
RTVSPost2010PropOp30
 70
     1
102
RTVSPost2010Prop31
280
     0
102
RTVSPost2010PropOp31
 70
     1
102
RTVSPost2010Prop32
280
     0
102
RTVSPost2010PropOp32
 70
     1
102
RTVSPost2010Prop33
280
     0
102
RTVSPost2010PropOp33
 70
     1
102
RTVSPost2010Prop34
280
     0
102
RTVSPost2010PropOp34
 70
     1
102
RTVSPost2010Prop35
280
     0
102
RTVSPost2010PropOp35
 70
     1
102
RTVSPost2010Prop36
280
     0
102
RTVSPost2010PropOp36
 70
     1
102
RTVSPost2010Prop37
 90
       50
102
RTVSPost2010PropOp37
 70
     1
102
RTVSPost2010Prop38
140
0.0
102
RTVSPost2010PropOp38
 70
     1
102
RTVSPost2010Prop39
140
1.0
102
RTVSPost2010PropOp39
 70
     1
102
RTVSPost2010Prop40
 90
        0
102
RTVSPost2010PropOp40
 70
     1
102
RTVSPost2010Prop41ColorIndex
 90
       18
102
RTVSPost2010Prop41ColorRGB
 90
        0
102
RTVSPost2010PropOp41
 70
     1
102
RTVSPost2010Prop42
 90
       50
102
RTVSPost2010PropOp42
 70
     1
102
RTVSPost2010Prop43
 90
        3
102
RTVSPost2010PropOp43
 70
     1
102
RTVSPost2010Prop44ColorIndex
 90
        5
102
RTVSPost2010Prop44ColorRGB
 90
      255
102
RTVSPost2010PropOp44
 70
     1
102
RTVSPost2010Prop45
280
     0
102
RTVSPost2010PropOp45
 70
     1
102
RTVSPost2010Prop46
 90
       50
102
RTVSPost2010PropOp46
 70
     1
102
RTVSPost2010Prop47
 90
       50
102
RTVSPost2010PropOp47
 70
     1
102
RTVSPost2010Prop48
 90
       50
102
RTVSPost2010PropOp48
 70
     1
102
RTVSPost2010Prop49
280
     0
102
RTVSPost2010PropOp49
 70
     1
102
RTVSPost2010Prop50
 90
       50
102
RTVSPost2010PropOp50
 70
     1
102
RTVSPost2010Prop51ColorIndex
 90
      256
102
RTVSPost2010Prop51ColorRGB
 90
-16777216
102
RTVSPost2010PropOp51
 70
     0
102
RTVSPost2010Prop52
140
1.0
102
RTVSPost2010PropOp52
 70
     0
102
RTVSPost2010Prop53
 90
        2
102
RTVSPost2010PropOp53
 70
     1
102
RTVSPost2010Prop54
  1
strokes_ogs.tif
102
RTVSPost2010PropOp54
 70
     1
102
RTVSPost2010Prop55
280
     0
102
RTVSPost2010PropOp55
 70
     1
102
RTVSPost2010Prop56
140
1.0
102
RTVSPost2010PropOp56
 70
     1
102
RTVSPost2010Prop57
140
1.0
102
RTVSPost2010PropOp57
 70
     1
102
RTVSPropertyOp0
 70
     1
102
RTVSPropertyOp1
 70
     1
102
RTVSPropertyOp2
 70
     1
102
RTVSPropertyOp3
 70
     1
102
RTVSPropertyOp4
 70
     1
102
RTVSPropertyOp5
 70
     1
102
RTVSPropertyOp6
 70
     1
102
RTVSPropertyOp7
 70
     1
102
RTVSPropertyOp8
 70
     1
102
RTVSPropertyOp9
 70
     1
102
RTVSPropertyOp10
 70
     1
102
RTVSPropertyOp11
 70
     1
102
RTVSPropertyOp12
 70
     1
102
RTVSPropertyOp13
 70
     1
102
RTVSPropertyOp14
 70
     1
102
RTVSPropertyOp15
 70
     1
102
RTVSPropertyOp16
 70
     1
102
RTVSPropertyOp17
 70
     1
102
RTVSPropertyOp18
 70
     1
102
RTVSPropertyOp19
 70
     1
102
RTVSPropertyOp20
 70
     1
102
RTVSPropertyOp21
 70
     1
102
RTVSPropertyOp22
 70
     1
102
RTVSPropertyOp23
 70
     1
102
RTVSPropertyOp24
 70
     1
102
RTVSPropertyOp25
 70
     1
102
RTVSPropertyOp26
 70
     1
102
RTVSPropertyOp27
 70
     1
102
RTVSPropertyOp28
 70
     1
102
RTVSPropertyOp29
 70
     1
102
RTVSPropertyOp30
 70
     1
102
RTVSPropertyOp31
 70
     1
102
RTVSPropertyOp32
 70
     1
102
RTVSPropertyOp33
 70
     1
102
RTVSPropertyOp34
 70
     1
102
RTVSPropertyOp35
 70
     1
102
RTVSPropertyOp36
 70
     1
102
RTVSPropertyOp37
 70
     1
102
RTVSPropertyOp38
 70
     1
102
RTVSPropertyOp39
 70
     1
102
RTVSPropertyOp40
 70
     1
102
RTVSPropertyOp41
 70
     1
102
RTVSPropertyOp42
 70
     1
102
RTVSPropertyOp43
 70
     1
102
RTVSPropertyOp44
 70
     1
102
RTVSPropertyOp45
 70
     1
102
RTVSPropertyOp46
 70
     1
102
RTVSPropertyOp47
 70
     1
102
RTVSPropertyOp48
 70
     1
102
RTVSPropertyOp49
 70
     1
102
RTVSPropertyOp50
 70
     1
102
RTVSPropertyOp51
 70
     0
102
RTVSPropertyOp52
 70
     0
102
RTVSPropertyOp53
 70
     1
102
RTVSPropertyOp54
 70
     1
102
RTVSPropertyOp55
 70
     1
102
RTVSPropertyOp56
 70
     1
102
RTVSPropertyOp57
 70
     1
102
RTVSPropertyOp58
 70
     1
102
RTVSPropertyOp59
 70
     1
102
RTVSPropertyOp60
 70
     1
102
RTVSPropertyOp61
 70
     1
102
RTVSPropertyOp62
 70
     1
  0
XRECORD
  5
2663
102
{ACAD_REACTORS
330
2662
102
}
330
2662
100
AcDbXrecord
280
     1
102
RTVSPost2010Prop28
280
     0
102
RTVSPost2010PropOp28
 70
     0
102
RTVSPost2010Prop29
280
     1
102
RTVSPost2010PropOp29
 70
     0
102
RTVSPost2010Prop30
280
     1
102
RTVSPost2010PropOp30
 70
     0
102
RTVSPost2010Prop31
280
     0
102
RTVSPost2010PropOp31
 70
     0
102
RTVSPost2010Prop32
280
     0
102
RTVSPost2010PropOp32
 70
     0
102
RTVSPost2010Prop33
280
     0
102
RTVSPost2010PropOp33
 70
     0
102
RTVSPost2010Prop34
280
     0
102
RTVSPost2010PropOp34
 70
     0
102
RTVSPost2010Prop35
280
     0
102
RTVSPost2010PropOp35
 70
     0
102
RTVSPost2010Prop36
280
     0
102
RTVSPost2010PropOp36
 70
     0
102
RTVSPost2010Prop37
 90
       50
102
RTVSPost2010PropOp37
 70
     0
102
RTVSPost2010Prop38
140
0.0
102
RTVSPost2010PropOp38
 70
     0
102
RTVSPost2010Prop39
140
1.0
102
RTVSPost2010PropOp39
 70
     0
102
RTVSPost2010Prop40
 90
        0
102
RTVSPost2010PropOp40
 70
     0
102
RTVSPost2010Prop41ColorIndex
 90
       18
102
RTVSPost2010Prop41ColorRGB
 90
        0
102
RTVSPost2010PropOp41
 70
     0
102
RTVSPost2010Prop42
 90
       50
102
RTVSPost2010PropOp42
 70
     0
102
RTVSPost2010Prop43
 90
        3
102
RTVSPost2010PropOp43
 70
     0
102
RTVSPost2010Prop44ColorIndex
 90
        5
102
RTVSPost2010Prop44ColorRGB
 90
      255
102
RTVSPost2010PropOp44
 70
     0
102
RTVSPost2010Prop45
280
     0
102
RTVSPost2010PropOp45
 70
     0
102
RTVSPost2010Prop46
 90
       50
102
RTVSPost2010PropOp46
 70
     0
102
RTVSPost2010Prop47
 90
       50
102
RTVSPost2010PropOp47
 70
     0
102
RTVSPost2010Prop48
 90
       50
102
RTVSPost2010PropOp48
 70
     0
102
RTVSPost2010Prop49
280
     0
102
RTVSPost2010PropOp49
 70
     0
102
RTVSPost2010Prop50
 90
       50
102
RTVSPost2010PropOp50
 70
     0
102
RTVSPost2010Prop51ColorIndex
 90
      256
102
RTVSPost2010Prop51ColorRGB
 90
-16777216
102
RTVSPost2010PropOp51
 70
     0
102
RTVSPost2010Prop52
140
1.0
102
RTVSPost2010PropOp52
 70
     0
102
RTVSPost2010Prop53
 90
        2
102
RTVSPost2010PropOp53
 70
     0
102
RTVSPost2010Prop54
  1
strokes_ogs.tif
102
RTVSPost2010PropOp54
 70
     0
102
RTVSPost2010Prop55
280
     0
102
RTVSPost2010PropOp55
 70
     0
102
RTVSPost2010Prop56
140
1.0
102
RTVSPost2010PropOp56
 70
     0
102
RTVSPost2010Prop57
140
1.0
102
RTVSPost2010PropOp57
 70
     0
102
RTVSPropertyOp0
 70
     0
102
RTVSPropertyOp1
 70
     0
102
RTVSPropertyOp2
 70
     0
102
RTVSPropertyOp3
 70
     0
102
RTVSPropertyOp4
 70
     0
102
RTVSPropertyOp5
 70
     0
102
RTVSPropertyOp6
 70
     0
102
RTVSPropertyOp7
 70
     0
102
RTVSPropertyOp8
 70
     0
102
RTVSPropertyOp9
 70
     0
102
RTVSPropertyOp10
 70
     0
102
RTVSPropertyOp11
 70
     0
102
RTVSPropertyOp12
 70
     0
102
RTVSPropertyOp13
 70
     0
102
RTVSPropertyOp14
 70
     2
102
RTVSPropertyOp15
 70
     0
102
RTVSPropertyOp16
 70
     0
102
RTVSPropertyOp17
 70
     0
102
RTVSPropertyOp18
 70
     0
102
RTVSPropertyOp19
 70
     0
102
RTVSPropertyOp20
 70
     0
102
RTVSPropertyOp21
 70
     0
102
RTVSPropertyOp22
 70
     0
102
RTVSPropertyOp23
 70
     0
102
RTVSPropertyOp24
 70
     0
102
RTVSPropertyOp25
 70
     0
102
RTVSPropertyOp26
 70
     0
102
RTVSPropertyOp27
 70
     0
102
RTVSPropertyOp28
 70
     0
102
RTVSPropertyOp29
 70
     0
102
RTVSPropertyOp30
 70
     0
102
RTVSPropertyOp31
 70
     0
102
RTVSPropertyOp32
 70
     0
102
RTVSPropertyOp33
 70
     0
102
RTVSPropertyOp34
 70
     0
102
RTVSPropertyOp35
 70
     0
102
RTVSPropertyOp36
 70
     0
102
RTVSPropertyOp37
 70
     0
102
RTVSPropertyOp38
 70
     0
102
RTVSPropertyOp39
 70
     0
102
RTVSPropertyOp40
 70
     0
102
RTVSPropertyOp41
 70
     0
102
RTVSPropertyOp42
 70
     0
102
RTVSPropertyOp43
 70
     0
102
RTVSPropertyOp44
 70
     0
102
RTVSPropertyOp45
 70
     0
102
RTVSPropertyOp46
 70
     0
102
RTVSPropertyOp47
 70
     0
102
RTVSPropertyOp48
 70
     0
102
RTVSPropertyOp49
 70
     0
102
RTVSPropertyOp50
 70
     0
102
RTVSPropertyOp51
 70
     0
102
RTVSPropertyOp52
 70
     0
102
RTVSPropertyOp53
 70
     0
102
RTVSPropertyOp54
 70
     0
102
RTVSPropertyOp55
 70
     0
102
RTVSPropertyOp56
 70
     0
102
RTVSPropertyOp57
 70
     0
102
RTVSPropertyOp58
 70
     0
102
RTVSPropertyOp59
 70
     0
102
RTVSPropertyOp60
 70
     0
102
RTVSPropertyOp61
 70
     0
102
RTVSPropertyOp62
 70
     0
  0
XRECORD
  5
2653
102
{ACAD_REACTORS
330
2652
102
}
330
2652
100
AcDbXrecord
280
     1
102
RTVSPost2010Prop28
280
     0
102
RTVSPost2010PropOp28
 70
     1
102
RTVSPost2010Prop29
280
     1
102
RTVSPost2010PropOp29
 70
     1
102
RTVSPost2010Prop30
280
     1
102
RTVSPost2010PropOp30
 70
     1
102
RTVSPost2010Prop31
280
     0
102
RTVSPost2010PropOp31
 70
     1
102
RTVSPost2010Prop32
280
     0
102
RTVSPost2010PropOp32
 70
     1
102
RTVSPost2010Prop33
280
     0
102
RTVSPost2010PropOp33
 70
     1
102
RTVSPost2010Prop34
280
     0
102
RTVSPost2010PropOp34
 70
     1
102
RTVSPost2010Prop35
280
     0
102
RTVSPost2010PropOp35
 70
     1
102
RTVSPost2010Prop36
280
     0
102
RTVSPost2010PropOp36
 70
     1
102
RTVSPost2010Prop37
 90
       50
102
RTVSPost2010PropOp37
 70
     1
102
RTVSPost2010Prop38
140
0.0
102
RTVSPost2010PropOp38
 70
     1
102
RTVSPost2010Prop39
140
1.0
102
RTVSPost2010PropOp39
 70
     1
102
RTVSPost2010Prop40
 90
        0
102
RTVSPost2010PropOp40
 70
     1
102
RTVSPost2010Prop41ColorIndex
 90
       18
102
RTVSPost2010Prop41ColorRGB
 90
        0
102
RTVSPost2010PropOp41
 70
     1
102
RTVSPost2010Prop42
 90
       50
102
RTVSPost2010PropOp42
 70
     1
102
RTVSPost2010Prop43
 90
        3
102
RTVSPost2010PropOp43
 70
     1
102
RTVSPost2010Prop44ColorIndex
 90
        5
102
RTVSPost2010Prop44ColorRGB
 90
      255
102
RTVSPost2010PropOp44
 70
     1
102
RTVSPost2010Prop45
280
     0
102
RTVSPost2010PropOp45
 70
     1
102
RTVSPost2010Prop46
 90
       50
102
RTVSPost2010PropOp46
 70
     1
102
RTVSPost2010Prop47
 90
       50
102
RTVSPost2010PropOp47
 70
     1
102
RTVSPost2010Prop48
 90
       50
102
RTVSPost2010PropOp48
 70
     1
102
RTVSPost2010Prop49
280
     0
102
RTVSPost2010PropOp49
 70
     1
102
RTVSPost2010Prop50
 90
       50
102
RTVSPost2010PropOp50
 70
     1
102
RTVSPost2010Prop51ColorIndex
 90
      256
102
RTVSPost2010Prop51ColorRGB
 90
-16777216
102
RTVSPost2010PropOp51
 70
     0
102
RTVSPost2010Prop52
140
1.0
102
RTVSPost2010PropOp52
 70
     0
102
RTVSPost2010Prop53
 90
        2
102
RTVSPost2010PropOp53
 70
     1
102
RTVSPost2010Prop54
  1
strokes_ogs.tif
102
RTVSPost2010PropOp54
 70
     1
102
RTVSPost2010Prop55
280
     0
102
RTVSPost2010PropOp55
 70
     1
102
RTVSPost2010Prop56
140
1.0
102
RTVSPost2010PropOp56
 70
     1
102
RTVSPost2010Prop57
140
1.0
102
RTVSPost2010PropOp57
 70
     1
102
RTVSPropertyOp0
 70
     1
102
RTVSPropertyOp1
 70
     1
102
RTVSPropertyOp2
 70
     1
102
RTVSPropertyOp3
 70
     1
102
RTVSPropertyOp4
 70
     1
102
RTVSPropertyOp5
 70
     1
102
RTVSPropertyOp6
 70
     1
102
RTVSPropertyOp7
 70
     1
102
RTVSPropertyOp8
 70
     1
102
RTVSPropertyOp9
 70
     1
102
RTVSPropertyOp10
 70
     1
102
RTVSPropertyOp11
 70
     1
102
RTVSPropertyOp12
 70
     1
102
RTVSPropertyOp13
 70
     1
102
RTVSPropertyOp14
 70
     1
102
RTVSPropertyOp15
 70
     1
102
RTVSPropertyOp16
 70
     1
102
RTVSPropertyOp17
 70
     1
102
RTVSPropertyOp18
 70
     1
102
RTVSPropertyOp19
 70
     1
102
RTVSPropertyOp20
 70
     1
102
RTVSPropertyOp21
 70
     1
102
RTVSPropertyOp22
 70
     1
102
RTVSPropertyOp23
 70
     1
102
RTVSPropertyOp24
 70
     1
102
RTVSPropertyOp25
 70
     1
102
RTVSPropertyOp26
 70
     1
102
RTVSPropertyOp27
 70
     1
102
RTVSPropertyOp28
 70
     1
102
RTVSPropertyOp29
 70
     1
102
RTVSPropertyOp30
 70
     1
102
RTVSPropertyOp31
 70
     1
102
RTVSPropertyOp32
 70
     1
102
RTVSPropertyOp33
 70
     1
102
RTVSPropertyOp34
 70
     1
102
RTVSPropertyOp35
 70
     1
102
RTVSPropertyOp36
 70
     1
102
RTVSPropertyOp37
 70
     1
102
RTVSPropertyOp38
 70
     1
102
RTVSPropertyOp39
 70
     1
102
RTVSPropertyOp40
 70
     1
102
RTVSPropertyOp41
 70
     1
102
RTVSPropertyOp42
 70
     1
102
RTVSPropertyOp43
 70
     1
102
RTVSPropertyOp44
 70
     1
102
RTVSPropertyOp45
 70
     1
102
RTVSPropertyOp46
 70
     1
102
RTVSPropertyOp47
 70
     1
102
RTVSPropertyOp48
 70
     1
102
RTVSPropertyOp49
 70
     1
102
RTVSPropertyOp50
 70
     1
102
RTVSPropertyOp51
 70
     0
102
RTVSPropertyOp52
 70
     0
102
RTVSPropertyOp53
 70
     1
102
RTVSPropertyOp54
 70
     1
102
RTVSPropertyOp55
 70
     1
102
RTVSPropertyOp56
 70
     1
102
RTVSPropertyOp57
 70
     1
102
RTVSPropertyOp58
 70
     1
102
RTVSPropertyOp59
 70
     1
102
RTVSPropertyOp60
 70
     1
102
RTVSPropertyOp61
 70
     1
102
RTVSPropertyOp62
 70
     1
  0
XRECORD
  5
2665
102
{ACAD_REACTORS
330
2664
102
}
330
2664
100
AcDbXrecord
280
     1
102
RTVSPost2010Prop28
280
     0
102
RTVSPost2010PropOp28
 70
     0
102
RTVSPost2010Prop29
280
     1
102
RTVSPost2010PropOp29
 70
     0
102
RTVSPost2010Prop30
280
     1
102
RTVSPost2010PropOp30
 70
     0
102
RTVSPost2010Prop31
280
     0
102
RTVSPost2010PropOp31
 70
     0
102
RTVSPost2010Prop32
280
     0
102
RTVSPost2010PropOp32
 70
     0
102
RTVSPost2010Prop33
280
     0
102
RTVSPost2010PropOp33
 70
     0
102
RTVSPost2010Prop34
280
     0
102
RTVSPost2010PropOp34
 70
     0
102
RTVSPost2010Prop35
280
     0
102
RTVSPost2010PropOp35
 70
     0
102
RTVSPost2010Prop36
280
     0
102
RTVSPost2010PropOp36
 70
     0
102
RTVSPost2010Prop37
 90
       50
102
RTVSPost2010PropOp37
 70
     0
102
RTVSPost2010Prop38
140
0.0
102
RTVSPost2010PropOp38
 70
     0
102
RTVSPost2010Prop39
140
1.0
102
RTVSPost2010PropOp39
 70
     0
102
RTVSPost2010Prop40
 90
        0
102
RTVSPost2010PropOp40
 70
     0
102
RTVSPost2010Prop41ColorIndex
 90
       18
102
RTVSPost2010Prop41ColorRGB
 90
        0
102
RTVSPost2010PropOp41
 70
     0
102
RTVSPost2010Prop42
 90
       50
102
RTVSPost2010PropOp42
 70
     0
102
RTVSPost2010Prop43
 90
        3
102
RTVSPost2010PropOp43
 70
     0
102
RTVSPost2010Prop44ColorIndex
 90
        5
102
RTVSPost2010Prop44ColorRGB
 90
      255
102
RTVSPost2010PropOp44
 70
     0
102
RTVSPost2010Prop45
280
     0
102
RTVSPost2010PropOp45
 70
     0
102
RTVSPost2010Prop46
 90
       50
102
RTVSPost2010PropOp46
 70
     0
102
RTVSPost2010Prop47
 90
       50
102
RTVSPost2010PropOp47
 70
     0
102
RTVSPost2010Prop48
 90
       50
102
RTVSPost2010PropOp48
 70
     0
102
RTVSPost2010Prop49
280
     0
102
RTVSPost2010PropOp49
 70
     0
102
RTVSPost2010Prop50
 90
       50
102
RTVSPost2010PropOp50
 70
     0
102
RTVSPost2010Prop51ColorIndex
 90
      256
102
RTVSPost2010Prop51ColorRGB
 90
-16777216
102
RTVSPost2010PropOp51
 70
     0
102
RTVSPost2010Prop52
140
1.0
102
RTVSPost2010PropOp52
 70
     0
102
RTVSPost2010Prop53
 90
        2
102
RTVSPost2010PropOp53
 70
     0
102
RTVSPost2010Prop54
  1
strokes_ogs.tif
102
RTVSPost2010PropOp54
 70
     0
102
RTVSPost2010Prop55
280
     0
102
RTVSPost2010PropOp55
 70
     0
102
RTVSPost2010Prop56
140
1.0
102
RTVSPost2010PropOp56
 70
     0
102
RTVSPost2010Prop57
140
1.0
102
RTVSPost2010PropOp57
 70
     0
102
RTVSPropertyOp0
 70
     0
102
RTVSPropertyOp1
 70
     0
102
RTVSPropertyOp2
 70
     0
102
RTVSPropertyOp3
 70
     0
102
RTVSPropertyOp4
 70
     0
102
RTVSPropertyOp5
 70
     0
102
RTVSPropertyOp6
 70
     0
102
RTVSPropertyOp7
 70
     0
102
RTVSPropertyOp8
 70
     0
102
RTVSPropertyOp9
 70
     0
102
RTVSPropertyOp10
 70
     0
102
RTVSPropertyOp11
 70
     0
102
RTVSPropertyOp12
 70
     0
102
RTVSPropertyOp13
 70
     0
102
RTVSPropertyOp14
 70
     2
102
RTVSPropertyOp15
 70
     0
102
RTVSPropertyOp16
 70
     0
102
RTVSPropertyOp17
 70
     0
102
RTVSPropertyOp18
 70
     0
102
RTVSPropertyOp19
 70
     0
102
RTVSPropertyOp20
 70
     0
102
RTVSPropertyOp21
 70
     0
102
RTVSPropertyOp22
 70
     0
102
RTVSPropertyOp23
 70
     0
102
RTVSPropertyOp24
 70
     0
102
RTVSPropertyOp25
 70
     0
102
RTVSPropertyOp26
 70
     0
102
RTVSPropertyOp27
 70
     0
102
RTVSPropertyOp28
 70
     0
102
RTVSPropertyOp29
 70
     0
102
RTVSPropertyOp30
 70
     0
102
RTVSPropertyOp31
 70
     0
102
RTVSPropertyOp32
 70
     0
102
RTVSPropertyOp33
 70
     0
102
RTVSPropertyOp34
 70
     0
102
RTVSPropertyOp35
 70
     0
102
RTVSPropertyOp36
 70
     0
102
RTVSPropertyOp37
 70
     0
102
RTVSPropertyOp38
 70
     0
102
RTVSPropertyOp39
 70
     0
102
RTVSPropertyOp40
 70
     0
102
RTVSPropertyOp41
 70
     0
102
RTVSPropertyOp42
 70
     0
102
RTVSPropertyOp43
 70
     0
102
RTVSPropertyOp44
 70
     0
102
RTVSPropertyOp45
 70
     0
102
RTVSPropertyOp46
 70
     0
102
RTVSPropertyOp47
 70
     0
102
RTVSPropertyOp48
 70
     0
102
RTVSPropertyOp49
 70
     0
102
RTVSPropertyOp50
 70
     0
102
RTVSPropertyOp51
 70
     0
102
RTVSPropertyOp52
 70
     0
102
RTVSPropertyOp53
 70
     0
102
RTVSPropertyOp54
 70
     0
102
RTVSPropertyOp55
 70
     0
102
RTVSPropertyOp56
 70
     0
102
RTVSPropertyOp57
 70
     0
102
RTVSPropertyOp58
 70
     0
102
RTVSPropertyOp59
 70
     0
102
RTVSPropertyOp60
 70
     0
102
RTVSPropertyOp61
 70
     0
102
RTVSPropertyOp62
 70
     0
  0
XRECORD
  5
264B
102
{ACAD_REACTORS
330
264A
102
}
330
264A
100
AcDbXrecord
280
     1
102
RTVSPost2010Prop28
280
     0
102
RTVSPost2010PropOp28
 70
     1
102
RTVSPost2010Prop29
280
     1
102
RTVSPost2010PropOp29
 70
     1
102
RTVSPost2010Prop30
280
     1
102
RTVSPost2010PropOp30
 70
     1
102
RTVSPost2010Prop31
280
     0
102
RTVSPost2010PropOp31
 70
     1
102
RTVSPost2010Prop32
280
     0
102
RTVSPost2010PropOp32
 70
     1
102
RTVSPost2010Prop33
280
     0
102
RTVSPost2010PropOp33
 70
     1
102
RTVSPost2010Prop34
280
     0
102
RTVSPost2010PropOp34
 70
     1
102
RTVSPost2010Prop35
280
     0
102
RTVSPost2010PropOp35
 70
     1
102
RTVSPost2010Prop36
280
     0
102
RTVSPost2010PropOp36
 70
     1
102
RTVSPost2010Prop37
 90
       50
102
RTVSPost2010PropOp37
 70
     1
102
RTVSPost2010Prop38
140
0.0
102
RTVSPost2010PropOp38
 70
     1
102
RTVSPost2010Prop39
140
1.0
102
RTVSPost2010PropOp39
 70
     1
102
RTVSPost2010Prop40
 90
        0
102
RTVSPost2010PropOp40
 70
     1
102
RTVSPost2010Prop41ColorIndex
 90
       18
102
RTVSPost2010Prop41ColorRGB
 90
        0
102
RTVSPost2010PropOp41
 70
     1
102
RTVSPost2010Prop42
 90
       50
102
RTVSPost2010PropOp42
 70
     1
102
RTVSPost2010Prop43
 90
        3
102
RTVSPost2010PropOp43
 70
     1
102
RTVSPost2010Prop44ColorIndex
 90
        5
102
RTVSPost2010Prop44ColorRGB
 90
      255
102
RTVSPost2010PropOp44
 70
     1
102
RTVSPost2010Prop45
280
     0
102
RTVSPost2010PropOp45
 70
     1
102
RTVSPost2010Prop46
 90
       50
102
RTVSPost2010PropOp46
 70
     1
102
RTVSPost2010Prop47
 90
       50
102
RTVSPost2010PropOp47
 70
     1
102
RTVSPost2010Prop48
 90
       50
102
RTVSPost2010PropOp48
 70
     1
102
RTVSPost2010Prop49
280
     0
102
RTVSPost2010PropOp49
 70
     1
102
RTVSPost2010Prop50
 90
       50
102
RTVSPost2010PropOp50
 70
     1
102
RTVSPost2010Prop51ColorIndex
 90
      256
102
RTVSPost2010Prop51ColorRGB
 90
-16777216
102
RTVSPost2010PropOp51
 70
     0
102
RTVSPost2010Prop52
140
1.0
102
RTVSPost2010PropOp52
 70
     0
102
RTVSPost2010Prop53
 90
        2
102
RTVSPost2010PropOp53
 70
     1
102
RTVSPost2010Prop54
  1
strokes_ogs.tif
102
RTVSPost2010PropOp54
 70
     1
102
RTVSPost2010Prop55
280
     0
102
RTVSPost2010PropOp55
 70
     1
102
RTVSPost2010Prop56
140
1.0
102
RTVSPost2010PropOp56
 70
     1
102
RTVSPost2010Prop57
140
1.0
102
RTVSPost2010PropOp57
 70
     1
102
RTVSPropertyOp0
 70
     1
102
RTVSPropertyOp1
 70
     1
102
RTVSPropertyOp2
 70
     1
102
RTVSPropertyOp3
 70
     1
102
RTVSPropertyOp4
 70
     1
102
RTVSPropertyOp5
 70
     1
102
RTVSPropertyOp6
 70
     1
102
RTVSPropertyOp7
 70
     1
102
RTVSPropertyOp8
 70
     1
102
RTVSPropertyOp9
 70
     1
102
RTVSPropertyOp10
 70
     1
102
RTVSPropertyOp11
 70
     1
102
RTVSPropertyOp12
 70
     1
102
RTVSPropertyOp13
 70
     1
102
RTVSPropertyOp14
 70
     1
102
RTVSPropertyOp15
 70
     1
102
RTVSPropertyOp16
 70
     1
102
RTVSPropertyOp17
 70
     1
102
RTVSPropertyOp18
 70
     1
102
RTVSPropertyOp19
 70
     1
102
RTVSPropertyOp20
 70
     1
102
RTVSPropertyOp21
 70
     1
102
RTVSPropertyOp22
 70
     1
102
RTVSPropertyOp23
 70
     1
102
RTVSPropertyOp24
 70
     1
102
RTVSPropertyOp25
 70
     1
102
RTVSPropertyOp26
 70
     1
102
RTVSPropertyOp27
 70
     1
102
RTVSPropertyOp28
 70
     1
102
RTVSPropertyOp29
 70
     1
102
RTVSPropertyOp30
 70
     1
102
RTVSPropertyOp31
 70
     1
102
RTVSPropertyOp32
 70
     1
102
RTVSPropertyOp33
 70
     1
102
RTVSPropertyOp34
 70
     1
102
RTVSPropertyOp35
 70
     1
102
RTVSPropertyOp36
 70
     1
102
RTVSPropertyOp37
 70
     1
102
RTVSPropertyOp38
 70
     1
102
RTVSPropertyOp39
 70
     1
102
RTVSPropertyOp40
 70
     1
102
RTVSPropertyOp41
 70
     1
102
RTVSPropertyOp42
 70
     1
102
RTVSPropertyOp43
 70
     1
102
RTVSPropertyOp44
 70
     1
102
RTVSPropertyOp45
 70
     1
102
RTVSPropertyOp46
 70
     1
102
RTVSPropertyOp47
 70
     1
102
RTVSPropertyOp48
 70
     1
102
RTVSPropertyOp49
 70
     1
102
RTVSPropertyOp50
 70
     1
102
RTVSPropertyOp51
 70
     0
102
RTVSPropertyOp52
 70
     0
102
RTVSPropertyOp53
 70
     1
102
RTVSPropertyOp54
 70
     1
102
RTVSPropertyOp55
 70
     1
102
RTVSPropertyOp56
 70
     1
102
RTVSPropertyOp57
 70
     1
102
RTVSPropertyOp58
 70
     1
102
RTVSPropertyOp59
 70
     1
102
RTVSPropertyOp60
 70
     1
102
RTVSPropertyOp61
 70
     1
102
RTVSPropertyOp62
 70
     1
  0
XRECORD
  5
2661
102
{ACAD_REACTORS
330
2660
102
}
330
2660
100
AcDbXrecord
280
     1
102
RTVSPost2010Prop28
280
     0
102
RTVSPost2010PropOp28
 70
     1
102
RTVSPost2010Prop29
280
     1
102
RTVSPost2010PropOp29
 70
     1
102
RTVSPost2010Prop30
280
     1
102
RTVSPost2010PropOp30
 70
     1
102
RTVSPost2010Prop31
280
     0
102
RTVSPost2010PropOp31
 70
     1
102
RTVSPost2010Prop32
280
     0
102
RTVSPost2010PropOp32
 70
     1
102
RTVSPost2010Prop33
280
     0
102
RTVSPost2010PropOp33
 70
     1
102
RTVSPost2010Prop34
280
     0
102
RTVSPost2010PropOp34
 70
     1
102
RTVSPost2010Prop35
280
     0
102
RTVSPost2010PropOp35
 70
     1
102
RTVSPost2010Prop36
280
     0
102
RTVSPost2010PropOp36
 70
     1
102
RTVSPost2010Prop37
 90
       50
102
RTVSPost2010PropOp37
 70
     1
102
RTVSPost2010Prop38
140
0.0
102
RTVSPost2010PropOp38
 70
     1
102
RTVSPost2010Prop39
140
1.0
102
RTVSPost2010PropOp39
 70
     1
102
RTVSPost2010Prop40
 90
        0
102
RTVSPost2010PropOp40
 70
     1
102
RTVSPost2010Prop41ColorIndex
 90
       18
102
RTVSPost2010Prop41ColorRGB
 90
        0
102
RTVSPost2010PropOp41
 70
     1
102
RTVSPost2010Prop42
 90
       50
102
RTVSPost2010PropOp42
 70
     1
102
RTVSPost2010Prop43
 90
        3
102
RTVSPost2010PropOp43
 70
     1
102
RTVSPost2010Prop44ColorIndex
 90
        5
102
RTVSPost2010Prop44ColorRGB
 90
      255
102
RTVSPost2010PropOp44
 70
     1
102
RTVSPost2010Prop45
280
     0
102
RTVSPost2010PropOp45
 70
     1
102
RTVSPost2010Prop46
 90
       50
102
RTVSPost2010PropOp46
 70
     1
102
RTVSPost2010Prop47
 90
       50
102
RTVSPost2010PropOp47
 70
     1
102
RTVSPost2010Prop48
 90
       50
102
RTVSPost2010PropOp48
 70
     1
102
RTVSPost2010Prop49
280
     0
102
RTVSPost2010PropOp49
 70
     1
102
RTVSPost2010Prop50
 90
       50
102
RTVSPost2010PropOp50
 70
     1
102
RTVSPost2010Prop51ColorIndex
 90
      256
102
RTVSPost2010Prop51ColorRGB
 90
-16777216
102
RTVSPost2010PropOp51
 70
     0
102
RTVSPost2010Prop52
140
1.0
102
RTVSPost2010PropOp52
 70
     0
102
RTVSPost2010Prop53
 90
        2
102
RTVSPost2010PropOp53
 70
     1
102
RTVSPost2010Prop54
  1
strokes_ogs.tif
102
RTVSPost2010PropOp54
 70
     1
102
RTVSPost2010Prop55
280
     0
102
RTVSPost2010PropOp55
 70
     1
102
RTVSPost2010Prop56
140
1.0
102
RTVSPost2010PropOp56
 70
     1
102
RTVSPost2010Prop57
140
1.0
102
RTVSPost2010PropOp57
 70
     1
102
RTVSPropertyOp0
 70
     1
102
RTVSPropertyOp1
 70
     1
102
RTVSPropertyOp2
 70
     1
102
RTVSPropertyOp3
 70
     1
102
RTVSPropertyOp4
 70
     1
102
RTVSPropertyOp5
 70
     1
102
RTVSPropertyOp6
 70
     1
102
RTVSPropertyOp7
 70
     1
102
RTVSPropertyOp8
 70
     1
102
RTVSPropertyOp9
 70
     1
102
RTVSPropertyOp10
 70
     1
102
RTVSPropertyOp11
 70
     1
102
RTVSPropertyOp12
 70
     1
102
RTVSPropertyOp13
 70
     1
102
RTVSPropertyOp14
 70
     1
102
RTVSPropertyOp15
 70
     1
102
RTVSPropertyOp16
 70
     1
102
RTVSPropertyOp17
 70
     1
102
RTVSPropertyOp18
 70
     1
102
RTVSPropertyOp19
 70
     1
102
RTVSPropertyOp20
 70
     1
102
RTVSPropertyOp21
 70
     1
102
RTVSPropertyOp22
 70
     1
102
RTVSPropertyOp23
 70
     1
102
RTVSPropertyOp24
 70
     1
102
RTVSPropertyOp25
 70
     1
102
RTVSPropertyOp26
 70
     1
102
RTVSPropertyOp27
 70
     1
102
RTVSPropertyOp28
 70
     1
102
RTVSPropertyOp29
 70
     1
102
RTVSPropertyOp30
 70
     1
102
RTVSPropertyOp31
 70
     1
102
RTVSPropertyOp32
 70
     1
102
RTVSPropertyOp33
 70
     1
102
RTVSPropertyOp34
 70
     1
102
RTVSPropertyOp35
 70
     1
102
RTVSPropertyOp36
 70
     1
102
RTVSPropertyOp37
 70
     1
102
RTVSPropertyOp38
 70
     1
102
RTVSPropertyOp39
 70
     1
102
RTVSPropertyOp40
 70
     1
102
RTVSPropertyOp41
 70
     1
102
RTVSPropertyOp42
 70
     1
102
RTVSPropertyOp43
 70
     1
102
RTVSPropertyOp44
 70
     1
102
RTVSPropertyOp45
 70
     1
102
RTVSPropertyOp46
 70
     1
102
RTVSPropertyOp47
 70
     1
102
RTVSPropertyOp48
 70
     1
102
RTVSPropertyOp49
 70
     1
102
RTVSPropertyOp50
 70
     1
102
RTVSPropertyOp51
 70
     0
102
RTVSPropertyOp52
 70
     0
102
RTVSPropertyOp53
 70
     1
102
RTVSPropertyOp54
 70
     1
102
RTVSPropertyOp55
 70
     1
102
RTVSPropertyOp56
 70
     1
102
RTVSPropertyOp57
 70
     1
102
RTVSPropertyOp58
 70
     1
102
RTVSPropertyOp59
 70
     1
102
RTVSPropertyOp60
 70
     1
102
RTVSPropertyOp61
 70
     1
102
RTVSPropertyOp62
 70
     1
  0
XRECORD
  5
265F
102
{ACAD_REACTORS
330
265E
102
}
330
265E
100
AcDbXrecord
280
     1
102
RTVSPost2010Prop28
280
     0
102
RTVSPost2010PropOp28
 70
     1
102
RTVSPost2010Prop29
280
     1
102
RTVSPost2010PropOp29
 70
     1
102
RTVSPost2010Prop30
280
     1
102
RTVSPost2010PropOp30
 70
     1
102
RTVSPost2010Prop31
280
     0
102
RTVSPost2010PropOp31
 70
     1
102
RTVSPost2010Prop32
280
     0
102
RTVSPost2010PropOp32
 70
     1
102
RTVSPost2010Prop33
280
     0
102
RTVSPost2010PropOp33
 70
     1
102
RTVSPost2010Prop34
280
     0
102
RTVSPost2010PropOp34
 70
     1
102
RTVSPost2010Prop35
280
     0
102
RTVSPost2010PropOp35
 70
     1
102
RTVSPost2010Prop36
280
     0
102
RTVSPost2010PropOp36
 70
     1
102
RTVSPost2010Prop37
 90
       50
102
RTVSPost2010PropOp37
 70
     1
102
RTVSPost2010Prop38
140
0.0
102
RTVSPost2010PropOp38
 70
     1
102
RTVSPost2010Prop39
140
1.0
102
RTVSPost2010PropOp39
 70
     1
102
RTVSPost2010Prop40
 90
        0
102
RTVSPost2010PropOp40
 70
     1
102
RTVSPost2010Prop41ColorIndex
 90
       18
102
RTVSPost2010Prop41ColorRGB
 90
        0
102
RTVSPost2010PropOp41
 70
     1
102
RTVSPost2010Prop42
 90
       50
102
RTVSPost2010PropOp42
 70
     1
102
RTVSPost2010Prop43
 90
        3
102
RTVSPost2010PropOp43
 70
     1
102
RTVSPost2010Prop44ColorIndex
 90
        5
102
RTVSPost2010Prop44ColorRGB
 90
      255
102
RTVSPost2010PropOp44
 70
     1
102
RTVSPost2010Prop45
280
     0
102
RTVSPost2010PropOp45
 70
     1
102
RTVSPost2010Prop46
 90
       50
102
RTVSPost2010PropOp46
 70
     1
102
RTVSPost2010Prop47
 90
       50
102
RTVSPost2010PropOp47
 70
     1
102
RTVSPost2010Prop48
 90
       50
102
RTVSPost2010PropOp48
 70
     1
102
RTVSPost2010Prop49
280
     0
102
RTVSPost2010PropOp49
 70
     1
102
RTVSPost2010Prop50
 90
       50
102
RTVSPost2010PropOp50
 70
     1
102
RTVSPost2010Prop51ColorIndex
 90
      256
102
RTVSPost2010Prop51ColorRGB
 90
-16777216
102
RTVSPost2010PropOp51
 70
     0
102
RTVSPost2010Prop52
140
1.0
102
RTVSPost2010PropOp52
 70
     0
102
RTVSPost2010Prop53
 90
        2
102
RTVSPost2010PropOp53
 70
     1
102
RTVSPost2010Prop54
  1
strokes_ogs.tif
102
RTVSPost2010PropOp54
 70
     1
102
RTVSPost2010Prop55
280
     0
102
RTVSPost2010PropOp55
 70
     1
102
RTVSPost2010Prop56
140
1.0
102
RTVSPost2010PropOp56
 70
     1
102
RTVSPost2010Prop57
140
1.0
102
RTVSPost2010PropOp57
 70
     1
102
RTVSPropertyOp0
 70
     1
102
RTVSPropertyOp1
 70
     1
102
RTVSPropertyOp2
 70
     1
102
RTVSPropertyOp3
 70
     1
102
RTVSPropertyOp4
 70
     1
102
RTVSPropertyOp5
 70
     1
102
RTVSPropertyOp6
 70
     1
102
RTVSPropertyOp7
 70
     1
102
RTVSPropertyOp8
 70
     1
102
RTVSPropertyOp9
 70
     1
102
RTVSPropertyOp10
 70
     1
102
RTVSPropertyOp11
 70
     1
102
RTVSPropertyOp12
 70
     1
102
RTVSPropertyOp13
 70
     1
102
RTVSPropertyOp14
 70
     1
102
RTVSPropertyOp15
 70
     1
102
RTVSPropertyOp16
 70
     1
102
RTVSPropertyOp17
 70
     1
102
RTVSPropertyOp18
 70
     1
102
RTVSPropertyOp19
 70
     1
102
RTVSPropertyOp20
 70
     1
102
RTVSPropertyOp21
 70
     1
102
RTVSPropertyOp22
 70
     1
102
RTVSPropertyOp23
 70
     1
102
RTVSPropertyOp24
 70
     1
102
RTVSPropertyOp25
 70
     1
102
RTVSPropertyOp26
 70
     1
102
RTVSPropertyOp27
 70
     1
102
RTVSPropertyOp28
 70
     1
102
RTVSPropertyOp29
 70
     1
102
RTVSPropertyOp30
 70
     1
102
RTVSPropertyOp31
 70
     1
102
RTVSPropertyOp32
 70
     1
102
RTVSPropertyOp33
 70
     1
102
RTVSPropertyOp34
 70
     1
102
RTVSPropertyOp35
 70
     1
102
RTVSPropertyOp36
 70
     1
102
RTVSPropertyOp37
 70
     1
102
RTVSPropertyOp38
 70
     1
102
RTVSPropertyOp39
 70
     1
102
RTVSPropertyOp40
 70
     1
102
RTVSPropertyOp41
 70
     1
102
RTVSPropertyOp42
 70
     1
102
RTVSPropertyOp43
 70
     1
102
RTVSPropertyOp44
 70
     1
102
RTVSPropertyOp45
 70
     1
102
RTVSPropertyOp46
 70
     1
102
RTVSPropertyOp47
 70
     1
102
RTVSPropertyOp48
 70
     1
102
RTVSPropertyOp49
 70
     1
102
RTVSPropertyOp50
 70
     1
102
RTVSPropertyOp51
 70
     0
102
RTVSPropertyOp52
 70
     0
102
RTVSPropertyOp53
 70
     1
102
RTVSPropertyOp54
 70
     1
102
RTVSPropertyOp55
 70
     1
102
RTVSPropertyOp56
 70
     1
102
RTVSPropertyOp57
 70
     1
102
RTVSPropertyOp58
 70
     1
102
RTVSPropertyOp59
 70
     1
102
RTVSPropertyOp60
 70
     1
102
RTVSPropertyOp61
 70
     1
102
RTVSPropertyOp62
 70
     1
  0
XRECORD
  5
2659
102
{ACAD_REACTORS
330
2658
102
}
330
2658
100
AcDbXrecord
280
     1
102
RTVSPost2010Prop28
280
     0
102
RTVSPost2010PropOp28
 70
     1
102
RTVSPost2010Prop29
280
     1
102
RTVSPost2010PropOp29
 70
     1
102
RTVSPost2010Prop30
280
     1
102
RTVSPost2010PropOp30
 70
     1
102
RTVSPost2010Prop31
280
     0
102
RTVSPost2010PropOp31
 70
     1
102
RTVSPost2010Prop32
280
     0
102
RTVSPost2010PropOp32
 70
     1
102
RTVSPost2010Prop33
280
     0
102
RTVSPost2010PropOp33
 70
     1
102
RTVSPost2010Prop34
280
     0
102
RTVSPost2010PropOp34
 70
     1
102
RTVSPost2010Prop35
280
     0
102
RTVSPost2010PropOp35
 70
     1
102
RTVSPost2010Prop36
280
     0
102
RTVSPost2010PropOp36
 70
     1
102
RTVSPost2010Prop37
 90
       50
102
RTVSPost2010PropOp37
 70
     1
102
RTVSPost2010Prop38
140
0.0
102
RTVSPost2010PropOp38
 70
     1
102
RTVSPost2010Prop39
140
1.0
102
RTVSPost2010PropOp39
 70
     1
102
RTVSPost2010Prop40
 90
        0
102
RTVSPost2010PropOp40
 70
     1
102
RTVSPost2010Prop41ColorIndex
 90
       18
102
RTVSPost2010Prop41ColorRGB
 90
        0
102
RTVSPost2010PropOp41
 70
     1
102
RTVSPost2010Prop42
 90
       50
102
RTVSPost2010PropOp42
 70
     1
102
RTVSPost2010Prop43
 90
        3
102
RTVSPost2010PropOp43
 70
     1
102
RTVSPost2010Prop44ColorIndex
 90
        5
102
RTVSPost2010Prop44ColorRGB
 90
      255
102
RTVSPost2010PropOp44
 70
     1
102
RTVSPost2010Prop45
280
     0
102
RTVSPost2010PropOp45
 70
     1
102
RTVSPost2010Prop46
 90
       50
102
RTVSPost2010PropOp46
 70
     1
102
RTVSPost2010Prop47
 90
       50
102
RTVSPost2010PropOp47
 70
     1
102
RTVSPost2010Prop48
 90
       50
102
RTVSPost2010PropOp48
 70
     1
102
RTVSPost2010Prop49
280
     0
102
RTVSPost2010PropOp49
 70
     1
102
RTVSPost2010Prop50
 90
       50
102
RTVSPost2010PropOp50
 70
     1
102
RTVSPost2010Prop51ColorIndex
 90
      256
102
RTVSPost2010Prop51ColorRGB
 90
-16777216
102
RTVSPost2010PropOp51
 70
     0
102
RTVSPost2010Prop52
140
1.0
102
RTVSPost2010PropOp52
 70
     0
102
RTVSPost2010Prop53
 90
        2
102
RTVSPost2010PropOp53
 70
     1
102
RTVSPost2010Prop54
  1
strokes_ogs.tif
102
RTVSPost2010PropOp54
 70
     1
102
RTVSPost2010Prop55
280
     0
102
RTVSPost2010PropOp55
 70
     1
102
RTVSPost2010Prop56
140
1.0
102
RTVSPost2010PropOp56
 70
     1
102
RTVSPost2010Prop57
140
1.0
102
RTVSPost2010PropOp57
 70
     1
102
RTVSPropertyOp0
 70
     1
102
RTVSPropertyOp1
 70
     1
102
RTVSPropertyOp2
 70
     1
102
RTVSPropertyOp3
 70
     1
102
RTVSPropertyOp4
 70
     1
102
RTVSPropertyOp5
 70
     1
102
RTVSPropertyOp6
 70
     1
102
RTVSPropertyOp7
 70
     1
102
RTVSPropertyOp8
 70
     1
102
RTVSPropertyOp9
 70
     1
102
RTVSPropertyOp10
 70
     1
102
RTVSPropertyOp11
 70
     1
102
RTVSPropertyOp12
 70
     1
102
RTVSPropertyOp13
 70
     1
102
RTVSPropertyOp14
 70
     1
102
RTVSPropertyOp15
 70
     1
102
RTVSPropertyOp16
 70
     1
102
RTVSPropertyOp17
 70
     1
102
RTVSPropertyOp18
 70
     1
102
RTVSPropertyOp19
 70
     1
102
RTVSPropertyOp20
 70
     1
102
RTVSPropertyOp21
 70
     1
102
RTVSPropertyOp22
 70
     1
102
RTVSPropertyOp23
 70
     1
102
RTVSPropertyOp24
 70
     1
102
RTVSPropertyOp25
 70
     1
102
RTVSPropertyOp26
 70
     1
102
RTVSPropertyOp27
 70
     1
102
RTVSPropertyOp28
 70
     1
102
RTVSPropertyOp29
 70
     1
102
RTVSPropertyOp30
 70
     1
102
RTVSPropertyOp31
 70
     1
102
RTVSPropertyOp32
 70
     1
102
RTVSPropertyOp33
 70
     1
102
RTVSPropertyOp34
 70
     1
102
RTVSPropertyOp35
 70
     1
102
RTVSPropertyOp36
 70
     1
102
RTVSPropertyOp37
 70
     1
102
RTVSPropertyOp38
 70
     1
102
RTVSPropertyOp39
 70
     1
102
RTVSPropertyOp40
 70
     1
102
RTVSPropertyOp41
 70
     1
102
RTVSPropertyOp42
 70
     1
102
RTVSPropertyOp43
 70
     1
102
RTVSPropertyOp44
 70
     1
102
RTVSPropertyOp45
 70
     1
102
RTVSPropertyOp46
 70
     1
102
RTVSPropertyOp47
 70
     1
102
RTVSPropertyOp48
 70
     1
102
RTVSPropertyOp49
 70
     1
102
RTVSPropertyOp50
 70
     1
102
RTVSPropertyOp51
 70
     0
102
RTVSPropertyOp52
 70
     0
102
RTVSPropertyOp53
 70
     1
102
RTVSPropertyOp54
 70
     1
102
RTVSPropertyOp55
 70
     1
102
RTVSPropertyOp56
 70
     1
102
RTVSPropertyOp57
 70
     1
102
RTVSPropertyOp58
 70
     1
102
RTVSPropertyOp59
 70
     1
102
RTVSPropertyOp60
 70
     1
102
RTVSPropertyOp61
 70
     1
102
RTVSPropertyOp62
 70
     1
  0
XRECORD
  5
265B
102
{ACAD_REACTORS
330
265A
102
}
330
265A
100
AcDbXrecord
280
     1
102
RTVSPost2010Prop28
280
     0
102
RTVSPost2010PropOp28
 70
     1
102
RTVSPost2010Prop29
280
     1
102
RTVSPost2010PropOp29
 70
     1
102
RTVSPost2010Prop30
280
     1
102
RTVSPost2010PropOp30
 70
     1
102
RTVSPost2010Prop31
280
     0
102
RTVSPost2010PropOp31
 70
     1
102
RTVSPost2010Prop32
280
     0
102
RTVSPost2010PropOp32
 70
     1
102
RTVSPost2010Prop33
280
     0
102
RTVSPost2010PropOp33
 70
     1
102
RTVSPost2010Prop34
280
     0
102
RTVSPost2010PropOp34
 70
     1
102
RTVSPost2010Prop35
280
     0
102
RTVSPost2010PropOp35
 70
     1
102
RTVSPost2010Prop36
280
     0
102
RTVSPost2010PropOp36
 70
     1
102
RTVSPost2010Prop37
 90
       50
102
RTVSPost2010PropOp37
 70
     1
102
RTVSPost2010Prop38
140
0.0
102
RTVSPost2010PropOp38
 70
     1
102
RTVSPost2010Prop39
140
1.0
102
RTVSPost2010PropOp39
 70
     1
102
RTVSPost2010Prop40
 90
        0
102
RTVSPost2010PropOp40
 70
     1
102
RTVSPost2010Prop41ColorIndex
 90
       18
102
RTVSPost2010Prop41ColorRGB
 90
        0
102
RTVSPost2010PropOp41
 70
     1
102
RTVSPost2010Prop42
 90
       50
102
RTVSPost2010PropOp42
 70
     1
102
RTVSPost2010Prop43
 90
        3
102
RTVSPost2010PropOp43
 70
     1
102
RTVSPost2010Prop44ColorIndex
 90
        5
102
RTVSPost2010Prop44ColorRGB
 90
      255
102
RTVSPost2010PropOp44
 70
     1
102
RTVSPost2010Prop45
280
     0
102
RTVSPost2010PropOp45
 70
     1
102
RTVSPost2010Prop46
 90
       50
102
RTVSPost2010PropOp46
 70
     1
102
RTVSPost2010Prop47
 90
       50
102
RTVSPost2010PropOp47
 70
     1
102
RTVSPost2010Prop48
 90
       50
102
RTVSPost2010PropOp48
 70
     1
102
RTVSPost2010Prop49
280
     0
102
RTVSPost2010PropOp49
 70
     1
102
RTVSPost2010Prop50
 90
       50
102
RTVSPost2010PropOp50
 70
     1
102
RTVSPost2010Prop51ColorIndex
 90
      256
102
RTVSPost2010Prop51ColorRGB
 90
-16777216
102
RTVSPost2010PropOp51
 70
     0
102
RTVSPost2010Prop52
140
1.0
102
RTVSPost2010PropOp52
 70
     0
102
RTVSPost2010Prop53
 90
        2
102
RTVSPost2010PropOp53
 70
     1
102
RTVSPost2010Prop54
  1
strokes_ogs.tif
102
RTVSPost2010PropOp54
 70
     1
102
RTVSPost2010Prop55
280
     0
102
RTVSPost2010PropOp55
 70
     1
102
RTVSPost2010Prop56
140
1.0
102
RTVSPost2010PropOp56
 70
     1
102
RTVSPost2010Prop57
140
1.0
102
RTVSPost2010PropOp57
 70
     1
102
RTVSPropertyOp0
 70
     1
102
RTVSPropertyOp1
 70
     1
102
RTVSPropertyOp2
 70
     1
102
RTVSPropertyOp3
 70
     1
102
RTVSPropertyOp4
 70
     1
102
RTVSPropertyOp5
 70
     1
102
RTVSPropertyOp6
 70
     1
102
RTVSPropertyOp7
 70
     1
102
RTVSPropertyOp8
 70
     1
102
RTVSPropertyOp9
 70
     1
102
RTVSPropertyOp10
 70
     1
102
RTVSPropertyOp11
 70
     1
102
RTVSPropertyOp12
 70
     1
102
RTVSPropertyOp13
 70
     1
102
RTVSPropertyOp14
 70
     1
102
RTVSPropertyOp15
 70
     1
102
RTVSPropertyOp16
 70
     1
102
RTVSPropertyOp17
 70
     1
102
RTVSPropertyOp18
 70
     1
102
RTVSPropertyOp19
 70
     1
102
RTVSPropertyOp20
 70
     1
102
RTVSPropertyOp21
 70
     1
102
RTVSPropertyOp22
 70
     1
102
RTVSPropertyOp23
 70
     1
102
RTVSPropertyOp24
 70
     1
102
RTVSPropertyOp25
 70
     1
102
RTVSPropertyOp26
 70
     1
102
RTVSPropertyOp27
 70
     1
102
RTVSPropertyOp28
 70
     1
102
RTVSPropertyOp29
 70
     1
102
RTVSPropertyOp30
 70
     1
102
RTVSPropertyOp31
 70
     1
102
RTVSPropertyOp32
 70
     1
102
RTVSPropertyOp33
 70
     1
102
RTVSPropertyOp34
 70
     1
102
RTVSPropertyOp35
 70
     1
102
RTVSPropertyOp36
 70
     1
102
RTVSPropertyOp37
 70
     1
102
RTVSPropertyOp38
 70
     1
102
RTVSPropertyOp39
 70
     1
102
RTVSPropertyOp40
 70
     1
102
RTVSPropertyOp41
 70
     1
102
RTVSPropertyOp42
 70
     1
102
RTVSPropertyOp43
 70
     1
102
RTVSPropertyOp44
 70
     1
102
RTVSPropertyOp45
 70
     1
102
RTVSPropertyOp46
 70
     1
102
RTVSPropertyOp47
 70
     1
102
RTVSPropertyOp48
 70
     1
102
RTVSPropertyOp49
 70
     1
102
RTVSPropertyOp50
 70
     1
102
RTVSPropertyOp51
 70
     0
102
RTVSPropertyOp52
 70
     0
102
RTVSPropertyOp53
 70
     1
102
RTVSPropertyOp54
 70
     1
102
RTVSPropertyOp55
 70
     1
102
RTVSPropertyOp56
 70
     1
102
RTVSPropertyOp57
 70
     1
102
RTVSPropertyOp58
 70
     1
102
RTVSPropertyOp59
 70
     1
102
RTVSPropertyOp60
 70
     1
102
RTVSPropertyOp61
 70
     1
102
RTVSPropertyOp62
 70
     1
  0
XRECORD
  5
2651
102
{ACAD_REACTORS
330
2650
102
}
330
2650
100
AcDbXrecord
280
     1
102
RTVSPost2010Prop28
280
     0
102
RTVSPost2010PropOp28
 70
     1
102
RTVSPost2010Prop29
280
     1
102
RTVSPost2010PropOp29
 70
     1
102
RTVSPost2010Prop30
280
     1
102
RTVSPost2010PropOp30
 70
     1
102
RTVSPost2010Prop31
280
     0
102
RTVSPost2010PropOp31
 70
     1
102
RTVSPost2010Prop32
280
     0
102
RTVSPost2010PropOp32
 70
     1
102
RTVSPost2010Prop33
280
     0
102
RTVSPost2010PropOp33
 70
     1
102
RTVSPost2010Prop34
280
     0
102
RTVSPost2010PropOp34
 70
     1
102
RTVSPost2010Prop35
280
     0
102
RTVSPost2010PropOp35
 70
     1
102
RTVSPost2010Prop36
280
     0
102
RTVSPost2010PropOp36
 70
     1
102
RTVSPost2010Prop37
 90
       50
102
RTVSPost2010PropOp37
 70
     1
102
RTVSPost2010Prop38
140
0.0
102
RTVSPost2010PropOp38
 70
     1
102
RTVSPost2010Prop39
140
1.0
102
RTVSPost2010PropOp39
 70
     1
102
RTVSPost2010Prop40
 90
        0
102
RTVSPost2010PropOp40
 70
     1
102
RTVSPost2010Prop41ColorIndex
 90
       18
102
RTVSPost2010Prop41ColorRGB
 90
        0
102
RTVSPost2010PropOp41
 70
     1
102
RTVSPost2010Prop42
 90
       50
102
RTVSPost2010PropOp42
 70
     1
102
RTVSPost2010Prop43
 90
        3
102
RTVSPost2010PropOp43
 70
     1
102
RTVSPost2010Prop44ColorIndex
 90
        5
102
RTVSPost2010Prop44ColorRGB
 90
      255
102
RTVSPost2010PropOp44
 70
     1
102
RTVSPost2010Prop45
280
     0
102
RTVSPost2010PropOp45
 70
     1
102
RTVSPost2010Prop46
 90
       50
102
RTVSPost2010PropOp46
 70
     1
102
RTVSPost2010Prop47
 90
       50
102
RTVSPost2010PropOp47
 70
     1
102
RTVSPost2010Prop48
 90
       50
102
RTVSPost2010PropOp48
 70
     1
102
RTVSPost2010Prop49
280
     0
102
RTVSPost2010PropOp49
 70
     1
102
RTVSPost2010Prop50
 90
       50
102
RTVSPost2010PropOp50
 70
     1
102
RTVSPost2010Prop51ColorIndex
 90
      256
102
RTVSPost2010Prop51ColorRGB
 90
-16777216
102
RTVSPost2010PropOp51
 70
     0
102
RTVSPost2010Prop52
140
1.0
102
RTVSPost2010PropOp52
 70
     0
102
RTVSPost2010Prop53
 90
        2
102
RTVSPost2010PropOp53
 70
     1
102
RTVSPost2010Prop54
  1
strokes_ogs.tif
102
RTVSPost2010PropOp54
 70
     1
102
RTVSPost2010Prop55
280
     0
102
RTVSPost2010PropOp55
 70
     1
102
RTVSPost2010Prop56
140
1.0
102
RTVSPost2010PropOp56
 70
     1
102
RTVSPost2010Prop57
140
1.0
102
RTVSPost2010PropOp57
 70
     1
102
RTVSPropertyOp0
 70
     1
102
RTVSPropertyOp1
 70
     1
102
RTVSPropertyOp2
 70
     1
102
RTVSPropertyOp3
 70
     1
102
RTVSPropertyOp4
 70
     1
102
RTVSPropertyOp5
 70
     1
102
RTVSPropertyOp6
 70
     1
102
RTVSPropertyOp7
 70
     1
102
RTVSPropertyOp8
 70
     1
102
RTVSPropertyOp9
 70
     1
102
RTVSPropertyOp10
 70
     1
102
RTVSPropertyOp11
 70
     1
102
RTVSPropertyOp12
 70
     1
102
RTVSPropertyOp13
 70
     1
102
RTVSPropertyOp14
 70
     1
102
RTVSPropertyOp15
 70
     1
102
RTVSPropertyOp16
 70
     1
102
RTVSPropertyOp17
 70
     1
102
RTVSPropertyOp18
 70
     1
102
RTVSPropertyOp19
 70
     1
102
RTVSPropertyOp20
 70
     1
102
RTVSPropertyOp21
 70
     1
102
RTVSPropertyOp22
 70
     1
102
RTVSPropertyOp23
 70
     1
102
RTVSPropertyOp24
 70
     1
102
RTVSPropertyOp25
 70
     1
102
RTVSPropertyOp26
 70
     1
102
RTVSPropertyOp27
 70
     1
102
RTVSPropertyOp28
 70
     1
102
RTVSPropertyOp29
 70
     1
102
RTVSPropertyOp30
 70
     1
102
RTVSPropertyOp31
 70
     1
102
RTVSPropertyOp32
 70
     1
102
RTVSPropertyOp33
 70
     1
102
RTVSPropertyOp34
 70
     1
102
RTVSPropertyOp35
 70
     1
102
RTVSPropertyOp36
 70
     1
102
RTVSPropertyOp37
 70
     1
102
RTVSPropertyOp38
 70
     1
102
RTVSPropertyOp39
 70
     1
102
RTVSPropertyOp40
 70
     1
102
RTVSPropertyOp41
 70
     1
102
RTVSPropertyOp42
 70
     1
102
RTVSPropertyOp43
 70
     1
102
RTVSPropertyOp44
 70
     1
102
RTVSPropertyOp45
 70
     1
102
RTVSPropertyOp46
 70
     1
102
RTVSPropertyOp47
 70
     1
102
RTVSPropertyOp48
 70
     1
102
RTVSPropertyOp49
 70
     1
102
RTVSPropertyOp50
 70
     1
102
RTVSPropertyOp51
 70
     0
102
RTVSPropertyOp52
 70
     0
102
RTVSPropertyOp53
 70
     1
102
RTVSPropertyOp54
 70
     1
102
RTVSPropertyOp55
 70
     1
102
RTVSPropertyOp56
 70
     1
102
RTVSPropertyOp57
 70
     1
102
RTVSPropertyOp58
 70
     1
102
RTVSPropertyOp59
 70
     1
102
RTVSPropertyOp60
 70
     1
102
RTVSPropertyOp61
 70
     1
102
RTVSPropertyOp62
 70
     1
  0
XRECORD
  5
2645
102
{ACAD_REACTORS
330
2644
102
}
330
2644
100
AcDbXrecord
280
     1
102
RTVSPost2010Prop28
280
     0
102
RTVSPost2010PropOp28
 70
     1
102
RTVSPost2010Prop29
280
     1
102
RTVSPost2010PropOp29
 70
     1
102
RTVSPost2010Prop30
280
     1
102
RTVSPost2010PropOp30
 70
     1
102
RTVSPost2010Prop31
280
     0
102
RTVSPost2010PropOp31
 70
     1
102
RTVSPost2010Prop32
280
     0
102
RTVSPost2010PropOp32
 70
     1
102
RTVSPost2010Prop33
280
     0
102
RTVSPost2010PropOp33
 70
     1
102
RTVSPost2010Prop34
280
     0
102
RTVSPost2010PropOp34
 70
     1
102
RTVSPost2010Prop35
280
     0
102
RTVSPost2010PropOp35
 70
     1
102
RTVSPost2010Prop36
280
     0
102
RTVSPost2010PropOp36
 70
     1
102
RTVSPost2010Prop37
 90
       50
102
RTVSPost2010PropOp37
 70
     1
102
RTVSPost2010Prop38
140
0.0
102
RTVSPost2010PropOp38
 70
     1
102
RTVSPost2010Prop39
140
1.0
102
RTVSPost2010PropOp39
 70
     1
102
RTVSPost2010Prop40
 90
        0
102
RTVSPost2010PropOp40
 70
     1
102
RTVSPost2010Prop41ColorIndex
 90
       18
102
RTVSPost2010Prop41ColorRGB
 90
        0
102
RTVSPost2010PropOp41
 70
     1
102
RTVSPost2010Prop42
 90
       50
102
RTVSPost2010PropOp42
 70
     1
102
RTVSPost2010Prop43
 90
        3
102
RTVSPost2010PropOp43
 70
     1
102
RTVSPost2010Prop44ColorIndex
 90
        5
102
RTVSPost2010Prop44ColorRGB
 90
      255
102
RTVSPost2010PropOp44
 70
     1
102
RTVSPost2010Prop45
280
     0
102
RTVSPost2010PropOp45
 70
     1
102
RTVSPost2010Prop46
 90
       50
102
RTVSPost2010PropOp46
 70
     1
102
RTVSPost2010Prop47
 90
       50
102
RTVSPost2010PropOp47
 70
     1
102
RTVSPost2010Prop48
 90
       50
102
RTVSPost2010PropOp48
 70
     1
102
RTVSPost2010Prop49
280
     0
102
RTVSPost2010PropOp49
 70
     1
102
RTVSPost2010Prop50
 90
       50
102
RTVSPost2010PropOp50
 70
     1
102
RTVSPost2010Prop51ColorIndex
 90
      256
102
RTVSPost2010Prop51ColorRGB
 90
-16777216
102
RTVSPost2010PropOp51
 70
     0
102
RTVSPost2010Prop52
140
1.0
102
RTVSPost2010PropOp52
 70
     0
102
RTVSPost2010Prop53
 90
        2
102
RTVSPost2010PropOp53
 70
     1
102
RTVSPost2010Prop54
  1
strokes_ogs.tif
102
RTVSPost2010PropOp54
 70
     1
102
RTVSPost2010Prop55
280
     0
102
RTVSPost2010PropOp55
 70
     1
102
RTVSPost2010Prop56
140
1.0
102
RTVSPost2010PropOp56
 70
     1
102
RTVSPost2010Prop57
140
1.0
102
RTVSPost2010PropOp57
 70
     1
102
RTVSPropertyOp0
 70
     1
102
RTVSPropertyOp1
 70
     1
102
RTVSPropertyOp2
 70
     1
102
RTVSPropertyOp3
 70
     1
102
RTVSPropertyOp4
 70
     1
102
RTVSPropertyOp5
 70
     1
102
RTVSPropertyOp6
 70
     1
102
RTVSPropertyOp7
 70
     1
102
RTVSPropertyOp8
 70
     1
102
RTVSPropertyOp9
 70
     1
102
RTVSPropertyOp10
 70
     1
102
RTVSPropertyOp11
 70
     1
102
RTVSPropertyOp12
 70
     1
102
RTVSPropertyOp13
 70
     1
102
RTVSPropertyOp14
 70
     1
102
RTVSPropertyOp15
 70
     1
102
RTVSPropertyOp16
 70
     1
102
RTVSPropertyOp17
 70
     1
102
RTVSPropertyOp18
 70
     1
102
RTVSPropertyOp19
 70
     1
102
RTVSPropertyOp20
 70
     1
102
RTVSPropertyOp21
 70
     1
102
RTVSPropertyOp22
 70
     1
102
RTVSPropertyOp23
 70
     1
102
RTVSPropertyOp24
 70
     1
102
RTVSPropertyOp25
 70
     1
102
RTVSPropertyOp26
 70
     1
102
RTVSPropertyOp27
 70
     1
102
RTVSPropertyOp28
 70
     1
102
RTVSPropertyOp29
 70
     1
102
RTVSPropertyOp30
 70
     1
102
RTVSPropertyOp31
 70
     1
102
RTVSPropertyOp32
 70
     1
102
RTVSPropertyOp33
 70
     1
102
RTVSPropertyOp34
 70
     1
102
RTVSPropertyOp35
 70
     1
102
RTVSPropertyOp36
 70
     1
102
RTVSPropertyOp37
 70
     1
102
RTVSPropertyOp38
 70
     1
102
RTVSPropertyOp39
 70
     1
102
RTVSPropertyOp40
 70
     1
102
RTVSPropertyOp41
 70
     1
102
RTVSPropertyOp42
 70
     1
102
RTVSPropertyOp43
 70
     1
102
RTVSPropertyOp44
 70
     1
102
RTVSPropertyOp45
 70
     1
102
RTVSPropertyOp46
 70
     1
102
RTVSPropertyOp47
 70
     1
102
RTVSPropertyOp48
 70
     1
102
RTVSPropertyOp49
 70
     1
102
RTVSPropertyOp50
 70
     1
102
RTVSPropertyOp51
 70
     0
102
RTVSPropertyOp52
 70
     0
102
RTVSPropertyOp53
 70
     1
102
RTVSPropertyOp54
 70
     1
102
RTVSPropertyOp55
 70
     1
102
RTVSPropertyOp56
 70
     1
102
RTVSPropertyOp57
 70
     1
102
RTVSPropertyOp58
 70
     1
102
RTVSPropertyOp59
 70
     1
102
RTVSPropertyOp60
 70
     1
102
RTVSPropertyOp61
 70
     1
102
RTVSPropertyOp62
 70
     1
  0
XRECORD
  5
265D
102
{ACAD_REACTORS
330
265C
102
}
330
265C
100
AcDbXrecord
280
     1
102
RTVSPost2010Prop28
280
     0
102
RTVSPost2010PropOp28
 70
     1
102
RTVSPost2010Prop29
280
     1
102
RTVSPost2010PropOp29
 70
     1
102
RTVSPost2010Prop30
280
     1
102
RTVSPost2010PropOp30
 70
     1
102
RTVSPost2010Prop31
280
     0
102
RTVSPost2010PropOp31
 70
     1
102
RTVSPost2010Prop32
280
     0
102
RTVSPost2010PropOp32
 70
     1
102
RTVSPost2010Prop33
280
     0
102
RTVSPost2010PropOp33
 70
     1
102
RTVSPost2010Prop34
280
     0
102
RTVSPost2010PropOp34
 70
     1
102
RTVSPost2010Prop35
280
     0
102
RTVSPost2010PropOp35
 70
     1
102
RTVSPost2010Prop36
280
     0
102
RTVSPost2010PropOp36
 70
     1
102
RTVSPost2010Prop37
 90
       50
102
RTVSPost2010PropOp37
 70
     1
102
RTVSPost2010Prop38
140
0.0
102
RTVSPost2010PropOp38
 70
     1
102
RTVSPost2010Prop39
140
1.0
102
RTVSPost2010PropOp39
 70
     1
102
RTVSPost2010Prop40
 90
        0
102
RTVSPost2010PropOp40
 70
     1
102
RTVSPost2010Prop41ColorIndex
 90
       18
102
RTVSPost2010Prop41ColorRGB
 90
        0
102
RTVSPost2010PropOp41
 70
     1
102
RTVSPost2010Prop42
 90
       50
102
RTVSPost2010PropOp42
 70
     1
102
RTVSPost2010Prop43
 90
        3
102
RTVSPost2010PropOp43
 70
     1
102
RTVSPost2010Prop44ColorIndex
 90
        5
102
RTVSPost2010Prop44ColorRGB
 90
      255
102
RTVSPost2010PropOp44
 70
     1
102
RTVSPost2010Prop45
280
     0
102
RTVSPost2010PropOp45
 70
     1
102
RTVSPost2010Prop46
 90
       50
102
RTVSPost2010PropOp46
 70
     1
102
RTVSPost2010Prop47
 90
       50
102
RTVSPost2010PropOp47
 70
     1
102
RTVSPost2010Prop48
 90
       50
102
RTVSPost2010PropOp48
 70
     1
102
RTVSPost2010Prop49
280
     0
102
RTVSPost2010PropOp49
 70
     1
102
RTVSPost2010Prop50
 90
       50
102
RTVSPost2010PropOp50
 70
     1
102
RTVSPost2010Prop51ColorIndex
 90
      256
102
RTVSPost2010Prop51ColorRGB
 90
-16777216
102
RTVSPost2010PropOp51
 70
     0
102
RTVSPost2010Prop52
140
1.0
102
RTVSPost2010PropOp52
 70
     0
102
RTVSPost2010Prop53
 90
        2
102
RTVSPost2010PropOp53
 70
     1
102
RTVSPost2010Prop54
  1
strokes_ogs.tif
102
RTVSPost2010PropOp54
 70
     1
102
RTVSPost2010Prop55
280
     0
102
RTVSPost2010PropOp55
 70
     1
102
RTVSPost2010Prop56
140
1.0
102
RTVSPost2010PropOp56
 70
     1
102
RTVSPost2010Prop57
140
1.0
102
RTVSPost2010PropOp57
 70
     1
102
RTVSPropertyOp0
 70
     1
102
RTVSPropertyOp1
 70
     1
102
RTVSPropertyOp2
 70
     1
102
RTVSPropertyOp3
 70
     1
102
RTVSPropertyOp4
 70
     1
102
RTVSPropertyOp5
 70
     1
102
RTVSPropertyOp6
 70
     1
102
RTVSPropertyOp7
 70
     1
102
RTVSPropertyOp8
 70
     1
102
RTVSPropertyOp9
 70
     1
102
RTVSPropertyOp10
 70
     1
102
RTVSPropertyOp11
 70
     1
102
RTVSPropertyOp12
 70
     1
102
RTVSPropertyOp13
 70
     1
102
RTVSPropertyOp14
 70
     1
102
RTVSPropertyOp15
 70
     1
102
RTVSPropertyOp16
 70
     1
102
RTVSPropertyOp17
 70
     1
102
RTVSPropertyOp18
 70
     1
102
RTVSPropertyOp19
 70
     1
102
RTVSPropertyOp20
 70
     1
102
RTVSPropertyOp21
 70
     1
102
RTVSPropertyOp22
 70
     1
102
RTVSPropertyOp23
 70
     1
102
RTVSPropertyOp24
 70
     1
102
RTVSPropertyOp25
 70
     1
102
RTVSPropertyOp26
 70
     1
102
RTVSPropertyOp27
 70
     1
102
RTVSPropertyOp28
 70
     1
102
RTVSPropertyOp29
 70
     1
102
RTVSPropertyOp30
 70
     1
102
RTVSPropertyOp31
 70
     1
102
RTVSPropertyOp32
 70
     1
102
RTVSPropertyOp33
 70
     1
102
RTVSPropertyOp34
 70
     1
102
RTVSPropertyOp35
 70
     1
102
RTVSPropertyOp36
 70
     1
102
RTVSPropertyOp37
 70
     1
102
RTVSPropertyOp38
 70
     1
102
RTVSPropertyOp39
 70
     1
102
RTVSPropertyOp40
 70
     1
102
RTVSPropertyOp41
 70
     1
102
RTVSPropertyOp42
 70
     1
102
RTVSPropertyOp43
 70
     1
102
RTVSPropertyOp44
 70
     1
102
RTVSPropertyOp45
 70
     1
102
RTVSPropertyOp46
 70
     1
102
RTVSPropertyOp47
 70
     1
102
RTVSPropertyOp48
 70
     1
102
RTVSPropertyOp49
 70
     1
102
RTVSPropertyOp50
 70
     1
102
RTVSPropertyOp51
 70
     0
102
RTVSPropertyOp52
 70
     0
102
RTVSPropertyOp53
 70
     1
102
RTVSPropertyOp54
 70
     1
102
RTVSPropertyOp55
 70
     1
102
RTVSPropertyOp56
 70
     1
102
RTVSPropertyOp57
 70
     1
102
RTVSPropertyOp58
 70
     1
102
RTVSPropertyOp59
 70
     1
102
RTVSPropertyOp60
 70
     1
102
RTVSPropertyOp61
 70
     1
102
RTVSPropertyOp62
 70
     1
  0
ENDSEC
  0
EOF
