  0
SECTION
  2
HEADER
  9
$ACADVER
  1
AC1018
  9
$ACADMAINTVER
 70
   104
  9
$DWGCODEPAGE
  3
ANSI_1252
  9
$LASTSAVEDBY
  1
w.koehlhoff
  9
$INSBASE
 10
0.0
 20
0.0
 30
0.0
  9
$EXTMIN
 10
-0.0384419776869436
 20
-0.0271839699366865
 30
-0.0000000000000058
  9
$EXTMAX
 10
840.0384576247434
 20
594.0271950346393
 30
0.0000000000000104
  9
$LIMMIN
 10
0.0
 20
0.0
  9
$LIMMAX
 10
839.9999999999998
 20
594.0000000000001
  9
$ORTHOMODE
 70
     0
  9
$REGENMODE
 70
     1
  9
$FILLMODE
 70
     1
  9
$QTEXTMODE
 70
     0
  9
$MIRRTEXT
 70
     1
  9
$LTSCALE
 40
20.0
  9
$ATTMODE
 70
     1
  9
$TEXTSIZE
 40
2.5
  9
$TRACEWID
 40
0.5
  9
$TEXTSTYLE
  7
GREEKS
  9
$CLAYER
  8
BEM
  9
$CELTYPE
  6
ByLayer
  9
$CECOLOR
 62
   256
  9
$CELTSCALE
 40
1.0
  9
$DISPSILH
 70
     0
  9
$DIMSCALE
 40
2.0
  9
$DIMASZ
 40
3.5
  9
$DIMEXO
 40
1.0
  9
$DIMDLI
 40
1.0
  9
$DIMRND
 40
0.0
  9
$DIMDLE
 40
0.0
  9
$DIMEXE
 40
1.0
  9
$DIMTP
 40
0.0
  9
$DIMTM
 40
2.0
  9
$DIMTXT
 40
3.5
  9
$DIMCEN
 40
0.09
  9
$DIMTSZ
 40
0.0
  9
$DIMTOL
 70
     0
  9
$DIMLIM
 70
     0
  9
$DIMTIH
 70
     0
  9
$DIMTOH
 70
     0
  9
$DIMSE1
 70
     0
  9
$DIMSE2
 70
     0
  9
$DIMTAD
 70
     1
  9
$DIMZIN
 70
     8
  9
$DIMBLK
  1

  9
$DIMASO
 70
     1
  9
$DIMSHO
 70
     0
  9
$DIMPOST
  1

  9
$DIMAPOST
  1

  9
$DIMALT
 70
     0
  9
$DIMALTD
 70
     2
  9
$DIMALTF
 40
25.4
  9
$DIMLFAC
 40
1.0
  9
$DIMTOFL
 70
     1
  9
$DIMTVP
 40
0.0
  9
$DIMTIX
 70
     0
  9
$DIMSOXD
 70
     0
  9
$DIMSAH
 70
     0
  9
$DIMBLK1
  1

  9
$DIMBLK2
  1

  9
$DIMSTYLE
  2
STANDARD
  9
$DIMCLRD
 70
   256
  9
$DIMCLRE
 70
     0
  9
$DIMCLRT
 70
     1
  9
$DIMTFAC
 40
0.5
  9
$DIMGAP
 40
1.199999999999999
  9
$DIMJUST
 70
     0
  9
$DIMSD1
 70
     0
  9
$DIMSD2
 70
     0
  9
$DIMTOLJ
 70
     1
  9
$DIMTZIN
 70
     0
  9
$DIMALTZ
 70
     0
  9
$DIMALTTZ
 70
     0
  9
$DIMUPT
 70
     0
  9
$DIMDEC
 70
     2
  9
$DIMTDEC
 70
     2
  9
$DIMALTU
 70
     2
  9
$DIMALTTD
 70
     2
  9
$DIMTXSTY
  7
GREEKS
  9
$DIMAUNIT
 70
     0
  9
$DIMADEC
 70
     0
  9
$DIMALTRND
 40
0.0
  9
$DIMAZIN
 70
     2
  9
$DIMDSEP
 70
    46
  9
$DIMATFIT
 70
     3
  9
$DIMFRAC
 70
     0
  9
$DIMLDRBLK
  1

  9
$DIMLUNIT
 70
     2
  9
$DIMLWD
 70
    -1
  9
$DIMLWE
 70
    -2
  9
$DIMTMOVE
 70
     0
  9
$LUNITS
 70
     2
  9
$LUPREC
 70
     2
  9
$SKETCHINC
 40
1.0
  9
$FILLETRAD
 40
38.8
  9
$AUNITS
 70
     0
  9
$AUPREC
 70
     0
  9
$MENU
  1
ACAD
  9
$ELEVATION
 40
0.0
  9
$PELEVATION
 40
0.0
  9
$THICKNESS
 40
0.0
  9
$LIMCHECK
 70
     0
  9
$CHAMFERA
 40
0.0
  9
$CHAMFERB
 40
0.0
  9
$CHAMFERC
 40
0.0
  9
$CHAMFERD
 40
0.0
  9
$SKPOLY
 70
     0
  9
$TDCREATE
 40
2452806.195245625
  9
$TDUCREATE
 40
2452806.153578959
  9
$TDUPDATE
 40
2457053.403167882
  9
$TDUUPDATE
 40
2457053.361501216
  9
$TDINDWG
 40
0.5954568519
  9
$TDUSRTIMER
 40
0.5954568519
  9
$USRTIMER
 70
     1
  9
$ANGBASE
 50
0.0
  9
$ANGDIR
 70
     0
  9
$PDMODE
 70
     0
  9
$PDSIZE
 40
0.0
  9
$PLINEWID
 40
0.0
  9
$SPLFRAME
 70
     0
  9
$SPLINETYPE
 70
     6
  9
$SPLINESEGS
 70
     8
  9
$HANDSEED
  5
3890
  9
$SURFTAB1
 70
     6
  9
$SURFTAB2
 70
     6
  9
$SURFTYPE
 70
     6
  9
$SURFU
 70
     6
  9
$SURFV
 70
     6
  9
$UCSBASE
  2

  9
$UCSNAME
  2

  9
$UCSORG
 10
0.0
 20
0.0
 30
0.0
  9
$UCSXDIR
 10
1.0
 20
0.0
 30
0.0
  9
$UCSYDIR
 10
0.0
 20
1.0
 30
0.0
  9
$UCSORTHOREF
  2

  9
$UCSORTHOVIEW
 70
     0
  9
$UCSORGTOP
 10
0.0
 20
0.0
 30
0.0
  9
$UCSORGBOTTOM
 10
0.0
 20
0.0
 30
0.0
  9
$UCSORGLEFT
 10
0.0
 20
0.0
 30
0.0
  9
$UCSORGRIGHT
 10
0.0
 20
0.0
 30
0.0
  9
$UCSORGFRONT
 10
0.0
 20
0.0
 30
0.0
  9
$UCSORGBACK
 10
0.0
 20
0.0
 30
0.0
  9
$PUCSBASE
  2

  9
$PUCSNAME
  2

  9
$PUCSORG
 10
0.0
 20
0.0
 30
0.0
  9
$PUCSXDIR
 10
1.0
 20
0.0
 30
0.0
  9
$PUCSYDIR
 10
0.0
 20
1.0
 30
0.0
  9
$PUCSORTHOREF
  2

  9
$PUCSORTHOVIEW
 70
     0
  9
$PUCSORGTOP
 10
0.0
 20
0.0
 30
0.0
  9
$PUCSORGBOTTOM
 10
0.0
 20
0.0
 30
0.0
  9
$PUCSORGLEFT
 10
0.0
 20
0.0
 30
0.0
  9
$PUCSORGRIGHT
 10
0.0
 20
0.0
 30
0.0
  9
$PUCSORGFRONT
 10
0.0
 20
0.0
 30
0.0
  9
$PUCSORGBACK
 10
0.0
 20
0.0
 30
0.0
  9
$USERI1
 70
     0
  9
$USERI2
 70
     0
  9
$USERI3
 70
     0
  9
$USERI4
 70
     0
  9
$USERI5
 70
     0
  9
$USERR1
 40
0.0
  9
$USERR2
 40
0.0
  9
$USERR3
 40
0.0
  9
$USERR4
 40
0.0
  9
$USERR5
 40
0.0
  9
$WORLDVIEW
 70
     1
  9
$SHADEDGE
 70
     3
  9
$SHADEDIF
 70
    70
  9
$TILEMODE
 70
     1
  9
$MAXACTVP
 70
    16
  9
$PINSBASE
 10
0.0
 20
0.0
 30
0.0
  9
$PLIMCHECK
 70
     0
  9
$PEXTMIN
 10
1.000000000000000E+20
 20
1.000000000000000E+20
 30
1.000000000000000E+20
  9
$PEXTMAX
 10
-1.000000000000000E+20
 20
-1.000000000000000E+20
 30
-1.000000000000000E+20
  9
$PLIMMIN
 10
0.0
 20
0.0
  9
$PLIMMAX
 10
12.0
 20
9.0
  9
$UNITMODE
 70
     0
  9
$VISRETAIN
 70
     0
  9
$PLINEGEN
 70
     0
  9
$PSLTSCALE
 70
     0
  9
$TREEDEPTH
 70
  3020
  9
$CMLSTYLE
  2
Standard
  9
$CMLJUST
 70
     0
  9
$CMLSCALE
 40
1.0
  9
$PROXYGRAPHICS
 70
     1
  9
$MEASUREMENT
 70
     0
  9
$CELWEIGHT
370
    -1
  9
$ENDCAPS
280
     0
  9
$JOINSTYLE
280
     0
  9
$LWDISPLAY
290
     0
  9
$INSUNITS
 70
     0
  9
$HYPERLINKBASE
  1

  9
$STYLESHEET
  1
monochrome1.ctb
  9
$XEDIT
290
     1
  9
$CEPSNTYPE
380
     0
  9
$PSTYLEMODE
290
     1
  9
$FINGERPRINTGUID
  2
{CF1A4752-A575-11D7-B632-000102183313}
  9
$VERSIONGUID
  2
{63E23CBF-5840-494B-AC3C-4A06D31A58FA}
  9
$EXTNAMES
290
     1
  9
$PSVPSCALE
 40
0.0
  9
$OLESTARTUP
290
     0
  9
$SORTENTS
280
    96
  9
$INDEXCTL
280
     0
  9
$HIDETEXT
280
     0
  9
$XCLIPFRAME
290
     0
  9
$HALOGAP
280
     0
  9
$OBSCOLOR
 70
   257
  9
$OBSLTYPE
280
     0
  9
$INTERSECTIONDISPLAY
280
     0
  9
$INTERSECTIONCOLOR
 70
   257
  9
$DIMASSOC
280
     1
  9
$PROJECTNAME
  1

  0
ENDSEC
  0
SECTION
  2
CLASSES
  0
CLASS
  1
ACDBDICTIONARYWDFLT
  2
AcDbDictionaryWithDefault
  3
ObjectDBX Classes
 90
        0
 91
        1
280
     0
281
     0
  0
CLASS
  1
DICTIONARYVAR
  2
AcDbDictionaryVar
  3
ObjectDBX Classes
 90
        0
 91
        8
280
     0
281
     0
  0
CLASS
  1
SORTENTSTABLE
  2
AcDbSortentsTable
  3
ObjectDBX Classes
 90
        0
 91
        0
280
     0
281
     0
  0
CLASS
  1
MATERIAL
  2
AcDbMaterial
  3
ObjectDBX Classes
 90
     1153
 91
        3
280
     0
281
     0
  0
CLASS
  1
VISUALSTYLE
  2
AcDbVisualStyle
  3
ObjectDBX Classes
 90
     4095
 91
       24
280
     0
281
     0
  0
CLASS
  1
TABLESTYLE
  2
AcDbTableStyle
  3
ObjectDBX Classes
 90
     4095
 91
        1
280
     0
281
     0
  0
CLASS
  1
SCALE
  2
AcDbScale
  3
ObjectDBX Classes
 90
     1153
 91
       17
280
     0
281
     0
  0
CLASS
  1
MLEADERSTYLE
  2
AcDbMLeaderStyle
  3
ACDB_MLEADERSTYLE_CLASS
 90
     4095
 91
        1
280
     0
281
     0
  0
CLASS
  1
ACDBSECTIONVIEWSTYLE
  2
AcDbSectionViewStyle
  3
ObjectDBX Classes
 90
     1025
 91
        1
280
     0
281
     0
  0
CLASS
  1
ACDBDETAILVIEWSTYLE
  2
AcDbDetailViewStyle
  3
ObjectDBX Classes
 90
     1025
 91
        1
280
     0
281
     0
  0
CLASS
  1
CELLSTYLEMAP
  2
AcDbCellStyleMap
  3
ObjectDBX Classes
 90
     1152
 91
        3
280
     0
281
     0
  0
ENDSEC
  0
SECTION
  2
TABLES
  0
TABLE
  2
VPORT
  5
1058
102
{ACAD_XDICTIONARY
360
3729
102
}
330
0
100
AcDbSymbolTable
 70
     1
  0
VPORT
  5
3658
330
1058
100
AcDbSymbolTableRecord
100
AcDbViewportTableRecord
  2
*Active
 70
     0
 10
0.0
 20
0.0
 11
1.0
 21
1.0
 12
420.0000078235282
 22
297.0000055323513
 13
0.0
 23
0.0
 14
1.0
 24
1.0
 15
10.0
 25
10.0
 16
0.0
 26
0.0
 36
1.0
 17
0.0
 27
0.0
 37
0.0
 40
598.4170794623819
 41
1.852941176470588
 42
50.0
 43
0.0
 44
0.0
 50
0.0
 51
0.0
 71
     0
 72
  1500
 73
     1
 74
     0
 75
     0
 76
     0
 77
     0
 78
     0
281
     0
 65
     1
110
0.0
120
0.0
130
0.0
111
1.0
121
0.0
131
0.0
112
0.0
122
1.0
132
0.0
 79
     0
146
0.0
1001
ACAD_NAV_VCDISPLAY
1070
     3
  0
ENDTAB
  0
TABLE
  2
LTYPE
  5
1055
330
0
100
AcDbSymbolTable
 70
     5
  0
LTYPE
  5
1063
330
1055
100
AcDbSymbolTableRecord
100
AcDbLinetypeTableRecord
  2
ByBlock
 70
     0
  3

 72
    65
 73
     0
 40
0.0
  0
LTYPE
  5
1064
330
1055
100
AcDbSymbolTableRecord
100
AcDbLinetypeTableRecord
  2
ByLayer
 70
     0
  3

 72
    65
 73
     0
 40
0.0
  0
LTYPE
  5
1065
330
1055
100
AcDbSymbolTableRecord
100
AcDbLinetypeTableRecord
  2
AUSGEZOGEN
 70
     0
  3
Ausgezogene Linie
 72
    65
 73
     0
 40
0.0
  0
LTYPE
  5
1088
330
1055
100
AcDbSymbolTableRecord
100
AcDbLinetypeTableRecord
  2
STRICHPUNKT
 70
     0
  3
__ . __ . __ . __ . __ . __ . __ . __ . __ . __
 72
    65
 73
     4
 40
1.0
 49
0.5
 74
     0
 49
-0.25
 74
     0
 49
0.0
 74
     0
 49
-0.25
 74
     0
  0
LTYPE
  5
1089
330
1055
100
AcDbSymbolTableRecord
100
AcDbLinetypeTableRecord
  2
CONTINUOUS
 70
     0
  3
Solid line
 72
    65
 73
     0
 40
0.0
  0
LTYPE
  5
36A2
330
1055
100
AcDbSymbolTableRecord
100
AcDbLinetypeTableRecord
  2
PHANTOM2
 70
     0
  3
Phantom (.5x) ___ _ _ ___ _ _ ___ _ _ ___ _ _
 72
    65
 73
     6
 40
1.25
 49
0.625
 74
     0
 49
-0.125
 74
     0
 49
0.125
 74
     0
 49
-0.125
 74
     0
 49
0.125
 74
     0
 49
-0.125
 74
     0
  0
ENDTAB
  0
TABLE
  2
LAYER
  5
1052
102
{ACAD_XDICTIONARY
360
21FF
102
}
330
0
100
AcDbSymbolTable
 70
     9
  0
LAYER
  5
1060
102
{ACAD_XDICTIONARY
360
36AC
102
}
330
1052
100
AcDbSymbolTableRecord
100
AcDbLayerTableRecord
  2
0
 70
     0
 62
     7
  6
AUSGEZOGEN
370
    -3
390
105F
  0
LAYER
  5
108D
102
{ACAD_XDICTIONARY
360
36AE
102
}
330
1052
100
AcDbSymbolTableRecord
100
AcDbLayerTableRecord
  2
VOLL
 70
     0
 62
     1
  6
AUSGEZOGEN
370
    -3
390
105F
  0
LAYER
  5
108E
102
{ACAD_XDICTIONARY
360
36B0
102
}
330
1052
100
AcDbSymbolTableRecord
100
AcDbLayerTableRecord
  2
HILF
 70
     0
 62
     2
  6
AUSGEZOGEN
370
    -3
390
105F
  0
LAYER
  5
108F
102
{ACAD_XDICTIONARY
360
36B2
102
}
330
1052
100
AcDbSymbolTableRecord
100
AcDbLayerTableRecord
  2
MITTEL
 70
     0
 62
     2
  6
STRICHPUNKT
370
    -3
390
105F
  0
LAYER
  5
1090
102
{ACAD_XDICTIONARY
360
36B4
102
}
330
1052
100
AcDbSymbolTableRecord
100
AcDbLayerTableRecord
  2
BEM
 70
     0
 62
     7
  6
AUSGEZOGEN
370
    -3
390
105F
  0
LAYER
  5
1091
102
{ACAD_XDICTIONARY
360
36B6
102
}
330
1052
100
AcDbSymbolTableRecord
100
AcDbLayerTableRecord
  2
STEMPEL
 70
     0
 62
     3
  6
AUSGEZOGEN
370
    -3
390
105F
  0
LAYER
  5
1092
102
{ACAD_XDICTIONARY
360
36B8
102
}
330
1052
100
AcDbSymbolTableRecord
100
AcDbLayerTableRecord
  2
TEXT
 70
     0
 62
     7
  6
AUSGEZOGEN
370
    -3
390
105F
  0
LAYER
  5
1093
102
{ACAD_XDICTIONARY
360
36BA
102
}
330
1052
100
AcDbSymbolTableRecord
100
AcDbLayerTableRecord
  2
SCHRAFF
 70
     0
 62
     7
  6
AUSGEZOGEN
370
    -3
390
105F
  0
LAYER
  5
1094
330
1052
100
AcDbSymbolTableRecord
100
AcDbLayerTableRecord
  2
DEFPOINTS
 70
     0
 62
     7
  6
AUSGEZOGEN
290
     0
370
    -3
390
105F
  0
ENDTAB
  0
TABLE
  2
STYLE
  5
1053
330
0
100
AcDbSymbolTable
 70
     3
  0
STYLE
  5
1061
330
1053
100
AcDbSymbolTableRecord
100
AcDbTextStyleTableRecord
  2
STANDARD
 70
     0
 40
0.0
 41
1.0
 50
0.0
 71
     0
 42
3.5
  3
txt
  4

  0
STYLE
  5
1087
330
1053
100
AcDbSymbolTableRecord
100
AcDbTextStyleTableRecord
  2
GREEKS
 70
     0
 40
0.0
 41
0.8
 50
0.0
 71
     0
 42
2.5
  3
SIMPLEX.shx
  4

  0
ENDTAB
  0
TABLE
  2
VIEW
  5
1056
330
0
100
AcDbSymbolTable
 70
     0
  0
ENDTAB
  0
TABLE
  2
UCS
  5
1057
330
0
100
AcDbSymbolTable
 70
     0
  0
ENDTAB
  0
TABLE
  2
APPID
  5
1059
330
0
100
AcDbSymbolTable
 70
     5
  0
APPID
  5
1062
330
1059
100
AcDbSymbolTableRecord
100
AcDbRegAppTableRecord
  2
ACAD
 70
     0
  0
APPID
  5
2B25
330
1059
100
AcDbSymbolTableRecord
100
AcDbRegAppTableRecord
  2
ACAD_PSEXT
 70
     0
  0
APPID
  5
36AA
330
1059
100
AcDbSymbolTableRecord
100
AcDbRegAppTableRecord
  2
ACAD_EXEMPT_FROM_CAD_STANDARDS
 70
     0
  0
APPID
  5
36C3
330
1059
100
AcDbSymbolTableRecord
100
AcDbRegAppTableRecord
  2
ACAD_NAV_VCDISPLAY
 70
     0
  0
APPID
  5
3761
330
1059
100
AcDbSymbolTableRecord
100
AcDbRegAppTableRecord
  2
ACAD_MLEADERVER
 70
     0
  0
ENDTAB
  0
TABLE
  2
DIMSTYLE
  5
105A
330
0
100
AcDbSymbolTable
 70
     2
100
AcDbDimStyleTable
 71
     1
340
108C
  0
DIMSTYLE
105
108C
102
{ACAD_REACTORS
330
2DD2
330
300E
330
301B
330
335F
330
35C1
330
35F9
102
}
330
105A
100
AcDbSymbolTableRecord
100
AcDbDimStyleTableRecord
  2
STANDARD
 70
     0
 40
2.0
 41
3.5
 42
1.0
 43
1.0
 44
1.0
 48
2.0
 73
     0
 74
     0
 77
     1
 78
     8
 79
     2
140
3.5
146
0.5
147
1.199999999999999
172
     1
176
   256
178
     1
271
     2
272
     2
340
1087
371
    -1
  0
ENDTAB
  0
TABLE
  2
BLOCK_RECORD
  5
1051
330
0
100
AcDbSymbolTable
 70
     8
  0
BLOCK_RECORD
  5
106E
102
{ACAD_XDICTIONARY
360
1232
102
}
330
1051
100
AcDbSymbolTableRecord
100
AcDbBlockTableRecord
  2
*Model_Space
340
1071
  0
BLOCK_RECORD
  5
106A
102
{ACAD_XDICTIONARY
360
1234
102
}
330
1051
100
AcDbSymbolTableRecord
100
AcDbBlockTableRecord
  2
*Paper_Space
340
106D
  0
BLOCK_RECORD
  5
1072
330
1051
100
AcDbSymbolTableRecord
100
AcDbBlockTableRecord
  2
LOGO
340
0
102
{BLKREFS
331
322
102
}
  0
BLOCK_RECORD
  5
2DD3
330
1051
100
AcDbSymbolTableRecord
100
AcDbBlockTableRecord
  2
*D1
340
0
  0
BLOCK_RECORD
  5
300F
330
1051
100
AcDbSymbolTableRecord
100
AcDbBlockTableRecord
  2
*D2
340
0
  0
BLOCK_RECORD
  5
301C
330
1051
100
AcDbSymbolTableRecord
100
AcDbBlockTableRecord
  2
*D3
340
0
  0
BLOCK_RECORD
  5
3555
330
1051
100
AcDbSymbolTableRecord
100
AcDbBlockTableRecord
  2
*D4
340
0
  0
BLOCK_RECORD
  5
35C2
330
1051
100
AcDbSymbolTableRecord
100
AcDbBlockTableRecord
  2
*D5
340
0
  0
BLOCK_RECORD
  5
35FA
330
1051
100
AcDbSymbolTableRecord
100
AcDbBlockTableRecord
  2
*D6
340
0
  0
ENDTAB
  0
ENDSEC
  0
SECTION
  2
BLOCKS
  0
BLOCK
  5
1097
330
106E
100
AcDbEntity
  8
0
100
AcDbBlockBegin
  2
*Model_Space
 70
     0
 10
0.0
 20
0.0
 30
0.0
  3
*Model_Space
  1

  0
ENDBLK
  5
1098
330
106E
100
AcDbEntity
  8
0
100
AcDbBlockEnd
  0
BLOCK
  5
1095
330
106A
100
AcDbEntity
 67
     1
  8
0
100
AcDbBlockBegin
  2
*Paper_Space
 70
     0
 10
0.0
 20
0.0
 30
0.0
  3
*Paper_Space
  1

  0
ENDBLK
  5
1096
330
106A
100
AcDbEntity
 67
     1
  8
0
100
AcDbBlockEnd
  0
BLOCK
  5
43
330
1072
100
AcDbEntity
  8
0
100
AcDbBlockBegin
  2
LOGO
 70
     0
 10
0.0
 20
0.0
 30
0.0
  3
LOGO
  1

  0
ARC
  5
44
330
1072
100
AcDbEntity
  8
0
100
AcDbCircle
 10
11.59973089678112
 20
-9.271599258481501
 30
0.0
 40
4.5
100
AcDbArc
 50
270.0
 51
231.0575587310159
  0
LINE
  5
45
330
1072
100
AcDbEntity
  8
0
100
AcDbLine
 10
3.599730896781125
 20
-4.771599258481529
 30
0.0
 11
3.599730896781153
 21
-11.77159925848133
 31
0.0
  0
LINE
  5
46
330
1072
100
AcDbEntity
  8
0
100
AcDbLine
 10
2.599730896781125
 20
-4.771599258481529
 30
0.0
 11
2.599730896781153
 21
-11.77159925848133
 31
0.0
  0
CIRCLE
  5
47
330
1072
100
AcDbEntity
  8
0
100
AcDbCircle
 10
11.59973089678112
 20
-9.271599258481501
 30
0.0
 40
3.5
  0
ARC
  5
48
330
1072
100
AcDbEntity
  8
0
100
AcDbCircle
 10
31.59973089678115
 20
-9.271599258481472
 30
0.0
 40
4.5
100
AcDbArc
 50
270.0
 51
231.0575587310182
  0
LINE
  5
49
330
1072
100
AcDbEntity
  8
0
100
AcDbLine
 10
17.59973089678112
 20
-4.771599258481472
 30
0.0
 11
17.59973089678115
 21
-13.77159925848147
 31
0.0
  0
ARC
  5
4A
330
1072
100
AcDbEntity
  8
0
100
AcDbCircle
 10
22.59973089678116
 20
-7.271599258481472
 30
0.0
 40
2.5
100
AcDbArc
 50
293.1161887722295
 51
90.0
  0
CIRCLE
  5
4B
330
1072
100
AcDbEntity
  8
0
100
AcDbCircle
 10
31.59973089678115
 20
-9.271599258481472
 30
0.0
 40
3.5
  0
ARC
  5
4C
330
1072
100
AcDbEntity
  8
0
100
AcDbCircle
 10
4.599730896781153
 20
-11.77159925848133
 30
0.0
 40
1.0
100
AcDbArc
 50
180.0
 51
270.0
  0
ARC
  5
4D
330
1072
100
AcDbEntity
  8
0
100
AcDbCircle
 10
4.599730896781153
 20
-11.77159925848133
 30
0.0
 40
2.0
100
AcDbArc
 50
179.9999999999992
 51
270.0
  0
LINE
  5
4E
330
1072
100
AcDbEntity
  8
0
100
AcDbLine
 10
11.59973089678115
 20
-13.77159925848144
 30
0.0
 11
4.599730896781153
 21
-13.77159925848147
 31
0.0
  0
LINE
  5
4F
330
1072
100
AcDbEntity
  8
0
100
AcDbLine
 10
8.771303772034769
 20
-12.77159925848136
 30
0.0
 11
4.599730896781153
 21
-12.77159925848133
 31
0.0
  0
LINE
  5
50
330
1072
100
AcDbEntity
  8
0
100
AcDbLine
 10
31.59973089678115
 20
-13.77159925848147
 30
0.0
 11
23.6715276665056
 21
-13.77159925848144
 31
0.0
  0
LINE
  5
51
330
1072
100
AcDbEntity
  8
0
100
AcDbLine
 10
23.56565672307022
 20
-9.51278021337896
 30
0.0
 11
24.4388546544846
 21
-12.77159925848144
 31
0.0
  0
LINE
  5
52
330
1072
100
AcDbEntity
  8
0
100
AcDbLine
 10
22.59973089678116
 20
-9.771599258481472
 30
0.0
 11
18.59973089678112
 21
-9.771599258481472
 31
0.0
  0
LINE
  5
53
330
1072
100
AcDbEntity
  8
0
100
AcDbLine
 10
18.59973089678115
 20
-13.77159925848144
 30
0.0
 11
17.59973089678115
 21
-13.77159925848144
 31
0.0
  0
LINE
  5
54
330
1072
100
AcDbEntity
  8
0
100
AcDbLine
 10
18.59973089678115
 20
-9.771599258481472
 30
0.0
 11
18.59973089678115
 21
-13.77159925848144
 31
0.0
  0
LINE
  5
55
330
1072
100
AcDbEntity
  8
0
100
AcDbLine
 10
22.59973089678116
 20
-9.771599258481472
 30
0.0
 11
23.67152766650562
 21
-13.77159925848147
 31
0.0
  0
ARC
  5
56
330
1072
100
AcDbEntity
  8
0
100
AcDbCircle
 10
22.59973089678116
 20
-7.271599258481472
 30
0.0
 40
2.5
100
AcDbArc
 50
270.0
 51
270.0000000000007
  0
LINE
  5
57
330
1072
100
AcDbEntity
  8
0
100
AcDbLine
 10
28.77130377203494
 20
-12.77159925848147
 30
0.0
 11
24.43885465448463
 21
-12.77159925848144
 31
0.0
  0
LINE
  5
58
330
1072
100
AcDbEntity
  8
0
100
AcDbLine
 10
3.599730896781125
 20
-4.771599258481472
 30
0.0
 11
2.599730896781125
 21
-4.771599258481472
 31
0.0
  0
LINE
  5
59
330
1072
100
AcDbEntity
  8
0
100
AcDbLine
 10
22.59973089678116
 20
-8.771599258481472
 30
0.0
 11
18.59973089678115
 21
-8.771599258481472
 31
0.0
  0
LINE
  5
5A
330
1072
100
AcDbEntity
  8
0
100
AcDbLine
 10
22.59973089678116
 20
-5.771599258481472
 30
0.0
 11
18.59973089678115
 21
-5.771599258481472
 31
0.0
  0
LINE
  5
5B
330
1072
100
AcDbEntity
  8
0
100
AcDbLine
 10
22.59973089678116
 20
-4.771599258481472
 30
0.0
 11
17.59973089678115
 21
-4.771599258481472
 31
0.0
  0
LINE
  5
5C
330
1072
100
AcDbEntity
  8
0
100
AcDbLine
 10
18.59973089678115
 20
-5.771599258481472
 30
0.0
 11
18.59973089678115
 21
-8.771599258481472
 31
0.0
  0
ARC
  5
5D
330
1072
100
AcDbEntity
  8
0
100
AcDbCircle
 10
22.59973089678116
 20
-7.271599258481472
 30
0.0
 40
1.5
100
AcDbArc
 50
270.0
 51
90.0
  0
ENDBLK
  5
5E
330
1072
100
AcDbEntity
  8
0
100
AcDbBlockEnd
  0
BLOCK
  5
2DDD
330
2DD3
100
AcDbEntity
  8
0
100
AcDbBlockBegin
  2
*D1
 70
     1
 10
0.0
 20
0.0
 30
0.0
  3
*D1
  1

  0
LINE
  5
3122
330
2DD3
100
AcDbEntity
  8
BEM
 62
     0
440
 16777216
370
    -2
100
AcDbLine
 10
795.2283368402206
 20
242.2045186447304
 30
0.0
 11
821.5839591349741
 21
240.8232790086397
 31
0.0
  0
LINE
  5
3123
330
2DD3
100
AcDbEntity
  8
BEM
 62
     0
440
 16777216
370
    -2
100
AcDbLine
 10
800.5456699944865
 20
343.6652793757887
 30
0.0
 11
826.9012922892569
 21
342.2840397396972
 31
0.0
  0
LINE
  5
3124
330
2DD3
100
AcDbEntity
  8
BEM
440
 16777216
100
AcDbLine
 10
819.9530517591655
 20
247.9183576644076
 30
0.0
 11
824.5376815260472
 21
335.398304908901
 31
0.0
  0
SOLID
  5
3125
330
2DD3
100
AcDbEntity
  8
BEM
440
 16777216
100
AcDbTrace
 10
818.7879839686186
 20
247.9794162800244
 30
0.0
 11
821.1181195497125
 21
247.8572990487909
 31
0.0
 12
819.5867000654651
 22
240.9279509211256
 32
0.0
 13
819.5867000654651
 23
240.9279509211256
 33
0.0
  0
SOLID
  5
3126
330
2DD3
100
AcDbEntity
  8
BEM
440
 16777216
100
AcDbTrace
 10
823.3726137355002
 20
335.4593635245178
 30
0.0
 11
825.702749316594
 21
335.3372462932843
 31
0.0
 12
824.9040332197477
 22
342.388711652183
 32
0.0
 13
824.9040332197477
 23
342.388711652183
 33
0.0
  0
MTEXT
  5
3127
330
2DD3
100
AcDbEntity
  8
BEM
 62
     1
440
 16777216
100
AcDbMText
 10
816.3534523875545
 20
291.9671134284878
 30
0.0
 40
7.0
 41
0.0
 71
     5
 72
     1
  1
\A1;%%c101.6
  7
GREEKS
 11
0.052335956242944
 21
0.9986295347545739
 31
0.0
 73
     1
 44
1.0
  0
POINT
  5
3128
330
2DD3
100
AcDbEntity
  8
DEFPOINTS
 62
     0
440
 16777216
100
AcDbPoint
 10
793.2310777707115
 20
242.3091905572162
 30
0.0
  0
POINT
  5
3129
330
2DD3
100
AcDbEntity
  8
DEFPOINTS
 62
     0
440
 16777216
100
AcDbPoint
 10
798.5484109249774
 20
343.7699512882746
 30
0.0
  0
POINT
  5
312A
330
2DD3
100
AcDbEntity
  8
DEFPOINTS
 62
     0
440
 16777216
100
AcDbPoint
 10
824.9040332197477
 20
342.388711652183
 30
0.0
  0
ENDBLK
  5
2DDE
330
2DD3
100
AcDbEntity
  8
0
100
AcDbBlockEnd
  0
BLOCK
  5
3019
330
300F
100
AcDbEntity
  8
0
100
AcDbBlockBegin
  2
*D2
 70
     1
 10
0.0
 20
0.0
 30
0.0
  3
*D2
  1

  0
LINE
  5
312B
330
300F
100
AcDbEntity
  8
BEM
 62
     0
440
 16777216
370
    -2
100
AcDbLine
 10
69.87741016061534
 20
335.9999999999999
 30
0.0
 11
69.87741016061534
 21
258.6740014402409
 31
0.0
  0
LINE
  5
312C
330
300F
100
AcDbEntity
  8
BEM
 62
     0
440
 16777216
370
    -2
100
AcDbLine
 10
349.8774101606153
 20
341.6999999999997
 30
0.0
 11
349.8774101606153
 21
258.6740014402409
 31
0.0
  0
LINE
  5
312D
330
300F
100
AcDbEntity
  8
BEM
440
 16777216
100
AcDbLine
 10
76.87741016061534
 20
260.6740014402409
 30
0.0
 11
342.8774101606153
 21
260.6740014402409
 31
0.0
  0
SOLID
  5
312E
330
300F
100
AcDbEntity
  8
BEM
440
 16777216
100
AcDbTrace
 10
76.87741016061534
 20
261.8406681069076
 30
0.0
 11
76.87741016061534
 21
259.5073347735743
 31
0.0
 12
69.87741016061534
 22
260.6740014402409
 32
0.0
 13
69.87741016061534
 23
260.6740014402409
 33
0.0
  0
SOLID
  5
312F
330
300F
100
AcDbEntity
  8
BEM
440
 16777216
100
AcDbTrace
 10
342.8774101606153
 20
261.8406681069076
 30
0.0
 11
342.8774101606153
 21
259.5073347735743
 31
0.0
 12
349.8774101606153
 22
260.6740014402409
 32
0.0
 13
349.8774101606153
 23
260.6740014402409
 33
0.0
  0
MTEXT
  5
3130
330
300F
100
AcDbEntity
  8
BEM
 62
     1
440
 16777216
100
AcDbMText
 10
209.8774101606153
 20
266.5740014402409
 30
0.0
 40
7.0
 41
0.0
 71
     5
 72
     1
  1
\A1;280
  7
GREEKS
 73
     1
 44
1.0
  0
POINT
  5
3131
330
300F
100
AcDbEntity
  8
DEFPOINTS
 62
     0
440
 16777216
100
AcDbPoint
 10
69.87741016061534
 20
337.9999999999999
 30
0.0
  0
POINT
  5
3132
330
300F
100
AcDbEntity
  8
DEFPOINTS
 62
     0
440
 16777216
100
AcDbPoint
 10
349.8774101606153
 20
343.6999999999997
 30
0.0
  0
POINT
  5
3133
330
300F
100
AcDbEntity
  8
DEFPOINTS
 62
     0
440
 16777216
100
AcDbPoint
 10
349.8774101606153
 20
260.6740014402409
 30
0.0
  0
ENDBLK
  5
301A
330
300F
100
AcDbEntity
  8
0
100
AcDbBlockEnd
  0
BLOCK
  5
3026
330
301C
100
AcDbEntity
  8
0
100
AcDbBlockBegin
  2
*D3
 70
     1
 10
0.0
 20
0.0
 30
0.0
  3
*D3
  1

  0
LINE
  5
35A9
330
301C
100
AcDbEntity
  8
BEM
 62
     0
440
 16777216
370
    -2
100
AcDbLine
 10
346.177410160615
 20
337.9999999999996
 30
0.0
 11
365.9483136146584
 21
337.9999999999996
 31
0.0
  0
LINE
  5
35AA
330
301C
100
AcDbEntity
  8
BEM
 62
     0
440
 16777216
370
    -2
100
AcDbLine
 10
351.8774101606152
 20
442.9989826944731
 30
0.0
 11
365.9483136146584
 21
442.9989826944731
 31
0.0
  0
LINE
  5
35AB
330
301C
100
AcDbEntity
  8
BEM
440
 16777216
100
AcDbLine
 10
363.9483136146584
 20
344.9999999999996
 30
0.0
 11
363.9483136146584
 21
435.9989826944731
 31
0.0
  0
SOLID
  5
35AC
330
301C
100
AcDbEntity
  8
BEM
440
 16777216
100
AcDbTrace
 10
362.7816469479917
 20
344.9999999999996
 30
0.0
 11
365.1149802813251
 21
344.9999999999996
 31
0.0
 12
363.9483136146584
 22
337.9999999999996
 32
0.0
 13
363.9483136146584
 23
337.9999999999996
 33
0.0
  0
SOLID
  5
35AD
330
301C
100
AcDbEntity
  8
BEM
440
 16777216
100
AcDbTrace
 10
362.7816469479918
 20
435.9989826944731
 30
0.0
 11
365.1149802813251
 21
435.9989826944731
 31
0.0
 12
363.9483136146584
 22
442.9989826944731
 32
0.0
 13
363.9483136146584
 23
442.9989826944731
 33
0.0
  0
MTEXT
  5
35AE
330
301C
100
AcDbEntity
  8
BEM
 62
     1
440
 16777216
100
AcDbMText
 10
358.0483136146583
 20
390.4994913472364
 30
0.0
 40
7.0
 41
0.0
 71
     5
 72
     1
  1
\A1;105
  7
GREEKS
 11
0.0000000000000001
 21
1.0
 31
0.0
 73
     1
 44
1.0
  0
POINT
  5
35AF
330
301C
100
AcDbEntity
  8
DEFPOINTS
 62
     0
440
 16777216
100
AcDbPoint
 10
344.177410160615
 20
337.9999999999996
 30
0.0
  0
POINT
  5
35B0
330
301C
100
AcDbEntity
  8
DEFPOINTS
 62
     0
440
 16777216
100
AcDbPoint
 10
349.8774101606152
 20
442.9989826944731
 30
0.0
  0
POINT
  5
35B1
330
301C
100
AcDbEntity
  8
DEFPOINTS
 62
     0
440
 16777216
100
AcDbPoint
 10
363.9483136146584
 20
442.9989826944731
 30
0.0
  0
ENDBLK
  5
3027
330
301C
100
AcDbEntity
  8
0
100
AcDbBlockEnd
  0
BLOCK
  5
355F
330
3555
100
AcDbEntity
  8
0
100
AcDbBlockBegin
  2
*D4
 70
     1
 10
0.0
 20
0.0
 30
0.0
  3
*D4
  1

  0
LINE
  5
364F
330
3555
100
AcDbEntity
  8
BEM
 62
     0
440
 16777216
370
    -2
100
AcDbLine
 10
204.8774101606153
 20
372.9999999999994
 30
0.0
 11
204.8774101606153
 21
508.0923342593032
 31
0.0
  0
LINE
  5
3650
330
3555
100
AcDbEntity
  8
BEM
 62
     0
440
 16777216
370
    -2
100
AcDbLine
 10
804.8774101606156
 20
294.5685473165681
 30
0.0
 11
804.8774101606156
 21
508.0923342593032
 31
0.0
  0
LINE
  5
3651
330
3555
100
AcDbEntity
  8
BEM
440
 16777216
100
AcDbLine
 10
211.8774101606152
 20
506.0923342593032
 30
0.0
 11
797.8774101606156
 21
506.0923342593032
 31
0.0
  0
SOLID
  5
3652
330
3555
100
AcDbEntity
  8
BEM
440
 16777216
100
AcDbTrace
 10
211.8774101606152
 20
507.2590009259699
 30
0.0
 11
211.8774101606152
 21
504.9256675926365
 31
0.0
 12
204.8774101606153
 22
506.0923342593032
 32
0.0
 13
204.8774101606153
 23
506.0923342593032
 33
0.0
  0
SOLID
  5
3653
330
3555
100
AcDbEntity
  8
BEM
440
 16777216
100
AcDbTrace
 10
797.8774101606156
 20
507.2590009259699
 30
0.0
 11
797.8774101606156
 21
504.9256675926365
 31
0.0
 12
804.8774101606156
 22
506.0923342593032
 32
0.0
 13
804.8774101606156
 23
506.0923342593032
 33
0.0
  0
MTEXT
  5
3654
330
3555
100
AcDbEntity
  8
BEM
 62
     1
440
 16777216
100
AcDbMText
 10
504.8774101606154
 20
511.9923342593032
 30
0.0
 40
7.0
 41
0.0
 71
     5
 72
     1
  1
\A1;600
  7
GREEKS
 73
     1
 44
1.0
  0
POINT
  5
3655
330
3555
100
AcDbEntity
  8
DEFPOINTS
 62
     0
440
 16777216
100
AcDbPoint
 10
204.8774101606153
 20
370.9999999999994
 30
0.0
  0
POINT
  5
3656
330
3555
100
AcDbEntity
  8
DEFPOINTS
 62
     0
440
 16777216
100
AcDbPoint
 10
804.8774101606156
 20
292.5685473165681
 30
0.0
  0
POINT
  5
3657
330
3555
100
AcDbEntity
  8
DEFPOINTS
 62
     0
440
 16777216
100
AcDbPoint
 10
804.8774101606156
 20
506.0923342593032
 30
0.0
  0
ENDBLK
  5
3560
330
3555
100
AcDbEntity
  8
0
100
AcDbBlockEnd
  0
BLOCK
  5
35CC
330
35C2
100
AcDbEntity
  8
0
100
AcDbBlockBegin
  2
*D5
 70
     1
 10
0.0
 20
0.0
 30
0.0
  3
*D5
  1

  0
LINE
  5
35C3
330
35C2
100
AcDbEntity
  8
BEM
 62
     0
440
 16777216
370
    -2
100
AcDbLine
 10
67.87741016061523
 20
340.9999999999999
 30
0.0
 11
55.76324281727767
 21
340.9999999999999
 31
0.0
  0
LINE
  5
35C4
330
35C2
100
AcDbEntity
  8
BEM
 62
     0
440
 16777216
370
    -2
100
AcDbLine
 10
148.8774101606152
 20
282.9999999999999
 30
0.0
 11
55.76324281727766
 21
283.0
 31
0.0
  0
LINE
  5
35C5
330
35C2
100
AcDbEntity
  8
BEM
440
 16777216
100
AcDbLine
 10
57.76324281727767
 20
333.9999999999999
 30
0.0
 11
57.76324281727767
 21
290.0
 31
0.0
  0
SOLID
  5
35C6
330
35C2
100
AcDbEntity
  8
BEM
440
 16777216
100
AcDbTrace
 10
56.596576150611
 20
333.9999999999999
 30
0.0
 11
58.92990948394434
 21
333.9999999999999
 31
0.0
 12
57.76324281727768
 22
340.9999999999999
 32
0.0
 13
57.76324281727768
 23
340.9999999999999
 33
0.0
  0
SOLID
  5
35C7
330
35C2
100
AcDbEntity
  8
BEM
440
 16777216
100
AcDbTrace
 10
56.59657615061099
 20
290.0
 30
0.0
 11
58.92990948394433
 21
290.0
 31
0.0
 12
57.76324281727767
 22
283.0
 32
0.0
 13
57.76324281727767
 23
283.0
 33
0.0
  0
MTEXT
  5
35C8
330
35C2
100
AcDbEntity
  8
BEM
 62
     1
440
 16777216
100
AcDbMText
 10
51.86324281727762
 20
311.9999999999999
 30
0.0
 40
7.0
 41
0.0
 71
     5
 72
     1
  1
\A1;58
  7
GREEKS
 11
0.0000000000000001
 21
1.0
 31
0.0
 73
     1
 44
1.0
  0
POINT
  5
35C9
330
35C2
100
AcDbEntity
  8
DEFPOINTS
 62
     0
440
 16777216
100
AcDbPoint
 10
69.87741016061523
 20
340.9999999999999
 30
0.0
  0
POINT
  5
35CA
330
35C2
100
AcDbEntity
  8
DEFPOINTS
 62
     0
440
 16777216
100
AcDbPoint
 10
150.8774101606152
 20
282.9999999999999
 30
0.0
  0
POINT
  5
35CB
330
35C2
100
AcDbEntity
  8
DEFPOINTS
 62
     0
440
 16777216
100
AcDbPoint
 10
57.76324281727767
 20
283.0
 30
0.0
  0
ENDBLK
  5
35CD
330
35C2
100
AcDbEntity
  8
0
100
AcDbBlockEnd
  0
BLOCK
  5
3609
330
35FA
100
AcDbEntity
  8
0
100
AcDbBlockBegin
  2
*D6
 70
     1
 10
0.0
 20
0.0
 30
0.0
  3
*D6
  1

  0
LINE
  5
3619
330
35FA
100
AcDbEntity
  8
BEM
 62
     0
440
 16777216
370
    -2
100
AcDbLine
 10
322.5420858046478
 20
317.9514860943895
 30
0.0
 11
463.5418263576635
 21
317.9514860943896
 31
0.0
  0
ARC
  5
361A
330
35FA
100
AcDbEntity
  8
BEM
440
 16777216
100
AcDbCircle
 10
320.5420858046478
 20
317.9514860943895
 30
0.0
 40
140.9997405530157
100
AcDbArc
 50
351.3087073873745
 51
356.9999999999998
  0
LINE
  5
361B
330
35FA
100
AcDbEntity
  8
BEM
440
 16777216
100
AcDbLine
 10
459.9227070045003
 20
296.644931470026
 30
0.0
 11
458.230268345699
 21
285.5735426056515
 31
0.0
  0
ARC
  5
361C
330
35FA
100
AcDbEntity
  8
BEM
440
 16777216
100
AcDbCircle
 10
320.5420858046478
 20
317.9514860943895
 30
0.0
 40
140.9997405530157
100
AcDbArc
 50
351.3104624977277
 51
354.1552312488637
  0
ARC
  5
361D
330
35FA
100
AcDbEntity
  8
BEM
440
 16777216
100
AcDbCircle
 10
320.5420858046478
 20
317.9514860943895
 30
0.0
 40
140.9997405530157
100
AcDbArc
 50
2.844768751136115
 51
5.68953750227215
  0
ARC
  5
361E
330
35FA
100
AcDbEntity
  8
BEM
440
 16777216
100
AcDbCircle
 10
320.5420858046478
 20
317.9514860943895
 30
0.0
 40
140.9997405530157
100
AcDbArc
 50
356.9999999999998
 51
0.0000000000000799
  0
SOLID
  5
361F
330
35FA
100
AcDbEntity
  8
BEM
440
 16777216
100
AcDbTrace
 10
459.6456380963981
 20
303.682930895475
 30
0.0
 11
461.9720244044853
 21
303.5030109410818
 31
0.0
 12
461.3485911136215
 22
310.57212984254
 32
0.0
 13
461.3485911136215
 23
310.57212984254
 33
0.0
  0
SOLID
  5
3620
330
35FA
100
AcDbEntity
  8
BEM
440
 16777216
100
AcDbTrace
 10
462.5343743523723
 20
324.9782890366465
 30
0.0
 11
460.2017599930073
 21
324.920369308322
 31
0.0
 12
461.5418263576636
 22
317.9514860943896
 32
0.0
 13
461.5418263576636
 23
317.9514860943896
 33
0.0
  0
MTEXT
  5
3621
330
35FA
100
AcDbEntity
  8
BEM
 62
     1
440
 16777216
100
AcDbMText
 10
453.2442381840454
 20
292.0007895456001
 30
0.0
 40
7.0
 41
0.0
 71
     5
 72
     1
  1
\A1;3°
  7
GREEKS
 11
0.1511105945358277
 21
0.9885168628905775
 31
0.0
 73
     1
 44
1.0
  0
POINT
  5
3622
330
35FA
100
AcDbEntity
  8
DEFPOINTS
 62
     0
440
 16777216
100
AcDbPoint
 10
461.5203514142298
 20
315.4907013147066
 30
0.0
  0
POINT
  5
3623
330
35FA
100
AcDbEntity
  8
DEFPOINTS
 62
     0
440
 16777216
100
AcDbPoint
 10
320.5420858046478
 20
317.9514860943895
 30
0.0
  0
POINT
  5
3624
330
35FA
100
AcDbEntity
  8
DEFPOINTS
 62
     0
440
 16777216
100
AcDbPoint
 10
315.548938130875
 20
318.2131658756043
 30
0.0
  0
POINT
  5
3625
330
35FA
100
AcDbEntity
  8
DEFPOINTS
 62
     0
440
 16777216
100
AcDbPoint
 10
809.8705578343892
 20
292.3068675353455
 30
0.0
  0
POINT
  5
3626
330
35FA
100
AcDbEntity
  8
DEFPOINTS
 62
     0
440
 16777216
100
AcDbPoint
 10
315.5420858046481
 20
317.9514860943895
 30
0.0
  0
ENDBLK
  5
360A
330
35FA
100
AcDbEntity
  8
0
100
AcDbBlockEnd
  0
ENDSEC
  0
SECTION
  2
ENTITIES
  0
LINE
  5
2DF
330
106E
100
AcDbEntity
  8
STEMPEL
100
AcDbLine
 10
830.0000000000004
 20
109.9999999999994
 30
0.0
 11
470.0000000000001
 21
109.9999999999996
 31
0.0
  0
LINE
  5
2E0
330
106E
100
AcDbEntity
  8
STEMPEL
100
AcDbLine
 10
566.0000000000002
 20
109.9999999999994
 30
0.0
 11
566.0000000000001
 21
9.999999999999715
 31
0.0
  0
LINE
  5
2E1
330
106E
100
AcDbEntity
  8
STEMPEL
100
AcDbLine
 10
650.0000000000002
 20
109.9999999999995
 30
0.0
 11
650.0
 21
9.999999999999658
 31
0.0
  0
LINE
  5
2E2
330
106E
100
AcDbEntity
  8
STEMPEL
100
AcDbLine
 10
752.0000000000001
 20
109.9999999999992
 30
0.0
 11
752.0
 21
39.9999999999996
 31
0.0
  0
LINE
  5
2E3
330
106E
100
AcDbEntity
  8
STEMPEL
100
AcDbLine
 10
565.9999999999999
 20
29.99999999999966
 30
0.0
 11
470.0000000000001
 21
29.99999999999977
 31
0.0
  0
LINE
  5
2E4
330
106E
100
AcDbEntity
  8
STEMPEL
100
AcDbLine
 10
830.0
 20
39.99999999999955
 30
0.0
 11
565.9999999999999
 21
39.99999999999966
 31
0.0
  0
LINE
  5
2E5
330
106E
100
AcDbEntity
  8
STEMPEL
100
AcDbLine
 10
830.0000000000002
 20
79.99999999999952
 30
0.0
 11
566.0000000000001
 21
79.99999999999949
 31
0.0
  0
LINE
  5
2E6
330
106E
100
AcDbEntity
  8
VOLL
100
AcDbLine
 10
484.0000000000002
 20
109.9999999999996
 30
0.0
 11
484.0
 21
9.999999999999715
 31
0.0
  0
LINE
  5
2E7
330
106E
100
AcDbEntity
  8
VOLL
100
AcDbLine
 10
524.0000000000001
 20
109.9999999999994
 30
0.0
 11
524.0000000000001
 21
9.999999999999715
 31
0.0
  0
LINE
  5
2E8
330
106E
100
AcDbEntity
  8
VOLL
100
AcDbLine
 10
544.0000000000001
 20
109.9999999999993
 30
0.0
 11
544.0000000000001
 21
9.999999999999715
 31
0.0
  0
LINE
  5
2E9
330
106E
100
AcDbEntity
  8
VOLL
100
AcDbLine
 10
584.0000000000001
 20
79.99999999999946
 30
0.0
 11
584.0
 21
39.99999999999966
 31
0.0
  0
LINE
  5
2EA
330
106E
100
AcDbEntity
  8
VOLL
100
AcDbLine
 10
610.0
 20
109.9999999999993
 30
0.0
 11
610.0
 21
39.99999999999969
 31
0.0
  0
LINE
  5
2EB
330
106E
100
AcDbEntity
  8
HILF
100
AcDbLine
 10
470.0000000000001
 20
99.99999999999964
 30
0.0
 11
566.0
 21
99.9999999999996
 31
0.0
  0
LINE
  5
2EC
330
106E
100
AcDbEntity
  8
HILF
100
AcDbLine
 10
470.0000000000001
 20
89.9999999999996
 30
0.0
 11
566.0000000000001
 21
89.99999999999955
 31
0.0
  0
LINE
  5
2ED
330
106E
100
AcDbEntity
  8
HILF
100
AcDbLine
 10
470.0000000000001
 20
79.99999999999949
 30
0.0
 11
566.0000000000001
 21
79.99999999999949
 31
0.0
  0
LINE
  5
2EE
330
106E
100
AcDbEntity
  8
HILF
100
AcDbLine
 10
470.0000000000001
 20
69.99999999999949
 30
0.0
 11
566.0
 21
69.99999999999946
 31
0.0
  0
LINE
  5
2EF
330
106E
100
AcDbEntity
  8
HILF
100
AcDbLine
 10
470.0000000000001
 20
59.99999999999977
 30
0.0
 11
566.0000000000001
 21
59.99999999999966
 31
0.0
  0
LINE
  5
2F0
330
106E
100
AcDbEntity
  8
HILF
100
AcDbLine
 10
470.0000000000001
 20
49.99999999999975
 30
0.0
 11
566.0000000000001
 21
49.99999999999968
 31
0.0
  0
LINE
  5
2F1
330
106E
100
AcDbEntity
  8
HILF
100
AcDbLine
 10
470.0000000000001
 20
39.99999999999971
 30
0.0
 11
565.9999999999999
 21
39.99999999999966
 31
0.0
  0
LINE
  5
2F2
330
106E
100
AcDbEntity
  8
HILF
100
AcDbLine
 10
566.0
 20
69.99999999999946
 30
0.0
 11
650.0
 21
69.99999999999943
 31
0.0
  0
LINE
  5
2F3
330
106E
100
AcDbEntity
  8
HILF
100
AcDbLine
 10
566.0000000000001
 20
59.99999999999966
 30
0.0
 11
650.0
 21
59.99999999999963
 31
0.0
  0
LINE
  5
2F4
330
106E
100
AcDbEntity
  8
HILF
100
AcDbLine
 10
566.0000000000001
 20
49.99999999999968
 30
0.0
 11
650.0
 21
49.99999999999966
 31
0.0
  0
LINE
  5
2F5
330
106E
100
AcDbEntity
  8
HILF
100
AcDbLine
 10
654.7736801096946
 20
84.03758247564088
 30
0.0
 11
744.8353916556309
 21
84.03758247564079
 31
0.0
  0
LINE
  5
2F6
330
106E
100
AcDbEntity
  8
HILF
100
AcDbLine
 10
654.7736801096946
 20
69.99999999999937
 30
0.0
 11
744.8353916556309
 21
69.99999999999937
 31
0.0
  0
LINE
  5
2F7
330
106E
100
AcDbEntity
  8
HILF
100
AcDbLine
 10
654.7736801096948
 20
59.99999999999963
 30
0.0
 11
744.8353916556311
 21
59.99999999999954
 31
0.0
  0
LINE
  5
2F8
330
106E
100
AcDbEntity
  8
HILF
100
AcDbLine
 10
654.7736801096946
 20
49.99999999999966
 30
0.0
 11
744.8353916556309
 21
49.9999999999996
 31
0.0
  0
LINE
  5
2F9
330
106E
100
AcDbEntity
  8
VOLL
100
AcDbLine
 10
752.0
 20
59.99999999999957
 30
0.0
 11
830.0
 21
59.99999999999954
 31
0.0
  0
LINE
  5
2FA
330
106E
100
AcDbEntity
  8
HILF
100
AcDbLine
 10
756.7238616296994
 20
83.77983636955759
 30
0.0
 11
824.8588839326728
 21
83.77983636955756
 31
0.0
  0
LINE
  5
2FB
330
106E
100
AcDbEntity
  8
HILF
100
AcDbLine
 10
653.4909699289885
 20
14.89398258028279
 30
0.0
 11
824.8588839326728
 21
14.89398258028268
 31
0.0
  0
TEXT
  5
2FC
330
106E
100
AcDbEntity
  8
TEXT
100
AcDbText
 10
492.7826069847976
 20
18.67381894984096
 30
0.0
 40
4.0
  1
Änderung
 50
360.0
 41
0.8
  7
GREEKS
 72
     1
 11
503.5254641276548
 21
18.67381894984095
 31
0.0
100
AcDbText
  0
TEXT
  5
2FD
330
106E
100
AcDbEntity
  8
TEXT
100
AcDbText
 10
573.5163572150376
 20
102.4620895087083
 30
0.0
 40
5.0
  1
Maßstab
 50
360.0
 41
0.8
  7
GREEKS
100
AcDbText
  0
TEXT
  5
2FE
330
106E
100
AcDbEntity
  8
TEXT
100
AcDbText
 10
614.2858954734053
 20
102.4184168434812
 30
0.0
 40
5.0
  1
Zul. Abw.
 50
360.0
 41
0.8
  7
GREEKS
100
AcDbText
  0
TEXT
  5
2FF
330
106E
100
AcDbEntity
  8
TEXT
100
AcDbText
 10
654.8779403809011
 20
102.5489328011774
 30
0.0
 40
5.0
  1
Benennung
 50
360.0
 41
0.8
  7
GREEKS
100
AcDbText
  0
TEXT
  5
300
330
106E
100
AcDbEntity
  8
TEXT
100
AcDbText
 10
756.1787549576341
 20
102.3132034537131
 30
0.0
 40
5.0
  1
Zeichnungs Nr.
 50
360.0
 41
0.8
  7
GREEKS
100
AcDbText
  0
TEXT
  5
301
330
106E
100
AcDbEntity
  8
TEXT
100
AcDbText
 10
654.7422383911359
 20
30.84560570193014
 30
0.0
 40
5.0
  1
Bauvorhaben
 50
360.0
 41
0.8
  7
GREEKS
100
AcDbText
  0
TEXT
  5
302
330
106E
100
AcDbEntity
  8
TEXT
100
AcDbText
 10
756.7238616296994
 20
73.18118237099913
 30
0.0
 40
5.0
  1
Ersatz für:
 50
360.0
 41
0.8
  7
GREEKS
100
AcDbText
  0
TEXT
  5
303
330
106E
100
AcDbEntity
  8
TEXT
100
AcDbText
 10
478.2664110704575
 20
13.65465846027149
 30
0.0
 40
4.0
  1
Index
 50
89.99999999999998
 41
0.8
  7
GREEKS
100
AcDbText
  0
TEXT
  5
304
330
106E
100
AcDbEntity
  8
TEXT
100
AcDbText
 10
530.0571803261054
 20
18.67156269339779
 30
0.0
 40
4.0
  1
Tag
 50
360.0
 41
0.8
  7
GREEKS
 72
     1
 11
533.7905136594388
 21
18.67156269339779
 31
0.0
100
AcDbText
  0
TEXT
  5
305
330
106E
100
AcDbEntity
  8
TEXT
100
AcDbText
 10
548.6614567187548
 20
18.59324216966377
 30
0.0
 40
4.0
  1
Name
 50
360.0
 41
0.8
  7
GREEKS
 72
     1
 11
554.9852662425642
 21
18.59324216966377
 31
0.0
100
AcDbText
  0
TEXT
  5
306
330
106E
100
AcDbEntity
  8
TEXT
100
AcDbText
 10
592.3311673153651
 20
73.31880501229893
 30
0.0
 40
4.0
  1
Tag
 50
360.0
 41
0.8
  7
GREEKS
100
AcDbText
  0
TEXT
  5
307
330
106E
100
AcDbEntity
  8
TEXT
100
AcDbText
 10
622.4626584226293
 20
73.30961091915182
 30
0.0
 40
4.0
  1
Name
 50
360.0
 41
0.8
  7
GREEKS
100
AcDbText
  0
TEXT
  5
308
330
106E
100
AcDbEntity
  8
TEXT
100
AcDbText
 10
567.5836127167616
 20
63.62990369617927
 30
0.0
 40
4.0
  1
Gez.
 50
360.0
 41
0.8
  7
GREEKS
100
AcDbText
  0
TEXT
  5
309
330
106E
100
AcDbEntity
  8
TEXT
100
AcDbText
 10
567.5515086571672
 20
53.68926291428346
 30
0.0
 40
4.0
  1
Gepr.
 50
360.0
 41
0.8
  7
GREEKS
100
AcDbText
  0
TEXT
  5
30A
330
106E
100
AcDbEntity
  8
TEXT
100
AcDbText
 10
567.6006777387304
 20
43.52946389649781
 30
0.0
 40
4.0
  1
Norm.
 50
360.0
 41
0.8
  7
GREEKS
100
AcDbText
  0
LINE
  5
30B
330
106E
100
AcDbEntity
  8
STEMPEL
100
AcDbLine
 10
479.9999999999998
 20
9.999999999999715
 30
0.0
 11
830.0000000000002
 21
9.999999999999545
 31
0.0
  0
TEXT
  5
30C
330
106E
100
AcDbEntity
  8
TEXT
100
AcDbText
 10
757.2400861497007
 20
52.07416177878553
 30
0.0
 40
5.0
  1
ersetzt durch:
 50
360.0
 41
0.8
  7
GREEKS
100
AcDbText
  0
LINE
  5
30D
330
106E
100
AcDbEntity
  8
STEMPEL
100
AcDbLine
 10
830.0000000000002
 20
9.999999999999545
 30
0.0
 11
40.00000000000006
 21
10.0
 31
0.0
  0
LINE
  5
30E
330
106E
100
AcDbEntity
  8
STEMPEL
100
AcDbLine
 10
830.0000000000002
 20
9.999999999999545
 30
0.0
 11
830.0000000000004
 21
583.9999999999993
 31
0.0
  0
LINE
  5
30F
330
106E
100
AcDbEntity
  8
STEMPEL
100
AcDbLine
 10
470.0000000000001
 20
9.999999999999715
 30
0.0
 11
470.0000000000001
 21
109.9999999999996
 31
0.0
  0
LINE
  5
310
330
106E
100
AcDbEntity
  8
STEMPEL
100
AcDbLine
 10
830.0000000000004
 20
583.9999999999993
 30
0.0
 11
40.00000000000023
 21
584.0
 31
0.0
  0
LINE
  5
311
330
106E
100
AcDbEntity
  8
HILF
100
AcDbLine
 10
840.0000000000002
 20
593.9999999999997
 30
0.0
 11
0.0000000000001137
 21
593.9999999999995
 31
0.0
  0
LINE
  5
312
330
106E
100
AcDbEntity
  8
HILF
100
AcDbLine
 10
840.0000000000002
 20
-0.0000000000004547
 30
0.0
 11
0.0
 21
0.0
 31
0.0
  0
LINE
  5
313
330
106E
100
AcDbEntity
  8
HILF
100
AcDbLine
 10
31.08767135713867
 20
296.9999999999998
 30
0.0
 11
0.0000000000002274
 21
296.9999999999998
 31
0.0
  0
TEXT
  5
314
330
106E
100
AcDbEntity
  8
TEXT
100
AcDbText
 10
568.622109822104
 20
73.14025471151615
 30
0.0
 40
4.0
  1
2015
 50
360.0
 41
0.8
  7
GREEKS
100
AcDbText
  0
LINE
  5
315
330
106E
100
AcDbEntity
  8
HILF
100
AcDbLine
 10
840.0000000000002
 20
-0.0000000000006821
 30
0.0
 11
840.0000000000002
 21
593.9999999999995
 31
0.0
  0
TEXT
  5
316
330
106E
100
AcDbEntity
  8
VOLL
100
AcDbText
 10
78.07675471698113
 20
31.02594776470585
 30
0.0
 40
1.8
  1

  7
GREEKS
100
AcDbText
  0
TEXT
  5
317
330
106E
100
AcDbEntity
  8
TEXT
100
AcDbText
 10
471.8550995097769
 20
111.6719999999994
 30
0.0
 40
5.0
  1
Erstellt mit AUTOCAD 2004
 50
360.0
 41
0.8
  7
GREEKS
100
AcDbText
  0
TEXT
  5
318
330
106E
100
AcDbEntity
  8
TEXT
100
AcDbText
 10
624.4216048581257
 20
63.08963919723477
 30
0.0
 40
4.0
  1
Koeh
 50
360.0
 41
0.8
  7
GREEKS
 72
     1
 11
629.6787477152686
 21
63.08963919723476
 31
0.0
100
AcDbText
  0
TEXT
  5
319
330
106E
100
AcDbEntity
  8
TEXT
 62
     1
100
AcDbText
 10
768.6977935463264
 20
88.14901428913907
 30
0.0
 40
7.0
  1
13620100X
 50
360.0
 41
0.8
  7
GREEKS
 72
     1
 11
790.8311268796597
 21
88.14901428913904
 31
0.0
100
AcDbText
  0
TEXT
  5
31A
330
106E
100
AcDbEntity
  8
TEXT
 62
     1
100
AcDbText
 10
580.5006306481886
 20
88.14901428913916
 30
0.0
 40
7.0
  1
1:2
 50
360.0
 41
0.8
  7
GREEKS
100
AcDbText
  0
TEXT
  5
31B
330
106E
100
AcDbEntity
  8
TEXT
100
AcDbText
 10
590.7037590129981
 20
63.10765040825698
 30
0.0
 40
4.0
  1
30.01.
 50
360.0
 41
0.8
  7
GREEKS
 72
     1
 11
597.40852091776
 21
63.10765040825697
 31
0.0
100
AcDbText
  0
TEXT
  5
31C
330
106E
100
AcDbEntity
  8
TEXT
 62
     1
100
AcDbText
 10
655.0506768857031
 20
87.41748789253733
 30
0.0
 40
7.0
  1
Rainstar Grundeinheit
 50
360.0
 41
0.8
  7
GREEKS
100
AcDbText
  0
TEXT
  5
31D
330
106E
100
AcDbEntity
  8
TEXT
100
AcDbText
 10
655.1296391125316
 20
71.50334417585245
 30
0.0
 40
5.0
  1
DN100 für Folienklemmung
 50
360.0
 41
0.8
  7
GREEKS
100
AcDbText
  0
TEXT
  5
31F
330
106E
100
AcDbEntity
  8
TEXT
100
AcDbText
 10
655.1296391125315
 20
51.64011943042112
 30
0.0
 40
5.0
  1
EDV-Art.Nr. 13620.100X
 50
360.0
 41
0.8
  7
GREEKS
100
AcDbText
  0
TEXT
  5
320
330
106E
100
AcDbEntity
  8
TEXT
100
AcDbText
 10
654.9837501577826
 20
42.62974153022591
 30
0.0
 40
4.0
  1
13620.100X.DWG
 50
360.0
 41
0.8
  7
GREEKS
100
AcDbText
  0
TEXT
  5
321
330
106E
100
AcDbEntity
  8
TEXT
100
AcDbText
 10
612.6261322080842
 20
90.76363841022979
 30
0.0
 40
4.0
  1
DIN EN1124-3
 50
360.0
 41
0.8
  7
GREEKS
 72
     1
 11
629.6166083985603
 21
90.76363841022979
 31
0.0
100
AcDbText
  0
INSERT
  5
322
330
106E
100
AcDbEntity
  8
STEMPEL
100
AcDbBlockReference
  2
LOGO
 10
570.9955485457795
 20
45.02105276448282
 30
0.0
 41
2.0
 42
2.0
 43
2.0
 50
360.0
  0
LINE
  5
323
330
106E
100
AcDbEntity
  8
HILF
100
AcDbLine
 10
0.0
 20
0.0
 30
0.0
 11
0.0000000000001137
 21
593.9999999999995
 31
0.0
  0
LINE
  5
324
330
106E
100
AcDbEntity
  8
STEMPEL
100
AcDbLine
 10
40.00000000000006
 20
10.0
 30
0.0
 11
40.00000000000023
 21
584.0
 31
0.0
  0
LINE
  5
325
330
106E
100
AcDbEntity
  8
HILF
 62
     7
100
AcDbLine
 10
460.0
 20
-0.0000000000005116
 30
0.0
 11
460.0
 21
9.999999999999772
 31
0.0
  0
LINE
  5
326
330
106E
100
AcDbEntity
  8
HILF
 62
     7
100
AcDbLine
 10
460.0000000000003
 20
583.9999999999995
 30
0.0
 11
460.0000000000002
 21
593.9999999999995
 31
0.0
  0
TEXT
  5
327
330
106E
100
AcDbEntity
  8
TEXT
100
AcDbText
 10
836.5811541437437
 20
12.14804815338254
 30
0.0
 40
4.0
  1
Diese Zeichnung ist urheberrechtlich geschützt und bleibt unser Eigentum. Sie darf weder ganz noch teilweise vervielfältigt und nicht an Dritte weitergegeben werden.
 50
89.99999999999998
 41
0.8
  7
GREEKS
100
AcDbText
  0
TEXT
  5
1C0B
330
106E
100
AcDbEntity
  8
TEXT
 62
     1
100
AcDbText
 10
790.8311268796597
 20
62.65843508889031
 30
0.0
 40
7.0
  1

 41
0.8
  7
GREEKS
 72
     1
 11
790.8311268796597
 21
62.65843508889031
 31
0.0
100
AcDbText
  0
TEXT
  5
206F
330
106E
100
AcDbEntity
  8
TEXT
 62
     1
100
AcDbText
 10
664.6057658946467
 20
115.5115488980132
 30
0.0
 40
7.0
  1

 41
0.8
  7
GREEKS
100
AcDbText
  0
MTEXT
  5
2105
330
106E
100
AcDbEntity
  8
BEM
 62
     1
100
AcDbMText
 10
168.1670985835575
 20
494.7121253266709
 30
0.0
 40
7.0
 41
0.0
 71
     1
 72
     1
  1
\A1;
  7
GREEKS
 73
     1
 44
1.0
  0
LINE
  5
222A
102
{ACAD_REACTORS
330
308B
102
}
330
106E
100
AcDbEntity
  8
STEMPEL
100
AcDbLine
 10
69.87741016061534
 20
337.9999999999999
 30
0.0
 11
344.177410160615
 21
337.9999999999996
 31
0.0
  0
LINE
  5
222C
330
106E
100
AcDbEntity
  8
STEMPEL
100
AcDbLine
 10
141.8774101606153
 20
337.9999999999999
 30
0.0
 11
141.8774101606152
 21
291.9999999999999
 31
0.0
  0
LINE
  5
222D
330
106E
100
AcDbEntity
  8
STEMPEL
100
AcDbLine
 10
318.7103560357984
 20
283.0000000000003
 30
0.0
 11
150.8774101606152
 21
282.9999999999998
 31
0.0
  0
ARC
  5
222F
330
106E
100
AcDbEntity
  8
STEMPEL
100
AcDbCircle
 10
150.8774101606152
 20
291.9999999999999
 30
0.0
 40
9.0
100
AcDbArc
 50
179.9999999999999
 51
270.0
  0
LINE
  5
2238
330
106E
100
AcDbEntity
  8
STEMPEL
100
AcDbLine
 10
143.3774101606153
 20
337.9999999999999
 30
0.0
 11
143.3774101606152
 21
291.9999999999999
 31
0.0
  0
LINE
  5
223B
330
106E
100
AcDbEntity
  8
STEMPEL
100
AcDbLine
 10
318.7889677047231
 20
284.5000000000003
 30
0.0
 11
150.8774101606152
 21
284.4999999999998
 31
0.0
  0
ARC
  5
223C
330
106E
100
AcDbEntity
  8
STEMPEL
100
AcDbCircle
 10
150.8774101606152
 20
291.9999999999999
 30
0.0
 40
7.5
100
AcDbArc
 50
179.9999999999999
 51
270.0
  0
LINE
  5
2249
102
{ACAD_REACTORS
330
308B
102
}
330
106E
100
AcDbEntity
  8
STEMPEL
100
AcDbLine
 10
69.87741016061534
 20
337.9999999999999
 30
0.0
 11
69.87741016061511
 21
343.9999999999998
 31
0.0
  0
LINE
  5
224A
102
{ACAD_REACTORS
330
308B
102
}
330
106E
100
AcDbEntity
  8
STEMPEL
100
AcDbLine
 10
69.87741016061523
 20
340.9999999999999
 30
0.0
 11
344.177410160615
 21
340.9999999999998
 31
0.0
  0
LINE
  5
224D
102
{ACAD_REACTORS
330
308B
102
}
330
106E
100
AcDbEntity
  8
STEMPEL
100
AcDbLine
 10
349.8774101606152
 20
442.9989826944731
 30
0.0
 11
346.8774101606151
 21
442.9989826944731
 31
0.0
  0
LINE
  5
224E
102
{ACAD_REACTORS
330
308B
102
}
330
106E
100
AcDbEntity
  8
STEMPEL
100
AcDbLine
 10
346.8774101606151
 20
343.6999999999997
 30
0.0
 11
346.8774101606149
 21
442.9989826944733
 31
0.0
  0
ARC
  5
224F
102
{ACAD_REACTORS
330
308B
102
}
330
106E
100
AcDbEntity
  8
STEMPEL
100
AcDbCircle
 10
344.177410160615
 20
343.6999999999997
 30
0.0
 40
5.7
100
AcDbArc
 50
270.0
 51
0.0
  0
ARC
  5
2250
102
{ACAD_REACTORS
330
308B
102
}
330
106E
100
AcDbEntity
  8
STEMPEL
100
AcDbCircle
 10
344.177410160615
 20
343.6999999999997
 30
0.0
 40
2.7
100
AcDbArc
 50
270.0
 51
0.0
  0
LINE
  5
2252
102
{ACAD_REACTORS
330
3074
330
308B
330
30B5
102
}
330
106E
100
AcDbEntity
  8
STEMPEL
100
AcDbLine
 10
349.8774101606153
 20
343.6999999999997
 30
0.0
 11
349.8774101606152
 21
442.9989826944731
 31
0.0
  0
LINE
  5
23BD
102
{ACAD_REACTORS
330
308B
102
}
330
106E
100
AcDbEntity
  8
STEMPEL
100
AcDbLine
 10
143.8774101606154
 20
337.9999999999998
 30
0.0
 11
143.8774101606154
 21
340.9999999999998
 31
0.0
  0
LINE
  5
23BE
102
{ACAD_REACTORS
330
308B
102
}
330
106E
100
AcDbEntity
  8
STEMPEL
100
AcDbLine
 10
265.8774101606153
 20
337.9999999999997
 30
0.0
 11
265.8774101606156
 21
340.9999999999998
 31
0.0
  0
ARC
  5
23BF
330
106E
100
AcDbEntity
  8
SCHRAFF
100
AcDbCircle
 10
141.8774101606153
 20
337.9999999999999
 30
0.0
 40
3.0
100
AcDbArc
 50
179.9999999999999
 51
270.0
  0
HATCH
  5
23C8
330
106E
100
AcDbEntity
  8
SCHRAFF
100
AcDbHatch
 10
0.0
 20
0.0
 30
0.0
210
0.0
220
0.0
230
1.0
  2
_USER
 70
     0
 71
     0
 91
        1
 92
        7
 72
     1
 73
     1
 93
        3
 10
141.8774101606151
 20
337.9999999999999
 42
0.0
 10
138.8774101606152
 20
337.9999999999998
 42
0.4142135623730896
 10
141.8774101606152
 20
334.9999999999998
 42
0.0
 97
        0
 75
     0
 76
     0
 52
-0.000000000000031
 41
0.1
 77
     0
 78
     1
 53
360.0
 43
-865.2323200399685
 44
-109.1614526834376
 45
0.0000000000000001
 46
0.1
 79
     0
 47
0.2469670591095711
 98
        1
 10
140.55055372324
 20
336.5841080309634
  0
LINE
  5
2B53
330
106E
100
AcDbEntity
  8
MITTEL
100
AcDbLine
 10
809.8705578343892
 20
292.3068675353466
 30
0.0
 11
315.5489381308747
 21
318.2131658756043
 31
0.0
  0
LINE
  5
2B54
102
{ACAD_REACTORS
330
30B5
102
}
330
106E
100
AcDbEntity
  8
STEMPEL
100
AcDbLine
 10
798.5484109249653
 20
343.7699512882764
 30
0.0
 11
807.4948675119625
 21
342.5126088119114
 31
0.0
  0
LINE
  5
2B55
102
{ACAD_REACTORS
330
30B5
102
}
330
106E
100
AcDbEntity
  8
STEMPEL
100
AcDbLine
 10
793.2310777706826
 20
242.3091905572152
 30
0.0
 11
802.259952809268
 21
242.6244858212073
 31
0.0
  0
LINE
  5
2B56
102
{ACAD_REACTORS
330
30B5
102
}
330
106E
100
AcDbEntity
  8
STEMPEL
100
AcDbLine
 10
802.259952809268
 20
242.6244858212073
 30
0.0
 11
807.4948675119625
 21
342.5126088119114
 31
0.0
  0
LINE
  5
2B57
330
106E
100
AcDbEntity
  8
HILF
100
AcDbLine
 10
793.3571638613067
 20
244.7150564868392
 30
0.0
 11
798.4223248343405
 21
341.3640853586528
 31
0.0
  0
LINE
  5
2B58
102
{ACAD_REACTORS
330
30B5
102
}
330
106E
100
AcDbEntity
  8
STEMPEL
100
AcDbLine
 10
422.5861164383899
 20
261.7338698830904
 30
0.0
 11
793.2310777707116
 21
242.3091905572163
 31
0.0
  0
LINE
  5
2B59
102
{ACAD_REACTORS
330
30B5
102
}
330
106E
100
AcDbEntity
  8
STEMPEL
100
AcDbLine
 10
427.9034495926743
 20
363.1946306141535
 30
0.0
 11
798.5484109249775
 21
343.7699512882747
 31
0.0
  0
ARC
  5
2B5B
102
{ACAD_REACTORS
330
30B5
102
}
330
106E
100
AcDbEntity
  8
STEMPEL
100
AcDbCircle
 10
348.5065317490523
 20
251.3967290936976
 30
0.0
 40
30.0
100
AcDbArc
 50
73.34958086527383
 51
86.99999999999993
  0
ARC
  5
2B5C
330
106E
100
AcDbEntity
  8
HILF
100
AcDbCircle
 10
386.8465350442029
 20
314.4714425553391
 30
0.0
 40
42.99410568964912
100
AcDbArc
 50
193.8530527322113
 51
222.359090956457
  0
LINE
  5
2B5D
102
{ACAD_REACTORS
330
30B5
102
}
330
106E
100
AcDbEntity
  8
STEMPEL
100
AcDbLine
 10
318.7103273361444
 20
282.9994523779796
 30
0.0
 11
350.0766104363409
 21
281.3556151363349
 31
0.0
  0
ARC
  5
2B5E
330
106E
100
AcDbEntity
  8
HILF
100
AcDbCircle
 10
357.9136322620195
 20
158.4587590470224
 30
0.0
 40
124.7152057292721
100
AcDbArc
 50
63.95042500776746
 51
89.85957938964132
  0
ARC
  5
2B5F
330
106E
100
AcDbEntity
  8
HILF
100
AcDbCircle
 10
370.9460106933647
 20
351.4529645764101
 30
0.0
 40
66.58535855428207
100
AcDbArc
 50
259.1138784382333
 51
302.2543141912659
  0
LINE
  5
2B60
102
{ACAD_REACTORS
330
30B5
102
}
330
106E
100
AcDbEntity
  8
STEMPEL
100
AcDbLine
 10
357.1024785878462
 20
280.1388531965653
 30
0.0
 11
413.2182922363837
 21
263.3562191361165
 31
0.0
  0
ARC
  5
2B61
330
106E
100
AcDbEntity
  8
HILF
100
AcDbCircle
 10
386.8470759369619
 20
314.4817634039906
 30
0.0
 40
42.99410568964912
100
AcDbArc
 50
131.6409090435427
 51
160.1469472677698
  0
ARC
  5
2B62
330
106E
100
AcDbEntity
  8
HILF
100
AcDbCircle
 10
367.1680346560541
 20
279.3648874055348
 30
0.0
 40
66.58535855428207
100
AcDbArc
 50
51.74568580876279
 51
94.88612156180632
  0
LINE
  5
2B63
102
{ACAD_REACTORS
330
30B5
102
}
330
106E
100
AcDbEntity
  8
STEMPEL
100
AcDbLine
 10
360.8546933397165
 20
351.7353757587083
 30
0.0
 11
418.4173616375162
 21
362.5603730280821
 31
0.0
  0
ARC
  5
2B64
330
106E
100
AcDbEntity
  8
HILF
100
AcDbCircle
 10
374.3804366809072
 20
472.6641049738659
 30
0.0
 40
124.7152057292721
100
AcDbArc
 50
264.1404206103715
 51
290.049574992206
  0
TEXT
  5
2B74
330
106E
100
AcDbEntity
  8
TEXT
 62
     1
100
AcDbText
 10
634.1506992316159
 20
319.6306521484213
 30
0.0
 40
6.999999999999999
  1
DN100
 50
357.0
 41
0.8
  7
GREEKS
100
AcDbText
  0
LINE
  5
2B75
102
{ACAD_REACTORS
330
30B5
102
}
330
106E
100
AcDbEntity
  8
STEMPEL
100
AcDbLine
 10
318.7103273361444
 20
282.9994523779798
 30
0.0
 11
321.5927551967125
 21
337.9994523779803
 31
0.0
  0
LINE
  5
2B76
330
106E
100
AcDbEntity
  8
STEMPEL
100
AcDbLine
 10
321.5927551967125
 20
337.9994523779802
 30
0.0
 11
333.095103646995
 21
337.9994523779803
 31
0.0
  0
LINE
  5
2B7A
102
{ACAD_REACTORS
330
30B5
102
}
330
106E
100
AcDbEntity
  8
STEMPEL
100
AcDbLine
 10
798.4332864489632
 20
342.5743378912063
 30
0.0
 11
807.43182446665
 21
341.3096758470994
 31
0.0
  0
LINE
  5
2B7B
102
{ACAD_REACTORS
330
30B5
102
}
330
106E
100
AcDbEntity
  8
STEMPEL
100
AcDbLine
 10
427.8406464451828
 20
361.9962751724478
 30
0.0
 11
798.4332864489632
 21
342.5743378912063
 31
0.0
  0
LINE
  5
2B7D
102
{ACAD_REACTORS
330
30B5
102
}
330
106E
100
AcDbEntity
  8
STEMPEL
100
AcDbLine
 10
422.6489195858815
 20
262.9322253247959
 30
0.0
 11
793.2415595896799
 21
243.5102880435588
 31
0.0
  0
LINE
  5
2B7E
102
{ACAD_REACTORS
330
30B5
102
}
330
106E
100
AcDbEntity
  8
STEMPEL
100
AcDbLine
 10
793.2415595896799
 20
243.5102880435588
 30
0.0
 11
802.3229958545801
 21
243.8274187860194
 31
0.0
  0
LINE
  5
2B81
102
{ACAD_REACTORS
330
30B5
102
}
330
106E
100
AcDbEntity
  8
STEMPEL
100
AcDbLine
 10
361.0764728308797
 20
350.5560480445849
 30
0.0
 11
418.6391411286795
 21
361.3810453139586
 31
0.0
  0
LINE
  5
2B84
102
{ACAD_REACTORS
330
30B5
102
}
330
106E
100
AcDbEntity
  8
STEMPEL
100
AcDbLine
 10
318.773130483636
 20
284.1978078196851
 30
0.0
 11
350.1394135838324
 21
282.5539705780403
 31
0.0
  0
ARC
  5
2B85
102
{ACAD_REACTORS
330
30B5
102
}
330
106E
100
AcDbEntity
  8
STEMPEL
100
AcDbCircle
 10
348.5065317490523
 20
251.3967290936976
 30
0.0
 40
31.2
100
AcDbArc
 50
73.34958086527383
 51
86.99999999999993
  0
LINE
  5
2B86
102
{ACAD_REACTORS
330
30B5
102
}
330
106E
100
AcDbEntity
  8
STEMPEL
100
AcDbLine
 10
357.4463164613979
 20
281.28853816068
 30
0.0
 11
413.5621301099355
 21
264.5059041002312
 31
0.0
  0
ARC
  5
2C9A
330
106E
100
AcDbEntity
  8
SCHRAFF
100
AcDbCircle
 10
318.7673232685368
 20
285.1684739528343
 30
0.0
 40
3.747999881162811
100
AcDbArc
 50
215.3499079897581
 51
321.6396331999981
  0
HATCH
  5
2C9E
330
106E
100
AcDbEntity
  8
SCHRAFF
100
AcDbHatch
 10
0.0
 20
0.0
 30
0.0
210
0.0
220
0.0
230
1.0
  2
_USER
 70
     0
 71
     0
 91
        1
 92
        7
 72
     1
 73
     1
 93
        3
 10
321.7062159404081
 20
282.8424445092508
 42
0.0
 10
318.699878085514
 20
283.0000000000003
 42
0.0
 10
315.7103273861259
 20
283.0000000000003
 42
0.5001610197322537
 97
        0
 75
     0
 76
     0
 52
-0.000000000000031
 41
0.1
 77
     0
 78
     1
 53
360.0
 43
0.0000000000000568
 44
-109.1614526834381
 45
0.0000000000000001
 46
0.1
 79
     0
 47
0.0242623787803581
 98
        1
 10
317.2610587512225
 20
282.2048366505721
  0
HATCH
  5
2CC0
330
106E
100
AcDbEntity
  8
SCHRAFF
100
AcDbHatch
 10
0.0
 20
0.0
 30
0.0
210
0.0
220
0.0
230
1.0
  2
_USER
 70
     0
 71
     0
 91
        1
 92
        7
 72
     1
 73
     1
 93
        8
 10
318.788967704723
 20
284.5000000000004
 42
0.0
 10
150.8774101606152
 20
284.4999999999998
 42
-0.4142135623730951
 10
143.3774101606152
 20
291.9999999999999
 42
0.0
 10
143.3774101606153
 20
337.9999999999997
 42
0.0
 10
141.8774101606152
 20
337.9999999999999
 42
0.0
 10
141.8774101606152
 20
291.9999999999999
 42
0.4142135623730951
 10
150.8774101606152
 20
282.9999999999998
 42
0.0
 10
318.7103560357984
 20
283.0000000000004
 42
0.0
 97
        0
 75
     0
 76
     0
 52
134.9999999999999
 41
1.999999999999999
 77
     0
 78
     1
 53
134.9999999999999
 43
0.0000000000000568
 44
-109.1614526834381
 45
-1.414213562373095
 46
-1.414213562373094
 79
     0
 47
0.323427873639144
 98
        1
 10
233.8044803997378
 20
283.8611948135958
  0
DIMENSION
  5
2DD2
330
106E
100
AcDbEntity
  8
BEM
100
AcDbDimension
  2
*D1
 10
824.9040332197477
 20
342.388711652183
 30
0.0
 11
816.3534523875545
 21
291.9671134284878
 31
0.0
 70
    32
  1
%%c<>
 71
     5
 42
101.5999999999927
  3
STANDARD
100
AcDbAlignedDimension
 13
793.2310777707116
 23
242.3091905572163
 33
0.0
 14
798.5484109249775
 24
343.7699512882747
 34
0.0
 50
87.0
100
AcDbRotatedDimension
  0
ARC
  5
2DE8
102
{ACAD_REACTORS
330
30B5
102
}
330
106E
100
AcDbEntity
  8
STEMPEL
100
AcDbCircle
 10
425.8100113429562
 20
323.2494492239705
 30
0.0
 40
40.0
100
AcDbArc
 50
86.99999999999938
 51
100.6504191347556
  0
ARC
  5
2DE9
102
{ACAD_REACTORS
330
30B5
102
}
330
106E
100
AcDbEntity
  8
STEMPEL
100
AcDbCircle
 10
425.8100113429562
 20
323.2494492239705
 30
0.0
 40
38.8
100
AcDbArc
 50
86.99999999999938
 51
100.6504191347556
  0
ARC
  5
2DEA
102
{ACAD_REACTORS
330
30B5
102
}
330
106E
100
AcDbEntity
  8
STEMPEL
100
AcDbCircle
 10
424.6795546881076
 20
301.6790512732734
 30
0.0
 40
40.0
100
AcDbArc
 50
253.3495808652439
 51
267.0000000000002
  0
ARC
  5
2DEB
102
{ACAD_REACTORS
330
30B5
102
}
330
106E
100
AcDbEntity
  8
STEMPEL
100
AcDbCircle
 10
424.6795546881076
 20
301.6790512732734
 30
0.0
 40
38.8
100
AcDbArc
 50
253.3495808652439
 51
267.0000000000002
  0
DIMENSION
  5
300E
330
106E
100
AcDbEntity
  8
BEM
100
AcDbDimension
  2
*D2
 10
349.8774101606153
 20
260.6740014402409
 30
0.0
 11
209.8774101606153
 21
266.5740014402409
 31
0.0
 70
    32
 71
     5
 42
279.9999999999999
  3
STANDARD
100
AcDbAlignedDimension
 13
69.87741016061534
 23
337.9999999999999
 33
0.0
 14
349.8774101606153
 24
343.6999999999997
 34
0.0
100
AcDbRotatedDimension
  0
DIMENSION
  5
301B
330
106E
100
AcDbEntity
  8
BEM
100
AcDbDimension
  2
*D3
 10
363.9483136146584
 20
442.9989826944731
 30
0.0
 11
358.0483136146583
 21
390.4994913472364
 31
0.0
 70
    32
 71
     5
 42
104.9989826944735
  3
STANDARD
100
AcDbAlignedDimension
 13
344.177410160615
 23
337.9999999999996
 33
0.0
 14
349.8774101606152
 24
442.9989826944731
 34
0.0
 50
90.0
100
AcDbRotatedDimension
  0
LINE
  5
3047
102
{ACAD_REACTORS
330
30B5
102
}
330
106E
100
AcDbEntity
  8
STEMPEL
100
AcDbLine
 10
349.8774101606152
 20
350.2604721850753
 30
0.0
 11
353.6773242258554
 21
350.0613271274498
 31
0.0
  0
LINE
  5
3048
102
{ACAD_REACTORS
330
3074
330
30B5
102
}
330
106E
100
AcDbEntity
  8
STEMPEL
100
AcDbLine
 10
349.8774101606153
 20
351.4621190002729
 30
0.0
 11
353.7401273733469
 21
351.2596825691553
 31
0.0
  0
ARC
  5
3049
102
{ACAD_REACTORS
330
3074
330
30B5
102
}
330
106E
100
AcDbEntity
  8
STEMPEL
100
AcDbCircle
 10
355.3102060606351
 20
381.2185686117924
 30
0.0
 40
30.0
100
AcDbArc
 50
266.9999999999999
 51
280.6504191347261
  0
ARC
  5
304A
102
{ACAD_REACTORS
330
30B5
102
}
330
106E
100
AcDbEntity
  8
STEMPEL
100
AcDbCircle
 10
355.3102060606351
 20
381.2185686117924
 30
0.0
 40
31.2
100
AcDbArc
 50
266.9999999999999
 51
280.6504191347261
  0
ARC
  5
306B
102
{ACAD_REACTORS
330
3074
102
}
330
106E
100
AcDbEntity
  8
BEM
100
AcDbCircle
 10
349.8774101606153
 20
351.4621190002729
 30
0.0
 40
4.0
100
AcDbArc
 50
357.0041585462464
 51
90.0
  0
HATCH
  5
3074
330
106E
100
AcDbEntity
  8
SCHRAFF
100
AcDbHatch
 10
0.0
 20
0.0
 30
0.0
210
0.0
220
0.0
230
1.0
  2
_USER
 70
     0
 71
     1
 91
        1
 92
        7
 72
     1
 73
     1
 93
        4
 10
353.7401273733469
 20
351.2596825691553
 42
0.0010998522599219
 10
353.8719434833549
 20
351.2530650992733
 42
0.4296124117382777
 10
349.8774101606153
 20
355.4621190002729
 42
0.0
 10
349.8774101606153
 20
351.4621190002729
 42
0.0
 97
        4
330
2252
330
3048
330
3049
330
306B
 75
     0
 76
     0
 52
0.0
 41
0.1
 77
     0
 78
     1
 53
0.0
 43
0.0
 44
-109.1614526834381
 45
0.0
 46
0.1
 79
     0
 47
0.1145946253451755
 98
        1
 10
351.3295378746247
 20
352.1784798016626
  0
HATCH
  5
308B
330
106E
100
AcDbEntity
  8
SCHRAFF
100
AcDbHatch
 10
0.0
 20
0.0
 30
0.0
210
0.0
220
0.0
230
1.0
  2
_USER
 70
     0
 71
     1
 91
        2
 92
        7
 72
     1
 73
     1
 93
        8
 10
349.8774101606152
 20
442.9989826944732
 42
0.0
 10
346.8774101606149
 20
442.998982694473
 42
0.0
 10
346.8774101606151
 20
343.6999999999997
 42
-0.4142135623731012
 10
344.177410160615
 20
340.9999999999998
 42
0.0
 10
265.8774101606156
 20
340.9999999999998
 42
0.0
 10
265.8774101606153
 20
337.9999999999997
 42
0.0
 10
344.177410160615
 20
337.9999999999996
 42
0.4142135623731099
 10
349.8774101606153
 20
343.6999999999996
 42
0.0
 97
        8
330
224D
330
224E
330
2250
330
224A
330
23BE
330
222A
330
224F
330
2252
 92
        7
 72
     0
 73
     1
 93
        4
 10
69.87741016061523
 20
341.0
 10
69.87741016061534
 20
337.9999999999999
 10
143.8774101606154
 20
337.9999999999998
 10
143.8774101606154
 20
341.0
 97
        4
330
224A
330
2249
330
222A
330
23BD
 75
     0
 76
     0
 52
135.0
 41
5.0
 77
     0
 78
     1
 53
135.0
 43
0.0
 44
-109.1614526834381
 45
-3.535533905932737
 46
-3.535533905932737
 79
     0
 47
0.3456188605854913
 98
        2
 10
348.4074501856635
 20
434.1176005866188
 10
134.3963516425588
 20
340.4548895370221
  0
HATCH
  5
30B5
330
106E
100
AcDbEntity
  8
SCHRAFF
100
AcDbHatch
 10
0.0
 20
0.0
 30
0.0
210
0.0
220
0.0
230
1.0
  2
_USER
 70
     0
 71
     1
 91
        2
 92
        7
 72
     1
 73
     1
 93
       14
 10
798.433286448963
 20
342.5743378912064
 42
0.0
 10
807.4318244666502
 20
341.3096758470993
 42
0.0
 10
807.4948675119623
 20
342.5126088119114
 42
0.0
 10
798.5484109249782
 20
343.7699512882746
 42
0.0
 10
427.9034495926743
 20
363.1946306141535
 42
0.0596317214396014
 10
418.4173616375162
 20
362.5603730280821
 42
0.0
 10
360.8546933397165
 20
351.7353757587083
 42
-0.0596317214396105
 10
353.7401273733469
 20
351.2596825691553
 42
0.0
 10
349.8774101606152
 20
351.4621190002728
 42
0.0
 10
349.8774101606152
 20
350.2604721850753
 42
0.0
 10
353.6773242258554
 20
350.0613271274498
 42
0.0596317214396
 10
361.0764728308785
 20
350.5560480445847
 42
0.0
 10
418.6391411286795
 20
361.3810453139586
 42
-0.0596317214396036
 10
427.8406464451832
 20
361.9962751724478
 42
0.0
 97
       14
330
2DE8
330
2B63
330
3049
330
3048
330
2252
330
3047
330
304A
330
2B81
330
2DE9
330
2B7B
330
2B7A
330
2B56
330
2B54
330
2B59
 92
        7
 72
     1
 73
     1
 93
       14
 10
422.6489195858815
 20
262.9322253247959
 42
-0.0596317214396024
 10
413.5621301099355
 20
264.5059041002312
 42
0.0
 10
357.4463164613979
 20
281.28853816068
 42
0.0596317214396081
 10
350.1394135838324
 20
282.5539705780403
 42
0.0
 10
318.773130483636
 20
284.1978078196851
 42
0.0
 10
318.7103273361445
 20
282.9994523779797
 42
0.0
 10
350.0766104363409
 20
281.3556151363349
 42
-0.0596317214395973
 10
357.1024785878449
 20
280.1388531965657
 42
0.0
 10
413.2182922363837
 20
263.3562191361165
 42
0.0596317214396021
 10
422.5861164383898
 20
261.7338698830904
 42
0.0
 10
793.2310777707124
 20
242.3091905572162
 42
0.0
 10
802.2599528092682
 20
242.6244858212074
 42
0.0
 10
802.3229958545805
 20
243.8274187860195
 42
0.0
 10
793.2415595896798
 20
243.5102880435588
 42
0.0
 97
       14
330
2DEB
330
2B86
330
2B85
330
2B84
330
2B75
330
2B5D
330
2B5B
330
2B60
330
2DEA
330
2B58
330
2B55
330
2B56
330
2B7E
330
2B7D
 75
     0
 76
     0
 52
45.0
 41
2.0
 77
     0
 78
     1
 53
45.0
 43
0.0
 44
-109.1614526834381
 45
-1.414213562373094
 46
1.414213562373095
 79
     0
 47
0.5180016024927041
 98
        2
 10
541.2534776024285
 20
356.6132123690724
 10
511.717309464077
 20
257.6749051181514
  0
DIMENSION
  5
335F
330
106E
100
AcDbEntity
  8
BEM
100
AcDbDimension
  2
*D4
 10
804.8774101606156
 20
506.0923342593032
 30
0.0
 11
504.8774101606154
 21
511.9923342593032
 31
0.0
 70
    32
 71
     5
 42
600.0000000000004
  3
STANDARD
100
AcDbAlignedDimension
 13
204.8774101606153
 23
370.9999999999994
 33
0.0
 14
804.8774101606156
 24
292.5685473165681
 34
0.0
100
AcDbRotatedDimension
  0
TEXT
  5
3360
330
106E
100
AcDbEntity
  8
TEXT
 62
     1
100
AcDbText
 10
601.5719036096681
 20
382.0070509519981
 30
0.0
 40
7.0
  1
EDV-Art.Nr. 01369.100X
 41
0.8
  7
GREEKS
100
AcDbText
  0
LINE
  5
3361
330
106E
100
AcDbEntity
  8
TEXT
 62
     2
100
AcDbLine
 10
599.6522278129507
 20
393.179047106579
 30
0.0
 11
706.0868189305194
 21
393.179047106579
 31
0.0
  0
TEXT
  5
3362
330
106E
100
AcDbEntity
  8
TEXT
 62
     1
100
AcDbText
 10
602.3014114320014
 20
396.4495747074281
 30
0.0
 40
7.0
  1
Auslaufkörper DN100
 41
0.8
  7
GREEKS
100
AcDbText
  0
LINE
  5
3363
330
106E
100
AcDbEntity
  8
TEXT
 62
     2
100
AcDbLine
 10
599.6522278129507
 20
393.179047106579
 30
0.0
 11
569.4903593992667
 21
354.889668317155
 31
0.0
  0
TEXT
  5
3364
330
106E
100
AcDbEntity
  8
TEXT
 62
     1
100
AcDbText
 10
397.1431411777101
 20
369.5240099680825
 30
0.0
 40
7.0
  1
EDV-Art.Nr. 21810.100X
 41
0.8
  7
GREEKS
100
AcDbText
  0
TEXT
  5
3365
330
106E
100
AcDbEntity
  8
TEXT
 62
     1
100
AcDbText
 10
93.43699935869024
 20
412.3909822474859
 30
0.0
 40
7.0
  1
Losflansch
 41
0.8
  7
GREEKS
100
AcDbText
  0
LINE
  5
3366
330
106E
100
AcDbEntity
  8
TEXT
 62
     2
100
AcDbLine
 10
90.78781573963949
 20
409.1204546466367
 30
0.0
 11
197.2224068572081
 21
409.1204546466367
 31
0.0
  0
TEXT
  5
3367
330
106E
100
AcDbEntity
  8
TEXT
 62
     1
100
AcDbText
 10
92.70749153635694
 20
397.9484584920558
 30
0.0
 40
7.0
  1
EDV-Art.Nr. 19929.100X
 41
0.8
  7
GREEKS
100
AcDbText
  0
LINE
  5
3368
330
106E
100
AcDbEntity
  8
TEXT
 62
     2
100
AcDbLine
 10
395.2234653809926
 20
380.6960061226634
 30
0.0
 11
501.6580564985613
 21
380.6960061226634
 31
0.0
  0
TEXT
  5
3369
330
106E
100
AcDbEntity
  8
TEXT
 62
     1
100
AcDbText
 10
397.8726490000434
 20
383.9665337235126
 30
0.0
 40
7.0
  1
Kompressionsdichtung
 41
0.8
  7
GREEKS
100
AcDbText
  0
TEXT
  5
336A
330
106E
100
AcDbEntity
  8
TEXT
 62
     1
100
AcDbText
 10
392.8960723611261
 20
426.319839009435
 30
0.0
 40
7.0
  1
EDV-Art.Nr. 21811.000X
 41
0.8
  7
GREEKS
100
AcDbText
  0
TEXT
  5
336B
330
106E
100
AcDbEntity
  8
TEXT
 62
     1
100
AcDbText
 10
393.6255801834594
 20
440.7623627648652
 30
0.0
 40
7.0
  1
Kompressionsdichtung
 41
0.8
  7
GREEKS
100
AcDbText
  0
LINE
  5
336C
330
106E
100
AcDbEntity
  8
TEXT
 62
     2
100
AcDbLine
 10
390.9763965644086
 20
437.491835164016
 30
0.0
 11
497.4109876819773
 21
437.491835164016
 31
0.0
  0
LINE
  5
336D
330
106E
100
AcDbEntity
  8
TEXT
 62
     2
100
AcDbLine
 10
363.3656496906772
 20
474.2067969461893
 30
0.0
 11
469.8002408082459
 21
474.2067969461893
 31
0.0
  0
TEXT
  5
336E
330
106E
100
AcDbEntity
  8
TEXT
 62
     1
100
AcDbText
 10
365.2853254873947
 20
463.0348007916084
 30
0.0
 40
7.0
  1
EDV-Art.Nr. 01378.000X
 41
0.8
  7
GREEKS
100
AcDbText
  0
TEXT
  5
336F
330
106E
100
AcDbEntity
  8
TEXT
 62
     1
100
AcDbText
 10
366.014833309728
 20
477.4773245470385
 30
0.0
 40
7.0
  1
Losflansch
 41
0.8
  7
GREEKS
100
AcDbText
  0
LINE
  5
3370
330
106E
100
AcDbEntity
  8
TEXT
 62
     2
100
AcDbLine
 10
90.78781573963949
 20
409.1204546466367
 30
0.0
 11
76.75770186894141
 21
362.5285770851888
 31
0.0
  0
LINE
  5
3371
330
106E
100
AcDbEntity
  8
TEXT
 62
     2
100
AcDbLine
 10
395.2234653809926
 20
380.6960061226634
 30
0.0
 11
365.6132151774251
 21
360.9867208954611
 31
0.0
  0
LINE
  5
3372
330
106E
100
AcDbEntity
  8
TEXT
 62
     2
100
AcDbLine
 10
390.9763965644086
 20
437.491835164016
 30
0.0
 11
365.9174006473586
 21
429.9872475687578
 31
0.0
  0
LINE
  5
3373
330
106E
100
AcDbEntity
  8
TEXT
 62
     2
100
AcDbLine
 10
363.3656496906772
 20
474.2067969461893
 30
0.0
 11
338.7682232683356
 21
434.9160896957572
 31
0.0
  0
LINE
  5
3374
330
106E
100
AcDbEntity
  8
TEXT
 62
     2
100
AcDbLine
 10
362.0855441474714
 20
428.8396954940038
 30
0.0
 11
345.5433514352608
 21
423.8856927623158
 31
0.0
  0
ARC
  5
3377
330
106E
100
AcDbEntity
  8
HILF
100
AcDbCircle
 10
339.1248790046183
 20
414.4941732228563
 30
0.0
 40
5.761140599691502
100
AcDbArc
 50
157.9259452632635
 51
202.0740547367364
  0
ARC
  5
3378
330
106E
100
AcDbEntity
  8
STEMPEL
100
AcDbCircle
 10
333.5706985628732
 20
414.4941732228564
 30
0.0
 40
7.694305707784447
100
AcDbArc
 50
163.6571066940134
 51
196.3428933059829
  0
LINE
  5
3379
330
106E
100
AcDbEntity
  8
STEMPEL
100
AcDbLine
 10
325.8763928550887
 20
400.498982694473
 30
0.0
 11
325.8763928550887
 21
415.498982694473
 31
0.0
  0
LINE
  5
337A
330
106E
100
AcDbEntity
  8
STEMPEL
100
AcDbLine
 10
335.8763928550887
 20
418.1489826944731
 30
0.0
 11
335.8763928550887
 21
397.8489826944731
 31
0.0
  0
LINE
  5
337B
330
106E
100
AcDbEntity
  8
STEMPEL
100
AcDbLine
 10
334.4216233894993
 20
418.4054978019672
 30
0.0
 11
334.4216233894993
 21
397.5924675869789
 31
0.0
  0
ARC
  5
337C
330
106E
100
AcDbEntity
  8
HILF
100
AcDbCircle
 10
339.1248790046183
 20
401.5037921660897
 30
0.0
 40
5.761140599691502
100
AcDbArc
 50
157.9259452632635
 51
202.0740547367364
  0
ARC
  5
337D
330
106E
100
AcDbEntity
  8
STEMPEL
100
AcDbCircle
 10
333.5706985628732
 20
401.5037921660898
 30
0.0
 40
7.694305707784447
100
AcDbArc
 50
163.657106694017
 51
196.3428933059861
  0
LINE
  5
337E
330
106E
100
AcDbEntity
  8
STEMPEL
100
AcDbLine
 10
333.7860363388888
 20
399.3387286566287
 30
0.0
 11
326.1872819875441
 21
399.3387286566287
 31
0.0
  0
LINE
  5
337F
330
106E
100
AcDbEntity
  8
STEMPEL
100
AcDbLine
 10
325.8763928550887
 20
400.498982694473
 30
0.0
 11
326.1872819875441
 21
399.3387286566287
 31
0.0
  0
LINE
  5
3380
330
106E
100
AcDbEntity
  8
STEMPEL
100
AcDbLine
 10
333.7860363388888
 20
399.3387286566287
 30
0.0
 11
334.4216233894993
 21
397.5924675869789
 31
0.0
  0
ARC
  5
3381
330
106E
100
AcDbEntity
  8
STEMPEL
100
AcDbCircle
 10
335.1263928550886
 20
397.8489826944731
 30
0.0
 40
0.7500000000000013
100
AcDbArc
 50
200.0000000000001
 51
359.9999991462263
  0
LINE
  5
3382
330
106E
100
AcDbEntity
  8
STEMPEL
100
AcDbLine
 10
333.7860363388889
 20
412.3291097133952
 30
0.0
 11
326.1872819875441
 21
412.3291097133952
 31
0.0
  0
LINE
  5
3383
330
106E
100
AcDbEntity
  8
STEMPEL
100
AcDbLine
 10
333.7860363388888
 20
403.6688556755508
 30
0.0
 11
326.1872819875441
 21
403.6688556755508
 31
0.0
  0
LINE
  5
3384
330
106E
100
AcDbEntity
  8
STEMPEL
100
AcDbLine
 10
325.8763928550887
 20
402.998982694473
 30
0.0
 11
322.8763928550888
 21
402.998982694473
 31
0.0
  0
LINE
  5
3385
330
106E
100
AcDbEntity
  8
HILF
100
AcDbLine
 10
325.8763928550887
 20
403.9989826944729
 30
0.0
 11
321.8763928550885
 21
403.9989826944728
 31
0.0
  0
LINE
  5
3386
330
106E
100
AcDbEntity
  8
HILF
100
AcDbLine
 10
325.8763928550887
 20
411.9989826944728
 30
0.0
 11
321.8763928550887
 21
411.9989826944728
 31
0.0
  0
LINE
  5
3387
330
106E
100
AcDbEntity
  8
STEMPEL
100
AcDbLine
 10
325.8763928550886
 20
412.9989826944727
 30
0.0
 11
322.8763928550887
 21
412.9989826944727
 31
0.0
  0
ARC
  5
3388
330
106E
100
AcDbEntity
  8
STEMPEL
100
AcDbCircle
 10
356.1872819875436
 20
407.998982694473
 30
0.0
 40
30.31088913245485
100
AcDbArc
 50
171.7867892982603
 51
188.2132107017396
  0
LINE
  5
3389
330
106E
100
AcDbEntity
  8
STEMPEL
100
AcDbLine
 10
322.8763928550887
 20
412.9989826944727
 30
0.0
 11
321.8763928550887
 21
411.9989826944728
 31
0.0
  0
LINE
  5
338A
330
106E
100
AcDbEntity
  8
STEMPEL
100
AcDbLine
 10
322.8763928550888
 20
402.998982694473
 30
0.0
 11
321.8763928550888
 21
403.998982694473
 31
0.0
  0
LINE
  5
338B
330
106E
100
AcDbEntity
  8
STEMPEL
100
AcDbLine
 10
321.8763928550887
 20
403.998982694473
 30
0.0
 11
321.8763928550885
 21
411.9989826944726
 31
0.0
  0
LINE
  5
338C
330
106E
100
AcDbEntity
  8
STEMPEL
100
AcDbLine
 10
322.8763928550886
 20
402.998982694473
 30
0.0
 11
322.8763928550888
 21
412.998982694473
 31
0.0
  0
POINT
  5
338D
330
106E
100
AcDbEntity
  8
0
100
AcDbPoint
 10
335.8763928550887
 20
407.998982694473
 30
0.0
210
-1.0
220
0.0000000000000002
230
0.0
  0
ARC
  5
338E
330
106E
100
AcDbEntity
  8
HILF
100
AcDbCircle
 10
355.77485390275
 20
407.998982694473
 30
0.0
 40
22.41111549782308
100
AcDbArc
 50
168.8596278389042
 51
191.1403721610957
  0
LINE
  5
338F
330
106E
100
AcDbEntity
  8
STEMPEL
100
AcDbLine
 10
343.8763928550887
 20
402.998982694473
 30
0.0
 11
341.8763928550888
 21
402.998982694473
 31
0.0
  0
LINE
  5
3390
330
106E
100
AcDbEntity
  8
HILF
100
AcDbLine
 10
343.8763928550887
 20
403.9989826944729
 30
0.0
 11
341.8763928550887
 21
403.998982694473
 31
0.0
  0
LINE
  5
3391
330
106E
100
AcDbEntity
  8
HILF
100
AcDbLine
 10
343.8763928550887
 20
411.998982694473
 30
0.0
 11
341.8763928550887
 21
411.998982694473
 31
0.0
  0
LINE
  5
3392
330
106E
100
AcDbEntity
  8
STEMPEL
100
AcDbLine
 10
343.8763928550887
 20
412.9989826944731
 30
0.0
 11
341.8763928550887
 21
412.998982694473
 31
0.0
  0
LINE
  5
3393
330
106E
100
AcDbEntity
  8
STEMPEL
100
AcDbLine
 10
333.7860363388889
 20
416.6592367323175
 30
0.0
 11
326.1872819875441
 21
416.6592367323175
 31
0.0
  0
LINE
  5
3394
330
106E
100
AcDbEntity
  8
STEMPEL
100
AcDbLine
 10
326.1872819875441
 20
416.6592367323175
 30
0.0
 11
325.8763928550887
 21
415.498982694473
 31
0.0
  0
LINE
  5
3395
330
106E
100
AcDbEntity
  8
STEMPEL
100
AcDbLine
 10
334.4216233894993
 20
418.4054978019672
 30
0.0
 11
333.7860363388889
 21
416.6592367323175
 31
0.0
  0
ARC
  5
3396
330
106E
100
AcDbEntity
  8
STEMPEL
100
AcDbCircle
 10
335.1263928550886
 20
418.148982694473
 30
0.0
 40
0.750000000000001
100
AcDbArc
 50
359.9999991462263
 51
159.9999999999999
  0
LINE
  5
3397
330
106E
100
AcDbEntity
  8
STEMPEL
100
AcDbLine
 10
335.8763928550887
 20
440.4989826944732
 30
0.0
 11
339.8763928550886
 21
440.498982694473
 31
0.0
  0
LINE
  5
3398
330
106E
100
AcDbEntity
  8
STEMPEL
100
AcDbLine
 10
346.8763928550885
 20
437.998982694473
 30
0.0
 11
343.8763928550887
 21
437.998982694473
 31
0.0
  0
LINE
  5
3399
330
106E
100
AcDbEntity
  8
STEMPEL
100
AcDbLine
 10
339.8763928550886
 20
440.498982694473
 30
0.0
 11
341.8763928550887
 21
438.4989826944731
 31
0.0
  0
LINE
  5
339A
330
106E
100
AcDbEntity
  8
MITTEL
100
AcDbLine
 10
346.8763928550885
 20
407.998982694473
 30
0.0
 11
316.876392855089
 21
407.998982694473
 31
0.0
  0
HATCH
  5
339B
330
106E
100
AcDbEntity
  8
SCHRAFF
100
AcDbHatch
 10
0.0
 20
0.0
 30
0.0
210
0.0
220
0.0
230
1.0
  2
NET
 70
     0
 71
     0
 91
        2
 92
        7
 72
     0
 73
     1
 93
        4
 10
346.8763928550887
 20
437.998982694473
 10
343.8763928550887
 20
437.998982694473
 10
343.8763928550887
 20
407.998982694473
 10
346.8763928550888
 20
407.9989826944729
 97
        0
 92
        7
 72
     0
 73
     1
 93
        4
 10
346.8763928550887
 20
407.998982694473
 10
343.8763928550887
 20
407.998982694473
 10
343.8763928550888
 20
377.998982694473
 10
346.8763928550889
 20
377.9989826944731
 97
        0
 75
     0
 76
     1
 52
45.0
 41
15.0
 77
     0
 78
     2
 53
45.0
 43
0.0000000000002842
 44
-0.0000000000000568
 45
-1.325825214724776
 46
1.325825214724776
 79
     0
 53
135.0
 43
0.0000000000002842
 44
-0.0000000000000568
 45
-1.325825214724776
 46
-1.325825214724776
 79
     0
 47
0.2922600342938309
 98
        2
 10
345.9017555153672
 20
418.4885804867296
 10
345.6093978401475
 20
394.8155185892415
  0
LINE
  5
339C
330
106E
100
AcDbEntity
  8
STEMPEL
100
AcDbLine
 10
343.8763928550888
 20
377.998982694473
 30
0.0
 11
343.8763928550887
 21
437.998982694473
 31
0.0
  0
HATCH
  5
339D
330
106E
100
AcDbEntity
  8
SCHRAFF
100
AcDbHatch
 10
0.0
 20
0.0
 30
0.0
210
0.0
220
0.0
230
1.0
  2
_USER
 70
     0
 71
     0
 91
        2
 92
        7
 72
     0
 73
     1
 93
        5
 10
341.8763928550886
 20
438.4989826944731
 10
339.8763928550886
 20
440.498982694473
 10
335.8763928550887
 20
440.4989826944733
 10
335.8763928550887
 20
407.998982694473
 10
341.8763928550887
 20
407.9989826944729
 97
        0
 92
        7
 72
     0
 73
     1
 93
        5
 10
341.8763928550888
 20
407.998982694473
 10
335.8763928550887
 20
407.998982694473
 10
335.8763928550887
 20
375.4989826944732
 10
339.8763928550888
 20
375.4989826944731
 10
341.8763928550887
 20
377.4989826944731
 97
        0
 75
     0
 76
     0
 52
135.0
 41
5.0
 77
     0
 78
     1
 53
135.0
 43
344.8663731914312
 44
-144.7213084471199
 45
-3.535533905932737
 46
-3.535533905932737
 79
     0
 47
0.2048183592830846
 98
        2
 10
340.0798343630368
 20
421.0915673399864
 10
339.4965652446172
 20
398.4943739477247
  0
LINE
  5
339E
330
106E
100
AcDbEntity
  8
STEMPEL
100
AcDbLine
 10
335.8763928550887
 20
440.4989826944732
 30
0.0
 11
335.8763928550887
 21
375.4989826944731
 31
0.0
  0
LINE
  5
339F
330
106E
100
AcDbEntity
  8
STEMPEL
100
AcDbLine
 10
341.8763928550887
 20
438.4989826944731
 30
0.0
 11
341.8763928550887
 21
377.4989826944731
 31
0.0
  0
LINE
  5
33A0
330
106E
100
AcDbEntity
  8
STEMPEL
100
AcDbLine
 10
335.8763928550887
 20
375.4989826944732
 30
0.0
 11
339.8763928550888
 21
375.4989826944731
 31
0.0
  0
LINE
  5
33A1
330
106E
100
AcDbEntity
  8
STEMPEL
100
AcDbLine
 10
346.8763928550885
 20
377.998982694473
 30
0.0
 11
343.8763928550888
 21
377.998982694473
 31
0.0
  0
LINE
  5
33A2
330
106E
100
AcDbEntity
  8
STEMPEL
100
AcDbLine
 10
341.8763928550887
 20
377.4989826944731
 30
0.0
 11
339.8763928550888
 21
375.4989826944731
 31
0.0
  0
LINE
  5
33BF
330
106E
100
AcDbEntity
  8
MITTEL
100
AcDbLine
 10
204.8774101606155
 20
332.9999999999998
 30
0.0
 11
204.8774101606153
 21
370.9999999999994
 31
0.0
  0
HATCH
  5
3406
330
106E
100
AcDbEntity
  8
SCHRAFF
100
AcDbHatch
 10
0.0
 20
0.0
 30
0.0
210
0.0
220
0.0
230
1.0
  2
_USER
 70
     0
 71
     1
 91
        3
 92
        7
 72
     1
 73
     1
 93
        4
 10
271.8774101606154
 20
351.9999999999994
 42
1.0
 10
271.8774101606154
 20
345.9999999999996
 42
0.0
 10
331.8774101606154
 20
345.9999999999994
 42
1.0
 10
331.8774101606154
 20
351.9999999999991
 42
0.0
 97
        4
330
3408
330
344F
330
34A8
330
349F
 92
        7
 72
     1
 73
     1
 93
       15
 10
137.8774101606154
 20
346.0000000000001
 42
1.0
 10
137.8774101606154
 20
351.9999999999998
 42
0.0
 10
95.53526738518888
 20
352.0
 42
-0.4091108014277074
 10
90.53602890940698
 20
356.9127379678135
 42
0.0
 10
90.3774101606155
 20
366.0000000000001
 42
0.0
 10
86.87741016061551
 20
366.0000000000001
 42
0.0
 10
86.87741016061556
 20
363.0000000000002
 42
0.0
 10
86.37741016061546
 20
363.0000000000001
 42
0.0
 10
86.37741016061545
 20
360.0000000000002
 42
0.0
 10
86.87741016061556
 20
360.0000000000001
 42
0.0
 10
86.8774101606154
 20
352.0000000000001
 42
0.0
 10
86.37741016061534
 20
352.0000000000002
 42
0.0
 10
86.37741016061539
 20
349.0000000000002
 42
0.0
 10
86.87741016061535
 20
349.0000000000002
 42
0.0
 10
86.87741016061535
 20
346.0000000000002
 42
0.0
 97
       15
330
3408
330
34C8
330
34F0
330
34D0
330
34F4
330
34F3
330
34F1
330
34F2
330
34D7
330
34E9
330
34E6
330
34E7
330
34E8
330
34A8
330
34C7
 92
        7
 72
     1
 73
     1
 93
       14
 10
78.87741016061557
 20
360.0000000000001
 42
0.0
 10
79.37741016061545
 20
360.0
 42
0.0
 10
79.37741016061545
 20
363.0000000000001
 42
0.0
 10
78.87741016061557
 20
363.0000000000001
 42
0.0
 10
78.87741016061551
 20
366.0000000000001
 42
0.0
 10
75.37741016061551
 20
366.0000000000002
 42
0.0
 10
75.11283120281797
 20
350.8422816594793
 42
-0.0565957168052922
 10
74.96597862302317
 20
349.7235788843747
 42
0.4875001418525394
 10
77.87741016061541
 20
346.0000000000002
 42
0.0
 10
78.87741016061539
 20
346.0000000000002
 42
0.0
 10
78.87741016061539
 20
349.0000000000002
 42
0.0
 10
79.37741016061541
 20
349.0000000000002
 42
0.0
 10
79.37741016061536
 20
352.0000000000004
 42
0.0
 10
78.87741016061539
 20
352.0000000000004
 42
0.0
 97
       14
330
34ED
330
34EC
330
34EF
330
34EE
330
34D0
330
34D3
330
34D4
330
34D2
330
34A8
330
34E2
330
34E1
330
34E0
330
34E3
330
34D8
 75
     0
 76
     0
 52
45.0
 41
5.0
 77
     0
 78
     1
 53
45.0
 43
-6.960724680755163
 44
-117.3789769157442
 45
-3.535533905932737
 46
3.535533905932737
 79
     0
 47
0.4118340008760517
 98
        3
 10
281.8376171350531
 20
349.16354402243
 10
114.9879153871928
 20
347.5162086909495
 10
77.49822863092941
 20
356.1647213711938
  0
LINE
  5
3408
102
{ACAD_REACTORS
330
3406
102
}
330
106E
100
AcDbEntity
  8
STEMPEL
100
AcDbLine
 10
95.53526738518888
 20
352.0
 30
0.0
 11
331.8774101606154
 21
351.9999999999991
 31
0.0
  0
LINE
  5
3409
330
106E
100
AcDbEntity
  8
STEMPEL
100
AcDbLine
 10
283.1498235201369
 20
365.9999999999996
 30
0.0
 11
291.1498235201364
 21
365.9999999999998
 31
0.0
  0
LINE
  5
340A
330
106E
100
AcDbEntity
  8
STEMPEL
100
AcDbLine
 10
282.1498235201371
 20
364.9999999999996
 30
0.0
 11
292.1498235201369
 21
364.9999999999995
 31
0.0
  0
LINE
  5
340B
330
106E
100
AcDbEntity
  8
STEMPEL
100
AcDbLine
 10
279.6498235201367
 20
361.9999999999993
 30
0.0
 11
294.6498235201367
 21
361.9999999999993
 31
0.0
  0
ARC
  5
340C
330
106E
100
AcDbEntity
  8
STEMPEL
100
AcDbCircle
 10
287.1498235201368
 20
331.6891108675444
 30
0.0
 40
30.31088913245485
100
AcDbArc
 50
81.78678929826221
 51
98.2132107017378
  0
LINE
  5
3411
330
106E
100
AcDbEntity
  8
STEMPEL
100
AcDbLine
 10
297.556338627631
 20
353.4547694655887
 30
0.0
 11
276.7433084126425
 21
353.4547694655887
 31
0.0
  0
LINE
  5
3412
330
106E
100
AcDbEntity
  8
STEMPEL
100
AcDbLine
 10
297.2998235201367
 20
351.9999999999992
 30
0.0
 11
276.9998235201368
 21
351.9999999999992
 31
0.0
  0
ARC
  5
3413
330
106E
100
AcDbEntity
  8
HILF
100
AcDbCircle
 10
287.1498235201368
 20
332.1015389523381
 30
0.0
 40
22.41111549782308
100
AcDbArc
 50
78.85962783890615
 51
101.1403721610938
  0
LINE
  5
341A
330
106E
100
AcDbEntity
  8
STEMPEL
100
AcDbLine
 10
199.8774101606157
 20
364.9999999999996
 30
0.0
 11
209.8774101606155
 21
364.9999999999995
 31
0.0
  0
LINE
  5
341B
330
106E
100
AcDbEntity
  8
STEMPEL
100
AcDbLine
 10
200.8774101606155
 20
365.9999999999996
 30
0.0
 11
208.877410160615
 21
365.9999999999998
 31
0.0
  0
ARC
  5
341C
330
106E
100
AcDbEntity
  8
STEMPEL
100
AcDbCircle
 10
204.8774101606154
 20
331.6891108675447
 30
0.0
 40
30.31088913245485
100
AcDbArc
 50
81.78678929826221
 51
98.2132107017378
  0
LINE
  5
341D
330
106E
100
AcDbEntity
  8
STEMPEL
100
AcDbLine
 10
197.3774101606154
 20
361.9999999999996
 30
0.0
 11
212.3774101606154
 21
361.9999999999996
 31
0.0
  0
ARC
  5
341E
330
106E
100
AcDbEntity
  8
HILF
100
AcDbCircle
 10
204.8774101606154
 20
332.1015389523383
 30
0.0
 40
22.41111549782308
100
AcDbArc
 50
78.85962783890615
 51
101.1403721610938
  0
LINE
  5
341F
330
106E
100
AcDbEntity
  8
STEMPEL
100
AcDbLine
 10
215.0274101606154
 20
351.9999999999996
 30
0.0
 11
194.7274101606154
 21
351.9999999999996
 31
0.0
  0
LINE
  5
3420
330
106E
100
AcDbEntity
  8
STEMPEL
100
AcDbLine
 10
215.2839252681097
 20
353.454769465589
 30
0.0
 11
194.4708950531211
 21
353.454769465589
 31
0.0
  0
LINE
  5
3421
330
106E
100
AcDbEntity
  8
STEMPEL
100
AcDbLine
 10
196.217156122771
 20
354.0903565161994
 30
0.0
 11
196.217156122771
 21
361.6891108675442
 31
0.0
  0
LINE
  5
3422
330
106E
100
AcDbEntity
  8
STEMPEL
100
AcDbLine
 10
200.5472831416932
 20
354.0903565161994
 30
0.0
 11
200.5472831416932
 21
361.6891108675442
 31
0.0
  0
ARC
  5
3423
330
106E
100
AcDbEntity
  8
HILF
100
AcDbCircle
 10
198.3822196322321
 20
348.7515138504699
 30
0.0
 40
5.761140599691502
100
AcDbArc
 50
67.92594526326206
 51
112.0740547367379
  0
ARC
  5
3424
330
106E
100
AcDbEntity
  8
STEMPEL
100
AcDbCircle
 10
194.7274101606154
 20
352.7499999999995
 30
0.0
 40
0.7500000000000013
100
AcDbArc
 50
109.9999999999995
 51
269.9999991462263
  0
LINE
  5
3425
330
106E
100
AcDbEntity
  8
STEMPEL
100
AcDbLine
 10
196.217156122771
 20
354.0903565161994
 30
0.0
 11
194.4708950531211
 21
353.454769465589
 31
0.0
  0
POINT
  5
3426
330
106E
100
AcDbEntity
  8
0
100
AcDbPoint
 10
204.8774101606154
 20
351.9999999999996
 30
0.0
210
0.0000000000000001
220
1.0
230
0.0
  0
ARC
  5
3427
330
106E
100
AcDbEntity
  8
STEMPEL
100
AcDbCircle
 10
198.3822196322321
 20
354.3056942922151
 30
0.0
 40
7.694305707784447
100
AcDbArc
 50
73.65710669401501
 51
106.342893305985
  0
LINE
  5
3428
330
106E
100
AcDbEntity
  8
STEMPEL
100
AcDbLine
 10
197.3774101606154
 20
361.9999999999996
 30
0.0
 11
196.217156122771
 21
361.6891108675442
 31
0.0
  0
LINE
  5
3429
330
106E
100
AcDbEntity
  8
STEMPEL
100
AcDbLine
 10
199.8774101606155
 20
364.9999999999996
 30
0.0
 11
200.8774101606155
 21
365.9999999999995
 31
0.0
  0
LINE
  5
342A
330
106E
100
AcDbEntity
  8
HILF
100
AcDbLine
 10
200.8774101606153
 20
361.9999999999996
 30
0.0
 11
200.8774101606153
 21
365.9999999999998
 31
0.0
  0
LINE
  5
342B
330
106E
100
AcDbEntity
  8
STEMPEL
100
AcDbLine
 10
199.8774101606155
 20
361.9999999999996
 30
0.0
 11
199.8774101606155
 21
364.9999999999996
 31
0.0
  0
LINE
  5
342C
330
106E
100
AcDbEntity
  8
STEMPEL
100
AcDbLine
 10
209.2075371795376
 20
354.0903565161994
 30
0.0
 11
209.2075371795376
 21
361.6891108675442
 31
0.0
  0
LINE
  5
342D
330
106E
100
AcDbEntity
  8
STEMPEL
100
AcDbLine
 10
213.5376641984598
 20
354.0903565161994
 30
0.0
 11
213.5376641984598
 21
361.6891108675442
 31
0.0
  0
LINE
  5
342E
330
106E
100
AcDbEntity
  8
STEMPEL
100
AcDbLine
 10
215.2839252681097
 20
353.454769465589
 30
0.0
 11
213.5376641984598
 21
354.0903565161994
 31
0.0
  0
ARC
  5
342F
330
106E
100
AcDbEntity
  8
HILF
100
AcDbCircle
 10
211.3726006889987
 20
348.7515138504699
 30
0.0
 40
5.761140599691502
100
AcDbArc
 50
67.92594526326206
 51
112.0740547367379
  0
ARC
  5
3430
330
106E
100
AcDbEntity
  8
STEMPEL
100
AcDbCircle
 10
215.0274101606154
 20
352.7499999999995
 30
0.0
 40
0.750000000000001
100
AcDbArc
 50
269.9999991462263
 51
70.00000000000047
  0
LINE
  5
3431
330
106E
100
AcDbEntity
  8
STEMPEL
100
AcDbLine
 10
209.8774101606153
 20
364.9999999999996
 30
0.0
 11
208.8774101606153
 21
365.9999999999996
 31
0.0
  0
LINE
  5
3432
330
106E
100
AcDbEntity
  8
HILF
100
AcDbLine
 10
208.8774101606153
 20
361.9999999999996
 30
0.0
 11
208.8774101606153
 21
365.9999999999996
 31
0.0
  0
LINE
  5
3433
330
106E
100
AcDbEntity
  8
STEMPEL
100
AcDbLine
 10
209.8774101606153
 20
361.9999999999996
 30
0.0
 11
209.8774101606153
 21
364.9999999999996
 31
0.0
  0
LINE
  5
3434
330
106E
100
AcDbEntity
  8
STEMPEL
100
AcDbLine
 10
213.5376641984598
 20
361.6891108675442
 30
0.0
 11
212.3774101606154
 21
361.9999999999996
 31
0.0
  0
ARC
  5
3435
330
106E
100
AcDbEntity
  8
STEMPEL
100
AcDbCircle
 10
211.3726006889987
 20
354.3056942922151
 30
0.0
 40
7.694305707784447
100
AcDbArc
 50
73.65710669401501
 51
106.342893305985
  0
LINE
  5
343E
330
106E
100
AcDbEntity
  8
MITTEL
100
AcDbLine
 10
287.1498235201368
 20
340.9999999999998
 30
0.0
 11
287.1498235201366
 21
370.9999999999994
 31
0.0
  0
LINE
  5
343F
330
106E
100
AcDbEntity
  8
MITTEL
100
AcDbLine
 10
265.8774101606154
 20
340.999999999999
 30
0.0
 11
265.8774101606156
 21
371.0000000000001
 31
0.0
  0
ARC
  5
3441
330
106E
100
AcDbEntity
  8
STEMPEL
100
AcDbCircle
 10
253.219552936042
 20
356.9999999999993
 30
0.0
 40
5.0
100
AcDbArc
 50
270.0
 51
358.9999999999982
  0
LINE
  5
344E
330
106E
100
AcDbEntity
  8
STEMPEL
100
AcDbLine
 10
258.3774101606155
 20
365.9999999999994
 30
0.0
 11
273.3774101606155
 21
365.9999999999993
 31
0.0
  0
ARC
  5
344F
102
{ACAD_REACTORS
330
3406
102
}
330
106E
100
AcDbEntity
  8
STEMPEL
100
AcDbCircle
 10
271.8774101606154
 20
348.9999999999993
 30
0.0
 40
3.0
100
AcDbArc
 50
90.0
 51
270.0
  0
LINE
  5
3450
330
106E
100
AcDbEntity
  8
STEMPEL
100
AcDbLine
 10
258.2108103479591
 20
356.4555031252262
 30
0.0
 11
258.3774101606155
 21
365.9999999999994
 31
0.0
  0
LINE
  5
3451
330
106E
100
AcDbEntity
  8
STEMPEL
100
AcDbLine
 10
282.8196965012145
 20
354.0903565161991
 30
0.0
 11
282.8196965012145
 21
361.6891108675439
 31
0.0
  0
LINE
  5
3452
330
106E
100
AcDbEntity
  8
STEMPEL
100
AcDbLine
 10
278.4895694822924
 20
354.0903565161991
 30
0.0
 11
278.4895694822924
 21
361.6891108675439
 31
0.0
  0
ARC
  5
3453
330
106E
100
AcDbEntity
  8
STEMPEL
100
AcDbCircle
 10
278.5352673851889
 20
356.9999999999991
 30
0.0
 40
5.0
100
AcDbArc
 50
180.9999999999985
 51
270.0
  0
ARC
  5
3454
330
106E
100
AcDbEntity
  8
HILF
100
AcDbCircle
 10
280.6546329917534
 20
348.7515138504696
 30
0.0
 40
5.761140599691502
100
AcDbArc
 50
67.92594526326206
 51
112.0740547367379
  0
LINE
  5
3455
330
106E
100
AcDbEntity
  8
STEMPEL
100
AcDbLine
 10
278.4895694822924
 20
354.0903565161991
 30
0.0
 11
276.7433084126425
 21
353.4547694655887
 31
0.0
  0
ARC
  5
3456
330
106E
100
AcDbEntity
  8
STEMPEL
100
AcDbCircle
 10
276.9998235201368
 20
352.7499999999993
 30
0.0
 40
0.7500000000000013
100
AcDbArc
 50
109.9999999999995
 51
269.9999991462263
  0
POINT
  5
3457
330
106E
100
AcDbEntity
  8
0
100
AcDbPoint
 10
287.1498235201368
 20
351.9999999999992
 30
0.0
210
0.0000000000000001
220
1.0
230
0.0
  0
ARC
  5
3458
330
106E
100
AcDbEntity
  8
STEMPEL
100
AcDbCircle
 10
280.6546329917535
 20
354.3056942922148
 30
0.0
 40
7.694305707784447
100
AcDbArc
 50
73.65710669401501
 51
106.342893305985
  0
LINE
  5
3459
330
106E
100
AcDbEntity
  8
STEMPEL
100
AcDbLine
 10
273.536028909407
 20
356.9127379678127
 30
0.0
 11
273.3774101606155
 21
365.9999999999993
 31
0.0
  0
LINE
  5
345A
330
106E
100
AcDbEntity
  8
STEMPEL
100
AcDbLine
 10
279.6498235201367
 20
361.9999999999993
 30
0.0
 11
278.4895694822924
 21
361.6891108675439
 31
0.0
  0
LINE
  5
345B
330
106E
100
AcDbEntity
  8
STEMPEL
100
AcDbLine
 10
282.1498235201369
 20
364.9999999999996
 30
0.0
 11
283.1498235201369
 21
365.9999999999995
 31
0.0
  0
LINE
  5
345C
330
106E
100
AcDbEntity
  8
HILF
100
AcDbLine
 10
283.1498235201367
 20
361.9999999999993
 30
0.0
 11
283.1498235201366
 21
365.9999999999998
 31
0.0
  0
LINE
  5
345D
330
106E
100
AcDbEntity
  8
STEMPEL
100
AcDbLine
 10
282.1498235201369
 20
361.9999999999993
 30
0.0
 11
282.1498235201369
 21
364.9999999999996
 31
0.0
  0
LINE
  5
3484
330
106E
100
AcDbEntity
  8
STEMPEL
100
AcDbLine
 10
295.8100775579812
 20
354.0903565161991
 30
0.0
 11
295.8100775579812
 21
361.6891108675439
 31
0.0
  0
LINE
  5
3485
330
106E
100
AcDbEntity
  8
STEMPEL
100
AcDbLine
 10
291.479950539059
 20
354.0903565161991
 30
0.0
 11
291.479950539059
 21
361.6891108675439
 31
0.0
  0
LINE
  5
3486
330
106E
100
AcDbEntity
  8
STEMPEL
100
AcDbLine
 10
297.556338627631
 20
353.4547694655887
 30
0.0
 11
295.8100775579812
 21
354.0903565161991
 31
0.0
  0
ARC
  5
3487
330
106E
100
AcDbEntity
  8
HILF
100
AcDbCircle
 10
293.6450140485201
 20
348.7515138504696
 30
0.0
 40
5.761140599691502
100
AcDbArc
 50
67.92594526326206
 51
112.0740547367379
  0
ARC
  5
3488
330
106E
100
AcDbEntity
  8
STEMPEL
100
AcDbCircle
 10
297.2998235201367
 20
352.7499999999993
 30
0.0
 40
0.750000000000001
100
AcDbArc
 50
269.9999991462263
 51
70.00000000000047
  0
LINE
  5
3489
330
106E
100
AcDbEntity
  8
STEMPEL
100
AcDbLine
 10
292.1498235201367
 20
364.9999999999996
 30
0.0
 11
291.1498235201366
 21
365.9999999999996
 31
0.0
  0
LINE
  5
348A
330
106E
100
AcDbEntity
  8
STEMPEL
100
AcDbLine
 10
292.1498235201367
 20
361.9999999999993
 30
0.0
 11
292.1498235201367
 21
364.9999999999996
 31
0.0
  0
LINE
  5
348B
330
106E
100
AcDbEntity
  8
HILF
100
AcDbLine
 10
291.1498235201367
 20
361.9999999999993
 30
0.0
 11
291.1498235201366
 21
365.9999999999996
 31
0.0
  0
ARC
  5
348C
330
106E
100
AcDbEntity
  8
STEMPEL
100
AcDbCircle
 10
293.6450140485201
 20
354.3056942922148
 30
0.0
 40
7.694305707784447
100
AcDbArc
 50
73.65710669401501
 51
106.342893305985
  0
LINE
  5
348D
330
106E
100
AcDbEntity
  8
STEMPEL
100
AcDbLine
 10
295.8100775579812
 20
361.6891108675439
 30
0.0
 11
294.6498235201367
 21
361.9999999999993
 31
0.0
  0
ARC
  5
349F
102
{ACAD_REACTORS
330
3406
102
}
330
106E
100
AcDbEntity
  8
STEMPEL
100
AcDbCircle
 10
331.8774101606154
 20
348.9999999999993
 30
0.0
 40
3.0
100
AcDbArc
 50
270.0
 51
90.0
  0
HATCH
  5
34A6
330
106E
100
AcDbEntity
  8
SCHRAFF
100
AcDbHatch
 10
0.0
 20
0.0
 30
0.0
210
0.0
220
0.0
230
1.0
  2
NET
 70
     0
 71
     0
 91
        5
 92
        7
 72
     0
 73
     1
 93
        4
 10
287.1498235201368
 20
343.9999999999998
 10
287.1498235201368
 20
340.9999999999998
 10
339.8774101606155
 20
340.9999999999998
 10
339.8774101606155
 20
343.9999999999998
 97
        0
 92
        7
 72
     0
 73
     1
 93
        4
 10
269.8774101606155
 20
343.9999999999998
 10
269.8774101606156
 20
340.9999999999998
 10
287.1498235201369
 20
340.9999999999999
 10
287.1498235201369
 20
343.9999999999998
 97
        0
 92
        7
 72
     0
 73
     1
 93
        4
 10
122.6049968010937
 20
343.9999999999998
 10
122.6049968010937
 20
340.9999999999998
 10
139.8774101606154
 20
340.9999999999999
 10
139.8774101606154
 20
343.9999999999998
 97
        0
 92
        7
 72
     0
 73
     1
 93
        4
 10
82.87741016061541
 20
343.9999999999998
 10
82.87741016061538
 20
340.9999999999998
 10
122.6049968010936
 20
340.9999999999998
 10
122.6049968010936
 20
343.9999999999998
 97
        0
 92
        7
 72
     0
 73
     1
 93
        4
 10
82.8774101606154
 20
340.9999999999998
 10
82.87741016061541
 20
343.9999999999998
 10
69.87741016061548
 20
343.9999999999998
 10
69.87741016061548
 20
340.9999999999998
 97
        0
 75
     0
 76
     1
 52
45.0
 41
15.0
 77
     0
 78
     2
 53
45.0
 43
0.0000000000002842
 44
-0.0000000000000568
 45
-1.325825214724776
 46
1.325825214724776
 79
     0
 53
135.0
 43
0.0000000000002842
 44
-0.0000000000000568
 45
-1.325825214724776
 46
-1.325825214724776
 79
     0
 47
0.2826199772278338
 98
        5
 10
300.8421235621957
 20
342.8318519272281
 10
277.9420900101775
 20
342.5492330462823
 10
135.453002254292
 20
342.8318519272281
 10
115.3801333383256
 20
342.8318519272281
 10
79.19242847214383
 20
342.2666127053548
  0
LINE
  5
34A7
330
106E
100
AcDbEntity
  8
STEMPEL
100
AcDbLine
 10
69.87741016061511
 20
343.9999999999998
 30
0.0
 11
339.8774101606155
 21
343.9999999999998
 31
0.0
  0
LINE
  5
34A8
102
{ACAD_REACTORS
330
3406
330
364E
102
}
330
106E
100
AcDbEntity
  8
STEMPEL
100
AcDbLine
 10
77.87741016061545
 20
346.0000000000002
 30
0.0
 11
331.8774101606154
 21
345.9999999999994
 31
0.0
  0
LINE
  5
34A9
330
106E
100
AcDbEntity
  8
STEMPEL
100
AcDbLine
 10
282.1498235201369
 20
343.9999999999999
 30
0.0
 11
282.1498235201369
 21
345.9999999999996
 31
0.0
  0
LINE
  5
34AA
330
106E
100
AcDbEntity
  8
HILF
100
AcDbLine
 10
283.1498235201369
 20
343.9999999999998
 30
0.0
 11
283.1498235201368
 21
345.9999999999997
 31
0.0
  0
LINE
  5
34AB
330
106E
100
AcDbEntity
  8
STEMPEL
100
AcDbLine
 10
339.8774101606155
 20
340.9999999999998
 30
0.0
 11
339.8774101606155
 21
343.9999999999998
 31
0.0
  0
LINE
  5
34AC
330
106E
100
AcDbEntity
  8
HILF
100
AcDbLine
 10
291.1498235201369
 20
343.9999999999999
 30
0.0
 11
291.1498235201368
 21
345.9999999999996
 31
0.0
  0
LINE
  5
34AD
330
106E
100
AcDbEntity
  8
STEMPEL
100
AcDbLine
 10
292.1498235201368
 20
343.9999999999998
 30
0.0
 11
292.1498235201368
 21
345.9999999999995
 31
0.0
  0
LINE
  5
34AE
330
106E
100
AcDbEntity
  8
STEMPEL
100
AcDbLine
 10
269.8774101606155
 20
340.9999999999998
 30
0.0
 11
269.8774101606155
 21
343.9999999999998
 31
0.0
  0
LINE
  5
34AF
330
106E
100
AcDbEntity
  8
HILF
100
AcDbLine
 10
200.8774101606155
 20
343.9999999999998
 30
0.0
 11
200.8774101606154
 21
345.9999999999999
 31
0.0
  0
LINE
  5
34B0
330
106E
100
AcDbEntity
  8
STEMPEL
100
AcDbLine
 10
199.8774101606155
 20
343.9999999999998
 30
0.0
 11
199.8774101606155
 21
345.9999999999999
 31
0.0
  0
LINE
  5
34B1
330
106E
100
AcDbEntity
  8
HILF
100
AcDbLine
 10
208.8774101606155
 20
343.9999999999998
 30
0.0
 11
208.8774101606154
 21
345.9999999999998
 31
0.0
  0
LINE
  5
34B2
330
106E
100
AcDbEntity
  8
STEMPEL
100
AcDbLine
 10
209.8774101606155
 20
343.9999999999998
 30
0.0
 11
209.8774101606155
 21
345.9999999999998
 31
0.0
  0
LINE
  5
34B3
330
106E
100
AcDbEntity
  8
MITTEL
100
AcDbLine
 10
122.6049968010937
 20
340.9999999999998
 30
0.0
 11
122.6049968010935
 21
370.9999999999994
 31
0.0
  0
LINE
  5
34B4
330
106E
100
AcDbEntity
  8
STEMPEL
100
AcDbLine
 10
139.8774101606154
 20
340.9999999999998
 30
0.0
 11
139.8774101606154
 21
343.9999999999998
 31
0.0
  0
LINE
  5
34B5
330
106E
100
AcDbEntity
  8
STEMPEL
100
AcDbLine
 10
132.7549968010936
 20
351.9999999999999
 30
0.0
 11
112.4549968010936
 21
351.9999999999999
 31
0.0
  0
LINE
  5
34B6
330
106E
100
AcDbEntity
  8
STEMPEL
100
AcDbLine
 10
133.0115119085879
 20
353.4547694655893
 30
0.0
 11
112.1984816935994
 21
353.4547694655893
 31
0.0
  0
ARC
  5
34B7
330
106E
100
AcDbEntity
  8
HILF
100
AcDbCircle
 10
122.6049968010936
 20
332.1015389523387
 30
0.0
 40
22.41111549782308
100
AcDbArc
 50
78.85962783890615
 51
101.1403721610938
  0
LINE
  5
34B8
330
106E
100
AcDbEntity
  8
STEMPEL
100
AcDbLine
 10
113.9447427632492
 20
354.0903565161997
 30
0.0
 11
113.9447427632492
 21
361.6891108675445
 31
0.0
  0
LINE
  5
34B9
330
106E
100
AcDbEntity
  8
STEMPEL
100
AcDbLine
 10
118.2748697821714
 20
354.0903565161997
 30
0.0
 11
118.2748697821714
 21
361.6891108675445
 31
0.0
  0
ARC
  5
34BA
330
106E
100
AcDbEntity
  8
HILF
100
AcDbCircle
 10
116.1098062727103
 20
348.7515138504702
 30
0.0
 40
5.761140599691502
100
AcDbArc
 50
67.92594526326206
 51
112.0740547367379
  0
ARC
  5
34BB
330
106E
100
AcDbEntity
  8
STEMPEL
100
AcDbCircle
 10
112.4549968010936
 20
352.7499999999999
 30
0.0
 40
0.7500000000000013
100
AcDbArc
 50
109.9999999999995
 51
269.9999991462263
  0
LINE
  5
34BC
330
106E
100
AcDbEntity
  8
STEMPEL
100
AcDbLine
 10
113.9447427632492
 20
354.0903565161997
 30
0.0
 11
112.1984816935994
 21
353.4547694655893
 31
0.0
  0
LINE
  5
34BD
330
106E
100
AcDbEntity
  8
STEMPEL
100
AcDbLine
 10
117.6049968010937
 20
343.9999999999998
 30
0.0
 11
117.6049968010937
 21
346.0000000000001
 31
0.0
  0
LINE
  5
34BE
330
106E
100
AcDbEntity
  8
HILF
100
AcDbLine
 10
118.6049968010937
 20
343.9999999999999
 30
0.0
 11
118.6049968010936
 21
346.0000000000002
 31
0.0
  0
POINT
  5
34BF
330
106E
100
AcDbEntity
  8
0
100
AcDbPoint
 10
122.6049968010936
 20
351.9999999999999
 30
0.0
210
0.0000000000000001
220
1.0
230
0.0
  0
LINE
  5
34C0
330
106E
100
AcDbEntity
  8
STEMPEL
100
AcDbLine
 10
126.9351238200158
 20
354.0903565161997
 30
0.0
 11
126.9351238200158
 21
361.6891108675445
 31
0.0
  0
LINE
  5
34C1
330
106E
100
AcDbEntity
  8
STEMPEL
100
AcDbLine
 10
131.265250838938
 20
354.0903565161997
 30
0.0
 11
131.265250838938
 21
361.6891108675445
 31
0.0
  0
ARC
  5
34C2
330
106E
100
AcDbEntity
  8
STEMPEL
100
AcDbCircle
 10
132.7549968010936
 20
352.7499999999999
 30
0.0
 40
0.750000000000001
100
AcDbArc
 50
269.9999991462263
 51
70.00000000000047
  0
LINE
  5
34C3
330
106E
100
AcDbEntity
  8
STEMPEL
100
AcDbLine
 10
133.0115119085879
 20
353.4547694655893
 30
0.0
 11
131.265250838938
 21
354.0903565161997
 31
0.0
  0
LINE
  5
34C4
330
106E
100
AcDbEntity
  8
HILF
100
AcDbLine
 10
126.6049968010936
 20
343.9999999999998
 30
0.0
 11
126.6049968010936
 21
346.0000000000001
 31
0.0
  0
LINE
  5
34C5
330
106E
100
AcDbEntity
  8
STEMPEL
100
AcDbLine
 10
127.6049968010936
 20
343.9999999999998
 30
0.0
 11
127.6049968010936
 21
346.0000000000001
 31
0.0
  0
ARC
  5
34C6
330
106E
100
AcDbEntity
  8
HILF
100
AcDbCircle
 10
129.1001873294769
 20
348.7515138504702
 30
0.0
 40
5.761140599691502
100
AcDbArc
 50
67.92594526326206
 51
112.0740547367379
  0
ARC
  5
34C7
102
{ACAD_REACTORS
330
3406
102
}
330
106E
100
AcDbEntity
  8
STEMPEL
100
AcDbCircle
 10
137.8774101606154
 20
348.9999999999995
 30
0.0
 40
3.0
100
AcDbArc
 50
270.0
 51
90.0
  0
ARC
  5
34C8
102
{ACAD_REACTORS
330
3406
102
}
330
106E
100
AcDbEntity
  8
STEMPEL
100
AcDbCircle
 10
95.53526738518895
 20
356.9999999999999
 30
0.0
 40
5.0
100
AcDbArc
 50
180.9999999999985
 51
270.0
  0
LINE
  5
34D0
102
{ACAD_REACTORS
330
3406
330
364E
102
}
330
106E
100
AcDbEntity
  8
STEMPEL
100
AcDbLine
 10
75.37741016061551
 20
366.0000000000001
 30
0.0
 11
90.3774101606155
 21
366.0000000000001
 31
0.0
  0
ARC
  5
34D2
102
{ACAD_REACTORS
330
3406
102
}
330
106E
100
AcDbEntity
  8
STEMPEL
100
AcDbCircle
 10
77.87741016061545
 20
348.9999999999998
 30
0.0
 40
3.0
100
AcDbArc
 50
166.0430393971034
 51
270.0
  0
LINE
  5
34D3
102
{ACAD_REACTORS
330
3406
102
}
330
106E
100
AcDbEntity
  8
STEMPEL
100
AcDbLine
 10
75.11283120281797
 20
350.8422816594793
 30
0.0
 11
75.37741016061551
 21
366.0000000000001
 31
0.0
  0
ARC
  5
34D4
102
{ACAD_REACTORS
330
3406
102
}
330
106E
100
AcDbEntity
  8
STEMPEL
100
AcDbCircle
 10
70.113592727036
 20
350.9295436916659
 30
0.0
 40
5.0
100
AcDbArc
 50
346.0430393971034
 51
358.9999999999982
  0
LINE
  5
34D5
102
{ACAD_REACTORS
330
364E
102
}
330
106E
100
AcDbEntity
  8
HILF
100
AcDbLine
 10
85.87741016061546
 20
346.0
 30
0.0
 11
85.87741016061551
 21
366.0000000000001
 31
0.0
  0
LINE
  5
34D6
102
{ACAD_REACTORS
330
364E
102
}
330
106E
100
AcDbEntity
  8
HILF
100
AcDbLine
 10
79.87741016061545
 20
346.0
 30
0.0
 11
79.87741016061551
 21
366.0000000000001
 31
0.0
  0
LINE
  5
34D7
102
{ACAD_REACTORS
330
3406
330
364E
102
}
330
106E
100
AcDbEntity
  8
STEMPEL
100
AcDbLine
 10
86.8774101606154
 20
352.0
 30
0.0
 11
86.87741016061556
 21
360.0000000000001
 31
0.0
  0
LINE
  5
34D8
102
{ACAD_REACTORS
330
3406
330
364E
102
}
330
106E
100
AcDbEntity
  8
STEMPEL
100
AcDbLine
 10
78.87741016061539
 20
352.0000000000002
 30
0.0
 11
78.87741016061557
 21
360.0000000000001
 31
0.0
  0
LINE
  5
34DF
102
{ACAD_REACTORS
330
364E
102
}
330
106E
100
AcDbEntity
  8
STEMPEL
100
AcDbLine
 10
80.87741016061546
 20
346.0
 30
0.0
 11
80.87741016061551
 21
366.0000000000002
 31
0.0
  0
LINE
  5
34E0
102
{ACAD_REACTORS
330
3406
330
364E
102
}
330
106E
100
AcDbEntity
  8
STEMPEL
100
AcDbLine
 10
79.3774101606154
 20
349.0000000000002
 30
0.0
 11
79.37741016061534
 21
352.0000000000004
 31
0.0
  0
LINE
  5
34E1
102
{ACAD_REACTORS
330
3406
330
364E
102
}
330
106E
100
AcDbEntity
  8
STEMPEL
100
AcDbLine
 10
78.87741016061534
 20
349.0000000000002
 30
0.0
 11
79.37741016061545
 21
349.0000000000002
 31
0.0
  0
LINE
  5
34E2
102
{ACAD_REACTORS
330
3406
330
364E
102
}
330
106E
100
AcDbEntity
  8
STEMPEL
100
AcDbLine
 10
78.87741016061539
 20
346.0000000000002
 30
0.0
 11
78.87741016061539
 21
349.0000000000002
 31
0.0
  0
LINE
  5
34E3
102
{ACAD_REACTORS
330
3406
330
364E
102
}
330
106E
100
AcDbEntity
  8
STEMPEL
100
AcDbLine
 10
78.87741016061534
 20
352.0000000000004
 30
0.0
 11
79.37741016061534
 21
352.0000000000002
 31
0.0
  0
LINE
  5
34E5
102
{ACAD_REACTORS
330
364E
102
}
330
106E
100
AcDbEntity
  8
STEMPEL
100
AcDbLine
 10
84.87741016061546
 20
346.0
 30
0.0
 11
84.87741016061553
 21
366.0000000000002
 31
0.0
  0
LINE
  5
34E6
102
{ACAD_REACTORS
330
3406
330
364E
102
}
330
106E
100
AcDbEntity
  8
STEMPEL
100
AcDbLine
 10
86.37741016061539
 20
349.0000000000001
 30
0.0
 11
86.37741016061534
 21
352.0000000000001
 31
0.0
  0
LINE
  5
34E7
102
{ACAD_REACTORS
330
3406
330
364E
102
}
330
106E
100
AcDbEntity
  8
STEMPEL
100
AcDbLine
 10
86.37741016061539
 20
349.0000000000002
 30
0.0
 11
86.8774101606154
 21
349.0000000000002
 31
0.0
  0
LINE
  5
34E8
102
{ACAD_REACTORS
330
3406
330
364E
102
}
330
106E
100
AcDbEntity
  8
STEMPEL
100
AcDbLine
 10
86.87741016061535
 20
346.0000000000002
 30
0.0
 11
86.87741016061535
 21
349.0000000000002
 31
0.0
  0
LINE
  5
34E9
102
{ACAD_REACTORS
330
3406
330
364E
102
}
330
106E
100
AcDbEntity
  8
STEMPEL
100
AcDbLine
 10
86.37741016061534
 20
352.0000000000001
 30
0.0
 11
86.8774101606154
 21
352.0000000000001
 31
0.0
  0
LINE
  5
34EC
102
{ACAD_REACTORS
330
3406
330
364E
102
}
330
106E
100
AcDbEntity
  8
STEMPEL
100
AcDbLine
 10
79.37741016061545
 20
360.0000000000001
 30
0.0
 11
79.37741016061545
 21
363.0000000000003
 31
0.0
  0
LINE
  5
34ED
102
{ACAD_REACTORS
330
3406
330
364E
102
}
330
106E
100
AcDbEntity
  8
STEMPEL
100
AcDbLine
 10
78.87741016061551
 20
360.0000000000001
 30
0.0
 11
79.37741016061545
 21
360.0000000000001
 31
0.0
  0
LINE
  5
34EE
102
{ACAD_REACTORS
330
3406
330
364E
102
}
330
106E
100
AcDbEntity
  8
STEMPEL
100
AcDbLine
 10
78.87741016061557
 20
363.0000000000001
 30
0.0
 11
78.87741016061551
 21
366.0000000000001
 31
0.0
  0
LINE
  5
34EF
102
{ACAD_REACTORS
330
3406
330
364E
102
}
330
106E
100
AcDbEntity
  8
STEMPEL
100
AcDbLine
 10
78.87741016061551
 20
363.0000000000001
 30
0.0
 11
79.37741016061545
 21
363.0000000000001
 31
0.0
  0
LINE
  5
34F0
102
{ACAD_REACTORS
330
3406
102
}
330
106E
100
AcDbEntity
  8
STEMPEL
100
AcDbLine
 10
90.53602890940698
 20
356.9127379678135
 30
0.0
 11
90.3774101606155
 21
366.0000000000001
 31
0.0
  0
LINE
  5
34F1
102
{ACAD_REACTORS
330
3406
330
364E
102
}
330
106E
100
AcDbEntity
  8
STEMPEL
100
AcDbLine
 10
86.37741016061545
 20
360.0000000000001
 30
0.0
 11
86.37741016061545
 21
363.0000000000003
 31
0.0
  0
LINE
  5
34F2
102
{ACAD_REACTORS
330
3406
330
364E
102
}
330
106E
100
AcDbEntity
  8
STEMPEL
100
AcDbLine
 10
86.37741016061545
 20
360.0000000000001
 30
0.0
 11
86.87741016061551
 21
360.0000000000001
 31
0.0
  0
LINE
  5
34F3
102
{ACAD_REACTORS
330
3406
330
364E
102
}
330
106E
100
AcDbEntity
  8
STEMPEL
100
AcDbLine
 10
86.37741016061545
 20
363.0000000000001
 30
0.0
 11
86.87741016061551
 21
363.0000000000001
 31
0.0
  0
LINE
  5
34F4
102
{ACAD_REACTORS
330
3406
330
364E
102
}
330
106E
100
AcDbEntity
  8
STEMPEL
100
AcDbLine
 10
86.87741016061556
 20
363.0
 30
0.0
 11
86.87741016061551
 21
366.0000000000001
 31
0.0
  0
LINE
  5
3500
330
106E
100
AcDbEntity
  8
STEMPEL
100
AcDbLine
 10
118.6049968010937
 20
365.9999999999996
 30
0.0
 11
126.6049968010932
 21
365.9999999999998
 31
0.0
  0
LINE
  5
3501
330
106E
100
AcDbEntity
  8
STEMPEL
100
AcDbLine
 10
117.6049968010939
 20
364.9999999999996
 30
0.0
 11
127.6049968010937
 21
364.9999999999995
 31
0.0
  0
LINE
  5
3502
330
106E
100
AcDbEntity
  8
STEMPEL
100
AcDbLine
 10
115.1049968010936
 20
361.9999999999999
 30
0.0
 11
130.1049968010936
 21
361.9999999999999
 31
0.0
  0
ARC
  5
3503
330
106E
100
AcDbEntity
  8
STEMPEL
100
AcDbCircle
 10
122.6049968010936
 20
331.689110867545
 30
0.0
 40
30.31088913245485
100
AcDbArc
 50
81.78678929826221
 51
98.2132107017378
  0
ARC
  5
3504
330
106E
100
AcDbEntity
  8
STEMPEL
100
AcDbCircle
 10
116.1098062727103
 20
354.3056942922155
 30
0.0
 40
7.694305707784447
100
AcDbArc
 50
73.65710669401501
 51
106.342893305985
  0
LINE
  5
3505
330
106E
100
AcDbEntity
  8
STEMPEL
100
AcDbLine
 10
115.1049968010936
 20
361.9999999999999
 30
0.0
 11
113.9447427632492
 21
361.6891108675445
 31
0.0
  0
LINE
  5
3506
330
106E
100
AcDbEntity
  8
STEMPEL
100
AcDbLine
 10
117.6049968010937
 20
364.9999999999996
 30
0.0
 11
118.6049968010937
 21
365.9999999999995
 31
0.0
  0
LINE
  5
3507
330
106E
100
AcDbEntity
  8
HILF
100
AcDbLine
 10
118.6049968010935
 20
361.9999999999998
 30
0.0
 11
118.6049968010935
 21
365.9999999999998
 31
0.0
  0
LINE
  5
3508
330
106E
100
AcDbEntity
  8
STEMPEL
100
AcDbLine
 10
117.6049968010937
 20
361.9999999999998
 30
0.0
 11
117.6049968010937
 21
364.9999999999996
 31
0.0
  0
LINE
  5
350C
330
106E
100
AcDbEntity
  8
STEMPEL
100
AcDbLine
 10
127.6049968010934
 20
364.9999999999996
 30
0.0
 11
126.6049968010934
 21
365.9999999999996
 31
0.0
  0
LINE
  5
350D
330
106E
100
AcDbEntity
  8
STEMPEL
100
AcDbLine
 10
127.6049968010935
 20
361.9999999999999
 30
0.0
 11
127.6049968010934
 21
364.9999999999996
 31
0.0
  0
LINE
  5
350E
330
106E
100
AcDbEntity
  8
HILF
100
AcDbLine
 10
126.6049968010935
 20
361.9999999999999
 30
0.0
 11
126.6049968010934
 21
365.9999999999996
 31
0.0
  0
LINE
  5
350F
330
106E
100
AcDbEntity
  8
STEMPEL
100
AcDbLine
 10
131.265250838938
 20
361.6891108675445
 30
0.0
 11
130.1049968010936
 21
361.9999999999999
 31
0.0
  0
ARC
  5
3510
330
106E
100
AcDbEntity
  8
STEMPEL
100
AcDbCircle
 10
129.1001873294769
 20
354.3056942922155
 30
0.0
 40
7.694305707784447
100
AcDbArc
 50
73.65710669401501
 51
106.342893305985
  0
LINE
  5
3512
330
106E
100
AcDbEntity
  8
MITTEL
100
AcDbLine
 10
82.8774101606154
 20
341.0
 30
0.0
 11
82.87741016061557
 21
371.0000000000001
 31
0.0
  0
LINE
  5
35B4
330
106E
100
AcDbEntity
  8
TEXT
 62
     2
100
AcDbLine
 10
362.2834120518917
 20
358.7703249143268
 30
0.0
 11
337.6418740926703
 21
342.368332471294
 31
0.0
  0
DIMENSION
  5
35C1
330
106E
100
AcDbEntity
  8
BEM
100
AcDbDimension
  2
*D5
 10
57.76324281727767
 20
283.0
 30
0.0
 11
51.86324281727762
 21
311.9999999999999
 31
0.0
 70
    32
 71
     5
 42
57.99999999999994
  3
STANDARD
100
AcDbAlignedDimension
 13
69.87741016061523
 23
340.9999999999999
 33
0.0
 14
150.8774101606152
 24
282.9999999999999
 34
0.0
 50
90.0
100
AcDbRotatedDimension
  0
DIMENSION
  5
35F9
330
106E
100
AcDbEntity
  8
BEM
100
AcDbDimension
  2
*D6
 10
315.5420858046481
 20
317.9514860943896
 30
0.0
 11
453.2442381840454
 21
292.0007895456001
 31
0.0
 70
    34
 71
     5
 42
0.0523598775598337
  3
STANDARD
100
AcDb2LineAngularDimension
 13
315.548938130875
 23
318.2131658756043
 33
0.0
 14
809.8705578343894
 24
292.3068675353455
 34
0.0
 15
320.5420858046479
 25
317.9514860943896
 35
0.0
 16
461.5203514142298
 26
315.4907013147066
 36
0.0
1001
ACAD
1000
DSTYLE
1002
{
1070
    48
1040
2.000000002
1070
   147
1040
1.199999999999999
1070
    72
1070
     0
1070
    71
1070
     0
1002
}
  0
HATCH
  5
364E
330
106E
100
AcDbEntity
  8
SCHRAFF
100
AcDbHatch
 10
0.0
 20
0.0
 30
0.0
210
0.0
220
0.0
230
1.0
  2
_USER
 70
     0
 71
     1
 91
        4
 92
        7
 72
     0
 73
     1
 93
       12
 10
86.87741016061549
 20
366.0000000000001
 10
85.87741016061551
 20
366.0000000000002
 10
85.87741016061546
 20
346.0000000000002
 10
86.87741016061535
 20
346.0000000000002
 10
86.87741016061535
 20
349.0000000000002
 10
86.37741016061537
 20
349.0000000000002
 10
86.37741016061534
 20
352.0
 10
86.8774101606154
 20
352.0000000000001
 10
86.87741016061556
 20
360.0000000000001
 10
86.37741016061546
 20
360.0000000000001
 10
86.37741016061545
 20
363.0000000000002
 10
86.87741016061556
 20
363.0000000000002
 97
       12
330
34D0
330
34D5
330
34A8
330
34E8
330
34E7
330
34E6
330
34E9
330
34D7
330
34F2
330
34F1
330
34F3
330
34F4
 92
        7
 72
     0
 73
     1
 93
        4
 10
84.87741016061546
 20
346.0000000000002
 10
85.87741016061542
 20
346.0000000000002
 10
85.87741016061551
 20
366.0000000000001
 10
84.87741016061553
 20
366.0000000000001
 97
        4
330
34D0
330
34E5
330
34A8
330
34D5
 92
        7
 72
     0
 73
     1
 93
        4
 10
79.87741016061547
 20
346.0000000000003
 10
80.87741016061546
 20
346.0000000000003
 10
80.87741016061551
 20
366.0000000000001
 10
79.87741016061551
 20
366.0000000000001
 97
        4
330
34D0
330
34D6
330
34A8
330
34DF
 92
        7
 72
     0
 73
     1
 93
       12
 10
79.87741016061551
 20
366.0000000000001
 10
78.8774101606155
 20
366.0000000000001
 10
78.87741016061557
 20
363.0000000000001
 10
79.37741016061545
 20
363.0000000000001
 10
79.37741016061545
 20
360.0000000000002
 10
78.87741016061557
 20
360.0000000000001
 10
78.87741016061539
 20
352.0000000000004
 10
79.37741016061534
 20
352.0000000000002
 10
79.3774101606154
 20
349.0000000000002
 10
78.87741016061541
 20
349.0000000000002
 10
78.87741016061539
 20
346.0000000000003
 10
79.87741016061544
 20
346.0000000000003
 97
       12
330
34D0
330
34EE
330
34EF
330
34EC
330
34ED
330
34D8
330
34E3
330
34E0
330
34E1
330
34E2
330
34A8
330
34D6
 75
     0
 76
     0
 52
135.0
 41
1.0
 77
     0
 78
     1
 53
135.0
 43
0.0
 44
0.0
 45
-0.7071067811865476
 46
-0.7071067811865475
 79
     0
 47
0.0412387073559825
 98
        4
 10
86.68922994944365
 20
364.0256186790935
 10
85.32782484242511
 20
364.6442000313177
 10
80.17098917887597
 20
365.0153479665594
 10
79.67593221741299
 20
365.2627799233874
  0
ENDSEC
  0
SECTION
  2
OBJECTS
  0
DICTIONARY
  5
105C
330
0
100
AcDbDictionary
281
     1
  3
ACAD_CIP_PREVIOUS_PRODUCT_INFO
350
36A9
  3
ACAD_COLOR
350
16CF
  3
ACAD_DETAILVIEWSTYLE
350
36A4
  3
ACAD_GROUP
350
105D
  3
ACAD_LAYOUT
350
1069
  3
ACAD_MATERIAL
350
16CE
  3
ACAD_MLEADERSTYLE
350
369F
  3
ACAD_MLINESTYLE
350
1066
  3
ACAD_PLOTSETTINGS
350
1068
  3
ACAD_PLOTSTYLENAME
350
105E
  3
ACAD_SCALELIST
350
368D
  3
ACAD_SECTIONVIEWSTYLE
350
36A1
  3
ACAD_TABLESTYLE
350
368B
  3
ACAD_VISUALSTYLE
350
3672
  3
ACDB_RECOMPOSE_DATA
350
3859
  3
AcDbVariableDictionary
350
1114
  0
DICTIONARY
  5
3729
330
1058
100
AcDbDictionary
280
     1
281
     1
  0
DICTIONARY
  5
21FF
330
1052
100
AcDbDictionary
280
     1
281
     1
  3
ACAD_LAYERSTATES
360
2200
  0
DICTIONARY
  5
36AC
330
1060
100
AcDbDictionary
280
     1
281
     1
  3
ADSK_XREC_LAYER_RECONCILED
360
36AD
  0
DICTIONARY
  5
36AE
330
108D
100
AcDbDictionary
280
     1
281
     1
  3
ADSK_XREC_LAYER_RECONCILED
360
36AF
  0
DICTIONARY
  5
36B0
330
108E
100
AcDbDictionary
280
     1
281
     1
  3
ADSK_XREC_LAYER_RECONCILED
360
36B1
  0
DICTIONARY
  5
36B2
330
108F
100
AcDbDictionary
280
     1
281
     1
  3
ADSK_XREC_LAYER_RECONCILED
360
36B3
  0
DICTIONARY
  5
36B4
330
1090
100
AcDbDictionary
280
     1
281
     1
  3
ADSK_XREC_LAYER_RECONCILED
360
36B5
  0
DICTIONARY
  5
36B6
330
1091
100
AcDbDictionary
280
     1
281
     1
  3
ADSK_XREC_LAYER_RECONCILED
360
36B7
  0
DICTIONARY
  5
36B8
330
1092
100
AcDbDictionary
280
     1
281
     1
  3
ADSK_XREC_LAYER_RECONCILED
360
36B9
  0
DICTIONARY
  5
36BA
330
1093
100
AcDbDictionary
280
     1
281
     1
  3
ADSK_XREC_LAYER_RECONCILED
360
36BB
  0
DICTIONARY
  5
1232
330
106E
100
AcDbDictionary
280
     1
281
     1
  3
ACAD_LAYOUTSELFREF
360
167B
  0
DICTIONARY
  5
1234
330
106A
100
AcDbDictionary
280
     1
281
     1
  3
ACAD_LAYOUTSELFREF
360
167A
  0
XRECORD
  5
36A9
102
{ACAD_REACTORS
330
105C
102
}
330
105C
100
AcDbXrecord
280
     1
300
ACD
300
2013
300
ACD_F_S
  0
DICTIONARY
  5
16CF
102
{ACAD_REACTORS
330
105C
102
}
330
105C
100
AcDbDictionary
281
     1
  0
DICTIONARY
  5
36A4
102
{ACAD_REACTORS
330
105C
102
}
330
105C
100
AcDbDictionary
281
     1
  3
Imperial24
350
36A5
  0
DICTIONARY
  5
105D
102
{ACAD_REACTORS
330
105C
102
}
330
105C
100
AcDbDictionary
281
     1
  0
DICTIONARY
  5
1069
102
{ACAD_REACTORS
330
105C
102
}
330
105C
100
AcDbDictionary
281
     1
  3
Layout1
350
106D
  3
Model
350
1071
  0
DICTIONARY
  5
16CE
102
{ACAD_REACTORS
330
105C
102
}
330
105C
100
AcDbDictionary
281
     1
  3
ByBlock
350
3662
  3
ByLayer
350
365A
  3
Global
350
366A
  0
DICTIONARY
  5
369F
102
{ACAD_REACTORS
330
105C
102
}
330
105C
100
AcDbDictionary
281
     1
  3
Standard
350
36A0
  0
DICTIONARY
  5
1066
102
{ACAD_REACTORS
330
105C
102
}
330
105C
100
AcDbDictionary
281
     1
  3
Standard
350
1067
  0
DICTIONARY
  5
1068
102
{ACAD_REACTORS
330
105C
102
}
330
105C
100
AcDbDictionary
281
     1
  0
ACDBDICTIONARYWDFLT
  5
105E
102
{ACAD_REACTORS
330
105C
102
}
330
105C
100
AcDbDictionary
281
     1
  3
Normal
350
105F
100
AcDbDictionaryWithDefault
340
105F
  0
DICTIONARY
  5
368D
102
{ACAD_REACTORS
330
105C
102
}
330
105C
100
AcDbDictionary
281
     1
  3
A0
350
368E
  3
A1
350
368F
  3
A2
350
3690
  3
A3
350
3691
  3
A4
350
3692
  3
A5
350
3693
  3
A6
350
3694
  3
A7
350
3695
  3
A8
350
3696
  3
A9
350
3697
  3
B0
350
3698
  3
B1
350
3699
  3
B2
350
369A
  3
B3
350
369B
  3
B4
350
369C
  3
B5
350
369D
  3
B6
350
369E
  0
DICTIONARY
  5
36A1
102
{ACAD_REACTORS
330
105C
102
}
330
105C
100
AcDbDictionary
281
     1
  3
Imperial24
350
36A3
  0
DICTIONARY
  5
368B
102
{ACAD_REACTORS
330
105C
102
}
330
105C
100
AcDbDictionary
281
     1
  3
Standard
350
368C
  0
DICTIONARY
  5
3672
102
{ACAD_REACTORS
330
105C
102
}
330
105C
100
AcDbDictionary
281
     1
  3
2dWireframe
350
3678
  3
Basic
350
3677
  3
Brighten
350
367E
  3
ColorChange
350
3682
  3
Conceptual
350
367B
  3
Dim
350
367D
  3
EdgeColorOff
350
368A
  3
Facepattern
350
3681
  3
Flat
350
3673
  3
FlatWithEdges
350
3674
  3
Gouraud
350
3675
  3
GouraudWithEdges
350
3676
  3
Hidden
350
367A
  3
JitterOff
350
3688
  3
Linepattern
350
3680
  3
OverhangOff
350
3689
  3
Realistic
350
367C
  3
Shaded
350
3687
  3
Shaded with edges
350
3686
  3
Shades of Gray
350
3683
  3
Sketchy
350
3684
  3
Thicken
350
367F
  3
Wireframe
350
3679
  3
X-Ray
350
3685
  0
XRECORD
  5
3859
102
{ACAD_REACTORS
330
105C
102
}
330
105C
100
AcDbXrecord
280
     1
 90
        1
330
368C
  0
DICTIONARY
  5
1114
102
{ACAD_REACTORS
330
105C
102
}
330
105C
100
AcDbDictionary
281
     1
  3
CANNOSCALE
350
3768
  3
CMLEADERSTYLE
350
3765
  3
CTABLESTYLE
350
3764
  3
CVIEWDETAILSTYLE
350
3766
  3
CVIEWSECTIONSTYLE
350
3767
  3
DIMASSOC
350
1A5D
  3
PROJECTNAME
350
1A5E
  3
SORTENTS
350
1115
  0
DICTIONARY
  5
2200
102
{ACAD_REACTORS
330
21FF
102
}
330
21FF
100
AcDbDictionary
281
     1
  0
XRECORD
  5
36AD
102
{ACAD_REACTORS
330
36AC
102
}
330
36AC
100
AcDbXrecord
280
     1
290
     1
  0
XRECORD
  5
36AF
102
{ACAD_REACTORS
330
36AE
102
}
330
36AE
100
AcDbXrecord
280
     1
290
     1
  0
XRECORD
  5
36B1
102
{ACAD_REACTORS
330
36B0
102
}
330
36B0
100
AcDbXrecord
280
     1
290
     1
  0
XRECORD
  5
36B3
102
{ACAD_REACTORS
330
36B2
102
}
330
36B2
100
AcDbXrecord
280
     1
290
     1
  0
XRECORD
  5
36B5
102
{ACAD_REACTORS
330
36B4
102
}
330
36B4
100
AcDbXrecord
280
     1
290
     1
  0
XRECORD
  5
36B7
102
{ACAD_REACTORS
330
36B6
102
}
330
36B6
100
AcDbXrecord
280
     1
290
     1
  0
XRECORD
  5
36B9
102
{ACAD_REACTORS
330
36B8
102
}
330
36B8
100
AcDbXrecord
280
     1
290
     1
  0
XRECORD
  5
36BB
102
{ACAD_REACTORS
330
36BA
102
}
330
36BA
100
AcDbXrecord
280
     1
290
     1
  0
XRECORD
  5
167B
102
{ACAD_REACTORS
330
1232
102
}
330
1232
100
AcDbXrecord
280
     1
340
106E
  0
XRECORD
  5
167A
102
{ACAD_REACTORS
330
1234
102
}
330
1234
100
AcDbXrecord
280
     1
340
106A
  0
ACDBDETAILVIEWSTYLE
  5
36A5
102
{ACAD_REACTORS
330
36A4
102
}
330
36A4
100
AcDbModelDocViewStyle
 70
     0
  3
Imperial24
290
     0
100
AcDbDetailViewStyle
 70
     0
 71
     0
 90
        3
 71
     1
340
1061
 62
   256
 40
0.24
340
0
 62
   256
 40
0.24
300

 40
0.36
280
     3
 71
     2
340
1065
 90
       25
 62
   256
 71
     3
340
1061
 62
   256
 40
0.24
 90
        1
 40
0.75
 90
        1
300
%<\AcVar ViewType \f "%tc1">% %<\AcVar ViewDetailId>%\PVARIA %<\AcVar ViewScale \f "%sn">%
 71
     4
340
1065
 90
       25
 62
   256
340
1065
 90
       25
 62
   256
280
     0
  0
LAYOUT
  5
106D
102
{ACAD_REACTORS
330
1069
102
}
330
1069
100
AcDbPlotSettings
  1

  2
\\NT_WORK01\HP LaserJet 5000 PCL 6
  4

  6

 40
0.0
 41
0.0
 42
0.0
 43
0.0
 44
0.0
 45
0.0
 46
0.0
 47
0.0
 48
0.0
 49
0.0
140
0.0
141
0.0
142
1.0
143
1.0
 70
   688
 72
     0
 73
     0
 74
     5
  7
monochrome.ctb
 75
    16
147
1.0
 76
     0
 77
     2
 78
   300
148
0.0
149
0.0
100
AcDbLayout
  1
Layout1
 70
     0
 71
     1
 10
0.0
 20
0.0
 11
12.0
 21
9.0
 12
0.0
 22
0.0
 32
0.0
 14
1.000000000000000E+20
 24
1.000000000000000E+20
 34
1.000000000000000E+20
 15
-1.000000000000000E+20
 25
-1.000000000000000E+20
 35
-1.000000000000000E+20
146
0.0
 13
0.0
 23
0.0
 33
0.0
 16
1.0
 26
0.0
 36
0.0
 17
0.0
 27
1.0
 37
0.0
 76
     0
330
106A
  0
LAYOUT
  5
1071
102
{ACAD_XDICTIONARY
360
372B
102
}
102
{ACAD_REACTORS
330
1069
102
}
330
1069
100
AcDbPlotSettings
  1

  2
none_device
  4
Letter_(8.50_x_11.00_Inches)
  6

 40
6.349999904632568
 41
6.349999904632568
 42
6.350006103515625
 43
6.350006103515625
 44
215.8999938964844
 45
279.3999938964844
 46
0.0
 47
0.0
 48
0.0
 49
0.0
140
0.0
141
0.0
142
1.0
143
1.0
 70
 11952
 72
     0
 73
     1
 74
     0
  7

 75
     0
147
1.0
 76
     0
 77
     2
 78
   300
148
-3034.281979024021
149
89.91803552416191
100
AcDbLayout
  1
Model
 70
     1
 71
     0
 10
0.0
 20
0.0
 11
12.0
 21
9.0
 12
0.0
 22
0.0
 32
0.0
 14
0.0
 24
0.0
 34
0.0
 15
0.0
 25
0.0
 35
0.0
146
0.0
 13
0.0
 23
0.0
 33
0.0
 16
1.0
 26
0.0
 36
0.0
 17
0.0
 27
1.0
 37
0.0
 76
     0
330
106E
331
3658
  0
MATERIAL
  5
3662
102
{ACAD_XDICTIONARY
360
3663
102
}
102
{ACAD_REACTORS
330
16CE
102
}
330
16CE
100
AcDbMaterial
  1
ByBlock
 72
     0
 43
0.0208333333333333
 43
0.0
 43
0.0
 43
0.0
 43
0.0
 43
0.0208333333333333
 43
0.0
 43
0.0
 43
0.0
 43
0.0
 43
1.0
 43
0.0
 43
0.0
 43
0.0
 43
0.0
 43
1.0
 77
     0
 47
0.0208333333333333
 47
0.0
 47
0.0
 47
0.0
 47
0.0
 47
0.0208333333333333
 47
0.0
 47
0.0
 47
0.0
 47
0.0
 47
1.0
 47
0.0
 47
0.0
 47
0.0
 47
0.0
 47
1.0
171
     0
 49
0.0208333333333333
 49
0.0
 49
0.0
 49
0.0
 49
0.0
 49
0.0208333333333333
 49
0.0
 49
0.0
 49
0.0
 49
0.0
 49
1.0
 49
0.0
 49
0.0
 49
0.0
 49
0.0
 49
1.0
175
     0
142
0.0208333333333333
142
0.0
142
0.0
142
0.0
142
0.0
142
0.0208333333333333
142
0.0
142
0.0
142
0.0
142
0.0
142
1.0
142
0.0
142
0.0
142
0.0
142
0.0
142
1.0
179
     0
144
0.0208333333333333
144
0.0
144
0.0
144
0.0
144
0.0
144
0.0208333333333333
144
0.0
144
0.0
144
0.0
144
0.0
144
1.0
144
0.0
144
0.0
144
0.0
144
0.0
144
1.0
147
0.0208333333333333
147
0.0
147
0.0
147
0.0
147
0.0
147
0.0208333333333333
147
0.0
147
0.0
147
0.0
147
0.0
147
1.0
147
0.0
147
0.0
147
0.0
147
0.0
147
1.0
  0
MATERIAL
  5
365A
102
{ACAD_XDICTIONARY
360
365B
102
}
102
{ACAD_REACTORS
330
16CE
102
}
330
16CE
100
AcDbMaterial
  1
ByLayer
 72
     0
 43
0.0208333333333333
 43
0.0
 43
0.0
 43
0.0
 43
0.0
 43
0.0208333333333333
 43
0.0
 43
0.0
 43
0.0
 43
0.0
 43
1.0
 43
0.0
 43
0.0
 43
0.0
 43
0.0
 43
1.0
 77
     0
 47
0.0208333333333333
 47
0.0
 47
0.0
 47
0.0
 47
0.0
 47
0.0208333333333333
 47
0.0
 47
0.0
 47
0.0
 47
0.0
 47
1.0
 47
0.0
 47
0.0
 47
0.0
 47
0.0
 47
1.0
171
     0
 49
0.0208333333333333
 49
0.0
 49
0.0
 49
0.0
 49
0.0
 49
0.0208333333333333
 49
0.0
 49
0.0
 49
0.0
 49
0.0
 49
1.0
 49
0.0
 49
0.0
 49
0.0
 49
0.0
 49
1.0
175
     0
142
0.0208333333333333
142
0.0
142
0.0
142
0.0
142
0.0
142
0.0208333333333333
142
0.0
142
0.0
142
0.0
142
0.0
142
1.0
142
0.0
142
0.0
142
0.0
142
0.0
142
1.0
179
     0
144
0.0208333333333333
144
0.0
144
0.0
144
0.0
144
0.0
144
0.0208333333333333
144
0.0
144
0.0
144
0.0
144
0.0
144
1.0
144
0.0
144
0.0
144
0.0
144
0.0
144
1.0
147
0.0208333333333333
147
0.0
147
0.0
147
0.0
147
0.0
147
0.0208333333333333
147
0.0
147
0.0
147
0.0
147
0.0
147
1.0
147
0.0
147
0.0
147
0.0
147
0.0
147
1.0
  0
MATERIAL
  5
366A
102
{ACAD_XDICTIONARY
360
366B
102
}
102
{ACAD_REACTORS
330
16CE
102
}
330
16CE
100
AcDbMaterial
  1
Global
 72
     0
 43
0.0208333333333333
 43
0.0
 43
0.0
 43
0.0
 43
0.0
 43
0.0208333333333333
 43
0.0
 43
0.0
 43
0.0
 43
0.0
 43
1.0
 43
0.0
 43
0.0
 43
0.0
 43
0.0
 43
1.0
 77
     0
 47
0.0208333333333333
 47
0.0
 47
0.0
 47
0.0
 47
0.0
 47
0.0208333333333333
 47
0.0
 47
0.0
 47
0.0
 47
0.0
 47
1.0
 47
0.0
 47
0.0
 47
0.0
 47
0.0
 47
1.0
171
     0
 49
0.0208333333333333
 49
0.0
 49
0.0
 49
0.0
 49
0.0
 49
0.0208333333333333
 49
0.0
 49
0.0
 49
0.0
 49
0.0
 49
1.0
 49
0.0
 49
0.0
 49
0.0
 49
0.0
 49
1.0
175
     0
142
0.0208333333333333
142
0.0
142
0.0
142
0.0
142
0.0
142
0.0208333333333333
142
0.0
142
0.0
142
0.0
142
0.0
142
1.0
142
0.0
142
0.0
142
0.0
142
0.0
142
1.0
179
     0
144
0.0208333333333333
144
0.0
144
0.0
144
0.0
144
0.0
144
0.0208333333333333
144
0.0
144
0.0
144
0.0
144
0.0
144
1.0
144
0.0
144
0.0
144
0.0
144
0.0
144
1.0
147
0.0208333333333333
147
0.0
147
0.0
147
0.0
147
0.0
147
0.0208333333333333
147
0.0
147
0.0
147
0.0
147
0.0
147
1.0
147
0.0
147
0.0
147
0.0
147
0.0
147
1.0
  0
MLEADERSTYLE
  5
36A0
102
{ACAD_XDICTIONARY
360
388E
102
}
102
{ACAD_REACTORS
330
369F
102
}
330
369F
100
AcDbMLeaderStyle
170
     2
171
     1
172
     0
 90
        2
 40
0.0
 41
0.0
173
     1
 91
-1056964608
340
1063
 92
       -2
290
     1
 42
0.09
291
     1
 43
0.36
  3
Standard
 44
0.18
300

342
1061
174
     1
178
     6
175
     1
176
     0
 93
-1056964608
 45
0.18
292
     0
297
     0
 46
0.18
 94
-1056964608
 47
1.0
 49
1.0
140
1.0
293
     1
141
0.0
294
     1
177
     0
142
1.0
295
     0
296
     0
143
0.125
1001
ACAD_MLEADERVER
1070
     2
  0
MLINESTYLE
  5
1067
102
{ACAD_REACTORS
330
1066
102
}
330
1066
100
AcDbMlineStyle
  2
STANDARD
 70
     0
  3

 62
   256
 51
90.0
 52
90.0
 71
     2
 49
0.5
 62
   256
  6
BYLAYER
 49
-0.5
 62
   256
  6
BYLAYER
  0
ACDBPLACEHOLDER
  5
105F
102
{ACAD_REACTORS
330
105E
102
}
330
105E
  0
SCALE
  5
368E
102
{ACAD_REACTORS
330
368D
102
}
330
368D
100
AcDbScale
 70
     0
300
1:1
140
1.0
141
1.0
290
     1
  0
SCALE
  5
368F
102
{ACAD_REACTORS
330
368D
102
}
330
368D
100
AcDbScale
 70
     0
300
1/128" = 1'-0"
140
0.0078125
141
12.0
290
     0
  0
SCALE
  5
3690
102
{ACAD_REACTORS
330
368D
102
}
330
368D
100
AcDbScale
 70
     0
300
1/64" = 1'-0"
140
0.015625
141
12.0
290
     0
  0
SCALE
  5
3691
102
{ACAD_REACTORS
330
368D
102
}
330
368D
100
AcDbScale
 70
     0
300
1/32" = 1'-0"
140
0.03125
141
12.0
290
     0
  0
SCALE
  5
3692
102
{ACAD_REACTORS
330
368D
102
}
330
368D
100
AcDbScale
 70
     0
300
1/16" = 1'-0"
140
0.0625
141
12.0
290
     0
  0
SCALE
  5
3693
102
{ACAD_REACTORS
330
368D
102
}
330
368D
100
AcDbScale
 70
     0
300
3/32" = 1'-0"
140
0.09375
141
12.0
290
     0
  0
SCALE
  5
3694
102
{ACAD_REACTORS
330
368D
102
}
330
368D
100
AcDbScale
 70
     0
300
1/8" = 1'-0"
140
0.125
141
12.0
290
     0
  0
SCALE
  5
3695
102
{ACAD_REACTORS
330
368D
102
}
330
368D
100
AcDbScale
 70
     0
300
3/16" = 1'-0"
140
0.1875
141
12.0
290
     0
  0
SCALE
  5
3696
102
{ACAD_REACTORS
330
368D
102
}
330
368D
100
AcDbScale
 70
     0
300
1/4" = 1'-0"
140
0.25
141
12.0
290
     0
  0
SCALE
  5
3697
102
{ACAD_REACTORS
330
368D
102
}
330
368D
100
AcDbScale
 70
     0
300
3/8" = 1'-0"
140
0.375
141
12.0
290
     0
  0
SCALE
  5
3698
102
{ACAD_REACTORS
330
368D
102
}
330
368D
100
AcDbScale
 70
     0
300
1/2" = 1'-0"
140
0.5
141
12.0
290
     0
  0
SCALE
  5
3699
102
{ACAD_REACTORS
330
368D
102
}
330
368D
100
AcDbScale
 70
     0
300
3/4" = 1'-0"
140
0.75
141
12.0
290
     0
  0
SCALE
  5
369A
102
{ACAD_REACTORS
330
368D
102
}
330
368D
100
AcDbScale
 70
     0
300
1" = 1'-0"
140
1.0
141
12.0
290
     0
  0
SCALE
  5
369B
102
{ACAD_REACTORS
330
368D
102
}
330
368D
100
AcDbScale
 70
     0
300
1-1/2" = 1'-0"
140
1.5
141
12.0
290
     0
  0
SCALE
  5
369C
102
{ACAD_REACTORS
330
368D
102
}
330
368D
100
AcDbScale
 70
     0
300
3" = 1'-0"
140
3.0
141
12.0
290
     0
  0
SCALE
  5
369D
102
{ACAD_REACTORS
330
368D
102
}
330
368D
100
AcDbScale
 70
     0
300
6" = 1'-0"
140
6.0
141
12.0
290
     0
  0
SCALE
  5
369E
102
{ACAD_REACTORS
330
368D
102
}
330
368D
100
AcDbScale
 70
     0
300
1'-0" = 1'-0"
140
12.0
141
12.0
290
     0
  0
ACDBSECTIONVIEWSTYLE
  5
36A3
102
{ACAD_REACTORS
330
36A1
102
}
330
36A1
100
AcDbModelDocViewStyle
 70
     0
  3
Imperial24
290
     0
100
AcDbSectionViewStyle
 70
     0
 71
     0
 90
       78
 71
     1
340
1061
 62
   256
 40
0.24
340
0
340
0
 62
   256
 40
0.24
300
I, O, Q, S, X, Z
 40
0.48
 90
        3
 40
0.18
 90
        1
 71
     2
340
36A2
 90
       25
 62
   256
340
1065
 90
       50
 62
   256
 40
0.24
 40
0.0
 40
0.24
 71
     3
340
1061
 62
   256
 40
0.24
 90
        1
 40
0.75
 90
        1
300
%<\AcVar ViewType \f "%tc1">% %<\AcVar ViewSectionStartId>%-%<\AcVar ViewSectionEndId>%\PVARIA %<\AcVar ViewScale \f "%sn">%
 71
     4
 62
   256
 62
   257
300
ANSI31
 40
1.0
 90
        0
290
     0
290
     0
 90
        6
 40
0.0
 40
1.570796326794896
 40
0.2617993877991494
 40
1.308996938995747
 40
-0.2617993877991494
 40
1.832595714594046
  0
TABLESTYLE
  5
368C
102
{ACAD_XDICTIONARY
360
371E
102
}
102
{ACAD_REACTORS
330
368B
102
}
330
368B
100
AcDbTableStyle
  3
Standard
 70
     0
 71
     0
 40
0.06
 41
0.06
280
     0
281
     0
  7
STANDARD
140
0.18
170
     2
 62
     0
 63
     7
283
     0
274
    -2
284
     1
 64
     0
275
    -2
285
     1
 65
     0
276
    -2
286
     1
 66
     0
277
    -2
287
     1
 67
     0
278
    -2
288
     1
 68
     0
279
    -2
289
     1
 69
     0
  7
STANDARD
140
0.25
170
     5
 62
     0
 63
     7
283
     0
274
    -2
284
     1
 64
     0
275
    -2
285
     1
 65
     0
276
    -2
286
     1
 66
     0
277
    -2
287
     1
 67
     0
278
    -2
288
     1
 68
     0
279
    -2
289
     1
 69
     0
  7
STANDARD
140
0.18
170
     5
 62
     0
 63
     7
283
     0
274
    -2
284
     1
 64
     0
275
    -2
285
     1
 65
     0
276
    -2
286
     1
 66
     0
277
    -2
287
     1
 67
     0
278
    -2
288
     1
 68
     0
279
    -2
289
     1
 69
     0
  0
VISUALSTYLE
  5
3678
102
{ACAD_XDICTIONARY
360
3867
102
}
102
{ACAD_REACTORS
330
3672
102
}
330
3672
100
AcDbVisualStyle
  2
2dWireframe
 70
     4
 71
     0
 72
     2
 73
     0
 90
        0
 40
-0.6
 41
-30.0
 62
     5
 63
     7
421
 16777215
 74
     1
 91
        4
 64
     7
 65
   257
 75
     1
175
     1
 42
1.0
 92
        0
 66
   257
 43
1.0
 76
     1
 77
     6
 78
     2
 67
     7
 79
     5
170
     0
171
     0
290
     0
174
     0
 93
        1
 44
0.0
173
     0
291
     0
 45
0.0
1001
ACAD
1000
AcDbSavedByObjectVersion
1070
     0
  0
VISUALSTYLE
  5
3677
102
{ACAD_XDICTIONARY
360
3865
102
}
102
{ACAD_REACTORS
330
3672
102
}
330
3672
100
AcDbVisualStyle
  2
Basic
 70
     7
 71
     1
 72
     0
 73
     1
 90
        0
 40
-0.6
 41
-30.0
 62
     5
 63
     7
421
 16777215
 74
     0
 91
        4
 64
     7
 65
   257
 75
     1
175
     1
 42
1.0
 92
        8
 66
     7
 43
1.0
 76
     1
 77
     6
 78
     2
 67
     7
 79
     5
170
     0
171
     0
290
     0
174
     0
 93
        1
 44
0.0
173
     0
291
     1
 45
0.0
1001
ACAD
1000
AcDbSavedByObjectVersion
1070
     0
  0
VISUALSTYLE
  5
367E
102
{ACAD_XDICTIONARY
360
3873
102
}
102
{ACAD_REACTORS
330
3672
102
}
330
3672
100
AcDbVisualStyle
  2
Brighten
 70
    12
 71
     2
 72
     2
 73
     0
 90
        0
 40
-0.6
 41
-30.0
 62
     5
 63
     7
421
 16777215
 74
     1
 91
        4
 64
     7
 65
   257
 75
     1
175
     1
 42
1.0
 92
        8
 66
     7
 43
1.0
 76
     1
 77
     6
 78
     2
 67
     7
 79
     5
170
     0
171
     0
290
     0
174
     0
 93
        1
 44
50.0
173
     0
291
     1
 45
0.0
1001
ACAD
1000
AcDbSavedByObjectVersion
1070
     0
  0
VISUALSTYLE
  5
3682
102
{ACAD_XDICTIONARY
360
387B
102
}
102
{ACAD_REACTORS
330
3672
102
}
330
3672
100
AcDbVisualStyle
  2
ColorChange
 70
    16
 71
     2
 72
     2
 73
     3
 90
        0
 40
-0.6
 41
-30.0
 62
     5
 63
     8
421
  8421504
 74
     1
 91
        4
 64
     7
 65
   257
 75
     1
175
     1
 42
1.0
 92
        8
 66
     8
424
  8421504
 43
1.0
 76
     1
 77
     6
 78
     2
 67
     7
 79
     5
170
     0
171
     0
290
     0
174
     0
 93
        1
 44
0.0
173
     0
291
     1
 45
0.0
1001
ACAD
1000
AcDbSavedByObjectVersion
1070
     0
  0
VISUALSTYLE
  5
367B
102
{ACAD_XDICTIONARY
360
386D
102
}
102
{ACAD_REACTORS
330
3672
102
}
330
3672
100
AcDbVisualStyle
  2
Conceptual
 70
     9
 71
     3
 72
     2
 73
     0
 90
        0
 40
-0.6
 41
-30.0
 62
     5
 63
     7
421
 16777215
 74
     2
 91
        2
 64
     7
 65
   257
 75
     1
175
     1
 42
179.0
 92
        8
 66
     7
 43
1.0
 76
     1
 77
     6
 78
     2
 67
     7
 79
     3
170
     0
171
     0
290
     0
174
     0
 93
        1
 44
0.0
173
     0
291
     0
 45
0.0
1001
ACAD
1000
AcDbSavedByObjectVersion
1070
     0
  0
VISUALSTYLE
  5
367D
102
{ACAD_XDICTIONARY
360
3871
102
}
102
{ACAD_REACTORS
330
3672
102
}
330
3672
100
AcDbVisualStyle
  2
Dim
 70
    11
 71
     2
 72
     2
 73
     0
 90
        0
 40
-0.6
 41
-30.0
 62
     5
 63
     7
421
 16777215
 74
     1
 91
        4
 64
     7
 65
   257
 75
     1
175
     1
 42
1.0
 92
        8
 66
     7
 43
1.0
 76
     1
 77
     6
 78
     2
 67
     7
 79
     5
170
     0
171
     0
290
     0
174
     0
 93
        1
 44
-50.0
173
     0
291
     1
 45
0.0
1001
ACAD
1000
AcDbSavedByObjectVersion
1070
     0
  0
VISUALSTYLE
  5
368A
102
{ACAD_XDICTIONARY
360
388B
102
}
102
{ACAD_REACTORS
330
3672
102
}
330
3672
100
AcDbVisualStyle
  2
EdgeColorOff
 70
    22
 71
     2
 72
     2
 73
     0
 90
        0
 40
-0.6
 41
-30.0
 62
     5
 63
     7
421
 16777215
 74
     1
 91
        4
 64
     7
 65
   257
 75
     1
175
     1
 42
1.0
 92
        8
 66
     7
 43
1.0
 76
     1
 77
     6
 78
     2
 67
     7
 79
     5
170
     0
171
     0
290
     0
174
     0
 93
        1
 44
0.0
173
     0
291
     1
 45
0.0
1001
ACAD
1000
AcDbSavedByObjectVersion
1070
     0
  0
VISUALSTYLE
  5
3681
102
{ACAD_XDICTIONARY
360
3879
102
}
102
{ACAD_REACTORS
330
3672
102
}
330
3672
100
AcDbVisualStyle
  2
Facepattern
 70
    15
 71
     2
 72
     2
 73
     0
 90
        0
 40
-0.6
 41
-30.0
 62
     5
 63
     7
421
 16777215
 74
     1
 91
        4
 64
     7
 65
   257
 75
     1
175
     1
 42
1.0
 92
        8
 66
     7
 43
1.0
 76
     1
 77
     6
 78
     2
 67
     7
 79
     5
170
     0
171
     0
290
     0
174
     0
 93
        1
 44
0.0
173
     0
291
     1
 45
0.0
1001
ACAD
1000
AcDbSavedByObjectVersion
1070
     0
  0
VISUALSTYLE
  5
3673
102
{ACAD_XDICTIONARY
360
385D
102
}
102
{ACAD_REACTORS
330
3672
102
}
330
3672
100
AcDbVisualStyle
  2
Flat
 70
     0
 71
     2
 72
     1
 73
     1
 90
        2
 40
-0.6
 41
30.0
 62
     5
 63
     7
421
 16777215
 74
     0
 91
        0
 64
     7
 65
   257
 75
     1
175
     1
 42
1.0
 92
        8
 66
     7
 43
1.0
 76
     1
 77
     6
 78
     2
 67
     7
 79
     5
170
     0
171
     0
290
     0
174
     0
 93
       13
 44
0.0
173
     0
291
     1
 45
0.0
1001
ACAD
1000
AcDbSavedByObjectVersion
1070
     0
  0
VISUALSTYLE
  5
3674
102
{ACAD_XDICTIONARY
360
385F
102
}
102
{ACAD_REACTORS
330
3672
102
}
330
3672
100
AcDbVisualStyle
  2
FlatWithEdges
 70
     1
 71
     2
 72
     1
 73
     1
 90
        2
 40
-0.6
 41
30.0
 62
     5
 63
     7
421
 16777215
 74
     1
 91
        0
 64
     7
 65
   257
 75
     1
175
     1
 42
1.0
 92
        0
 66
   257
 43
1.0
 76
     1
 77
     6
 78
     2
 67
     7
 79
     5
170
     0
171
     0
290
     0
174
     0
 93
       13
 44
0.0
173
     0
291
     1
 45
0.0
1001
ACAD
1000
AcDbSavedByObjectVersion
1070
     0
  0
VISUALSTYLE
  5
3675
102
{ACAD_XDICTIONARY
360
3861
102
}
102
{ACAD_REACTORS
330
3672
102
}
330
3672
100
AcDbVisualStyle
  2
Gouraud
 70
     2
 71
     2
 72
     2
 73
     1
 90
        2
 40
-0.6
 41
30.0
 62
     5
 63
     7
421
 16777215
 74
     0
 91
        0
 64
     7
 65
   257
 75
     1
175
     1
 42
1.0
 92
        0
 66
     7
 43
1.0
 76
     1
 77
     6
 78
     2
 67
     7
 79
     5
170
     0
171
     0
290
     0
174
     0
 93
       13
 44
0.0
173
     0
291
     1
 45
0.0
1001
ACAD
1000
AcDbSavedByObjectVersion
1070
     0
  0
VISUALSTYLE
  5
3676
102
{ACAD_XDICTIONARY
360
3863
102
}
102
{ACAD_REACTORS
330
3672
102
}
330
3672
100
AcDbVisualStyle
  2
GouraudWithEdges
 70
     3
 71
     2
 72
     2
 73
     1
 90
        2
 40
-0.6
 41
30.0
 62
     5
 63
     7
421
 16777215
 74
     1
 91
        0
 64
     7
 65
   257
 75
     1
175
     1
 42
1.0
 92
        0
 66
   257
 43
1.0
 76
     1
 77
     6
 78
     2
 67
     7
 79
     5
170
     0
171
     0
290
     0
174
     0
 93
       13
 44
0.0
173
     0
291
     1
 45
0.0
1001
ACAD
1000
AcDbSavedByObjectVersion
1070
     0
  0
VISUALSTYLE
  5
367A
102
{ACAD_XDICTIONARY
360
386B
102
}
102
{ACAD_REACTORS
330
3672
102
}
330
3672
100
AcDbVisualStyle
  2
Hidden
 70
     6
 71
     1
 72
     2
 73
     2
 90
        0
 40
-0.6
 41
-30.0
 62
     5
 63
     7
421
 16777215
 74
     2
 91
        2
 64
     7
 65
   257
 75
     2
175
     1
 42
40.0
 92
        0
 66
   257
 43
1.0
 76
     1
 77
     6
 78
     2
 67
     7
 79
     3
170
     0
171
     0
290
     0
174
     0
 93
        1
 44
0.0
173
     0
291
     0
 45
0.0
1001
ACAD
1000
AcDbSavedByObjectVersion
1070
     0
  0
VISUALSTYLE
  5
3688
102
{ACAD_XDICTIONARY
360
3887
102
}
102
{ACAD_REACTORS
330
3672
102
}
330
3672
100
AcDbVisualStyle
  2
JitterOff
 70
    20
 71
     2
 72
     2
 73
     0
 90
        0
 40
-0.6
 41
-30.0
 62
     5
 63
     7
421
 16777215
 74
     1
 91
        4
 64
     7
 65
   257
 75
     1
175
     1
 42
1.0
 92
       10
 66
     7
 43
1.0
 76
     1
 77
     6
 78
     2
 67
     7
 79
     5
170
     0
171
     0
290
     0
174
     0
 93
        1
 44
0.0
173
     0
291
     1
 45
0.0
1001
ACAD
1000
AcDbSavedByObjectVersion
1070
     0
  0
VISUALSTYLE
  5
3680
102
{ACAD_XDICTIONARY
360
3877
102
}
102
{ACAD_REACTORS
330
3672
102
}
330
3672
100
AcDbVisualStyle
  2
Linepattern
 70
    14
 71
     2
 72
     2
 73
     0
 90
        0
 40
-0.6
 41
-30.0
 62
     5
 63
     7
421
 16777215
 74
     1
 91
        4
 64
     7
 65
   257
 75
     7
175
     7
 42
1.0
 92
        8
 66
     7
 43
1.0
 76
     1
 77
     6
 78
     2
 67
     7
 79
     5
170
     0
171
     0
290
     0
174
     0
 93
        1
 44
0.0
173
     0
291
     1
 45
0.0
1001
ACAD
1000
AcDbSavedByObjectVersion
1070
     0
  0
VISUALSTYLE
  5
3689
102
{ACAD_XDICTIONARY
360
3889
102
}
102
{ACAD_REACTORS
330
3672
102
}
330
3672
100
AcDbVisualStyle
  2
OverhangOff
 70
    21
 71
     2
 72
     2
 73
     0
 90
        0
 40
-0.6
 41
-30.0
 62
     5
 63
     7
421
 16777215
 74
     1
 91
        4
 64
     7
 65
   257
 75
     1
175
     1
 42
1.0
 92
        9
 66
     7
 43
1.0
 76
     1
 77
     6
 78
     2
 67
     7
 79
     5
170
     0
171
     0
290
     0
174
     0
 93
        1
 44
0.0
173
     0
291
     1
 45
0.0
1001
ACAD
1000
AcDbSavedByObjectVersion
1070
     0
  0
VISUALSTYLE
  5
367C
102
{ACAD_XDICTIONARY
360
386F
102
}
102
{ACAD_REACTORS
330
3672
102
}
330
3672
100
AcDbVisualStyle
  2
Realistic
 70
     8
 71
     2
 72
     2
 73
     0
 90
        2
 40
-0.6
 41
30.0
 62
     5
 63
     7
421
 16777215
 74
     0
 91
        0
 64
     7
 65
   257
 75
     1
175
     1
 42
1.0
 92
        8
 66
   257
 43
1.0
 76
     1
 77
     6
 78
     2
 67
     7
 79
     3
170
     0
171
     0
290
     0
174
     0
 93
       13
 44
0.0
173
     0
291
     0
 45
0.0
1001
ACAD
1000
AcDbSavedByObjectVersion
1070
     0
  0
VISUALSTYLE
  5
3687
102
{ACAD_XDICTIONARY
360
3885
102
}
102
{ACAD_REACTORS
330
3672
102
}
330
3672
100
AcDbVisualStyle
  2
Shaded
 70
    27
 71
     2
 72
     2
 73
     1
 90
        2
 40
-0.6
 41
30.0
 62
     5
 63
     7
421
 16777215
 74
     0
 91
        4
 64
     7
 65
   257
 75
     1
175
     1
 42
1.0
 92
        8
 66
   257
 43
1.0
 76
     1
 77
     6
 78
     2
 67
     8
425
  7895160
 79
     3
170
     0
171
     0
290
     0
174
     0
 93
        5
 44
0.0
173
     0
291
     0
 45
0.0
1001
ACAD
1000
AcDbSavedByObjectVersion
1070
     0
  0
VISUALSTYLE
  5
3686
102
{ACAD_XDICTIONARY
360
3883
102
}
102
{ACAD_REACTORS
330
3672
102
}
330
3672
100
AcDbVisualStyle
  2
Shaded with edges
 70
    26
 71
     2
 72
     2
 73
     1
 90
        2
 40
-0.6
 41
30.0
 62
     5
 63
     7
421
 16777215
 74
     1
 91
       10
 64
     7
 65
   257
 75
     2
175
     1
 42
1.0
 92
        8
 66
   257
 43
1.0
 76
     1
 77
     6
 78
     2
 67
     7
 79
     3
170
     0
171
     0
290
     0
174
     0
 93
        5
 44
0.0
173
     0
291
     0
 45
0.0
1001
ACAD
1000
AcDbSavedByObjectVersion
1070
     0
  0
VISUALSTYLE
  5
3683
102
{ACAD_XDICTIONARY
360
387D
102
}
102
{ACAD_REACTORS
330
3672
102
}
330
3672
100
AcDbVisualStyle
  2
Shades of Gray
 70
    23
 71
     2
 72
     2
 73
     3
 90
        0
 40
-0.6
 41
-30.0
 62
     5
 63
     7
421
 16777215
 74
     2
 91
        2
 64
     7
 65
     7
 75
     1
175
     1
 42
40.0
 92
        8
 66
     7
 43
1.0
 76
     1
 77
     6
 78
     2
 67
     7
 79
     3
170
     0
171
     0
290
     0
174
     0
 93
        1
 44
0.0
173
     0
291
     0
 45
0.0
1001
ACAD
1000
AcDbSavedByObjectVersion
1070
     0
  0
VISUALSTYLE
  5
3684
102
{ACAD_XDICTIONARY
360
387F
102
}
102
{ACAD_REACTORS
330
3672
102
}
330
3672
100
AcDbVisualStyle
  2
Sketchy
 70
    24
 71
     1
 72
     2
 73
     2
 90
        0
 40
-0.6
 41
-30.0
 62
     5
 63
     7
421
 16777215
 74
     2
 91
        2
 64
     7
 65
     7
 75
     1
175
     1
 42
40.0
 92
       11
 66
     7
 43
1.0
 76
     1
 77
     6
 78
     2
 67
     7
 79
     6
170
     0
171
     0
290
     0
174
     0
 93
        1
 44
0.0
173
     0
291
     0
 45
0.0
1001
ACAD
1000
AcDbSavedByObjectVersion
1070
     0
  0
VISUALSTYLE
  5
367F
102
{ACAD_XDICTIONARY
360
3875
102
}
102
{ACAD_REACTORS
330
3672
102
}
330
3672
100
AcDbVisualStyle
  2
Thicken
 70
    13
 71
     2
 72
     2
 73
     0
 90
        0
 40
-0.6
 41
-30.0
 62
     5
 63
     7
421
 16777215
 74
     1
 91
        4
 64
     7
 65
   257
 75
     1
175
     1
 42
1.0
 92
       12
 66
     7
 43
1.0
 76
     1
 77
     6
 78
     2
 67
     7
 79
     5
170
     0
171
     0
290
     0
174
     0
 93
        1
 44
0.0
173
     0
291
     1
 45
0.0
1001
ACAD
1000
AcDbSavedByObjectVersion
1070
     0
  0
VISUALSTYLE
  5
3679
102
{ACAD_XDICTIONARY
360
3869
102
}
102
{ACAD_REACTORS
330
3672
102
}
330
3672
100
AcDbVisualStyle
  2
Wireframe
 70
     5
 71
     0
 72
     2
 73
     0
 90
        0
 40
-0.6
 41
-30.0
 62
     5
 63
     7
421
 16777215
 74
     1
 91
        4
 64
     7
 65
   257
 75
     1
175
     1
 42
1.0
 92
        0
 66
   257
 43
1.0
 76
     1
 77
     6
 78
     2
 67
     7
 79
     3
170
     0
171
     0
290
     0
174
     0
 93
        1
 44
0.0
173
     0
291
     0
 45
0.0
1001
ACAD
1000
AcDbSavedByObjectVersion
1070
     0
  0
VISUALSTYLE
  5
3685
102
{ACAD_XDICTIONARY
360
3881
102
}
102
{ACAD_REACTORS
330
3672
102
}
330
3672
100
AcDbVisualStyle
  2
X-Ray
 70
    25
 71
     2
 72
     2
 73
     1
 90
        1
 40
0.5
 41
-30.0
 62
     5
 63
     7
421
 16777215
 74
     1
 91
        0
 64
     7
 65
   257
 75
     1
175
     1
 42
1.0
 92
        8
 66
     7
 43
1.0
 76
     1
 77
     6
 78
     2
 67
     7
 79
     3
170
     0
171
     0
290
     0
174
     0
 93
       13
 44
0.0
173
     0
291
     0
 45
0.0
1001
ACAD
1000
AcDbSavedByObjectVersion
1070
     0
  0
DICTIONARYVAR
  5
3768
102
{ACAD_REACTORS
330
1114
102
}
330
1114
100
DictionaryVariables
280
     0
  1
1:1
  0
DICTIONARYVAR
  5
3765
102
{ACAD_REACTORS
330
1114
102
}
330
1114
100
DictionaryVariables
280
     0
  1
STANDARD
  0
DICTIONARYVAR
  5
3764
102
{ACAD_REACTORS
330
1114
102
}
330
1114
100
DictionaryVariables
280
     0
  1
STANDARD
  0
DICTIONARYVAR
  5
3766
102
{ACAD_REACTORS
330
1114
102
}
330
1114
100
DictionaryVariables
280
     0
  1
Imperial24
  0
DICTIONARYVAR
  5
3767
102
{ACAD_REACTORS
330
1114
102
}
330
1114
100
DictionaryVariables
280
     0
  1
Imperial24
  0
DICTIONARYVAR
  5
1A5D
102
{ACAD_REACTORS
330
1114
102
}
330
1114
100
DictionaryVariables
280
     0
  1
1
  0
DICTIONARYVAR
  5
1A5E
102
{ACAD_REACTORS
330
1114
102
}
330
1114
100
DictionaryVariables
280
     0
  1

  0
DICTIONARYVAR
  5
1115
102
{ACAD_REACTORS
330
1114
102
}
330
1114
100
DictionaryVariables
280
     0
  1
96
  0
DICTIONARY
  5
372B
330
1071
100
AcDbDictionary
280
     1
281
     1
  3
ADSK_XREC_LAYOUTTHUMBNAIL
360
372C
  0
DICTIONARY
  5
3663
330
3662
100
AcDbDictionary
280
     1
281
     1
  3
ACAD_XREC_ROUNDTRIP
360
385B
  3
BUMPTILE
360
3665
  3
DIFFUSETILE
360
3664
  3
OPACITYTILE
360
3668
  3
REFLECTIONTILE
360
3667
  3
REFRACTIONTILE
360
3669
  3
SPECULARTILE
360
3666
  0
DICTIONARY
  5
365B
330
365A
100
AcDbDictionary
280
     1
281
     1
  3
ACAD_XREC_ROUNDTRIP
360
385A
  3
BUMPTILE
360
365D
  3
DIFFUSETILE
360
365C
  3
OPACITYTILE
360
3660
  3
REFLECTIONTILE
360
365F
  3
REFRACTIONTILE
360
3661
  3
SPECULARTILE
360
365E
  0
DICTIONARY
  5
366B
330
366A
100
AcDbDictionary
280
     1
281
     1
  3
ACAD_XREC_ROUNDTRIP
360
385C
  3
BUMPTILE
360
366D
  3
DIFFUSETILE
360
366C
  3
OPACITYTILE
360
3670
  3
REFLECTIONTILE
360
366F
  3
REFRACTIONTILE
360
3671
  3
SPECULARTILE
360
366E
  0
DICTIONARY
  5
388E
330
36A0
100
AcDbDictionary
280
     1
281
     1
  3
ACAD_XREC_ROUNDTRIP
360
388F
  0
DICTIONARY
  5
371E
330
368C
100
AcDbDictionary
280
     1
281
     1
  3
ACAD_ROUNDTRIP_2008_TABLESTYLE_CELLSTYLEMAP
360
3858
  3
ACAD_XREC_ROUNDTRIP
360
388D
  0
DICTIONARY
  5
3867
330
3678
100
AcDbDictionary
280
     1
281
     1
  3
ACAD_XREC_ROUNDTRIP
360
3868
  0
DICTIONARY
  5
3865
330
3677
100
AcDbDictionary
280
     1
281
     1
  3
ACAD_XREC_ROUNDTRIP
360
3866
  0
DICTIONARY
  5
3873
330
367E
100
AcDbDictionary
280
     1
281
     1
  3
ACAD_XREC_ROUNDTRIP
360
3874
  0
DICTIONARY
  5
387B
330
3682
100
AcDbDictionary
280
     1
281
     1
  3
ACAD_XREC_ROUNDTRIP
360
387C
  0
DICTIONARY
  5
386D
330
367B
100
AcDbDictionary
280
     1
281
     1
  3
ACAD_XREC_ROUNDTRIP
360
386E
  0
DICTIONARY
  5
3871
330
367D
100
AcDbDictionary
280
     1
281
     1
  3
ACAD_XREC_ROUNDTRIP
360
3872
  0
DICTIONARY
  5
388B
330
368A
100
AcDbDictionary
280
     1
281
     1
  3
ACAD_XREC_ROUNDTRIP
360
388C
  0
DICTIONARY
  5
3879
330
3681
100
AcDbDictionary
280
     1
281
     1
  3
ACAD_XREC_ROUNDTRIP
360
387A
  0
DICTIONARY
  5
385D
330
3673
100
AcDbDictionary
280
     1
281
     1
  3
ACAD_XREC_ROUNDTRIP
360
385E
  0
DICTIONARY
  5
385F
330
3674
100
AcDbDictionary
280
     1
281
     1
  3
ACAD_XREC_ROUNDTRIP
360
3860
  0
DICTIONARY
  5
3861
330
3675
100
AcDbDictionary
280
     1
281
     1
  3
ACAD_XREC_ROUNDTRIP
360
3862
  0
DICTIONARY
  5
3863
330
3676
100
AcDbDictionary
280
     1
281
     1
  3
ACAD_XREC_ROUNDTRIP
360
3864
  0
DICTIONARY
  5
386B
330
367A
100
AcDbDictionary
280
     1
281
     1
  3
ACAD_XREC_ROUNDTRIP
360
386C
  0
DICTIONARY
  5
3887
330
3688
100
AcDbDictionary
280
     1
281
     1
  3
ACAD_XREC_ROUNDTRIP
360
3888
  0
DICTIONARY
  5
3877
330
3680
100
AcDbDictionary
280
     1
281
     1
  3
ACAD_XREC_ROUNDTRIP
360
3878
  0
DICTIONARY
  5
3889
330
3689
100
AcDbDictionary
280
     1
281
     1
  3
ACAD_XREC_ROUNDTRIP
360
388A
  0
DICTIONARY
  5
386F
330
367C
100
AcDbDictionary
280
     1
281
     1
  3
ACAD_XREC_ROUNDTRIP
360
3870
  0
DICTIONARY
  5
3885
330
3687
100
AcDbDictionary
280
     1
281
     1
  3
ACAD_XREC_ROUNDTRIP
360
3886
  0
DICTIONARY
  5
3883
330
3686
100
AcDbDictionary
280
     1
281
     1
  3
ACAD_XREC_ROUNDTRIP
360
3884
  0
DICTIONARY
  5
387D
330
3683
100
AcDbDictionary
280
     1
281
     1
  3
ACAD_XREC_ROUNDTRIP
360
387E
  0
DICTIONARY
  5
387F
330
3684
100
AcDbDictionary
280
     1
281
     1
  3
ACAD_XREC_ROUNDTRIP
360
3880
  0
DICTIONARY
  5
3875
330
367F
100
AcDbDictionary
280
     1
281
     1
  3
ACAD_XREC_ROUNDTRIP
360
3876
  0
DICTIONARY
  5
3869
330
3679
100
AcDbDictionary
280
     1
281
     1
  3
ACAD_XREC_ROUNDTRIP
360
386A
  0
DICTIONARY
  5
3881
330
3685
100
AcDbDictionary
280
     1
281
     1
  3
ACAD_XREC_ROUNDTRIP
360
3882
  0
XRECORD
  5
372C
102
{ACAD_REACTORS
330
372B
102
}
330
372B
100
AcDbXrecord
280
     1
310
28000000000100008A0000000100080000000000008A0000010000000100000000010000000000000000006600000052C8C8C85600000050000000730000003200000031000000500000006F0000004F00000032330000466600006699000052CC000056FF00005000330073333300326633003199330050CC33006FFF3300
310
3200660018336600006666000099660000CC660000FF66000000990000339900006699000099990000CC990000FF99000000CC000033CC000066CC000099CC0000CCCC0000FFCC000000FF000033FF000066FF000099FF0000CCFF0000FFFF00010000331433003354660033539900336FCC003374FF003330003333303333
310
33726633337099333370CC333330FF3333010066331233663354666633539966336FCC663374FF66333000993330339933726699337099993331CC993300FF99330000CC330033CC330066CC330099CC3300CCCC3300FFCC330000FF330033FF330066FF330099FF3300CCFF3300FFFF330000006600330066006600660099
310
006600CC006600FF00660000336600333366006633660099336666CC336652FF33665600666650336666736666663299666631CC666650FF66666F0099664F339966336699664699996666CC996652FF99665600CC665033CC667366CC663299CC6631CCCC6650FFCC666F00FF663333FF661866FF660099FF6600CCFF6600
310
FFFF660000009900330099006600990099009900CC009900FF00990000339900333399006633990099339900CC339900FF33990000669900336699006666990099669900CC669900FF66990000999901339999146699995499999953CC99996FFF99997400CC993033CC993066CC997299CC9970CCCC9970FFCC993400FF99
310
0133FF991266FF995499FF9953CCFF996FFFFF99740000CC303300CC306600CC729900CC70CC00CC35FF00CC000033CC003333CC006633CC009933CC00CC33CC00FF33CC000066CC003366CC006666CC009966CC00CC66CC00FF66CC000099CC003399CC006699CC009999CC00CC99CC00FF99CC0000CCCC0033CCCC0066CC
310
CC0099CCCC00CCCCCC66FFCCCC5200FFCC5633FFCC5066FFCC7399FFCC32CCFFCC31FFFFCC500000FF6F3300FF4F6600FF339900FF46CC00FF66FF00FF520033FF563333FF506633FF739933FF32CC33FF31FF33FF500066FF6F3366FF336666FF5A9966FF00CC66FF14FF66FF540099FF533399FF6F6699FF749999FF30CC
310
99FF30FF99FF7200CCFF7033CCFF7066CCFF3799CCFF01CCCCFF12FFCCFF5400FFFF5333FFFF6F66FFFF7499FFFF30CCFFFF30FFFFFF72000000700D0D0D381A1A1A00282828003535356643434352505050565D5D5D506B6B6B73787878328686863193939350A1A1A16FAEAEAE4FBBBBBB33C9C9C946D6D6D666E4E4E452
310
F1F1F156FFFFFF50000000730000003200000031000000500000006F000000330000008C00000000000000F00000000000000000000000000000000000000000000000000000000000000000000000000000000000000000000000000000000000000000000000000000000000000000000000000000000000000000000000
310
00000000000000000000000000000000000000000000000000000000000000000000000000000000000000000000000000000000000000000000000000000000000000000000000000000000000000000000000000000000000000000000000000000000000000000000000000000000000000000000000000000000000000
310
000000000000000000000000000000000000000000000000000000000000000000000000000000000000000000000000000000000000000000000000000000000000000000000000000000000000000000DCDCDCDCDCDCDCDCDCDCDCDCDCDCDCDCDCDCDCDCDCDCDCDCDCDCDCDCDCDCDCDCDCDCDCDCDCDCDCDCDCDCDCDCDCDC
310
DCDCDCDCDCDCDCDCDCDCDCDCDCDCDCDCDCDCDCDCDCDCDCDCDCDCDCDCDCDCDCDCDCDCDCDCDCDCDCDCDCDCDCDCDCDCDCDCDCDCDCDCDCDCDCDCDCDCDCDCF5DCDCDCDCDCDCDCDCDCDCDCDCDCDCDCDCDCDCDCDCDCDCDCDCDCDCDCDCDCDCDCDCDCDCDCDCDCDCDCDCDCDCDCDCDCDCDCDCDCDCDCDCDCDCDCDCDCDCDCDCDCDCDCDCDCDC
310
DCDCDCDCDCDCDCDCDCDCDCDCDCDCDCDCDCDCDCDCDC0000000000000000000000000000000000000000000000000000000000000000000000000000000000000000000000000000000000000000000000000000DC00000000000000000000000000000000000000000000000000000000000000000000000000000000000000
310
0000000000000000000000000000000000000000000000000000000000000000000000000000000000000000000000000000000000000000000000000000F500000000000000000000000000000000000000000000000000000000000000000000000000000000000000000000000000000000000000000000000000000000
310
00000000000000000000000000000000000000000000DC0000000000000000000000000000000000000000000000000000000000000000000000000000000000000000000000000000000000000000000000000000DC0000000000000000282828282828282828282828282828282828282828282828282828282828282828
310
28282828282828282828282828282828282828282828282828282828282828282828282828282828282828282828282828282828282828282828282828282828F52828282828282828282828282828282828282828282828282828282828282828282828282828282828282828282828282828282828282828282828282828
310
28282828282828282828282828282828282828282828F5F5DC0000000000000000000000000000000000000000000000000000000000000000000000000000000000000000000000000000000000000000000000000000DC000000000000000028000000000000000000000000000000000000000000000000000000000000
310
000000000000000000000000000000000000000000000000000000000000000000000000000000000000000000000000000000000000000000000000000000000000000028F5F5BE000000000000F500BE0000F500BE000000002800000000000000000000000000000000000028DCDCDCDCDCDCDCDCDCDCDCDCDCDCDCDCDC
310
DCDCDCDCDCDCDCDCDCDCDCDCDCDCDCDCDCDCDCDCDCDCDCDCF5F5DC0000000000000000000000000000000000000000000000000000000000000000000000000000000000000000000000000000000000000000000000000000DC00000000000000002800000000000000000000000000000000000000000000000000000000
310
0000000000000000000000000000000000000000000000000000000000000000000000000000000000000000000000000000000000000000000000000000000000000000000028F5F5BE00F5F5F5F5F5F500BE00F5F5F5BEF5F5F5F52800282828282828282828002828282828280028000000000000000000000000000000
310
000000000000000000000000000000000000000000000000000028F5DC0000000000000000000000000000000000000000000000000000000000000000000000000000000000000000000000000000000000000000000000000000DC0000000000000000280000000000000000000000000000000000000000000000000000
310
00000000000000000000000000000000000000000000000000000000000000000000000000000000000000000000000000000000000000000000000000000000000000000000000028F5F5BE00F5F5F500000000BE00F50000BEF5F50000280028280028000028282828280028000028282800000000000000000000000000
310
0000000000000000000000000000000000000000000000000000000028F5DC0000000000000000000000000000000000000000000000000000000000000000000000000000000000000000000000000000000000000000000000000000DC000000000000000028000000000000000000000000000000000000000000000000
310
0000000000000000000000000000000000000000000000000000000000000000000000000000000000000000000000000000000000000000000000000000000000000000000000000000282828BE2828282828282828BE28282828BE2828282828002828282800002828282828282800002828280000000000000000000000
310
000000000000000000000000000000000000000000000000000000000000F5F5DC0000000000000000000000000000000000000000000000000000000000000000000000000000000000000000000000000000000000000000000000000000DC00000000000000002800000000000000000000000000000000000000000000
310
00000000000000000000000000000000000000000000000000000000000000000000000000000000000000000000000000000000000000000000000000000000000000000000000000000000280000BE0000000000000000BE00000000BE000000002800282800282828282828282828282828282828F5F5F5F5F5F5F5F5F5
310
F500000000000000000000000000000000000000000000000000000000000000F5F5DC0000000000000000000000000000000000000000000000000000000000000000000000000000000000000000000000000000000000000000000000000000DC0000000000000000280000000000000000000000000000000000000000
310
000000000000000000000000000000000000000000000000000000000000000000000000000000000000000000000000000000000000000000000000000000000000000000000000000000000000280000BE0000000000000000BE00000000BE000000002800282800002828002828282800002828000028F5F5000000F500
310
F5000000000000000000000000000000000000000000000000000000000000000000F5F5DC0000000000000000000000000000000000000000000000000000000000000000000000000000000000000000000000000000000000000000000000000000DC000000000000000028000000000000000000000000000000000000
310
000000000000000000000000000000000000000000000000000000000000000000000000000000000000000000000000000000000000000000000000000000000000000000000000000000000000000028DCDCDCDCDCDCDCDCDCDCDCDCDCDCDCDCDCDCDCDCDCF5F5F5F5BE28F5F5F5F5BE2828F5F5F5F528282828F5F5F5F5
310
F5F5F5F5F52828282828282828282828282828282828282828282828282828282828282828F5DC0000000000000000000000000000000000000000000000000000000000000000000000000000000000000000000000000000000000000000000000000000DC00000000000000002800000000000000000000000000000000
310
00000000000000000000000000000000000000000000000000000000000000000000000000000000000000000000000000000000000000000000000000000000000000000000000000000000000000000000280000BE0000000000000000BE00000000BE00000000F5F5F5F5BE00F5F5F500BE0000F5F5F5F500002800F5F5
310
F5F5F5F5F5F5F50000000000000000000000000028000000000000000000000000000000000028F5DC0000000000000000000000000000000000000000000000000000000000000000000000000000000000000000000000000000000000000000000000000000DC0000000000000000280000000000000000000000000000
310
00000000000000000000000000000000000000000000000000000000000000000000000000000000000000000000000000000000000000000000000000000000000000000000000000000000000000000000000028DCDCDCDCDCDCDCDCDCDCDCDCDCDCDCDCDCDCDCDCDCDCDCF5DCDCDCDCDCDCDCDCDCDCDCDCDCDCDCDCDCDC
310
F5F5F5F5F5F5F5F5F5F5F5F5F5F5F5F5F5DCDCDCDC0028F5F5F5F5F5F5F5F5F5F5F500000000000028F5F50000000000000000000000000000000000000000000000000000000000000000000000000000000000000000000000000000000000000000000000000000DC000000000000000028000000000000000000000000
310
0000000000000000000000000000000000000000000000000000000000000000000000000000000000000000000000000000000000000000000000000000000000000000000000000000000000000000000000000000280000BE0000000000000000BE00000000BE00000000F5F5F5F5BE00F5F5F5F5BE000000F5F5000000
310
2800F5F5F5F5F5F5F5F500F5F5F5F5F5F5F5F5000000000028F5F5F5F5F5F5F5F5F5F5F5000000000000F5F5DC0000000000000000000000000000000000000000000000000000000000000000000000000000000000000000000000000000000000000000000000000000DC00000000000000002800000000000000000000
310
0000000000000000000000000000000000000000000000000000000000000000000000000000000000000000000000000000000000000000000000000000000000000000000000000000000000000000000000000000000028DCDCDCDCDCDCDCDCDCDCDCDCDCDCDCDCDCDCDCDCDCDCF5DCDCDCDCF5F5F5DCDCDCDCDCF5F5DC
310
DCDCDCDCDCDCDCDCDCDCDCDCDCDCDCDCDCDCDCDCDCDCDCDCDC00BEBEBEBEF5F5BEF5BEBEF5BEBEBEBEBEBEBEF5F5DC0000000000000000000000000000000000000000000000000000000000000000000000000000000000000000000000000000000000000000000000000000DC0000000000000000280000000000000000
310
000000000000000000000000000000000000000000000000000000000000000000000000000000000000000000000000000000000000000000000000000000000000000000000000000000000000000000000000000000000000280000BE0000000000000000BE00000000BE00000000F5F5F500BE00F5F5F5F5BE000000F5
310
F5F5000028000000000000000000000000000000000000000000000028000000000000000000000000000000000028F5DC0000000000000000000000000000000000000000000000000000000000000000000000000000000000000000000000000000000000000000000000000000DC000000000000000028000000000000
310
0000000000000000000000000000000000000000000000000000000000000000000000000000000000000000000000000000000000000000000000000000000000000000000000000000000000000000000000000000000000000000280000BE0000000000000000BE00000000BE00000000F5F5F500BE00F5F5F500BE0000
310
00F5F5F500002800000000000000000000000000000000000000F5000000280000000000000000000000000000000000F5F5DC0000000000000000000000000000000000000000000000000000000000000000000000000000000000000000000000000000000000000000000000000000DC00000000000000002800000000
310
0000000000000000000000000000000000000000000000000000000000000000000000000000000000000000000000000000000000000000000000000000000000000000000000000000000000000000000000000000000000000000000028DCDCDCDCDCDCDCDCDCDCDCDCDCDCDCDCDCDCDCDCDCDCF5F5F5DCDCF5F5F5DCDC
310
DCDCF5F5F5F5DCDCDCDCF5F5F5F5F5F5F5DCF5F5F5F5F5F5F5F5F5F5F5DCDC0028F5F5F5F5F5F5F5F5000000000000000000F5F5DC0000000000000000000000000000000000000000000000000000000000000000000000000000000000000000000000000000000000000000000000000000DC0000000000000000280000
310
000000000000000000000000000000000000000000000000000000000000000000000000000000000000000000000000000000000000000000000000000000000000000000000000000000000000000000000000000000000000000000000000280000BE0000000000000000BE00000000BE0000000028F5F5F5BE00F5F5F5
310
00BE0000F5F5F5F500002800F5F5F5F5F5F5F500F5F5F5F5F5F5F5F5F5F5F500000028F5F5F5F5F5F5F5F500000000000000000028F5DC0000000000000000000000000000000000000000000000000000000000000000000000000000000000000000000000000000000000000000000000000000DC000000000000000028
310
000000000000000000000000000000000000000000000000000000000000000000000000000000000000000000000000000000000000000000000000000000000000000000000000000000000000000000000000000000000000000000000000000028DCDCDCDCDCDCDCDCDCDCDCDCDCDCDCDCDCDCDCDCDCDC282828BE2828
310
282828BE282828282828282828282828282828282828282828282828282828282828282828282828282828282828282828282828282828F5DC0000000000000000000000000000000000000000000000000000000000000000000000000000000000000000000000000000000000000000000000000000DC00000000000000
310
00280000000000000000000000000000000000000000000000000000000000000000000000000000000000000000000000000000000000000000000000000000000000000000000000000000000000000000000000000000000000000000000000000000280000BE0000000000000000BE00000000BE000000002800000000
310
0000000000BE000000000000000028DCDCDCDCDCDCDCDCDCDCDCDCDCDCDCDCDCDCDCDCDCDC0028DCDCDCDCDCDCDCDCDCDCDCDCDCDCDCDCDC28F5DC0000000000000000000000000000000000000000000000000000000000000000000000000000000000000000000000000000000000000000000000000000DC0000000000
310
00000028000000000000000000000000000000000000000000000000000000000000000000000000000000000000000000000000000000000000000000000000000000000000000000000000000000000000000000000000000000000000000000000000000028DCDCDCDCDCDCDCDCDCDCDCDCDCDCDCDCDCDCDCDCDCDC0000
310
00BEBEBE000000BEF5F5F5F5F5F5F5F5F500BEBEBEBEBEBEBEBE00BEBEBEBEBEBEBEBEBEBEBEBE0028000000BEBEBEBEBEBEBEBEBEBEBE000000F5F5DC0000000000000000000000000000000000000000000000000000000000000000000000000000000000000000000000000000000000000000000000000000DC000000
310
0000000000280000000000000000000000000000000000000000000000000000000000000000000000000000000000000000000000000000000000000000000000000000000000000000000000000000000000000000000000000000000000000000000000000000280000BE0000000000000000BE00000000BE0000000028
310
0000BEBEBEBE000000BEF5F5F5F5F5F5F5F5F500BEBEBEBEBEBEBEBE00BEBEBEBEBEBEBEBEBEBEBEBE0028000000BEBEBEBEBEBEBEBEBEBEBE000000F5F5DC0000000000000000000000000000000000000000000000000000000000000000000000000000000000000000000000000000000000000000000000000000DC00
310
0000000000000028000000000000000000000000000000000000000000000000000000000000000000000000000000000000000000000000000000000000000000000000000000000000000000000000000000000000000000000000000000000000000000000000000028DCDCDCDCDCDCDCDCDCDCDCDCDCDCDCDCDCDCDCDC
310
DCDC000000000000000000BE0000000000000000280000000000000000000000000000000000000000000000280000000000000000000000000000000000F5F5DC0000000000000000000000000000000000000000000000000000000000000000000000000000000000000000000000000000000000000000000000000000
310
DC0000000000000000280000000000000000000000000000000000000000000000000000000000000000000000000000000000000000000000000000000000000000000000000000000000000000000000000000000000000000000000000000000000000000000000000000280000BE0000000000000000BE00000000BE00
310
0000002800F5F5F5F5F5F50000BEF5F5F500F5F5F5002800F5F5F5F5F5F5F5F5000000000000000000000000000028F5F5F5F5F5F5F5F5F5F5F500000000000028F5DC000000000000000000000000000000000000000000000000000000000000000000000000000000000000000000000000000000000000000000000000
310
0000DC0000000000000000280000000000000000000000000000000000000000000000000000000000000000000000000000000000000000000000000000000000000000000000000000000000000000000000000000000000000000000000000000000000000000000000000000280000BE0000000000000000BE00000000
310
BE000000002800F5F5F5F5F5F50000BEF5F5F500F5F5F5002800F5F5F5F5F5F5F5F5000000000000000000000000000028F5F5F5F5F5F5F5F5F5F5F500000000000028F5F500000000000000000000000000000000000000000000000000000000000000000000000000000000000000000000000000000000000000000000
310
00000000DC0000000000000000280000000000000000000000000000000000000000000000000000000000000000000000000000000000000000000000000000000000000000000000000000000000000000000000000000000000000000000000000000000000000000000000000000F5F5F5F5F5F5F5F5F5F5F5F5F5F5F5
310
F528F5F5F5F52828282828282828282828BE282828282828282828282828282828282828282828282828282828282828282828282828282828282828282828282828282828F5DC0000000000000000000000000000000000000000000000000000000000000000000000000000000000000000000000000000000000000000
310
000000000000DC0000000000000000280000000000000000000000000000000000000000000000000000000000000000000000000000000000000000000000000000000000000000000000000000000000000000000000000000000000000000000000000000000000000000000000000000F5F5F5F5F5F5F5F5F500F5F5F5
310
F5F5F500F5F5F5F50000000000000000000000000000000000000000000000000000000000000000000000000000000000000000000000000000000000000000000000000000F5F5DC000000000000000000000000000000000000000000000000000000000000000000000000000000000000000000000000000000000000
310
0000000000000000DC00000000000000002800000000000000000000000000000000000000000000000000000000000000000000000000000000000000000000000000000000000000000000000000000000000000000000000000000000000000000000000000000000000000000000000000000000000000000000000000
310
000000000000000000000000000000000000000000000000000000000000000000000000000000000000000000000000000000000000000000000000000000000000000000000000F5F5DC00000000000000000000000000000000000000000000000000000000000000000000000000000000000000000000000000000000
310
00000000000000000000DC0000000000000000280000000000000000000000000000000000000000000000000000000000000000000000000000000000000000000000000000000000000000000000000000000000000000000000000000000000000000000000000000000000000000000000000000000000000000000000
310
0000000000000000000000000000000000000000000000000000000000000000000000000000000000000000000000000000000000000000000000000000000000000000000000000000F5F5DC0000000000000000000000000000000000000000000000000000000000000000000000000000000000000000000000000000
310
000000000000000000000000DC000000000000000028000000000000000000000000000000000000000000000000000000000000000000000000000000000000000000000000000000000000000000000000000000000000000000000000000000000000000000000000000000000000000000000000000000000000000000
310
00000000000000000000000000000000000000000000000000000000000000000000000000000000000000000000000000000000000000000000000000000000000000000000000000000000F5F5DC000000000000000000000000000000000000000000000000000000000000000000000000000000000000000000000000
310
0000000000000000000000000000DC00000000000000002800000000000000000000000000000000000000000000000000000000000000000000000000000000000000000000000000000000000000000000000000000000000000000000000000000000000000000000000000000000000000000000000000000000000000
310
00000000000000000000000000000000000000000000000000000000000000000000000000000000000000000000000000000000000000000000000000000000000000000000000000000000000028F5DC00000000000000000000000000000000000000000000000000000000000000000000000000000000000000000000
310
00000000000000000000000000000000DC0000000000000000280000000000000000000000000000000000000000000000000000000000000000000000000000000000000000000000000000000000000000000000000000000000000000000000000000000000000000000000000000000000000000000000000000000000
310
0000000000000000000000000000000000000000000000000000000000000000000000000000000000000000000000000000000000000000000000000000000000000000000000000000000000000000F5F5DC0000000000000000000000000000000000000000000000000000000000000000000000000000000000000000
310
000000000000000000000000000000000000DC000000000000000028000000000000000000000000000000000000000000000000000000000000000000000000000000000000000000000000000000000000000000000000000000000000000000000000000000000000000000000000000000000000000000000000000000
310
00000000000000000000000000000000000000000000000000000000000000000000000000000000000000000000000000000000000000000000000000000000000000000000000000000000000000000000F5F5DC000000000000000000000000000000000000000000000000000000000000000000000000000000000000
310
0000000000000000000000000000000000000000DC00000000000000002800000000000000000000000000000000000000000000000000000000000000000000000000000000000000000000000000000000000000000000000000000000000000000000000000000000000000000000000000000000000000000000000000
310
000000000000000000000000000000000000000000000000000000000000000000000000000000000000000000000000000000000000000000000000000000000000000000000000000000000000000000000000F5F5DC00000000000000000000000000000000000000000000000000000000000000000000000000000000
310
00000000000000000000000000000000000000000000DC0000000000000000280000000000000000000000000000000000000000000000000000000000000000000000000000000000000000000000000000000000000000000000000000000000000000000000000000000000000000000000000000000000000000000000
310
0000000000000000000000000000000000000000000000000000000000000000000000000000000000000000000000000000000000000000000000000000000000000000000000000000000000000000000000000000F5F5DC0000000000000000000000000000000000000000000000000000000000000000000000000000
310
000000000000000000000000000000000000000000000000DC000000000000000028000000000000000000000000000000000000000000000000000000000000000000000000000000000000000000000000000000000000000000000000000000000000000000000000000000000000000000000000000000000000000000
310
00000000000000000000000000000000000000000000000000000000000000000000000000000000000000000000000000000000000000000000000000000000000000000000000000000000000000000000000000000000F5F5DC000000000000000000000000000000000000000000000000000000000000000000000000
310
0000000000000000000000000000000000000000000000000000DC00000000000000002800000000000000000000000000000000000000000000000000000000000000000000000000000000000000000000000000000000000000000000000000000000000000000000000000000000000000000000000000000000000000
310
00000000000000000000000000000000000000000000000000000000000000000000000000000000000000000000000000000000000000000000000000000000000000000000000000000000000000000000000000000000000028F5DC00000000000000000000000000000000000000000000000000000000000000000000
310
00000000000000000000000000000000000000000000000000000000DC0000000000000000280000000000000000000000000000000000000000000000000000000000000000000000000000000000000000000000000000000000000000000000000000000000000000000000000000000000000000000000000000000000
310
000000000000000000000000000000000000000000000000000000000000000000000000000000000000000000000000000000000000000000000000000000000000000000000000000000000000000000000000000000000000000028F5DC0000000000000000000000000000000000000000000000000000000000000000
310
000000000000000000000000000000000000000000000000000000000000DC000000000000000028000000000000000000000000000000000000000000000000000000000000000000000000000000000000000000000000000000000000000000000000000000000000000000000000000000000000000000000000000000
310
0000000000000000000000000000000000000000000000000000000000000000000000000000000000000000000000000000000000000000000000000000000000000000000000000000000000000000000000000000000000000000000028F5DC000000000000000000000000000000000000000000000000000000000000
310
0000000000000000000000000000000000000000000000000000000000000000DC00000000000000002800000000000000000000000000000000000000000000000000000000000000000000000000000000000000000000000000000000000000000000000000000000000000000000000000000000000000000000000000
310
00000000000000000000000000000000000000000000000000000000000000000000000000000000000000000000000000000000000000000000000000000000000000000000000000000000000000000000000000000000000000000000000028F5DC00000000000000000000000000000000000000000000000000000000
310
00000000000000000000000000000000000000000000000000000000000000000000DC0000000000000000280000000000000000000000000000000000000000000000000000000000000000000000000000000000000000000000000000000000000000000000000000000000000000000000000000000000000000000000
310
0000000000000000000000000000000000000000000000000000000000000000000000000000000000000000000000000000000000000000000000000000000000000000000000000000000000000000000000000000000000000000000000000000F5F5DC0000000000000000000000000000000000000000000000000000
310
000000000000000000000000000000000000000000000000000000000000000000000000DC000000000000000028000000000000000000000000000000000000000000000000000000000000000000000000000000000000000000000000000000000000000000000000000000000000000000000000000000000000000000
310
0000000000000000000000000000000000000000000000000000000000000000000000000000000000000000000000000000000000000000000000000000000000000000000000000000000000000000000000000000000000000000000000000000000028F5F5000000000000000000000000000000000000000000000000
310
0000000000000000000000000000000000000000000000000000000000000000000000000000DC00000000000000002800000000000000000000000000000000000000000000000000000000000000000000000000000000000000000000000000000000000000000000000000000000000000000000000000000000000000
310
00000000000000000000000000000000000000000000000000000000000000000000000000000000000000000000000000000000000000000000000000000000000000000000000000000000000000000000000000000000000000000000000000000000000028F5DC00000000000000000000000000000000000000000000
310
00000000000000000000000000000000000000000000000000000000000000000000000000000000DC0000000000000000280000000000000000000000000000000000000000000000000000000000000000000000000000000000000000000000000000000000000000000000000000000000000000000000000000000000
310
0000000000000000000000000000000000000000000000000000000000000000000000000000000000000000000000000000000000000000000000000000000000000000000000000000000000000000000000000000000000000000000000000000000000000000F5F5DC0000000000000000000000000000000000000000
310
000000000000000000000000000000000000000000000000000000000000000000000000000000000000DC000000000000000028000000000000000000000000000000000000000000000000000000000000000000000000000000000000000000000000000000000000000000000000000000000000000000000000000000
310
0000000000000000000000000000000000000000000000000000000000000000000000000000000000000000000000000000000000000000000000000000000000000000000000000000000000000000000000000000000000000000000000000000000000000000000028F5DC000000000000000000000000000000000000
310
0000000000000000000000000000000000000000000000000000000000000000000000000000000000000000DC00000000000000002800000000000000000000000000000000000000000000000000000000000000000000000000000000000000000000000000000000000000000000000000000000000000000000000000
310
00000000000000000000000000000000000000000000000000000000000000000000000000000000000000000000000000000000000000000000000000000000000000000000000000000000000000000000000000000000000000000000000000000000000000000000000028F5DC00000000000000000000000000000000
310
00000000000000000000000000000000000000000000000000000000000000000000000000000000000000000000DC0000000000000000280000000000000000000000000000000000000000000000000000000000000000000000000000000000000000000000000000000000000000000000000000000000000000000000
310
0000000000000000000000000000000000000000000000000000000000000000000000000000000000000000000000000000000000000000000000000000000000000000000000000000000000000000000000000000000000000000000000000000000000000000000000000000F5F5DC0000000000000000000000000000
310
000000000000000000000000000000000000000000000000000000000000000000000000000000000000000000000000DC000000000000000028000000000000000000000000000000000000000000000000000000000000000000000000000000000000000000000000000000000000000000000000000000000000000000
310
0000000000000000000000000000000000000000000000000000000000000000000000000000000000000000000000000000000000000000000000000000000000000000000000000000000000000000000000000000000000000000000000000000000000000000000000000000000028F5DC000000000000000000000000
310
0000000000000000000000000000000000000000000000000000000000000000000000000000000000000000000000000000DC00000000000000002800000000000000000000000000000000000000000000000000000000000000000000000000000000000000000000000000000000000000000000000000000000000000
310
000000000000000000000000000000000000000000000000000000000000000000000000000000000000000000000000000000000000000000000000000000000000000000000000000000000000000000000000000000000000000000000000000000000000000000000000000000000000F5F5DC00000000000000000000
310
00000000000000000000000000000000000000000000000000000000000000000000000000000000000000000000000000000000DC0000000000000000280000000000000000000000000000000000000000000000000000000000000000000000000000000000000000000000000000000000000000000000000000000000
310
000000000000000000000000000000000000000000000000000000000000000000000000000000000000000000000000000000000000000000000000000000000000000000000000000000000000000000000000000000000000000000000000000000000000000000000000000000000000000028F5DC0000000000000000
310
000000000000000000000000000000000000000000000000000000000000000000000000000000000000000000000000000000000000DC000000000000000028000000000000000000000000000000000000000000000000000000000000000000000000000000000000000000000000000000000000000000000000000000
310
00000000000000000000000000000000000000000000000000000000000000000000000000000000000000000000000000000000000000000000000000000000000000000000000000000000000000000000000000000000000000000000000000000000000000000000000000000000000000000000F5F5DC000000000000
310
0000000000000000000000000000000000000000000000000000000000000000000000000000000000000000000000000000000000000000DC00000000000000002800000000000000000000000000000000000000000000000000000000000000000000000000000000000000000000000000000000000000000000000000
310
00000000000000000000000000000000000000000000000000000000000000000000000000000000000000000000000000000000000000000000000000000000000000000000000000000000000000000000000000000000000000000000000000000000000000000000000000000000000000000000000028F5DC00000000
310
00000000000000000000000000000000000000000000000000000000000000000000000000000000000000000000000000000000000000000000DC0000000000000000280000000000000000000000000000000000000000000000000000000000000000000000000000000000000000000000000000000000000000000000
310
000000000000000000000000000000000000000000000000000000000000000000000000000000000000000000000000000000000000000000000000000000000000000000000000000000000000000000000000000000000000000000000000000000000000000000000000000000000000000000000000000028F5DC0000
310
000000000000000000000000000000000000000000000000000000000000000000000000000000000000000000000000000000000000000000000000DC000000000000000028000000000000000000000000000000000000000000000000000000000000000000000000000000000000000000000000000000000000000000
310
00000000000000000000000000000000000000000000000000000000000000000000000000000000000000000000000000000000000000000000000000000000000000000000000000000000000000000000000000000000000000000000000000000000000000000000000000000000000000000000000000000000F5F5DC
310
0000000000000000000000000000000000000000000000000000000000000000000000000000000000000000000000000000000000000000000000000000DC00000000000000002800000000000000000000000000000000000000000000000000000000000000000000000000000000000000000000000000000000000000
310
00000000000000000000000000000000000000000000000000000000000000000000000000000000000000000000000000000000000000000000000000000000000000000000000000000000000000000000000000000000000000000000000000000000000000000000000000000000000000000000000000000000000028
310
F5DC0000000000000000000000000000000000000000000000000000000000000000000000000000000000000000000000000000000000000000000000000000DC0000000000000000280000000000000000000000000000000000000000000000000000000000000000000000000000000000000000000000000000000000
310
0000000000000000000000000000000000000000000000000000000000000000000000000000000000000000000000000000000000000000000000000000000000000000000000000000000000000000000000000000000000000000000000000000000000000000000000000028F5F5F5F5F5F5F5F5F5F5F5F5F5F5F5F5F5
310
0028F5F50000000000000000000000000000000000000000000000000000000000000000000000000000000000000000000000000000000000000000000000000000DC000000000000000028000000000000000000000000000000000000000000000000000000000000000000000000000000000000000000000000000000
310
000000000000000000000000000000000000000000000000000000000000000000000000000000000000000000000000000000000000000000000000000000000000000000000000000000000000000000000000000000000000282828F5F5F5F5F5F5F5F5F5F5F5F5F5F5F5F5F5F5F5F5F5F5F5F5F5000000DC0028000000
310
F5F50028F5DC0000000000000000000000000000000000000000000000000000000000000000000000000000000000000000000000000000000000000000000000000000DC00000000000000002800000000000000000000000000000000000000000000000000000000000000000000000000000000000000000000000000
310
000000000000000000000000000000000000000000000000000000000000000000000000000000000000000000000000000000000000000000000000000000000000000000002828282828F5F5F5F5F5F5F5F5F5F5F5F5F5F5F5F5F5F5F5F5F5F5F5F5F50000000000000000000000000000000000000000000000DC002800
310
0000F5000028F5DC0000000000000000000000000000000000000000000000000000000000000000000000000000000000000000000000000000000000000000000000000000DC0000000000000000280000000000000000000000000000000000000000000000000000000000000000000000000000000000000000000000
310
00000000000000000000000000000000000000000000000000000000000000000000000000000000000000000000000000000028282828282828F5F5F5F5F5F5F5F5F5F5F5F5F5F5F5F5F5F5F5F5F5F5F5F5F5000000000000000000000000000000000000000000000000000000000000000000000000000000000000DC00
310
28000000F5000028F5DC0000000000000000000000000000000000000000000000000000000000000000000000000000000000000000000000000000000000000000000000000000DC000000000000000028000000000000F5F5F5F5F5F5F5F5F5F5F5F5F5F5F5F5F5F5F5F5F5F5F5F5F5F5F5F5F5F5F5F5F5F5F5F5F5F5F5
310
F5F5F5F5F5F5F5F5F5F5F5F5F5F5F5F5F5F5F5F5F5F5F5F5F5F5000000000000000000000000000000F5F5F5F5F5F5F5F5F5F5F5F5F5F5F5F5F5F5F5F5F5F5F5F5F528280000000000000000000000000000000000000000000000000000000000000000000000000000000000000000000000000000000000000000000000
310
DC0028000000F5000028F5DC0000000000000000000000000000000000000000000000000000000000000000000000000000000000000000000000000000000000000000000000000000DC000000000000000028000000000000F5000000000000000000000000000000000000000000000000000000000000BEBEBEBE0000
310
000000000000000000000000000000000000000000000000000000F5000000000000000000000000F5F5F5F5F5F5F5F5F5282828280000000000000000000000000000000000000000000000000000000000000000000000000000000000000000000000000000000000000000000000000000000000000000000000000000
310
0000DC0028000000F50000F5F5DC0000000000000000000000000000000000000000000000000000000000000000000000000000000000000000000000000000000000000000000000000000DC000000000000000028000000000000F5000000000000000000000000000000000000000000000000000000000000BEBEBEBE
310
0000000000000000000000000000000000000000000000000000000000F50000000000000000F5F5F5F5F500DC00000000000000000000000000000000000000000000000000000000000000000000000000000000000000000000000000000000000000000000000000000000000000000000000000000000000000000000
310
00000000DC0000280000F50000F5F5DC0000000000000000000000000000000000000000000000000000000000000000000000000000000000000000000000000000000000000000000000000000DC000000000000000028000000000000F50000000000000000000000000000000000000000000000000000000000000000
310
00000000000000000000000000000000000000000000000000000000000000F50000000000F5F5F5F5F50000DCDC000000000000000000000000000000000000000000000000000000000000000000000000000000000000000000000000000000000000000000000000000000000000000000000000000000000000000000
310
00000000000000DC0028000000F500F5F5DC0000000000000000000000000000000000000000000000000000000000000000000000000000000000000000000000000000000000000000000000000000DC000000000000000028000000000000F5000000000000000000000000000000000000000000000000000000000000
310
000000000000000000000000000000000000000000000000000000000000000000F50000F5F5F5F5000000DCDCDC000000000000000000000000000000000000000000000000000000000000000000000000000000000000000000000000000000000000000000000000000000000000000000000000000000000000000000
310
000000000000000000DC002800BEBEF500F5F5DC0000000000000000000000000000000000000000000000000000000000000000000000000000000000000000000000000000000000000000000000000000DC000000000000000028000000F5F5F5F5F5F5F5F5F5F5F5F5F5F5F5F5F5F5F5F5F5F5F5F5F5F5F5F5F5F5F5F5
310
F5F5F5F5F5F5F5F5F5F5F5F5F5F5F5F5F5F5F5F5F5F5F5F5F5F5F5F5F5F5F5F5F5F5F5F5F5F5F5DCDCDCDCDCDC00000000000000000000000000000000000000000000000000000000000000000000000000000000000000000000000000000000000000000000000000000000000000000000000000000000000000000000
310
0000000000000000000000DC002800BEBEF500F5F5DC0000000000000000000000000000000000000000000000000000000000000000000000000000000000000000000000000000000000000000000000000000DC000000000000000028000000F50000F50000000000000000000000000000000028F5F5F5F5F5F5F5F5F5
310
F5F5F5F5F5F5F5F5F5F5F5F5F5F5F5F5F5F5F5F5F5F5F5F5F5F5F5F5F5F5F5F52828000000F5DCDCDCDCDCDCDCDCDCDC0000000000000000000000000000F500000000000000000000000000000000000000000000000000000000000000000000000000000000000000000000000000000000000000000000000000000000
310
00000000000000000000000000DC002800BEBEF50028F5DC0000000000000000000000000000000000000000000000000000000000000000000000000000000000000000000000000000000000000000000000000000DC000000000000000028000000F50000F500000000000000000000000000000000F500000000000000
310
000000000000000000000000000000000000000000000000000000000000000028000000000000F5DC000000000000000000DCDC00000000000000000000BEBEBEF500000000000000000000000000000000000000000000000000000000000000000000000000000000000000000000000000000000000000000000000000
310
000000000000000000000000000000DC00F5F5BEBEF50028F5DC0000000000000000000000000000000000000000000000000000000000000000000000000000000000000000000000000000000000000000000000000000DCDCDCDCDCDCDCDC0028000000F50000F500000000000000000000000000000000F50000000000
310
0000000000000000000000000000000000000000000000000000000000000000000028000000000000F5000000000000000000000000DC000000000000000000BEBE00F50000000000000000000000000000000000000000000000000000000000000000000000000000000000000000000000000000000000000000000000
310
00DCDC00DCDCDCDCDCDCDC00DCDCDCDCDCDCDCF500BEBEBE0028F5DC0000000000000000000000000000000000000000000000000000000000000000000000000000000000000000000000000000000000000000000000000000DC000000000000000028000000F50000F500000000000000000000000000000000F5000000
310
00000000000000000000000000000000000000000000000000000000000000000000000028000000000000F500000000000000000000000000000000000000000000000000F500000000000000000000000000000000000000000000000000000000000000000000000000000000DCDCDCDCDCDCDC00DCDCDCDCDCDCDCDCDC
310
DCDCDC00000000000000000000000000000000DC00F50000BEBE0028F5DC0000000000000000000000000000000000000000000000000000000000000000000000000000000000000000000000000000000000000000000000000000DC000000000000000028000000F50000F500000000000000000000000000000000F500
310
0000000000000000000000000000000000000000000000000000000000000000000000000000280000000000DCF500000000000000000000000000000000000000000000000000F5000000000000000000000000000000000000000000DCDCDC00DCDCDCDCDCDCDCDCDCDCDCDCDCDC00000000000000000000000000000000
310
000000000000000000000000000000000000000000DC00F500BEBEBE00F5F5DC0000000000000000000000000000000000000000000000000000000000000000000000000000000000000000000000000000000000000000000000000000DC00000000000000002800BEBEBE0000F500000000000000000000000000000000
310
F500000000000000000000000000000000000000000000000000000000000000000000000000000028000000000000F500000000000000000000000000000000000000000000000000F50000DCDCDCDCDCDCDCDCDCDCDCDCDCDC00DCDCDCDC0000000000000000000000000000000000000000000000000000000000000000
310
0000000000000000000000000000000000000000000000DC00F5000000F500F5F5DC0000000000000000000000000000000000000000000000000000000000000000000000000000000000000000000000000000000000000000000000000000DC00000000000000002800BEBEBE0000F50000000000000000000000000000
310
0000F500000000000000000000000000000000000000000000000000000000000000000000000000000000280000000000F50000000000000000DCDCDCDCDCDCDCDCDCDCDC00DCDCDCDCDCF5DCDC00000000000000000000000000000000000000000000000000000000000000000000000000000000000000000000000000
310
00000000000000000000000000000000000000000000000000DC00F5000000F500F5F5DC0000000000000000000000000000000000000000000000000000000000000000000000000000000000000000000000000000000000000000000000000000DC00000000000000002800BEBEBE0000F5000000000000000000000000
310
00000000F50000000000000000000000000000000000000000000000000000000000000000000000000000F5DCF5F5F5F5F5F5F5F5F5F5F5F5F5F5F5F5F5F5F5F5F5F5F5F5F5F5F5F5F5F5F5F5F5F5000000000000000000000000000000000000000000000000000000000000000000000000000000000000BEBE00000000
310
000000000000000000000000000000000000000000000000000000DC00F500000000F5F5F5F50000000000000000000000000000000000000000000000000000000000000000000000000000000000000000000000000000000000000000000000000000DC000000000000000028000000F50000F500000000000000000000
310
000000000000F500000000000000000000000000000000000000000000000000000000000000000000000000000000280000000000F500000000000000000000000000000000000000000000000000F5000000000000000000000000000000000000000000000000000000000000000000000000000000BEBEBEBEBEBE0000
310
000000000000000000000000000000000000000000000000000000000000DCF528000000F5F5F5DC0000000000000000000000000000000000000000000000000000000000000000000000000000000000000000000000000000000000000000000000000000DC000000000000000028000000F50000F50000000000000000
310
0000000000000000F500000000000000000000000000000000000000000000000000000000000000000000000000000000280000000000F500000000000000000000000000000000000000000000000000F5000000000000000000000000000000000000000000000000000000000000000000000000000000BEBEBEBEBEBE
310
0000000000000000000000000000000000000000000000000000000000000000DCF528000000F528F5DC0000000000000000000000000000000000000000000000000000000000000000000000000000000000000000000000000000000000000000000000000000DC000000000000000028000000F50000F5000000000000
310
00000000000000000000F500000000000000000000000000000000000000000000000000000000000000000000000000000000280000000000F500000000000000000000000000DC0000000000000000000000F500000000000000000000000000000000000000000000000000000000000000000000000000000000000000
310
00000000000000000000000000000000000000000000000000000000000000000000DCF528000000F5F5F5DC0000000000000000000000000000000000000000000000000000000000000000000000000000000000000000000000000000000000000000000000000000DC000000000000000028000000F50000F500000000
310
0000000000000000000000F5F500000000000000000000000000DC0000000000000000000000000000000000000000000000000000280000000000F5000000000000000000000000DC000000000000000000000000000000000000000000000000000000000000000000000000000000000000000000000000000000000000
310
000000000000000000000000000000000000000000000000000000000000000000000000DCF5280000F5F528F5DC0000000000000000000000000000000000000000000000000000000000000000000000000000000000000000000000000000000000000000000000000000DC000000000000000028000000F50000F5F528
310
F528F5F528F528F5F528F5F528F5F528282828282828282828282828DC28282828282828282828282828F528F528F5F528F5F528F528F5F528F528F5F5F5F5F5F5F5000000000000DCDC0000000000000000000000000000000000000000000000000000000000000000000000000000000000000000000000000000000000
310
0000000000000000000000000000000000000000000000000000000000000000000000000000DCF528000000F5F5F5DC0000000000000000000000000000000000000000000000000000000000000000000000000000000000000000000000000000000000000000000000000000DC000000000000000028000000F5F5F5F5
310
2828DC28282828282828DCDC282828282828282828282828282828282828282828282828282828282828282828282828DC282828282828282828282828DCF5F5DCDCF5F50000DCDCDCDC0000000000000000000000000000000000000000000000000000000000000000000000000000000000000000000000000000000000
310
0000000000000000000000000000000000000000000000000000000000F5F5F5F5F5F5F5F5F5F5F5F5F5F5F5F5F5F5F5F5DC0000000000000000000000000000000000000000000000000000000000000000000000000000000000000000000000000000000000000000000000000000DC0000000000000000280000000000
310
000028F5F5F5282828282828DCDC282828282828282828282828282828282828282828282828282828282828282828282828DC28282828282828282828282800DCF500DCDCF5DCDCDCDCDCDC000000000000000000000000000000000000000000000000000000000000000000000000000000000000000000000000000000
310
000000000000000000002828F5F5F5F5F5F5F5F5F5F5F5F5F5F5F5F5F5F5F5F5F5F5F5F5F5000000000000F50000000000F5F5DC0000000000000000000000000000000000000000000000000000000000000000000000000000000000000000000000000000000000000000000000000000DC000000000000000028000000
310
0000000028F5F5F528282828282828F5282828282828282828282828282828282828F528282828282828282828282828DC28282828F528282828282828282828280000DCDCF5F5F5F5F5F5000000DCDCDCDC00000000000000000000000000000000000000000000000000000000000000000000000028282828F5F5F5F5F5
310
F5F5F5F5F5F5F5F5F5F5F5F5F5F5F5F5F5F5F5F500000000000000000000000000000000000000000000000000F5000000000028F5DC0000000000000000000000000000000000000000000000000000000000000000000000000000000000000000000000000000000000000000000000000000DC00000000000000002800
310
00000000000028F5F5F5280000000028DCDCDCDC000000000000000000000000000028DCDCDCDC0000000000000000002800DC002828DCDCDCDC0000000000000000000000F5F5DC00F500F5F5F5F5F5F5F50000DCDC00000000000000000000000028282828282828F5F5F5F5F5F5F5F5F5F5F5F5F5F5F5DCF5F5F5F5F5F5
310
F5F5F50000000000000000000000000000000000000000000000000000000000000000000000000000000000000000F5000000000028F5DC0000000000000000000000000000000000000000000000000000000000000000000000000000000000000000000000000000000000000000000000000000DC0000000000000000
310
280000000000000028F5F5F528000000002828282828000000000000000000000000000028282828280000000000000000002800DC00282828DC28280000000000000000000000F50000DCDC000000000028F5F5F5F5F5F5F5F5F5F5F5F5F5F5F5F5F5F5F5F5F5F5F5F5F5F5F5F5F5F52828280000000000000000DC000000
310
00000000000000000000000000000000000000000000000000000000000000000000000000000000000000000000000000F50000000000F5F5DC0000000000000000000000000000000000000000000000000000000000000000000000000000000000000000000000000000000000000000000000000000DC000000000000
310
0000280000000000000028F5F5F52800000000002828DC000000000000000000000000000000002828280000000000000000000028282828280028DCDC000000000000000000000000F5000000F5DCDC00000000000000282828F5F5F5F5F528282828280000000000000000000000000000000000000000000000000000DC
310
000000000000000000000000000000000000000000000000000000000000000000000000000000000000000000000000000000F50000000000F5F5DC0000000000000000000000000000000000000000000000000000000000000000000000000000000000000000000000000000000000000000000000000000DC00000000
310
00000000280000000000000000DCDC0000000000000000DC000000000000000000000000000000000000DC00000000000000000000000000DC00000000DC00000000000000000000000000F5000000F50000DC000000BEBEBEBE0000BEBEBEBEBEBE00BEBEBEBEBEBEBEBEBEBEBEBE00000000000000000000000000000000
310
00DC000000000000000000000000000000000000000000000000000000000000000000000000000000000000000000000000000000F50000000000F5F5DC0000000000000000000000000000000000000000000000000000000000000000000000000000000000000000000000000000000000000000000000000000DC0000
310
00000000000028000000000000000000DC000000000000000000000000000000000000000000000000000000F50000000000000000000000000000000000000000000000000000000000282800F5000000F5000000DC0000BEBEBEBEBEBEBEBEBEBEBEBE00BEBEBEBEBEBEBEBEBEBE00BE0000000000000000000000000000
310
00000000DC0000000000000000000000000000000000000000000000000000000000000000000000000000000000000000000000000000F5000000000028F5DC0000000000000000000000000000000000000000000000000000000000000000000000000000000000000000000000000000000000000000000000000000DC
310
000000000000000028000000000000000000DC000000000000000000000000000000000000000000000000000000F5000000000000000000000000000000000000000000000000000000000028F52828000000F500000000DCDCBEBEBEBEBE00BE00BEBEBE0000BEBEBEBEBEBE00BEBEBEBEBE000000000000000000000000
310
00000000000000DC00000000000000000000000000000000000000000000000000000000000000000000000000000000000000000000000000F5000000000028F5DC00000000000000000000000000000000000000000000000000000000000000000000000000000000000000000000000000000000000000000000000000
310
00DC000000000000000028000000000000000000DC000000000000000000000000000000000000000000000000000000F50000000000000000000000000000000000000000000000000000000000280028F500BE00F5000000000000DCBEBEBEBEBEBEBEBEBEBEBEBEBEBEBEBEBEBEBEBEBEBEDCDC00000000000000000000
310
00000000000000000000DC00BEBEBEBE0000BEBEBEBEBEBE00BEBEBEBEBEBEBEBEBEBEBEBE00000000000000000000000000000000000000000000F50000000000F5F5DC0000000000000000000000000000000000000000000000000000000000000000000000000000000000000000000000000000000000000000000000
310
000000DC000000000000000028000000000000000000DC000000000000000000000000000000000000000000000000000000F5000000000000000000000000000000000000000000000000000000000028F528F5BEBEBEF5000000000000BEBEBEBEBEBEBEBEBEBEBEBEBEBEBEBEBEBEBEBEBEBEBE00000000000000000000
310
000000000000000000000000DC00BEBEBEBEBEBEBEBEBEBEBEBE00BEBEBEBEBEBEBEBEBEBEBEBE00000000000000000000000000000000000000000000F5000000000028F5DC000000000000000000000000000000000000000000000000000000000000000000000000000000000000000000000000000000000000000000
310
0000000000DC00000000000000002800000000000000000000DC0000000000000000000000000000000000000000000000000000F5000000000000000000000000000000000000000000000000000000000028F528F5BEBEBEF5000000000000BEBE0000000000000000BE000000BEBEBE00BE000000000000000000000000
310
000000000000000000000000000000DCBEBEBEBEBE00BE00BEBEBE0000BEBEBEBEBEBE00BEBEBEBEBE00000000000000000000000000000000000000000000F5000000000028F5F500000000000000000000000000000000000000000000000000000000000000000000000000000000000000000000000000000000000000
310
00000000000000DC00000000000000002800000000000000000000DC0000000000000000000000000000000000000000000000000000F50000000000000000000000000000000000000000000000000000000000280028F5BEBEBEF50000000000000000000000000000000000000000000000000000000000000000000000
310
000000000000000000000000000000000000DCBEBEBEBEBEBEBEBEBEBEBEBEBEDCBEBEBEBEBEBEDCDCDCDC00000000000000000000000000000000000000000000F5000000000028F5F50000000000000000000000000000000000000000000000000000000000000000000000000000000000000000000000000000000000
310
000000000000000000DC00000000000000002800000000000000000000DCBEBEBEBEBEBEBEBEBEBEBEBE00BEBEBEBEBEBEBEBEBEBEBEBE00F5000000000000000000000000000000000000000000000000000000282828F528F5000000F5000000000000000000000000000000000000000000000000000000000000000000
310
000000000000000000000000000000000000000000BEBEBEBEBEBEBEBEBEBEBEBEBE00BEBEBEBEBEBE0000000000000000000000000000000000000000000000000000F50000000000F5F5DC000000000000000000000000000000000000000000000000000000000000000000000000000000000000000000000000000000
310
0000000000000000000000DC0000000000000000280000000000000000000000DCBEBEBEBE00BEBEBEBEBEBE00BEBEBEBEBEBEBEBEBEBEBEBE00F50000000000000000000000000000000000000000000000000000282828280028F5000000F500000000000000000000000000000000000000000000000000000000000000
310
0000000000000000000000000000000000000000000000BE0000BE0000BEBEBE0000000000BEBEBEBEBEBE0000000000000000000000000000000000000000000000000000F5000000000028F5DC00000000000000000000000000000000000000000000000000000000000000000000000000000000000000000000000000
310
00000000000000000000000000DC0000000000000000280000000000000000000000DCDCDCDCDCDCDCDCDCDCDCDCDCDCDCDCDCDCDCDCDCDCDCDCDC00F500000000000000000000000000000000000000000000000000DCDCDCDC28F528F5000000F50000000000000000000000000000000000000000000000000000000000
310
0000000000000000000000000000000000000000000000000000000000000000000000000000000000000000000000000000000000000000000000000000000000000000000000F5000000000028F5DC0000000000000000000000000000000000000000000000000000000000000000000000000000000000000000000000
310
000000000000000000000000000000DC0000000000000000280000000000000000000000BEBEBEBEBEBEBEBEBEBEBE000000000000000000000000000000F5000000000000000000000000000000000000000000000000000028282828F528F5000000F5000000000000000000000000000000000000000000000000000000
310
00000000000000000000000000000000000000000000000000000000000000000000000000000000000000000000000000000000000000000000000000000000000000000000000000F5000000000028F5DC000000000000000000000000000000000000000000000000000000000000000000000000000000000000000000
310
0000000000000000000000000000000000DC0000000000000000280000000000000000000000BEBEBEBEBEBEBEBEBEBEBE000000000000000000000000000000F50000000000000000000000000000000000000000000000000000002828280028F5000000F500000000000000000000000000000000000000000000000000
310
000000000000000000000000000000000000000000000000000000000000000000000000000000000000000000000000000000000000000000000000000000000000000000000000000000F5000000000028F5DC00000000000000000000000000000000000000000000000000000000000000000000000000000000000000
310
00000000000000000000000000000000000000DC0000000000000000280000000000000000000000BE000000BE00000000BE00000000000000000000000000000000F5000000000000000000000000000000000000000000000000000000000028F528F5000000F50000000000000000000000000000000000000000000000
310
0000000000000000000000000000000000000000000000000000000000000000000000000000000000000000000000000000000000000000000000000000000000000000000000000000000000F50000000000F5F5DC0000000000000000000000000000000000000000000000000000000000000000000000000000000000
310
000000000000000000000000000000000000000000DC00000000000000002800000000000000000000000000000000000000000000000000000000000000000000000000F50000000000000000000000000000000000000000000000000000000000280028F5000000F50000000000BEBEBEBE0000BEBEBEBEBEBE00BEBEBE
310
BEBEBEBEBEBEBEBEBE00000000000000000000000000000000000000000000000000000000000000000000000000000000000000000000000000000000000000000000000000000000000000000000F5000000000028F5DC000000000000000000000000000000000000000000000000000000000000000000000000000000
310
0000000000000000000000000000000000000000000000DC00000000000000002800000000000000000000000000000000000000000000000000000000000000000000000000F5000000000000000000000000000000000000000000000000000000000028F528F5DCDCDCDCDC00000000BEBEBEBEBEBEBEBEBEBEBEBE00BE
310
BEBEBEBEBEBEBEBEBE00BE00000000000000000000000000000000000000000000000000000000000000000000000000000000000000000000000000000000000000000000000000000000000000000000F5000000000028F5DC00000000000000000000000000000000000000000000000000000000000000000000000000
310
00000000000000000000000000000000000000000000000000DC00000000000000002800000000000000000000000000000000000000000000000000000000000000000000000000F5000000000000000000000000000000000000000000000000000000000028F528F50000F5F500DCDCDC00BEBEBEBEBE00BE00BEBEBE00
310
00BEBEBEBEBEBEBEBEBEBEBEBE00000000000000000000000000000000000000000000000000000000000000000000000000000000000000000000000000000000000000000000000000000000000000000000F500000000002800DC0000000000000000000000000000000000000000000000000000000000000000000000
310
000000000000000000000000000000000000000000000000000000DC00000000000000002800000000000000000000000000000000000000000000000000000000000000000000000000F5000000000000000000000000000000000000000000000000000000000028F528F5000000F500000000DCDCDCDCDCDCDCDCDCDCDC
310
DCDCDCDCDCDCDCDCDCDCDCDCDCDCDC00000000000000000000000000000000000000000000000000000000000000000000000000000000000000000000000000000000000000000000000000000000000000000000F500000000002800DC000000000000000000000000000000000000000000000000000000000000000000
310
0000000000000000000000000000000000000000000000000000000000DC00000000000000002800000000000000000000000000000000000000000000000000000000000000000000000000F500000000000000000000000000000000000000000000000000000000000000DCF5F5F5F5F50000000000BEBEBEBEBEBEBEBE
310
BEBEBEBEBEBEBEBEBEBEBEBEBEBEBE000000000000000000000000000000000000000000000000000000000000000000000000000000000000000000000000000000000000000000000000000000000000000000000000F500000000002800DC00000000000000000000000000000000000000000000000000000000000000
310
00000000000000000000000000000000000000000000000000000000000000DC00000000000000002800000000000000000000000000000000000000000000000000000000000000000000000000F50000000000000000000000000000000000000000000000000000000000000000DC000000000000000000BEBE00000000
310
00000000BE000000BEBE00BEBE00000000000000000000000000000000000000000000000000000000000000000000000000000000000000000000000000000000000000000000000000000000000000000000000000000000F500000000002800DC0000000000000000000000000000000000000000000000000000000000
310
000000000000000000000000000000000000000000000000000000000000000000DC00000000000000002800000000000000000000000000000000000000000000000000000000000000000000000000F50000000000000000000000000000000000000000000000000000000000000000DC00000000000000000000000000
310
00000000000000000000000000000000000000000000000000000000000000000000000000000000000000000000000000000000000000000000000000000000000000000000000000000000000000000000000000000000000000F500000000002800DC000000000000000000000000000000000000000000000000000000
310
0000000000000000000000000000000000000000000000000000000000000000000000DC00000000000000002800000000000000000000000000000000000000000000000000000000000000000000000000F5000000000000000000000000000000000000000000000000000000000000000000DC00000000000000000000
310
000000000000000000000000000000000000000000000000000000000000000000000000000000000000000000000000000000000000000000000000000000000000000000000000000000000000000000000000000000000000000000F500000000002800DC00000000000000000000000000000000000000000000000000
310
00000000000000000000000000000000000000000000000000000000000000000000000000DC00000000000000002800000000000000000000000000000000000000000000000000000000000000000000000000F5000000000000000000000000000000000000000000000000000000000000000000DC0000000000000000
310
0000000000000000000000000000000000000000000000000000000000000000000000000000000000000000000000000000000000000000000000000000000000000000000000000000000000000000000000000000000000000000000000F500000000002800DC0000000000000000000000000000000000000000000000
310
000000000000000000000000000000000000000000000000000000000000000000000000000000DC00000000000000002800000000000000000000000000000000000000000000000000000000000000000000000000F500000000000000000000000000000000000000000000000000000000000000000000DC00BEBEBEBE
310
BEBEBEBEBEBEBEBE00BEBEBEBEBEBEBEBEBEBEBEBE00000000000000000000000000000000000000000000000000000000000000000000000000000000000000000000000000000000000000000000000000000000000000000000000000000000F500000000002800DC000000000000000000000000000000000000000000
310
0000000000000000000000000000000000000000000000000000000000000000000000000000000000DC00000000000000002800000000000000000000000000000000000000000000000000000000000000000000000000F500000000000000000000000000000000000000000000000000000000000000000000DC00BEBE
310
BEBE0000BEBEBEBEBEBE00BEBEBEBEBEBEBEBEBEBEBEBE00000000000000000000000000000000000000000000000000000000000000000000000000000000000000000000000000000000000000000000000000000000000000000000000000000000F500000000002800DC00000000000000000000000000000000000000
310
00000000000000000000000000000000000000000000000000000000000000000000000000000000000000DC00000000000000002800000000000000000000000000000000000000000000000000000000000000000000000000F50000000000000000000000000000000000000000000000000000000000000000000000DC
310
DCDCDCDCDCDCDCDCDCDCDCDCDCDCDCDCDCDCDCDCDCDCDCDCDC00000000000000000000000000000000000000000000000000000000000000000000000000000000000000000000000000000000000000000000000000000000000000000000000000000000F500000000002800DC0000000000000000000000000000000000
310
000000000000000000000000000000000000000000000000000000000000000000000000000000000000000000DC00000000000000002800000000000000000000000000000000000000000000000000000000000000000000000000F500000000000000000000000000000000000000000000000000000000000000000000
310
0000BEBEBEBEBEBEBEBEBEBEBE000000000000000000000000000000000000000000000000000000000000000000000000000000000000000000000000000000000000000000000000000000000000000000000000000000000000000000000000000000000000F500000000002800DC000000000000000000000000000000
310
0000000000000000000000000000000000000000000000000000000000000000000000000000000000000000000000DC00000000000000002800000000000000000000000000000000000000000000000000000000000000000000000000F50000000000000000000000000000000000000000000000000000000000000000
310
00000000BEBEBEBEBEBEBEBEBEBEBE000000000000000000000000000000000000000000000000000000000000000000000000000000000000000000000000000000000000000000000000000000000000000000000000000000000000000000000000000000000000F500000000002800DC00000000000000000000000000
310
00000000000000000000000000000000000000000000000000000000000000000000000000000000000000000000000000DC00000000000000002800000000000000000000000000000000000000000000000000000000000000000000000000F5000000000000000000000000000000000000000000000000000000000000
310
0000000000000000000000000000000000000000000000000000000000000000000000000000000000000000000000000000000000000000000000000000000000000000000000000000000000000000000000000000000000000000000000000000000000000000000000F500000000002800DC0000000000000000000000
310
000000000000000000000000000000000000000000000000000000000000000000000000000000000000000000000000000000DC00000000000000002800000000000000000000000000000000000000000000000000000000000000000000000000F500000000000000000000000000000000000000000000000000000000
310
00000000000000000000000000000000000000000000000000000000000000000000000000000000000000000000000000000000000000000000000000000000000000000000000000000000000000000000000000000000000000000000000000000000000000000000000000F500000000002800DC000000000000000000
310
0000000000000000000000000000000000000000000000000000000000000000000000000000000000000000000000000000000000DC00000000000000002800000000000000000000000000000000000000000000000000000000000000000000000000F50000000000000000000000000000000000000000000000000000
310
000000000000000000000000000000000000000000000000000000000000000000000000000000000000000000000000000000000000000000000000000000000000000000000000000000000000000000000000000000000000000000000000000000000000000000000000000000F500000000002800DC00000000000000
310
00000000000000000000000000000000000000000000000000000000000000000000000000000000000000000000000000000000000000DC00000000000000002800000000000000000000000000000000000000000000000000000000000000000000000000F5000000000000000000000000000000000000000000000000
310
0000000000000000000000000000000000000000000000000000000000000000000000000000000000000000000000000000000000000000000000000000000000000000000000000000000000000000000000000000000000000000000000000000000000000000000000000000000000F500000000002800DC0000000000
310
000000000000000000000000000000000000000000000000000000000000000000000000000000000000000000000000000000000000000000DC00000000000000002800000000000000000000000000000000000000000000000000000000000000000000000000F5F5F5F5F5F5F5F5F5F5F5F5F5F5F5F5F5F5F5F5F5F5F5
310
F5F5F5F5F5F5F5F5F5F5F5F5F5F5F5F5F5F5F5F5F5F5F5F5F5F5F5F5F5F5F5F5F5F5F5F5F5F5F5F5F5F5F5F5F5F5F5F5F5F5F5F5F5F5F5F5F5F5F5F5F5F5F5F5F5F5F5F5F5F5F5F5F5F5F5F5F5F5F5F5F5F5F5F5F5F5F5F5F5F5F5F5F5F5F5F5F5F5F5F5F5F5F5F5F5F5F5F5F5F5F5F5F5F5F5F500000000002800DC000000
310
0000000000000000000000000000000000000000000000000000000000000000000000000000000000000000000000000000000000000000000000DC00000000000000002800000000000000000000000000000000000000000000000000000000000000000000000000F5F5F5000000000000000000000000000000000000
310
00000000000000000000000000000000000000000000000000000000000000000000000000000000000000000000BEBEBEBEBE00000000000000000000000000000000000000000000000000000000000000000000000000000000000000000000000000000000000000000000000000000000F5F5F500000000002800DC00
310
00000000000000000000000000000000000000000000000000000000000000000000000000000000000000000000000000000000000000000000000000DC0000000000000000280000000000000000000000000000000000000000000000000000000000000000000000000000000000000000000000000000000000000000
310
000000000000000000000000000000000000000000000000000000000000000000000000000000000000000000000000BEBEBEBEBE0000000000000000000000000000000000000000000000000000000000000000000000000000000000000000000000000000000000000000000000000000000000000000000000002800
310
DC0000000000000000000000000000000000000000000000000000000000000000000000000000000000000000000000000000000000000000000000000000DC000000000000000028000000000000000000000000000000000000000000000000000000000000000000000000000000000000000000000000000000000000
310
000000000000000000000000000000000000000000000000000000000000000000000000000000000000000000000000000000BEBEBE00000000000000000000000000000000000000000000000000000000000000000000000000000000000000000000000000000000000000000000000000000000000000000000000000
310
2800DC0000000000000000000000000000000000000000000000000000000000000000000000000000000000000000000000000000000000000000000000000000DC00000000000000002800000000000000000000000000000000000000000000000000000000000000000000000000000000000000000000000000000000
310
00000000000000000000000000000000000000000000000000000000000000000000000000000000000000000000000000000000000000000000000000000000000000000000000000000000000000000000000000000000000000000000000000000000000000000000000000000000000000000000000000000000000000
310
00002800DC0000000000000000000000000000000000000000000000000000000000000000000000000000000000000000000000000000000000000000000000000000DC0000000000000000280000000000000000000000000000000000000000000000000000000000000000000000000000000000000000000000000000
310
00000000000000000000000000000000000000000000000000000000000000000000000000000000000000000000000000000000000000000000000000000000000000000000000000000000000000000000000000000000000000000000000000000000000000000000000000000000000000000000000000000000000000
310
000000002800DC0000000000000000000000000000000000000000000000000000000000000000000000000000000000000000000000000000000000000000000000000000DC000000000000000028000000000000000000000000000000000000000000000000000000000000000000000000000000000000000000000000
310
00000000000000000000000000000000000000000000000000000000000000000000000000000000000000000000000000000000000000000000000000000000000000000000000000000000000000000000000000000000000000000000000000000000000000000000000000000000000000000000000000000000000000
310
0000000000002800DC0000000000000000000000000000000000000000000000000000000000000000000000000000000000000000000000000000000000000000000000000000DC00000000000000002800000000000000000000000000000000000000000000000000000000000000000000000000000000000000000000
310
00000000000000000000000000000000000000000000000000000000000000000000000000000000000000000000000000000000000000000000000000000000000000000000000000000000000000000000000000000000000000000000000000000000000000000000000000000000000000000000000000000000000000
310
00000000000000002800DC0000000000000000000000000000000000000000000000000000000000000000000000000000000000000000000000000000000000000000000000000000DC0000000000000000280000000000000000000000000000000000000000000000000000000000000000000000000000000000000000
310
00000000000000000000000000000000000000000000000000000000000000000000000000000000000000000000000000000000000000000000000000000000000000000000000000000000000000000000000000000000000000000000000000000000000000000000000000000000000000000000000000000000000000
310
000000000000000000002800DC0000000000000000000000000000000000000000000000000000000000000000000000000000000000000000000000000000000000000000000000000000DC000000000000000028000000000000000000000000000000000000000000000000000000000000000000000000000000000000
310
00000000000000000000000000000000000000000000000000000000000000000000000000000000000000000000000000000000000000000000000000000000000000000000000000000000000000000000000000000000000000000000000000000000000000000000000000000000000000000000000000000000000000
310
0000000000000000000000002800DC0000000000000000000000000000000000000000000000000000000000000000000000000000000000000000000000000000000000000000000000000000DC00000000000000002800000000000000000000000000000000000000000000000000000000000000000000000000000000
310
00000000000000000000000000000000000000000000000000000000000000000000000000000000000000000000000000000000000000000000000000000000000000000000000000000000000000000000000000000000000000000000000000000000000000000000000000000000000000000000000000000000000000
310
00000000000000000000000000002800DC0000000000000000000000000000000000000000000000000000000000000000000000000000000000000000000000000000000000000000000000000000DC0000000000000000280000000000000000000000000000000000000000000000000000000000000000000000000000
310
00000000000000000000000000000000000000000000000000000000000000000000000000000000000000000000000000000000000000000000000000000000000000000000000000000000000000000000000000000000000000000000000000000000000000000000000000000000000000000000000000000000000000
310
000000000000000000000000000000002800DC0000000000000000000000000000000000000000000000000000000000000000000000000000000000000000000000000000000000000000000000000000DC000000000000000028000000000000000000000000000000000000000000000000000000000000000000000000
310
00000000000000000000000000000000000000000000000000000000000000000000000000000000000000000000000000000000000000000000000000000000000000000000000000000000000000000000000000000000000000000000000000000000000000000000000000000000000000000000000000000000000000
310
0000000000000000000000000000000000002800DC0000000000000000000000000000000000000000000000000000000000000000000000000000000000000000000000000000000000000000000000000000DC00000000000000002800000000000000000000000000000000000000000000000000000000000000000000
310
00000000000000000000000000000000000000000000000000000000000000000000000000000000000000000000000000000000000000000000000000000000000000000000000000000000000000000000000000000000000000000000000000000000000000000000000000000000000000000000000000000000000000
310
00000000000000000000000000000000000000002800DC0000000000000000000000000000000000000000000000000000000000000000000000000000000000000000000000000000000000000000000000000000DC0000000000000000280000000000000000000000000000000000000000000000000000000000000000
310
00000000000000000000000000000000000000000000000000000000000000000000000000000000000000000000000000000000000000000000000000000000000000000000000000000000000000000000000000000000000000000000000000000000000000000000000000000000000000000000000000000000000000
310
000000000000000000000000000000000000000000002800DC0000000000000000000000000000000000000000000000000000000000000000000000000000000000000000000000000000000000000000000000000000DC000000000000000028000000000000000000000000000000000000000000000000000000000000
310
00000000000000000000000000000000000000000000000000000000000000000000000000000000000000000000000000000000000000000000000000000000000000000000000000000000000000000000000000000000000000000000000000000000000000000000000000000000000000000000000000000000000000
310
0000000000000000000000000000000000000000000000002800DC0000000000000000000000000000000000000000000000000000000000000000000000000000000000000000000000000000000000000000000000000000DC00000000000000002800000000000000000000000000000000000000000000000000000000
310
00000000000000000000000000000000000000000000000000000000000000000000000000000000000000000000000000000000000000000000000000000000000000000000000000000000000000000000000000000000000000000000000000000000000000000000000000000000000000000000000000000000000000
310
00000000000000000000000000000000000000000000000000002800DC0000000000000000000000000000000000000000000000000000000000000000000000000000000000000000000000000000000000000000000000000000DC0000000000000000280000000000000000000000000000000000000000000000000000
310
00000000000000000000000000000000000000000000000000000000000000000000000000000000000000000000000000000000000000000000000000000000000000000000000000000000000000000000000000000000000000000000000000000000000000000000000000000000000000000000000000000000000000
310
000000000000000000000000000000000000000000000000000000002800DC0000000000000000000000000000000000000000000000000000000000000000000000000000000000000000000000000000000000000000000000000000DC000000000000000028282828282828282828282828282828282828282828282828
310
282828282828282828282828282828282828282828282828282828282828282828282828282828282828282828282828282828282828282828282828282828282828282828282828F5282828282828282828282828282828282828282828282828282828282828282828282828282828282828282828282828282828282828
310
2828282828282828282828282828282828282828282828282828282828282800DC0000000000000000000000000000000000000000000000000000000000000000000000000000000000000000000000000000000000000000000000000000DC00000000000000000000000000000000000000000000000000000000000000
310
0000000000000000000000000000000000000000000000000000000000000000000000000000000000000000000000000000000000000000000000000000000000000000000000000000F500000000000000000000000000000000000000000000000000000000000000000000000000000000000000000000000000000000
310
00000000000000000000000000000000000000000000000000000000000000000000DC0000000000000000000000000000000000000000000000000000000000000000000000000000000000000000000000000000000000000000000000000000DCDCDCDCDCDCDCDCDCDCDCDCDCDCDCDCDCDCDCDCDCDCDCDCDCDCDCDCDCDC
310
DCDCDCDCDCDCDCDCDCDCDCDCDCDCDCDCDCDCDCDCDCDCDCDCDCDCDCDCDCDCDCDCDCDCDCDCDCDCDCDCDCDCDCDCDCDCDCDCDCDCDCDCDCDCDCDCDCDCDCDCDCDCDCDCDCDCDCDCDCDCDCDCDCDCDCDCF5DCDCDCDCDCDCDCDCDCDCDCDCDCDCDCDCDCDCDCDCDCDCDCDCDCDCDCDCDCDCDCDCDCDCDCDCDCDCDCDCDCDCDCDCDCDCDCDCDCDC
310
DCDCDCDCDCDCDCDCDCDCDCDCDCDCDCDCDCDCDCDCDCDCDCDCDCDCDCDCDCDCDCDCDCDCDCDCDC000000000000000000000000000000000000000000000000000000000000000000000000000000000000000000000000000000000000000000000000000000000000000000000000000000000000000000000000000000000000
310
00000000000000000000000000000000000000000000000000000000000000000000000000000000000000000000000000000000000000000000000000000000000000000000000000000000000000000000000000000000000000000000000000000000000000000000000000000000000000000000000000000000000000
310
00000000000000000000000000000000000000000000000000000000000000000000000000000000000000000000000000000000000000000000000000000000000000000000
  0
XRECORD
  5
385B
102
{ACAD_REACTORS
330
3663
102
}
330
3663
100
AcDbXrecord
280
     1
102
MATERIAL
148
0.0
149
0.0
149
0.0
 93
        0
 94
      127
282
     0
 72
     0
 77
     0
171
     0
175
     0
179
     0
273
     0
  0
XRECORD
  5
3665
102
{ACAD_REACTORS
330
3663
102
}
330
3663
100
AcDbXrecord
280
     1
270
     1
271
     1
  0
XRECORD
  5
3664
102
{ACAD_REACTORS
330
3663
102
}
330
3663
100
AcDbXrecord
280
     1
270
     1
271
     1
  0
XRECORD
  5
3668
102
{ACAD_REACTORS
330
3663
102
}
330
3663
100
AcDbXrecord
280
     1
270
     1
271
     1
  0
XRECORD
  5
3667
102
{ACAD_REACTORS
330
3663
102
}
330
3663
100
AcDbXrecord
280
     1
270
     1
271
     1
  0
XRECORD
  5
3669
102
{ACAD_REACTORS
330
3663
102
}
330
3663
100
AcDbXrecord
280
     1
270
     1
271
     1
  0
XRECORD
  5
3666
102
{ACAD_REACTORS
330
3663
102
}
330
3663
100
AcDbXrecord
280
     1
270
     1
271
     1
  0
XRECORD
  5
385A
102
{ACAD_REACTORS
330
365B
102
}
330
365B
100
AcDbXrecord
280
     1
102
MATERIAL
148
0.0
149
0.0
149
0.0
 93
        0
 94
      127
282
     0
 72
     0
 77
     0
171
     0
175
     0
179
     0
273
     0
  0
XRECORD
  5
365D
102
{ACAD_REACTORS
330
365B
102
}
330
365B
100
AcDbXrecord
280
     1
270
     1
271
     1
  0
XRECORD
  5
365C
102
{ACAD_REACTORS
330
365B
102
}
330
365B
100
AcDbXrecord
280
     1
270
     1
271
     1
  0
XRECORD
  5
3660
102
{ACAD_REACTORS
330
365B
102
}
330
365B
100
AcDbXrecord
280
     1
270
     1
271
     1
  0
XRECORD
  5
365F
102
{ACAD_REACTORS
330
365B
102
}
330
365B
100
AcDbXrecord
280
     1
270
     1
271
     1
  0
XRECORD
  5
3661
102
{ACAD_REACTORS
330
365B
102
}
330
365B
100
AcDbXrecord
280
     1
270
     1
271
     1
  0
XRECORD
  5
365E
102
{ACAD_REACTORS
330
365B
102
}
330
365B
100
AcDbXrecord
280
     1
270
     1
271
     1
  0
XRECORD
  5
385C
102
{ACAD_REACTORS
330
366B
102
}
330
366B
100
AcDbXrecord
280
     1
102
MATERIAL
148
0.0
149
0.0
149
0.0
 93
        0
 94
      127
282
     0
 72
     0
 77
     0
171
     0
175
     0
179
     0
273
     0
  0
XRECORD
  5
366D
102
{ACAD_REACTORS
330
366B
102
}
330
366B
100
AcDbXrecord
280
     1
270
     1
271
     1
  0
XRECORD
  5
366C
102
{ACAD_REACTORS
330
366B
102
}
330
366B
100
AcDbXrecord
280
     1
270
     1
271
     1
  0
XRECORD
  5
3670
102
{ACAD_REACTORS
330
366B
102
}
330
366B
100
AcDbXrecord
280
     1
270
     1
271
     1
  0
XRECORD
  5
366F
102
{ACAD_REACTORS
330
366B
102
}
330
366B
100
AcDbXrecord
280
     1
270
     1
271
     1
  0
XRECORD
  5
3671
102
{ACAD_REACTORS
330
366B
102
}
330
366B
100
AcDbXrecord
280
     1
270
     1
271
     1
  0
XRECORD
  5
366E
102
{ACAD_REACTORS
330
366B
102
}
330
366B
100
AcDbXrecord
280
     1
270
     1
271
     1
  0
XRECORD
  5
388F
102
{ACAD_REACTORS
330
388E
102
}
330
388E
100
AcDbXrecord
280
     1
102
ACAD_ROUNDTRIP_2012_MLEADER_STYLE
298
     1
  0
CELLSTYLEMAP
  5
3858
102
{ACAD_REACTORS
330
371E
102
}
330
371E
100
AcDbCellStyleMap
 90
        3
300
CELLSTYLE
  1
TABLEFORMAT_BEGIN
 90
        5
170
     1
 91
        0
 92
    32768
 62
   257
 93
        1
300
CONTENTFORMAT
  1
CONTENTFORMAT_BEGIN
 90
        0
 91
        0
 92
      512
 93
        0
300

 40
0.0
140
1.0
 94
        5
 62
     0
340
1061
144
0.25
309
CONTENTFORMAT_END
171
     0
 94
        0
309
TABLEFORMAT_END
  1
CELLSTYLE_BEGIN
 90
        1
 91
        1
300
_TITLE
309
CELLSTYLE_END
300
CELLSTYLE
  1
TABLEFORMAT_BEGIN
 90
        5
170
     1
 91
        0
 92
        0
 62
   257
 93
        1
300
CONTENTFORMAT
  1
CONTENTFORMAT_BEGIN
 90
        0
 91
        0
 92
      512
 93
        0
300

 40
0.0
140
1.0
 94
        5
 62
     0
340
1061
144
0.18
309
CONTENTFORMAT_END
171
     0
 94
        0
309
TABLEFORMAT_END
  1
CELLSTYLE_BEGIN
 90
        2
 91
        1
300
_HEADER
309
CELLSTYLE_END
300
CELLSTYLE
  1
TABLEFORMAT_BEGIN
 90
        5
170
     1
 91
        0
 92
        0
 62
   257
 93
        1
300
CONTENTFORMAT
  1
CONTENTFORMAT_BEGIN
 90
        0
 91
        0
 92
      512
 93
        0
300

 40
0.0
140
1.0
 94
        2
 62
     0
340
1061
144
0.18
309
CONTENTFORMAT_END
171
     0
 94
        0
309
TABLEFORMAT_END
  1
CELLSTYLE_BEGIN
 90
        3
 91
        2
300
_DATA
309
CELLSTYLE_END
  0
XRECORD
  5
388D
102
{ACAD_REACTORS
330
371E
102
}
330
371E
100
AcDbXrecord
280
     1
102
ACAD_ROUNDTRIP_PRE2007_TABLESTYLE
 90
      512
 91
        0
  1

 92
      512
 93
        0
  2

 94
      512
 95
        0
  3

  0
XRECORD
  5
3868
102
{ACAD_REACTORS
330
3867
102
}
330
3867
100
AcDbXrecord
280
     1
102
RTVSPost2010Prop28
280
     1
102
RTVSPost2010PropOp28
 70
     1
102
RTVSPost2010Prop29
280
     1
102
RTVSPost2010PropOp29
 70
     1
102
RTVSPost2010Prop30
280
     0
102
RTVSPost2010PropOp30
 70
     1
102
RTVSPost2010Prop31
280
     0
102
RTVSPost2010PropOp31
 70
     1
102
RTVSPost2010Prop32
280
     0
102
RTVSPost2010PropOp32
 70
     1
102
RTVSPost2010Prop33
280
     0
102
RTVSPost2010PropOp33
 70
     1
102
RTVSPost2010Prop34
280
     0
102
RTVSPost2010PropOp34
 70
     1
102
RTVSPost2010Prop35
280
     0
102
RTVSPost2010PropOp35
 70
     1
102
RTVSPost2010Prop36
280
     0
102
RTVSPost2010PropOp36
 70
     1
102
RTVSPost2010Prop37
 90
       50
102
RTVSPost2010PropOp37
 70
     1
102
RTVSPost2010Prop38
140
0.0
102
RTVSPost2010PropOp38
 70
     1
102
RTVSPost2010Prop39
140
1.0
102
RTVSPost2010PropOp39
 70
     1
102
RTVSPost2010Prop40
 90
        0
102
RTVSPost2010PropOp40
 70
     1
102
RTVSPost2010Prop41ColorIndex
 90
       18
102
RTVSPost2010Prop41ColorRGB
 90
        0
102
RTVSPost2010PropOp41
 70
     1
102
RTVSPost2010Prop42
 90
       50
102
RTVSPost2010PropOp42
 70
     1
102
RTVSPost2010Prop43
 90
        3
102
RTVSPost2010PropOp43
 70
     1
102
RTVSPost2010Prop44ColorIndex
 90
        5
102
RTVSPost2010Prop44ColorRGB
 90
      255
102
RTVSPost2010PropOp44
 70
     1
102
RTVSPost2010Prop45
280
     0
102
RTVSPost2010PropOp45
 70
     1
102
RTVSPost2010Prop46
 90
       50
102
RTVSPost2010PropOp46
 70
     1
102
RTVSPost2010Prop47
 90
       50
102
RTVSPost2010PropOp47
 70
     1
102
RTVSPost2010Prop48
 90
       50
102
RTVSPost2010PropOp48
 70
     1
102
RTVSPost2010Prop49
280
     0
102
RTVSPost2010PropOp49
 70
     1
102
RTVSPost2010Prop50
 90
       50
102
RTVSPost2010PropOp50
 70
     1
102
RTVSPost2010Prop51ColorIndex
 90
      256
102
RTVSPost2010Prop51ColorRGB
 90
-16777216
102
RTVSPost2010PropOp51
 70
     0
102
RTVSPost2010Prop52
140
1.0
102
RTVSPost2010PropOp52
 70
     0
102
RTVSPost2010Prop53
 90
        2
102
RTVSPost2010PropOp53
 70
     1
102
RTVSPost2010Prop54
  1
strokes_ogs.tif
102
RTVSPost2010PropOp54
 70
     1
102
RTVSPost2010Prop55
280
     0
102
RTVSPost2010PropOp55
 70
     1
102
RTVSPost2010Prop56
140
1.0
102
RTVSPost2010PropOp56
 70
     1
102
RTVSPost2010Prop57
140
1.0
102
RTVSPost2010PropOp57
 70
     1
102
RTVSPropertyOp0
 70
     1
102
RTVSPropertyOp1
 70
     1
102
RTVSPropertyOp2
 70
     1
102
RTVSPropertyOp3
 70
     1
102
RTVSPropertyOp4
 70
     1
102
RTVSPropertyOp5
 70
     1
102
RTVSPropertyOp6
 70
     1
102
RTVSPropertyOp7
 70
     1
102
RTVSPropertyOp8
 70
     1
102
RTVSPropertyOp9
 70
     1
102
RTVSPropertyOp10
 70
     1
102
RTVSPropertyOp11
 70
     1
102
RTVSPropertyOp12
 70
     1
102
RTVSPropertyOp13
 70
     1
102
RTVSPropertyOp14
 70
     1
102
RTVSPropertyOp15
 70
     1
102
RTVSPropertyOp16
 70
     1
102
RTVSPropertyOp17
 70
     1
102
RTVSPropertyOp18
 70
     1
102
RTVSPropertyOp19
 70
     1
102
RTVSPropertyOp20
 70
     1
102
RTVSPropertyOp21
 70
     1
102
RTVSPropertyOp22
 70
     1
102
RTVSPropertyOp23
 70
     1
102
RTVSPropertyOp24
 70
     1
102
RTVSPropertyOp25
 70
     1
102
RTVSPropertyOp26
 70
     1
102
RTVSPropertyOp27
 70
     1
102
RTVSPropertyOp28
 70
     1
102
RTVSPropertyOp29
 70
     1
102
RTVSPropertyOp30
 70
     1
102
RTVSPropertyOp31
 70
     1
102
RTVSPropertyOp32
 70
     1
102
RTVSPropertyOp33
 70
     1
102
RTVSPropertyOp34
 70
     1
102
RTVSPropertyOp35
 70
     1
102
RTVSPropertyOp36
 70
     1
102
RTVSPropertyOp37
 70
     1
102
RTVSPropertyOp38
 70
     1
102
RTVSPropertyOp39
 70
     1
102
RTVSPropertyOp40
 70
     1
102
RTVSPropertyOp41
 70
     1
102
RTVSPropertyOp42
 70
     1
102
RTVSPropertyOp43
 70
     1
102
RTVSPropertyOp44
 70
     1
102
RTVSPropertyOp45
 70
     1
102
RTVSPropertyOp46
 70
     1
102
RTVSPropertyOp47
 70
     1
102
RTVSPropertyOp48
 70
     1
102
RTVSPropertyOp49
 70
     1
102
RTVSPropertyOp50
 70
     1
102
RTVSPropertyOp51
 70
     0
102
RTVSPropertyOp52
 70
     0
102
RTVSPropertyOp53
 70
     1
102
RTVSPropertyOp54
 70
     1
102
RTVSPropertyOp55
 70
     1
102
RTVSPropertyOp56
 70
     1
102
RTVSPropertyOp57
 70
     1
102
RTVSPropertyOp58
 70
     1
102
RTVSPropertyOp59
 70
     1
102
RTVSPropertyOp60
 70
     1
102
RTVSPropertyOp61
 70
     1
102
RTVSPropertyOp62
 70
     1
  0
XRECORD
  5
3866
102
{ACAD_REACTORS
330
3865
102
}
330
3865
100
AcDbXrecord
280
     1
102
RTVSPost2010Prop28
280
     0
102
RTVSPost2010PropOp28
 70
     1
102
RTVSPost2010Prop29
280
     1
102
RTVSPost2010PropOp29
 70
     1
102
RTVSPost2010Prop30
280
     1
102
RTVSPost2010PropOp30
 70
     1
102
RTVSPost2010Prop31
280
     0
102
RTVSPost2010PropOp31
 70
     1
102
RTVSPost2010Prop32
280
     0
102
RTVSPost2010PropOp32
 70
     1
102
RTVSPost2010Prop33
280
     0
102
RTVSPost2010PropOp33
 70
     1
102
RTVSPost2010Prop34
280
     0
102
RTVSPost2010PropOp34
 70
     1
102
RTVSPost2010Prop35
280
     0
102
RTVSPost2010PropOp35
 70
     1
102
RTVSPost2010Prop36
280
     0
102
RTVSPost2010PropOp36
 70
     1
102
RTVSPost2010Prop37
 90
       50
102
RTVSPost2010PropOp37
 70
     1
102
RTVSPost2010Prop38
140
0.0
102
RTVSPost2010PropOp38
 70
     1
102
RTVSPost2010Prop39
140
1.0
102
RTVSPost2010PropOp39
 70
     1
102
RTVSPost2010Prop40
 90
        0
102
RTVSPost2010PropOp40
 70
     1
102
RTVSPost2010Prop41ColorIndex
 90
       18
102
RTVSPost2010Prop41ColorRGB
 90
        0
102
RTVSPost2010PropOp41
 70
     1
102
RTVSPost2010Prop42
 90
       50
102
RTVSPost2010PropOp42
 70
     1
102
RTVSPost2010Prop43
 90
        3
102
RTVSPost2010PropOp43
 70
     1
102
RTVSPost2010Prop44ColorIndex
 90
        5
102
RTVSPost2010Prop44ColorRGB
 90
      255
102
RTVSPost2010PropOp44
 70
     1
102
RTVSPost2010Prop45
280
     0
102
RTVSPost2010PropOp45
 70
     1
102
RTVSPost2010Prop46
 90
       50
102
RTVSPost2010PropOp46
 70
     1
102
RTVSPost2010Prop47
 90
       50
102
RTVSPost2010PropOp47
 70
     1
102
RTVSPost2010Prop48
 90
       50
102
RTVSPost2010PropOp48
 70
     1
102
RTVSPost2010Prop49
280
     0
102
RTVSPost2010PropOp49
 70
     1
102
RTVSPost2010Prop50
 90
       50
102
RTVSPost2010PropOp50
 70
     1
102
RTVSPost2010Prop51ColorIndex
 90
      256
102
RTVSPost2010Prop51ColorRGB
 90
-16777216
102
RTVSPost2010PropOp51
 70
     0
102
RTVSPost2010Prop52
140
1.0
102
RTVSPost2010PropOp52
 70
     0
102
RTVSPost2010Prop53
 90
        2
102
RTVSPost2010PropOp53
 70
     1
102
RTVSPost2010Prop54
  1
strokes_ogs.tif
102
RTVSPost2010PropOp54
 70
     1
102
RTVSPost2010Prop55
280
     0
102
RTVSPost2010PropOp55
 70
     1
102
RTVSPost2010Prop56
140
1.0
102
RTVSPost2010PropOp56
 70
     1
102
RTVSPost2010Prop57
140
1.0
102
RTVSPost2010PropOp57
 70
     1
102
RTVSPropertyOp0
 70
     1
102
RTVSPropertyOp1
 70
     1
102
RTVSPropertyOp2
 70
     1
102
RTVSPropertyOp3
 70
     1
102
RTVSPropertyOp4
 70
     1
102
RTVSPropertyOp5
 70
     1
102
RTVSPropertyOp6
 70
     1
102
RTVSPropertyOp7
 70
     1
102
RTVSPropertyOp8
 70
     1
102
RTVSPropertyOp9
 70
     1
102
RTVSPropertyOp10
 70
     1
102
RTVSPropertyOp11
 70
     1
102
RTVSPropertyOp12
 70
     1
102
RTVSPropertyOp13
 70
     1
102
RTVSPropertyOp14
 70
     1
102
RTVSPropertyOp15
 70
     1
102
RTVSPropertyOp16
 70
     1
102
RTVSPropertyOp17
 70
     1
102
RTVSPropertyOp18
 70
     1
102
RTVSPropertyOp19
 70
     1
102
RTVSPropertyOp20
 70
     1
102
RTVSPropertyOp21
 70
     1
102
RTVSPropertyOp22
 70
     1
102
RTVSPropertyOp23
 70
     1
102
RTVSPropertyOp24
 70
     1
102
RTVSPropertyOp25
 70
     1
102
RTVSPropertyOp26
 70
     1
102
RTVSPropertyOp27
 70
     1
102
RTVSPropertyOp28
 70
     1
102
RTVSPropertyOp29
 70
     1
102
RTVSPropertyOp30
 70
     1
102
RTVSPropertyOp31
 70
     1
102
RTVSPropertyOp32
 70
     1
102
RTVSPropertyOp33
 70
     1
102
RTVSPropertyOp34
 70
     1
102
RTVSPropertyOp35
 70
     1
102
RTVSPropertyOp36
 70
     1
102
RTVSPropertyOp37
 70
     1
102
RTVSPropertyOp38
 70
     1
102
RTVSPropertyOp39
 70
     1
102
RTVSPropertyOp40
 70
     1
102
RTVSPropertyOp41
 70
     1
102
RTVSPropertyOp42
 70
     1
102
RTVSPropertyOp43
 70
     1
102
RTVSPropertyOp44
 70
     1
102
RTVSPropertyOp45
 70
     1
102
RTVSPropertyOp46
 70
     1
102
RTVSPropertyOp47
 70
     1
102
RTVSPropertyOp48
 70
     1
102
RTVSPropertyOp49
 70
     1
102
RTVSPropertyOp50
 70
     1
102
RTVSPropertyOp51
 70
     0
102
RTVSPropertyOp52
 70
     0
102
RTVSPropertyOp53
 70
     1
102
RTVSPropertyOp54
 70
     1
102
RTVSPropertyOp55
 70
     1
102
RTVSPropertyOp56
 70
     1
102
RTVSPropertyOp57
 70
     1
102
RTVSPropertyOp58
 70
     1
102
RTVSPropertyOp59
 70
     1
102
RTVSPropertyOp60
 70
     1
102
RTVSPropertyOp61
 70
     1
102
RTVSPropertyOp62
 70
     1
  0
XRECORD
  5
3874
102
{ACAD_REACTORS
330
3873
102
}
330
3873
100
AcDbXrecord
280
     1
102
RTVSPost2010Prop28
280
     0
102
RTVSPost2010PropOp28
 70
     1
102
RTVSPost2010Prop29
280
     1
102
RTVSPost2010PropOp29
 70
     1
102
RTVSPost2010Prop30
280
     1
102
RTVSPost2010PropOp30
 70
     1
102
RTVSPost2010Prop31
280
     0
102
RTVSPost2010PropOp31
 70
     1
102
RTVSPost2010Prop32
280
     0
102
RTVSPost2010PropOp32
 70
     1
102
RTVSPost2010Prop33
280
     0
102
RTVSPost2010PropOp33
 70
     1
102
RTVSPost2010Prop34
280
     0
102
RTVSPost2010PropOp34
 70
     1
102
RTVSPost2010Prop35
280
     0
102
RTVSPost2010PropOp35
 70
     1
102
RTVSPost2010Prop36
280
     0
102
RTVSPost2010PropOp36
 70
     1
102
RTVSPost2010Prop37
 90
       50
102
RTVSPost2010PropOp37
 70
     1
102
RTVSPost2010Prop38
140
0.0
102
RTVSPost2010PropOp38
 70
     1
102
RTVSPost2010Prop39
140
1.0
102
RTVSPost2010PropOp39
 70
     1
102
RTVSPost2010Prop40
 90
        0
102
RTVSPost2010PropOp40
 70
     1
102
RTVSPost2010Prop41ColorIndex
 90
       18
102
RTVSPost2010Prop41ColorRGB
 90
        0
102
RTVSPost2010PropOp41
 70
     1
102
RTVSPost2010Prop42
 90
       50
102
RTVSPost2010PropOp42
 70
     1
102
RTVSPost2010Prop43
 90
        3
102
RTVSPost2010PropOp43
 70
     1
102
RTVSPost2010Prop44ColorIndex
 90
        5
102
RTVSPost2010Prop44ColorRGB
 90
      255
102
RTVSPost2010PropOp44
 70
     1
102
RTVSPost2010Prop45
280
     0
102
RTVSPost2010PropOp45
 70
     1
102
RTVSPost2010Prop46
 90
       50
102
RTVSPost2010PropOp46
 70
     1
102
RTVSPost2010Prop47
 90
       50
102
RTVSPost2010PropOp47
 70
     1
102
RTVSPost2010Prop48
 90
       50
102
RTVSPost2010PropOp48
 70
     1
102
RTVSPost2010Prop49
280
     0
102
RTVSPost2010PropOp49
 70
     1
102
RTVSPost2010Prop50
 90
       50
102
RTVSPost2010PropOp50
 70
     1
102
RTVSPost2010Prop51ColorIndex
 90
      256
102
RTVSPost2010Prop51ColorRGB
 90
-16777216
102
RTVSPost2010PropOp51
 70
     0
102
RTVSPost2010Prop52
140
1.0
102
RTVSPost2010PropOp52
 70
     0
102
RTVSPost2010Prop53
 90
        2
102
RTVSPost2010PropOp53
 70
     1
102
RTVSPost2010Prop54
  1
strokes_ogs.tif
102
RTVSPost2010PropOp54
 70
     1
102
RTVSPost2010Prop55
280
     0
102
RTVSPost2010PropOp55
 70
     1
102
RTVSPost2010Prop56
140
1.0
102
RTVSPost2010PropOp56
 70
     1
102
RTVSPost2010Prop57
140
1.0
102
RTVSPost2010PropOp57
 70
     1
102
RTVSPropertyOp0
 70
     1
102
RTVSPropertyOp1
 70
     1
102
RTVSPropertyOp2
 70
     1
102
RTVSPropertyOp3
 70
     1
102
RTVSPropertyOp4
 70
     1
102
RTVSPropertyOp5
 70
     1
102
RTVSPropertyOp6
 70
     1
102
RTVSPropertyOp7
 70
     1
102
RTVSPropertyOp8
 70
     1
102
RTVSPropertyOp9
 70
     1
102
RTVSPropertyOp10
 70
     1
102
RTVSPropertyOp11
 70
     1
102
RTVSPropertyOp12
 70
     1
102
RTVSPropertyOp13
 70
     1
102
RTVSPropertyOp14
 70
     1
102
RTVSPropertyOp15
 70
     1
102
RTVSPropertyOp16
 70
     1
102
RTVSPropertyOp17
 70
     1
102
RTVSPropertyOp18
 70
     1
102
RTVSPropertyOp19
 70
     1
102
RTVSPropertyOp20
 70
     1
102
RTVSPropertyOp21
 70
     1
102
RTVSPropertyOp22
 70
     1
102
RTVSPropertyOp23
 70
     1
102
RTVSPropertyOp24
 70
     1
102
RTVSPropertyOp25
 70
     1
102
RTVSPropertyOp26
 70
     1
102
RTVSPropertyOp27
 70
     1
102
RTVSPropertyOp28
 70
     1
102
RTVSPropertyOp29
 70
     1
102
RTVSPropertyOp30
 70
     1
102
RTVSPropertyOp31
 70
     1
102
RTVSPropertyOp32
 70
     1
102
RTVSPropertyOp33
 70
     1
102
RTVSPropertyOp34
 70
     1
102
RTVSPropertyOp35
 70
     1
102
RTVSPropertyOp36
 70
     1
102
RTVSPropertyOp37
 70
     1
102
RTVSPropertyOp38
 70
     1
102
RTVSPropertyOp39
 70
     1
102
RTVSPropertyOp40
 70
     1
102
RTVSPropertyOp41
 70
     1
102
RTVSPropertyOp42
 70
     1
102
RTVSPropertyOp43
 70
     1
102
RTVSPropertyOp44
 70
     1
102
RTVSPropertyOp45
 70
     1
102
RTVSPropertyOp46
 70
     1
102
RTVSPropertyOp47
 70
     1
102
RTVSPropertyOp48
 70
     1
102
RTVSPropertyOp49
 70
     1
102
RTVSPropertyOp50
 70
     1
102
RTVSPropertyOp51
 70
     0
102
RTVSPropertyOp52
 70
     0
102
RTVSPropertyOp53
 70
     1
102
RTVSPropertyOp54
 70
     1
102
RTVSPropertyOp55
 70
     1
102
RTVSPropertyOp56
 70
     1
102
RTVSPropertyOp57
 70
     1
102
RTVSPropertyOp58
 70
     1
102
RTVSPropertyOp59
 70
     1
102
RTVSPropertyOp60
 70
     1
102
RTVSPropertyOp61
 70
     1
102
RTVSPropertyOp62
 70
     1
  0
XRECORD
  5
387C
102
{ACAD_REACTORS
330
387B
102
}
330
387B
100
AcDbXrecord
280
     1
102
RTVSPost2010Prop28
280
     0
102
RTVSPost2010PropOp28
 70
     1
102
RTVSPost2010Prop29
280
     1
102
RTVSPost2010PropOp29
 70
     1
102
RTVSPost2010Prop30
280
     1
102
RTVSPost2010PropOp30
 70
     1
102
RTVSPost2010Prop31
280
     0
102
RTVSPost2010PropOp31
 70
     1
102
RTVSPost2010Prop32
280
     0
102
RTVSPost2010PropOp32
 70
     1
102
RTVSPost2010Prop33
280
     0
102
RTVSPost2010PropOp33
 70
     1
102
RTVSPost2010Prop34
280
     0
102
RTVSPost2010PropOp34
 70
     1
102
RTVSPost2010Prop35
280
     0
102
RTVSPost2010PropOp35
 70
     1
102
RTVSPost2010Prop36
280
     0
102
RTVSPost2010PropOp36
 70
     1
102
RTVSPost2010Prop37
 90
       50
102
RTVSPost2010PropOp37
 70
     1
102
RTVSPost2010Prop38
140
0.0
102
RTVSPost2010PropOp38
 70
     1
102
RTVSPost2010Prop39
140
1.0
102
RTVSPost2010PropOp39
 70
     1
102
RTVSPost2010Prop40
 90
        0
102
RTVSPost2010PropOp40
 70
     1
102
RTVSPost2010Prop41ColorIndex
 90
       18
102
RTVSPost2010Prop41ColorRGB
 90
        0
102
RTVSPost2010PropOp41
 70
     1
102
RTVSPost2010Prop42
 90
       50
102
RTVSPost2010PropOp42
 70
     1
102
RTVSPost2010Prop43
 90
        3
102
RTVSPost2010PropOp43
 70
     1
102
RTVSPost2010Prop44ColorIndex
 90
        5
102
RTVSPost2010Prop44ColorRGB
 90
      255
102
RTVSPost2010PropOp44
 70
     1
102
RTVSPost2010Prop45
280
     0
102
RTVSPost2010PropOp45
 70
     1
102
RTVSPost2010Prop46
 90
       50
102
RTVSPost2010PropOp46
 70
     1
102
RTVSPost2010Prop47
 90
       50
102
RTVSPost2010PropOp47
 70
     1
102
RTVSPost2010Prop48
 90
       50
102
RTVSPost2010PropOp48
 70
     1
102
RTVSPost2010Prop49
280
     0
102
RTVSPost2010PropOp49
 70
     1
102
RTVSPost2010Prop50
 90
       50
102
RTVSPost2010PropOp50
 70
     1
102
RTVSPost2010Prop51ColorIndex
 90
      256
102
RTVSPost2010Prop51ColorRGB
 90
-16777216
102
RTVSPost2010PropOp51
 70
     0
102
RTVSPost2010Prop52
140
1.0
102
RTVSPost2010PropOp52
 70
     0
102
RTVSPost2010Prop53
 90
        2
102
RTVSPost2010PropOp53
 70
     1
102
RTVSPost2010Prop54
  1
strokes_ogs.tif
102
RTVSPost2010PropOp54
 70
     1
102
RTVSPost2010Prop55
280
     0
102
RTVSPost2010PropOp55
 70
     1
102
RTVSPost2010Prop56
140
1.0
102
RTVSPost2010PropOp56
 70
     1
102
RTVSPost2010Prop57
140
1.0
102
RTVSPost2010PropOp57
 70
     1
102
RTVSPropertyOp0
 70
     1
102
RTVSPropertyOp1
 70
     1
102
RTVSPropertyOp2
 70
     1
102
RTVSPropertyOp3
 70
     1
102
RTVSPropertyOp4
 70
     1
102
RTVSPropertyOp5
 70
     1
102
RTVSPropertyOp6
 70
     1
102
RTVSPropertyOp7
 70
     1
102
RTVSPropertyOp8
 70
     1
102
RTVSPropertyOp9
 70
     1
102
RTVSPropertyOp10
 70
     1
102
RTVSPropertyOp11
 70
     1
102
RTVSPropertyOp12
 70
     1
102
RTVSPropertyOp13
 70
     1
102
RTVSPropertyOp14
 70
     1
102
RTVSPropertyOp15
 70
     1
102
RTVSPropertyOp16
 70
     1
102
RTVSPropertyOp17
 70
     1
102
RTVSPropertyOp18
 70
     1
102
RTVSPropertyOp19
 70
     1
102
RTVSPropertyOp20
 70
     1
102
RTVSPropertyOp21
 70
     1
102
RTVSPropertyOp22
 70
     1
102
RTVSPropertyOp23
 70
     1
102
RTVSPropertyOp24
 70
     1
102
RTVSPropertyOp25
 70
     1
102
RTVSPropertyOp26
 70
     1
102
RTVSPropertyOp27
 70
     1
102
RTVSPropertyOp28
 70
     1
102
RTVSPropertyOp29
 70
     1
102
RTVSPropertyOp30
 70
     1
102
RTVSPropertyOp31
 70
     1
102
RTVSPropertyOp32
 70
     1
102
RTVSPropertyOp33
 70
     1
102
RTVSPropertyOp34
 70
     1
102
RTVSPropertyOp35
 70
     1
102
RTVSPropertyOp36
 70
     1
102
RTVSPropertyOp37
 70
     1
102
RTVSPropertyOp38
 70
     1
102
RTVSPropertyOp39
 70
     1
102
RTVSPropertyOp40
 70
     1
102
RTVSPropertyOp41
 70
     1
102
RTVSPropertyOp42
 70
     1
102
RTVSPropertyOp43
 70
     1
102
RTVSPropertyOp44
 70
     1
102
RTVSPropertyOp45
 70
     1
102
RTVSPropertyOp46
 70
     1
102
RTVSPropertyOp47
 70
     1
102
RTVSPropertyOp48
 70
     1
102
RTVSPropertyOp49
 70
     1
102
RTVSPropertyOp50
 70
     1
102
RTVSPropertyOp51
 70
     0
102
RTVSPropertyOp52
 70
     0
102
RTVSPropertyOp53
 70
     1
102
RTVSPropertyOp54
 70
     1
102
RTVSPropertyOp55
 70
     1
102
RTVSPropertyOp56
 70
     1
102
RTVSPropertyOp57
 70
     1
102
RTVSPropertyOp58
 70
     1
102
RTVSPropertyOp59
 70
     1
102
RTVSPropertyOp60
 70
     1
102
RTVSPropertyOp61
 70
     1
102
RTVSPropertyOp62
 70
     1
  0
XRECORD
  5
386E
102
{ACAD_REACTORS
330
386D
102
}
330
386D
100
AcDbXrecord
280
     1
102
RTVSPost2010Prop28
280
     0
102
RTVSPost2010PropOp28
 70
     1
102
RTVSPost2010Prop29
280
     1
102
RTVSPost2010PropOp29
 70
     1
102
RTVSPost2010Prop30
280
     1
102
RTVSPost2010PropOp30
 70
     1
102
RTVSPost2010Prop31
280
     0
102
RTVSPost2010PropOp31
 70
     1
102
RTVSPost2010Prop32
280
     0
102
RTVSPost2010PropOp32
 70
     1
102
RTVSPost2010Prop33
280
     0
102
RTVSPost2010PropOp33
 70
     1
102
RTVSPost2010Prop34
280
     0
102
RTVSPost2010PropOp34
 70
     1
102
RTVSPost2010Prop35
280
     0
102
RTVSPost2010PropOp35
 70
     1
102
RTVSPost2010Prop36
280
     0
102
RTVSPost2010PropOp36
 70
     1
102
RTVSPost2010Prop37
 90
       50
102
RTVSPost2010PropOp37
 70
     1
102
RTVSPost2010Prop38
140
0.0
102
RTVSPost2010PropOp38
 70
     1
102
RTVSPost2010Prop39
140
1.0
102
RTVSPost2010PropOp39
 70
     1
102
RTVSPost2010Prop40
 90
        0
102
RTVSPost2010PropOp40
 70
     1
102
RTVSPost2010Prop41ColorIndex
 90
       18
102
RTVSPost2010Prop41ColorRGB
 90
        0
102
RTVSPost2010PropOp41
 70
     1
102
RTVSPost2010Prop42
 90
       50
102
RTVSPost2010PropOp42
 70
     1
102
RTVSPost2010Prop43
 90
        3
102
RTVSPost2010PropOp43
 70
     1
102
RTVSPost2010Prop44ColorIndex
 90
        5
102
RTVSPost2010Prop44ColorRGB
 90
      255
102
RTVSPost2010PropOp44
 70
     1
102
RTVSPost2010Prop45
280
     0
102
RTVSPost2010PropOp45
 70
     1
102
RTVSPost2010Prop46
 90
       50
102
RTVSPost2010PropOp46
 70
     1
102
RTVSPost2010Prop47
 90
       50
102
RTVSPost2010PropOp47
 70
     1
102
RTVSPost2010Prop48
 90
       50
102
RTVSPost2010PropOp48
 70
     1
102
RTVSPost2010Prop49
280
     0
102
RTVSPost2010PropOp49
 70
     1
102
RTVSPost2010Prop50
 90
       50
102
RTVSPost2010PropOp50
 70
     1
102
RTVSPost2010Prop51ColorIndex
 90
      256
102
RTVSPost2010Prop51ColorRGB
 90
-16777216
102
RTVSPost2010PropOp51
 70
     0
102
RTVSPost2010Prop52
140
1.0
102
RTVSPost2010PropOp52
 70
     0
102
RTVSPost2010Prop53
 90
        2
102
RTVSPost2010PropOp53
 70
     1
102
RTVSPost2010Prop54
  1
strokes_ogs.tif
102
RTVSPost2010PropOp54
 70
     1
102
RTVSPost2010Prop55
280
     0
102
RTVSPost2010PropOp55
 70
     1
102
RTVSPost2010Prop56
140
1.0
102
RTVSPost2010PropOp56
 70
     1
102
RTVSPost2010Prop57
140
1.0
102
RTVSPost2010PropOp57
 70
     1
102
RTVSPropertyOp0
 70
     1
102
RTVSPropertyOp1
 70
     1
102
RTVSPropertyOp2
 70
     1
102
RTVSPropertyOp3
 70
     1
102
RTVSPropertyOp4
 70
     1
102
RTVSPropertyOp5
 70
     1
102
RTVSPropertyOp6
 70
     1
102
RTVSPropertyOp7
 70
     1
102
RTVSPropertyOp8
 70
     1
102
RTVSPropertyOp9
 70
     1
102
RTVSPropertyOp10
 70
     1
102
RTVSPropertyOp11
 70
     1
102
RTVSPropertyOp12
 70
     1
102
RTVSPropertyOp13
 70
     1
102
RTVSPropertyOp14
 70
     1
102
RTVSPropertyOp15
 70
     1
102
RTVSPropertyOp16
 70
     1
102
RTVSPropertyOp17
 70
     1
102
RTVSPropertyOp18
 70
     1
102
RTVSPropertyOp19
 70
     1
102
RTVSPropertyOp20
 70
     1
102
RTVSPropertyOp21
 70
     1
102
RTVSPropertyOp22
 70
     1
102
RTVSPropertyOp23
 70
     1
102
RTVSPropertyOp24
 70
     1
102
RTVSPropertyOp25
 70
     1
102
RTVSPropertyOp26
 70
     1
102
RTVSPropertyOp27
 70
     1
102
RTVSPropertyOp28
 70
     1
102
RTVSPropertyOp29
 70
     1
102
RTVSPropertyOp30
 70
     1
102
RTVSPropertyOp31
 70
     1
102
RTVSPropertyOp32
 70
     1
102
RTVSPropertyOp33
 70
     1
102
RTVSPropertyOp34
 70
     1
102
RTVSPropertyOp35
 70
     1
102
RTVSPropertyOp36
 70
     1
102
RTVSPropertyOp37
 70
     1
102
RTVSPropertyOp38
 70
     1
102
RTVSPropertyOp39
 70
     1
102
RTVSPropertyOp40
 70
     1
102
RTVSPropertyOp41
 70
     1
102
RTVSPropertyOp42
 70
     1
102
RTVSPropertyOp43
 70
     1
102
RTVSPropertyOp44
 70
     1
102
RTVSPropertyOp45
 70
     1
102
RTVSPropertyOp46
 70
     1
102
RTVSPropertyOp47
 70
     1
102
RTVSPropertyOp48
 70
     1
102
RTVSPropertyOp49
 70
     1
102
RTVSPropertyOp50
 70
     1
102
RTVSPropertyOp51
 70
     0
102
RTVSPropertyOp52
 70
     0
102
RTVSPropertyOp53
 70
     1
102
RTVSPropertyOp54
 70
     1
102
RTVSPropertyOp55
 70
     1
102
RTVSPropertyOp56
 70
     1
102
RTVSPropertyOp57
 70
     1
102
RTVSPropertyOp58
 70
     1
102
RTVSPropertyOp59
 70
     1
102
RTVSPropertyOp60
 70
     1
102
RTVSPropertyOp61
 70
     1
102
RTVSPropertyOp62
 70
     1
  0
XRECORD
  5
3872
102
{ACAD_REACTORS
330
3871
102
}
330
3871
100
AcDbXrecord
280
     1
102
RTVSPost2010Prop28
280
     0
102
RTVSPost2010PropOp28
 70
     1
102
RTVSPost2010Prop29
280
     1
102
RTVSPost2010PropOp29
 70
     1
102
RTVSPost2010Prop30
280
     1
102
RTVSPost2010PropOp30
 70
     1
102
RTVSPost2010Prop31
280
     0
102
RTVSPost2010PropOp31
 70
     1
102
RTVSPost2010Prop32
280
     0
102
RTVSPost2010PropOp32
 70
     1
102
RTVSPost2010Prop33
280
     0
102
RTVSPost2010PropOp33
 70
     1
102
RTVSPost2010Prop34
280
     0
102
RTVSPost2010PropOp34
 70
     1
102
RTVSPost2010Prop35
280
     0
102
RTVSPost2010PropOp35
 70
     1
102
RTVSPost2010Prop36
280
     0
102
RTVSPost2010PropOp36
 70
     1
102
RTVSPost2010Prop37
 90
       50
102
RTVSPost2010PropOp37
 70
     1
102
RTVSPost2010Prop38
140
0.0
102
RTVSPost2010PropOp38
 70
     1
102
RTVSPost2010Prop39
140
1.0
102
RTVSPost2010PropOp39
 70
     1
102
RTVSPost2010Prop40
 90
        0
102
RTVSPost2010PropOp40
 70
     1
102
RTVSPost2010Prop41ColorIndex
 90
       18
102
RTVSPost2010Prop41ColorRGB
 90
        0
102
RTVSPost2010PropOp41
 70
     1
102
RTVSPost2010Prop42
 90
       50
102
RTVSPost2010PropOp42
 70
     1
102
RTVSPost2010Prop43
 90
        3
102
RTVSPost2010PropOp43
 70
     1
102
RTVSPost2010Prop44ColorIndex
 90
        5
102
RTVSPost2010Prop44ColorRGB
 90
      255
102
RTVSPost2010PropOp44
 70
     1
102
RTVSPost2010Prop45
280
     0
102
RTVSPost2010PropOp45
 70
     1
102
RTVSPost2010Prop46
 90
       50
102
RTVSPost2010PropOp46
 70
     1
102
RTVSPost2010Prop47
 90
       50
102
RTVSPost2010PropOp47
 70
     1
102
RTVSPost2010Prop48
 90
       50
102
RTVSPost2010PropOp48
 70
     1
102
RTVSPost2010Prop49
280
     0
102
RTVSPost2010PropOp49
 70
     1
102
RTVSPost2010Prop50
 90
       50
102
RTVSPost2010PropOp50
 70
     1
102
RTVSPost2010Prop51ColorIndex
 90
      256
102
RTVSPost2010Prop51ColorRGB
 90
-16777216
102
RTVSPost2010PropOp51
 70
     0
102
RTVSPost2010Prop52
140
1.0
102
RTVSPost2010PropOp52
 70
     0
102
RTVSPost2010Prop53
 90
        2
102
RTVSPost2010PropOp53
 70
     1
102
RTVSPost2010Prop54
  1
strokes_ogs.tif
102
RTVSPost2010PropOp54
 70
     1
102
RTVSPost2010Prop55
280
     0
102
RTVSPost2010PropOp55
 70
     1
102
RTVSPost2010Prop56
140
1.0
102
RTVSPost2010PropOp56
 70
     1
102
RTVSPost2010Prop57
140
1.0
102
RTVSPost2010PropOp57
 70
     1
102
RTVSPropertyOp0
 70
     1
102
RTVSPropertyOp1
 70
     1
102
RTVSPropertyOp2
 70
     1
102
RTVSPropertyOp3
 70
     1
102
RTVSPropertyOp4
 70
     1
102
RTVSPropertyOp5
 70
     1
102
RTVSPropertyOp6
 70
     1
102
RTVSPropertyOp7
 70
     1
102
RTVSPropertyOp8
 70
     1
102
RTVSPropertyOp9
 70
     1
102
RTVSPropertyOp10
 70
     1
102
RTVSPropertyOp11
 70
     1
102
RTVSPropertyOp12
 70
     1
102
RTVSPropertyOp13
 70
     1
102
RTVSPropertyOp14
 70
     1
102
RTVSPropertyOp15
 70
     1
102
RTVSPropertyOp16
 70
     1
102
RTVSPropertyOp17
 70
     1
102
RTVSPropertyOp18
 70
     1
102
RTVSPropertyOp19
 70
     1
102
RTVSPropertyOp20
 70
     1
102
RTVSPropertyOp21
 70
     1
102
RTVSPropertyOp22
 70
     1
102
RTVSPropertyOp23
 70
     1
102
RTVSPropertyOp24
 70
     1
102
RTVSPropertyOp25
 70
     1
102
RTVSPropertyOp26
 70
     1
102
RTVSPropertyOp27
 70
     1
102
RTVSPropertyOp28
 70
     1
102
RTVSPropertyOp29
 70
     1
102
RTVSPropertyOp30
 70
     1
102
RTVSPropertyOp31
 70
     1
102
RTVSPropertyOp32
 70
     1
102
RTVSPropertyOp33
 70
     1
102
RTVSPropertyOp34
 70
     1
102
RTVSPropertyOp35
 70
     1
102
RTVSPropertyOp36
 70
     1
102
RTVSPropertyOp37
 70
     1
102
RTVSPropertyOp38
 70
     1
102
RTVSPropertyOp39
 70
     1
102
RTVSPropertyOp40
 70
     1
102
RTVSPropertyOp41
 70
     1
102
RTVSPropertyOp42
 70
     1
102
RTVSPropertyOp43
 70
     1
102
RTVSPropertyOp44
 70
     1
102
RTVSPropertyOp45
 70
     1
102
RTVSPropertyOp46
 70
     1
102
RTVSPropertyOp47
 70
     1
102
RTVSPropertyOp48
 70
     1
102
RTVSPropertyOp49
 70
     1
102
RTVSPropertyOp50
 70
     1
102
RTVSPropertyOp51
 70
     0
102
RTVSPropertyOp52
 70
     0
102
RTVSPropertyOp53
 70
     1
102
RTVSPropertyOp54
 70
     1
102
RTVSPropertyOp55
 70
     1
102
RTVSPropertyOp56
 70
     1
102
RTVSPropertyOp57
 70
     1
102
RTVSPropertyOp58
 70
     1
102
RTVSPropertyOp59
 70
     1
102
RTVSPropertyOp60
 70
     1
102
RTVSPropertyOp61
 70
     1
102
RTVSPropertyOp62
 70
     1
  0
XRECORD
  5
388C
102
{ACAD_REACTORS
330
388B
102
}
330
388B
100
AcDbXrecord
280
     1
102
RTVSPost2010Prop28
280
     0
102
RTVSPost2010PropOp28
 70
     0
102
RTVSPost2010Prop29
280
     1
102
RTVSPost2010PropOp29
 70
     0
102
RTVSPost2010Prop30
280
     1
102
RTVSPost2010PropOp30
 70
     0
102
RTVSPost2010Prop31
280
     0
102
RTVSPost2010PropOp31
 70
     0
102
RTVSPost2010Prop32
280
     0
102
RTVSPost2010PropOp32
 70
     0
102
RTVSPost2010Prop33
280
     0
102
RTVSPost2010PropOp33
 70
     0
102
RTVSPost2010Prop34
280
     0
102
RTVSPost2010PropOp34
 70
     0
102
RTVSPost2010Prop35
280
     0
102
RTVSPost2010PropOp35
 70
     0
102
RTVSPost2010Prop36
280
     0
102
RTVSPost2010PropOp36
 70
     0
102
RTVSPost2010Prop37
 90
       50
102
RTVSPost2010PropOp37
 70
     0
102
RTVSPost2010Prop38
140
0.0
102
RTVSPost2010PropOp38
 70
     0
102
RTVSPost2010Prop39
140
1.0
102
RTVSPost2010PropOp39
 70
     0
102
RTVSPost2010Prop40
 90
        0
102
RTVSPost2010PropOp40
 70
     0
102
RTVSPost2010Prop41ColorIndex
 90
       18
102
RTVSPost2010Prop41ColorRGB
 90
        0
102
RTVSPost2010PropOp41
 70
     0
102
RTVSPost2010Prop42
 90
       50
102
RTVSPost2010PropOp42
 70
     0
102
RTVSPost2010Prop43
 90
        3
102
RTVSPost2010PropOp43
 70
     0
102
RTVSPost2010Prop44ColorIndex
 90
        5
102
RTVSPost2010Prop44ColorRGB
 90
      255
102
RTVSPost2010PropOp44
 70
     0
102
RTVSPost2010Prop45
280
     0
102
RTVSPost2010PropOp45
 70
     0
102
RTVSPost2010Prop46
 90
       50
102
RTVSPost2010PropOp46
 70
     0
102
RTVSPost2010Prop47
 90
       50
102
RTVSPost2010PropOp47
 70
     0
102
RTVSPost2010Prop48
 90
       50
102
RTVSPost2010PropOp48
 70
     0
102
RTVSPost2010Prop49
280
     0
102
RTVSPost2010PropOp49
 70
     0
102
RTVSPost2010Prop50
 90
       50
102
RTVSPost2010PropOp50
 70
     0
102
RTVSPost2010Prop51ColorIndex
 90
      256
102
RTVSPost2010Prop51ColorRGB
 90
-16777216
102
RTVSPost2010PropOp51
 70
     0
102
RTVSPost2010Prop52
140
1.0
102
RTVSPost2010PropOp52
 70
     0
102
RTVSPost2010Prop53
 90
        2
102
RTVSPost2010PropOp53
 70
     0
102
RTVSPost2010Prop54
  1
strokes_ogs.tif
102
RTVSPost2010PropOp54
 70
     0
102
RTVSPost2010Prop55
280
     0
102
RTVSPost2010PropOp55
 70
     0
102
RTVSPost2010Prop56
140
1.0
102
RTVSPost2010PropOp56
 70
     0
102
RTVSPost2010Prop57
140
1.0
102
RTVSPost2010PropOp57
 70
     0
102
RTVSPropertyOp0
 70
     0
102
RTVSPropertyOp1
 70
     0
102
RTVSPropertyOp2
 70
     0
102
RTVSPropertyOp3
 70
     0
102
RTVSPropertyOp4
 70
     0
102
RTVSPropertyOp5
 70
     0
102
RTVSPropertyOp6
 70
     0
102
RTVSPropertyOp7
 70
     0
102
RTVSPropertyOp8
 70
     0
102
RTVSPropertyOp9
 70
     0
102
RTVSPropertyOp10
 70
     0
102
RTVSPropertyOp11
 70
     0
102
RTVSPropertyOp12
 70
     0
102
RTVSPropertyOp13
 70
     0
102
RTVSPropertyOp14
 70
     2
102
RTVSPropertyOp15
 70
     0
102
RTVSPropertyOp16
 70
     0
102
RTVSPropertyOp17
 70
     0
102
RTVSPropertyOp18
 70
     0
102
RTVSPropertyOp19
 70
     0
102
RTVSPropertyOp20
 70
     0
102
RTVSPropertyOp21
 70
     0
102
RTVSPropertyOp22
 70
     0
102
RTVSPropertyOp23
 70
     0
102
RTVSPropertyOp24
 70
     0
102
RTVSPropertyOp25
 70
     0
102
RTVSPropertyOp26
 70
     0
102
RTVSPropertyOp27
 70
     0
102
RTVSPropertyOp28
 70
     0
102
RTVSPropertyOp29
 70
     0
102
RTVSPropertyOp30
 70
     0
102
RTVSPropertyOp31
 70
     0
102
RTVSPropertyOp32
 70
     0
102
RTVSPropertyOp33
 70
     0
102
RTVSPropertyOp34
 70
     0
102
RTVSPropertyOp35
 70
     0
102
RTVSPropertyOp36
 70
     0
102
RTVSPropertyOp37
 70
     0
102
RTVSPropertyOp38
 70
     0
102
RTVSPropertyOp39
 70
     0
102
RTVSPropertyOp40
 70
     0
102
RTVSPropertyOp41
 70
     0
102
RTVSPropertyOp42
 70
     0
102
RTVSPropertyOp43
 70
     0
102
RTVSPropertyOp44
 70
     0
102
RTVSPropertyOp45
 70
     0
102
RTVSPropertyOp46
 70
     0
102
RTVSPropertyOp47
 70
     0
102
RTVSPropertyOp48
 70
     0
102
RTVSPropertyOp49
 70
     0
102
RTVSPropertyOp50
 70
     0
102
RTVSPropertyOp51
 70
     0
102
RTVSPropertyOp52
 70
     0
102
RTVSPropertyOp53
 70
     0
102
RTVSPropertyOp54
 70
     0
102
RTVSPropertyOp55
 70
     0
102
RTVSPropertyOp56
 70
     0
102
RTVSPropertyOp57
 70
     0
102
RTVSPropertyOp58
 70
     0
102
RTVSPropertyOp59
 70
     0
102
RTVSPropertyOp60
 70
     0
102
RTVSPropertyOp61
 70
     0
102
RTVSPropertyOp62
 70
     0
  0
XRECORD
  5
387A
102
{ACAD_REACTORS
330
3879
102
}
330
3879
100
AcDbXrecord
280
     1
102
RTVSPost2010Prop28
280
     0
102
RTVSPost2010PropOp28
 70
     1
102
RTVSPost2010Prop29
280
     1
102
RTVSPost2010PropOp29
 70
     1
102
RTVSPost2010Prop30
280
     1
102
RTVSPost2010PropOp30
 70
     1
102
RTVSPost2010Prop31
280
     0
102
RTVSPost2010PropOp31
 70
     1
102
RTVSPost2010Prop32
280
     0
102
RTVSPost2010PropOp32
 70
     1
102
RTVSPost2010Prop33
280
     0
102
RTVSPost2010PropOp33
 70
     1
102
RTVSPost2010Prop34
280
     0
102
RTVSPost2010PropOp34
 70
     1
102
RTVSPost2010Prop35
280
     0
102
RTVSPost2010PropOp35
 70
     1
102
RTVSPost2010Prop36
280
     0
102
RTVSPost2010PropOp36
 70
     1
102
RTVSPost2010Prop37
 90
       50
102
RTVSPost2010PropOp37
 70
     1
102
RTVSPost2010Prop38
140
0.0
102
RTVSPost2010PropOp38
 70
     1
102
RTVSPost2010Prop39
140
1.0
102
RTVSPost2010PropOp39
 70
     1
102
RTVSPost2010Prop40
 90
        0
102
RTVSPost2010PropOp40
 70
     1
102
RTVSPost2010Prop41ColorIndex
 90
       18
102
RTVSPost2010Prop41ColorRGB
 90
        0
102
RTVSPost2010PropOp41
 70
     1
102
RTVSPost2010Prop42
 90
       50
102
RTVSPost2010PropOp42
 70
     1
102
RTVSPost2010Prop43
 90
        3
102
RTVSPost2010PropOp43
 70
     1
102
RTVSPost2010Prop44ColorIndex
 90
        5
102
RTVSPost2010Prop44ColorRGB
 90
      255
102
RTVSPost2010PropOp44
 70
     1
102
RTVSPost2010Prop45
280
     0
102
RTVSPost2010PropOp45
 70
     1
102
RTVSPost2010Prop46
 90
       50
102
RTVSPost2010PropOp46
 70
     1
102
RTVSPost2010Prop47
 90
       50
102
RTVSPost2010PropOp47
 70
     1
102
RTVSPost2010Prop48
 90
       50
102
RTVSPost2010PropOp48
 70
     1
102
RTVSPost2010Prop49
280
     0
102
RTVSPost2010PropOp49
 70
     1
102
RTVSPost2010Prop50
 90
       50
102
RTVSPost2010PropOp50
 70
     1
102
RTVSPost2010Prop51ColorIndex
 90
      256
102
RTVSPost2010Prop51ColorRGB
 90
-16777216
102
RTVSPost2010PropOp51
 70
     0
102
RTVSPost2010Prop52
140
1.0
102
RTVSPost2010PropOp52
 70
     0
102
RTVSPost2010Prop53
 90
        2
102
RTVSPost2010PropOp53
 70
     1
102
RTVSPost2010Prop54
  1
strokes_ogs.tif
102
RTVSPost2010PropOp54
 70
     1
102
RTVSPost2010Prop55
280
     0
102
RTVSPost2010PropOp55
 70
     1
102
RTVSPost2010Prop56
140
1.0
102
RTVSPost2010PropOp56
 70
     1
102
RTVSPost2010Prop57
140
1.0
102
RTVSPost2010PropOp57
 70
     1
102
RTVSPropertyOp0
 70
     1
102
RTVSPropertyOp1
 70
     1
102
RTVSPropertyOp2
 70
     1
102
RTVSPropertyOp3
 70
     1
102
RTVSPropertyOp4
 70
     1
102
RTVSPropertyOp5
 70
     1
102
RTVSPropertyOp6
 70
     1
102
RTVSPropertyOp7
 70
     1
102
RTVSPropertyOp8
 70
     1
102
RTVSPropertyOp9
 70
     1
102
RTVSPropertyOp10
 70
     1
102
RTVSPropertyOp11
 70
     1
102
RTVSPropertyOp12
 70
     1
102
RTVSPropertyOp13
 70
     1
102
RTVSPropertyOp14
 70
     1
102
RTVSPropertyOp15
 70
     1
102
RTVSPropertyOp16
 70
     1
102
RTVSPropertyOp17
 70
     1
102
RTVSPropertyOp18
 70
     1
102
RTVSPropertyOp19
 70
     1
102
RTVSPropertyOp20
 70
     1
102
RTVSPropertyOp21
 70
     1
102
RTVSPropertyOp22
 70
     1
102
RTVSPropertyOp23
 70
     1
102
RTVSPropertyOp24
 70
     1
102
RTVSPropertyOp25
 70
     1
102
RTVSPropertyOp26
 70
     1
102
RTVSPropertyOp27
 70
     1
102
RTVSPropertyOp28
 70
     1
102
RTVSPropertyOp29
 70
     1
102
RTVSPropertyOp30
 70
     1
102
RTVSPropertyOp31
 70
     1
102
RTVSPropertyOp32
 70
     1
102
RTVSPropertyOp33
 70
     1
102
RTVSPropertyOp34
 70
     1
102
RTVSPropertyOp35
 70
     1
102
RTVSPropertyOp36
 70
     1
102
RTVSPropertyOp37
 70
     1
102
RTVSPropertyOp38
 70
     1
102
RTVSPropertyOp39
 70
     1
102
RTVSPropertyOp40
 70
     1
102
RTVSPropertyOp41
 70
     1
102
RTVSPropertyOp42
 70
     1
102
RTVSPropertyOp43
 70
     1
102
RTVSPropertyOp44
 70
     1
102
RTVSPropertyOp45
 70
     1
102
RTVSPropertyOp46
 70
     1
102
RTVSPropertyOp47
 70
     1
102
RTVSPropertyOp48
 70
     1
102
RTVSPropertyOp49
 70
     1
102
RTVSPropertyOp50
 70
     1
102
RTVSPropertyOp51
 70
     0
102
RTVSPropertyOp52
 70
     0
102
RTVSPropertyOp53
 70
     1
102
RTVSPropertyOp54
 70
     1
102
RTVSPropertyOp55
 70
     1
102
RTVSPropertyOp56
 70
     1
102
RTVSPropertyOp57
 70
     1
102
RTVSPropertyOp58
 70
     1
102
RTVSPropertyOp59
 70
     1
102
RTVSPropertyOp60
 70
     1
102
RTVSPropertyOp61
 70
     1
102
RTVSPropertyOp62
 70
     1
  0
XRECORD
  5
385E
102
{ACAD_REACTORS
330
385D
102
}
330
385D
100
AcDbXrecord
280
     1
102
RTVSPost2010Prop28
280
     0
102
RTVSPost2010PropOp28
 70
     1
102
RTVSPost2010Prop29
280
     1
102
RTVSPost2010PropOp29
 70
     1
102
RTVSPost2010Prop30
280
     1
102
RTVSPost2010PropOp30
 70
     1
102
RTVSPost2010Prop31
280
     0
102
RTVSPost2010PropOp31
 70
     1
102
RTVSPost2010Prop32
280
     0
102
RTVSPost2010PropOp32
 70
     1
102
RTVSPost2010Prop33
280
     0
102
RTVSPost2010PropOp33
 70
     1
102
RTVSPost2010Prop34
280
     0
102
RTVSPost2010PropOp34
 70
     1
102
RTVSPost2010Prop35
280
     0
102
RTVSPost2010PropOp35
 70
     1
102
RTVSPost2010Prop36
280
     0
102
RTVSPost2010PropOp36
 70
     1
102
RTVSPost2010Prop37
 90
       50
102
RTVSPost2010PropOp37
 70
     1
102
RTVSPost2010Prop38
140
0.0
102
RTVSPost2010PropOp38
 70
     1
102
RTVSPost2010Prop39
140
1.0
102
RTVSPost2010PropOp39
 70
     1
102
RTVSPost2010Prop40
 90
        0
102
RTVSPost2010PropOp40
 70
     1
102
RTVSPost2010Prop41ColorIndex
 90
       18
102
RTVSPost2010Prop41ColorRGB
 90
        0
102
RTVSPost2010PropOp41
 70
     1
102
RTVSPost2010Prop42
 90
       50
102
RTVSPost2010PropOp42
 70
     1
102
RTVSPost2010Prop43
 90
        3
102
RTVSPost2010PropOp43
 70
     1
102
RTVSPost2010Prop44ColorIndex
 90
        5
102
RTVSPost2010Prop44ColorRGB
 90
      255
102
RTVSPost2010PropOp44
 70
     1
102
RTVSPost2010Prop45
280
     0
102
RTVSPost2010PropOp45
 70
     1
102
RTVSPost2010Prop46
 90
       50
102
RTVSPost2010PropOp46
 70
     1
102
RTVSPost2010Prop47
 90
       50
102
RTVSPost2010PropOp47
 70
     1
102
RTVSPost2010Prop48
 90
       50
102
RTVSPost2010PropOp48
 70
     1
102
RTVSPost2010Prop49
280
     0
102
RTVSPost2010PropOp49
 70
     1
102
RTVSPost2010Prop50
 90
       50
102
RTVSPost2010PropOp50
 70
     1
102
RTVSPost2010Prop51ColorIndex
 90
      256
102
RTVSPost2010Prop51ColorRGB
 90
-16777216
102
RTVSPost2010PropOp51
 70
     0
102
RTVSPost2010Prop52
140
1.0
102
RTVSPost2010PropOp52
 70
     0
102
RTVSPost2010Prop53
 90
        2
102
RTVSPost2010PropOp53
 70
     1
102
RTVSPost2010Prop54
  1
strokes_ogs.tif
102
RTVSPost2010PropOp54
 70
     1
102
RTVSPost2010Prop55
280
     0
102
RTVSPost2010PropOp55
 70
     1
102
RTVSPost2010Prop56
140
1.0
102
RTVSPost2010PropOp56
 70
     1
102
RTVSPost2010Prop57
140
1.0
102
RTVSPost2010PropOp57
 70
     1
102
RTVSPropertyOp0
 70
     1
102
RTVSPropertyOp1
 70
     1
102
RTVSPropertyOp2
 70
     1
102
RTVSPropertyOp3
 70
     1
102
RTVSPropertyOp4
 70
     1
102
RTVSPropertyOp5
 70
     1
102
RTVSPropertyOp6
 70
     1
102
RTVSPropertyOp7
 70
     1
102
RTVSPropertyOp8
 70
     1
102
RTVSPropertyOp9
 70
     1
102
RTVSPropertyOp10
 70
     1
102
RTVSPropertyOp11
 70
     1
102
RTVSPropertyOp12
 70
     1
102
RTVSPropertyOp13
 70
     1
102
RTVSPropertyOp14
 70
     1
102
RTVSPropertyOp15
 70
     1
102
RTVSPropertyOp16
 70
     1
102
RTVSPropertyOp17
 70
     1
102
RTVSPropertyOp18
 70
     1
102
RTVSPropertyOp19
 70
     1
102
RTVSPropertyOp20
 70
     1
102
RTVSPropertyOp21
 70
     1
102
RTVSPropertyOp22
 70
     1
102
RTVSPropertyOp23
 70
     1
102
RTVSPropertyOp24
 70
     1
102
RTVSPropertyOp25
 70
     1
102
RTVSPropertyOp26
 70
     1
102
RTVSPropertyOp27
 70
     1
102
RTVSPropertyOp28
 70
     1
102
RTVSPropertyOp29
 70
     1
102
RTVSPropertyOp30
 70
     1
102
RTVSPropertyOp31
 70
     1
102
RTVSPropertyOp32
 70
     1
102
RTVSPropertyOp33
 70
     1
102
RTVSPropertyOp34
 70
     1
102
RTVSPropertyOp35
 70
     1
102
RTVSPropertyOp36
 70
     1
102
RTVSPropertyOp37
 70
     1
102
RTVSPropertyOp38
 70
     1
102
RTVSPropertyOp39
 70
     1
102
RTVSPropertyOp40
 70
     1
102
RTVSPropertyOp41
 70
     1
102
RTVSPropertyOp42
 70
     1
102
RTVSPropertyOp43
 70
     1
102
RTVSPropertyOp44
 70
     1
102
RTVSPropertyOp45
 70
     1
102
RTVSPropertyOp46
 70
     1
102
RTVSPropertyOp47
 70
     1
102
RTVSPropertyOp48
 70
     1
102
RTVSPropertyOp49
 70
     1
102
RTVSPropertyOp50
 70
     1
102
RTVSPropertyOp51
 70
     0
102
RTVSPropertyOp52
 70
     0
102
RTVSPropertyOp53
 70
     1
102
RTVSPropertyOp54
 70
     1
102
RTVSPropertyOp55
 70
     1
102
RTVSPropertyOp56
 70
     1
102
RTVSPropertyOp57
 70
     1
102
RTVSPropertyOp58
 70
     1
102
RTVSPropertyOp59
 70
     1
102
RTVSPropertyOp60
 70
     1
102
RTVSPropertyOp61
 70
     1
102
RTVSPropertyOp62
 70
     1
  0
XRECORD
  5
3860
102
{ACAD_REACTORS
330
385F
102
}
330
385F
100
AcDbXrecord
280
     1
102
RTVSPost2010Prop28
280
     0
102
RTVSPost2010PropOp28
 70
     1
102
RTVSPost2010Prop29
280
     1
102
RTVSPost2010PropOp29
 70
     1
102
RTVSPost2010Prop30
280
     1
102
RTVSPost2010PropOp30
 70
     1
102
RTVSPost2010Prop31
280
     0
102
RTVSPost2010PropOp31
 70
     1
102
RTVSPost2010Prop32
280
     0
102
RTVSPost2010PropOp32
 70
     1
102
RTVSPost2010Prop33
280
     0
102
RTVSPost2010PropOp33
 70
     1
102
RTVSPost2010Prop34
280
     0
102
RTVSPost2010PropOp34
 70
     1
102
RTVSPost2010Prop35
280
     0
102
RTVSPost2010PropOp35
 70
     1
102
RTVSPost2010Prop36
280
     0
102
RTVSPost2010PropOp36
 70
     1
102
RTVSPost2010Prop37
 90
       50
102
RTVSPost2010PropOp37
 70
     1
102
RTVSPost2010Prop38
140
0.0
102
RTVSPost2010PropOp38
 70
     1
102
RTVSPost2010Prop39
140
1.0
102
RTVSPost2010PropOp39
 70
     1
102
RTVSPost2010Prop40
 90
        0
102
RTVSPost2010PropOp40
 70
     1
102
RTVSPost2010Prop41ColorIndex
 90
       18
102
RTVSPost2010Prop41ColorRGB
 90
        0
102
RTVSPost2010PropOp41
 70
     1
102
RTVSPost2010Prop42
 90
       50
102
RTVSPost2010PropOp42
 70
     1
102
RTVSPost2010Prop43
 90
        3
102
RTVSPost2010PropOp43
 70
     1
102
RTVSPost2010Prop44ColorIndex
 90
        5
102
RTVSPost2010Prop44ColorRGB
 90
      255
102
RTVSPost2010PropOp44
 70
     1
102
RTVSPost2010Prop45
280
     0
102
RTVSPost2010PropOp45
 70
     1
102
RTVSPost2010Prop46
 90
       50
102
RTVSPost2010PropOp46
 70
     1
102
RTVSPost2010Prop47
 90
       50
102
RTVSPost2010PropOp47
 70
     1
102
RTVSPost2010Prop48
 90
       50
102
RTVSPost2010PropOp48
 70
     1
102
RTVSPost2010Prop49
280
     0
102
RTVSPost2010PropOp49
 70
     1
102
RTVSPost2010Prop50
 90
       50
102
RTVSPost2010PropOp50
 70
     1
102
RTVSPost2010Prop51ColorIndex
 90
      256
102
RTVSPost2010Prop51ColorRGB
 90
-16777216
102
RTVSPost2010PropOp51
 70
     0
102
RTVSPost2010Prop52
140
1.0
102
RTVSPost2010PropOp52
 70
     0
102
RTVSPost2010Prop53
 90
        2
102
RTVSPost2010PropOp53
 70
     1
102
RTVSPost2010Prop54
  1
strokes_ogs.tif
102
RTVSPost2010PropOp54
 70
     1
102
RTVSPost2010Prop55
280
     0
102
RTVSPost2010PropOp55
 70
     1
102
RTVSPost2010Prop56
140
1.0
102
RTVSPost2010PropOp56
 70
     1
102
RTVSPost2010Prop57
140
1.0
102
RTVSPost2010PropOp57
 70
     1
102
RTVSPropertyOp0
 70
     1
102
RTVSPropertyOp1
 70
     1
102
RTVSPropertyOp2
 70
     1
102
RTVSPropertyOp3
 70
     1
102
RTVSPropertyOp4
 70
     1
102
RTVSPropertyOp5
 70
     1
102
RTVSPropertyOp6
 70
     1
102
RTVSPropertyOp7
 70
     1
102
RTVSPropertyOp8
 70
     1
102
RTVSPropertyOp9
 70
     1
102
RTVSPropertyOp10
 70
     1
102
RTVSPropertyOp11
 70
     1
102
RTVSPropertyOp12
 70
     1
102
RTVSPropertyOp13
 70
     1
102
RTVSPropertyOp14
 70
     1
102
RTVSPropertyOp15
 70
     1
102
RTVSPropertyOp16
 70
     1
102
RTVSPropertyOp17
 70
     1
102
RTVSPropertyOp18
 70
     1
102
RTVSPropertyOp19
 70
     1
102
RTVSPropertyOp20
 70
     1
102
RTVSPropertyOp21
 70
     1
102
RTVSPropertyOp22
 70
     1
102
RTVSPropertyOp23
 70
     1
102
RTVSPropertyOp24
 70
     1
102
RTVSPropertyOp25
 70
     1
102
RTVSPropertyOp26
 70
     1
102
RTVSPropertyOp27
 70
     1
102
RTVSPropertyOp28
 70
     1
102
RTVSPropertyOp29
 70
     1
102
RTVSPropertyOp30
 70
     1
102
RTVSPropertyOp31
 70
     1
102
RTVSPropertyOp32
 70
     1
102
RTVSPropertyOp33
 70
     1
102
RTVSPropertyOp34
 70
     1
102
RTVSPropertyOp35
 70
     1
102
RTVSPropertyOp36
 70
     1
102
RTVSPropertyOp37
 70
     1
102
RTVSPropertyOp38
 70
     1
102
RTVSPropertyOp39
 70
     1
102
RTVSPropertyOp40
 70
     1
102
RTVSPropertyOp41
 70
     1
102
RTVSPropertyOp42
 70
     1
102
RTVSPropertyOp43
 70
     1
102
RTVSPropertyOp44
 70
     1
102
RTVSPropertyOp45
 70
     1
102
RTVSPropertyOp46
 70
     1
102
RTVSPropertyOp47
 70
     1
102
RTVSPropertyOp48
 70
     1
102
RTVSPropertyOp49
 70
     1
102
RTVSPropertyOp50
 70
     1
102
RTVSPropertyOp51
 70
     0
102
RTVSPropertyOp52
 70
     0
102
RTVSPropertyOp53
 70
     1
102
RTVSPropertyOp54
 70
     1
102
RTVSPropertyOp55
 70
     1
102
RTVSPropertyOp56
 70
     1
102
RTVSPropertyOp57
 70
     1
102
RTVSPropertyOp58
 70
     1
102
RTVSPropertyOp59
 70
     1
102
RTVSPropertyOp60
 70
     1
102
RTVSPropertyOp61
 70
     1
102
RTVSPropertyOp62
 70
     1
  0
XRECORD
  5
3862
102
{ACAD_REACTORS
330
3861
102
}
330
3861
100
AcDbXrecord
280
     1
102
RTVSPost2010Prop28
280
     0
102
RTVSPost2010PropOp28
 70
     1
102
RTVSPost2010Prop29
280
     1
102
RTVSPost2010PropOp29
 70
     1
102
RTVSPost2010Prop30
280
     1
102
RTVSPost2010PropOp30
 70
     1
102
RTVSPost2010Prop31
280
     0
102
RTVSPost2010PropOp31
 70
     1
102
RTVSPost2010Prop32
280
     0
102
RTVSPost2010PropOp32
 70
     1
102
RTVSPost2010Prop33
280
     0
102
RTVSPost2010PropOp33
 70
     1
102
RTVSPost2010Prop34
280
     0
102
RTVSPost2010PropOp34
 70
     1
102
RTVSPost2010Prop35
280
     0
102
RTVSPost2010PropOp35
 70
     1
102
RTVSPost2010Prop36
280
     0
102
RTVSPost2010PropOp36
 70
     1
102
RTVSPost2010Prop37
 90
       50
102
RTVSPost2010PropOp37
 70
     1
102
RTVSPost2010Prop38
140
0.0
102
RTVSPost2010PropOp38
 70
     1
102
RTVSPost2010Prop39
140
1.0
102
RTVSPost2010PropOp39
 70
     1
102
RTVSPost2010Prop40
 90
        0
102
RTVSPost2010PropOp40
 70
     1
102
RTVSPost2010Prop41ColorIndex
 90
       18
102
RTVSPost2010Prop41ColorRGB
 90
        0
102
RTVSPost2010PropOp41
 70
     1
102
RTVSPost2010Prop42
 90
       50
102
RTVSPost2010PropOp42
 70
     1
102
RTVSPost2010Prop43
 90
        3
102
RTVSPost2010PropOp43
 70
     1
102
RTVSPost2010Prop44ColorIndex
 90
        5
102
RTVSPost2010Prop44ColorRGB
 90
      255
102
RTVSPost2010PropOp44
 70
     1
102
RTVSPost2010Prop45
280
     0
102
RTVSPost2010PropOp45
 70
     1
102
RTVSPost2010Prop46
 90
       50
102
RTVSPost2010PropOp46
 70
     1
102
RTVSPost2010Prop47
 90
       50
102
RTVSPost2010PropOp47
 70
     1
102
RTVSPost2010Prop48
 90
       50
102
RTVSPost2010PropOp48
 70
     1
102
RTVSPost2010Prop49
280
     0
102
RTVSPost2010PropOp49
 70
     1
102
RTVSPost2010Prop50
 90
       50
102
RTVSPost2010PropOp50
 70
     1
102
RTVSPost2010Prop51ColorIndex
 90
      256
102
RTVSPost2010Prop51ColorRGB
 90
-16777216
102
RTVSPost2010PropOp51
 70
     0
102
RTVSPost2010Prop52
140
1.0
102
RTVSPost2010PropOp52
 70
     0
102
RTVSPost2010Prop53
 90
        2
102
RTVSPost2010PropOp53
 70
     1
102
RTVSPost2010Prop54
  1
strokes_ogs.tif
102
RTVSPost2010PropOp54
 70
     1
102
RTVSPost2010Prop55
280
     0
102
RTVSPost2010PropOp55
 70
     1
102
RTVSPost2010Prop56
140
1.0
102
RTVSPost2010PropOp56
 70
     1
102
RTVSPost2010Prop57
140
1.0
102
RTVSPost2010PropOp57
 70
     1
102
RTVSPropertyOp0
 70
     1
102
RTVSPropertyOp1
 70
     1
102
RTVSPropertyOp2
 70
     1
102
RTVSPropertyOp3
 70
     1
102
RTVSPropertyOp4
 70
     1
102
RTVSPropertyOp5
 70
     1
102
RTVSPropertyOp6
 70
     1
102
RTVSPropertyOp7
 70
     1
102
RTVSPropertyOp8
 70
     1
102
RTVSPropertyOp9
 70
     1
102
RTVSPropertyOp10
 70
     1
102
RTVSPropertyOp11
 70
     1
102
RTVSPropertyOp12
 70
     1
102
RTVSPropertyOp13
 70
     1
102
RTVSPropertyOp14
 70
     1
102
RTVSPropertyOp15
 70
     1
102
RTVSPropertyOp16
 70
     1
102
RTVSPropertyOp17
 70
     1
102
RTVSPropertyOp18
 70
     1
102
RTVSPropertyOp19
 70
     1
102
RTVSPropertyOp20
 70
     1
102
RTVSPropertyOp21
 70
     1
102
RTVSPropertyOp22
 70
     1
102
RTVSPropertyOp23
 70
     1
102
RTVSPropertyOp24
 70
     1
102
RTVSPropertyOp25
 70
     1
102
RTVSPropertyOp26
 70
     1
102
RTVSPropertyOp27
 70
     1
102
RTVSPropertyOp28
 70
     1
102
RTVSPropertyOp29
 70
     1
102
RTVSPropertyOp30
 70
     1
102
RTVSPropertyOp31
 70
     1
102
RTVSPropertyOp32
 70
     1
102
RTVSPropertyOp33
 70
     1
102
RTVSPropertyOp34
 70
     1
102
RTVSPropertyOp35
 70
     1
102
RTVSPropertyOp36
 70
     1
102
RTVSPropertyOp37
 70
     1
102
RTVSPropertyOp38
 70
     1
102
RTVSPropertyOp39
 70
     1
102
RTVSPropertyOp40
 70
     1
102
RTVSPropertyOp41
 70
     1
102
RTVSPropertyOp42
 70
     1
102
RTVSPropertyOp43
 70
     1
102
RTVSPropertyOp44
 70
     1
102
RTVSPropertyOp45
 70
     1
102
RTVSPropertyOp46
 70
     1
102
RTVSPropertyOp47
 70
     1
102
RTVSPropertyOp48
 70
     1
102
RTVSPropertyOp49
 70
     1
102
RTVSPropertyOp50
 70
     1
102
RTVSPropertyOp51
 70
     0
102
RTVSPropertyOp52
 70
     0
102
RTVSPropertyOp53
 70
     1
102
RTVSPropertyOp54
 70
     1
102
RTVSPropertyOp55
 70
     1
102
RTVSPropertyOp56
 70
     1
102
RTVSPropertyOp57
 70
     1
102
RTVSPropertyOp58
 70
     1
102
RTVSPropertyOp59
 70
     1
102
RTVSPropertyOp60
 70
     1
102
RTVSPropertyOp61
 70
     1
102
RTVSPropertyOp62
 70
     1
  0
XRECORD
  5
3864
102
{ACAD_REACTORS
330
3863
102
}
330
3863
100
AcDbXrecord
280
     1
102
RTVSPost2010Prop28
280
     0
102
RTVSPost2010PropOp28
 70
     1
102
RTVSPost2010Prop29
280
     1
102
RTVSPost2010PropOp29
 70
     1
102
RTVSPost2010Prop30
280
     1
102
RTVSPost2010PropOp30
 70
     1
102
RTVSPost2010Prop31
280
     0
102
RTVSPost2010PropOp31
 70
     1
102
RTVSPost2010Prop32
280
     0
102
RTVSPost2010PropOp32
 70
     1
102
RTVSPost2010Prop33
280
     0
102
RTVSPost2010PropOp33
 70
     1
102
RTVSPost2010Prop34
280
     0
102
RTVSPost2010PropOp34
 70
     1
102
RTVSPost2010Prop35
280
     0
102
RTVSPost2010PropOp35
 70
     1
102
RTVSPost2010Prop36
280
     0
102
RTVSPost2010PropOp36
 70
     1
102
RTVSPost2010Prop37
 90
       50
102
RTVSPost2010PropOp37
 70
     1
102
RTVSPost2010Prop38
140
0.0
102
RTVSPost2010PropOp38
 70
     1
102
RTVSPost2010Prop39
140
1.0
102
RTVSPost2010PropOp39
 70
     1
102
RTVSPost2010Prop40
 90
        0
102
RTVSPost2010PropOp40
 70
     1
102
RTVSPost2010Prop41ColorIndex
 90
       18
102
RTVSPost2010Prop41ColorRGB
 90
        0
102
RTVSPost2010PropOp41
 70
     1
102
RTVSPost2010Prop42
 90
       50
102
RTVSPost2010PropOp42
 70
     1
102
RTVSPost2010Prop43
 90
        3
102
RTVSPost2010PropOp43
 70
     1
102
RTVSPost2010Prop44ColorIndex
 90
        5
102
RTVSPost2010Prop44ColorRGB
 90
      255
102
RTVSPost2010PropOp44
 70
     1
102
RTVSPost2010Prop45
280
     0
102
RTVSPost2010PropOp45
 70
     1
102
RTVSPost2010Prop46
 90
       50
102
RTVSPost2010PropOp46
 70
     1
102
RTVSPost2010Prop47
 90
       50
102
RTVSPost2010PropOp47
 70
     1
102
RTVSPost2010Prop48
 90
       50
102
RTVSPost2010PropOp48
 70
     1
102
RTVSPost2010Prop49
280
     0
102
RTVSPost2010PropOp49
 70
     1
102
RTVSPost2010Prop50
 90
       50
102
RTVSPost2010PropOp50
 70
     1
102
RTVSPost2010Prop51ColorIndex
 90
      256
102
RTVSPost2010Prop51ColorRGB
 90
-16777216
102
RTVSPost2010PropOp51
 70
     0
102
RTVSPost2010Prop52
140
1.0
102
RTVSPost2010PropOp52
 70
     0
102
RTVSPost2010Prop53
 90
        2
102
RTVSPost2010PropOp53
 70
     1
102
RTVSPost2010Prop54
  1
strokes_ogs.tif
102
RTVSPost2010PropOp54
 70
     1
102
RTVSPost2010Prop55
280
     0
102
RTVSPost2010PropOp55
 70
     1
102
RTVSPost2010Prop56
140
1.0
102
RTVSPost2010PropOp56
 70
     1
102
RTVSPost2010Prop57
140
1.0
102
RTVSPost2010PropOp57
 70
     1
102
RTVSPropertyOp0
 70
     1
102
RTVSPropertyOp1
 70
     1
102
RTVSPropertyOp2
 70
     1
102
RTVSPropertyOp3
 70
     1
102
RTVSPropertyOp4
 70
     1
102
RTVSPropertyOp5
 70
     1
102
RTVSPropertyOp6
 70
     1
102
RTVSPropertyOp7
 70
     1
102
RTVSPropertyOp8
 70
     1
102
RTVSPropertyOp9
 70
     1
102
RTVSPropertyOp10
 70
     1
102
RTVSPropertyOp11
 70
     1
102
RTVSPropertyOp12
 70
     1
102
RTVSPropertyOp13
 70
     1
102
RTVSPropertyOp14
 70
     1
102
RTVSPropertyOp15
 70
     1
102
RTVSPropertyOp16
 70
     1
102
RTVSPropertyOp17
 70
     1
102
RTVSPropertyOp18
 70
     1
102
RTVSPropertyOp19
 70
     1
102
RTVSPropertyOp20
 70
     1
102
RTVSPropertyOp21
 70
     1
102
RTVSPropertyOp22
 70
     1
102
RTVSPropertyOp23
 70
     1
102
RTVSPropertyOp24
 70
     1
102
RTVSPropertyOp25
 70
     1
102
RTVSPropertyOp26
 70
     1
102
RTVSPropertyOp27
 70
     1
102
RTVSPropertyOp28
 70
     1
102
RTVSPropertyOp29
 70
     1
102
RTVSPropertyOp30
 70
     1
102
RTVSPropertyOp31
 70
     1
102
RTVSPropertyOp32
 70
     1
102
RTVSPropertyOp33
 70
     1
102
RTVSPropertyOp34
 70
     1
102
RTVSPropertyOp35
 70
     1
102
RTVSPropertyOp36
 70
     1
102
RTVSPropertyOp37
 70
     1
102
RTVSPropertyOp38
 70
     1
102
RTVSPropertyOp39
 70
     1
102
RTVSPropertyOp40
 70
     1
102
RTVSPropertyOp41
 70
     1
102
RTVSPropertyOp42
 70
     1
102
RTVSPropertyOp43
 70
     1
102
RTVSPropertyOp44
 70
     1
102
RTVSPropertyOp45
 70
     1
102
RTVSPropertyOp46
 70
     1
102
RTVSPropertyOp47
 70
     1
102
RTVSPropertyOp48
 70
     1
102
RTVSPropertyOp49
 70
     1
102
RTVSPropertyOp50
 70
     1
102
RTVSPropertyOp51
 70
     0
102
RTVSPropertyOp52
 70
     0
102
RTVSPropertyOp53
 70
     1
102
RTVSPropertyOp54
 70
     1
102
RTVSPropertyOp55
 70
     1
102
RTVSPropertyOp56
 70
     1
102
RTVSPropertyOp57
 70
     1
102
RTVSPropertyOp58
 70
     1
102
RTVSPropertyOp59
 70
     1
102
RTVSPropertyOp60
 70
     1
102
RTVSPropertyOp61
 70
     1
102
RTVSPropertyOp62
 70
     1
  0
XRECORD
  5
386C
102
{ACAD_REACTORS
330
386B
102
}
330
386B
100
AcDbXrecord
280
     1
102
RTVSPost2010Prop28
280
     0
102
RTVSPost2010PropOp28
 70
     1
102
RTVSPost2010Prop29
280
     1
102
RTVSPost2010PropOp29
 70
     1
102
RTVSPost2010Prop30
280
     1
102
RTVSPost2010PropOp30
 70
     1
102
RTVSPost2010Prop31
280
     0
102
RTVSPost2010PropOp31
 70
     1
102
RTVSPost2010Prop32
280
     0
102
RTVSPost2010PropOp32
 70
     1
102
RTVSPost2010Prop33
280
     0
102
RTVSPost2010PropOp33
 70
     1
102
RTVSPost2010Prop34
280
     0
102
RTVSPost2010PropOp34
 70
     1
102
RTVSPost2010Prop35
280
     0
102
RTVSPost2010PropOp35
 70
     1
102
RTVSPost2010Prop36
280
     0
102
RTVSPost2010PropOp36
 70
     1
102
RTVSPost2010Prop37
 90
       50
102
RTVSPost2010PropOp37
 70
     1
102
RTVSPost2010Prop38
140
0.0
102
RTVSPost2010PropOp38
 70
     1
102
RTVSPost2010Prop39
140
1.0
102
RTVSPost2010PropOp39
 70
     1
102
RTVSPost2010Prop40
 90
        0
102
RTVSPost2010PropOp40
 70
     1
102
RTVSPost2010Prop41ColorIndex
 90
       18
102
RTVSPost2010Prop41ColorRGB
 90
        0
102
RTVSPost2010PropOp41
 70
     1
102
RTVSPost2010Prop42
 90
       50
102
RTVSPost2010PropOp42
 70
     1
102
RTVSPost2010Prop43
 90
        3
102
RTVSPost2010PropOp43
 70
     1
102
RTVSPost2010Prop44ColorIndex
 90
        5
102
RTVSPost2010Prop44ColorRGB
 90
      255
102
RTVSPost2010PropOp44
 70
     1
102
RTVSPost2010Prop45
280
     0
102
RTVSPost2010PropOp45
 70
     1
102
RTVSPost2010Prop46
 90
       50
102
RTVSPost2010PropOp46
 70
     1
102
RTVSPost2010Prop47
 90
       50
102
RTVSPost2010PropOp47
 70
     1
102
RTVSPost2010Prop48
 90
       50
102
RTVSPost2010PropOp48
 70
     1
102
RTVSPost2010Prop49
280
     0
102
RTVSPost2010PropOp49
 70
     1
102
RTVSPost2010Prop50
 90
       50
102
RTVSPost2010PropOp50
 70
     1
102
RTVSPost2010Prop51ColorIndex
 90
      256
102
RTVSPost2010Prop51ColorRGB
 90
-16777216
102
RTVSPost2010PropOp51
 70
     0
102
RTVSPost2010Prop52
140
1.0
102
RTVSPost2010PropOp52
 70
     0
102
RTVSPost2010Prop53
 90
        2
102
RTVSPost2010PropOp53
 70
     1
102
RTVSPost2010Prop54
  1
strokes_ogs.tif
102
RTVSPost2010PropOp54
 70
     1
102
RTVSPost2010Prop55
280
     0
102
RTVSPost2010PropOp55
 70
     1
102
RTVSPost2010Prop56
140
1.0
102
RTVSPost2010PropOp56
 70
     1
102
RTVSPost2010Prop57
140
1.0
102
RTVSPost2010PropOp57
 70
     1
102
RTVSPropertyOp0
 70
     1
102
RTVSPropertyOp1
 70
     1
102
RTVSPropertyOp2
 70
     1
102
RTVSPropertyOp3
 70
     1
102
RTVSPropertyOp4
 70
     1
102
RTVSPropertyOp5
 70
     1
102
RTVSPropertyOp6
 70
     1
102
RTVSPropertyOp7
 70
     1
102
RTVSPropertyOp8
 70
     1
102
RTVSPropertyOp9
 70
     1
102
RTVSPropertyOp10
 70
     1
102
RTVSPropertyOp11
 70
     1
102
RTVSPropertyOp12
 70
     1
102
RTVSPropertyOp13
 70
     1
102
RTVSPropertyOp14
 70
     1
102
RTVSPropertyOp15
 70
     1
102
RTVSPropertyOp16
 70
     1
102
RTVSPropertyOp17
 70
     1
102
RTVSPropertyOp18
 70
     1
102
RTVSPropertyOp19
 70
     1
102
RTVSPropertyOp20
 70
     1
102
RTVSPropertyOp21
 70
     1
102
RTVSPropertyOp22
 70
     1
102
RTVSPropertyOp23
 70
     1
102
RTVSPropertyOp24
 70
     1
102
RTVSPropertyOp25
 70
     1
102
RTVSPropertyOp26
 70
     1
102
RTVSPropertyOp27
 70
     1
102
RTVSPropertyOp28
 70
     1
102
RTVSPropertyOp29
 70
     1
102
RTVSPropertyOp30
 70
     1
102
RTVSPropertyOp31
 70
     1
102
RTVSPropertyOp32
 70
     1
102
RTVSPropertyOp33
 70
     1
102
RTVSPropertyOp34
 70
     1
102
RTVSPropertyOp35
 70
     1
102
RTVSPropertyOp36
 70
     1
102
RTVSPropertyOp37
 70
     1
102
RTVSPropertyOp38
 70
     1
102
RTVSPropertyOp39
 70
     1
102
RTVSPropertyOp40
 70
     1
102
RTVSPropertyOp41
 70
     1
102
RTVSPropertyOp42
 70
     1
102
RTVSPropertyOp43
 70
     1
102
RTVSPropertyOp44
 70
     1
102
RTVSPropertyOp45
 70
     1
102
RTVSPropertyOp46
 70
     1
102
RTVSPropertyOp47
 70
     1
102
RTVSPropertyOp48
 70
     1
102
RTVSPropertyOp49
 70
     1
102
RTVSPropertyOp50
 70
     1
102
RTVSPropertyOp51
 70
     0
102
RTVSPropertyOp52
 70
     0
102
RTVSPropertyOp53
 70
     1
102
RTVSPropertyOp54
 70
     1
102
RTVSPropertyOp55
 70
     1
102
RTVSPropertyOp56
 70
     1
102
RTVSPropertyOp57
 70
     1
102
RTVSPropertyOp58
 70
     1
102
RTVSPropertyOp59
 70
     1
102
RTVSPropertyOp60
 70
     1
102
RTVSPropertyOp61
 70
     1
102
RTVSPropertyOp62
 70
     1
  0
XRECORD
  5
3888
102
{ACAD_REACTORS
330
3887
102
}
330
3887
100
AcDbXrecord
280
     1
102
RTVSPost2010Prop28
280
     0
102
RTVSPost2010PropOp28
 70
     0
102
RTVSPost2010Prop29
280
     1
102
RTVSPost2010PropOp29
 70
     0
102
RTVSPost2010Prop30
280
     1
102
RTVSPost2010PropOp30
 70
     0
102
RTVSPost2010Prop31
280
     0
102
RTVSPost2010PropOp31
 70
     0
102
RTVSPost2010Prop32
280
     0
102
RTVSPost2010PropOp32
 70
     0
102
RTVSPost2010Prop33
280
     0
102
RTVSPost2010PropOp33
 70
     0
102
RTVSPost2010Prop34
280
     0
102
RTVSPost2010PropOp34
 70
     0
102
RTVSPost2010Prop35
280
     0
102
RTVSPost2010PropOp35
 70
     0
102
RTVSPost2010Prop36
280
     0
102
RTVSPost2010PropOp36
 70
     0
102
RTVSPost2010Prop37
 90
       50
102
RTVSPost2010PropOp37
 70
     0
102
RTVSPost2010Prop38
140
0.0
102
RTVSPost2010PropOp38
 70
     0
102
RTVSPost2010Prop39
140
1.0
102
RTVSPost2010PropOp39
 70
     0
102
RTVSPost2010Prop40
 90
        0
102
RTVSPost2010PropOp40
 70
     0
102
RTVSPost2010Prop41ColorIndex
 90
       18
102
RTVSPost2010Prop41ColorRGB
 90
        0
102
RTVSPost2010PropOp41
 70
     0
102
RTVSPost2010Prop42
 90
       50
102
RTVSPost2010PropOp42
 70
     0
102
RTVSPost2010Prop43
 90
        3
102
RTVSPost2010PropOp43
 70
     0
102
RTVSPost2010Prop44ColorIndex
 90
        5
102
RTVSPost2010Prop44ColorRGB
 90
      255
102
RTVSPost2010PropOp44
 70
     0
102
RTVSPost2010Prop45
280
     0
102
RTVSPost2010PropOp45
 70
     0
102
RTVSPost2010Prop46
 90
       50
102
RTVSPost2010PropOp46
 70
     0
102
RTVSPost2010Prop47
 90
       50
102
RTVSPost2010PropOp47
 70
     0
102
RTVSPost2010Prop48
 90
       50
102
RTVSPost2010PropOp48
 70
     0
102
RTVSPost2010Prop49
280
     0
102
RTVSPost2010PropOp49
 70
     0
102
RTVSPost2010Prop50
 90
       50
102
RTVSPost2010PropOp50
 70
     0
102
RTVSPost2010Prop51ColorIndex
 90
      256
102
RTVSPost2010Prop51ColorRGB
 90
-16777216
102
RTVSPost2010PropOp51
 70
     0
102
RTVSPost2010Prop52
140
1.0
102
RTVSPost2010PropOp52
 70
     0
102
RTVSPost2010Prop53
 90
        2
102
RTVSPost2010PropOp53
 70
     0
102
RTVSPost2010Prop54
  1
strokes_ogs.tif
102
RTVSPost2010PropOp54
 70
     0
102
RTVSPost2010Prop55
280
     0
102
RTVSPost2010PropOp55
 70
     0
102
RTVSPost2010Prop56
140
1.0
102
RTVSPost2010PropOp56
 70
     0
102
RTVSPost2010Prop57
140
1.0
102
RTVSPost2010PropOp57
 70
     0
102
RTVSPropertyOp0
 70
     0
102
RTVSPropertyOp1
 70
     0
102
RTVSPropertyOp2
 70
     0
102
RTVSPropertyOp3
 70
     0
102
RTVSPropertyOp4
 70
     0
102
RTVSPropertyOp5
 70
     0
102
RTVSPropertyOp6
 70
     0
102
RTVSPropertyOp7
 70
     0
102
RTVSPropertyOp8
 70
     0
102
RTVSPropertyOp9
 70
     0
102
RTVSPropertyOp10
 70
     0
102
RTVSPropertyOp11
 70
     0
102
RTVSPropertyOp12
 70
     0
102
RTVSPropertyOp13
 70
     0
102
RTVSPropertyOp14
 70
     2
102
RTVSPropertyOp15
 70
     0
102
RTVSPropertyOp16
 70
     0
102
RTVSPropertyOp17
 70
     0
102
RTVSPropertyOp18
 70
     0
102
RTVSPropertyOp19
 70
     0
102
RTVSPropertyOp20
 70
     0
102
RTVSPropertyOp21
 70
     0
102
RTVSPropertyOp22
 70
     0
102
RTVSPropertyOp23
 70
     0
102
RTVSPropertyOp24
 70
     0
102
RTVSPropertyOp25
 70
     0
102
RTVSPropertyOp26
 70
     0
102
RTVSPropertyOp27
 70
     0
102
RTVSPropertyOp28
 70
     0
102
RTVSPropertyOp29
 70
     0
102
RTVSPropertyOp30
 70
     0
102
RTVSPropertyOp31
 70
     0
102
RTVSPropertyOp32
 70
     0
102
RTVSPropertyOp33
 70
     0
102
RTVSPropertyOp34
 70
     0
102
RTVSPropertyOp35
 70
     0
102
RTVSPropertyOp36
 70
     0
102
RTVSPropertyOp37
 70
     0
102
RTVSPropertyOp38
 70
     0
102
RTVSPropertyOp39
 70
     0
102
RTVSPropertyOp40
 70
     0
102
RTVSPropertyOp41
 70
     0
102
RTVSPropertyOp42
 70
     0
102
RTVSPropertyOp43
 70
     0
102
RTVSPropertyOp44
 70
     0
102
RTVSPropertyOp45
 70
     0
102
RTVSPropertyOp46
 70
     0
102
RTVSPropertyOp47
 70
     0
102
RTVSPropertyOp48
 70
     0
102
RTVSPropertyOp49
 70
     0
102
RTVSPropertyOp50
 70
     0
102
RTVSPropertyOp51
 70
     0
102
RTVSPropertyOp52
 70
     0
102
RTVSPropertyOp53
 70
     0
102
RTVSPropertyOp54
 70
     0
102
RTVSPropertyOp55
 70
     0
102
RTVSPropertyOp56
 70
     0
102
RTVSPropertyOp57
 70
     0
102
RTVSPropertyOp58
 70
     0
102
RTVSPropertyOp59
 70
     0
102
RTVSPropertyOp60
 70
     0
102
RTVSPropertyOp61
 70
     0
102
RTVSPropertyOp62
 70
     0
  0
XRECORD
  5
3878
102
{ACAD_REACTORS
330
3877
102
}
330
3877
100
AcDbXrecord
280
     1
102
RTVSPost2010Prop28
280
     0
102
RTVSPost2010PropOp28
 70
     1
102
RTVSPost2010Prop29
280
     1
102
RTVSPost2010PropOp29
 70
     1
102
RTVSPost2010Prop30
280
     1
102
RTVSPost2010PropOp30
 70
     1
102
RTVSPost2010Prop31
280
     0
102
RTVSPost2010PropOp31
 70
     1
102
RTVSPost2010Prop32
280
     0
102
RTVSPost2010PropOp32
 70
     1
102
RTVSPost2010Prop33
280
     0
102
RTVSPost2010PropOp33
 70
     1
102
RTVSPost2010Prop34
280
     0
102
RTVSPost2010PropOp34
 70
     1
102
RTVSPost2010Prop35
280
     0
102
RTVSPost2010PropOp35
 70
     1
102
RTVSPost2010Prop36
280
     0
102
RTVSPost2010PropOp36
 70
     1
102
RTVSPost2010Prop37
 90
       50
102
RTVSPost2010PropOp37
 70
     1
102
RTVSPost2010Prop38
140
0.0
102
RTVSPost2010PropOp38
 70
     1
102
RTVSPost2010Prop39
140
1.0
102
RTVSPost2010PropOp39
 70
     1
102
RTVSPost2010Prop40
 90
        0
102
RTVSPost2010PropOp40
 70
     1
102
RTVSPost2010Prop41ColorIndex
 90
       18
102
RTVSPost2010Prop41ColorRGB
 90
        0
102
RTVSPost2010PropOp41
 70
     1
102
RTVSPost2010Prop42
 90
       50
102
RTVSPost2010PropOp42
 70
     1
102
RTVSPost2010Prop43
 90
        3
102
RTVSPost2010PropOp43
 70
     1
102
RTVSPost2010Prop44ColorIndex
 90
        5
102
RTVSPost2010Prop44ColorRGB
 90
      255
102
RTVSPost2010PropOp44
 70
     1
102
RTVSPost2010Prop45
280
     0
102
RTVSPost2010PropOp45
 70
     1
102
RTVSPost2010Prop46
 90
       50
102
RTVSPost2010PropOp46
 70
     1
102
RTVSPost2010Prop47
 90
       50
102
RTVSPost2010PropOp47
 70
     1
102
RTVSPost2010Prop48
 90
       50
102
RTVSPost2010PropOp48
 70
     1
102
RTVSPost2010Prop49
280
     0
102
RTVSPost2010PropOp49
 70
     1
102
RTVSPost2010Prop50
 90
       50
102
RTVSPost2010PropOp50
 70
     1
102
RTVSPost2010Prop51ColorIndex
 90
      256
102
RTVSPost2010Prop51ColorRGB
 90
-16777216
102
RTVSPost2010PropOp51
 70
     0
102
RTVSPost2010Prop52
140
1.0
102
RTVSPost2010PropOp52
 70
     0
102
RTVSPost2010Prop53
 90
        2
102
RTVSPost2010PropOp53
 70
     1
102
RTVSPost2010Prop54
  1
strokes_ogs.tif
102
RTVSPost2010PropOp54
 70
     1
102
RTVSPost2010Prop55
280
     0
102
RTVSPost2010PropOp55
 70
     1
102
RTVSPost2010Prop56
140
1.0
102
RTVSPost2010PropOp56
 70
     1
102
RTVSPost2010Prop57
140
1.0
102
RTVSPost2010PropOp57
 70
     1
102
RTVSPropertyOp0
 70
     1
102
RTVSPropertyOp1
 70
     1
102
RTVSPropertyOp2
 70
     1
102
RTVSPropertyOp3
 70
     1
102
RTVSPropertyOp4
 70
     1
102
RTVSPropertyOp5
 70
     1
102
RTVSPropertyOp6
 70
     1
102
RTVSPropertyOp7
 70
     1
102
RTVSPropertyOp8
 70
     1
102
RTVSPropertyOp9
 70
     1
102
RTVSPropertyOp10
 70
     1
102
RTVSPropertyOp11
 70
     1
102
RTVSPropertyOp12
 70
     1
102
RTVSPropertyOp13
 70
     1
102
RTVSPropertyOp14
 70
     1
102
RTVSPropertyOp15
 70
     1
102
RTVSPropertyOp16
 70
     1
102
RTVSPropertyOp17
 70
     1
102
RTVSPropertyOp18
 70
     1
102
RTVSPropertyOp19
 70
     1
102
RTVSPropertyOp20
 70
     1
102
RTVSPropertyOp21
 70
     1
102
RTVSPropertyOp22
 70
     1
102
RTVSPropertyOp23
 70
     1
102
RTVSPropertyOp24
 70
     1
102
RTVSPropertyOp25
 70
     1
102
RTVSPropertyOp26
 70
     1
102
RTVSPropertyOp27
 70
     1
102
RTVSPropertyOp28
 70
     1
102
RTVSPropertyOp29
 70
     1
102
RTVSPropertyOp30
 70
     1
102
RTVSPropertyOp31
 70
     1
102
RTVSPropertyOp32
 70
     1
102
RTVSPropertyOp33
 70
     1
102
RTVSPropertyOp34
 70
     1
102
RTVSPropertyOp35
 70
     1
102
RTVSPropertyOp36
 70
     1
102
RTVSPropertyOp37
 70
     1
102
RTVSPropertyOp38
 70
     1
102
RTVSPropertyOp39
 70
     1
102
RTVSPropertyOp40
 70
     1
102
RTVSPropertyOp41
 70
     1
102
RTVSPropertyOp42
 70
     1
102
RTVSPropertyOp43
 70
     1
102
RTVSPropertyOp44
 70
     1
102
RTVSPropertyOp45
 70
     1
102
RTVSPropertyOp46
 70
     1
102
RTVSPropertyOp47
 70
     1
102
RTVSPropertyOp48
 70
     1
102
RTVSPropertyOp49
 70
     1
102
RTVSPropertyOp50
 70
     1
102
RTVSPropertyOp51
 70
     0
102
RTVSPropertyOp52
 70
     0
102
RTVSPropertyOp53
 70
     1
102
RTVSPropertyOp54
 70
     1
102
RTVSPropertyOp55
 70
     1
102
RTVSPropertyOp56
 70
     1
102
RTVSPropertyOp57
 70
     1
102
RTVSPropertyOp58
 70
     1
102
RTVSPropertyOp59
 70
     1
102
RTVSPropertyOp60
 70
     1
102
RTVSPropertyOp61
 70
     1
102
RTVSPropertyOp62
 70
     1
  0
XRECORD
  5
388A
102
{ACAD_REACTORS
330
3889
102
}
330
3889
100
AcDbXrecord
280
     1
102
RTVSPost2010Prop28
280
     0
102
RTVSPost2010PropOp28
 70
     0
102
RTVSPost2010Prop29
280
     1
102
RTVSPost2010PropOp29
 70
     0
102
RTVSPost2010Prop30
280
     1
102
RTVSPost2010PropOp30
 70
     0
102
RTVSPost2010Prop31
280
     0
102
RTVSPost2010PropOp31
 70
     0
102
RTVSPost2010Prop32
280
     0
102
RTVSPost2010PropOp32
 70
     0
102
RTVSPost2010Prop33
280
     0
102
RTVSPost2010PropOp33
 70
     0
102
RTVSPost2010Prop34
280
     0
102
RTVSPost2010PropOp34
 70
     0
102
RTVSPost2010Prop35
280
     0
102
RTVSPost2010PropOp35
 70
     0
102
RTVSPost2010Prop36
280
     0
102
RTVSPost2010PropOp36
 70
     0
102
RTVSPost2010Prop37
 90
       50
102
RTVSPost2010PropOp37
 70
     0
102
RTVSPost2010Prop38
140
0.0
102
RTVSPost2010PropOp38
 70
     0
102
RTVSPost2010Prop39
140
1.0
102
RTVSPost2010PropOp39
 70
     0
102
RTVSPost2010Prop40
 90
        0
102
RTVSPost2010PropOp40
 70
     0
102
RTVSPost2010Prop41ColorIndex
 90
       18
102
RTVSPost2010Prop41ColorRGB
 90
        0
102
RTVSPost2010PropOp41
 70
     0
102
RTVSPost2010Prop42
 90
       50
102
RTVSPost2010PropOp42
 70
     0
102
RTVSPost2010Prop43
 90
        3
102
RTVSPost2010PropOp43
 70
     0
102
RTVSPost2010Prop44ColorIndex
 90
        5
102
RTVSPost2010Prop44ColorRGB
 90
      255
102
RTVSPost2010PropOp44
 70
     0
102
RTVSPost2010Prop45
280
     0
102
RTVSPost2010PropOp45
 70
     0
102
RTVSPost2010Prop46
 90
       50
102
RTVSPost2010PropOp46
 70
     0
102
RTVSPost2010Prop47
 90
       50
102
RTVSPost2010PropOp47
 70
     0
102
RTVSPost2010Prop48
 90
       50
102
RTVSPost2010PropOp48
 70
     0
102
RTVSPost2010Prop49
280
     0
102
RTVSPost2010PropOp49
 70
     0
102
RTVSPost2010Prop50
 90
       50
102
RTVSPost2010PropOp50
 70
     0
102
RTVSPost2010Prop51ColorIndex
 90
      256
102
RTVSPost2010Prop51ColorRGB
 90
-16777216
102
RTVSPost2010PropOp51
 70
     0
102
RTVSPost2010Prop52
140
1.0
102
RTVSPost2010PropOp52
 70
     0
102
RTVSPost2010Prop53
 90
        2
102
RTVSPost2010PropOp53
 70
     0
102
RTVSPost2010Prop54
  1
strokes_ogs.tif
102
RTVSPost2010PropOp54
 70
     0
102
RTVSPost2010Prop55
280
     0
102
RTVSPost2010PropOp55
 70
     0
102
RTVSPost2010Prop56
140
1.0
102
RTVSPost2010PropOp56
 70
     0
102
RTVSPost2010Prop57
140
1.0
102
RTVSPost2010PropOp57
 70
     0
102
RTVSPropertyOp0
 70
     0
102
RTVSPropertyOp1
 70
     0
102
RTVSPropertyOp2
 70
     0
102
RTVSPropertyOp3
 70
     0
102
RTVSPropertyOp4
 70
     0
102
RTVSPropertyOp5
 70
     0
102
RTVSPropertyOp6
 70
     0
102
RTVSPropertyOp7
 70
     0
102
RTVSPropertyOp8
 70
     0
102
RTVSPropertyOp9
 70
     0
102
RTVSPropertyOp10
 70
     0
102
RTVSPropertyOp11
 70
     0
102
RTVSPropertyOp12
 70
     0
102
RTVSPropertyOp13
 70
     0
102
RTVSPropertyOp14
 70
     2
102
RTVSPropertyOp15
 70
     0
102
RTVSPropertyOp16
 70
     0
102
RTVSPropertyOp17
 70
     0
102
RTVSPropertyOp18
 70
     0
102
RTVSPropertyOp19
 70
     0
102
RTVSPropertyOp20
 70
     0
102
RTVSPropertyOp21
 70
     0
102
RTVSPropertyOp22
 70
     0
102
RTVSPropertyOp23
 70
     0
102
RTVSPropertyOp24
 70
     0
102
RTVSPropertyOp25
 70
     0
102
RTVSPropertyOp26
 70
     0
102
RTVSPropertyOp27
 70
     0
102
RTVSPropertyOp28
 70
     0
102
RTVSPropertyOp29
 70
     0
102
RTVSPropertyOp30
 70
     0
102
RTVSPropertyOp31
 70
     0
102
RTVSPropertyOp32
 70
     0
102
RTVSPropertyOp33
 70
     0
102
RTVSPropertyOp34
 70
     0
102
RTVSPropertyOp35
 70
     0
102
RTVSPropertyOp36
 70
     0
102
RTVSPropertyOp37
 70
     0
102
RTVSPropertyOp38
 70
     0
102
RTVSPropertyOp39
 70
     0
102
RTVSPropertyOp40
 70
     0
102
RTVSPropertyOp41
 70
     0
102
RTVSPropertyOp42
 70
     0
102
RTVSPropertyOp43
 70
     0
102
RTVSPropertyOp44
 70
     0
102
RTVSPropertyOp45
 70
     0
102
RTVSPropertyOp46
 70
     0
102
RTVSPropertyOp47
 70
     0
102
RTVSPropertyOp48
 70
     0
102
RTVSPropertyOp49
 70
     0
102
RTVSPropertyOp50
 70
     0
102
RTVSPropertyOp51
 70
     0
102
RTVSPropertyOp52
 70
     0
102
RTVSPropertyOp53
 70
     0
102
RTVSPropertyOp54
 70
     0
102
RTVSPropertyOp55
 70
     0
102
RTVSPropertyOp56
 70
     0
102
RTVSPropertyOp57
 70
     0
102
RTVSPropertyOp58
 70
     0
102
RTVSPropertyOp59
 70
     0
102
RTVSPropertyOp60
 70
     0
102
RTVSPropertyOp61
 70
     0
102
RTVSPropertyOp62
 70
     0
  0
XRECORD
  5
3870
102
{ACAD_REACTORS
330
386F
102
}
330
386F
100
AcDbXrecord
280
     1
102
RTVSPost2010Prop28
280
     0
102
RTVSPost2010PropOp28
 70
     1
102
RTVSPost2010Prop29
280
     1
102
RTVSPost2010PropOp29
 70
     1
102
RTVSPost2010Prop30
280
     1
102
RTVSPost2010PropOp30
 70
     1
102
RTVSPost2010Prop31
280
     0
102
RTVSPost2010PropOp31
 70
     1
102
RTVSPost2010Prop32
280
     0
102
RTVSPost2010PropOp32
 70
     1
102
RTVSPost2010Prop33
280
     0
102
RTVSPost2010PropOp33
 70
     1
102
RTVSPost2010Prop34
280
     0
102
RTVSPost2010PropOp34
 70
     1
102
RTVSPost2010Prop35
280
     0
102
RTVSPost2010PropOp35
 70
     1
102
RTVSPost2010Prop36
280
     0
102
RTVSPost2010PropOp36
 70
     1
102
RTVSPost2010Prop37
 90
       50
102
RTVSPost2010PropOp37
 70
     1
102
RTVSPost2010Prop38
140
0.0
102
RTVSPost2010PropOp38
 70
     1
102
RTVSPost2010Prop39
140
1.0
102
RTVSPost2010PropOp39
 70
     1
102
RTVSPost2010Prop40
 90
        0
102
RTVSPost2010PropOp40
 70
     1
102
RTVSPost2010Prop41ColorIndex
 90
       18
102
RTVSPost2010Prop41ColorRGB
 90
        0
102
RTVSPost2010PropOp41
 70
     1
102
RTVSPost2010Prop42
 90
       50
102
RTVSPost2010PropOp42
 70
     1
102
RTVSPost2010Prop43
 90
        3
102
RTVSPost2010PropOp43
 70
     1
102
RTVSPost2010Prop44ColorIndex
 90
        5
102
RTVSPost2010Prop44ColorRGB
 90
      255
102
RTVSPost2010PropOp44
 70
     1
102
RTVSPost2010Prop45
280
     0
102
RTVSPost2010PropOp45
 70
     1
102
RTVSPost2010Prop46
 90
       50
102
RTVSPost2010PropOp46
 70
     1
102
RTVSPost2010Prop47
 90
       50
102
RTVSPost2010PropOp47
 70
     1
102
RTVSPost2010Prop48
 90
       50
102
RTVSPost2010PropOp48
 70
     1
102
RTVSPost2010Prop49
280
     0
102
RTVSPost2010PropOp49
 70
     1
102
RTVSPost2010Prop50
 90
       50
102
RTVSPost2010PropOp50
 70
     1
102
RTVSPost2010Prop51ColorIndex
 90
      256
102
RTVSPost2010Prop51ColorRGB
 90
-16777216
102
RTVSPost2010PropOp51
 70
     0
102
RTVSPost2010Prop52
140
1.0
102
RTVSPost2010PropOp52
 70
     0
102
RTVSPost2010Prop53
 90
        2
102
RTVSPost2010PropOp53
 70
     1
102
RTVSPost2010Prop54
  1
strokes_ogs.tif
102
RTVSPost2010PropOp54
 70
     1
102
RTVSPost2010Prop55
280
     0
102
RTVSPost2010PropOp55
 70
     1
102
RTVSPost2010Prop56
140
1.0
102
RTVSPost2010PropOp56
 70
     1
102
RTVSPost2010Prop57
140
1.0
102
RTVSPost2010PropOp57
 70
     1
102
RTVSPropertyOp0
 70
     1
102
RTVSPropertyOp1
 70
     1
102
RTVSPropertyOp2
 70
     1
102
RTVSPropertyOp3
 70
     1
102
RTVSPropertyOp4
 70
     1
102
RTVSPropertyOp5
 70
     1
102
RTVSPropertyOp6
 70
     1
102
RTVSPropertyOp7
 70
     1
102
RTVSPropertyOp8
 70
     1
102
RTVSPropertyOp9
 70
     1
102
RTVSPropertyOp10
 70
     1
102
RTVSPropertyOp11
 70
     1
102
RTVSPropertyOp12
 70
     1
102
RTVSPropertyOp13
 70
     1
102
RTVSPropertyOp14
 70
     1
102
RTVSPropertyOp15
 70
     1
102
RTVSPropertyOp16
 70
     1
102
RTVSPropertyOp17
 70
     1
102
RTVSPropertyOp18
 70
     1
102
RTVSPropertyOp19
 70
     1
102
RTVSPropertyOp20
 70
     1
102
RTVSPropertyOp21
 70
     1
102
RTVSPropertyOp22
 70
     1
102
RTVSPropertyOp23
 70
     1
102
RTVSPropertyOp24
 70
     1
102
RTVSPropertyOp25
 70
     1
102
RTVSPropertyOp26
 70
     1
102
RTVSPropertyOp27
 70
     1
102
RTVSPropertyOp28
 70
     1
102
RTVSPropertyOp29
 70
     1
102
RTVSPropertyOp30
 70
     1
102
RTVSPropertyOp31
 70
     1
102
RTVSPropertyOp32
 70
     1
102
RTVSPropertyOp33
 70
     1
102
RTVSPropertyOp34
 70
     1
102
RTVSPropertyOp35
 70
     1
102
RTVSPropertyOp36
 70
     1
102
RTVSPropertyOp37
 70
     1
102
RTVSPropertyOp38
 70
     1
102
RTVSPropertyOp39
 70
     1
102
RTVSPropertyOp40
 70
     1
102
RTVSPropertyOp41
 70
     1
102
RTVSPropertyOp42
 70
     1
102
RTVSPropertyOp43
 70
     1
102
RTVSPropertyOp44
 70
     1
102
RTVSPropertyOp45
 70
     1
102
RTVSPropertyOp46
 70
     1
102
RTVSPropertyOp47
 70
     1
102
RTVSPropertyOp48
 70
     1
102
RTVSPropertyOp49
 70
     1
102
RTVSPropertyOp50
 70
     1
102
RTVSPropertyOp51
 70
     0
102
RTVSPropertyOp52
 70
     0
102
RTVSPropertyOp53
 70
     1
102
RTVSPropertyOp54
 70
     1
102
RTVSPropertyOp55
 70
     1
102
RTVSPropertyOp56
 70
     1
102
RTVSPropertyOp57
 70
     1
102
RTVSPropertyOp58
 70
     1
102
RTVSPropertyOp59
 70
     1
102
RTVSPropertyOp60
 70
     1
102
RTVSPropertyOp61
 70
     1
102
RTVSPropertyOp62
 70
     1
  0
XRECORD
  5
3886
102
{ACAD_REACTORS
330
3885
102
}
330
3885
100
AcDbXrecord
280
     1
102
RTVSPost2010Prop28
280
     0
102
RTVSPost2010PropOp28
 70
     1
102
RTVSPost2010Prop29
280
     1
102
RTVSPost2010PropOp29
 70
     1
102
RTVSPost2010Prop30
280
     1
102
RTVSPost2010PropOp30
 70
     1
102
RTVSPost2010Prop31
280
     0
102
RTVSPost2010PropOp31
 70
     1
102
RTVSPost2010Prop32
280
     0
102
RTVSPost2010PropOp32
 70
     1
102
RTVSPost2010Prop33
280
     0
102
RTVSPost2010PropOp33
 70
     1
102
RTVSPost2010Prop34
280
     0
102
RTVSPost2010PropOp34
 70
     1
102
RTVSPost2010Prop35
280
     0
102
RTVSPost2010PropOp35
 70
     1
102
RTVSPost2010Prop36
280
     0
102
RTVSPost2010PropOp36
 70
     1
102
RTVSPost2010Prop37
 90
       50
102
RTVSPost2010PropOp37
 70
     1
102
RTVSPost2010Prop38
140
0.0
102
RTVSPost2010PropOp38
 70
     1
102
RTVSPost2010Prop39
140
1.0
102
RTVSPost2010PropOp39
 70
     1
102
RTVSPost2010Prop40
 90
        0
102
RTVSPost2010PropOp40
 70
     1
102
RTVSPost2010Prop41ColorIndex
 90
       18
102
RTVSPost2010Prop41ColorRGB
 90
        0
102
RTVSPost2010PropOp41
 70
     1
102
RTVSPost2010Prop42
 90
       50
102
RTVSPost2010PropOp42
 70
     1
102
RTVSPost2010Prop43
 90
        3
102
RTVSPost2010PropOp43
 70
     1
102
RTVSPost2010Prop44ColorIndex
 90
        5
102
RTVSPost2010Prop44ColorRGB
 90
      255
102
RTVSPost2010PropOp44
 70
     1
102
RTVSPost2010Prop45
280
     0
102
RTVSPost2010PropOp45
 70
     1
102
RTVSPost2010Prop46
 90
       50
102
RTVSPost2010PropOp46
 70
     1
102
RTVSPost2010Prop47
 90
       50
102
RTVSPost2010PropOp47
 70
     1
102
RTVSPost2010Prop48
 90
       50
102
RTVSPost2010PropOp48
 70
     1
102
RTVSPost2010Prop49
280
     0
102
RTVSPost2010PropOp49
 70
     1
102
RTVSPost2010Prop50
 90
       50
102
RTVSPost2010PropOp50
 70
     1
102
RTVSPost2010Prop51ColorIndex
 90
      256
102
RTVSPost2010Prop51ColorRGB
 90
-16777216
102
RTVSPost2010PropOp51
 70
     0
102
RTVSPost2010Prop52
140
1.0
102
RTVSPost2010PropOp52
 70
     0
102
RTVSPost2010Prop53
 90
        2
102
RTVSPost2010PropOp53
 70
     1
102
RTVSPost2010Prop54
  1
strokes_ogs.tif
102
RTVSPost2010PropOp54
 70
     1
102
RTVSPost2010Prop55
280
     0
102
RTVSPost2010PropOp55
 70
     1
102
RTVSPost2010Prop56
140
1.0
102
RTVSPost2010PropOp56
 70
     1
102
RTVSPost2010Prop57
140
1.0
102
RTVSPost2010PropOp57
 70
     1
102
RTVSPropertyOp0
 70
     1
102
RTVSPropertyOp1
 70
     1
102
RTVSPropertyOp2
 70
     1
102
RTVSPropertyOp3
 70
     1
102
RTVSPropertyOp4
 70
     1
102
RTVSPropertyOp5
 70
     1
102
RTVSPropertyOp6
 70
     1
102
RTVSPropertyOp7
 70
     1
102
RTVSPropertyOp8
 70
     1
102
RTVSPropertyOp9
 70
     1
102
RTVSPropertyOp10
 70
     1
102
RTVSPropertyOp11
 70
     1
102
RTVSPropertyOp12
 70
     1
102
RTVSPropertyOp13
 70
     1
102
RTVSPropertyOp14
 70
     1
102
RTVSPropertyOp15
 70
     1
102
RTVSPropertyOp16
 70
     1
102
RTVSPropertyOp17
 70
     1
102
RTVSPropertyOp18
 70
     1
102
RTVSPropertyOp19
 70
     1
102
RTVSPropertyOp20
 70
     1
102
RTVSPropertyOp21
 70
     1
102
RTVSPropertyOp22
 70
     1
102
RTVSPropertyOp23
 70
     1
102
RTVSPropertyOp24
 70
     1
102
RTVSPropertyOp25
 70
     1
102
RTVSPropertyOp26
 70
     1
102
RTVSPropertyOp27
 70
     1
102
RTVSPropertyOp28
 70
     1
102
RTVSPropertyOp29
 70
     1
102
RTVSPropertyOp30
 70
     1
102
RTVSPropertyOp31
 70
     1
102
RTVSPropertyOp32
 70
     1
102
RTVSPropertyOp33
 70
     1
102
RTVSPropertyOp34
 70
     1
102
RTVSPropertyOp35
 70
     1
102
RTVSPropertyOp36
 70
     1
102
RTVSPropertyOp37
 70
     1
102
RTVSPropertyOp38
 70
     1
102
RTVSPropertyOp39
 70
     1
102
RTVSPropertyOp40
 70
     1
102
RTVSPropertyOp41
 70
     1
102
RTVSPropertyOp42
 70
     1
102
RTVSPropertyOp43
 70
     1
102
RTVSPropertyOp44
 70
     1
102
RTVSPropertyOp45
 70
     1
102
RTVSPropertyOp46
 70
     1
102
RTVSPropertyOp47
 70
     1
102
RTVSPropertyOp48
 70
     1
102
RTVSPropertyOp49
 70
     1
102
RTVSPropertyOp50
 70
     1
102
RTVSPropertyOp51
 70
     0
102
RTVSPropertyOp52
 70
     0
102
RTVSPropertyOp53
 70
     1
102
RTVSPropertyOp54
 70
     1
102
RTVSPropertyOp55
 70
     1
102
RTVSPropertyOp56
 70
     1
102
RTVSPropertyOp57
 70
     1
102
RTVSPropertyOp58
 70
     1
102
RTVSPropertyOp59
 70
     1
102
RTVSPropertyOp60
 70
     1
102
RTVSPropertyOp61
 70
     1
102
RTVSPropertyOp62
 70
     1
  0
XRECORD
  5
3884
102
{ACAD_REACTORS
330
3883
102
}
330
3883
100
AcDbXrecord
280
     1
102
RTVSPost2010Prop28
280
     0
102
RTVSPost2010PropOp28
 70
     1
102
RTVSPost2010Prop29
280
     1
102
RTVSPost2010PropOp29
 70
     1
102
RTVSPost2010Prop30
280
     1
102
RTVSPost2010PropOp30
 70
     1
102
RTVSPost2010Prop31
280
     0
102
RTVSPost2010PropOp31
 70
     1
102
RTVSPost2010Prop32
280
     0
102
RTVSPost2010PropOp32
 70
     1
102
RTVSPost2010Prop33
280
     0
102
RTVSPost2010PropOp33
 70
     1
102
RTVSPost2010Prop34
280
     0
102
RTVSPost2010PropOp34
 70
     1
102
RTVSPost2010Prop35
280
     0
102
RTVSPost2010PropOp35
 70
     1
102
RTVSPost2010Prop36
280
     0
102
RTVSPost2010PropOp36
 70
     1
102
RTVSPost2010Prop37
 90
       50
102
RTVSPost2010PropOp37
 70
     1
102
RTVSPost2010Prop38
140
0.0
102
RTVSPost2010PropOp38
 70
     1
102
RTVSPost2010Prop39
140
1.0
102
RTVSPost2010PropOp39
 70
     1
102
RTVSPost2010Prop40
 90
        0
102
RTVSPost2010PropOp40
 70
     1
102
RTVSPost2010Prop41ColorIndex
 90
       18
102
RTVSPost2010Prop41ColorRGB
 90
        0
102
RTVSPost2010PropOp41
 70
     1
102
RTVSPost2010Prop42
 90
       50
102
RTVSPost2010PropOp42
 70
     1
102
RTVSPost2010Prop43
 90
        3
102
RTVSPost2010PropOp43
 70
     1
102
RTVSPost2010Prop44ColorIndex
 90
        5
102
RTVSPost2010Prop44ColorRGB
 90
      255
102
RTVSPost2010PropOp44
 70
     1
102
RTVSPost2010Prop45
280
     0
102
RTVSPost2010PropOp45
 70
     1
102
RTVSPost2010Prop46
 90
       50
102
RTVSPost2010PropOp46
 70
     1
102
RTVSPost2010Prop47
 90
       50
102
RTVSPost2010PropOp47
 70
     1
102
RTVSPost2010Prop48
 90
       50
102
RTVSPost2010PropOp48
 70
     1
102
RTVSPost2010Prop49
280
     0
102
RTVSPost2010PropOp49
 70
     1
102
RTVSPost2010Prop50
 90
       50
102
RTVSPost2010PropOp50
 70
     1
102
RTVSPost2010Prop51ColorIndex
 90
      256
102
RTVSPost2010Prop51ColorRGB
 90
-16777216
102
RTVSPost2010PropOp51
 70
     0
102
RTVSPost2010Prop52
140
1.0
102
RTVSPost2010PropOp52
 70
     0
102
RTVSPost2010Prop53
 90
        2
102
RTVSPost2010PropOp53
 70
     1
102
RTVSPost2010Prop54
  1
strokes_ogs.tif
102
RTVSPost2010PropOp54
 70
     1
102
RTVSPost2010Prop55
280
     0
102
RTVSPost2010PropOp55
 70
     1
102
RTVSPost2010Prop56
140
1.0
102
RTVSPost2010PropOp56
 70
     1
102
RTVSPost2010Prop57
140
1.0
102
RTVSPost2010PropOp57
 70
     1
102
RTVSPropertyOp0
 70
     1
102
RTVSPropertyOp1
 70
     1
102
RTVSPropertyOp2
 70
     1
102
RTVSPropertyOp3
 70
     1
102
RTVSPropertyOp4
 70
     1
102
RTVSPropertyOp5
 70
     1
102
RTVSPropertyOp6
 70
     1
102
RTVSPropertyOp7
 70
     1
102
RTVSPropertyOp8
 70
     1
102
RTVSPropertyOp9
 70
     1
102
RTVSPropertyOp10
 70
     1
102
RTVSPropertyOp11
 70
     1
102
RTVSPropertyOp12
 70
     1
102
RTVSPropertyOp13
 70
     1
102
RTVSPropertyOp14
 70
     1
102
RTVSPropertyOp15
 70
     1
102
RTVSPropertyOp16
 70
     1
102
RTVSPropertyOp17
 70
     1
102
RTVSPropertyOp18
 70
     1
102
RTVSPropertyOp19
 70
     1
102
RTVSPropertyOp20
 70
     1
102
RTVSPropertyOp21
 70
     1
102
RTVSPropertyOp22
 70
     1
102
RTVSPropertyOp23
 70
     1
102
RTVSPropertyOp24
 70
     1
102
RTVSPropertyOp25
 70
     1
102
RTVSPropertyOp26
 70
     1
102
RTVSPropertyOp27
 70
     1
102
RTVSPropertyOp28
 70
     1
102
RTVSPropertyOp29
 70
     1
102
RTVSPropertyOp30
 70
     1
102
RTVSPropertyOp31
 70
     1
102
RTVSPropertyOp32
 70
     1
102
RTVSPropertyOp33
 70
     1
102
RTVSPropertyOp34
 70
     1
102
RTVSPropertyOp35
 70
     1
102
RTVSPropertyOp36
 70
     1
102
RTVSPropertyOp37
 70
     1
102
RTVSPropertyOp38
 70
     1
102
RTVSPropertyOp39
 70
     1
102
RTVSPropertyOp40
 70
     1
102
RTVSPropertyOp41
 70
     1
102
RTVSPropertyOp42
 70
     1
102
RTVSPropertyOp43
 70
     1
102
RTVSPropertyOp44
 70
     1
102
RTVSPropertyOp45
 70
     1
102
RTVSPropertyOp46
 70
     1
102
RTVSPropertyOp47
 70
     1
102
RTVSPropertyOp48
 70
     1
102
RTVSPropertyOp49
 70
     1
102
RTVSPropertyOp50
 70
     1
102
RTVSPropertyOp51
 70
     0
102
RTVSPropertyOp52
 70
     0
102
RTVSPropertyOp53
 70
     1
102
RTVSPropertyOp54
 70
     1
102
RTVSPropertyOp55
 70
     1
102
RTVSPropertyOp56
 70
     1
102
RTVSPropertyOp57
 70
     1
102
RTVSPropertyOp58
 70
     1
102
RTVSPropertyOp59
 70
     1
102
RTVSPropertyOp60
 70
     1
102
RTVSPropertyOp61
 70
     1
102
RTVSPropertyOp62
 70
     1
  0
XRECORD
  5
387E
102
{ACAD_REACTORS
330
387D
102
}
330
387D
100
AcDbXrecord
280
     1
102
RTVSPost2010Prop28
280
     0
102
RTVSPost2010PropOp28
 70
     1
102
RTVSPost2010Prop29
280
     1
102
RTVSPost2010PropOp29
 70
     1
102
RTVSPost2010Prop30
280
     1
102
RTVSPost2010PropOp30
 70
     1
102
RTVSPost2010Prop31
280
     0
102
RTVSPost2010PropOp31
 70
     1
102
RTVSPost2010Prop32
280
     0
102
RTVSPost2010PropOp32
 70
     1
102
RTVSPost2010Prop33
280
     0
102
RTVSPost2010PropOp33
 70
     1
102
RTVSPost2010Prop34
280
     0
102
RTVSPost2010PropOp34
 70
     1
102
RTVSPost2010Prop35
280
     0
102
RTVSPost2010PropOp35
 70
     1
102
RTVSPost2010Prop36
280
     0
102
RTVSPost2010PropOp36
 70
     1
102
RTVSPost2010Prop37
 90
       50
102
RTVSPost2010PropOp37
 70
     1
102
RTVSPost2010Prop38
140
0.0
102
RTVSPost2010PropOp38
 70
     1
102
RTVSPost2010Prop39
140
1.0
102
RTVSPost2010PropOp39
 70
     1
102
RTVSPost2010Prop40
 90
        0
102
RTVSPost2010PropOp40
 70
     1
102
RTVSPost2010Prop41ColorIndex
 90
       18
102
RTVSPost2010Prop41ColorRGB
 90
        0
102
RTVSPost2010PropOp41
 70
     1
102
RTVSPost2010Prop42
 90
       50
102
RTVSPost2010PropOp42
 70
     1
102
RTVSPost2010Prop43
 90
        3
102
RTVSPost2010PropOp43
 70
     1
102
RTVSPost2010Prop44ColorIndex
 90
        5
102
RTVSPost2010Prop44ColorRGB
 90
      255
102
RTVSPost2010PropOp44
 70
     1
102
RTVSPost2010Prop45
280
     0
102
RTVSPost2010PropOp45
 70
     1
102
RTVSPost2010Prop46
 90
       50
102
RTVSPost2010PropOp46
 70
     1
102
RTVSPost2010Prop47
 90
       50
102
RTVSPost2010PropOp47
 70
     1
102
RTVSPost2010Prop48
 90
       50
102
RTVSPost2010PropOp48
 70
     1
102
RTVSPost2010Prop49
280
     0
102
RTVSPost2010PropOp49
 70
     1
102
RTVSPost2010Prop50
 90
       50
102
RTVSPost2010PropOp50
 70
     1
102
RTVSPost2010Prop51ColorIndex
 90
      256
102
RTVSPost2010Prop51ColorRGB
 90
-16777216
102
RTVSPost2010PropOp51
 70
     0
102
RTVSPost2010Prop52
140
1.0
102
RTVSPost2010PropOp52
 70
     0
102
RTVSPost2010Prop53
 90
        2
102
RTVSPost2010PropOp53
 70
     1
102
RTVSPost2010Prop54
  1
strokes_ogs.tif
102
RTVSPost2010PropOp54
 70
     1
102
RTVSPost2010Prop55
280
     0
102
RTVSPost2010PropOp55
 70
     1
102
RTVSPost2010Prop56
140
1.0
102
RTVSPost2010PropOp56
 70
     1
102
RTVSPost2010Prop57
140
1.0
102
RTVSPost2010PropOp57
 70
     1
102
RTVSPropertyOp0
 70
     1
102
RTVSPropertyOp1
 70
     1
102
RTVSPropertyOp2
 70
     1
102
RTVSPropertyOp3
 70
     1
102
RTVSPropertyOp4
 70
     1
102
RTVSPropertyOp5
 70
     1
102
RTVSPropertyOp6
 70
     1
102
RTVSPropertyOp7
 70
     1
102
RTVSPropertyOp8
 70
     1
102
RTVSPropertyOp9
 70
     1
102
RTVSPropertyOp10
 70
     1
102
RTVSPropertyOp11
 70
     1
102
RTVSPropertyOp12
 70
     1
102
RTVSPropertyOp13
 70
     1
102
RTVSPropertyOp14
 70
     1
102
RTVSPropertyOp15
 70
     1
102
RTVSPropertyOp16
 70
     1
102
RTVSPropertyOp17
 70
     1
102
RTVSPropertyOp18
 70
     1
102
RTVSPropertyOp19
 70
     1
102
RTVSPropertyOp20
 70
     1
102
RTVSPropertyOp21
 70
     1
102
RTVSPropertyOp22
 70
     1
102
RTVSPropertyOp23
 70
     1
102
RTVSPropertyOp24
 70
     1
102
RTVSPropertyOp25
 70
     1
102
RTVSPropertyOp26
 70
     1
102
RTVSPropertyOp27
 70
     1
102
RTVSPropertyOp28
 70
     1
102
RTVSPropertyOp29
 70
     1
102
RTVSPropertyOp30
 70
     1
102
RTVSPropertyOp31
 70
     1
102
RTVSPropertyOp32
 70
     1
102
RTVSPropertyOp33
 70
     1
102
RTVSPropertyOp34
 70
     1
102
RTVSPropertyOp35
 70
     1
102
RTVSPropertyOp36
 70
     1
102
RTVSPropertyOp37
 70
     1
102
RTVSPropertyOp38
 70
     1
102
RTVSPropertyOp39
 70
     1
102
RTVSPropertyOp40
 70
     1
102
RTVSPropertyOp41
 70
     1
102
RTVSPropertyOp42
 70
     1
102
RTVSPropertyOp43
 70
     1
102
RTVSPropertyOp44
 70
     1
102
RTVSPropertyOp45
 70
     1
102
RTVSPropertyOp46
 70
     1
102
RTVSPropertyOp47
 70
     1
102
RTVSPropertyOp48
 70
     1
102
RTVSPropertyOp49
 70
     1
102
RTVSPropertyOp50
 70
     1
102
RTVSPropertyOp51
 70
     0
102
RTVSPropertyOp52
 70
     0
102
RTVSPropertyOp53
 70
     1
102
RTVSPropertyOp54
 70
     1
102
RTVSPropertyOp55
 70
     1
102
RTVSPropertyOp56
 70
     1
102
RTVSPropertyOp57
 70
     1
102
RTVSPropertyOp58
 70
     1
102
RTVSPropertyOp59
 70
     1
102
RTVSPropertyOp60
 70
     1
102
RTVSPropertyOp61
 70
     1
102
RTVSPropertyOp62
 70
     1
  0
XRECORD
  5
3880
102
{ACAD_REACTORS
330
387F
102
}
330
387F
100
AcDbXrecord
280
     1
102
RTVSPost2010Prop28
280
     0
102
RTVSPost2010PropOp28
 70
     1
102
RTVSPost2010Prop29
280
     1
102
RTVSPost2010PropOp29
 70
     1
102
RTVSPost2010Prop30
280
     1
102
RTVSPost2010PropOp30
 70
     1
102
RTVSPost2010Prop31
280
     0
102
RTVSPost2010PropOp31
 70
     1
102
RTVSPost2010Prop32
280
     0
102
RTVSPost2010PropOp32
 70
     1
102
RTVSPost2010Prop33
280
     0
102
RTVSPost2010PropOp33
 70
     1
102
RTVSPost2010Prop34
280
     0
102
RTVSPost2010PropOp34
 70
     1
102
RTVSPost2010Prop35
280
     0
102
RTVSPost2010PropOp35
 70
     1
102
RTVSPost2010Prop36
280
     0
102
RTVSPost2010PropOp36
 70
     1
102
RTVSPost2010Prop37
 90
       50
102
RTVSPost2010PropOp37
 70
     1
102
RTVSPost2010Prop38
140
0.0
102
RTVSPost2010PropOp38
 70
     1
102
RTVSPost2010Prop39
140
1.0
102
RTVSPost2010PropOp39
 70
     1
102
RTVSPost2010Prop40
 90
        0
102
RTVSPost2010PropOp40
 70
     1
102
RTVSPost2010Prop41ColorIndex
 90
       18
102
RTVSPost2010Prop41ColorRGB
 90
        0
102
RTVSPost2010PropOp41
 70
     1
102
RTVSPost2010Prop42
 90
       50
102
RTVSPost2010PropOp42
 70
     1
102
RTVSPost2010Prop43
 90
        3
102
RTVSPost2010PropOp43
 70
     1
102
RTVSPost2010Prop44ColorIndex
 90
        5
102
RTVSPost2010Prop44ColorRGB
 90
      255
102
RTVSPost2010PropOp44
 70
     1
102
RTVSPost2010Prop45
280
     0
102
RTVSPost2010PropOp45
 70
     1
102
RTVSPost2010Prop46
 90
       50
102
RTVSPost2010PropOp46
 70
     1
102
RTVSPost2010Prop47
 90
       50
102
RTVSPost2010PropOp47
 70
     1
102
RTVSPost2010Prop48
 90
       50
102
RTVSPost2010PropOp48
 70
     1
102
RTVSPost2010Prop49
280
     0
102
RTVSPost2010PropOp49
 70
     1
102
RTVSPost2010Prop50
 90
       50
102
RTVSPost2010PropOp50
 70
     1
102
RTVSPost2010Prop51ColorIndex
 90
      256
102
RTVSPost2010Prop51ColorRGB
 90
-16777216
102
RTVSPost2010PropOp51
 70
     0
102
RTVSPost2010Prop52
140
1.0
102
RTVSPost2010PropOp52
 70
     0
102
RTVSPost2010Prop53
 90
        2
102
RTVSPost2010PropOp53
 70
     1
102
RTVSPost2010Prop54
  1
strokes_ogs.tif
102
RTVSPost2010PropOp54
 70
     1
102
RTVSPost2010Prop55
280
     0
102
RTVSPost2010PropOp55
 70
     1
102
RTVSPost2010Prop56
140
1.0
102
RTVSPost2010PropOp56
 70
     1
102
RTVSPost2010Prop57
140
1.0
102
RTVSPost2010PropOp57
 70
     1
102
RTVSPropertyOp0
 70
     1
102
RTVSPropertyOp1
 70
     1
102
RTVSPropertyOp2
 70
     1
102
RTVSPropertyOp3
 70
     1
102
RTVSPropertyOp4
 70
     1
102
RTVSPropertyOp5
 70
     1
102
RTVSPropertyOp6
 70
     1
102
RTVSPropertyOp7
 70
     1
102
RTVSPropertyOp8
 70
     1
102
RTVSPropertyOp9
 70
     1
102
RTVSPropertyOp10
 70
     1
102
RTVSPropertyOp11
 70
     1
102
RTVSPropertyOp12
 70
     1
102
RTVSPropertyOp13
 70
     1
102
RTVSPropertyOp14
 70
     1
102
RTVSPropertyOp15
 70
     1
102
RTVSPropertyOp16
 70
     1
102
RTVSPropertyOp17
 70
     1
102
RTVSPropertyOp18
 70
     1
102
RTVSPropertyOp19
 70
     1
102
RTVSPropertyOp20
 70
     1
102
RTVSPropertyOp21
 70
     1
102
RTVSPropertyOp22
 70
     1
102
RTVSPropertyOp23
 70
     1
102
RTVSPropertyOp24
 70
     1
102
RTVSPropertyOp25
 70
     1
102
RTVSPropertyOp26
 70
     1
102
RTVSPropertyOp27
 70
     1
102
RTVSPropertyOp28
 70
     1
102
RTVSPropertyOp29
 70
     1
102
RTVSPropertyOp30
 70
     1
102
RTVSPropertyOp31
 70
     1
102
RTVSPropertyOp32
 70
     1
102
RTVSPropertyOp33
 70
     1
102
RTVSPropertyOp34
 70
     1
102
RTVSPropertyOp35
 70
     1
102
RTVSPropertyOp36
 70
     1
102
RTVSPropertyOp37
 70
     1
102
RTVSPropertyOp38
 70
     1
102
RTVSPropertyOp39
 70
     1
102
RTVSPropertyOp40
 70
     1
102
RTVSPropertyOp41
 70
     1
102
RTVSPropertyOp42
 70
     1
102
RTVSPropertyOp43
 70
     1
102
RTVSPropertyOp44
 70
     1
102
RTVSPropertyOp45
 70
     1
102
RTVSPropertyOp46
 70
     1
102
RTVSPropertyOp47
 70
     1
102
RTVSPropertyOp48
 70
     1
102
RTVSPropertyOp49
 70
     1
102
RTVSPropertyOp50
 70
     1
102
RTVSPropertyOp51
 70
     0
102
RTVSPropertyOp52
 70
     0
102
RTVSPropertyOp53
 70
     1
102
RTVSPropertyOp54
 70
     1
102
RTVSPropertyOp55
 70
     1
102
RTVSPropertyOp56
 70
     1
102
RTVSPropertyOp57
 70
     1
102
RTVSPropertyOp58
 70
     1
102
RTVSPropertyOp59
 70
     1
102
RTVSPropertyOp60
 70
     1
102
RTVSPropertyOp61
 70
     1
102
RTVSPropertyOp62
 70
     1
  0
XRECORD
  5
3876
102
{ACAD_REACTORS
330
3875
102
}
330
3875
100
AcDbXrecord
280
     1
102
RTVSPost2010Prop28
280
     0
102
RTVSPost2010PropOp28
 70
     1
102
RTVSPost2010Prop29
280
     1
102
RTVSPost2010PropOp29
 70
     1
102
RTVSPost2010Prop30
280
     1
102
RTVSPost2010PropOp30
 70
     1
102
RTVSPost2010Prop31
280
     0
102
RTVSPost2010PropOp31
 70
     1
102
RTVSPost2010Prop32
280
     0
102
RTVSPost2010PropOp32
 70
     1
102
RTVSPost2010Prop33
280
     0
102
RTVSPost2010PropOp33
 70
     1
102
RTVSPost2010Prop34
280
     0
102
RTVSPost2010PropOp34
 70
     1
102
RTVSPost2010Prop35
280
     0
102
RTVSPost2010PropOp35
 70
     1
102
RTVSPost2010Prop36
280
     0
102
RTVSPost2010PropOp36
 70
     1
102
RTVSPost2010Prop37
 90
       50
102
RTVSPost2010PropOp37
 70
     1
102
RTVSPost2010Prop38
140
0.0
102
RTVSPost2010PropOp38
 70
     1
102
RTVSPost2010Prop39
140
1.0
102
RTVSPost2010PropOp39
 70
     1
102
RTVSPost2010Prop40
 90
        0
102
RTVSPost2010PropOp40
 70
     1
102
RTVSPost2010Prop41ColorIndex
 90
       18
102
RTVSPost2010Prop41ColorRGB
 90
        0
102
RTVSPost2010PropOp41
 70
     1
102
RTVSPost2010Prop42
 90
       50
102
RTVSPost2010PropOp42
 70
     1
102
RTVSPost2010Prop43
 90
        3
102
RTVSPost2010PropOp43
 70
     1
102
RTVSPost2010Prop44ColorIndex
 90
        5
102
RTVSPost2010Prop44ColorRGB
 90
      255
102
RTVSPost2010PropOp44
 70
     1
102
RTVSPost2010Prop45
280
     0
102
RTVSPost2010PropOp45
 70
     1
102
RTVSPost2010Prop46
 90
       50
102
RTVSPost2010PropOp46
 70
     1
102
RTVSPost2010Prop47
 90
       50
102
RTVSPost2010PropOp47
 70
     1
102
RTVSPost2010Prop48
 90
       50
102
RTVSPost2010PropOp48
 70
     1
102
RTVSPost2010Prop49
280
     0
102
RTVSPost2010PropOp49
 70
     1
102
RTVSPost2010Prop50
 90
       50
102
RTVSPost2010PropOp50
 70
     1
102
RTVSPost2010Prop51ColorIndex
 90
      256
102
RTVSPost2010Prop51ColorRGB
 90
-16777216
102
RTVSPost2010PropOp51
 70
     0
102
RTVSPost2010Prop52
140
1.0
102
RTVSPost2010PropOp52
 70
     0
102
RTVSPost2010Prop53
 90
        2
102
RTVSPost2010PropOp53
 70
     1
102
RTVSPost2010Prop54
  1
strokes_ogs.tif
102
RTVSPost2010PropOp54
 70
     1
102
RTVSPost2010Prop55
280
     0
102
RTVSPost2010PropOp55
 70
     1
102
RTVSPost2010Prop56
140
1.0
102
RTVSPost2010PropOp56
 70
     1
102
RTVSPost2010Prop57
140
1.0
102
RTVSPost2010PropOp57
 70
     1
102
RTVSPropertyOp0
 70
     1
102
RTVSPropertyOp1
 70
     1
102
RTVSPropertyOp2
 70
     1
102
RTVSPropertyOp3
 70
     1
102
RTVSPropertyOp4
 70
     1
102
RTVSPropertyOp5
 70
     1
102
RTVSPropertyOp6
 70
     1
102
RTVSPropertyOp7
 70
     1
102
RTVSPropertyOp8
 70
     1
102
RTVSPropertyOp9
 70
     1
102
RTVSPropertyOp10
 70
     1
102
RTVSPropertyOp11
 70
     1
102
RTVSPropertyOp12
 70
     1
102
RTVSPropertyOp13
 70
     1
102
RTVSPropertyOp14
 70
     1
102
RTVSPropertyOp15
 70
     1
102
RTVSPropertyOp16
 70
     1
102
RTVSPropertyOp17
 70
     1
102
RTVSPropertyOp18
 70
     1
102
RTVSPropertyOp19
 70
     1
102
RTVSPropertyOp20
 70
     1
102
RTVSPropertyOp21
 70
     1
102
RTVSPropertyOp22
 70
     1
102
RTVSPropertyOp23
 70
     1
102
RTVSPropertyOp24
 70
     1
102
RTVSPropertyOp25
 70
     1
102
RTVSPropertyOp26
 70
     1
102
RTVSPropertyOp27
 70
     1
102
RTVSPropertyOp28
 70
     1
102
RTVSPropertyOp29
 70
     1
102
RTVSPropertyOp30
 70
     1
102
RTVSPropertyOp31
 70
     1
102
RTVSPropertyOp32
 70
     1
102
RTVSPropertyOp33
 70
     1
102
RTVSPropertyOp34
 70
     1
102
RTVSPropertyOp35
 70
     1
102
RTVSPropertyOp36
 70
     1
102
RTVSPropertyOp37
 70
     1
102
RTVSPropertyOp38
 70
     1
102
RTVSPropertyOp39
 70
     1
102
RTVSPropertyOp40
 70
     1
102
RTVSPropertyOp41
 70
     1
102
RTVSPropertyOp42
 70
     1
102
RTVSPropertyOp43
 70
     1
102
RTVSPropertyOp44
 70
     1
102
RTVSPropertyOp45
 70
     1
102
RTVSPropertyOp46
 70
     1
102
RTVSPropertyOp47
 70
     1
102
RTVSPropertyOp48
 70
     1
102
RTVSPropertyOp49
 70
     1
102
RTVSPropertyOp50
 70
     1
102
RTVSPropertyOp51
 70
     0
102
RTVSPropertyOp52
 70
     0
102
RTVSPropertyOp53
 70
     1
102
RTVSPropertyOp54
 70
     1
102
RTVSPropertyOp55
 70
     1
102
RTVSPropertyOp56
 70
     1
102
RTVSPropertyOp57
 70
     1
102
RTVSPropertyOp58
 70
     1
102
RTVSPropertyOp59
 70
     1
102
RTVSPropertyOp60
 70
     1
102
RTVSPropertyOp61
 70
     1
102
RTVSPropertyOp62
 70
     1
  0
XRECORD
  5
386A
102
{ACAD_REACTORS
330
3869
102
}
330
3869
100
AcDbXrecord
280
     1
102
RTVSPost2010Prop28
280
     0
102
RTVSPost2010PropOp28
 70
     1
102
RTVSPost2010Prop29
280
     1
102
RTVSPost2010PropOp29
 70
     1
102
RTVSPost2010Prop30
280
     1
102
RTVSPost2010PropOp30
 70
     1
102
RTVSPost2010Prop31
280
     0
102
RTVSPost2010PropOp31
 70
     1
102
RTVSPost2010Prop32
280
     0
102
RTVSPost2010PropOp32
 70
     1
102
RTVSPost2010Prop33
280
     0
102
RTVSPost2010PropOp33
 70
     1
102
RTVSPost2010Prop34
280
     0
102
RTVSPost2010PropOp34
 70
     1
102
RTVSPost2010Prop35
280
     0
102
RTVSPost2010PropOp35
 70
     1
102
RTVSPost2010Prop36
280
     0
102
RTVSPost2010PropOp36
 70
     1
102
RTVSPost2010Prop37
 90
       50
102
RTVSPost2010PropOp37
 70
     1
102
RTVSPost2010Prop38
140
0.0
102
RTVSPost2010PropOp38
 70
     1
102
RTVSPost2010Prop39
140
1.0
102
RTVSPost2010PropOp39
 70
     1
102
RTVSPost2010Prop40
 90
        0
102
RTVSPost2010PropOp40
 70
     1
102
RTVSPost2010Prop41ColorIndex
 90
       18
102
RTVSPost2010Prop41ColorRGB
 90
        0
102
RTVSPost2010PropOp41
 70
     1
102
RTVSPost2010Prop42
 90
       50
102
RTVSPost2010PropOp42
 70
     1
102
RTVSPost2010Prop43
 90
        3
102
RTVSPost2010PropOp43
 70
     1
102
RTVSPost2010Prop44ColorIndex
 90
        5
102
RTVSPost2010Prop44ColorRGB
 90
      255
102
RTVSPost2010PropOp44
 70
     1
102
RTVSPost2010Prop45
280
     0
102
RTVSPost2010PropOp45
 70
     1
102
RTVSPost2010Prop46
 90
       50
102
RTVSPost2010PropOp46
 70
     1
102
RTVSPost2010Prop47
 90
       50
102
RTVSPost2010PropOp47
 70
     1
102
RTVSPost2010Prop48
 90
       50
102
RTVSPost2010PropOp48
 70
     1
102
RTVSPost2010Prop49
280
     0
102
RTVSPost2010PropOp49
 70
     1
102
RTVSPost2010Prop50
 90
       50
102
RTVSPost2010PropOp50
 70
     1
102
RTVSPost2010Prop51ColorIndex
 90
      256
102
RTVSPost2010Prop51ColorRGB
 90
-16777216
102
RTVSPost2010PropOp51
 70
     0
102
RTVSPost2010Prop52
140
1.0
102
RTVSPost2010PropOp52
 70
     0
102
RTVSPost2010Prop53
 90
        2
102
RTVSPost2010PropOp53
 70
     1
102
RTVSPost2010Prop54
  1
strokes_ogs.tif
102
RTVSPost2010PropOp54
 70
     1
102
RTVSPost2010Prop55
280
     0
102
RTVSPost2010PropOp55
 70
     1
102
RTVSPost2010Prop56
140
1.0
102
RTVSPost2010PropOp56
 70
     1
102
RTVSPost2010Prop57
140
1.0
102
RTVSPost2010PropOp57
 70
     1
102
RTVSPropertyOp0
 70
     1
102
RTVSPropertyOp1
 70
     1
102
RTVSPropertyOp2
 70
     1
102
RTVSPropertyOp3
 70
     1
102
RTVSPropertyOp4
 70
     1
102
RTVSPropertyOp5
 70
     1
102
RTVSPropertyOp6
 70
     1
102
RTVSPropertyOp7
 70
     1
102
RTVSPropertyOp8
 70
     1
102
RTVSPropertyOp9
 70
     1
102
RTVSPropertyOp10
 70
     1
102
RTVSPropertyOp11
 70
     1
102
RTVSPropertyOp12
 70
     1
102
RTVSPropertyOp13
 70
     1
102
RTVSPropertyOp14
 70
     1
102
RTVSPropertyOp15
 70
     1
102
RTVSPropertyOp16
 70
     1
102
RTVSPropertyOp17
 70
     1
102
RTVSPropertyOp18
 70
     1
102
RTVSPropertyOp19
 70
     1
102
RTVSPropertyOp20
 70
     1
102
RTVSPropertyOp21
 70
     1
102
RTVSPropertyOp22
 70
     1
102
RTVSPropertyOp23
 70
     1
102
RTVSPropertyOp24
 70
     1
102
RTVSPropertyOp25
 70
     1
102
RTVSPropertyOp26
 70
     1
102
RTVSPropertyOp27
 70
     1
102
RTVSPropertyOp28
 70
     1
102
RTVSPropertyOp29
 70
     1
102
RTVSPropertyOp30
 70
     1
102
RTVSPropertyOp31
 70
     1
102
RTVSPropertyOp32
 70
     1
102
RTVSPropertyOp33
 70
     1
102
RTVSPropertyOp34
 70
     1
102
RTVSPropertyOp35
 70
     1
102
RTVSPropertyOp36
 70
     1
102
RTVSPropertyOp37
 70
     1
102
RTVSPropertyOp38
 70
     1
102
RTVSPropertyOp39
 70
     1
102
RTVSPropertyOp40
 70
     1
102
RTVSPropertyOp41
 70
     1
102
RTVSPropertyOp42
 70
     1
102
RTVSPropertyOp43
 70
     1
102
RTVSPropertyOp44
 70
     1
102
RTVSPropertyOp45
 70
     1
102
RTVSPropertyOp46
 70
     1
102
RTVSPropertyOp47
 70
     1
102
RTVSPropertyOp48
 70
     1
102
RTVSPropertyOp49
 70
     1
102
RTVSPropertyOp50
 70
     1
102
RTVSPropertyOp51
 70
     0
102
RTVSPropertyOp52
 70
     0
102
RTVSPropertyOp53
 70
     1
102
RTVSPropertyOp54
 70
     1
102
RTVSPropertyOp55
 70
     1
102
RTVSPropertyOp56
 70
     1
102
RTVSPropertyOp57
 70
     1
102
RTVSPropertyOp58
 70
     1
102
RTVSPropertyOp59
 70
     1
102
RTVSPropertyOp60
 70
     1
102
RTVSPropertyOp61
 70
     1
102
RTVSPropertyOp62
 70
     1
  0
XRECORD
  5
3882
102
{ACAD_REACTORS
330
3881
102
}
330
3881
100
AcDbXrecord
280
     1
102
RTVSPost2010Prop28
280
     0
102
RTVSPost2010PropOp28
 70
     1
102
RTVSPost2010Prop29
280
     1
102
RTVSPost2010PropOp29
 70
     1
102
RTVSPost2010Prop30
280
     1
102
RTVSPost2010PropOp30
 70
     1
102
RTVSPost2010Prop31
280
     0
102
RTVSPost2010PropOp31
 70
     1
102
RTVSPost2010Prop32
280
     0
102
RTVSPost2010PropOp32
 70
     1
102
RTVSPost2010Prop33
280
     0
102
RTVSPost2010PropOp33
 70
     1
102
RTVSPost2010Prop34
280
     0
102
RTVSPost2010PropOp34
 70
     1
102
RTVSPost2010Prop35
280
     0
102
RTVSPost2010PropOp35
 70
     1
102
RTVSPost2010Prop36
280
     0
102
RTVSPost2010PropOp36
 70
     1
102
RTVSPost2010Prop37
 90
       50
102
RTVSPost2010PropOp37
 70
     1
102
RTVSPost2010Prop38
140
0.0
102
RTVSPost2010PropOp38
 70
     1
102
RTVSPost2010Prop39
140
1.0
102
RTVSPost2010PropOp39
 70
     1
102
RTVSPost2010Prop40
 90
        0
102
RTVSPost2010PropOp40
 70
     1
102
RTVSPost2010Prop41ColorIndex
 90
       18
102
RTVSPost2010Prop41ColorRGB
 90
        0
102
RTVSPost2010PropOp41
 70
     1
102
RTVSPost2010Prop42
 90
       50
102
RTVSPost2010PropOp42
 70
     1
102
RTVSPost2010Prop43
 90
        3
102
RTVSPost2010PropOp43
 70
     1
102
RTVSPost2010Prop44ColorIndex
 90
        5
102
RTVSPost2010Prop44ColorRGB
 90
      255
102
RTVSPost2010PropOp44
 70
     1
102
RTVSPost2010Prop45
280
     0
102
RTVSPost2010PropOp45
 70
     1
102
RTVSPost2010Prop46
 90
       50
102
RTVSPost2010PropOp46
 70
     1
102
RTVSPost2010Prop47
 90
       50
102
RTVSPost2010PropOp47
 70
     1
102
RTVSPost2010Prop48
 90
       50
102
RTVSPost2010PropOp48
 70
     1
102
RTVSPost2010Prop49
280
     0
102
RTVSPost2010PropOp49
 70
     1
102
RTVSPost2010Prop50
 90
       50
102
RTVSPost2010PropOp50
 70
     1
102
RTVSPost2010Prop51ColorIndex
 90
      256
102
RTVSPost2010Prop51ColorRGB
 90
-16777216
102
RTVSPost2010PropOp51
 70
     0
102
RTVSPost2010Prop52
140
1.0
102
RTVSPost2010PropOp52
 70
     0
102
RTVSPost2010Prop53
 90
        2
102
RTVSPost2010PropOp53
 70
     1
102
RTVSPost2010Prop54
  1
strokes_ogs.tif
102
RTVSPost2010PropOp54
 70
     1
102
RTVSPost2010Prop55
280
     0
102
RTVSPost2010PropOp55
 70
     1
102
RTVSPost2010Prop56
140
1.0
102
RTVSPost2010PropOp56
 70
     1
102
RTVSPost2010Prop57
140
1.0
102
RTVSPost2010PropOp57
 70
     1
102
RTVSPropertyOp0
 70
     1
102
RTVSPropertyOp1
 70
     1
102
RTVSPropertyOp2
 70
     1
102
RTVSPropertyOp3
 70
     1
102
RTVSPropertyOp4
 70
     1
102
RTVSPropertyOp5
 70
     1
102
RTVSPropertyOp6
 70
     1
102
RTVSPropertyOp7
 70
     1
102
RTVSPropertyOp8
 70
     1
102
RTVSPropertyOp9
 70
     1
102
RTVSPropertyOp10
 70
     1
102
RTVSPropertyOp11
 70
     1
102
RTVSPropertyOp12
 70
     1
102
RTVSPropertyOp13
 70
     1
102
RTVSPropertyOp14
 70
     1
102
RTVSPropertyOp15
 70
     1
102
RTVSPropertyOp16
 70
     1
102
RTVSPropertyOp17
 70
     1
102
RTVSPropertyOp18
 70
     1
102
RTVSPropertyOp19
 70
     1
102
RTVSPropertyOp20
 70
     1
102
RTVSPropertyOp21
 70
     1
102
RTVSPropertyOp22
 70
     1
102
RTVSPropertyOp23
 70
     1
102
RTVSPropertyOp24
 70
     1
102
RTVSPropertyOp25
 70
     1
102
RTVSPropertyOp26
 70
     1
102
RTVSPropertyOp27
 70
     1
102
RTVSPropertyOp28
 70
     1
102
RTVSPropertyOp29
 70
     1
102
RTVSPropertyOp30
 70
     1
102
RTVSPropertyOp31
 70
     1
102
RTVSPropertyOp32
 70
     1
102
RTVSPropertyOp33
 70
     1
102
RTVSPropertyOp34
 70
     1
102
RTVSPropertyOp35
 70
     1
102
RTVSPropertyOp36
 70
     1
102
RTVSPropertyOp37
 70
     1
102
RTVSPropertyOp38
 70
     1
102
RTVSPropertyOp39
 70
     1
102
RTVSPropertyOp40
 70
     1
102
RTVSPropertyOp41
 70
     1
102
RTVSPropertyOp42
 70
     1
102
RTVSPropertyOp43
 70
     1
102
RTVSPropertyOp44
 70
     1
102
RTVSPropertyOp45
 70
     1
102
RTVSPropertyOp46
 70
     1
102
RTVSPropertyOp47
 70
     1
102
RTVSPropertyOp48
 70
     1
102
RTVSPropertyOp49
 70
     1
102
RTVSPropertyOp50
 70
     1
102
RTVSPropertyOp51
 70
     0
102
RTVSPropertyOp52
 70
     0
102
RTVSPropertyOp53
 70
     1
102
RTVSPropertyOp54
 70
     1
102
RTVSPropertyOp55
 70
     1
102
RTVSPropertyOp56
 70
     1
102
RTVSPropertyOp57
 70
     1
102
RTVSPropertyOp58
 70
     1
102
RTVSPropertyOp59
 70
     1
102
RTVSPropertyOp60
 70
     1
102
RTVSPropertyOp61
 70
     1
102
RTVSPropertyOp62
 70
     1
  0
ENDSEC
  0
EOF
