  0
SECTION
  2
HEADER
  9
$ACADVER
  1
AC1018
  9
$ACADMAINTVER
 70
   104
  9
$DWGCODEPAGE
  3
ANSI_1252
  9
$LASTSAVEDBY
  1
w.koehlhoff
  9
$INSBASE
 10
0.0
 20
0.0
 30
0.0
  9
$EXTMIN
 10
-0.0384419776873983
 20
-0.0271839699362317
 30
-0.0000000000000058
  9
$EXTMAX
 10
840.0384576247429
 20
594.0271950346398
 30
0.0000000000000104
  9
$LIMMIN
 10
0.0
 20
0.0
  9
$LIMMAX
 10
839.9999999999998
 20
594.0000000000001
  9
$ORTHOMODE
 70
     0
  9
$REGENMODE
 70
     1
  9
$FILLMODE
 70
     1
  9
$QTEXTMODE
 70
     0
  9
$MIRRTEXT
 70
     1
  9
$LTSCALE
 40
20.0
  9
$ATTMODE
 70
     1
  9
$TEXTSIZE
 40
2.5
  9
$TRACEWID
 40
0.5
  9
$TEXTSTYLE
  7
GREEKS
  9
$CLAYER
  8
VOLL
  9
$CELTYPE
  6
ByLayer
  9
$CECOLOR
 62
   256
  9
$CELTSCALE
 40
1.0
  9
$DISPSILH
 70
     0
  9
$DIMSCALE
 40
2.0
  9
$DIMASZ
 40
3.5
  9
$DIMEXO
 40
1.0
  9
$DIMDLI
 40
1.0
  9
$DIMRND
 40
0.0
  9
$DIMDLE
 40
0.0
  9
$DIMEXE
 40
1.0
  9
$DIMTP
 40
0.0
  9
$DIMTM
 40
2.0
  9
$DIMTXT
 40
3.5
  9
$DIMCEN
 40
0.09
  9
$DIMTSZ
 40
0.0
  9
$DIMTOL
 70
     0
  9
$DIMLIM
 70
     0
  9
$DIMTIH
 70
     0
  9
$DIMTOH
 70
     0
  9
$DIMSE1
 70
     0
  9
$DIMSE2
 70
     0
  9
$DIMTAD
 70
     1
  9
$DIMZIN
 70
     8
  9
$DIMBLK
  1

  9
$DIMASO
 70
     1
  9
$DIMSHO
 70
     0
  9
$DIMPOST
  1

  9
$DIMAPOST
  1

  9
$DIMALT
 70
     0
  9
$DIMALTD
 70
     2
  9
$DIMALTF
 40
25.4
  9
$DIMLFAC
 40
1.0
  9
$DIMTOFL
 70
     1
  9
$DIMTVP
 40
0.0
  9
$DIMTIX
 70
     0
  9
$DIMSOXD
 70
     0
  9
$DIMSAH
 70
     0
  9
$DIMBLK1
  1

  9
$DIMBLK2
  1

  9
$DIMSTYLE
  2
STANDARD
  9
$DIMCLRD
 70
   256
  9
$DIMCLRE
 70
     0
  9
$DIMCLRT
 70
     1
  9
$DIMTFAC
 40
0.5
  9
$DIMGAP
 40
1.199999999999999
  9
$DIMJUST
 70
     0
  9
$DIMSD1
 70
     0
  9
$DIMSD2
 70
     0
  9
$DIMTOLJ
 70
     1
  9
$DIMTZIN
 70
     0
  9
$DIMALTZ
 70
     0
  9
$DIMALTTZ
 70
     0
  9
$DIMUPT
 70
     0
  9
$DIMDEC
 70
     2
  9
$DIMTDEC
 70
     2
  9
$DIMALTU
 70
     2
  9
$DIMALTTD
 70
     2
  9
$DIMTXSTY
  7
GREEKS
  9
$DIMAUNIT
 70
     0
  9
$DIMADEC
 70
     0
  9
$DIMALTRND
 40
0.0
  9
$DIMAZIN
 70
     2
  9
$DIMDSEP
 70
    46
  9
$DIMATFIT
 70
     3
  9
$DIMFRAC
 70
     0
  9
$DIMLDRBLK
  1

  9
$DIMLUNIT
 70
     2
  9
$DIMLWD
 70
    -1
  9
$DIMLWE
 70
    -2
  9
$DIMTMOVE
 70
     0
  9
$LUNITS
 70
     2
  9
$LUPREC
 70
     2
  9
$SKETCHINC
 40
1.0
  9
$FILLETRAD
 40
5.7
  9
$AUNITS
 70
     0
  9
$AUPREC
 70
     0
  9
$MENU
  1
ACAD
  9
$ELEVATION
 40
0.0
  9
$PELEVATION
 40
0.0
  9
$THICKNESS
 40
0.0
  9
$LIMCHECK
 70
     0
  9
$CHAMFERA
 40
0.0
  9
$CHAMFERB
 40
0.0
  9
$CHAMFERC
 40
0.0
  9
$CHAMFERD
 40
0.0
  9
$SKPOLY
 70
     0
  9
$TDCREATE
 40
2452806.195245625
  9
$TDUCREATE
 40
2452806.153578959
  9
$TDUPDATE
 40
2457053.391964630
  9
$TDUUPDATE
 40
2457053.350297963
  9
$TDINDWG
 40
0.4544040278
  9
$TDUSRTIMER
 40
0.4544040278
  9
$USRTIMER
 70
     1
  9
$ANGBASE
 50
0.0
  9
$ANGDIR
 70
     0
  9
$PDMODE
 70
     0
  9
$PDSIZE
 40
0.0
  9
$PLINEWID
 40
0.0
  9
$SPLFRAME
 70
     0
  9
$SPLINETYPE
 70
     6
  9
$SPLINESEGS
 70
     8
  9
$HANDSEED
  5
35FF
  9
$SURFTAB1
 70
     6
  9
$SURFTAB2
 70
     6
  9
$SURFTYPE
 70
     6
  9
$SURFU
 70
     6
  9
$SURFV
 70
     6
  9
$UCSBASE
  2

  9
$UCSNAME
  2

  9
$UCSORG
 10
0.0
 20
0.0
 30
0.0
  9
$UCSXDIR
 10
1.0
 20
0.0
 30
0.0
  9
$UCSYDIR
 10
0.0
 20
1.0
 30
0.0
  9
$UCSORTHOREF
  2

  9
$UCSORTHOVIEW
 70
     0
  9
$UCSORGTOP
 10
0.0
 20
0.0
 30
0.0
  9
$UCSORGBOTTOM
 10
0.0
 20
0.0
 30
0.0
  9
$UCSORGLEFT
 10
0.0
 20
0.0
 30
0.0
  9
$UCSORGRIGHT
 10
0.0
 20
0.0
 30
0.0
  9
$UCSORGFRONT
 10
0.0
 20
0.0
 30
0.0
  9
$UCSORGBACK
 10
0.0
 20
0.0
 30
0.0
  9
$PUCSBASE
  2

  9
$PUCSNAME
  2

  9
$PUCSORG
 10
0.0
 20
0.0
 30
0.0
  9
$PUCSXDIR
 10
1.0
 20
0.0
 30
0.0
  9
$PUCSYDIR
 10
0.0
 20
1.0
 30
0.0
  9
$PUCSORTHOREF
  2

  9
$PUCSORTHOVIEW
 70
     0
  9
$PUCSORGTOP
 10
0.0
 20
0.0
 30
0.0
  9
$PUCSORGBOTTOM
 10
0.0
 20
0.0
 30
0.0
  9
$PUCSORGLEFT
 10
0.0
 20
0.0
 30
0.0
  9
$PUCSORGRIGHT
 10
0.0
 20
0.0
 30
0.0
  9
$PUCSORGFRONT
 10
0.0
 20
0.0
 30
0.0
  9
$PUCSORGBACK
 10
0.0
 20
0.0
 30
0.0
  9
$USERI1
 70
     0
  9
$USERI2
 70
     0
  9
$USERI3
 70
     0
  9
$USERI4
 70
     0
  9
$USERI5
 70
     0
  9
$USERR1
 40
0.0
  9
$USERR2
 40
0.0
  9
$USERR3
 40
0.0
  9
$USERR4
 40
0.0
  9
$USERR5
 40
0.0
  9
$WORLDVIEW
 70
     1
  9
$SHADEDGE
 70
     3
  9
$SHADEDIF
 70
    70
  9
$TILEMODE
 70
     1
  9
$MAXACTVP
 70
    16
  9
$PINSBASE
 10
0.0
 20
0.0
 30
0.0
  9
$PLIMCHECK
 70
     0
  9
$PEXTMIN
 10
1.000000000000000E+20
 20
1.000000000000000E+20
 30
1.000000000000000E+20
  9
$PEXTMAX
 10
-1.000000000000000E+20
 20
-1.000000000000000E+20
 30
-1.000000000000000E+20
  9
$PLIMMIN
 10
0.0
 20
0.0
  9
$PLIMMAX
 10
12.0
 20
9.0
  9
$UNITMODE
 70
     0
  9
$VISRETAIN
 70
     0
  9
$PLINEGEN
 70
     0
  9
$PSLTSCALE
 70
     0
  9
$TREEDEPTH
 70
  3020
  9
$CMLSTYLE
  2
Standard
  9
$CMLJUST
 70
     0
  9
$CMLSCALE
 40
1.0
  9
$PROXYGRAPHICS
 70
     1
  9
$MEASUREMENT
 70
     0
  9
$CELWEIGHT
370
    -1
  9
$ENDCAPS
280
     0
  9
$JOINSTYLE
280
     0
  9
$LWDISPLAY
290
     0
  9
$INSUNITS
 70
     0
  9
$HYPERLINKBASE
  1

  9
$STYLESHEET
  1
monochrome1.ctb
  9
$XEDIT
290
     1
  9
$CEPSNTYPE
380
     0
  9
$PSTYLEMODE
290
     1
  9
$FINGERPRINTGUID
  2
{CF1A4752-A575-11D7-B632-000102183313}
  9
$VERSIONGUID
  2
{FB407152-326D-4C4E-BBDE-1DDF8F1A0962}
  9
$EXTNAMES
290
     1
  9
$PSVPSCALE
 40
0.0
  9
$OLESTARTUP
290
     0
  9
$SORTENTS
280
    96
  9
$INDEXCTL
280
     0
  9
$HIDETEXT
280
     0
  9
$XCLIPFRAME
290
     0
  9
$HALOGAP
280
     0
  9
$OBSCOLOR
 70
   257
  9
$OBSLTYPE
280
     0
  9
$INTERSECTIONDISPLAY
280
     0
  9
$INTERSECTIONCOLOR
 70
   257
  9
$DIMASSOC
280
     1
  9
$PROJECTNAME
  1

  0
ENDSEC
  0
SECTION
  2
CLASSES
  0
CLASS
  1
ACDBDICTIONARYWDFLT
  2
AcDbDictionaryWithDefault
  3
ObjectDBX Classes
 90
        0
 91
        1
280
     0
281
     0
  0
CLASS
  1
DICTIONARYVAR
  2
AcDbDictionaryVar
  3
ObjectDBX Classes
 90
        0
 91
        8
280
     0
281
     0
  0
CLASS
  1
SORTENTSTABLE
  2
AcDbSortentsTable
  3
ObjectDBX Classes
 90
        0
 91
        0
280
     0
281
     0
  0
CLASS
  1
MATERIAL
  2
AcDbMaterial
  3
ObjectDBX Classes
 90
     1153
 91
        3
280
     0
281
     0
  0
CLASS
  1
VISUALSTYLE
  2
AcDbVisualStyle
  3
ObjectDBX Classes
 90
     4095
 91
       24
280
     0
281
     0
  0
CLASS
  1
TABLESTYLE
  2
AcDbTableStyle
  3
ObjectDBX Classes
 90
     4095
 91
        1
280
     0
281
     0
  0
CLASS
  1
SCALE
  2
AcDbScale
  3
ObjectDBX Classes
 90
     1153
 91
       17
280
     0
281
     0
  0
CLASS
  1
MLEADERSTYLE
  2
AcDbMLeaderStyle
  3
ACDB_MLEADERSTYLE_CLASS
 90
     4095
 91
        1
280
     0
281
     0
  0
CLASS
  1
ACDBSECTIONVIEWSTYLE
  2
AcDbSectionViewStyle
  3
ObjectDBX Classes
 90
     1025
 91
        1
280
     0
281
     0
  0
CLASS
  1
ACDBDETAILVIEWSTYLE
  2
AcDbDetailViewStyle
  3
ObjectDBX Classes
 90
     1025
 91
        1
280
     0
281
     0
  0
CLASS
  1
CELLSTYLEMAP
  2
AcDbCellStyleMap
  3
ObjectDBX Classes
 90
     1152
 91
        3
280
     0
281
     0
  0
ENDSEC
  0
SECTION
  2
TABLES
  0
TABLE
  2
VPORT
  5
1058
102
{ACAD_XDICTIONARY
360
33FB
102
}
330
0
100
AcDbSymbolTable
 70
     1
  0
VPORT
  5
3328
330
1058
100
AcDbSymbolTableRecord
100
AcDbViewportTableRecord
  2
*Active
 70
     0
 10
0.0
 20
0.0
 11
1.0
 21
1.0
 12
420.0000078235277
 22
297.0000055323517
 13
0.0
 23
0.0
 14
1.0
 24
1.0
 15
10.0
 25
10.0
 16
0.0
 26
0.0
 36
1.0
 17
0.0
 27
0.0
 37
0.0
 40
598.4170794623819
 41
1.852941176470588
 42
50.0
 43
0.0
 44
0.0
 50
0.0
 51
0.0
 71
     0
 72
  1500
 73
     1
 74
     0
 75
     0
 76
     0
 77
     0
 78
     0
281
     0
 65
     1
110
0.0
120
0.0
130
0.0
111
1.0
121
0.0
131
0.0
112
0.0
122
1.0
132
0.0
 79
     0
146
0.0
1001
ACAD_NAV_VCDISPLAY
1070
     3
  0
ENDTAB
  0
TABLE
  2
LTYPE
  5
1055
330
0
100
AcDbSymbolTable
 70
     6
  0
LTYPE
  5
1063
330
1055
100
AcDbSymbolTableRecord
100
AcDbLinetypeTableRecord
  2
ByBlock
 70
     0
  3

 72
    65
 73
     0
 40
0.0
  0
LTYPE
  5
1064
330
1055
100
AcDbSymbolTableRecord
100
AcDbLinetypeTableRecord
  2
ByLayer
 70
     0
  3

 72
    65
 73
     0
 40
0.0
  0
LTYPE
  5
1065
330
1055
100
AcDbSymbolTableRecord
100
AcDbLinetypeTableRecord
  2
AUSGEZOGEN
 70
     0
  3
Ausgezogene Linie
 72
    65
 73
     0
 40
0.0
  0
LTYPE
  5
1088
330
1055
100
AcDbSymbolTableRecord
100
AcDbLinetypeTableRecord
  2
STRICHPUNKT
 70
     0
  3
__ . __ . __ . __ . __ . __ . __ . __ . __ . __
 72
    65
 73
     4
 40
1.0
 49
0.5
 74
     0
 49
-0.25
 74
     0
 49
0.0
 74
     0
 49
-0.25
 74
     0
  0
LTYPE
  5
1089
330
1055
100
AcDbSymbolTableRecord
100
AcDbLinetypeTableRecord
  2
CONTINUOUS
 70
     0
  3
Solid line
 72
    65
 73
     0
 40
0.0
  0
LTYPE
  5
320A
330
1055
100
AcDbSymbolTableRecord
100
AcDbLinetypeTableRecord
  2
VERDECKT
 70
     0
  3
_ _ _ _ _ _ _ _ _ _ _ _ _ _ _ _ _ _ _ _ _ _ _
 72
    65
 73
     2
 40
0.375
 49
0.25
 74
     0
 49
-0.125
 74
     0
  0
LTYPE
  5
3372
330
1055
100
AcDbSymbolTableRecord
100
AcDbLinetypeTableRecord
  2
PHANTOM2
 70
     0
  3
Phantom (.5x) ___ _ _ ___ _ _ ___ _ _ ___ _ _
 72
    65
 73
     6
 40
1.25
 49
0.625
 74
     0
 49
-0.125
 74
     0
 49
0.125
 74
     0
 49
-0.125
 74
     0
 49
0.125
 74
     0
 49
-0.125
 74
     0
  0
ENDTAB
  0
TABLE
  2
LAYER
  5
1052
102
{ACAD_XDICTIONARY
360
21FF
102
}
330
0
100
AcDbSymbolTable
 70
    10
  0
LAYER
  5
1060
102
{ACAD_XDICTIONARY
360
337C
102
}
330
1052
100
AcDbSymbolTableRecord
100
AcDbLayerTableRecord
  2
0
 70
     0
 62
     7
  6
AUSGEZOGEN
370
    -3
390
105F
  0
LAYER
  5
108D
102
{ACAD_XDICTIONARY
360
337E
102
}
330
1052
100
AcDbSymbolTableRecord
100
AcDbLayerTableRecord
  2
VOLL
 70
     0
 62
     1
  6
AUSGEZOGEN
370
    -3
390
105F
  0
LAYER
  5
108E
102
{ACAD_XDICTIONARY
360
3380
102
}
330
1052
100
AcDbSymbolTableRecord
100
AcDbLayerTableRecord
  2
HILF
 70
     0
 62
     2
  6
AUSGEZOGEN
370
    -3
390
105F
  0
LAYER
  5
108F
102
{ACAD_XDICTIONARY
360
3382
102
}
330
1052
100
AcDbSymbolTableRecord
100
AcDbLayerTableRecord
  2
MITTEL
 70
     0
 62
     2
  6
STRICHPUNKT
370
    -3
390
105F
  0
LAYER
  5
1090
102
{ACAD_XDICTIONARY
360
3384
102
}
330
1052
100
AcDbSymbolTableRecord
100
AcDbLayerTableRecord
  2
BEM
 70
     0
 62
     7
  6
AUSGEZOGEN
370
    -3
390
105F
  0
LAYER
  5
1091
102
{ACAD_XDICTIONARY
360
3386
102
}
330
1052
100
AcDbSymbolTableRecord
100
AcDbLayerTableRecord
  2
STEMPEL
 70
     0
 62
     3
  6
AUSGEZOGEN
370
    -3
390
105F
  0
LAYER
  5
1092
102
{ACAD_XDICTIONARY
360
3388
102
}
330
1052
100
AcDbSymbolTableRecord
100
AcDbLayerTableRecord
  2
TEXT
 70
     0
 62
     7
  6
AUSGEZOGEN
370
    -3
390
105F
  0
LAYER
  5
1093
102
{ACAD_XDICTIONARY
360
338A
102
}
330
1052
100
AcDbSymbolTableRecord
100
AcDbLayerTableRecord
  2
SCHRAFF
 70
     0
 62
     7
  6
AUSGEZOGEN
370
    -3
390
105F
  0
LAYER
  5
1094
330
1052
100
AcDbSymbolTableRecord
100
AcDbLayerTableRecord
  2
DEFPOINTS
 70
     0
 62
     7
  6
AUSGEZOGEN
290
     0
370
    -3
390
105F
  0
LAYER
  5
320B
102
{ACAD_XDICTIONARY
360
338C
102
}
330
1052
100
AcDbSymbolTableRecord
100
AcDbLayerTableRecord
  2
VERDECKT
 70
     0
 62
     6
  6
VERDECKT
370
    -3
390
105F
  0
ENDTAB
  0
TABLE
  2
STYLE
  5
1053
330
0
100
AcDbSymbolTable
 70
     3
  0
STYLE
  5
1061
330
1053
100
AcDbSymbolTableRecord
100
AcDbTextStyleTableRecord
  2
STANDARD
 70
     0
 40
0.0
 41
1.0
 50
0.0
 71
     0
 42
3.5
  3
txt
  4

  0
STYLE
  5
1087
330
1053
100
AcDbSymbolTableRecord
100
AcDbTextStyleTableRecord
  2
GREEKS
 70
     0
 40
0.0
 41
0.8
 50
0.0
 71
     0
 42
2.5
  3
SIMPLEX.shx
  4

  0
ENDTAB
  0
TABLE
  2
VIEW
  5
1056
330
0
100
AcDbSymbolTable
 70
     0
  0
ENDTAB
  0
TABLE
  2
UCS
  5
1057
330
0
100
AcDbSymbolTable
 70
     0
  0
ENDTAB
  0
TABLE
  2
APPID
  5
1059
330
0
100
AcDbSymbolTable
 70
     4
  0
APPID
  5
1062
330
1059
100
AcDbSymbolTableRecord
100
AcDbRegAppTableRecord
  2
ACAD
 70
     0
  0
APPID
  5
337A
330
1059
100
AcDbSymbolTableRecord
100
AcDbRegAppTableRecord
  2
ACAD_EXEMPT_FROM_CAD_STANDARDS
 70
     0
  0
APPID
  5
3395
330
1059
100
AcDbSymbolTableRecord
100
AcDbRegAppTableRecord
  2
ACAD_NAV_VCDISPLAY
 70
     0
  0
APPID
  5
3433
330
1059
100
AcDbSymbolTableRecord
100
AcDbRegAppTableRecord
  2
ACAD_MLEADERVER
 70
     0
  0
ENDTAB
  0
TABLE
  2
DIMSTYLE
  5
105A
330
0
100
AcDbSymbolTable
 70
     2
100
AcDbDimStyleTable
 71
     1
340
108C
  0
DIMSTYLE
105
108C
102
{ACAD_REACTORS
330
22DB
330
2424
330
2434
330
2915
330
3134
330
32A3
102
}
330
105A
100
AcDbSymbolTableRecord
100
AcDbDimStyleTableRecord
  2
STANDARD
 70
     0
 40
2.0
 41
3.5
 42
1.0
 43
1.0
 44
1.0
 48
2.0
 73
     0
 74
     0
 77
     1
 78
     8
 79
     2
140
3.5
146
0.5
147
1.199999999999999
172
     1
176
   256
178
     1
271
     2
272
     2
340
1087
371
    -1
  0
ENDTAB
  0
TABLE
  2
BLOCK_RECORD
  5
1051
330
0
100
AcDbSymbolTable
 70
     8
  0
BLOCK_RECORD
  5
106E
102
{ACAD_XDICTIONARY
360
1232
102
}
330
1051
100
AcDbSymbolTableRecord
100
AcDbBlockTableRecord
  2
*Model_Space
340
1071
  0
BLOCK_RECORD
  5
106A
102
{ACAD_XDICTIONARY
360
1234
102
}
330
1051
100
AcDbSymbolTableRecord
100
AcDbBlockTableRecord
  2
*Paper_Space
340
106D
  0
BLOCK_RECORD
  5
1072
330
1051
100
AcDbSymbolTableRecord
100
AcDbBlockTableRecord
  2
LOGO
340
0
102
{BLKREFS
331
322
102
}
  0
BLOCK_RECORD
  5
22FD
330
1051
100
AcDbSymbolTableRecord
100
AcDbBlockTableRecord
  2
*D1
340
0
  0
BLOCK_RECORD
  5
2425
330
1051
100
AcDbSymbolTableRecord
100
AcDbBlockTableRecord
  2
*D2
340
0
  0
BLOCK_RECORD
  5
2435
330
1051
100
AcDbSymbolTableRecord
100
AcDbBlockTableRecord
  2
*D3
340
0
  0
BLOCK_RECORD
  5
2916
330
1051
100
AcDbSymbolTableRecord
100
AcDbBlockTableRecord
  2
*D4
340
0
  0
BLOCK_RECORD
  5
3135
330
1051
100
AcDbSymbolTableRecord
100
AcDbBlockTableRecord
  2
*D5
340
0
  0
BLOCK_RECORD
  5
32A4
330
1051
100
AcDbSymbolTableRecord
100
AcDbBlockTableRecord
  2
*D6
340
0
  0
ENDTAB
  0
ENDSEC
  0
SECTION
  2
BLOCKS
  0
BLOCK
  5
1097
330
106E
100
AcDbEntity
  8
0
100
AcDbBlockBegin
  2
*Model_Space
 70
     0
 10
0.0
 20
0.0
 30
0.0
  3
*Model_Space
  1

  0
ENDBLK
  5
1098
330
106E
100
AcDbEntity
  8
0
100
AcDbBlockEnd
  0
BLOCK
  5
1095
330
106A
100
AcDbEntity
 67
     1
  8
0
100
AcDbBlockBegin
  2
*Paper_Space
 70
     0
 10
0.0
 20
0.0
 30
0.0
  3
*Paper_Space
  1

  0
ENDBLK
  5
1096
330
106A
100
AcDbEntity
 67
     1
  8
0
100
AcDbBlockEnd
  0
BLOCK
  5
43
330
1072
100
AcDbEntity
  8
0
100
AcDbBlockBegin
  2
LOGO
 70
     0
 10
0.0
 20
0.0
 30
0.0
  3
LOGO
  1

  0
ARC
  5
44
330
1072
100
AcDbEntity
  8
0
100
AcDbCircle
 10
11.59973089678112
 20
-9.271599258481501
 30
0.0
 40
4.5
100
AcDbArc
 50
270.0
 51
231.0575587310159
  0
LINE
  5
45
330
1072
100
AcDbEntity
  8
0
100
AcDbLine
 10
3.599730896781125
 20
-4.771599258481529
 30
0.0
 11
3.599730896781153
 21
-11.77159925848133
 31
0.0
  0
LINE
  5
46
330
1072
100
AcDbEntity
  8
0
100
AcDbLine
 10
2.599730896781125
 20
-4.771599258481529
 30
0.0
 11
2.599730896781153
 21
-11.77159925848133
 31
0.0
  0
CIRCLE
  5
47
330
1072
100
AcDbEntity
  8
0
100
AcDbCircle
 10
11.59973089678112
 20
-9.271599258481501
 30
0.0
 40
3.5
  0
ARC
  5
48
330
1072
100
AcDbEntity
  8
0
100
AcDbCircle
 10
31.59973089678115
 20
-9.271599258481472
 30
0.0
 40
4.5
100
AcDbArc
 50
270.0
 51
231.0575587310182
  0
LINE
  5
49
330
1072
100
AcDbEntity
  8
0
100
AcDbLine
 10
17.59973089678112
 20
-4.771599258481472
 30
0.0
 11
17.59973089678115
 21
-13.77159925848147
 31
0.0
  0
ARC
  5
4A
330
1072
100
AcDbEntity
  8
0
100
AcDbCircle
 10
22.59973089678116
 20
-7.271599258481472
 30
0.0
 40
2.5
100
AcDbArc
 50
293.1161887722295
 51
90.0
  0
CIRCLE
  5
4B
330
1072
100
AcDbEntity
  8
0
100
AcDbCircle
 10
31.59973089678115
 20
-9.271599258481472
 30
0.0
 40
3.5
  0
ARC
  5
4C
330
1072
100
AcDbEntity
  8
0
100
AcDbCircle
 10
4.599730896781153
 20
-11.77159925848133
 30
0.0
 40
1.0
100
AcDbArc
 50
180.0
 51
270.0
  0
ARC
  5
4D
330
1072
100
AcDbEntity
  8
0
100
AcDbCircle
 10
4.599730896781153
 20
-11.77159925848133
 30
0.0
 40
2.0
100
AcDbArc
 50
179.9999999999992
 51
270.0
  0
LINE
  5
4E
330
1072
100
AcDbEntity
  8
0
100
AcDbLine
 10
11.59973089678115
 20
-13.77159925848144
 30
0.0
 11
4.599730896781153
 21
-13.77159925848147
 31
0.0
  0
LINE
  5
4F
330
1072
100
AcDbEntity
  8
0
100
AcDbLine
 10
8.771303772034769
 20
-12.77159925848136
 30
0.0
 11
4.599730896781153
 21
-12.77159925848133
 31
0.0
  0
LINE
  5
50
330
1072
100
AcDbEntity
  8
0
100
AcDbLine
 10
31.59973089678115
 20
-13.77159925848147
 30
0.0
 11
23.6715276665056
 21
-13.77159925848144
 31
0.0
  0
LINE
  5
51
330
1072
100
AcDbEntity
  8
0
100
AcDbLine
 10
23.56565672307022
 20
-9.51278021337896
 30
0.0
 11
24.4388546544846
 21
-12.77159925848144
 31
0.0
  0
LINE
  5
52
330
1072
100
AcDbEntity
  8
0
100
AcDbLine
 10
22.59973089678116
 20
-9.771599258481472
 30
0.0
 11
18.59973089678112
 21
-9.771599258481472
 31
0.0
  0
LINE
  5
53
330
1072
100
AcDbEntity
  8
0
100
AcDbLine
 10
18.59973089678115
 20
-13.77159925848144
 30
0.0
 11
17.59973089678115
 21
-13.77159925848144
 31
0.0
  0
LINE
  5
54
330
1072
100
AcDbEntity
  8
0
100
AcDbLine
 10
18.59973089678115
 20
-9.771599258481472
 30
0.0
 11
18.59973089678115
 21
-13.77159925848144
 31
0.0
  0
LINE
  5
55
330
1072
100
AcDbEntity
  8
0
100
AcDbLine
 10
22.59973089678116
 20
-9.771599258481472
 30
0.0
 11
23.67152766650562
 21
-13.77159925848147
 31
0.0
  0
ARC
  5
56
330
1072
100
AcDbEntity
  8
0
100
AcDbCircle
 10
22.59973089678116
 20
-7.271599258481472
 30
0.0
 40
2.5
100
AcDbArc
 50
270.0
 51
270.0000000000007
  0
LINE
  5
57
330
1072
100
AcDbEntity
  8
0
100
AcDbLine
 10
28.77130377203494
 20
-12.77159925848147
 30
0.0
 11
24.43885465448463
 21
-12.77159925848144
 31
0.0
  0
LINE
  5
58
330
1072
100
AcDbEntity
  8
0
100
AcDbLine
 10
3.599730896781125
 20
-4.771599258481472
 30
0.0
 11
2.599730896781125
 21
-4.771599258481472
 31
0.0
  0
LINE
  5
59
330
1072
100
AcDbEntity
  8
0
100
AcDbLine
 10
22.59973089678116
 20
-8.771599258481472
 30
0.0
 11
18.59973089678115
 21
-8.771599258481472
 31
0.0
  0
LINE
  5
5A
330
1072
100
AcDbEntity
  8
0
100
AcDbLine
 10
22.59973089678116
 20
-5.771599258481472
 30
0.0
 11
18.59973089678115
 21
-5.771599258481472
 31
0.0
  0
LINE
  5
5B
330
1072
100
AcDbEntity
  8
0
100
AcDbLine
 10
22.59973089678116
 20
-4.771599258481472
 30
0.0
 11
17.59973089678115
 21
-4.771599258481472
 31
0.0
  0
LINE
  5
5C
330
1072
100
AcDbEntity
  8
0
100
AcDbLine
 10
18.59973089678115
 20
-5.771599258481472
 30
0.0
 11
18.59973089678115
 21
-8.771599258481472
 31
0.0
  0
ARC
  5
5D
330
1072
100
AcDbEntity
  8
0
100
AcDbCircle
 10
22.59973089678116
 20
-7.271599258481472
 30
0.0
 40
1.5
100
AcDbArc
 50
270.0
 51
90.0
  0
ENDBLK
  5
5E
330
1072
100
AcDbEntity
  8
0
100
AcDbBlockEnd
  0
BLOCK
  5
2307
330
22FD
100
AcDbEntity
  8
0
100
AcDbBlockBegin
  2
*D1
 70
     1
 10
0.0
 20
0.0
 30
0.0
  3
*D1
  1

  0
LINE
  5
32D9
330
22FD
100
AcDbEntity
  8
BEM
 62
     0
440
 16777216
370
    -2
100
AcDbLine
 10
799.7972658202248
 20
321.6994525199702
 30
0.0
 11
825.8473512817454
 21
320.3342253907986
 31
0.0
  0
LINE
  5
32DA
330
22FD
100
AcDbEntity
  8
BEM
 62
     0
440
 16777216
370
    -2
100
AcDbLine
 10
795.9767410144902
 20
248.7994964828865
 30
0.0
 11
822.0268264760109
 21
247.4342693537149
 31
0.0
  0
LINE
  5
32DB
330
22FD
100
AcDbEntity
  8
BEM
440
 16777216
100
AcDbLine
 10
823.4837405185356
 20
313.4484905600025
 30
0.0
 11
820.3959191002022
 21
254.5293480094827
 31
0.0
  0
SOLID
  5
32DC
330
22FD
100
AcDbEntity
  8
BEM
440
 16777216
100
AcDbTrace
 10
822.3186727279886
 20
313.5095491756192
 30
0.0
 11
824.6488083090826
 21
313.3874319443857
 31
0.0
 12
823.8500922122362
 22
320.4388973032845
 32
0.0
 13
823.8500922122362
 23
320.4388973032845
 33
0.0
  0
SOLID
  5
32DD
330
22FD
100
AcDbEntity
  8
BEM
440
 16777216
100
AcDbTrace
 10
819.2308513096552
 20
254.5904066250995
 30
0.0
 11
821.5609868907492
 21
254.468289393866
 31
0.0
 12
820.0295674065017
 22
247.5389412662007
 32
0.0
 13
820.0295674065017
 23
247.5389412662007
 33
0.0
  0
MTEXT
  5
32DE
330
22FD
100
AcDbEntity
  8
BEM
 62
     1
440
 16777216
100
AcDbMText
 10
815.4487378334643
 20
284.3291030003217
 30
0.0
 40
7.0
 41
0.0
 71
     5
 72
     1
  1
\A1;%%c73
  7
GREEKS
 11
0.0523359562429389
 21
0.9986295347545741
 31
0.0
 73
     1
 44
1.0
  0
POINT
  5
32DF
330
22FD
100
AcDbEntity
  8
DEFPOINTS
 62
     0
440
 16777216
100
AcDbPoint
 10
797.8000067507155
 20
321.8041244324561
 30
0.0
  0
POINT
  5
32E0
330
22FD
100
AcDbEntity
  8
DEFPOINTS
 62
     0
440
 16777216
100
AcDbPoint
 10
793.979481944981
 20
248.9041683953724
 30
0.0
  0
POINT
  5
32E1
330
22FD
100
AcDbEntity
  8
DEFPOINTS
 62
     0
440
 16777216
100
AcDbPoint
 10
820.0295674065017
 20
247.5389412662007
 30
0.0
  0
ENDBLK
  5
2308
330
22FD
100
AcDbEntity
  8
0
100
AcDbBlockEnd
  0
BLOCK
  5
242F
330
2425
100
AcDbEntity
  8
0
100
AcDbBlockBegin
  2
*D2
 70
     1
 10
0.0
 20
0.0
 30
0.0
  3
*D2
  1

  0
LINE
  5
2B3F
330
2425
100
AcDbEntity
  8
BEM
 62
     0
440
 16777216
370
    -2
100
AcDbLine
 10
420.5378357475758
 20
410.6241708667291
 30
0.0
 11
431.2202136838855
 21
399.9417929304196
 31
0.0
  0
LINE
  5
2B40
330
2425
100
AcDbEntity
  8
BEM
 62
     0
440
 16777216
370
    -2
100
AcDbLine
 10
346.2916237229884
 20
336.3779588421416
 30
0.0
 11
356.974001659298
 21
325.695580905832
 31
0.0
  0
LINE
  5
2B41
330
2425
100
AcDbEntity
  8
BEM
440
 16777216
100
AcDbLine
 10
424.8562526532065
 20
396.4062590244868
 30
0.0
 11
360.5095355652307
 21
332.0595419365109
 31
0.0
  0
SOLID
  5
2B42
330
2425
100
AcDbEntity
  8
BEM
440
 16777216
100
AcDbTrace
 10
424.0312947418222
 20
397.2312169358712
 30
0.0
 11
425.6812105645908
 21
395.5813011131025
 31
0.0
 12
429.8060001215124
 22
401.3560064927926
 32
0.0
 13
429.8060001215124
 23
401.3560064927926
 33
0.0
  0
SOLID
  5
2B43
330
2425
100
AcDbEntity
  8
BEM
440
 16777216
100
AcDbTrace
 10
359.6845776538464
 20
332.8844998478952
 30
0.0
 11
361.334493476615
 21
331.2345840251266
 31
0.0
 12
355.5597880969249
 22
327.109794468205
 32
0.0
 13
355.5597880969249
 23
327.109794468205
 33
0.0
  0
MTEXT
  5
2B44
330
2425
100
AcDbEntity
  8
BEM
 62
     1
440
 16777216
100
AcDbMText
 10
388.5109641002181
 20
368.4048304894996
 30
0.0
 40
7.0
 41
0.0
 71
     5
 72
     1
  1
\A1;105
  7
GREEKS
 11
0.7071067811865472
 21
0.7071067811865479
 31
0.0
 73
     1
 44
1.0
  0
POINT
  5
2B45
330
2425
100
AcDbEntity
  8
DEFPOINTS
 62
     0
440
 16777216
100
AcDbPoint
 10
419.1236221852027
 20
412.0383844291023
 30
0.0
  0
POINT
  5
2B46
330
2425
100
AcDbEntity
  8
DEFPOINTS
 62
     0
440
 16777216
100
AcDbPoint
 10
344.8774101606152
 20
337.7921724045147
 30
0.0
  0
POINT
  5
2B47
330
2425
100
AcDbEntity
  8
DEFPOINTS
 62
     0
440
 16777216
100
AcDbPoint
 10
355.5597880969249
 20
327.109794468205
 30
0.0
  0
ENDBLK
  5
2430
330
2425
100
AcDbEntity
  8
0
100
AcDbBlockEnd
  0
BLOCK
  5
2444
330
2435
100
AcDbEntity
  8
0
100
AcDbBlockBegin
  2
*D3
 70
     1
 10
0.0
 20
0.0
 30
0.0
  3
*D3
  1

  0
LINE
  5
32CB
330
2435
100
AcDbEntity
  8
BEM
 62
     0
440
 16777216
370
    -2
100
AcDbLine
 10
332.2904809791745
 20
309.7551698428882
 30
0.0
 11
473.29022153219
 21
309.7551698428883
 31
0.0
  0
ARC
  5
32CC
330
2435
100
AcDbEntity
  8
BEM
440
 16777216
100
AcDbCircle
 10
330.2904809791745
 20
309.7551698428882
 30
0.0
 40
140.9997405530156
100
AcDbArc
 50
351.3087073873745
 51
356.9999999999998
  0
LINE
  5
32CD
330
2435
100
AcDbEntity
  8
BEM
440
 16777216
100
AcDbLine
 10
469.6711021790267
 20
288.4486152185247
 30
0.0
 11
467.9786635202255
 21
277.3772263541502
 31
0.0
  0
ARC
  5
32CE
330
2435
100
AcDbEntity
  8
BEM
440
 16777216
100
AcDbCircle
 10
330.2904809791745
 20
309.7551698428882
 30
0.0
 40
140.9997405530156
100
AcDbArc
 50
351.3104624977277
 51
354.1552312488637
  0
ARC
  5
32CF
330
2435
100
AcDbEntity
  8
BEM
440
 16777216
100
AcDbCircle
 10
330.2904809791745
 20
309.7551698428882
 30
0.0
 40
140.9997405530156
100
AcDbArc
 50
2.844768751136115
 51
5.68953750227215
  0
ARC
  5
32D0
330
2435
100
AcDbEntity
  8
BEM
440
 16777216
100
AcDbCircle
 10
330.2904809791745
 20
309.7551698428882
 30
0.0
 40
140.9997405530156
100
AcDbArc
 50
356.9999999999998
 51
0.0000000000000799
  0
SOLID
  5
32D1
330
2435
100
AcDbEntity
  8
BEM
440
 16777216
100
AcDbTrace
 10
469.3940332709245
 20
295.4866146439738
 30
0.0
 11
471.7204195790118
 21
295.3066946895805
 31
0.0
 12
471.096986288148
 22
302.3758135910387
 32
0.0
 13
471.096986288148
 23
302.3758135910387
 33
0.0
  0
SOLID
  5
32D2
330
2435
100
AcDbEntity
  8
BEM
440
 16777216
100
AcDbTrace
 10
472.2827695268987
 20
316.7819727851453
 30
0.0
 11
469.9501551675338
 21
316.7240530568207
 31
0.0
 12
471.29022153219
 22
309.7551698428883
 32
0.0
 13
471.29022153219
 23
309.7551698428883
 33
0.0
  0
MTEXT
  5
32D3
330
2435
100
AcDbEntity
  8
BEM
 62
     1
440
 16777216
100
AcDbMText
 10
462.9926333585717
 20
283.804473294099
 30
0.0
 40
7.0
 41
0.0
 71
     5
 72
     1
  1
\A1;3°
  7
GREEKS
 11
0.1511105945358277
 21
0.9885168628905775
 31
0.0
 73
     1
 44
1.0
  0
POINT
  5
32D4
330
2435
100
AcDbEntity
  8
DEFPOINTS
 62
     0
440
 16777216
100
AcDbPoint
 10
471.2687465887562
 20
307.2943850632053
 30
0.0
  0
POINT
  5
32D5
330
2435
100
AcDbEntity
  8
DEFPOINTS
 62
     0
440
 16777216
100
AcDbPoint
 10
330.2904809791744
 20
309.7551698428882
 30
0.0
  0
POINT
  5
32D6
330
2435
100
AcDbEntity
  8
DEFPOINTS
 62
     0
440
 16777216
100
AcDbPoint
 10
325.2973333054015
 20
310.016849624103
 30
0.0
  0
POINT
  5
32D7
330
2435
100
AcDbEntity
  8
DEFPOINTS
 62
     0
440
 16777216
100
AcDbPoint
 10
819.6189530089158
 20
284.1105512838442
 30
0.0
  0
POINT
  5
32D8
330
2435
100
AcDbEntity
  8
DEFPOINTS
 62
     0
440
 16777216
100
AcDbPoint
 10
325.2904809791746
 20
309.7551698428882
 30
0.0
  0
ENDBLK
  5
2445
330
2435
100
AcDbEntity
  8
0
100
AcDbBlockEnd
  0
BLOCK
  5
2920
330
2916
100
AcDbEntity
  8
0
100
AcDbBlockBegin
  2
*D4
 70
     1
 10
0.0
 20
0.0
 30
0.0
  3
*D4
  1

  0
LINE
  5
2BAD
330
2916
100
AcDbEntity
  8
BEM
 62
     0
440
 16777216
370
    -2
100
AcDbLine
 10
69.877410160615
 20
335.7921724045148
 30
0.0
 11
69.877410160615
 21
256.9927941944186
 31
0.0
  0
LINE
  5
2BAE
330
2916
100
AcDbEntity
  8
BEM
 62
     0
440
 16777216
370
    -2
100
AcDbLine
 10
344.8774101606152
 20
335.7921724045147
 30
0.0
 11
344.8774101606152
 21
256.9927941944186
 31
0.0
  0
LINE
  5
2BAF
330
2916
100
AcDbEntity
  8
BEM
440
 16777216
100
AcDbLine
 10
76.877410160615
 20
258.9927941944186
 30
0.0
 11
337.8774101606152
 21
258.9927941944186
 31
0.0
  0
SOLID
  5
2BB0
330
2916
100
AcDbEntity
  8
BEM
440
 16777216
100
AcDbTrace
 10
76.877410160615
 20
260.1594608610853
 30
0.0
 11
76.877410160615
 21
257.8261275277519
 31
0.0
 12
69.877410160615
 22
258.9927941944186
 32
0.0
 13
69.877410160615
 23
258.9927941944186
 33
0.0
  0
SOLID
  5
2BB1
330
2916
100
AcDbEntity
  8
BEM
440
 16777216
100
AcDbTrace
 10
337.8774101606152
 20
260.1594608610853
 30
0.0
 11
337.8774101606152
 21
257.8261275277519
 31
0.0
 12
344.8774101606152
 22
258.9927941944186
 32
0.0
 13
344.8774101606152
 23
258.9927941944186
 33
0.0
  0
MTEXT
  5
2BB2
330
2916
100
AcDbEntity
  8
BEM
 62
     1
440
 16777216
100
AcDbMText
 10
207.3774101606151
 20
264.8927941944186
 30
0.0
 40
7.0
 41
0.0
 71
     5
 72
     1
  1
\A1;275
  7
GREEKS
 73
     1
 44
1.0
  0
POINT
  5
2BB3
330
2916
100
AcDbEntity
  8
DEFPOINTS
 62
     0
440
 16777216
100
AcDbPoint
 10
69.877410160615
 20
337.7921724045148
 30
0.0
  0
POINT
  5
2BB4
330
2916
100
AcDbEntity
  8
DEFPOINTS
 62
     0
440
 16777216
100
AcDbPoint
 10
344.8774101606152
 20
337.7921724045147
 30
0.0
  0
POINT
  5
2BB5
330
2916
100
AcDbEntity
  8
DEFPOINTS
 62
     0
440
 16777216
100
AcDbPoint
 10
344.8774101606152
 20
258.9927941944186
 30
0.0
  0
ENDBLK
  5
2921
330
2916
100
AcDbEntity
  8
0
100
AcDbBlockEnd
  0
BLOCK
  5
313F
330
3135
100
AcDbEntity
  8
0
100
AcDbBlockBegin
  2
*D5
 70
     1
 10
0.0
 20
0.0
 30
0.0
  3
*D5
  1

  0
LINE
  5
331A
330
3135
100
AcDbEntity
  8
BEM
 62
     0
440
 16777216
370
    -2
100
AcDbLine
 10
204.877410160615
 20
372.7921724045144
 30
0.0
 11
204.877410160615
 21
461.1595911493536
 31
0.0
  0
LINE
  5
331B
330
3135
100
AcDbEntity
  8
BEM
 62
     0
440
 16777216
370
    -2
100
AcDbLine
 10
804.8774101606154
 20
286.8831228077281
 30
0.0
 11
804.8774101606154
 21
461.1595911493536
 31
0.0
  0
LINE
  5
331C
330
3135
100
AcDbEntity
  8
BEM
440
 16777216
100
AcDbLine
 10
211.877410160615
 20
459.1595911493536
 30
0.0
 11
797.8774101606155
 21
459.1595911493536
 31
0.0
  0
SOLID
  5
331D
330
3135
100
AcDbEntity
  8
BEM
440
 16777216
100
AcDbTrace
 10
211.877410160615
 20
460.3262578160204
 30
0.0
 11
211.877410160615
 21
457.9929244826869
 31
0.0
 12
204.877410160615
 22
459.1595911493536
 32
0.0
 13
204.877410160615
 23
459.1595911493536
 33
0.0
  0
SOLID
  5
331E
330
3135
100
AcDbEntity
  8
BEM
440
 16777216
100
AcDbTrace
 10
797.8774101606155
 20
460.3262578160204
 30
0.0
 11
797.8774101606155
 21
457.9929244826869
 31
0.0
 12
804.8774101606154
 22
459.1595911493536
 32
0.0
 13
804.8774101606154
 23
459.1595911493536
 33
0.0
  0
MTEXT
  5
331F
330
3135
100
AcDbEntity
  8
BEM
 62
     1
440
 16777216
100
AcDbMText
 10
504.8774101606152
 20
465.0595911493536
 30
0.0
 40
7.0
 41
0.0
 71
     5
 72
     1
  1
\A1;600
  7
GREEKS
 73
     1
 44
1.0
  0
POINT
  5
3320
330
3135
100
AcDbEntity
  8
DEFPOINTS
 62
     0
440
 16777216
100
AcDbPoint
 10
204.877410160615
 20
370.7921724045144
 30
0.0
  0
POINT
  5
3321
330
3135
100
AcDbEntity
  8
DEFPOINTS
 62
     0
440
 16777216
100
AcDbPoint
 10
804.8774101606154
 20
284.8831228077281
 30
0.0
  0
POINT
  5
3322
330
3135
100
AcDbEntity
  8
DEFPOINTS
 62
     0
440
 16777216
100
AcDbPoint
 10
804.8774101606154
 20
459.1595911493536
 30
0.0
  0
ENDBLK
  5
3140
330
3135
100
AcDbEntity
  8
0
100
AcDbBlockEnd
  0
BLOCK
  5
32AE
330
32A4
100
AcDbEntity
  8
0
100
AcDbBlockBegin
  2
*D6
 70
     1
 10
0.0
 20
0.0
 30
0.0
  3
*D6
  1

  0
LINE
  5
32B0
330
32A4
100
AcDbEntity
  8
BEM
 62
     0
440
 16777216
370
    -2
100
AcDbLine
 10
144.877410160615
 20
282.7921724045147
 30
0.0
 11
55.76324281727739
 21
282.7921724045148
 31
0.0
  0
LINE
  5
32B1
330
32A4
100
AcDbEntity
  8
BEM
 62
     0
440
 16777216
370
    -2
100
AcDbLine
 10
67.877410160615
 20
340.7921724045148
 30
0.0
 11
55.7632428172774
 21
340.7921724045148
 31
0.0
  0
LINE
  5
32B2
330
32A4
100
AcDbEntity
  8
BEM
440
 16777216
100
AcDbLine
 10
57.76324281727738
 20
289.7921724045147
 30
0.0
 11
57.76324281727739
 21
333.7921724045148
 31
0.0
  0
SOLID
  5
32B3
330
32A4
100
AcDbEntity
  8
BEM
440
 16777216
100
AcDbTrace
 10
56.59657615061072
 20
289.7921724045147
 30
0.0
 11
58.92990948394405
 21
289.7921724045147
 31
0.0
 12
57.76324281727738
 22
282.7921724045148
 32
0.0
 13
57.76324281727738
 23
282.7921724045148
 33
0.0
  0
SOLID
  5
32B4
330
32A4
100
AcDbEntity
  8
BEM
440
 16777216
100
AcDbTrace
 10
56.59657615061073
 20
333.7921724045148
 30
0.0
 11
58.92990948394405
 21
333.7921724045148
 31
0.0
 12
57.7632428172774
 22
340.7921724045148
 32
0.0
 13
57.7632428172774
 23
340.7921724045148
 33
0.0
  0
MTEXT
  5
32B5
330
32A4
100
AcDbEntity
  8
BEM
 62
     1
440
 16777216
100
AcDbMText
 10
51.86324281727735
 20
311.7921724045148
 30
0.0
 40
7.0
 41
0.0
 71
     5
 72
     1
  1
\A1;58
  7
GREEKS
 11
0.0000000000000001
 21
1.0
 31
0.0
 73
     1
 44
1.0
  0
POINT
  5
32B6
330
32A4
100
AcDbEntity
  8
DEFPOINTS
 62
     0
440
 16777216
100
AcDbPoint
 10
146.877410160615
 20
282.7921724045147
 30
0.0
  0
POINT
  5
32B7
330
32A4
100
AcDbEntity
  8
DEFPOINTS
 62
     0
440
 16777216
100
AcDbPoint
 10
69.877410160615
 20
340.7921724045148
 30
0.0
  0
POINT
  5
32B8
330
32A4
100
AcDbEntity
  8
DEFPOINTS
 62
     0
440
 16777216
100
AcDbPoint
 10
57.7632428172774
 20
340.7921724045148
 30
0.0
  0
ENDBLK
  5
32AF
330
32A4
100
AcDbEntity
  8
0
100
AcDbBlockEnd
  0
ENDSEC
  0
SECTION
  2
ENTITIES
  0
LINE
  5
2DF
330
106E
100
AcDbEntity
  8
STEMPEL
100
AcDbLine
 10
830.0
 20
109.9999999999999
 30
0.0
 11
470.0
 21
109.9999999999999
 31
0.0
  0
LINE
  5
2E0
330
106E
100
AcDbEntity
  8
STEMPEL
100
AcDbLine
 10
566.0
 20
109.9999999999996
 30
0.0
 11
566.0
 21
10.0
 31
0.0
  0
LINE
  5
2E1
330
106E
100
AcDbEntity
  8
STEMPEL
100
AcDbLine
 10
650.0
 20
109.9999999999999
 30
0.0
 11
650.0
 21
10.0
 31
0.0
  0
LINE
  5
2E2
330
106E
100
AcDbEntity
  8
STEMPEL
100
AcDbLine
 10
752.0
 20
109.9999999999996
 30
0.0
 11
752.0
 21
40.0
 31
0.0
  0
LINE
  5
2E3
330
106E
100
AcDbEntity
  8
STEMPEL
100
AcDbLine
 10
565.9999999999997
 20
30.0
 30
0.0
 11
470.0
 21
30.0
 31
0.0
  0
LINE
  5
2E4
330
106E
100
AcDbEntity
  8
STEMPEL
100
AcDbLine
 10
830.0
 20
40.0
 30
0.0
 11
566.0
 21
40.0
 31
0.0
  0
LINE
  5
2E5
330
106E
100
AcDbEntity
  8
STEMPEL
100
AcDbLine
 10
830.0
 20
80.0
 30
0.0
 11
566.0
 21
79.99999999999977
 31
0.0
  0
LINE
  5
2E6
330
106E
100
AcDbEntity
  8
VOLL
100
AcDbLine
 10
484.0000000000001
 20
109.9999999999999
 30
0.0
 11
484.0
 21
10.0
 31
0.0
  0
LINE
  5
2E7
330
106E
100
AcDbEntity
  8
VOLL
100
AcDbLine
 10
524.0
 20
109.9999999999996
 30
0.0
 11
524.0
 21
10.0
 31
0.0
  0
LINE
  5
2E8
330
106E
100
AcDbEntity
  8
VOLL
100
AcDbLine
 10
544.0
 20
109.9999999999996
 30
0.0
 11
544.0
 21
10.0
 31
0.0
  0
LINE
  5
2E9
330
106E
100
AcDbEntity
  8
VOLL
100
AcDbLine
 10
584.0
 20
79.99999999999977
 30
0.0
 11
584.0
 21
40.0
 31
0.0
  0
LINE
  5
2EA
330
106E
100
AcDbEntity
  8
VOLL
100
AcDbLine
 10
610.0
 20
109.9999999999996
 30
0.0
 11
610.0
 21
40.0
 31
0.0
  0
LINE
  5
2EB
330
106E
100
AcDbEntity
  8
HILF
100
AcDbLine
 10
470.0000000000001
 20
99.99999999999989
 30
0.0
 11
566.0
 21
99.99999999999989
 31
0.0
  0
LINE
  5
2EC
330
106E
100
AcDbEntity
  8
HILF
100
AcDbLine
 10
470.0000000000001
 20
89.99999999999989
 30
0.0
 11
566.0
 21
89.99999999999989
 31
0.0
  0
LINE
  5
2ED
330
106E
100
AcDbEntity
  8
HILF
100
AcDbLine
 10
470.0000000000001
 20
79.99999999999977
 30
0.0
 11
566.0
 21
79.99999999999977
 31
0.0
  0
LINE
  5
2EE
330
106E
100
AcDbEntity
  8
HILF
100
AcDbLine
 10
470.0000000000001
 20
69.99999999999977
 30
0.0
 11
566.0
 21
69.99999999999977
 31
0.0
  0
LINE
  5
2EF
330
106E
100
AcDbEntity
  8
HILF
100
AcDbLine
 10
470.0000000000001
 20
60.0
 30
0.0
 11
566.0
 21
60.0
 31
0.0
  0
LINE
  5
2F0
330
106E
100
AcDbEntity
  8
HILF
100
AcDbLine
 10
470.0000000000001
 20
50.0
 30
0.0
 11
566.0
 21
50.0
 31
0.0
  0
LINE
  5
2F1
330
106E
100
AcDbEntity
  8
HILF
100
AcDbLine
 10
470.0000000000001
 20
40.0
 30
0.0
 11
566.0
 21
40.0
 31
0.0
  0
LINE
  5
2F2
330
106E
100
AcDbEntity
  8
HILF
100
AcDbLine
 10
566.0
 20
69.99999999999977
 30
0.0
 11
650.0
 21
69.99999999999977
 31
0.0
  0
LINE
  5
2F3
330
106E
100
AcDbEntity
  8
HILF
100
AcDbLine
 10
566.0
 20
60.0
 30
0.0
 11
650.0
 21
60.0
 31
0.0
  0
LINE
  5
2F4
330
106E
100
AcDbEntity
  8
HILF
100
AcDbLine
 10
566.0
 20
50.0
 30
0.0
 11
650.0
 21
50.0
 31
0.0
  0
LINE
  5
2F5
330
106E
100
AcDbEntity
  8
HILF
100
AcDbLine
 10
654.7736801096946
 20
84.03758247564121
 30
0.0
 11
744.8353916556309
 21
84.03758247564121
 31
0.0
  0
LINE
  5
2F6
330
106E
100
AcDbEntity
  8
HILF
100
AcDbLine
 10
654.7736801096946
 20
69.99999999999977
 30
0.0
 11
744.8353916556309
 21
69.99999999999977
 31
0.0
  0
LINE
  5
2F7
330
106E
100
AcDbEntity
  8
HILF
100
AcDbLine
 10
654.7736801096946
 20
60.0
 30
0.0
 11
744.8353916556309
 21
60.0
 31
0.0
  0
LINE
  5
2F8
330
106E
100
AcDbEntity
  8
HILF
100
AcDbLine
 10
654.7736801096946
 20
50.0
 30
0.0
 11
744.8353916556309
 21
50.0
 31
0.0
  0
LINE
  5
2F9
330
106E
100
AcDbEntity
  8
VOLL
100
AcDbLine
 10
752.0
 20
60.0
 30
0.0
 11
830.0
 21
60.0
 31
0.0
  0
LINE
  5
2FA
330
106E
100
AcDbEntity
  8
HILF
100
AcDbLine
 10
756.7238616296992
 20
83.77983636955798
 30
0.0
 11
824.8588839326728
 21
83.77983636955798
 31
0.0
  0
LINE
  5
2FB
330
106E
100
AcDbEntity
  8
HILF
100
AcDbLine
 10
653.4909699289885
 20
14.89398258028314
 30
0.0
 11
824.8588839326728
 21
14.89398258028314
 31
0.0
  0
TEXT
  5
2FC
330
106E
100
AcDbEntity
  8
TEXT
100
AcDbText
 10
492.7826069847975
 20
18.67381894984123
 30
0.0
 40
4.0
  1
Änderung
 41
0.8
  7
GREEKS
 72
     1
 11
503.5254641276546
 21
18.67381894984123
 31
0.0
100
AcDbText
  0
TEXT
  5
2FD
330
106E
100
AcDbEntity
  8
TEXT
100
AcDbText
 10
573.5163572150376
 20
102.4620895087085
 30
0.0
 40
5.0
  1
Maßstab
 41
0.8
  7
GREEKS
100
AcDbText
  0
TEXT
  5
2FE
330
106E
100
AcDbEntity
  8
TEXT
100
AcDbText
 10
614.2858954734052
 20
102.4184168434816
 30
0.0
 40
5.0
  1
Zul. Abw.
 41
0.8
  7
GREEKS
100
AcDbText
  0
TEXT
  5
2FF
330
106E
100
AcDbEntity
  8
TEXT
100
AcDbText
 10
654.8779403809009
 20
102.5489328011778
 30
0.0
 40
5.0
  1
Benennung
 41
0.8
  7
GREEKS
100
AcDbText
  0
TEXT
  5
300
330
106E
100
AcDbEntity
  8
TEXT
100
AcDbText
 10
756.178754957634
 20
102.3132034537135
 30
0.0
 40
5.0
  1
Zeichnungs Nr.
 41
0.8
  7
GREEKS
100
AcDbText
  0
TEXT
  5
301
330
106E
100
AcDbEntity
  8
TEXT
100
AcDbText
 10
654.7422383911359
 20
30.84560570193048
 30
0.0
 40
5.0
  1
Bauvorhaben
 41
0.8
  7
GREEKS
100
AcDbText
  0
TEXT
  5
302
330
106E
100
AcDbEntity
  8
TEXT
100
AcDbText
 10
756.7238616296992
 20
73.18118237099952
 30
0.0
 40
5.0
  1
Ersatz für:
 41
0.8
  7
GREEKS
100
AcDbText
  0
TEXT
  5
303
330
106E
100
AcDbEntity
  8
TEXT
100
AcDbText
 10
478.2664110704575
 20
13.65465846027177
 30
0.0
 40
4.0
  1
Index
 50
90.0
 41
0.8
  7
GREEKS
100
AcDbText
  0
TEXT
  5
304
330
106E
100
AcDbEntity
  8
TEXT
100
AcDbText
 10
530.0571803261054
 20
18.67156269339807
 30
0.0
 40
4.0
  1
Tag
 41
0.8
  7
GREEKS
 72
     1
 11
533.7905136594388
 21
18.67156269339807
 31
0.0
100
AcDbText
  0
TEXT
  5
305
330
106E
100
AcDbEntity
  8
TEXT
100
AcDbText
 10
548.6614567187547
 20
18.59324216966411
 30
0.0
 40
4.0
  1
Name
 41
0.8
  7
GREEKS
 72
     1
 11
554.9852662425641
 21
18.59324216966411
 31
0.0
100
AcDbText
  0
TEXT
  5
306
330
106E
100
AcDbEntity
  8
TEXT
100
AcDbText
 10
592.3311673153651
 20
73.31880501229921
 30
0.0
 40
4.0
  1
Tag
 41
0.8
  7
GREEKS
100
AcDbText
  0
TEXT
  5
307
330
106E
100
AcDbEntity
  8
TEXT
100
AcDbText
 10
622.4626584226293
 20
73.30961091915219
 30
0.0
 40
4.0
  1
Name
 41
0.8
  7
GREEKS
100
AcDbText
  0
TEXT
  5
308
330
106E
100
AcDbEntity
  8
TEXT
100
AcDbText
 10
567.5836127167615
 20
63.62990369617955
 30
0.0
 40
4.0
  1
Gez.
 41
0.8
  7
GREEKS
100
AcDbText
  0
TEXT
  5
309
330
106E
100
AcDbEntity
  8
TEXT
100
AcDbText
 10
567.5515086571672
 20
53.68926291428374
 30
0.0
 40
4.0
  1
Gepr.
 41
0.8
  7
GREEKS
100
AcDbText
  0
TEXT
  5
30A
330
106E
100
AcDbEntity
  8
TEXT
100
AcDbText
 10
567.6006777387303
 20
43.5294638964981
 30
0.0
 40
4.0
  1
Norm.
 41
0.8
  7
GREEKS
100
AcDbText
  0
LINE
  5
30B
330
106E
100
AcDbEntity
  8
STEMPEL
100
AcDbLine
 10
479.9999999999998
 20
10.0
 30
0.0
 11
830.0
 21
10.0
 31
0.0
  0
TEXT
  5
30C
330
106E
100
AcDbEntity
  8
TEXT
100
AcDbText
 10
757.2400861497006
 20
52.07416177878599
 30
0.0
 40
5.0
  1
ersetzt durch:
 41
0.8
  7
GREEKS
100
AcDbText
  0
LINE
  5
30D
330
106E
100
AcDbEntity
  8
STEMPEL
100
AcDbLine
 10
830.0
 20
10.0
 30
0.0
 11
39.99999999999997
 21
10.0
 31
0.0
  0
LINE
  5
30E
330
106E
100
AcDbEntity
  8
STEMPEL
100
AcDbLine
 10
830.0
 20
10.0
 30
0.0
 11
830.0
 21
583.9999999999998
 31
0.0
  0
LINE
  5
30F
330
106E
100
AcDbEntity
  8
STEMPEL
100
AcDbLine
 10
470.0
 20
10.0
 30
0.0
 11
470.0
 21
109.9999999999999
 31
0.0
  0
LINE
  5
310
330
106E
100
AcDbEntity
  8
STEMPEL
100
AcDbLine
 10
830.0
 20
583.9999999999998
 30
0.0
 11
39.99999999999986
 21
583.9999999999998
 31
0.0
  0
LINE
  5
311
330
106E
100
AcDbEntity
  8
HILF
100
AcDbLine
 10
839.9999999999998
 20
594.0000000000001
 30
0.0
 11
-0.0000000000002274
 21
593.9999999999996
 31
0.0
  0
LINE
  5
312
330
106E
100
AcDbEntity
  8
HILF
100
AcDbLine
 10
840.0
 20
0.0
 30
0.0
 11
0.0
 21
0.0
 31
0.0
  0
LINE
  5
313
330
106E
100
AcDbEntity
  8
HILF
100
AcDbLine
 10
31.08767135713847
 20
296.9999999999998
 30
0.0
 11
0.0
 21
296.9999999999998
 31
0.0
  0
TEXT
  5
314
330
106E
100
AcDbEntity
  8
TEXT
100
AcDbText
 10
568.6221098221039
 20
73.14025471151649
 30
0.0
 40
4.0
  1
2015
 41
0.8
  7
GREEKS
100
AcDbText
  0
LINE
  5
315
330
106E
100
AcDbEntity
  8
HILF
100
AcDbLine
 10
840.0
 20
-0.0000000000002274
 30
0.0
 11
839.9999999999998
 21
593.9999999999998
 31
0.0
  0
TEXT
  5
316
330
106E
100
AcDbEntity
  8
VOLL
100
AcDbText
 10
78.07675471698113
 20
31.02594776470585
 30
0.0
 40
1.8
  1

  7
GREEKS
100
AcDbText
  0
TEXT
  5
317
330
106E
100
AcDbEntity
  8
TEXT
100
AcDbText
 10
471.8550995097768
 20
111.6719999999997
 30
0.0
 40
5.0
  1
Erstellt mit AUTOCAD 2004
 41
0.8
  7
GREEKS
100
AcDbText
  0
TEXT
  5
318
330
106E
100
AcDbEntity
  8
TEXT
100
AcDbText
 10
624.4216048581257
 20
63.0896391972351
 30
0.0
 40
4.0
  1
Koeh
 41
0.8
  7
GREEKS
 72
     1
 11
629.6787477152686
 21
63.0896391972351
 31
0.0
100
AcDbText
  0
TEXT
  5
319
330
106E
100
AcDbEntity
  8
TEXT
 62
     1
100
AcDbText
 10
768.1644602129932
 20
88.14901428913946
 30
0.0
 40
7.0
  1
13600070X
 41
0.8
  7
GREEKS
 72
     1
 11
790.8311268796597
 21
88.14901428913946
 31
0.0
100
AcDbText
  0
TEXT
  5
31A
330
106E
100
AcDbEntity
  8
TEXT
 62
     1
100
AcDbText
 10
580.5006306481886
 20
88.14901428913946
 30
0.0
 40
7.0
  1
1:2
 41
0.8
  7
GREEKS
100
AcDbText
  0
TEXT
  5
31B
330
106E
100
AcDbEntity
  8
TEXT
100
AcDbText
 10
590.703759012998
 20
63.10765040825732
 30
0.0
 40
4.0
  1
30.01.
 41
0.8
  7
GREEKS
 72
     1
 11
597.4085209177599
 21
63.10765040825732
 31
0.0
100
AcDbText
  0
TEXT
  5
31C
330
106E
100
AcDbEntity
  8
TEXT
 62
     1
100
AcDbText
 10
655.0506768857031
 20
87.41748789253767
 30
0.0
 40
7.0
  1
Rainstar Grundeinheit
 41
0.8
  7
GREEKS
100
AcDbText
  0
TEXT
  5
31D
330
106E
100
AcDbEntity
  8
TEXT
100
AcDbText
 10
655.1296391125315
 20
71.50334417585281
 30
0.0
 40
5.0
  1
DN70 für Bitumenklemmung
 41
0.8
  7
GREEKS
100
AcDbText
  0
TEXT
  5
31F
330
106E
100
AcDbEntity
  8
TEXT
100
AcDbText
 10
655.1296391125315
 20
51.64011943042146
 30
0.0
 40
5.0
  1
EDV-Art.Nr. 13600.070X
 41
0.8
  7
GREEKS
100
AcDbText
  0
TEXT
  5
320
330
106E
100
AcDbEntity
  8
TEXT
100
AcDbText
 10
654.9837501577826
 20
42.62974153022628
 30
0.0
 40
4.0
  1
13600.070X.DWG
 41
0.8
  7
GREEKS
100
AcDbText
  0
TEXT
  5
321
330
106E
100
AcDbEntity
  8
TEXT
100
AcDbText
 10
612.6261322080839
 20
90.7636384102301
 30
0.0
 40
4.0
  1
DIN EN1124-3
 41
0.8
  7
GREEKS
 72
     1
 11
629.6166083985601
 21
90.7636384102301
 31
0.0
100
AcDbText
  0
INSERT
  5
322
330
106E
100
AcDbEntity
  8
STEMPEL
100
AcDbBlockReference
  2
LOGO
 10
570.9955485457794
 20
45.0210527644831
 30
0.0
 41
2.0
 42
2.0
 43
2.0
  0
LINE
  5
323
330
106E
100
AcDbEntity
  8
HILF
100
AcDbLine
 10
0.0
 20
0.0
 30
0.0
 11
-0.0000000000002274
 21
593.9999999999996
 31
0.0
  0
LINE
  5
324
330
106E
100
AcDbEntity
  8
STEMPEL
100
AcDbLine
 10
39.99999999999997
 20
10.0
 30
0.0
 11
39.99999999999986
 21
583.9999999999998
 31
0.0
  0
LINE
  5
325
330
106E
100
AcDbEntity
  8
HILF
 62
     7
100
AcDbLine
 10
460.0
 20
-0.0000000000002274
 30
0.0
 11
460.0
 21
10.0
 31
0.0
  0
LINE
  5
326
330
106E
100
AcDbEntity
  8
HILF
 62
     7
100
AcDbLine
 10
459.9999999999998
 20
583.9999999999998
 30
0.0
 11
459.9999999999998
 21
593.9999999999996
 31
0.0
  0
TEXT
  5
327
330
106E
100
AcDbEntity
  8
TEXT
100
AcDbText
 10
836.5811541437437
 20
12.14804815338303
 30
0.0
 40
4.0
  1
Diese Zeichnung ist urheberrechtlich geschützt und bleibt unser Eigentum. Sie darf weder ganz noch teilweise vervielfältigt und nicht an Dritte weitergegeben werden.
 50
90.0
 41
0.8
  7
GREEKS
100
AcDbText
  0
TEXT
  5
1C0B
330
106E
100
AcDbEntity
  8
TEXT
 62
     1
100
AcDbText
 10
790.8311268796597
 20
62.65843508889031
 30
0.0
 40
7.0
  1

 41
0.8
  7
GREEKS
 72
     1
 11
790.8311268796597
 21
62.65843508889031
 31
0.0
100
AcDbText
  0
TEXT
  5
206F
330
106E
100
AcDbEntity
  8
TEXT
 62
     1
100
AcDbText
 10
664.6057658946467
 20
115.5115488980132
 30
0.0
 40
7.0
  1

 41
0.8
  7
GREEKS
100
AcDbText
  0
MTEXT
  5
2105
330
106E
100
AcDbEntity
  8
BEM
 62
     1
100
AcDbMText
 10
168.1670985835575
 20
494.7121253266709
 30
0.0
 40
7.0
 41
0.0
 71
     1
 72
     1
  1
\A1;
  7
GREEKS
 73
     1
 44
1.0
  0
LINE
  5
222A
330
106E
100
AcDbEntity
  8
STEMPEL
100
AcDbLine
 10
69.877410160615
 20
337.7921724045148
 30
0.0
 11
342.5163928550885
 21
337.7921724045147
 31
0.0
  0
LINE
  5
2249
330
106E
100
AcDbEntity
  8
STEMPEL
100
AcDbLine
 10
69.877410160615
 20
337.7921724045148
 30
0.0
 11
69.877410160615
 21
340.7921724045148
 31
0.0
  0
LINE
  5
224A
330
106E
100
AcDbEntity
  8
STEMPEL
100
AcDbLine
 10
69.877410160615
 20
340.7921724045148
 30
0.0
 11
342.5163928550885
 21
340.7921724045148
 31
0.0
  0
LINE
  5
224C
330
106E
100
AcDbEntity
  8
BEM
100
AcDbLine
 10
344.8774101606152
 20
337.7921724045147
 30
0.0
 11
346.546901507852
 21
339.4616637517514
 31
0.0
  0
LINE
  5
224D
330
106E
100
AcDbEntity
  8
STEMPEL
100
AcDbLine
 10
419.1236221852027
 20
412.0383844291023
 30
0.0
 11
417.0023018416429
 21
414.1597047726618
 31
0.0
  0
LINE
  5
224E
330
106E
100
AcDbEntity
  8
STEMPEL
100
AcDbLine
 10
344.4255811642922
 20
341.582984095311
 30
0.0
 11
417.0023018416429
 21
414.159704772662
 31
0.0
  0
ARC
  5
224F
330
106E
100
AcDbEntity
  8
STEMPEL
100
AcDbCircle
 10
342.5163928550885
 20
343.4921724045147
 30
0.0
 40
5.7
100
AcDbArc
 50
270.0
 51
314.9999999999999
  0
ARC
  5
2250
330
106E
100
AcDbEntity
  8
STEMPEL
100
AcDbCircle
 10
342.5163928550885
 20
343.4921724045147
 30
0.0
 40
2.7
100
AcDbArc
 50
270.0
 51
314.9999999999999
  0
LINE
  5
2251
330
106E
100
AcDbEntity
  8
BEM
100
AcDbLine
 10
342.5163928550885
 20
337.7921724045147
 30
0.0
 11
344.8774101606152
 21
337.7921724045147
 31
0.0
  0
LINE
  5
2252
330
106E
100
AcDbEntity
  8
STEMPEL
100
AcDbLine
 10
346.546901507852
 20
339.4616637517514
 30
0.0
 11
419.1236221852027
 21
412.0383844291023
 31
0.0
  0
LINE
  5
2254
102
{ACAD_REACTORS
330
2CBB
102
}
330
106E
100
AcDbEntity
  8
MITTEL
100
AcDbLine
 10
392.2535645001135
 20
389.4109674311329
 30
0.0
 11
371.0403610645173
 21
410.6241708667289
 31
0.0
  0
LINE
  5
2255
330
106E
100
AcDbEntity
  8
STEMPEL
100
AcDbLine
 10
371.7474678457038
 20
404.2602098360502
 30
0.0
 11
377.4043220951958
 21
409.9170640855423
 31
0.0
  0
LINE
  5
2257
330
106E
100
AcDbEntity
  8
STEMPEL
100
AcDbLine
 10
395.7890984060462
 20
392.9465013370657
 30
0.0
 11
392.2535645001137
 21
396.4820352429981
 31
0.0
  0
LINE
  5
2258
330
106E
100
AcDbEntity
  8
STEMPEL
100
AcDbLine
 10
388.7180305941809
 20
385.8754335252001
 30
0.0
 11
385.1824966882483
 21
389.4109674311327
 31
0.0
  0
LINE
  5
2259
330
106E
100
AcDbEntity
  8
HILF
100
AcDbLine
 10
395.0819916248597
 20
392.2393945558791
 30
0.0
 11
391.5464577189272
 21
395.7749284618115
 31
0.0
  0
LINE
  5
225A
330
106E
100
AcDbEntity
  8
HILF
100
AcDbLine
 10
389.4251373753673
 20
386.5825403063867
 30
0.0
 11
385.8896034694348
 21
390.1180742123192
 31
0.0
  0
LINE
  5
225B
330
106E
100
AcDbEntity
  8
STEMPEL
100
AcDbLine
 10
371.7474678457038
 20
402.8459962736771
 30
0.0
 11
378.8185356575693
 21
409.9170640855424
 31
0.0
  0
LINE
  5
225D
330
106E
100
AcDbEntity
  8
STEMPEL
100
AcDbLine
 10
378.8185356575691
 20
409.9170640855424
 30
0.0
 11
377.404322095196
 21
409.9170640855423
 31
0.0
  0
LINE
  5
225E
330
106E
100
AcDbEntity
  8
STEMPEL
100
AcDbLine
 10
371.7474678457038
 20
402.845996273677
 30
0.0
 11
371.7474678457038
 21
404.26020983605
 31
0.0
  0
LINE
  5
2282
330
106E
100
AcDbEntity
  8
MITTEL
100
AcDbLine
 10
204.8774101606152
 20
332.7921724045148
 30
0.0
 11
204.877410160615
 21
370.7921724045144
 31
0.0
  0
LINE
  5
2283
330
106E
100
AcDbEntity
  8
HILF
100
AcDbLine
 10
200.8774101606152
 20
340.7921724045148
 30
0.0
 11
200.8774101606152
 21
345.7921724045149
 31
0.0
  0
LINE
  5
2284
330
106E
100
AcDbEntity
  8
HILF
100
AcDbLine
 10
208.8774101606152
 20
340.7921724045148
 30
0.0
 11
208.8774101606151
 21
345.7921724045148
 31
0.0
  0
LINE
  5
2285
330
106E
100
AcDbEntity
  8
STEMPEL
100
AcDbLine
 10
199.8774101606152
 20
340.7921724045148
 30
0.0
 11
199.8774101606152
 21
345.7921724045149
 31
0.0
  0
LINE
  5
2286
330
106E
100
AcDbEntity
  8
STEMPEL
100
AcDbLine
 10
209.8774101606152
 20
340.7921724045149
 30
0.0
 11
209.8774101606152
 21
345.7921724045148
 31
0.0
  0
LINE
  5
2287
330
106E
100
AcDbEntity
  8
STEMPEL
100
AcDbLine
 10
199.8774101606154
 20
364.7921724045146
 30
0.0
 11
209.8774101606152
 21
364.7921724045145
 31
0.0
  0
LINE
  5
2288
330
106E
100
AcDbEntity
  8
STEMPEL
100
AcDbLine
 10
200.8774101606152
 20
365.7921724045146
 30
0.0
 11
208.8774101606148
 21
365.7921724045148
 31
0.0
  0
LINE
  5
2289
330
106E
100
AcDbEntity
  8
STEMPEL
100
AcDbLine
 10
199.8774101606152
 20
364.7921724045146
 30
0.0
 11
200.8774101606152
 21
365.7921724045145
 31
0.0
  0
LINE
  5
228A
330
106E
100
AcDbEntity
  8
STEMPEL
100
AcDbLine
 10
209.877410160615
 20
364.7921724045146
 30
0.0
 11
208.877410160615
 21
365.7921724045146
 31
0.0
  0
LINE
  5
228E
330
106E
100
AcDbEntity
  8
MITTEL
100
AcDbLine
 10
287.1498235201366
 20
340.7921724045148
 30
0.0
 11
287.1498235201364
 21
370.7921724045144
 31
0.0
  0
LINE
  5
228F
330
106E
100
AcDbEntity
  8
STEMPEL
100
AcDbLine
 10
292.1498235201366
 20
340.7921724045149
 30
0.0
 11
292.1498235201365
 21
345.7921724045145
 31
0.0
  0
LINE
  5
2290
330
106E
100
AcDbEntity
  8
STEMPEL
100
AcDbLine
 10
282.1498235201366
 20
340.7921724045148
 30
0.0
 11
282.1498235201366
 21
345.7921724045146
 31
0.0
  0
LINE
  5
2291
330
106E
100
AcDbEntity
  8
HILF
100
AcDbLine
 10
291.1498235201366
 20
340.7921724045148
 30
0.0
 11
291.1498235201365
 21
345.7921724045146
 31
0.0
  0
LINE
  5
2292
330
106E
100
AcDbEntity
  8
HILF
100
AcDbLine
 10
283.1498235201366
 20
340.7921724045148
 30
0.0
 11
283.1498235201365
 21
345.7921724045146
 31
0.0
  0
LINE
  5
2293
330
106E
100
AcDbEntity
  8
STEMPEL
100
AcDbLine
 10
283.1498235201366
 20
365.7921724045146
 30
0.0
 11
291.1498235201361
 21
365.7921724045148
 31
0.0
  0
LINE
  5
2294
330
106E
100
AcDbEntity
  8
STEMPEL
100
AcDbLine
 10
282.1498235201368
 20
364.7921724045146
 30
0.0
 11
292.1498235201366
 21
364.7921724045145
 31
0.0
  0
LINE
  5
2295
330
106E
100
AcDbEntity
  8
STEMPEL
100
AcDbLine
 10
282.1498235201366
 20
364.7921724045146
 30
0.0
 11
283.1498235201366
 21
365.7921724045145
 31
0.0
  0
LINE
  5
2296
330
106E
100
AcDbEntity
  8
STEMPEL
100
AcDbLine
 10
292.1498235201363
 20
364.7921724045146
 30
0.0
 11
291.1498235201364
 21
365.7921724045146
 31
0.0
  0
LINE
  5
2297
330
106E
100
AcDbEntity
  8
MITTEL
100
AcDbLine
 10
122.6049968010934
 20
340.7921724045148
 30
0.0
 11
122.6049968010932
 21
370.7921724045144
 31
0.0
  0
LINE
  5
2298
330
106E
100
AcDbEntity
  8
STEMPEL
100
AcDbLine
 10
127.6049968010934
 20
340.7921724045149
 30
0.0
 11
127.6049968010933
 21
345.7921724045151
 31
0.0
  0
LINE
  5
2299
330
106E
100
AcDbEntity
  8
STEMPEL
100
AcDbLine
 10
117.6049968010934
 20
340.7921724045148
 30
0.0
 11
117.6049968010934
 21
345.7921724045151
 31
0.0
  0
LINE
  5
229A
330
106E
100
AcDbEntity
  8
HILF
100
AcDbLine
 10
126.6049968010934
 20
340.7921724045148
 30
0.0
 11
126.6049968010933
 21
345.7921724045151
 31
0.0
  0
LINE
  5
229B
330
106E
100
AcDbEntity
  8
HILF
100
AcDbLine
 10
118.6049968010934
 20
340.7921724045148
 30
0.0
 11
118.6049968010933
 21
345.7921724045152
 31
0.0
  0
LINE
  5
229C
330
106E
100
AcDbEntity
  8
STEMPEL
100
AcDbLine
 10
118.6049968010934
 20
365.7921724045146
 30
0.0
 11
126.6049968010929
 21
365.7921724045148
 31
0.0
  0
LINE
  5
229D
330
106E
100
AcDbEntity
  8
STEMPEL
100
AcDbLine
 10
117.6049968010936
 20
364.7921724045146
 30
0.0
 11
127.6049968010934
 21
364.7921724045145
 31
0.0
  0
LINE
  5
229E
330
106E
100
AcDbEntity
  8
STEMPEL
100
AcDbLine
 10
117.6049968010934
 20
364.7921724045146
 30
0.0
 11
118.6049968010934
 21
365.7921724045145
 31
0.0
  0
LINE
  5
229F
330
106E
100
AcDbEntity
  8
STEMPEL
100
AcDbLine
 10
127.6049968010932
 20
364.7921724045146
 30
0.0
 11
126.6049968010932
 21
365.7921724045146
 31
0.0
  0
DIMENSION
  5
22DB
330
106E
100
AcDbEntity
  8
BEM
100
AcDbDimension
  2
*D1
 10
820.0295674065017
 20
247.5389412662007
 30
0.0
 11
815.4487378334643
 21
284.3291030003217
 31
0.0
 70
    33
  1
%%c<>
 71
     5
 42
72.99999999999982
  3
STANDARD
100
AcDbAlignedDimension
 13
797.8000067507155
 23
321.8041244324561
 33
0.0
 14
793.979481944981
 24
248.9041683953723
 34
0.0
1001
ACAD
1000
DSTYLE
1002
{
1070
    40
1040
2.0
1070
    41
1040
3.5
1070
    42
1040
1.0
1070
    43
1040
7.0
1070
    44
1040
1.0
1070
    73
1070
     0
1070
    74
1070
     0
1070
    77
1070
     1
1070
    78
1070
     8
1070
    79
1070
     2
1070
   140
1040
3.5
1070
   141
1040
1.5
1070
   146
1040
0.5142857142857144
1070
   147
1040
1.5
1070
   172
1070
     1
1070
   178
1070
     1
1070
   179
1070
     2
1070
   271
1070
     2
1070
   272
1070
     2
1070
   284
1070
     8
1070
   285
1070
     8
1070
   286
1070
     8
1002
}
  0
TEXT
  5
22F0
330
106E
100
AcDbEntity
  8
TEXT
 62
     1
100
AcDbText
 10
617.320138836262
 20
301.9254539750033
 30
0.0
 40
7.0
  1
DN70
 50
357.0
 41
0.8
  7
GREEKS
100
AcDbText
  0
LINE
  5
23BD
330
106E
100
AcDbEntity
  8
STEMPEL
100
AcDbLine
 10
143.8774101606151
 20
337.7921724045147
 30
0.0
 11
143.8774101606152
 21
340.7921724045148
 31
0.0
  0
LINE
  5
23BE
330
106E
100
AcDbEntity
  8
STEMPEL
100
AcDbLine
 10
265.877410160615
 20
337.7921724045147
 30
0.0
 11
265.8774101606152
 21
340.7921724045148
 31
0.0
  0
HATCH
  5
23F0
330
106E
100
AcDbEntity
  8
SCHRAFF
100
AcDbHatch
 10
0.0
 20
0.0
 30
0.0
210
0.0
220
0.0
230
1.0
  2
_USER
 70
     0
 71
     0
 91
        2
 92
        7
 72
     1
 73
     1
 93
        8
 10
344.4255811642922
 20
341.582984095311
 42
-0.1989123673796531
 10
342.5163928550885
 20
340.7921724045148
 42
0.0
 10
265.8774101606152
 20
340.7921724045148
 42
0.0
 10
265.8774101606152
 20
337.7921724045147
 42
0.0
 10
342.5163928550885
 20
337.7921724045147
 42
0.1989123673796565
 10
346.5469015078518
 20
339.4616637517513
 42
0.0
 10
419.123622185203
 20
412.0383844291023
 42
0.0
 10
417.0023018416429
 20
414.159704772662
 42
0.0
 97
        0
 92
        7
 72
     0
 73
     1
 93
        4
 10
69.87741016061511
 20
340.7921724045149
 10
69.87741016061511
 20
337.7921724045149
 10
143.8774101606151
 20
337.7921724045148
 10
143.8774101606153
 20
340.7921724045148
 97
        0
 75
     0
 76
     0
 52
135.0
 41
3.0
 77
     0
 78
     1
 53
135.0
 43
-865.2323200399687
 44
-109.3692802789232
 45
-2.121320343559642
 46
-2.121320343559642
 79
     0
 47
0.4629735784415539
 98
        2
 10
371.340737557131
 20
367.693863404254
 10
132.3648265000088
 20
340.3784210081758
  0
DIMENSION
  5
2424
330
106E
100
AcDbEntity
  8
BEM
100
AcDbDimension
  2
*D2
 10
355.5597880969249
 20
327.109794468205
 30
0.0
 11
388.5109641002181
 21
368.4048304894996
 31
0.0
 70
    33
 71
     5
 42
105.0000000000001
  3
STANDARD
100
AcDbAlignedDimension
 13
419.1236221852027
 23
412.0383844291023
 33
0.0
 14
344.8774101606152
 24
337.7921724045147
 34
0.0
  0
DIMENSION
  5
2434
330
106E
100
AcDbEntity
  8
BEM
100
AcDbDimension
  2
*D3
 10
325.2904809791746
 20
309.7551698428883
 30
0.0
 11
462.9926333585717
 21
283.8044732940989
 31
0.0
 70
    34
 71
     5
 42
0.0523598775598337
  3
STANDARD
100
AcDb2LineAngularDimension
 13
325.2973333054015
 23
310.016849624103
 33
0.0
 14
819.6189530089158
 24
284.1105512838442
 34
0.0
 15
330.2904809791744
 25
309.7551698428883
 35
0.0
 16
471.2687465887562
 26
307.2943850632053
 36
0.0
1001
ACAD
1000
DSTYLE
1002
{
1070
    48
1040
2.000000002
1070
   147
1040
1.199999999999999
1070
    72
1070
     0
1070
    71
1070
     0
1002
}
  0
TEXT
  5
252D
330
106E
100
AcDbEntity
  8
TEXT
 62
     1
100
AcDbText
 10
601.571903609668
 20
359.9757823837567
 30
0.0
 40
7.0
  1
EDV-Art.Nr. 01368.070X
 41
0.8
  7
GREEKS
100
AcDbText
  0
LINE
  5
252E
330
106E
100
AcDbEntity
  8
TEXT
 62
     2
100
AcDbLine
 10
599.6522278129504
 20
371.1477785383376
 30
0.0
 11
706.0868189305192
 21
371.1477785383376
 31
0.0
  0
TEXT
  5
252F
330
106E
100
AcDbEntity
  8
TEXT
 62
     1
100
AcDbText
 10
602.3014114320012
 20
374.4183061391868
 30
0.0
 40
7.0
  1
Auslaufkörper DN70
 41
0.8
  7
GREEKS
100
AcDbText
  0
LINE
  5
2530
330
106E
100
AcDbEntity
  8
TEXT
 62
     2
100
AcDbLine
 10
599.6522278129504
 20
371.1477785383376
 30
0.0
 11
569.4903593992664
 21
332.8583997489137
 31
0.0
  0
DIMENSION
  5
2915
330
106E
100
AcDbEntity
  8
BEM
100
AcDbDimension
  2
*D4
 10
344.8774101606152
 20
258.9927941944186
 30
0.0
 11
207.3774101606151
 21
264.8927941944186
 31
0.0
 70
    32
 71
     5
 42
275.0000000000002
  3
STANDARD
100
AcDbAlignedDimension
 13
69.877410160615
 23
337.7921724045148
 33
0.0
 14
344.8774101606152
 24
337.7921724045147
 34
0.0
100
AcDbRotatedDimension
  0
LINE
  5
2C01
102
{ACAD_REACTORS
330
2C59
330
330E
102
}
330
106E
100
AcDbEntity
  8
STEMPEL
100
AcDbLine
 10
77.87741016061517
 20
345.7921724045152
 30
0.0
 11
331.8774101606151
 21
345.7921724045144
 31
0.0
  0
LINE
  5
2C02
102
{ACAD_REACTORS
330
2C59
102
}
330
106E
100
AcDbEntity
  8
STEMPEL
100
AcDbLine
 10
95.5352673851886
 20
351.7921724045149
 30
0.0
 11
331.8774101606151
 21
351.7921724045141
 31
0.0
  0
ARC
  5
2C03
330
106E
100
AcDbEntity
  8
STEMPEL
100
AcDbCircle
 10
278.5352673851887
 20
356.7921724045141
 30
0.0
 40
5.0
100
AcDbArc
 50
180.9999999999983
 51
269.9999999999998
  0
ARC
  5
2C04
102
{ACAD_REACTORS
330
2C59
102
}
330
106E
100
AcDbEntity
  8
STEMPEL
100
AcDbCircle
 10
331.8774101606151
 20
348.7921724045143
 30
0.0
 40
3.0
100
AcDbArc
 50
269.9999999999998
 51
89.99999999999982
  0
LINE
  5
2C05
330
106E
100
AcDbEntity
  8
STEMPEL
100
AcDbLine
 10
273.5360289094067
 20
356.7049103723277
 30
0.0
 11
273.3774101606152
 21
365.7921724045143
 31
0.0
  0
LINE
  5
2C06
330
106E
100
AcDbEntity
  8
STEMPEL
100
AcDbLine
 10
258.2108103479588
 20
356.2476755297412
 30
0.0
 11
258.3774101606152
 21
365.7921724045144
 31
0.0
  0
ARC
  5
2C09
330
106E
100
AcDbEntity
  8
STEMPEL
100
AcDbCircle
 10
253.2195529360417
 20
356.7921724045143
 30
0.0
 40
5.0
100
AcDbArc
 50
269.9999999999998
 51
358.999999999998
  0
LINE
  5
2C11
330
106E
100
AcDbEntity
  8
STEMPEL
100
AcDbLine
 10
258.3774101606152
 20
365.7921724045144
 30
0.0
 11
273.3774101606152
 21
365.7921724045143
 31
0.0
  0
ARC
  5
2C12
102
{ACAD_REACTORS
330
2C59
102
}
330
106E
100
AcDbEntity
  8
STEMPEL
100
AcDbCircle
 10
271.8774101606151
 20
348.7921724045143
 30
0.0
 40
3.0
100
AcDbArc
 50
89.99999999999982
 51
269.9999999999998
  0
LINE
  5
2C13
102
{ACAD_REACTORS
330
2C59
330
330E
102
}
330
106E
100
AcDbEntity
  8
STEMPEL
100
AcDbLine
 10
75.37741016061523
 20
365.7921724045151
 30
0.0
 11
90.37741016061522
 21
365.7921724045151
 31
0.0
  0
ARC
  5
2C15
102
{ACAD_REACTORS
330
2C59
102
}
330
106E
100
AcDbEntity
  8
STEMPEL
100
AcDbCircle
 10
137.8774101606151
 20
348.7921724045145
 30
0.0
 40
3.0
100
AcDbArc
 50
269.9999999999998
 51
89.99999999999982
  0
LINE
  5
2C16
102
{ACAD_REACTORS
330
2C59
102
}
330
106E
100
AcDbEntity
  8
STEMPEL
100
AcDbLine
 10
90.5360289094067
 20
356.7049103723285
 30
0.0
 11
90.37741016061522
 21
365.792172404515
 31
0.0
  0
ARC
  5
2C17
102
{ACAD_REACTORS
330
2C59
102
}
330
106E
100
AcDbEntity
  8
STEMPEL
100
AcDbCircle
 10
95.53526738518867
 20
356.7921724045149
 30
0.0
 40
5.0
100
AcDbArc
 50
180.9999999999983
 51
269.9999999999998
  0
LINE
  5
2C19
102
{ACAD_REACTORS
330
2C59
330
330E
102
}
330
106E
100
AcDbEntity
  8
STEMPEL
100
AcDbLine
 10
86.37741016061516
 20
359.7921724045151
 30
0.0
 11
86.37741016061516
 21
362.7921724045152
 31
0.0
  0
LINE
  5
2C1A
102
{ACAD_REACTORS
330
2C59
330
330E
102
}
330
106E
100
AcDbEntity
  8
STEMPEL
100
AcDbLine
 10
79.37741016061517
 20
359.7921724045151
 30
0.0
 11
79.37741016061517
 21
362.7921724045152
 31
0.0
  0
LINE
  5
2C1B
102
{ACAD_REACTORS
330
2C59
102
}
330
106E
100
AcDbEntity
  8
STEMPEL
100
AcDbLine
 10
75.11283120281769
 20
350.6344540639943
 30
0.0
 11
75.37741016061523
 21
365.7921724045151
 31
0.0
  0
LINE
  5
2C1C
330
106E
100
AcDbEntity
  8
MITTEL
100
AcDbLine
 10
82.87741016061511
 20
340.792172404515
 30
0.0
 11
82.87741016061529
 21
370.7921724045152
 31
0.0
  0
LINE
  5
2C1D
102
{ACAD_REACTORS
330
330E
102
}
330
106E
100
AcDbEntity
  8
HILF
100
AcDbLine
 10
85.87741016061517
 20
345.792172404515
 30
0.0
 11
85.87741016061523
 21
365.7921724045151
 31
0.0
  0
LINE
  5
2C1E
102
{ACAD_REACTORS
330
330E
102
}
330
106E
100
AcDbEntity
  8
HILF
100
AcDbLine
 10
79.87741016061517
 20
345.792172404515
 30
0.0
 11
79.87741016061523
 21
365.7921724045151
 31
0.0
  0
LINE
  5
2C1F
102
{ACAD_REACTORS
330
330E
102
}
330
106E
100
AcDbEntity
  8
STEMPEL
100
AcDbLine
 10
80.87741016061517
 20
345.792172404515
 30
0.0
 11
80.87741016061526
 21
365.7921724045152
 31
0.0
  0
LINE
  5
2C20
102
{ACAD_REACTORS
330
330E
102
}
330
106E
100
AcDbEntity
  8
STEMPEL
100
AcDbLine
 10
84.87741016061518
 20
345.792172404515
 30
0.0
 11
84.87741016061525
 21
365.7921724045152
 31
0.0
  0
LINE
  5
2C21
102
{ACAD_REACTORS
330
2C59
330
330E
102
}
330
106E
100
AcDbEntity
  8
STEMPEL
100
AcDbLine
 10
86.37741016061511
 20
348.7921724045151
 30
0.0
 11
86.37741016061506
 21
351.7921724045151
 31
0.0
  0
LINE
  5
2C22
102
{ACAD_REACTORS
330
2C59
330
330E
102
}
330
106E
100
AcDbEntity
  8
STEMPEL
100
AcDbLine
 10
86.37741016061511
 20
348.7921724045152
 30
0.0
 11
86.87741016061512
 21
348.7921724045152
 31
0.0
  0
LINE
  5
2C23
102
{ACAD_REACTORS
330
2C59
330
330E
102
}
330
106E
100
AcDbEntity
  8
STEMPEL
100
AcDbLine
 10
86.87741016061506
 20
345.7921724045152
 30
0.0
 11
86.87741016061506
 21
348.7921724045152
 31
0.0
  0
LINE
  5
2C24
102
{ACAD_REACTORS
330
2C59
330
330E
102
}
330
106E
100
AcDbEntity
  8
STEMPEL
100
AcDbLine
 10
86.37741016061516
 20
359.7921724045151
 30
0.0
 11
86.87741016061522
 21
359.7921724045151
 31
0.0
  0
LINE
  5
2C25
102
{ACAD_REACTORS
330
2C59
330
330E
102
}
330
106E
100
AcDbEntity
  8
STEMPEL
100
AcDbLine
 10
86.37741016061506
 20
351.7921724045151
 30
0.0
 11
86.87741016061512
 21
351.7921724045151
 31
0.0
  0
LINE
  5
2C26
102
{ACAD_REACTORS
330
2C59
330
330E
102
}
330
106E
100
AcDbEntity
  8
STEMPEL
100
AcDbLine
 10
86.87741016061512
 20
351.792172404515
 30
0.0
 11
86.87741016061528
 21
359.7921724045151
 31
0.0
  0
LINE
  5
2C27
102
{ACAD_REACTORS
330
2C59
330
330E
102
}
330
106E
100
AcDbEntity
  8
STEMPEL
100
AcDbLine
 10
79.37741016061512
 20
348.7921724045152
 30
0.0
 11
79.37741016061505
 21
351.7921724045153
 31
0.0
  0
ARC
  5
2C28
102
{ACAD_REACTORS
330
2C59
102
}
330
106E
100
AcDbEntity
  8
STEMPEL
100
AcDbCircle
 10
77.87741016061517
 20
348.7921724045147
 30
0.0
 40
3.0
100
AcDbArc
 50
166.043039397103
 51
269.9999999999998
  0
LINE
  5
2C29
102
{ACAD_REACTORS
330
2C59
330
330E
102
}
330
106E
100
AcDbEntity
  8
STEMPEL
100
AcDbLine
 10
78.87741016061506
 20
348.7921724045152
 30
0.0
 11
79.37741016061517
 21
348.7921724045152
 31
0.0
  0
LINE
  5
2C2A
102
{ACAD_REACTORS
330
2C59
330
330E
102
}
330
106E
100
AcDbEntity
  8
STEMPEL
100
AcDbLine
 10
78.87741016061511
 20
345.7921724045152
 30
0.0
 11
78.87741016061511
 21
348.7921724045152
 31
0.0
  0
ARC
  5
2C2B
102
{ACAD_REACTORS
330
2C59
102
}
330
106E
100
AcDbEntity
  8
STEMPEL
100
AcDbCircle
 10
70.11359272703572
 20
350.7217160961809
 30
0.0
 40
5.0
100
AcDbArc
 50
346.0430393971031
 51
358.999999999998
  0
LINE
  5
2C2C
102
{ACAD_REACTORS
330
2C59
330
330E
102
}
330
106E
100
AcDbEntity
  8
STEMPEL
100
AcDbLine
 10
78.87741016061511
 20
351.7921724045152
 30
0.0
 11
78.87741016061529
 21
359.7921724045151
 31
0.0
  0
LINE
  5
2C2D
102
{ACAD_REACTORS
330
2C59
330
330E
102
}
330
106E
100
AcDbEntity
  8
STEMPEL
100
AcDbLine
 10
78.87741016061522
 20
359.7921724045151
 30
0.0
 11
79.37741016061517
 21
359.7921724045151
 31
0.0
  0
LINE
  5
2C2E
102
{ACAD_REACTORS
330
2C59
330
330E
102
}
330
106E
100
AcDbEntity
  8
STEMPEL
100
AcDbLine
 10
78.87741016061506
 20
351.7921724045153
 30
0.0
 11
79.37741016061505
 21
351.7921724045152
 31
0.0
  0
LINE
  5
2C2F
102
{ACAD_REACTORS
330
2C59
330
330E
102
}
330
106E
100
AcDbEntity
  8
STEMPEL
100
AcDbLine
 10
86.37741016061516
 20
362.7921724045151
 30
0.0
 11
86.87741016061522
 21
362.7921724045151
 31
0.0
  0
LINE
  5
2C30
102
{ACAD_REACTORS
330
2C59
330
330E
102
}
330
106E
100
AcDbEntity
  8
STEMPEL
100
AcDbLine
 10
86.87741016061528
 20
362.792172404515
 30
0.0
 11
86.87741016061522
 21
365.7921724045151
 31
0.0
  0
LINE
  5
2C31
102
{ACAD_REACTORS
330
2C59
330
330E
102
}
330
106E
100
AcDbEntity
  8
STEMPEL
100
AcDbLine
 10
78.87741016061529
 20
362.7921724045151
 30
0.0
 11
78.87741016061522
 21
365.7921724045151
 31
0.0
  0
LINE
  5
2C32
102
{ACAD_REACTORS
330
2C59
330
330E
102
}
330
106E
100
AcDbEntity
  8
STEMPEL
100
AcDbLine
 10
78.87741016061522
 20
362.7921724045151
 30
0.0
 11
79.37741016061517
 21
362.7921724045151
 31
0.0
  0
LINE
  5
2C33
330
106E
100
AcDbEntity
  8
MITTEL
100
AcDbLine
 10
265.8774101606151
 20
340.792172404514
 30
0.0
 11
265.8774101606152
 21
370.7921724045137
 31
0.0
  0
HATCH
  5
2C59
330
106E
100
AcDbEntity
  8
SCHRAFF
100
AcDbHatch
 10
0.0
 20
0.0
 30
0.0
210
0.0
220
0.0
230
1.0
  2
_USER
 70
     0
 71
     1
 91
        3
 92
        7
 72
     1
 73
     1
 93
        4
 10
271.8774101606151
 20
351.7921724045143
 42
1.0
 10
271.8774101606151
 20
345.7921724045146
 42
0.0
 10
331.8774101606151
 20
345.7921724045144
 42
1.0
 10
331.8774101606151
 20
351.7921724045141
 42
0.0
 97
        4
330
2C02
330
2C12
330
2C01
330
2C04
 92
        7
 72
     1
 73
     1
 93
       15
 10
137.8774101606151
 20
345.792172404515
 42
1.0
 10
137.8774101606151
 20
351.7921724045148
 42
0.0
 10
95.5352673851886
 20
351.7921724045149
 42
-0.4091108014277082
 10
90.5360289094067
 20
356.7049103723285
 42
0.0
 10
90.37741016061522
 20
365.7921724045152
 42
0.0
 10
86.87741016061522
 20
365.7921724045151
 42
0.0
 10
86.87741016061528
 20
362.7921724045151
 42
0.0
 10
86.37741016061518
 20
362.7921724045151
 42
0.0
 10
86.37741016061514
 20
359.7921724045152
 42
0.0
 10
86.87741016061529
 20
359.7921724045151
 42
0.0
 10
86.87741016061512
 20
351.7921724045151
 42
0.0
 10
86.37741016061506
 20
351.7921724045152
 42
0.0
 10
86.37741016061511
 20
348.7921724045152
 42
0.0
 10
86.87741016061506
 20
348.7921724045152
 42
0.0
 10
86.87741016061506
 20
345.7921724045152
 42
0.0
 97
       15
330
2C02
330
2C17
330
2C16
330
2C13
330
2C30
330
2C2F
330
2C19
330
2C24
330
2C26
330
2C25
330
2C21
330
2C22
330
2C23
330
2C01
330
2C15
 92
        7
 72
     1
 73
     1
 93
       14
 10
78.87741016061529
 20
359.7921724045151
 42
0.0
 10
79.37741016061519
 20
359.7921724045151
 42
0.0
 10
79.37741016061517
 20
362.7921724045151
 42
0.0
 10
78.87741016061529
 20
362.7921724045152
 42
0.0
 10
78.87741016061522
 20
365.7921724045151
 42
0.0
 10
75.37741016061523
 20
365.7921724045151
 42
0.0
 10
75.11283120281769
 20
350.6344540639943
 42
-0.0565957168052928
 10
74.96597862302287
 20
349.5157512888896
 42
0.4875001418525418
 10
77.87741016061511
 20
345.7921724045152
 42
0.0
 10
78.87741016061511
 20
345.7921724045153
 42
0.0
 10
78.87741016061511
 20
348.7921724045152
 42
0.0
 10
79.37741016061512
 20
348.7921724045152
 42
0.0
 10
79.37741016061507
 20
351.7921724045152
 42
0.0
 10
78.87741016061511
 20
351.7921724045153
 42
0.0
 97
       14
330
2C2D
330
2C1A
330
2C32
330
2C31
330
2C13
330
2C1B
330
2C2B
330
2C28
330
2C01
330
2C2A
330
2C29
330
2C27
330
2C2E
330
2C2C
 75
     0
 76
     0
 52
45.0
 41
5.0
 77
     0
 78
     1
 53
45.0
 43
-6.960724680755447
 44
-117.5868045112292
 45
-3.535533905932737
 46
3.535533905932737
 79
     0
 47
0.4118340008760517
 98
        3
 10
281.8376171350528
 20
348.955716426945
 10
114.9879153871925
 20
347.3083810954645
 10
77.49822863092913
 20
355.9568937757088
  0
LINE
  5
2C6E
102
{ACAD_REACTORS
330
2CBB
102
}
330
106E
100
AcDbEntity
  8
STEMPEL
100
AcDbLine
 10
407.4563602956245
 20
420.1701124127476
 30
0.0
 11
361.4944195184988
 21
374.2081716356219
 31
0.0
  0
LINE
  5
2C6F
102
{ACAD_REACTORS
330
2CBB
102
}
330
106E
100
AcDbEntity
  8
STEMPEL
100
AcDbLine
 10
410.2847874203707
 20
414.5132581632552
 30
0.0
 11
367.1512737679913
 21
371.3797445108757
 31
0.0
  0
LINE
  5
2C70
102
{ACAD_REACTORS
330
2CBB
102
}
330
106E
100
AcDbEntity
  8
STEMPEL
100
AcDbLine
 10
367.1512737679913
 20
371.3797445108757
 30
0.0
 11
364.3228466432451
 21
371.3797445108756
 31
0.0
  0
LINE
  5
2C71
102
{ACAD_REACTORS
330
2CBB
102
}
330
106E
100
AcDbEntity
  8
STEMPEL
100
AcDbLine
 10
361.4944195184989
 20
374.208171635622
 30
0.0
 11
364.3228466432451
 21
371.3797445108756
 31
0.0
  0
LINE
  5
2C78
102
{ACAD_REACTORS
330
2CBB
102
}
330
106E
100
AcDbEntity
  8
STEMPEL
100
AcDbLine
 10
410.2847874203706
 20
417.3416852880014
 30
0.0
 11
410.2847874203707
 21
414.5132581632552
 31
0.0
  0
LINE
  5
2C79
102
{ACAD_REACTORS
330
2CBB
102
}
330
106E
100
AcDbEntity
  8
STEMPEL
100
AcDbLine
 10
407.4563602956245
 20
420.1701124127476
 30
0.0
 11
410.2847874203706
 21
417.3416852880014
 31
0.0
  0
LINE
  5
2C9D
330
106E
100
AcDbEntity
  8
STEMPEL
100
AcDbLine
 10
127.6049968010932
 20
361.7921724045149
 30
0.0
 11
127.6049968010932
 21
364.7921724045146
 31
0.0
  0
LINE
  5
2C9E
330
106E
100
AcDbEntity
  8
HILF
100
AcDbLine
 10
126.6049968010932
 20
361.7921724045149
 30
0.0
 11
126.6049968010932
 21
365.7921724045146
 31
0.0
  0
LINE
  5
2C9F
330
106E
100
AcDbEntity
  8
HILF
100
AcDbLine
 10
118.6049968010932
 20
361.7921724045148
 30
0.0
 11
118.6049968010932
 21
365.7921724045148
 31
0.0
  0
LINE
  5
2CA0
330
106E
100
AcDbEntity
  8
STEMPEL
100
AcDbLine
 10
117.6049968010934
 20
361.7921724045148
 30
0.0
 11
117.6049968010934
 21
364.7921724045146
 31
0.0
  0
LINE
  5
2CA1
330
106E
100
AcDbEntity
  8
HILF
100
AcDbLine
 10
200.877410160615
 20
361.7921724045146
 30
0.0
 11
200.877410160615
 21
365.7921724045148
 31
0.0
  0
LINE
  5
2CA2
330
106E
100
AcDbEntity
  8
STEMPEL
100
AcDbLine
 10
199.8774101606152
 20
361.7921724045146
 30
0.0
 11
199.8774101606152
 21
364.7921724045146
 31
0.0
  0
LINE
  5
2CA3
330
106E
100
AcDbEntity
  8
HILF
100
AcDbLine
 10
208.877410160615
 20
361.7921724045146
 30
0.0
 11
208.877410160615
 21
365.7921724045146
 31
0.0
  0
LINE
  5
2CA4
330
106E
100
AcDbEntity
  8
STEMPEL
100
AcDbLine
 10
209.877410160615
 20
361.7921724045146
 30
0.0
 11
209.877410160615
 21
364.7921724045146
 31
0.0
  0
LINE
  5
2CA5
330
106E
100
AcDbEntity
  8
STEMPEL
100
AcDbLine
 10
292.1498235201363
 20
361.7921724045142
 30
0.0
 11
292.1498235201363
 21
364.7921724045146
 31
0.0
  0
LINE
  5
2CA6
330
106E
100
AcDbEntity
  8
HILF
100
AcDbLine
 10
291.1498235201364
 20
361.7921724045142
 30
0.0
 11
291.1498235201364
 21
365.7921724045146
 31
0.0
  0
LINE
  5
2CA7
330
106E
100
AcDbEntity
  8
HILF
100
AcDbLine
 10
283.1498235201364
 20
361.7921724045142
 30
0.0
 11
283.1498235201364
 21
365.7921724045148
 31
0.0
  0
LINE
  5
2CA8
330
106E
100
AcDbEntity
  8
STEMPEL
100
AcDbLine
 10
282.1498235201366
 20
361.7921724045142
 30
0.0
 11
282.1498235201366
 21
364.7921724045146
 31
0.0
  0
LINE
  5
2CA9
330
106E
100
AcDbEntity
  8
STEMPEL
100
AcDbLine
 10
380.9398560011288
 20
407.7957437419828
 30
0.0
 11
378.8185356575691
 21
409.9170640855424
 31
0.0
  0
LINE
  5
2CAA
330
106E
100
AcDbEntity
  8
HILF
100
AcDbLine
 10
380.2327492199422
 20
407.0886369607961
 30
0.0
 11
377.404322095196
 21
409.9170640855424
 31
0.0
  0
LINE
  5
2CAB
330
106E
100
AcDbEntity
  8
STEMPEL
100
AcDbLine
 10
373.8687881892634
 20
400.7246759301175
 30
0.0
 11
371.7474678457038
 21
402.845996273677
 31
0.0
  0
LINE
  5
2CAC
330
106E
100
AcDbEntity
  8
HILF
100
AcDbLine
 10
374.5758949704499
 20
401.4317827113039
 30
0.0
 11
371.7474678457036
 21
404.2602098360502
 31
0.0
  0
HATCH
  5
2CBB
330
106E
100
AcDbEntity
  8
SCHRAFF
100
AcDbHatch
 10
0.0
 20
0.0
 30
0.0
210
0.0
220
0.0
230
1.0
  2
_USER
 70
     0
 71
     1
 91
        2
 92
        7
 72
     0
 73
     1
 93
        5
 10
410.2847874203706
 20
414.5132581632552
 10
410.2847874203707
 20
417.3416852880015
 10
407.4563602956247
 20
420.1701124127477
 10
384.4753899070617
 20
397.1891420241848
 10
388.718030594181
 20
392.9465013370654
 97
        5
330
2C78
330
2C79
330
2C6E
330
2254
330
2C6F
 92
        7
 72
     0
 73
     1
 93
        5
 10
388.718030594181
 20
392.9465013370654
 10
384.4753899070616
 20
397.1891420241847
 10
361.4944195184989
 20
374.208171635622
 10
364.3228466432451
 20
371.3797445108755
 10
367.1512737679913
 20
371.3797445108757
 97
        5
330
2254
330
2C6E
330
2C71
330
2C70
330
2C6F
 75
     0
 76
     0
 52
90.0
 41
5.0
 77
     0
 78
     1
 53
90.0
 43
0.0
 44
0.0
 45
-5.0
 46
0.0000000000000003
 79
     0
 47
0.2048183592830846
 98
        2
 10
396.7055272877542
 20
403.474715415695
 10
380.3144650554109
 20
387.9085202811341
  0
LINE
  5
2CBD
330
106E
100
AcDbEntity
  8
TEXT
 62
     2
100
AcDbLine
 10
433.1671173314084
 20
432.0879815816774
 30
0.0
 11
539.6017084489772
 21
432.0879815816774
 31
0.0
  0
TEXT
  5
2CBE
330
106E
100
AcDbEntity
  8
TEXT
 62
     1
100
AcDbText
 10
435.0867931281259
 20
420.9159854270965
 30
0.0
 40
7.0
  1
EDV-Art.Nr. 01378.000X
 41
0.8
  7
GREEKS
100
AcDbText
  0
TEXT
  5
2CBF
330
106E
100
AcDbEntity
  8
TEXT
 62
     1
100
AcDbText
 10
435.8163009504592
 20
435.3585091825266
 30
0.0
 40
7.0
  1
Losflansch
 41
0.8
  7
GREEKS
100
AcDbText
  0
LINE
  5
2CC0
330
106E
100
AcDbEntity
  8
TEXT
 62
     2
100
AcDbLine
 10
433.1671173314084
 20
432.0879815816774
 30
0.0
 11
405.553491692842
 21
414.1775780194683
 31
0.0
  0
TEXT
  5
2CDE
330
106E
100
AcDbEntity
  8
VOLL
100
AcDbText
 10
349.6877320638095
 20
451.9883425830815
 30
0.0
 40
1.8
  1

 50
45.0
  7
GREEKS
100
AcDbText
  0
ARC
  5
2CDF
330
106E
100
AcDbEntity
  8
STEMPEL
100
AcDbCircle
 10
391.1221936502152
 20
404.896605939118
 30
0.0
 40
0.750000000000001
100
AcDbArc
 50
314.9999991462254
 51
114.9999999999993
  0
ARC
  5
2CE0
330
106E
100
AcDbEntity
  8
STEMPEL
100
AcDbCircle
 10
376.7679259921283
 20
390.5423382810312
 30
0.0
 40
0.7500000000000013
100
AcDbArc
 50
155.0000000000006
 51
314.9999991462254
  0
LINE
  5
2CE1
330
106E
100
AcDbEntity
  8
STEMPEL
100
AcDbLine
 10
376.8735602824013
 20
392.5435229349292
 30
0.0
 11
376.0881951518508
 21
390.8593019773367
 31
0.0
  0
LINE
  5
2CE2
330
106E
100
AcDbEntity
  8
STEMPEL
100
AcDbLine
 10
390.8052299539097
 20
405.5763367793955
 30
0.0
 11
389.1210089963172
 21
404.790971648845
 31
0.0
  0
LINE
  5
2CE3
330
106E
100
AcDbEntity
  8
STEMPEL
100
AcDbLine
 10
383.7478782659105
 20
410.1641023792517
 30
0.0
 11
382.7076229540953
 21
409.5635106949492
 31
0.0
  0
LINE
  5
2CE4
330
106E
100
AcDbEntity
  8
STEMPEL
100
AcDbLine
 10
372.1010212362971
 20
398.9569089771511
 30
0.0
 11
371.5004295519946
 21
397.9166536653358
 31
0.0
  0
LINE
  5
2CE5
330
106E
100
AcDbEntity
  8
STEMPEL
100
AcDbLine
 10
376.8735602824013
 20
392.5435229349292
 30
0.0
 11
371.5004295519946
 21
397.9166536653358
 31
0.0
  0
LINE
  5
2CE6
330
106E
100
AcDbEntity
  8
STEMPEL
100
AcDbLine
 10
391.6525237361051
 20
404.3662758532281
 30
0.0
 11
377.2982560780182
 21
390.0120081951413
 31
0.0
  0
LINE
  5
2CE7
330
106E
100
AcDbEntity
  8
STEMPEL
100
AcDbLine
 10
390.8052299539097
 20
405.5763367793955
 30
0.0
 11
376.0881951518508
 21
390.8593019773367
 31
0.0
  0
LINE
  5
2CE8
330
106E
100
AcDbEntity
  8
STEMPEL
100
AcDbLine
 10
379.9354224608803
 20
395.6053851134082
 30
0.0
 11
374.5622917304736
 21
400.9785158438147
 31
0.0
  0
LINE
  5
2CE9
330
106E
100
AcDbEntity
  8
STEMPEL
100
AcDbLine
 10
386.0591468178382
 20
401.7291094703661
 30
0.0
 11
380.6860160874316
 21
407.1022402007727
 31
0.0
  0
LINE
  5
2CEA
330
106E
100
AcDbEntity
  8
STEMPEL
100
AcDbLine
 10
389.1210089963172
 20
404.790971648845
 30
0.0
 11
383.7478782659105
 21
410.1641023792517
 31
0.0
  0
LINE
  5
2CEB
330
106E
100
AcDbEntity
  8
STEMPEL
100
AcDbLine
 10
372.1010212362971
 20
398.9569089771511
 30
0.0
 11
382.7076229540953
 21
409.5635106949492
 31
0.0
  0
POINT
  5
2CED
330
106E
100
AcDbEntity
  8
0
100
AcDbPoint
 10
384.4753899070617
 20
397.1891420241847
 30
0.0
210
-0.7071067811865475
220
0.7071067811865476
230
0.0
  0
ARC
  5
2CEE
330
106E
100
AcDbEntity
  8
HILF
100
AcDbCircle
 10
382.1796232242662
 20
390.2993221715432
 30
0.0
 40
5.761140599691502
100
AcDbArc
 50
112.9259452632616
 51
157.0740547367383
  0
ARC
  5
2CEF
330
106E
100
AcDbEntity
  8
HILF
100
AcDbCircle
 10
391.3652097597031
 20
399.4849087069801
 30
0.0
 40
5.761140599691502
100
AcDbArc
 50
112.9259452632616
 51
157.0740547367383
  0
ARC
  5
2CF0
330
106E
100
AcDbEntity
  8
HILF
100
AcDbCircle
 10
398.5457266490393
 20
383.1188052822071
 30
0.0
 40
22.41111549782308
100
AcDbArc
 50
123.8596278389052
 51
146.1403721610947
  0
ARC
  5
2CF1
330
106E
100
AcDbEntity
  8
STEMPEL
100
AcDbCircle
 10
387.4378111054114
 20
403.4123073612718
 30
0.0
 40
7.694305707784447
100
AcDbArc
 50
118.6571066940146
 51
151.3428933059825
  0
ARC
  5
2CF2
330
106E
100
AcDbEntity
  8
STEMPEL
100
AcDbCircle
 10
378.2522245699745
 20
394.226720825835
 30
0.0
 40
7.694305707784447
100
AcDbArc
 50
118.6571066940175
 51
151.3428933059854
  0
ARC
  5
2CF3
330
106E
100
AcDbEntity
  8
STEMPEL
100
AcDbCircle
 10
398.8373573445486
 20
382.8271745866977
 30
0.0
 40
30.31088913245485
100
AcDbArc
 50
126.7867892982606
 51
143.2132107017393
  0
TEXT
  5
2CF4
330
106E
100
AcDbEntity
  8
VOLL
100
AcDbText
 10
191.4383648823231
 20
406.1453581556283
 30
0.0
 40
1.8
  1

  7
GREEKS
100
AcDbText
  0
ARC
  5
2CF5
330
106E
100
AcDbEntity
  8
STEMPEL
100
AcDbCircle
 10
132.7549968010933
 20
352.5421724045149
 30
0.0
 40
0.750000000000001
100
AcDbArc
 50
269.9999991462263
 51
70.00000000000047
  0
ARC
  5
2CF6
330
106E
100
AcDbEntity
  8
STEMPEL
100
AcDbCircle
 10
112.4549968010933
 20
352.5421724045149
 30
0.0
 40
0.7500000000000013
100
AcDbArc
 50
109.9999999999995
 51
269.9999991462263
  0
LINE
  5
2CF7
330
106E
100
AcDbEntity
  8
STEMPEL
100
AcDbLine
 10
113.9447427632489
 20
353.8825289207147
 30
0.0
 11
112.1984816935991
 21
353.2469418701043
 31
0.0
  0
LINE
  5
2CF8
330
106E
100
AcDbEntity
  8
STEMPEL
100
AcDbLine
 10
133.0115119085876
 20
353.2469418701043
 30
0.0
 11
131.2652508389377
 21
353.8825289207147
 31
0.0
  0
LINE
  5
2CF9
330
106E
100
AcDbEntity
  8
STEMPEL
100
AcDbLine
 10
131.2652508389377
 20
361.4812832720595
 30
0.0
 11
130.1049968010933
 21
361.7921724045149
 31
0.0
  0
LINE
  5
2CFA
330
106E
100
AcDbEntity
  8
STEMPEL
100
AcDbLine
 10
115.1049968010933
 20
361.7921724045149
 30
0.0
 11
113.9447427632489
 21
361.4812832720595
 31
0.0
  0
LINE
  5
2CFB
330
106E
100
AcDbEntity
  8
STEMPEL
100
AcDbLine
 10
113.9447427632489
 20
353.8825289207147
 30
0.0
 11
113.9447427632489
 21
361.4812832720595
 31
0.0
  0
LINE
  5
2CFC
330
106E
100
AcDbEntity
  8
STEMPEL
100
AcDbLine
 10
132.7549968010933
 20
351.7921724045149
 30
0.0
 11
112.4549968010933
 21
351.7921724045149
 31
0.0
  0
LINE
  5
2CFD
330
106E
100
AcDbEntity
  8
STEMPEL
100
AcDbLine
 10
133.0115119085876
 20
353.2469418701043
 30
0.0
 11
112.1984816935991
 21
353.2469418701043
 31
0.0
  0
LINE
  5
2CFE
330
106E
100
AcDbEntity
  8
STEMPEL
100
AcDbLine
 10
118.2748697821711
 20
353.8825289207147
 30
0.0
 11
118.2748697821711
 21
361.4812832720595
 31
0.0
  0
LINE
  5
2CFF
330
106E
100
AcDbEntity
  8
STEMPEL
100
AcDbLine
 10
126.9351238200155
 20
353.8825289207147
 30
0.0
 11
126.9351238200155
 21
361.4812832720595
 31
0.0
  0
LINE
  5
2D00
330
106E
100
AcDbEntity
  8
STEMPEL
100
AcDbLine
 10
131.2652508389377
 20
353.8825289207147
 30
0.0
 11
131.2652508389377
 21
361.4812832720595
 31
0.0
  0
LINE
  5
2D01
330
106E
100
AcDbEntity
  8
STEMPEL
100
AcDbLine
 10
115.1049968010933
 20
361.7921724045149
 30
0.0
 11
130.1049968010933
 21
361.7921724045149
 31
0.0
  0
POINT
  5
2D03
330
106E
100
AcDbEntity
  8
0
100
AcDbPoint
 10
122.6049968010933
 20
351.7921724045149
 30
0.0
210
0.0000000000000001
220
1.0
230
0.0
  0
ARC
  5
2D04
330
106E
100
AcDbEntity
  8
HILF
100
AcDbCircle
 10
116.10980627271
 20
348.5436862549852
 30
0.0
 40
5.761140599691502
100
AcDbArc
 50
67.92594526326206
 51
112.0740547367379
  0
ARC
  5
2D05
330
106E
100
AcDbEntity
  8
HILF
100
AcDbCircle
 10
129.1001873294766
 20
348.5436862549852
 30
0.0
 40
5.761140599691502
100
AcDbArc
 50
67.92594526326206
 51
112.0740547367379
  0
ARC
  5
2D06
330
106E
100
AcDbEntity
  8
HILF
100
AcDbCircle
 10
122.6049968010933
 20
331.8937113568537
 30
0.0
 40
22.41111549782308
100
AcDbArc
 50
78.85962783890537
 51
101.1403721610946
  0
ARC
  5
2D07
330
106E
100
AcDbEntity
  8
STEMPEL
100
AcDbCircle
 10
129.1001873294766
 20
354.0978666967304
 30
0.0
 40
7.694305707784447
100
AcDbArc
 50
73.65710669401501
 51
106.342893305985
  0
ARC
  5
2D08
330
106E
100
AcDbEntity
  8
STEMPEL
100
AcDbCircle
 10
116.10980627271
 20
354.0978666967304
 30
0.0
 40
7.694305707784447
100
AcDbArc
 50
73.65710669401501
 51
106.342893305985
  0
ARC
  5
2D09
330
106E
100
AcDbEntity
  8
STEMPEL
100
AcDbCircle
 10
122.6049968010933
 20
331.48128327206
 30
0.0
 40
30.31088913245485
100
AcDbArc
 50
81.78678929826221
 51
98.2132107017378
  0
LINE
  5
2D0A
330
106E
100
AcDbEntity
  8
STEMPEL
100
AcDbLine
 10
295.8100775579809
 20
353.8825289207141
 30
0.0
 11
295.8100775579809
 21
361.4812832720589
 31
0.0
  0
LINE
  5
2D0B
330
106E
100
AcDbEntity
  8
STEMPEL
100
AcDbLine
 10
291.4799505390586
 20
353.8825289207141
 30
0.0
 11
291.4799505390586
 21
361.4812832720589
 31
0.0
  0
LINE
  5
2D0C
330
106E
100
AcDbEntity
  8
STEMPEL
100
AcDbLine
 10
282.8196965012143
 20
353.8825289207141
 30
0.0
 11
282.8196965012143
 21
361.4812832720589
 31
0.0
  0
LINE
  5
2D0D
330
106E
100
AcDbEntity
  8
STEMPEL
100
AcDbLine
 10
278.4895694822921
 20
353.8825289207141
 30
0.0
 11
278.4895694822921
 21
361.4812832720589
 31
0.0
  0
ARC
  5
2D0E
330
106E
100
AcDbEntity
  8
HILF
100
AcDbCircle
 10
280.6546329917532
 20
348.5436862549846
 30
0.0
 40
5.761140599691502
100
AcDbArc
 50
67.92594526326206
 51
112.0740547367379
  0
LINE
  5
2D0F
330
106E
100
AcDbEntity
  8
STEMPEL
100
AcDbLine
 10
297.5563386276308
 20
353.2469418701037
 30
0.0
 11
276.7433084126423
 21
353.2469418701037
 31
0.0
  0
LINE
  5
2D10
330
106E
100
AcDbEntity
  8
STEMPEL
100
AcDbLine
 10
297.2998235201364
 20
351.7921724045142
 30
0.0
 11
276.9998235201365
 21
351.7921724045142
 31
0.0
  0
LINE
  5
2D11
330
106E
100
AcDbEntity
  8
STEMPEL
100
AcDbLine
 10
278.4895694822921
 20
353.8825289207141
 30
0.0
 11
276.7433084126423
 21
353.2469418701037
 31
0.0
  0
ARC
  5
2D12
330
106E
100
AcDbEntity
  8
STEMPEL
100
AcDbCircle
 10
276.9998235201365
 20
352.5421724045143
 30
0.0
 40
0.7500000000000013
100
AcDbArc
 50
109.9999999999995
 51
269.9999991462263
  0
LINE
  5
2D13
330
106E
100
AcDbEntity
  8
STEMPEL
100
AcDbLine
 10
297.5563386276308
 20
353.2469418701037
 30
0.0
 11
295.8100775579809
 21
353.8825289207141
 31
0.0
  0
ARC
  5
2D14
330
106E
100
AcDbEntity
  8
HILF
100
AcDbCircle
 10
287.1498235201364
 20
331.8937113568531
 30
0.0
 40
22.41111549782308
100
AcDbArc
 50
78.85962783890537
 51
101.1403721610946
  0
POINT
  5
2D15
330
106E
100
AcDbEntity
  8
0
100
AcDbPoint
 10
287.1498235201364
 20
351.7921724045142
 30
0.0
210
0.0000000000000001
220
1.0
230
0.0
  0
ARC
  5
2D16
330
106E
100
AcDbEntity
  8
HILF
100
AcDbCircle
 10
293.6450140485198
 20
348.5436862549846
 30
0.0
 40
5.761140599691502
100
AcDbArc
 50
67.92594526326206
 51
112.0740547367379
  0
ARC
  5
2D17
330
106E
100
AcDbEntity
  8
STEMPEL
100
AcDbCircle
 10
297.2998235201364
 20
352.5421724045143
 30
0.0
 40
0.750000000000001
100
AcDbArc
 50
269.9999991462263
 51
70.00000000000047
  0
ARC
  5
2D18
330
106E
100
AcDbEntity
  8
STEMPEL
100
AcDbCircle
 10
280.6546329917532
 20
354.0978666967298
 30
0.0
 40
7.694305707784447
100
AcDbArc
 50
73.65710669401501
 51
106.342893305985
  0
LINE
  5
2D19
330
106E
100
AcDbEntity
  8
STEMPEL
100
AcDbLine
 10
279.6498235201365
 20
361.7921724045142
 30
0.0
 11
294.6498235201365
 21
361.7921724045142
 31
0.0
  0
LINE
  5
2D1A
330
106E
100
AcDbEntity
  8
STEMPEL
100
AcDbLine
 10
279.6498235201365
 20
361.7921724045142
 30
0.0
 11
278.4895694822921
 21
361.4812832720589
 31
0.0
  0
ARC
  5
2D1B
330
106E
100
AcDbEntity
  8
STEMPEL
100
AcDbCircle
 10
287.1498235201364
 20
331.4812832720594
 30
0.0
 40
30.31088913245485
100
AcDbArc
 50
81.78678929826221
 51
98.2132107017378
  0
ARC
  5
2D1C
330
106E
100
AcDbEntity
  8
STEMPEL
100
AcDbCircle
 10
293.6450140485198
 20
354.0978666967298
 30
0.0
 40
7.694305707784447
100
AcDbArc
 50
73.65710669401501
 51
106.342893305985
  0
LINE
  5
2D1D
330
106E
100
AcDbEntity
  8
STEMPEL
100
AcDbLine
 10
295.8100775579809
 20
361.4812832720589
 30
0.0
 11
294.6498235201365
 21
361.7921724045142
 31
0.0
  0
ARC
  5
2D1E
330
106E
100
AcDbEntity
  8
STEMPEL
100
AcDbCircle
 10
204.8774101606151
 20
331.4812832720597
 30
0.0
 40
30.31088913245485
100
AcDbArc
 50
81.78678929826221
 51
98.2132107017378
  0
LINE
  5
2D1F
330
106E
100
AcDbEntity
  8
STEMPEL
100
AcDbLine
 10
197.3774101606151
 20
361.7921724045146
 30
0.0
 11
212.3774101606151
 21
361.7921724045146
 31
0.0
  0
ARC
  5
2D20
330
106E
100
AcDbEntity
  8
HILF
100
AcDbCircle
 10
204.8774101606151
 20
331.8937113568533
 30
0.0
 40
22.41111549782308
100
AcDbArc
 50
78.85962783890537
 51
101.1403721610946
  0
LINE
  5
2D21
330
106E
100
AcDbEntity
  8
STEMPEL
100
AcDbLine
 10
215.0274101606151
 20
351.7921724045145
 30
0.0
 11
194.7274101606151
 21
351.7921724045145
 31
0.0
  0
LINE
  5
2D22
330
106E
100
AcDbEntity
  8
STEMPEL
100
AcDbLine
 10
215.2839252681094
 20
353.246941870104
 30
0.0
 11
194.4708950531208
 21
353.246941870104
 31
0.0
  0
LINE
  5
2D23
330
106E
100
AcDbEntity
  8
STEMPEL
100
AcDbLine
 10
196.2171561227707
 20
353.8825289207144
 30
0.0
 11
196.2171561227707
 21
361.4812832720592
 31
0.0
  0
LINE
  5
2D24
330
106E
100
AcDbEntity
  8
STEMPEL
100
AcDbLine
 10
200.5472831416929
 20
353.8825289207144
 30
0.0
 11
200.5472831416929
 21
361.4812832720592
 31
0.0
  0
ARC
  5
2D25
330
106E
100
AcDbEntity
  8
HILF
100
AcDbCircle
 10
198.3822196322318
 20
348.5436862549849
 30
0.0
 40
5.761140599691502
100
AcDbArc
 50
67.92594526326206
 51
112.0740547367379
  0
ARC
  5
2D26
330
106E
100
AcDbEntity
  8
STEMPEL
100
AcDbCircle
 10
194.7274101606151
 20
352.5421724045145
 30
0.0
 40
0.7500000000000013
100
AcDbArc
 50
109.9999999999995
 51
269.9999991462263
  0
LINE
  5
2D27
330
106E
100
AcDbEntity
  8
STEMPEL
100
AcDbLine
 10
196.2171561227707
 20
353.8825289207144
 30
0.0
 11
194.4708950531208
 21
353.246941870104
 31
0.0
  0
POINT
  5
2D28
330
106E
100
AcDbEntity
  8
0
100
AcDbPoint
 10
204.8774101606151
 20
351.7921724045145
 30
0.0
210
0.0000000000000001
220
1.0
230
0.0
  0
ARC
  5
2D29
330
106E
100
AcDbEntity
  8
STEMPEL
100
AcDbCircle
 10
198.3822196322318
 20
354.0978666967301
 30
0.0
 40
7.694305707784447
100
AcDbArc
 50
73.65710669401501
 51
106.342893305985
  0
LINE
  5
2D2A
330
106E
100
AcDbEntity
  8
STEMPEL
100
AcDbLine
 10
197.3774101606151
 20
361.7921724045146
 30
0.0
 11
196.2171561227707
 21
361.4812832720592
 31
0.0
  0
LINE
  5
2D2B
330
106E
100
AcDbEntity
  8
STEMPEL
100
AcDbLine
 10
209.2075371795373
 20
353.8825289207144
 30
0.0
 11
209.2075371795373
 21
361.4812832720592
 31
0.0
  0
LINE
  5
2D2C
330
106E
100
AcDbEntity
  8
STEMPEL
100
AcDbLine
 10
213.5376641984595
 20
353.8825289207144
 30
0.0
 11
213.5376641984595
 21
361.4812832720592
 31
0.0
  0
LINE
  5
2D2D
330
106E
100
AcDbEntity
  8
STEMPEL
100
AcDbLine
 10
215.2839252681094
 20
353.246941870104
 30
0.0
 11
213.5376641984595
 21
353.8825289207144
 31
0.0
  0
ARC
  5
2D2E
330
106E
100
AcDbEntity
  8
HILF
100
AcDbCircle
 10
211.3726006889984
 20
348.5436862549849
 30
0.0
 40
5.761140599691502
100
AcDbArc
 50
67.92594526326206
 51
112.0740547367379
  0
ARC
  5
2D2F
330
106E
100
AcDbEntity
  8
STEMPEL
100
AcDbCircle
 10
215.0274101606151
 20
352.5421724045145
 30
0.0
 40
0.750000000000001
100
AcDbArc
 50
269.9999991462263
 51
70.00000000000047
  0
LINE
  5
2D30
330
106E
100
AcDbEntity
  8
STEMPEL
100
AcDbLine
 10
213.5376641984595
 20
361.4812832720592
 30
0.0
 11
212.3774101606151
 21
361.7921724045146
 31
0.0
  0
ARC
  5
2D31
330
106E
100
AcDbEntity
  8
STEMPEL
100
AcDbCircle
 10
211.3726006889984
 20
354.0978666967301
 30
0.0
 40
7.694305707784447
100
AcDbArc
 50
73.65710669401501
 51
106.342893305985
  0
LINE
  5
2D33
330
106E
100
AcDbEntity
  8
TEXT
 62
     2
100
AcDbLine
 10
90.63011681346257
 20
437.039200677744
 30
0.0
 11
77.16234728120458
 21
359.1578660669071
 31
0.0
  0
LINE
  5
2D34
330
106E
100
AcDbEntity
  8
TEXT
 62
     2
100
AcDbLine
 10
90.63011681346257
 20
437.039200677744
 30
0.0
 11
197.0647079310313
 21
437.039200677744
 31
0.0
  0
TEXT
  5
2D35
330
106E
100
AcDbEntity
  8
TEXT
 62
     1
100
AcDbText
 10
92.54979261018002
 20
425.867204523163
 30
0.0
 40
7.0
  1
EDV-Art.Nr. 19929.100X
 41
0.8
  7
GREEKS
100
AcDbText
  0
TEXT
  5
2D36
330
106E
100
AcDbEntity
  8
TEXT
 62
     1
100
AcDbText
 10
93.27930043251331
 20
440.3097282785932
 30
0.0
 40
7.0
  1
Losflansch
 41
0.8
  7
GREEKS
100
AcDbText
  0
DIMENSION
  5
3134
330
106E
100
AcDbEntity
  8
BEM
100
AcDbDimension
  2
*D5
 10
804.8774101606154
 20
459.1595911493536
 30
0.0
 11
504.8774101606152
 21
465.0595911493536
 31
0.0
 70
    32
 71
     5
 42
600.0000000000004
  3
STANDARD
100
AcDbAlignedDimension
 13
204.877410160615
 23
370.7921724045144
 33
0.0
 14
804.8774101606154
 24
284.8831228077281
 34
0.0
100
AcDbRotatedDimension
  0
TEXT
  5
3188
330
106E
100
AcDbEntity
  8
VOLL
100
AcDbText
 10
110.5617768838336
 20
249.4142614456772
 30
0.0
 40
1.8
  1

 50
270.0
  7
GREEKS
100
AcDbText
  0
HATCH
  5
3251
330
106E
100
AcDbEntity
  8
SCHRAFF
100
AcDbHatch
 10
0.0
 20
0.0
 30
0.0
210
0.0
220
0.0
230
1.0
  2
_USER
 70
     0
 71
     1
 91
        2
 92
        7
 72
     1
 73
     1
 93
       14
 10
414.7535063472794
 20
341.8787408807429
 42
0.066357857745891
 10
409.4851235008205
 20
341.4555122064879
 42
0.0
 10
379.03938491035
 20
334.8807876733953
 42
-0.0663578577458852
 10
374.1924726916082
 20
334.4914172930808
 42
0.0
 10
331.7035517977338
 20
336.7181672812619
 42
0.0
 10
331.6407486502424
 20
335.5198118395564
 42
0.0
 10
374.1296695441165
 20
333.2930618513753
 42
0.0663578577458895
 10
379.2926847336462
 20
333.7078259521452
 42
0.0
 10
409.7384233241164
 20
340.2825504852377
 42
-0.0663578577458885
 10
414.6907031997876
 20
340.6803854390374
 42
0.0
 10
797.6848822747222
 20
320.6085110353865
 42
0.0
 10
806.6834202923763
 20
319.3438489912846
 42
0.0
 10
806.7464633376886
 20
320.5467819560967
 42
0.0
 10
797.8000067507402
 20
321.8041244324548
 42
0.0
 97
       14
330
3262
330
325F
330
3286
330
3270
330
3273
330
326E
330
3285
330
325E
330
3261
330
3252
330
3267
330
3264
330
3268
330
3255
 92
        7
 72
     1
 73
     1
 93
       14
 10
410.9957846890356
 20
270.1771402853641
 42
-0.0663578577458861
 10
406.112218997044
 20
271.0904500627363
 42
0.0
 10
376.5205112000146
 20
280.8116038348223
 42
0.0663578577458886
 10
371.4291342019806
 20
281.7637778580398
 42
0.0
 10
328.9402133081065
 20
283.9905278462202
 42
0.0
 10
328.877410160615
 20
282.7921724045148
 42
0.0
 10
371.3663310544891
 20
280.5654224163344
 42
-0.0663578577458901
 10
376.14599109346
 20
279.6715447618852
 42
0.0
 10
405.737698890489
 20
269.9503909897992
 42
0.0663578577458909
 10
410.9329815415444
 20
268.9787848436586
 42
0.0
 10
793.9794819449377
 20
248.9041683953754
 42
0.0
 10
803.0083569835428
 20
249.2194636593683
 42
0.0
 10
803.0714000288551
 20
250.4223966241801
 42
0.0
 10
793.9899637639054
 20
250.1052658817181
 42
0.0
 97
       14
330
325B
330
3257
330
3284
330
326D
330
3273
330
326F
330
326C
330
3259
330
325A
330
3254
330
3266
330
3264
330
3265
330
3253
 75
     0
 76
     0
 52
135.0
 41
2.0
 77
     0
 78
     1
 53
135.0
 43
0.0
 44
-109.3692802789232
 45
-1.414213562373095
 46
-1.414213562373094
 79
     0
 47
0.4694822358078758
 98
        2
 10
617.077291524006
 20
330.4180342828061
 10
501.5397894564091
 20
264.69052093914
  0
LINE
  5
3252
102
{ACAD_REACTORS
330
3251
102
}
330
106E
100
AcDbEntity
  8
STEMPEL
100
AcDbLine
 10
414.6907031997877
 20
340.6803854390374
 30
0.0
 11
797.7372036032238
 21
320.6057689907506
 31
0.0
  0
LINE
  5
3253
102
{ACAD_REACTORS
330
3251
102
}
330
106E
100
AcDbEntity
  8
STEMPEL
100
AcDbLine
 10
410.9957846890356
 20
270.1771402853641
 30
0.0
 11
793.9899637639059
 21
250.1052658817181
 31
0.0
  0
LINE
  5
3254
102
{ACAD_REACTORS
330
3251
102
}
330
106E
100
AcDbEntity
  8
STEMPEL
100
AcDbLine
 10
410.9329815415442
 20
268.9787848436586
 30
0.0
 11
793.9794819449383
 21
248.9041683953754
 31
0.0
  0
LINE
  5
3255
102
{ACAD_REACTORS
330
3251
102
}
330
106E
100
AcDbEntity
  8
STEMPEL
100
AcDbLine
 10
414.7535063472794
 20
341.8787408807429
 30
0.0
 11
797.8000067507155
 21
321.8041244324561
 31
0.0
  0
LINE
  5
3256
330
106E
100
AcDbEntity
  8
MITTEL
100
AcDbLine
 10
325.2973333054015
 20
310.016849624103
 30
0.0
 11
809.8705578343885
 21
284.6214430265148
 31
0.0
  0
LINE
  5
3257
102
{ACAD_REACTORS
330
3251
102
}
330
106E
100
AcDbEntity
  8
STEMPEL
100
AcDbLine
 10
376.5205112000146
 20
280.8116038348223
 30
0.0
 11
406.112218997044
 21
271.0904500627363
 31
0.0
  0
LWPOLYLINE
  5
3258
330
106E
100
AcDbEntity
  8
HILF
100
AcDbPolyline
 90
       15
 70
   128
 43
0.0
 10
-379.509772735302
 20
281.4612310857
 10
-380.7400648434855
 20
281.3130446771424
 10
-381.7563355486893
 20
281.1681492431438
 10
-383.5371221141254
 20
280.8687007342101
 10
-385.3896844863693
 20
280.5367830260487
 10
-387.3472849989203
 20
280.1731787481
 10
-391.4617866312967
 20
279.3673086240167
 10
-395.6489993839602
 20
278.483886644311
 10
-399.677295629617
 20
277.5557090913341
 10
-401.5594664287882
 20
277.0850858131035
 10
-403.3150477409726
 20
276.6155722474366
 10
-404.9150861127575
 20
276.1512679296273
 10
-406.3306280907324
 20
275.6962723949694
 10
-407.5327202214843
 20
275.2546851787569
 10
-408.4924090516024
 20
274.8306058162835
210
0.0
220
0.0
230
-1.0
  0
LINE
  5
3259
102
{ACAD_REACTORS
330
3251
102
}
330
106E
100
AcDbEntity
  8
STEMPEL
100
AcDbLine
 10
376.1459910934598
 20
279.6715447618852
 30
0.0
 11
405.737698890489
 21
269.9503909897992
 31
0.0
  0
ARC
  5
325A
102
{ACAD_REACTORS
330
3251
102
}
330
106E
100
AcDbEntity
  8
STEMPEL
100
AcDbCircle
 10
411.979700666403
 20
288.9513755387504
 30
0.0
 40
20.0
100
AcDbArc
 50
251.8141627377968
 51
267.0000000000001
  0
ARC
  5
325B
102
{ACAD_REACTORS
330
3251
102
}
330
106E
100
AcDbEntity
  8
STEMPEL
100
AcDbCircle
 10
411.979700666403
 20
288.9513755387504
 30
0.0
 40
18.8
100
AcDbArc
 50
251.8141627377968
 51
267.0000000000001
  0
LWPOLYLINE
  5
325C
330
106E
100
AcDbEntity
  8
HILF
100
AcDbPolyline
 90
       18
 70
   128
 43
0.0
 10
-382.2090310511358
 20
332.5217632173994
 10
-384.7374347724044
 20
332.4676001423027
 10
-387.3515649083181
 20
332.3324808939946
 10
-392.6760304521236
 20
331.8438432905541
 10
-395.305878874037
 20
331.5025596418263
 10
-397.8604797386383
 20
331.1047892326968
 10
-400.2995895529388
 20
330.6566494163678
 10
-402.5829648239492
 20
330.1642575460418
 10
-404.6703620586797
 20
329.6337309749211
 10
-406.5272728292493
 20
329.0681926177445
 10
-408.1831143410124
 20
328.4373880218776
 10
-409.7072792785756
 20
327.690190414941
 10
-411.1697719119058
 20
326.7751536986725
 10
-412.6405965109699
 20
325.64083177481
 10
-413.4010096320166
 20
324.9753619543239
 10
-414.1897573457344
 20
324.235778545091
 10
-415.0155901858693
 20
323.4156507848285
 10
-415.8872586861669
 20
322.5085479112536
210
0.0
220
0.0
230
-1.0
  0
LWPOLYLINE
  5
325D
330
106E
100
AcDbEntity
  8
HILF
100
AcDbPolyline
 90
       18
 70
   128
 43
0.0
 10
379.5448587822361
 20
281.6863279948838
 10
382.0650732263743
 20
281.4759042034835
 10
384.6790066912661
 20
281.3370322485227
 10
390.0253807934969
 20
281.266434843029
 10
392.6764964859294
 20
281.3309548900504
 10
395.2586813093019
 20
281.4595177686203
 10
397.7312727911613
 20
281.6502462275159
 10
400.053608459054
 20
281.9012630155143
 10
402.1850258405268
 20
282.210690881393
 10
404.0908791149979
 20
282.579031131003
 10
405.8035867887342
 20
283.0332975446523
 10
407.3975056089039
 20
283.6170833062273
 10
408.9476339363507
 20
284.37423524812
 10
410.5289701319184
 20
285.3486002027212
 10
411.354778168011
 20
285.9309396949097
 10
412.2165125564506
 20
286.5840250024222
 10
413.1235480923421
 20
287.3133369793073
 10
414.0852595707912
 20
288.124356479614
  0
LINE
  5
325E
102
{ACAD_REACTORS
330
3251
102
}
330
106E
100
AcDbEntity
  8
STEMPEL
100
AcDbLine
 10
379.292684733646
 20
333.7078259521451
 30
0.0
 11
409.7384233241164
 21
340.2825504852377
 31
0.0
  0
LINE
  5
325F
102
{ACAD_REACTORS
330
3251
102
}
330
106E
100
AcDbEntity
  8
STEMPEL
100
AcDbLine
 10
379.03938491035
 20
334.8807876733953
 30
0.0
 11
409.4851235008205
 21
341.4555122064879
 31
0.0
  0
LWPOLYLINE
  5
3260
330
106E
100
AcDbEntity
  8
HILF
100
AcDbPolyline
 90
       15
 70
   128
 43
0.0
 10
382.197666243241
 20
332.7492945127306
 10
383.4367083800919
 20
332.7680685971984
 10
384.4625575450891
 20
332.8059410637699
 10
386.2648896678593
 20
332.9176062793472
 10
388.1419983575568
 20
333.054060209696
 10
390.1268819260845
 20
333.2110476520966
 10
394.3030802536748
 20
333.582420602576
 10
398.5596977587195
 20
334.0233201898321
 10
402.6629475493071
 20
334.5253414729116
 10
404.5840011479572
 20
334.7966462063374
 10
406.3790427335265
 20
335.0800795108615
 10
408.0188489445253
 20
335.3745907688648
 10
409.4741964194654
 20
335.6791293627283
 10
410.7158617968575
 20
335.9926446748327
 10
411.7146217152132
 20
336.3140860875589
  0
ARC
  5
3261
102
{ACAD_REACTORS
330
3251
102
}
330
106E
100
AcDbEntity
  8
STEMPEL
100
AcDbCircle
 10
413.7067872224202
 20
321.9061501856513
 30
0.0
 40
18.8
100
AcDbArc
 50
87.00000000000009
 51
102.1858372622027
  0
ARC
  5
3262
102
{ACAD_REACTORS
330
3251
102
}
330
106E
100
AcDbEntity
  8
STEMPEL
100
AcDbCircle
 10
413.7067872224202
 20
321.9061501856513
 30
0.0
 40
20.0
100
AcDbArc
 50
87.00000000000009
 51
102.1858372622027
  0
LINE
  5
3263
330
106E
100
AcDbEntity
  8
HILF
100
AcDbLine
 10
794.1055680355812
 20
251.310034325
 30
0.0
 11
797.6739206600669
 21
319.3982585028375
 31
0.0
  0
LINE
  5
3264
102
{ACAD_REACTORS
330
3251
102
}
330
106E
100
AcDbEntity
  8
STEMPEL
100
AcDbLine
 10
803.0083569835428
 20
249.2194636593683
 30
0.0
 11
806.7464633376884
 21
320.5467819560967
 31
0.0
  0
LINE
  5
3265
102
{ACAD_REACTORS
330
3251
102
}
330
106E
100
AcDbEntity
  8
STEMPEL
100
AcDbLine
 10
793.9899637639059
 20
250.1052658817181
 30
0.0
 11
803.0714000288549
 21
250.4223966241802
 31
0.0
  0
LINE
  5
3266
102
{ACAD_REACTORS
330
3251
102
}
330
106E
100
AcDbEntity
  8
STEMPEL
100
AcDbLine
 10
793.9794819449568
 20
248.9041683953761
 30
0.0
 11
803.0083569835428
 21
249.2194636593683
 31
0.0
  0
LINE
  5
3267
102
{ACAD_REACTORS
330
3251
102
}
330
106E
100
AcDbEntity
  8
STEMPEL
100
AcDbLine
 10
797.6329990295393
 20
320.6158027499717
 30
0.0
 11
806.6834202923764
 21
319.3438489912847
 31
0.0
  0
LINE
  5
3268
102
{ACAD_REACTORS
330
3251
102
}
330
106E
100
AcDbEntity
  8
STEMPEL
100
AcDbLine
 10
797.8000067506914
 20
321.8041244324616
 30
0.0
 11
806.7464633376884
 21
320.5467819560967
 31
0.0
  0
LINE
  5
3269
102
{ACAD_REACTORS
330
3275
102
}
330
106E
100
AcDbEntity
  8
STEMPEL
100
AcDbLine
 10
146.877410160615
 20
282.7921724045147
 30
0.0
 11
328.877410160615
 21
282.7921724045147
 31
0.0
  0
LINE
  5
326A
330
106E
100
AcDbEntity
  8
STEMPEL
100
AcDbLine
 10
146.877410160615
 20
284.2921724045147
 30
0.0
 11
328.877410160615
 21
284.2921724045147
 31
0.0
  0
HATCH
  5
326B
330
106E
100
AcDbEntity
  8
SCHRAFF
100
AcDbHatch
 10
0.0
 20
0.0
 30
0.0
210
0.0
220
0.0
230
1.0
  2
_USER
 70
     0
 71
     0
 91
        2
 92
        7
 72
     0
 73
     1
 93
        4
 10
345.6274101606152
 20
337.7921724045148
 10
341.6274101606152
 20
337.7921724045148
 10
341.627410160615
 20
336.2921724045147
 10
345.627410160615
 20
336.2921724045147
 97
        0
 92
        7
 72
     1
 73
     1
 93
       12
 10
328.8774101606149
 20
284.2921724045147
 42
0.0
 10
146.877410160615
 20
284.2921724045147
 42
-0.4142135623730951
 10
139.377410160615
 20
291.7921724045147
 42
0.0
 10
139.377410160615
 20
329.2921724045147
 42
0.4142135623730951
 10
130.877410160615
 20
337.7921724045148
 42
0.0
 10
130.127410160615
 20
337.7921724045148
 42
0.0
 10
130.127410160615
 20
336.2921724045147
 42
0.0
 10
130.877410160615
 20
336.2921724045147
 42
-0.4142135623730927
 10
137.877410160615
 20
329.2921724045148
 42
0.0
 10
137.877410160615
 20
291.7921724045147
 42
0.4142135623730951
 10
146.877410160615
 20
282.7921724045147
 42
0.0
 10
328.877410160615
 20
282.7921724045147
 42
0.0
 97
        0
 75
     0
 76
     0
 52
45.0
 41
2.0
 77
     0
 78
     1
 53
45.0
 43
-329.0791590353062
 44
-175.8259108607203
 45
-1.414213562373094
 46
1.414213562373095
 79
     0
 47
0.2170226535082145
 98
        2
 10
343.5487999381814
 20
336.6475413806456
 10
303.8182246581857
 20
283.6940126076913
  0
ARC
  5
326C
102
{ACAD_REACTORS
330
3251
102
}
330
106E
100
AcDbEntity
  8
STEMPEL
100
AcDbCircle
 10
370.4033494596192
 20
262.1906389768501
 30
0.0
 40
18.4
100
AcDbArc
 50
71.81416273779679
 51
87.00000000000009
  0
LINE
  5
326D
102
{ACAD_REACTORS
330
3251
102
}
330
106E
100
AcDbEntity
  8
STEMPEL
100
AcDbLine
 10
328.9402133081066
 20
283.9905278462202
 30
0.0
 11
371.4291342019806
 21
281.7637778580398
 31
0.0
  0
LINE
  5
326E
102
{ACAD_REACTORS
330
3251
102
}
330
106E
100
AcDbEntity
  8
STEMPEL
100
AcDbLine
 10
331.6407486502426
 20
335.5198118395565
 30
0.0
 11
374.1296695441165
 21
333.2930618513753
 31
0.0
  0
LINE
  5
326F
102
{ACAD_REACTORS
330
3251
330
3275
102
}
330
106E
100
AcDbEntity
  8
STEMPEL
100
AcDbLine
 10
328.8774101606152
 20
282.7921724045147
 30
0.0
 11
371.3663310544891
 21
280.5654224163344
 31
0.0
  0
LINE
  5
3270
102
{ACAD_REACTORS
330
3251
102
}
330
106E
100
AcDbEntity
  8
STEMPEL
100
AcDbLine
 10
331.7035517977342
 20
336.7181672812619
 30
0.0
 11
374.1924726916082
 21
334.4914172930808
 31
0.0
  0
LINE
  5
3271
330
106E
100
AcDbEntity
  8
VERDECKT
100
AcDbLine
 10
336.377410160615
 20
329.2921724045148
 30
0.0
 11
336.377410160615
 21
291.7921724045147
 31
0.0
  0
LINE
  5
3272
330
106E
100
AcDbEntity
  8
VERDECKT
100
AcDbLine
 10
337.877410160615
 20
329.2921724045148
 30
0.0
 11
337.877410160615
 21
291.7921724045147
 31
0.0
  0
LINE
  5
3273
102
{ACAD_REACTORS
330
3251
102
}
330
106E
100
AcDbEntity
  8
STEMPEL
100
AcDbLine
 10
328.877410160615
 20
282.7921724045149
 30
0.0
 11
331.7035517977338
 21
336.7181672812619
 31
0.0
  0
ARC
  5
3274
330
106E
100
AcDbEntity
  8
VERDECKT
100
AcDbCircle
 10
328.877410160615
 20
291.7921724045147
 30
0.0
 40
9.0
100
AcDbArc
 50
270.0
 51
0.0
  0
HATCH
  5
3275
330
106E
100
AcDbEntity
  8
SCHRAFF
100
AcDbHatch
 10
0.0
 20
0.0
 30
0.0
210
0.0
220
0.0
230
1.0
  2
_USER
 70
     0
 71
     1
 91
        1
 92
        7
 72
     1
 73
     1
 93
        3
 10
331.8732987648787
 20
282.6351645357859
 42
0.0
 10
328.8774101606168
 20
282.7921724045146
 42
0.0
 10
325.8774101606152
 20
282.7921724045146
 42
0.617377650868391
 97
        3
330
326F
330
3269
330
3276
 75
     0
 76
     0
 52
0.0
 41
0.1
 77
     0
 78
     1
 53
0.0
 43
0.0
 44
-109.3692802789232
 45
0.0
 46
0.1
 79
     0
 47
0.0088249133372464
 98
        1
 10
328.5184156590865
 20
281.8874700097883
  0
ARC
  5
3276
102
{ACAD_REACTORS
330
3275
102
}
330
106E
100
AcDbEntity
  8
SCHRAFF
100
AcDbCircle
 10
328.914699711425
 20
284.2162028978256
 30
0.0
 40
3.354547758094686
100
AcDbArc
 50
205.1194901845567
 51
331.8805098154441
  0
ARC
  5
3277
330
106E
100
AcDbEntity
  8
VERDECKT
100
AcDbCircle
 10
328.877410160615
 20
291.7921724045147
 30
0.0
 40
7.5
100
AcDbArc
 50
270.6007249597689
 51
0.0
  0
ARC
  5
3278
330
106E
100
AcDbEntity
  8
STEMPEL
100
AcDbCircle
 10
328.877410160615
 20
291.7921724045147
 30
0.0
 40
7.5
100
AcDbArc
 50
270.0
 51
270.6007249597689
  0
LINE
  5
3279
330
106E
100
AcDbEntity
  8
STEMPEL
100
AcDbLine
 10
328.8774101606149
 20
284.2921724045147
 30
0.0
 11
328.877410160615
 21
282.7921724045147
 31
0.0
  0
ARC
  5
327A
330
106E
100
AcDbEntity
  8
VERDECKT
100
AcDbCircle
 10
344.877410160615
 20
329.2921724045148
 30
0.0
 40
7.0
100
AcDbArc
 50
103.0734957332557
 51
180.0
  0
ARC
  5
327B
330
106E
100
AcDbEntity
  8
VERDECKT
100
AcDbCircle
 10
344.877410160615
 20
329.2921724045148
 30
0.0
 40
8.5
100
AcDbArc
 50
124.689512820437
 51
180.0
  0
HATCH
  5
327C
330
106E
100
AcDbEntity
  8
SCHRAFF
100
AcDbHatch
 10
0.0
 20
0.0
 30
0.0
210
0.0
220
0.0
230
1.0
  2
_USER
 70
     0
 71
     0
 91
        1
 92
        7
 72
     1
 73
     1
 93
        8
 10
347.3403217966766
 20
340.255084040576
 42
0.0
 10
346.546901507852
 20
339.4616637517514
 42
-0.1989123673796576
 10
342.5163928550887
 20
337.7921724045148
 42
0.0
 10
345.6274101606152
 20
337.7921724045148
 42
0.0
 10
345.627410160615
 20
336.2921724045148
 42
0.0
 10
344.877410160615
 20
336.2921724045148
 42
0.0571058406602824
 10
343.294005016636
 20
336.1107373671752
 42
0.0
 10
347.9289128331087
 20
335.8678321413322
 42
0.4404368942692135
 97
        0
 75
     0
 76
     0
 52
0.0
 41
0.1
 77
     0
 78
     1
 53
0.0
 43
0.0
 44
-109.3692802789232
 45
0.0
 46
0.1
 79
     0
 47
0.0312508854491836
 98
        1
 10
346.6148872167175
 20
337.9970240505611
  0
ARC
  5
327D
330
106E
100
AcDbEntity
  8
SCHRAFF
100
AcDbCircle
 10
345.6274101606152
 20
337.7921724045148
 30
0.0
 40
3.0
100
AcDbArc
 50
320.1002148816612
 51
55.18206740315879
  0
ARC
  5
327E
330
106E
100
AcDbEntity
  8
STEMPEL
100
AcDbCircle
 10
344.877410160615
 20
329.2921724045148
 30
0.0
 40
8.5
100
AcDbArc
 50
112.479505609403
 51
124.689512820437
  0
ARC
  5
327F
330
106E
100
AcDbEntity
  8
STEMPEL
100
AcDbCircle
 10
344.877410160615
 20
329.2921724045148
 30
0.0
 40
7.0
100
AcDbArc
 50
90.0
 51
103.0734957332557
  0
LINE
  5
3280
330
106E
100
AcDbEntity
  8
STEMPEL
100
AcDbLine
 10
341.627410160615
 20
336.2921724045147
 30
0.0
 11
345.627410160615
 21
336.2921724045147
 31
0.0
  0
LINE
  5
3281
330
106E
100
AcDbEntity
  8
STEMPEL
100
AcDbLine
 10
345.6274101606152
 20
337.7921724045148
 30
0.0
 11
345.627410160615
 21
336.2921724045147
 31
0.0
  0
LINE
  5
3282
330
106E
100
AcDbEntity
  8
STEMPEL
100
AcDbLine
 10
341.6274101606152
 20
337.7921724045148
 30
0.0
 11
341.627410160615
 21
336.2921724045147
 31
0.0
  0
ARC
  5
3283
330
106E
100
AcDbEntity
  8
HILF
100
AcDbCircle
 10
450.1486480029898
 20
303.4736694802341
 30
0.0
 40
80.94787580997081
100
AcDbArc
 50
162.4032761251203
 51
191.5967238748804
  0
ARC
  5
3284
102
{ACAD_REACTORS
330
3251
102
}
330
106E
100
AcDbEntity
  8
STEMPEL
100
AcDbCircle
 10
370.4033494596192
 20
262.1906389768501
 30
0.0
 40
19.6
100
AcDbArc
 50
71.81416273779679
 51
87.00000000000009
  0
ARC
  5
3285
102
{ACAD_REACTORS
330
3251
102
}
330
106E
100
AcDbEntity
  8
STEMPEL
100
AcDbCircle
 10
375.1554542864785
 20
352.866200732565
 30
0.0
 40
19.6
100
AcDbArc
 50
267.0000000000001
 51
282.1858372622027
  0
ARC
  5
3286
102
{ACAD_REACTORS
330
3251
102
}
330
106E
100
AcDbEntity
  8
STEMPEL
100
AcDbCircle
 10
375.1554542864785
 20
352.866200732565
 30
0.0
 40
18.4
100
AcDbArc
 50
267.0000000000001
 51
282.1858372622027
  0
LINE
  5
3287
330
106E
100
AcDbEntity
  8
STEMPEL
100
AcDbLine
 10
139.377410160615
 20
329.2921724045147
 30
0.0
 11
139.377410160615
 21
291.7921724045147
 31
0.0
  0
LINE
  5
3288
330
106E
100
AcDbEntity
  8
STEMPEL
100
AcDbLine
 10
137.877410160615
 20
329.2921724045147
 30
0.0
 11
137.877410160615
 21
291.7921724045147
 31
0.0
  0
ARC
  5
3289
330
106E
100
AcDbEntity
  8
STEMPEL
100
AcDbCircle
 10
146.877410160615
 20
291.7921724045147
 30
0.0
 40
7.5
100
AcDbArc
 50
180.0
 51
270.0
  0
ARC
  5
328A
330
106E
100
AcDbEntity
  8
STEMPEL
100
AcDbCircle
 10
146.877410160615
 20
291.7921724045147
 30
0.0
 40
9.0
100
AcDbArc
 50
180.0
 51
270.0
  0
ARC
  5
328B
330
106E
100
AcDbEntity
  8
STEMPEL
100
AcDbCircle
 10
130.877410160615
 20
329.2921724045147
 30
0.0
 40
8.5
100
AcDbArc
 50
0.0
 51
90.0
  0
ARC
  5
328C
330
106E
100
AcDbEntity
  8
STEMPEL
100
AcDbCircle
 10
130.877410160615
 20
329.2921724045147
 30
0.0
 40
7.0
100
AcDbArc
 50
0.0
 51
90.0
  0
HATCH
  5
328D
330
106E
100
AcDbEntity
  8
SCHRAFF
100
AcDbHatch
 10
0.0
 20
0.0
 30
0.0
210
0.0
220
0.0
230
1.0
  2
_USER
 70
     0
 71
     0
 91
        1
 92
        7
 72
     1
 73
     1
 93
        5
 10
130.127410160615
 20
337.7921724045148
 42
0.0
 10
127.127410160615
 20
337.7921724045148
 42
0.734465937778328
 10
132.590381300032
 20
336.0793463285809
 42
0.0618840054865189
 10
130.877410160615
 20
336.2921724045147
 42
0.0
 10
130.127410160615
 20
336.2921724045147
 42
0.0
 97
        0
 75
     0
 76
     0
 52
0.0
 41
0.1
 77
     0
 78
     1
 53
0.0
 43
0.0
 44
-109.3692802789232
 45
0.0
 46
0.1
 79
     0
 47
0.0125997266976881
 98
        1
 10
129.9053787387547
 20
336.2886558841424
  0
ARC
  5
328E
330
106E
100
AcDbEntity
  8
SCHRAFF
100
AcDbCircle
 10
130.127410160615
 20
337.7921724045148
 30
0.0
 40
3.0
100
AcDbArc
 50
180.0
 51
325.1840578013947
  0
LINE
  5
328F
330
106E
100
AcDbEntity
  8
STEMPEL
100
AcDbLine
 10
130.127410160615
 20
336.2921724045147
 30
0.0
 11
130.877410160615
 21
336.2921724045147
 31
0.0
  0
LINE
  5
3290
330
106E
100
AcDbEntity
  8
STEMPEL
100
AcDbLine
 10
130.127410160615
 20
337.7921724045148
 30
0.0
 11
130.127410160615
 21
336.2921724045147
 31
0.0
  0
DIMENSION
  5
32A3
330
106E
100
AcDbEntity
  8
BEM
100
AcDbDimension
  2
*D6
 10
57.7632428172774
 20
340.7921724045148
 30
0.0
 11
51.86324281727735
 21
311.7921724045148
 31
0.0
 70
    32
 71
     5
 42
58.00000000000006
  3
STANDARD
100
AcDbAlignedDimension
 13
146.877410160615
 23
282.7921724045147
 33
0.0
 14
69.877410160615
 24
340.7921724045148
 34
0.0
 50
90.0
100
AcDbRotatedDimension
  0
HATCH
  5
330E
330
106E
100
AcDbEntity
  8
SCHRAFF
100
AcDbHatch
 10
0.0
 20
0.0
 30
0.0
210
0.0
220
0.0
230
1.0
  2
_USER
 70
     0
 71
     1
 91
        4
 92
        7
 72
     0
 73
     1
 93
       12
 10
85.87741016061517
 20
345.7921724045152
 10
86.87741016061506
 20
345.7921724045153
 10
86.87741016061506
 20
348.7921724045152
 10
86.37741016061511
 20
348.7921724045152
 10
86.37741016061504
 20
351.7921724045152
 10
86.87741016061512
 20
351.7921724045151
 10
86.87741016061528
 20
359.7921724045151
 10
86.37741016061518
 20
359.7921724045151
 10
86.37741016061516
 20
362.7921724045151
 10
86.87741016061528
 20
362.7921724045151
 10
86.87741016061524
 20
365.7921724045152
 10
85.87741016061523
 20
365.7921724045152
 97
       12
330
2C13
330
2C1D
330
2C01
330
2C23
330
2C22
330
2C21
330
2C25
330
2C26
330
2C24
330
2C19
330
2C2F
330
2C30
 92
        7
 72
     0
 73
     1
 93
        4
 10
85.87741016061523
 20
365.7921724045151
 10
84.87741016061525
 20
365.7921724045151
 10
84.87741016061518
 20
345.7921724045152
 10
85.87741016061515
 20
345.7921724045152
 97
        4
330
2C13
330
2C20
330
2C01
330
2C1D
 92
        7
 72
     0
 73
     1
 93
        4
 10
79.87741016061517
 20
345.7921724045152
 10
80.87741016061517
 20
345.7921724045152
 10
80.87741016061526
 20
365.7921724045152
 10
79.87741016061524
 20
365.7921724045151
 97
        4
330
2C13
330
2C1E
330
2C01
330
2C1F
 92
        7
 72
     0
 73
     1
 93
       12
 10
79.87741016061521
 20
365.7921724045151
 10
78.87741016061522
 20
365.7921724045151
 10
78.87741016061527
 20
362.7921724045151
 10
79.37741016061517
 20
362.7921724045151
 10
79.37741016061517
 20
359.7921724045151
 10
78.87741016061529
 20
359.7921724045151
 10
78.87741016061511
 20
351.7921724045153
 10
79.37741016061505
 20
351.7921724045152
 10
79.37741016061512
 20
348.7921724045152
 10
78.87741016061513
 20
348.7921724045152
 10
78.87741016061514
 20
345.7921724045153
 10
79.87741016061517
 20
345.7921724045153
 97
       12
330
2C13
330
2C31
330
2C32
330
2C1A
330
2C2D
330
2C2C
330
2C2E
330
2C27
330
2C29
330
2C2A
330
2C01
330
2C1E
 75
     0
 76
     0
 52
135.0
 41
1.0
 77
     0
 78
     1
 53
135.0
 43
0.0
 44
0.0
 45
-0.7071067811865476
 46
-0.7071067811865475
 79
     0
 47
0.0647594283572497
 98
        4
 10
86.18721297986644
 20
363.7301549193217
 10
85.47458371720017
 20
363.9244337659732
 10
80.22703616385593
 20
364.3129900656568
 10
79.64397532459543
 20
364.7015463653406
  0
ENDSEC
  0
SECTION
  2
OBJECTS
  0
DICTIONARY
  5
105C
330
0
100
AcDbDictionary
281
     1
  3
ACAD_CIP_PREVIOUS_PRODUCT_INFO
350
3379
  3
ACAD_COLOR
350
16CF
  3
ACAD_DETAILVIEWSTYLE
350
3374
  3
ACAD_GROUP
350
105D
  3
ACAD_LAYOUT
350
1069
  3
ACAD_MATERIAL
350
16CE
  3
ACAD_MLEADERSTYLE
350
336F
  3
ACAD_MLINESTYLE
350
1066
  3
ACAD_PLOTSETTINGS
350
1068
  3
ACAD_PLOTSTYLENAME
350
105E
  3
ACAD_SCALELIST
350
335D
  3
ACAD_SECTIONVIEWSTYLE
350
3371
  3
ACAD_TABLESTYLE
350
335B
  3
ACAD_VISUALSTYLE
350
3342
  3
ACDB_RECOMPOSE_DATA
350
35C8
  3
AcDbVariableDictionary
350
1114
  0
DICTIONARY
  5
33FB
330
1058
100
AcDbDictionary
280
     1
281
     1
  0
DICTIONARY
  5
21FF
330
1052
100
AcDbDictionary
280
     1
281
     1
  3
ACAD_LAYERSTATES
360
2200
  0
DICTIONARY
  5
337C
330
1060
100
AcDbDictionary
280
     1
281
     1
  3
ADSK_XREC_LAYER_RECONCILED
360
337D
  0
DICTIONARY
  5
337E
330
108D
100
AcDbDictionary
280
     1
281
     1
  3
ADSK_XREC_LAYER_RECONCILED
360
337F
  0
DICTIONARY
  5
3380
330
108E
100
AcDbDictionary
280
     1
281
     1
  3
ADSK_XREC_LAYER_RECONCILED
360
3381
  0
DICTIONARY
  5
3382
330
108F
100
AcDbDictionary
280
     1
281
     1
  3
ADSK_XREC_LAYER_RECONCILED
360
3383
  0
DICTIONARY
  5
3384
330
1090
100
AcDbDictionary
280
     1
281
     1
  3
ADSK_XREC_LAYER_RECONCILED
360
3385
  0
DICTIONARY
  5
3386
330
1091
100
AcDbDictionary
280
     1
281
     1
  3
ADSK_XREC_LAYER_RECONCILED
360
3387
  0
DICTIONARY
  5
3388
330
1092
100
AcDbDictionary
280
     1
281
     1
  3
ADSK_XREC_LAYER_RECONCILED
360
3389
  0
DICTIONARY
  5
338A
330
1093
100
AcDbDictionary
280
     1
281
     1
  3
ADSK_XREC_LAYER_RECONCILED
360
338B
  0
DICTIONARY
  5
338C
330
320B
100
AcDbDictionary
280
     1
281
     1
  3
ADSK_XREC_LAYER_RECONCILED
360
338D
  0
DICTIONARY
  5
1232
330
106E
100
AcDbDictionary
280
     1
281
     1
  3
ACAD_LAYOUTSELFREF
360
167B
  0
DICTIONARY
  5
1234
330
106A
100
AcDbDictionary
280
     1
281
     1
  3
ACAD_LAYOUTSELFREF
360
167A
  0
XRECORD
  5
3379
102
{ACAD_REACTORS
330
105C
102
}
330
105C
100
AcDbXrecord
280
     1
300
ACD
300
2013
300
ACD_F_S
  0
DICTIONARY
  5
16CF
102
{ACAD_REACTORS
330
105C
102
}
330
105C
100
AcDbDictionary
281
     1
  0
DICTIONARY
  5
3374
102
{ACAD_REACTORS
330
105C
102
}
330
105C
100
AcDbDictionary
281
     1
  3
Imperial24
350
3375
  0
DICTIONARY
  5
105D
102
{ACAD_REACTORS
330
105C
102
}
330
105C
100
AcDbDictionary
281
     1
  0
DICTIONARY
  5
1069
102
{ACAD_REACTORS
330
105C
102
}
330
105C
100
AcDbDictionary
281
     1
  3
Layout1
350
106D
  3
Model
350
1071
  0
DICTIONARY
  5
16CE
102
{ACAD_REACTORS
330
105C
102
}
330
105C
100
AcDbDictionary
281
     1
  3
ByBlock
350
3332
  3
ByLayer
350
332A
  3
Global
350
333A
  0
DICTIONARY
  5
336F
102
{ACAD_REACTORS
330
105C
102
}
330
105C
100
AcDbDictionary
281
     1
  3
Standard
350
3370
  0
DICTIONARY
  5
1066
102
{ACAD_REACTORS
330
105C
102
}
330
105C
100
AcDbDictionary
281
     1
  3
Standard
350
1067
  0
DICTIONARY
  5
1068
102
{ACAD_REACTORS
330
105C
102
}
330
105C
100
AcDbDictionary
281
     1
  0
ACDBDICTIONARYWDFLT
  5
105E
102
{ACAD_REACTORS
330
105C
102
}
330
105C
100
AcDbDictionary
281
     1
  3
Normal
350
105F
100
AcDbDictionaryWithDefault
340
105F
  0
DICTIONARY
  5
335D
102
{ACAD_REACTORS
330
105C
102
}
330
105C
100
AcDbDictionary
281
     1
  3
A0
350
335E
  3
A1
350
335F
  3
A2
350
3360
  3
A3
350
3361
  3
A4
350
3362
  3
A5
350
3363
  3
A6
350
3364
  3
A7
350
3365
  3
A8
350
3366
  3
A9
350
3367
  3
B0
350
3368
  3
B1
350
3369
  3
B2
350
336A
  3
B3
350
336B
  3
B4
350
336C
  3
B5
350
336D
  3
B6
350
336E
  0
DICTIONARY
  5
3371
102
{ACAD_REACTORS
330
105C
102
}
330
105C
100
AcDbDictionary
281
     1
  3
Imperial24
350
3373
  0
DICTIONARY
  5
335B
102
{ACAD_REACTORS
330
105C
102
}
330
105C
100
AcDbDictionary
281
     1
  3
Standard
350
335C
  0
DICTIONARY
  5
3342
102
{ACAD_REACTORS
330
105C
102
}
330
105C
100
AcDbDictionary
281
     1
  3
2dWireframe
350
3348
  3
Basic
350
3347
  3
Brighten
350
334E
  3
ColorChange
350
3352
  3
Conceptual
350
334B
  3
Dim
350
334D
  3
EdgeColorOff
350
335A
  3
Facepattern
350
3351
  3
Flat
350
3343
  3
FlatWithEdges
350
3344
  3
Gouraud
350
3345
  3
GouraudWithEdges
350
3346
  3
Hidden
350
334A
  3
JitterOff
350
3358
  3
Linepattern
350
3350
  3
OverhangOff
350
3359
  3
Realistic
350
334C
  3
Shaded
350
3357
  3
Shaded with edges
350
3356
  3
Shades of Gray
350
3353
  3
Sketchy
350
3354
  3
Thicken
350
334F
  3
Wireframe
350
3349
  3
X-Ray
350
3355
  0
XRECORD
  5
35C8
102
{ACAD_REACTORS
330
105C
102
}
330
105C
100
AcDbXrecord
280
     1
 90
        1
330
335C
  0
DICTIONARY
  5
1114
102
{ACAD_REACTORS
330
105C
102
}
330
105C
100
AcDbDictionary
281
     1
  3
CANNOSCALE
350
343A
  3
CMLEADERSTYLE
350
3437
  3
CTABLESTYLE
350
3436
  3
CVIEWDETAILSTYLE
350
3438
  3
CVIEWSECTIONSTYLE
350
3439
  3
DIMASSOC
350
1A5D
  3
PROJECTNAME
350
1A5E
  3
SORTENTS
350
1115
  0
DICTIONARY
  5
2200
102
{ACAD_REACTORS
330
21FF
102
}
330
21FF
100
AcDbDictionary
281
     1
  0
XRECORD
  5
337D
102
{ACAD_REACTORS
330
337C
102
}
330
337C
100
AcDbXrecord
280
     1
290
     1
  0
XRECORD
  5
337F
102
{ACAD_REACTORS
330
337E
102
}
330
337E
100
AcDbXrecord
280
     1
290
     1
  0
XRECORD
  5
3381
102
{ACAD_REACTORS
330
3380
102
}
330
3380
100
AcDbXrecord
280
     1
290
     1
  0
XRECORD
  5
3383
102
{ACAD_REACTORS
330
3382
102
}
330
3382
100
AcDbXrecord
280
     1
290
     1
  0
XRECORD
  5
3385
102
{ACAD_REACTORS
330
3384
102
}
330
3384
100
AcDbXrecord
280
     1
290
     1
  0
XRECORD
  5
3387
102
{ACAD_REACTORS
330
3386
102
}
330
3386
100
AcDbXrecord
280
     1
290
     1
  0
XRECORD
  5
3389
102
{ACAD_REACTORS
330
3388
102
}
330
3388
100
AcDbXrecord
280
     1
290
     1
  0
XRECORD
  5
338B
102
{ACAD_REACTORS
330
338A
102
}
330
338A
100
AcDbXrecord
280
     1
290
     1
  0
XRECORD
  5
338D
102
{ACAD_REACTORS
330
338C
102
}
330
338C
100
AcDbXrecord
280
     1
290
     1
  0
XRECORD
  5
167B
102
{ACAD_REACTORS
330
1232
102
}
330
1232
100
AcDbXrecord
280
     1
340
106E
  0
XRECORD
  5
167A
102
{ACAD_REACTORS
330
1234
102
}
330
1234
100
AcDbXrecord
280
     1
340
106A
  0
ACDBDETAILVIEWSTYLE
  5
3375
102
{ACAD_REACTORS
330
3374
102
}
330
3374
100
AcDbModelDocViewStyle
 70
     0
  3
Imperial24
290
     0
100
AcDbDetailViewStyle
 70
     0
 71
     0
 90
        3
 71
     1
340
1061
 62
   256
 40
0.24
340
0
 62
   256
 40
0.24
300

 40
0.36
280
     3
 71
     2
340
1065
 90
       25
 62
   256
 71
     3
340
1061
 62
   256
 40
0.24
 90
        1
 40
0.75
 90
        1
300
%<\AcVar ViewType \f "%tc1">% %<\AcVar ViewDetailId>%\PVARIA %<\AcVar ViewScale \f "%sn">%
 71
     4
340
1065
 90
       25
 62
   256
340
1065
 90
       25
 62
   256
280
     0
  0
LAYOUT
  5
106D
102
{ACAD_REACTORS
330
1069
102
}
330
1069
100
AcDbPlotSettings
  1

  2
\\NT_WORK01\HP LaserJet 5000 PCL 6
  4

  6

 40
0.0
 41
0.0
 42
0.0
 43
0.0
 44
0.0
 45
0.0
 46
0.0
 47
0.0
 48
0.0
 49
0.0
140
0.0
141
0.0
142
1.0
143
1.0
 70
   688
 72
     0
 73
     0
 74
     5
  7
monochrome.ctb
 75
    16
147
1.0
 76
     0
 77
     2
 78
   300
148
0.0
149
0.0
100
AcDbLayout
  1
Layout1
 70
     0
 71
     1
 10
0.0
 20
0.0
 11
12.0
 21
9.0
 12
0.0
 22
0.0
 32
0.0
 14
1.000000000000000E+20
 24
1.000000000000000E+20
 34
1.000000000000000E+20
 15
-1.000000000000000E+20
 25
-1.000000000000000E+20
 35
-1.000000000000000E+20
146
0.0
 13
0.0
 23
0.0
 33
0.0
 16
1.0
 26
0.0
 36
0.0
 17
0.0
 27
1.0
 37
0.0
 76
     0
330
106A
  0
LAYOUT
  5
1071
102
{ACAD_XDICTIONARY
360
33FD
102
}
102
{ACAD_REACTORS
330
1069
102
}
330
1069
100
AcDbPlotSettings
  1

  2
none_device
  4
Letter_(8.50_x_11.00_Inches)
  6

 40
6.349999904632568
 41
6.349999904632568
 42
6.350006103515625
 43
6.350006103515625
 44
215.8999938964844
 45
279.3999938964844
 46
0.0
 47
0.0
 48
0.0
 49
0.0
140
0.0
141
0.0
142
1.0
143
1.0
 70
 11952
 72
     0
 73
     1
 74
     0
  7

 75
     0
147
1.0
 76
     0
 77
     2
 78
   300
148
-3034.281979024021
149
89.91803552416191
100
AcDbLayout
  1
Model
 70
     1
 71
     0
 10
0.0
 20
0.0
 11
12.0
 21
9.0
 12
0.0
 22
0.0
 32
0.0
 14
0.0
 24
0.0
 34
0.0
 15
0.0
 25
0.0
 35
0.0
146
0.0
 13
0.0
 23
0.0
 33
0.0
 16
1.0
 26
0.0
 36
0.0
 17
0.0
 27
1.0
 37
0.0
 76
     0
330
106E
331
3328
  0
MATERIAL
  5
3332
102
{ACAD_XDICTIONARY
360
3333
102
}
102
{ACAD_REACTORS
330
16CE
102
}
330
16CE
100
AcDbMaterial
  1
ByBlock
 72
     0
 43
0.0208333333333333
 43
0.0
 43
0.0
 43
0.0
 43
0.0
 43
0.0208333333333333
 43
0.0
 43
0.0
 43
0.0
 43
0.0
 43
1.0
 43
0.0
 43
0.0
 43
0.0
 43
0.0
 43
1.0
 77
     0
 47
0.0208333333333333
 47
0.0
 47
0.0
 47
0.0
 47
0.0
 47
0.0208333333333333
 47
0.0
 47
0.0
 47
0.0
 47
0.0
 47
1.0
 47
0.0
 47
0.0
 47
0.0
 47
0.0
 47
1.0
171
     0
 49
0.0208333333333333
 49
0.0
 49
0.0
 49
0.0
 49
0.0
 49
0.0208333333333333
 49
0.0
 49
0.0
 49
0.0
 49
0.0
 49
1.0
 49
0.0
 49
0.0
 49
0.0
 49
0.0
 49
1.0
175
     0
142
0.0208333333333333
142
0.0
142
0.0
142
0.0
142
0.0
142
0.0208333333333333
142
0.0
142
0.0
142
0.0
142
0.0
142
1.0
142
0.0
142
0.0
142
0.0
142
0.0
142
1.0
179
     0
144
0.0208333333333333
144
0.0
144
0.0
144
0.0
144
0.0
144
0.0208333333333333
144
0.0
144
0.0
144
0.0
144
0.0
144
1.0
144
0.0
144
0.0
144
0.0
144
0.0
144
1.0
147
0.0208333333333333
147
0.0
147
0.0
147
0.0
147
0.0
147
0.0208333333333333
147
0.0
147
0.0
147
0.0
147
0.0
147
1.0
147
0.0
147
0.0
147
0.0
147
0.0
147
1.0
  0
MATERIAL
  5
332A
102
{ACAD_XDICTIONARY
360
332B
102
}
102
{ACAD_REACTORS
330
16CE
102
}
330
16CE
100
AcDbMaterial
  1
ByLayer
 72
     0
 43
0.0208333333333333
 43
0.0
 43
0.0
 43
0.0
 43
0.0
 43
0.0208333333333333
 43
0.0
 43
0.0
 43
0.0
 43
0.0
 43
1.0
 43
0.0
 43
0.0
 43
0.0
 43
0.0
 43
1.0
 77
     0
 47
0.0208333333333333
 47
0.0
 47
0.0
 47
0.0
 47
0.0
 47
0.0208333333333333
 47
0.0
 47
0.0
 47
0.0
 47
0.0
 47
1.0
 47
0.0
 47
0.0
 47
0.0
 47
0.0
 47
1.0
171
     0
 49
0.0208333333333333
 49
0.0
 49
0.0
 49
0.0
 49
0.0
 49
0.0208333333333333
 49
0.0
 49
0.0
 49
0.0
 49
0.0
 49
1.0
 49
0.0
 49
0.0
 49
0.0
 49
0.0
 49
1.0
175
     0
142
0.0208333333333333
142
0.0
142
0.0
142
0.0
142
0.0
142
0.0208333333333333
142
0.0
142
0.0
142
0.0
142
0.0
142
1.0
142
0.0
142
0.0
142
0.0
142
0.0
142
1.0
179
     0
144
0.0208333333333333
144
0.0
144
0.0
144
0.0
144
0.0
144
0.0208333333333333
144
0.0
144
0.0
144
0.0
144
0.0
144
1.0
144
0.0
144
0.0
144
0.0
144
0.0
144
1.0
147
0.0208333333333333
147
0.0
147
0.0
147
0.0
147
0.0
147
0.0208333333333333
147
0.0
147
0.0
147
0.0
147
0.0
147
1.0
147
0.0
147
0.0
147
0.0
147
0.0
147
1.0
  0
MATERIAL
  5
333A
102
{ACAD_XDICTIONARY
360
333B
102
}
102
{ACAD_REACTORS
330
16CE
102
}
330
16CE
100
AcDbMaterial
  1
Global
 72
     0
 43
0.0208333333333333
 43
0.0
 43
0.0
 43
0.0
 43
0.0
 43
0.0208333333333333
 43
0.0
 43
0.0
 43
0.0
 43
0.0
 43
1.0
 43
0.0
 43
0.0
 43
0.0
 43
0.0
 43
1.0
 77
     0
 47
0.0208333333333333
 47
0.0
 47
0.0
 47
0.0
 47
0.0
 47
0.0208333333333333
 47
0.0
 47
0.0
 47
0.0
 47
0.0
 47
1.0
 47
0.0
 47
0.0
 47
0.0
 47
0.0
 47
1.0
171
     0
 49
0.0208333333333333
 49
0.0
 49
0.0
 49
0.0
 49
0.0
 49
0.0208333333333333
 49
0.0
 49
0.0
 49
0.0
 49
0.0
 49
1.0
 49
0.0
 49
0.0
 49
0.0
 49
0.0
 49
1.0
175
     0
142
0.0208333333333333
142
0.0
142
0.0
142
0.0
142
0.0
142
0.0208333333333333
142
0.0
142
0.0
142
0.0
142
0.0
142
1.0
142
0.0
142
0.0
142
0.0
142
0.0
142
1.0
179
     0
144
0.0208333333333333
144
0.0
144
0.0
144
0.0
144
0.0
144
0.0208333333333333
144
0.0
144
0.0
144
0.0
144
0.0
144
1.0
144
0.0
144
0.0
144
0.0
144
0.0
144
1.0
147
0.0208333333333333
147
0.0
147
0.0
147
0.0
147
0.0
147
0.0208333333333333
147
0.0
147
0.0
147
0.0
147
0.0
147
1.0
147
0.0
147
0.0
147
0.0
147
0.0
147
1.0
  0
MLEADERSTYLE
  5
3370
102
{ACAD_XDICTIONARY
360
35FD
102
}
102
{ACAD_REACTORS
330
336F
102
}
330
336F
100
AcDbMLeaderStyle
170
     2
171
     1
172
     0
 90
        2
 40
0.0
 41
0.0
173
     1
 91
-1056964608
340
1063
 92
       -2
290
     1
 42
0.09
291
     1
 43
0.36
  3
Standard
 44
0.18
300

342
1061
174
     1
178
     6
175
     1
176
     0
 93
-1056964608
 45
0.18
292
     0
297
     0
 46
0.18
 94
-1056964608
 47
1.0
 49
1.0
140
1.0
293
     1
141
0.0
294
     1
177
     0
142
1.0
295
     0
296
     0
143
0.125
1001
ACAD_MLEADERVER
1070
     2
  0
MLINESTYLE
  5
1067
102
{ACAD_REACTORS
330
1066
102
}
330
1066
100
AcDbMlineStyle
  2
STANDARD
 70
     0
  3

 62
   256
 51
90.0
 52
90.0
 71
     2
 49
0.5
 62
   256
  6
BYLAYER
 49
-0.5
 62
   256
  6
BYLAYER
  0
ACDBPLACEHOLDER
  5
105F
102
{ACAD_REACTORS
330
105E
102
}
330
105E
  0
SCALE
  5
335E
102
{ACAD_REACTORS
330
335D
102
}
330
335D
100
AcDbScale
 70
     0
300
1:1
140
1.0
141
1.0
290
     1
  0
SCALE
  5
335F
102
{ACAD_REACTORS
330
335D
102
}
330
335D
100
AcDbScale
 70
     0
300
1/128" = 1'-0"
140
0.0078125
141
12.0
290
     0
  0
SCALE
  5
3360
102
{ACAD_REACTORS
330
335D
102
}
330
335D
100
AcDbScale
 70
     0
300
1/64" = 1'-0"
140
0.015625
141
12.0
290
     0
  0
SCALE
  5
3361
102
{ACAD_REACTORS
330
335D
102
}
330
335D
100
AcDbScale
 70
     0
300
1/32" = 1'-0"
140
0.03125
141
12.0
290
     0
  0
SCALE
  5
3362
102
{ACAD_REACTORS
330
335D
102
}
330
335D
100
AcDbScale
 70
     0
300
1/16" = 1'-0"
140
0.0625
141
12.0
290
     0
  0
SCALE
  5
3363
102
{ACAD_REACTORS
330
335D
102
}
330
335D
100
AcDbScale
 70
     0
300
3/32" = 1'-0"
140
0.09375
141
12.0
290
     0
  0
SCALE
  5
3364
102
{ACAD_REACTORS
330
335D
102
}
330
335D
100
AcDbScale
 70
     0
300
1/8" = 1'-0"
140
0.125
141
12.0
290
     0
  0
SCALE
  5
3365
102
{ACAD_REACTORS
330
335D
102
}
330
335D
100
AcDbScale
 70
     0
300
3/16" = 1'-0"
140
0.1875
141
12.0
290
     0
  0
SCALE
  5
3366
102
{ACAD_REACTORS
330
335D
102
}
330
335D
100
AcDbScale
 70
     0
300
1/4" = 1'-0"
140
0.25
141
12.0
290
     0
  0
SCALE
  5
3367
102
{ACAD_REACTORS
330
335D
102
}
330
335D
100
AcDbScale
 70
     0
300
3/8" = 1'-0"
140
0.375
141
12.0
290
     0
  0
SCALE
  5
3368
102
{ACAD_REACTORS
330
335D
102
}
330
335D
100
AcDbScale
 70
     0
300
1/2" = 1'-0"
140
0.5
141
12.0
290
     0
  0
SCALE
  5
3369
102
{ACAD_REACTORS
330
335D
102
}
330
335D
100
AcDbScale
 70
     0
300
3/4" = 1'-0"
140
0.75
141
12.0
290
     0
  0
SCALE
  5
336A
102
{ACAD_REACTORS
330
335D
102
}
330
335D
100
AcDbScale
 70
     0
300
1" = 1'-0"
140
1.0
141
12.0
290
     0
  0
SCALE
  5
336B
102
{ACAD_REACTORS
330
335D
102
}
330
335D
100
AcDbScale
 70
     0
300
1-1/2" = 1'-0"
140
1.5
141
12.0
290
     0
  0
SCALE
  5
336C
102
{ACAD_REACTORS
330
335D
102
}
330
335D
100
AcDbScale
 70
     0
300
3" = 1'-0"
140
3.0
141
12.0
290
     0
  0
SCALE
  5
336D
102
{ACAD_REACTORS
330
335D
102
}
330
335D
100
AcDbScale
 70
     0
300
6" = 1'-0"
140
6.0
141
12.0
290
     0
  0
SCALE
  5
336E
102
{ACAD_REACTORS
330
335D
102
}
330
335D
100
AcDbScale
 70
     0
300
1'-0" = 1'-0"
140
12.0
141
12.0
290
     0
  0
ACDBSECTIONVIEWSTYLE
  5
3373
102
{ACAD_REACTORS
330
3371
102
}
330
3371
100
AcDbModelDocViewStyle
 70
     0
  3
Imperial24
290
     0
100
AcDbSectionViewStyle
 70
     0
 71
     0
 90
       78
 71
     1
340
1061
 62
   256
 40
0.24
340
0
340
0
 62
   256
 40
0.24
300
I, O, Q, S, X, Z
 40
0.48
 90
        3
 40
0.18
 90
        1
 71
     2
340
3372
 90
       25
 62
   256
340
1065
 90
       50
 62
   256
 40
0.24
 40
0.0
 40
0.24
 71
     3
340
1061
 62
   256
 40
0.24
 90
        1
 40
0.75
 90
        1
300
%<\AcVar ViewType \f "%tc1">% %<\AcVar ViewSectionStartId>%-%<\AcVar ViewSectionEndId>%\PVARIA %<\AcVar ViewScale \f "%sn">%
 71
     4
 62
   256
 62
   257
300
ANSI31
 40
1.0
 90
        0
290
     0
290
     0
 90
        6
 40
0.0
 40
1.570796326794896
 40
0.2617993877991494
 40
1.308996938995747
 40
-0.2617993877991494
 40
1.832595714594046
  0
TABLESTYLE
  5
335C
102
{ACAD_XDICTIONARY
360
33F0
102
}
102
{ACAD_REACTORS
330
335B
102
}
330
335B
100
AcDbTableStyle
  3
Standard
 70
     0
 71
     0
 40
0.06
 41
0.06
280
     0
281
     0
  7
STANDARD
140
0.18
170
     2
 62
     0
 63
     7
283
     0
274
    -2
284
     1
 64
     0
275
    -2
285
     1
 65
     0
276
    -2
286
     1
 66
     0
277
    -2
287
     1
 67
     0
278
    -2
288
     1
 68
     0
279
    -2
289
     1
 69
     0
  7
STANDARD
140
0.25
170
     5
 62
     0
 63
     7
283
     0
274
    -2
284
     1
 64
     0
275
    -2
285
     1
 65
     0
276
    -2
286
     1
 66
     0
277
    -2
287
     1
 67
     0
278
    -2
288
     1
 68
     0
279
    -2
289
     1
 69
     0
  7
STANDARD
140
0.18
170
     5
 62
     0
 63
     7
283
     0
274
    -2
284
     1
 64
     0
275
    -2
285
     1
 65
     0
276
    -2
286
     1
 66
     0
277
    -2
287
     1
 67
     0
278
    -2
288
     1
 68
     0
279
    -2
289
     1
 69
     0
  0
VISUALSTYLE
  5
3348
102
{ACAD_XDICTIONARY
360
35D6
102
}
102
{ACAD_REACTORS
330
3342
102
}
330
3342
100
AcDbVisualStyle
  2
2dWireframe
 70
     4
 71
     0
 72
     2
 73
     0
 90
        0
 40
-0.6
 41
-30.0
 62
     5
 63
     7
421
 16777215
 74
     1
 91
        4
 64
     7
 65
   257
 75
     1
175
     1
 42
1.0
 92
        0
 66
   257
 43
1.0
 76
     1
 77
     6
 78
     2
 67
     7
 79
     5
170
     0
171
     0
290
     0
174
     0
 93
        1
 44
0.0
173
     0
291
     0
 45
0.0
1001
ACAD
1000
AcDbSavedByObjectVersion
1070
     0
  0
VISUALSTYLE
  5
3347
102
{ACAD_XDICTIONARY
360
35D4
102
}
102
{ACAD_REACTORS
330
3342
102
}
330
3342
100
AcDbVisualStyle
  2
Basic
 70
     7
 71
     1
 72
     0
 73
     1
 90
        0
 40
-0.6
 41
-30.0
 62
     5
 63
     7
421
 16777215
 74
     0
 91
        4
 64
     7
 65
   257
 75
     1
175
     1
 42
1.0
 92
        8
 66
     7
 43
1.0
 76
     1
 77
     6
 78
     2
 67
     7
 79
     5
170
     0
171
     0
290
     0
174
     0
 93
        1
 44
0.0
173
     0
291
     1
 45
0.0
1001
ACAD
1000
AcDbSavedByObjectVersion
1070
     0
  0
VISUALSTYLE
  5
334E
102
{ACAD_XDICTIONARY
360
35E2
102
}
102
{ACAD_REACTORS
330
3342
102
}
330
3342
100
AcDbVisualStyle
  2
Brighten
 70
    12
 71
     2
 72
     2
 73
     0
 90
        0
 40
-0.6
 41
-30.0
 62
     5
 63
     7
421
 16777215
 74
     1
 91
        4
 64
     7
 65
   257
 75
     1
175
     1
 42
1.0
 92
        8
 66
     7
 43
1.0
 76
     1
 77
     6
 78
     2
 67
     7
 79
     5
170
     0
171
     0
290
     0
174
     0
 93
        1
 44
50.0
173
     0
291
     1
 45
0.0
1001
ACAD
1000
AcDbSavedByObjectVersion
1070
     0
  0
VISUALSTYLE
  5
3352
102
{ACAD_XDICTIONARY
360
35EA
102
}
102
{ACAD_REACTORS
330
3342
102
}
330
3342
100
AcDbVisualStyle
  2
ColorChange
 70
    16
 71
     2
 72
     2
 73
     3
 90
        0
 40
-0.6
 41
-30.0
 62
     5
 63
     8
421
  8421504
 74
     1
 91
        4
 64
     7
 65
   257
 75
     1
175
     1
 42
1.0
 92
        8
 66
     8
424
  8421504
 43
1.0
 76
     1
 77
     6
 78
     2
 67
     7
 79
     5
170
     0
171
     0
290
     0
174
     0
 93
        1
 44
0.0
173
     0
291
     1
 45
0.0
1001
ACAD
1000
AcDbSavedByObjectVersion
1070
     0
  0
VISUALSTYLE
  5
334B
102
{ACAD_XDICTIONARY
360
35DC
102
}
102
{ACAD_REACTORS
330
3342
102
}
330
3342
100
AcDbVisualStyle
  2
Conceptual
 70
     9
 71
     3
 72
     2
 73
     0
 90
        0
 40
-0.6
 41
-30.0
 62
     5
 63
     7
421
 16777215
 74
     2
 91
        2
 64
     7
 65
   257
 75
     1
175
     1
 42
179.0
 92
        8
 66
     7
 43
1.0
 76
     1
 77
     6
 78
     2
 67
     7
 79
     3
170
     0
171
     0
290
     0
174
     0
 93
        1
 44
0.0
173
     0
291
     0
 45
0.0
1001
ACAD
1000
AcDbSavedByObjectVersion
1070
     0
  0
VISUALSTYLE
  5
334D
102
{ACAD_XDICTIONARY
360
35E0
102
}
102
{ACAD_REACTORS
330
3342
102
}
330
3342
100
AcDbVisualStyle
  2
Dim
 70
    11
 71
     2
 72
     2
 73
     0
 90
        0
 40
-0.6
 41
-30.0
 62
     5
 63
     7
421
 16777215
 74
     1
 91
        4
 64
     7
 65
   257
 75
     1
175
     1
 42
1.0
 92
        8
 66
     7
 43
1.0
 76
     1
 77
     6
 78
     2
 67
     7
 79
     5
170
     0
171
     0
290
     0
174
     0
 93
        1
 44
-50.0
173
     0
291
     1
 45
0.0
1001
ACAD
1000
AcDbSavedByObjectVersion
1070
     0
  0
VISUALSTYLE
  5
335A
102
{ACAD_XDICTIONARY
360
35FA
102
}
102
{ACAD_REACTORS
330
3342
102
}
330
3342
100
AcDbVisualStyle
  2
EdgeColorOff
 70
    22
 71
     2
 72
     2
 73
     0
 90
        0
 40
-0.6
 41
-30.0
 62
     5
 63
     7
421
 16777215
 74
     1
 91
        4
 64
     7
 65
   257
 75
     1
175
     1
 42
1.0
 92
        8
 66
     7
 43
1.0
 76
     1
 77
     6
 78
     2
 67
     7
 79
     5
170
     0
171
     0
290
     0
174
     0
 93
        1
 44
0.0
173
     0
291
     1
 45
0.0
1001
ACAD
1000
AcDbSavedByObjectVersion
1070
     0
  0
VISUALSTYLE
  5
3351
102
{ACAD_XDICTIONARY
360
35E8
102
}
102
{ACAD_REACTORS
330
3342
102
}
330
3342
100
AcDbVisualStyle
  2
Facepattern
 70
    15
 71
     2
 72
     2
 73
     0
 90
        0
 40
-0.6
 41
-30.0
 62
     5
 63
     7
421
 16777215
 74
     1
 91
        4
 64
     7
 65
   257
 75
     1
175
     1
 42
1.0
 92
        8
 66
     7
 43
1.0
 76
     1
 77
     6
 78
     2
 67
     7
 79
     5
170
     0
171
     0
290
     0
174
     0
 93
        1
 44
0.0
173
     0
291
     1
 45
0.0
1001
ACAD
1000
AcDbSavedByObjectVersion
1070
     0
  0
VISUALSTYLE
  5
3343
102
{ACAD_XDICTIONARY
360
35CC
102
}
102
{ACAD_REACTORS
330
3342
102
}
330
3342
100
AcDbVisualStyle
  2
Flat
 70
     0
 71
     2
 72
     1
 73
     1
 90
        2
 40
-0.6
 41
30.0
 62
     5
 63
     7
421
 16777215
 74
     0
 91
        0
 64
     7
 65
   257
 75
     1
175
     1
 42
1.0
 92
        8
 66
     7
 43
1.0
 76
     1
 77
     6
 78
     2
 67
     7
 79
     5
170
     0
171
     0
290
     0
174
     0
 93
       13
 44
0.0
173
     0
291
     1
 45
0.0
1001
ACAD
1000
AcDbSavedByObjectVersion
1070
     0
  0
VISUALSTYLE
  5
3344
102
{ACAD_XDICTIONARY
360
35CE
102
}
102
{ACAD_REACTORS
330
3342
102
}
330
3342
100
AcDbVisualStyle
  2
FlatWithEdges
 70
     1
 71
     2
 72
     1
 73
     1
 90
        2
 40
-0.6
 41
30.0
 62
     5
 63
     7
421
 16777215
 74
     1
 91
        0
 64
     7
 65
   257
 75
     1
175
     1
 42
1.0
 92
        0
 66
   257
 43
1.0
 76
     1
 77
     6
 78
     2
 67
     7
 79
     5
170
     0
171
     0
290
     0
174
     0
 93
       13
 44
0.0
173
     0
291
     1
 45
0.0
1001
ACAD
1000
AcDbSavedByObjectVersion
1070
     0
  0
VISUALSTYLE
  5
3345
102
{ACAD_XDICTIONARY
360
35D0
102
}
102
{ACAD_REACTORS
330
3342
102
}
330
3342
100
AcDbVisualStyle
  2
Gouraud
 70
     2
 71
     2
 72
     2
 73
     1
 90
        2
 40
-0.6
 41
30.0
 62
     5
 63
     7
421
 16777215
 74
     0
 91
        0
 64
     7
 65
   257
 75
     1
175
     1
 42
1.0
 92
        0
 66
     7
 43
1.0
 76
     1
 77
     6
 78
     2
 67
     7
 79
     5
170
     0
171
     0
290
     0
174
     0
 93
       13
 44
0.0
173
     0
291
     1
 45
0.0
1001
ACAD
1000
AcDbSavedByObjectVersion
1070
     0
  0
VISUALSTYLE
  5
3346
102
{ACAD_XDICTIONARY
360
35D2
102
}
102
{ACAD_REACTORS
330
3342
102
}
330
3342
100
AcDbVisualStyle
  2
GouraudWithEdges
 70
     3
 71
     2
 72
     2
 73
     1
 90
        2
 40
-0.6
 41
30.0
 62
     5
 63
     7
421
 16777215
 74
     1
 91
        0
 64
     7
 65
   257
 75
     1
175
     1
 42
1.0
 92
        0
 66
   257
 43
1.0
 76
     1
 77
     6
 78
     2
 67
     7
 79
     5
170
     0
171
     0
290
     0
174
     0
 93
       13
 44
0.0
173
     0
291
     1
 45
0.0
1001
ACAD
1000
AcDbSavedByObjectVersion
1070
     0
  0
VISUALSTYLE
  5
334A
102
{ACAD_XDICTIONARY
360
35DA
102
}
102
{ACAD_REACTORS
330
3342
102
}
330
3342
100
AcDbVisualStyle
  2
Hidden
 70
     6
 71
     1
 72
     2
 73
     2
 90
        0
 40
-0.6
 41
-30.0
 62
     5
 63
     7
421
 16777215
 74
     2
 91
        2
 64
     7
 65
   257
 75
     2
175
     1
 42
40.0
 92
        0
 66
   257
 43
1.0
 76
     1
 77
     6
 78
     2
 67
     7
 79
     3
170
     0
171
     0
290
     0
174
     0
 93
        1
 44
0.0
173
     0
291
     0
 45
0.0
1001
ACAD
1000
AcDbSavedByObjectVersion
1070
     0
  0
VISUALSTYLE
  5
3358
102
{ACAD_XDICTIONARY
360
35F6
102
}
102
{ACAD_REACTORS
330
3342
102
}
330
3342
100
AcDbVisualStyle
  2
JitterOff
 70
    20
 71
     2
 72
     2
 73
     0
 90
        0
 40
-0.6
 41
-30.0
 62
     5
 63
     7
421
 16777215
 74
     1
 91
        4
 64
     7
 65
   257
 75
     1
175
     1
 42
1.0
 92
       10
 66
     7
 43
1.0
 76
     1
 77
     6
 78
     2
 67
     7
 79
     5
170
     0
171
     0
290
     0
174
     0
 93
        1
 44
0.0
173
     0
291
     1
 45
0.0
1001
ACAD
1000
AcDbSavedByObjectVersion
1070
     0
  0
VISUALSTYLE
  5
3350
102
{ACAD_XDICTIONARY
360
35E6
102
}
102
{ACAD_REACTORS
330
3342
102
}
330
3342
100
AcDbVisualStyle
  2
Linepattern
 70
    14
 71
     2
 72
     2
 73
     0
 90
        0
 40
-0.6
 41
-30.0
 62
     5
 63
     7
421
 16777215
 74
     1
 91
        4
 64
     7
 65
   257
 75
     7
175
     7
 42
1.0
 92
        8
 66
     7
 43
1.0
 76
     1
 77
     6
 78
     2
 67
     7
 79
     5
170
     0
171
     0
290
     0
174
     0
 93
        1
 44
0.0
173
     0
291
     1
 45
0.0
1001
ACAD
1000
AcDbSavedByObjectVersion
1070
     0
  0
VISUALSTYLE
  5
3359
102
{ACAD_XDICTIONARY
360
35F8
102
}
102
{ACAD_REACTORS
330
3342
102
}
330
3342
100
AcDbVisualStyle
  2
OverhangOff
 70
    21
 71
     2
 72
     2
 73
     0
 90
        0
 40
-0.6
 41
-30.0
 62
     5
 63
     7
421
 16777215
 74
     1
 91
        4
 64
     7
 65
   257
 75
     1
175
     1
 42
1.0
 92
        9
 66
     7
 43
1.0
 76
     1
 77
     6
 78
     2
 67
     7
 79
     5
170
     0
171
     0
290
     0
174
     0
 93
        1
 44
0.0
173
     0
291
     1
 45
0.0
1001
ACAD
1000
AcDbSavedByObjectVersion
1070
     0
  0
VISUALSTYLE
  5
334C
102
{ACAD_XDICTIONARY
360
35DE
102
}
102
{ACAD_REACTORS
330
3342
102
}
330
3342
100
AcDbVisualStyle
  2
Realistic
 70
     8
 71
     2
 72
     2
 73
     0
 90
        2
 40
-0.6
 41
30.0
 62
     5
 63
     7
421
 16777215
 74
     0
 91
        0
 64
     7
 65
   257
 75
     1
175
     1
 42
1.0
 92
        8
 66
   257
 43
1.0
 76
     1
 77
     6
 78
     2
 67
     7
 79
     3
170
     0
171
     0
290
     0
174
     0
 93
       13
 44
0.0
173
     0
291
     0
 45
0.0
1001
ACAD
1000
AcDbSavedByObjectVersion
1070
     0
  0
VISUALSTYLE
  5
3357
102
{ACAD_XDICTIONARY
360
35F4
102
}
102
{ACAD_REACTORS
330
3342
102
}
330
3342
100
AcDbVisualStyle
  2
Shaded
 70
    27
 71
     2
 72
     2
 73
     1
 90
        2
 40
-0.6
 41
30.0
 62
     5
 63
     7
421
 16777215
 74
     0
 91
        4
 64
     7
 65
   257
 75
     1
175
     1
 42
1.0
 92
        8
 66
   257
 43
1.0
 76
     1
 77
     6
 78
     2
 67
     8
425
  7895160
 79
     3
170
     0
171
     0
290
     0
174
     0
 93
        5
 44
0.0
173
     0
291
     0
 45
0.0
1001
ACAD
1000
AcDbSavedByObjectVersion
1070
     0
  0
VISUALSTYLE
  5
3356
102
{ACAD_XDICTIONARY
360
35F2
102
}
102
{ACAD_REACTORS
330
3342
102
}
330
3342
100
AcDbVisualStyle
  2
Shaded with edges
 70
    26
 71
     2
 72
     2
 73
     1
 90
        2
 40
-0.6
 41
30.0
 62
     5
 63
     7
421
 16777215
 74
     1
 91
       10
 64
     7
 65
   257
 75
     2
175
     1
 42
1.0
 92
        8
 66
   257
 43
1.0
 76
     1
 77
     6
 78
     2
 67
     7
 79
     3
170
     0
171
     0
290
     0
174
     0
 93
        5
 44
0.0
173
     0
291
     0
 45
0.0
1001
ACAD
1000
AcDbSavedByObjectVersion
1070
     0
  0
VISUALSTYLE
  5
3353
102
{ACAD_XDICTIONARY
360
35EC
102
}
102
{ACAD_REACTORS
330
3342
102
}
330
3342
100
AcDbVisualStyle
  2
Shades of Gray
 70
    23
 71
     2
 72
     2
 73
     3
 90
        0
 40
-0.6
 41
-30.0
 62
     5
 63
     7
421
 16777215
 74
     2
 91
        2
 64
     7
 65
     7
 75
     1
175
     1
 42
40.0
 92
        8
 66
     7
 43
1.0
 76
     1
 77
     6
 78
     2
 67
     7
 79
     3
170
     0
171
     0
290
     0
174
     0
 93
        1
 44
0.0
173
     0
291
     0
 45
0.0
1001
ACAD
1000
AcDbSavedByObjectVersion
1070
     0
  0
VISUALSTYLE
  5
3354
102
{ACAD_XDICTIONARY
360
35EE
102
}
102
{ACAD_REACTORS
330
3342
102
}
330
3342
100
AcDbVisualStyle
  2
Sketchy
 70
    24
 71
     1
 72
     2
 73
     2
 90
        0
 40
-0.6
 41
-30.0
 62
     5
 63
     7
421
 16777215
 74
     2
 91
        2
 64
     7
 65
     7
 75
     1
175
     1
 42
40.0
 92
       11
 66
     7
 43
1.0
 76
     1
 77
     6
 78
     2
 67
     7
 79
     6
170
     0
171
     0
290
     0
174
     0
 93
        1
 44
0.0
173
     0
291
     0
 45
0.0
1001
ACAD
1000
AcDbSavedByObjectVersion
1070
     0
  0
VISUALSTYLE
  5
334F
102
{ACAD_XDICTIONARY
360
35E4
102
}
102
{ACAD_REACTORS
330
3342
102
}
330
3342
100
AcDbVisualStyle
  2
Thicken
 70
    13
 71
     2
 72
     2
 73
     0
 90
        0
 40
-0.6
 41
-30.0
 62
     5
 63
     7
421
 16777215
 74
     1
 91
        4
 64
     7
 65
   257
 75
     1
175
     1
 42
1.0
 92
       12
 66
     7
 43
1.0
 76
     1
 77
     6
 78
     2
 67
     7
 79
     5
170
     0
171
     0
290
     0
174
     0
 93
        1
 44
0.0
173
     0
291
     1
 45
0.0
1001
ACAD
1000
AcDbSavedByObjectVersion
1070
     0
  0
VISUALSTYLE
  5
3349
102
{ACAD_XDICTIONARY
360
35D8
102
}
102
{ACAD_REACTORS
330
3342
102
}
330
3342
100
AcDbVisualStyle
  2
Wireframe
 70
     5
 71
     0
 72
     2
 73
     0
 90
        0
 40
-0.6
 41
-30.0
 62
     5
 63
     7
421
 16777215
 74
     1
 91
        4
 64
     7
 65
   257
 75
     1
175
     1
 42
1.0
 92
        0
 66
   257
 43
1.0
 76
     1
 77
     6
 78
     2
 67
     7
 79
     3
170
     0
171
     0
290
     0
174
     0
 93
        1
 44
0.0
173
     0
291
     0
 45
0.0
1001
ACAD
1000
AcDbSavedByObjectVersion
1070
     0
  0
VISUALSTYLE
  5
3355
102
{ACAD_XDICTIONARY
360
35F0
102
}
102
{ACAD_REACTORS
330
3342
102
}
330
3342
100
AcDbVisualStyle
  2
X-Ray
 70
    25
 71
     2
 72
     2
 73
     1
 90
        1
 40
0.5
 41
-30.0
 62
     5
 63
     7
421
 16777215
 74
     1
 91
        0
 64
     7
 65
   257
 75
     1
175
     1
 42
1.0
 92
        8
 66
     7
 43
1.0
 76
     1
 77
     6
 78
     2
 67
     7
 79
     3
170
     0
171
     0
290
     0
174
     0
 93
       13
 44
0.0
173
     0
291
     0
 45
0.0
1001
ACAD
1000
AcDbSavedByObjectVersion
1070
     0
  0
DICTIONARYVAR
  5
343A
102
{ACAD_REACTORS
330
1114
102
}
330
1114
100
DictionaryVariables
280
     0
  1
1:1
  0
DICTIONARYVAR
  5
3437
102
{ACAD_REACTORS
330
1114
102
}
330
1114
100
DictionaryVariables
280
     0
  1
STANDARD
  0
DICTIONARYVAR
  5
3436
102
{ACAD_REACTORS
330
1114
102
}
330
1114
100
DictionaryVariables
280
     0
  1
STANDARD
  0
DICTIONARYVAR
  5
3438
102
{ACAD_REACTORS
330
1114
102
}
330
1114
100
DictionaryVariables
280
     0
  1
Imperial24
  0
DICTIONARYVAR
  5
3439
102
{ACAD_REACTORS
330
1114
102
}
330
1114
100
DictionaryVariables
280
     0
  1
Imperial24
  0
DICTIONARYVAR
  5
1A5D
102
{ACAD_REACTORS
330
1114
102
}
330
1114
100
DictionaryVariables
280
     0
  1
1
  0
DICTIONARYVAR
  5
1A5E
102
{ACAD_REACTORS
330
1114
102
}
330
1114
100
DictionaryVariables
280
     0
  1

  0
DICTIONARYVAR
  5
1115
102
{ACAD_REACTORS
330
1114
102
}
330
1114
100
DictionaryVariables
280
     0
  1
96
  0
DICTIONARY
  5
33FD
330
1071
100
AcDbDictionary
280
     1
281
     1
  3
ADSK_XREC_LAYOUTTHUMBNAIL
360
33FE
  0
DICTIONARY
  5
3333
330
3332
100
AcDbDictionary
280
     1
281
     1
  3
ACAD_XREC_ROUNDTRIP
360
35CA
  3
BUMPTILE
360
3335
  3
DIFFUSETILE
360
3334
  3
OPACITYTILE
360
3338
  3
REFLECTIONTILE
360
3337
  3
REFRACTIONTILE
360
3339
  3
SPECULARTILE
360
3336
  0
DICTIONARY
  5
332B
330
332A
100
AcDbDictionary
280
     1
281
     1
  3
ACAD_XREC_ROUNDTRIP
360
35C9
  3
BUMPTILE
360
332D
  3
DIFFUSETILE
360
332C
  3
OPACITYTILE
360
3330
  3
REFLECTIONTILE
360
332F
  3
REFRACTIONTILE
360
3331
  3
SPECULARTILE
360
332E
  0
DICTIONARY
  5
333B
330
333A
100
AcDbDictionary
280
     1
281
     1
  3
ACAD_XREC_ROUNDTRIP
360
35CB
  3
BUMPTILE
360
333D
  3
DIFFUSETILE
360
333C
  3
OPACITYTILE
360
3340
  3
REFLECTIONTILE
360
333F
  3
REFRACTIONTILE
360
3341
  3
SPECULARTILE
360
333E
  0
DICTIONARY
  5
35FD
330
3370
100
AcDbDictionary
280
     1
281
     1
  3
ACAD_XREC_ROUNDTRIP
360
35FE
  0
DICTIONARY
  5
33F0
330
335C
100
AcDbDictionary
280
     1
281
     1
  3
ACAD_ROUNDTRIP_2008_TABLESTYLE_CELLSTYLEMAP
360
35C7
  3
ACAD_XREC_ROUNDTRIP
360
35FC
  0
DICTIONARY
  5
35D6
330
3348
100
AcDbDictionary
280
     1
281
     1
  3
ACAD_XREC_ROUNDTRIP
360
35D7
  0
DICTIONARY
  5
35D4
330
3347
100
AcDbDictionary
280
     1
281
     1
  3
ACAD_XREC_ROUNDTRIP
360
35D5
  0
DICTIONARY
  5
35E2
330
334E
100
AcDbDictionary
280
     1
281
     1
  3
ACAD_XREC_ROUNDTRIP
360
35E3
  0
DICTIONARY
  5
35EA
330
3352
100
AcDbDictionary
280
     1
281
     1
  3
ACAD_XREC_ROUNDTRIP
360
35EB
  0
DICTIONARY
  5
35DC
330
334B
100
AcDbDictionary
280
     1
281
     1
  3
ACAD_XREC_ROUNDTRIP
360
35DD
  0
DICTIONARY
  5
35E0
330
334D
100
AcDbDictionary
280
     1
281
     1
  3
ACAD_XREC_ROUNDTRIP
360
35E1
  0
DICTIONARY
  5
35FA
330
335A
100
AcDbDictionary
280
     1
281
     1
  3
ACAD_XREC_ROUNDTRIP
360
35FB
  0
DICTIONARY
  5
35E8
330
3351
100
AcDbDictionary
280
     1
281
     1
  3
ACAD_XREC_ROUNDTRIP
360
35E9
  0
DICTIONARY
  5
35CC
330
3343
100
AcDbDictionary
280
     1
281
     1
  3
ACAD_XREC_ROUNDTRIP
360
35CD
  0
DICTIONARY
  5
35CE
330
3344
100
AcDbDictionary
280
     1
281
     1
  3
ACAD_XREC_ROUNDTRIP
360
35CF
  0
DICTIONARY
  5
35D0
330
3345
100
AcDbDictionary
280
     1
281
     1
  3
ACAD_XREC_ROUNDTRIP
360
35D1
  0
DICTIONARY
  5
35D2
330
3346
100
AcDbDictionary
280
     1
281
     1
  3
ACAD_XREC_ROUNDTRIP
360
35D3
  0
DICTIONARY
  5
35DA
330
334A
100
AcDbDictionary
280
     1
281
     1
  3
ACAD_XREC_ROUNDTRIP
360
35DB
  0
DICTIONARY
  5
35F6
330
3358
100
AcDbDictionary
280
     1
281
     1
  3
ACAD_XREC_ROUNDTRIP
360
35F7
  0
DICTIONARY
  5
35E6
330
3350
100
AcDbDictionary
280
     1
281
     1
  3
ACAD_XREC_ROUNDTRIP
360
35E7
  0
DICTIONARY
  5
35F8
330
3359
100
AcDbDictionary
280
     1
281
     1
  3
ACAD_XREC_ROUNDTRIP
360
35F9
  0
DICTIONARY
  5
35DE
330
334C
100
AcDbDictionary
280
     1
281
     1
  3
ACAD_XREC_ROUNDTRIP
360
35DF
  0
DICTIONARY
  5
35F4
330
3357
100
AcDbDictionary
280
     1
281
     1
  3
ACAD_XREC_ROUNDTRIP
360
35F5
  0
DICTIONARY
  5
35F2
330
3356
100
AcDbDictionary
280
     1
281
     1
  3
ACAD_XREC_ROUNDTRIP
360
35F3
  0
DICTIONARY
  5
35EC
330
3353
100
AcDbDictionary
280
     1
281
     1
  3
ACAD_XREC_ROUNDTRIP
360
35ED
  0
DICTIONARY
  5
35EE
330
3354
100
AcDbDictionary
280
     1
281
     1
  3
ACAD_XREC_ROUNDTRIP
360
35EF
  0
DICTIONARY
  5
35E4
330
334F
100
AcDbDictionary
280
     1
281
     1
  3
ACAD_XREC_ROUNDTRIP
360
35E5
  0
DICTIONARY
  5
35D8
330
3349
100
AcDbDictionary
280
     1
281
     1
  3
ACAD_XREC_ROUNDTRIP
360
35D9
  0
DICTIONARY
  5
35F0
330
3355
100
AcDbDictionary
280
     1
281
     1
  3
ACAD_XREC_ROUNDTRIP
360
35F1
  0
XRECORD
  5
33FE
102
{ACAD_REACTORS
330
33FD
102
}
330
33FD
100
AcDbXrecord
280
     1
310
28000000000100008A0000000100080000000000008A0000010000000100000000010000000000000000000000000000C8C8C87200000000000000000000000000000044000000000000002A0000000000000000330000006600007299000000CC000000FF00000000330000333300006633000099330000CC330000FF3300
310
0000660000336600006666000099660000CC660000FF66000000990000339900006699000099990000CC990000FF99000000CC000033CC000066CC000099CC0000CCCC0000FFCC000000FF000033FF000066FF000099FF0000CCFF0072FFFF000000003300330033006600330099003300CC003300FF003300003333003333
310
33006633330099333300CC333300FF33330000663300336633006666330099663300CC663300FF66330000993300339933006699330099993300CC993300FF99332700CC337233CC330066CC330099CC3300CCCC3372FFCC330000FF337233FF330066FF337299FF3300CCFF3372FFFF330000006672330066006600660099
310
006600CC006672FF00660000336600333366006633660099336600CC336600FF33660000666600336666006666660099666600CC666600FF66660000996600339966006699660099996600CC996600FF99660000CC660033CC660066CC667299CC6600CCCC6600FFCC660000FF663F33FF660066FF660099FF6600CCFF6600
310
FFFF660000009900330099006600990099009900CC009972FF00990000339900333399006633997299339900CC339972FF33990000669900336699006666997299669900CC669900FF66990000999900339999006699990099999900CC999900FF99990000CC990033CC990066CC990099CC9900CCCC9972FFCC990000FF99
310
7233FF990066FF997299FF9900CCFF9972FFFF99000000CC723300CC006600CC3F9900CC00CC00CC3FFF00CC000033CC3F3333CC006633CC009933CC00CC33CC00FF33CC000066CC003366CC006666CC009966CC00CC66CC00FF66CC000099CC003399CC006699CC009999CC00CC99CC00FF99CC0000CCCC7233CCCC0066CC
310
CC0099CCCC00CCCCCC00FFCCCC0000FFCC7233FFCC0066FFCC7299FFCC00CCFFCC00FFFFCC000000FF003300FF006600FF009900FF00CC00FF00FF00FF000033FF003333FF006633FF009933FF00CC33FF72FF33FF000066FF003366FF006666FF009966FF00CC66FF00FF66FF000099FF003399FF006699FF009999FF00CC
310
99FF00FF99FF0000CCFF0033CCFF0066CCFF0099CCFF00CCCCFF00FFCCFF0000FFFF0033FFFF0066FFFF0099FFFF00CCFFFF3FFFFFFF000000003F0D0D0D001A1A1A3F282828003535350043434300505050005D5D5D006B6B6B00787878008686860093939300A1A1A100AEAEAE00BBBBBB00C9C9C900D6D6D600E4E4E400
310
F1F1F100FFFFFF000000000000000000000000000000000000000072000000000000006400000000000000000000000000000000000000000000000000000000000000000000000000000000000000DCDCDCDCDCDCDCDCDCDCDCDCDCDCDCDCDCDCDCDCDCDCDCDCDCDCDCDCDCDCDCDCDCDCDCDCDCDCDCDCDCDCDCDCDCDCDCDC
310
DCDCDCDCDCDCDCDCDCDCDCDCDCDCDCDCDCDCDCDCDCDCDCDCDCDCDCDCDCDCDCDCDCDCDCDCDCDCDCDCDCDCDCDCDCDCDCDCDCDCDCDCDCDCDCDCDCDCF5DCDCDCDCDCDCDCDCDCDCDCDCDCDCDCDCDCDCDCDCDCDCDCDCDCDCDCDCDCDCDCDCDCDCDCDCDCDCDCDCDCDCDCDCDCDCDCDCDCDCDCDCDCDCDCDCDCDCDCDCDCDCDCDCDCDCDCDC
310
DCDCDCDCDCDCDCDCDCDCDCDCDCDCDCDCDCDCDC0000000000000000000000000000000000000000000000000000000000000000000000000000000000000000000000000000000000000000000000000000DC000000000000000000000000000000000000000000000000000000000000000000000000000000000000000000
310
000000000000000000000000000000000000000000000000000000000000000000000000000000000000000000000000000000000000000000000000F5000000000000000000000000000000000000000000000000000000000000000000000000000000000000000000000000000000000000000000000000000000000000
310
0000000000000000000000000000000000000000DC0000000000000000000000000000000000000000000000000000000000000000000000000000000000000000000000000000000000000000000000000000DC00000000000000000000000000000000000000000000000000000000000000000000000000000000000000
310
0000000000000000000000000000000000000000000000000000000000000000000000000000000000000000000000000000000000000000000000000000F500000000000000000000000000000000000000000000000000000000000000000000000000000000000000000000000000000000000000000000000000000000
310
00000000000000000000000000000000000000000000DC0000000000000000000000000000000000000000000000000000000000000000000000000000000000000000000000000000000000000000000000000000DC0000000000000000282828282828282828282828282828282828282828282828282828282828282828
310
28282828282828282828282828282828282828282828282828282828282828282828282828282828282828282828282828282828282828282828282828282828F52828282828282828282828282828282828282828282828282828282828282828282828282828282828282828282828282828282828282828282828282828
310
28282828282828282828282828282828282828282828F5F5DC0000000000000000000000000000000000000000000000000000000000000000000000000000000000000000000000000000000000000000000000000000DC000000000000000028000000000000000000000000000000000000000000000000000000000000
310
000000000000000000000000000000000000000000000000000000000000000000000000000000000000000000000000000000000000000000000000000000000000000028F5F5BE000000000000F500BE0000F500BE000000002800000000000000000000000000000000000028DCDCDCDCDCDCDCDCDCDCDCDCDCDCDCDCDC
310
DCDCDCDCDCDCDCDCDCDCDCDCDCDCDCDCDCDCDCDCDCDCDCDCF5F5DC0000000000000000000000000000000000000000000000000000000000000000000000000000000000000000000000000000000000000000000000000000DC00000000000000002800000000000000000000000000000000000000000000000000000000
310
0000000000000000000000000000000000000000000000000000000000000000000000000000000000000000000000000000000000000000000000000000000000000000000028F5F5BE00F5F5F5F5F5F500BE00F5F5F5BEF5F5F5F52800282828282828282828002828282828280028000000000000000000000000000000
310
000000000000000000000000000000000000000000000000000028F5DC0000000000000000000000000000000000000000000000000000000000000000000000000000000000000000000000000000000000000000000000000000DC0000000000000000280000000000000000000000000000000000000000000000000000
310
00000000000000000000000000000000000000000000000000000000000000000000000000000000000000000000000000000000000000000000000000000000000000000000000028F5F5BE00F5F5F500000000BE00F50000BEF5F50000280028280028000028282828280028000028282800000000000000000000000000
310
0000000000000000000000000000000000000000000000000000000028F5DC0000000000000000000000000000000000000000000000000000000000000000000000000000000000000000000000000000000000000000000000000000DC000000000000000028000000000000000000000000000000000000000000000000
310
0000000000000000000000000000000000000000000000000000000000000000000000000000000000000000000000000000000000000000000000000000000000000000000000000000282828BE2828282828282828BE28282828BE2828282828002828282800002828282828282800002828280000000000000000000000
310
000000000000000000000000000000000000000000000000000000000000F5F5DC0000000000000000000000000000000000000000000000000000000000000000000000000000000000000000000000000000000000000000000000000000DC00000000000000002800000000000000000000000000000000000000000000
310
00000000000000000000000000000000000000000000000000000000000000000000000000000000000000000000000000000000000000000000000000000000000000000000000000000000280000BE0000000000000000BE00000000BE000000002800282800282828282828282828282828282828F5F5F5F5F5F5F5F5F5
310
F500000000000000000000000000000000000000000000000000000000000000F5F5DC0000000000000000000000000000000000000000000000000000000000000000000000000000000000000000000000000000000000000000000000000000DC0000000000000000280000000000000000000000000000000000000000
310
000000000000000000000000000000000000000000000000000000000000000000000000000000000000000000000000000000000000000000000000000000000000000000000000000000000000280000BE0000000000000000BE00000000BE000000002800282800002828002828282800002828000028F5F5000000F500
310
F5000000000000000000000000000000000000000000000000000000000000000000F5F5DC0000000000000000000000000000000000000000000000000000000000000000000000000000000000000000000000000000000000000000000000000000DC000000000000000028000000000000000000000000000000000000
310
000000000000000000000000000000000000000000000000000000000000000000000000000000000000000000000000000000000000000000000000000000000000000000000000000000000000000028DCDCDCDCDCDCDCDCDCDCDCDCDCDCDCDCDCDCDCDCDCF5F5F5F5BE28F5F5F5F5BE28282828282828282828F5F5F5F5
310
F5F5F5F5F52828282828282828282828282828282828282828282828282828282828282828F5DC0000000000000000000000000000000000000000000000000000000000000000000000000000000000000000000000000000000000000000000000000000DC00000000000000002800000000000000000000000000000000
310
00000000000000000000000000000000000000000000000000000000000000000000000000000000000000000000000000000000000000000000000000000000000000000000000000000000000000000000280000BE0000000000000000BE00000000BE00000000F5F5F5F5BE00F5F5F500BE0000F5F5F5F500002800F5F5
310
F5F5F5F5F5F5F50000000000000000000000000028000000000000000000000000000000000028F5DC0000000000000000000000000000000000000000000000000000000000000000000000000000000000000000000000000000000000000000000000000000DC0000000000000000280000000000000000000000000000
310
00000000000000000000000000000000000000000000000000000000000000000000000000000000000000000000000000000000000000000000000000000000000000000000000000000000000000000000000028DCDCDCDCDCDCDCDCDCDCDCDCDCDCDCDCDCDCDCDCDCDCDCF5DCDCDCDCDCDCDCDCDCDCDCDCDCDCDCDCDCDC
310
F5F5F5F5F5F5F5F5F5F5F5F5F5F5F5F5F5F5DCDCDC0028F5F5F5F5F5F5F5F5F5F5F500000000000028F5F50000000000000000000000000000000000000000000000000000000000000000000000000000000000000000000000000000000000000000000000000000DC000000000000000028000000000000000000000000
310
0000000000000000000000000000000000000000000000000000000000000000000000000000000000000000000000000000000000000000000000000000000000000000000000000000000000000000000000000000280000BE0000000000000000BE00000000BE00000000F5F5F5F5BE00F5F5F5F5BE000000F5F5000000
310
2800F5F5F5F5F5F5F5F500F5F5F5F5F5F5F5F5F50000000028F5F5F5F5F5F5F5F5F5F5F5000000000000F5F5DC0000000000000000000000000000000000000000000000000000000000000000000000000000000000000000000000000000000000000000000000000000DC00000000000000002800000000000000000000
310
0000000000000000000000000000000000000000000000000000000000000000000000000000000000000000000000000000000000000000000000000000000000000000000000000000000000000000000000000000000028DCDCDCDCDCDCDCDCDCDCDCDCDCDCDCDCDCDCDCDCDCDCF5DCDCDCDCF5F5F5DCDCDCDCDCDCDCDC
310
DCDCDCDCDCDCDCDCDCDCDCDCDCDCDCDCDCDCDCDCDCDCDCDCDC00BEBEBEBEF5F5BEF5BEBEF5BEBEBEBEBEBEBEF5F5DC0000000000000000000000000000000000000000000000000000000000000000000000000000000000000000000000000000000000000000000000000000DC0000000000000000280000000000000000
310
000000000000000000000000000000000000000000000000000000000000000000000000000000000000000000000000000000000000000000000000000000000000000000000000000000000000000000000000000000000000280000BE0000000000000000BE00000000BE00000000F5F5F500BE00F5F5F5F5BE000000F5
310
F5F5000028000000000000000000000000000000000000000000000028000000000000000000000000000000000028F5DC0000000000000000000000000000000000000000000000000000000000000000000000000000000000000000000000000000000000000000000000000000DC000000000000000028000000000000
310
0000000000000000000000000000000000000000000000000000000000000000000000000000000000000000000000000000000000000000000000000000000000000000000000000000000000000000000000000000000000000000280000BE0000000000000000BE00000000BE00000000F5F5F500BE00F5F5F500BE0000
310
00F5F5F50000280000000000000000000000000000000000000000F50000280000000000000000000000000000000000F5F5DC0000000000000000000000000000000000000000000000000000000000000000000000000000000000000000000000000000000000000000000000000000DC00000000000000002800000000
310
0000000000000000000000000000000000000000000000000000000000000000000000000000000000000000000000000000000000000000000000000000000000000000000000000000000000000000000000000000000000000000000028DCDCDCDCDCDCDCDCDCDCDCDCDCDCDCDCDCDCDCDCDCDCF5F5F5DCDCF5F5F5DCDC
310
DCDCF5F5F5F5DCDCDCDCF5F5F5F5F5F5DCF5F5F5F5F5F5F5F5F5F5F5F5F5DC0028F5F5F5F5F5F5F5F5000000000000000000F5F5DC0000000000000000000000000000000000000000000000000000000000000000000000000000000000000000000000000000000000000000000000000000DC0000000000000000280000
310
000000000000000000000000000000000000000000000000000000000000000000000000000000000000000000000000000000000000000000000000000000000000000000000000000000000000000000000000000000000000000000000000280000BE0000000000000000BE00000000BE0000000028F5F5F5BE00F5F5F5
310
00BE0000F5F5F5F500002800F5F5F5F5F5F5F5F5F5F5F5F5F5F5F5F5F5F5F5F5000028F5F5F5F5F5F5F5F500000000000000000028F5DC0000000000000000000000000000000000000000000000000000000000000000000000000000000000000000000000000000000000000000000000000000DC000000000000000028
310
000000000000000000000000000000000000000000000000000000000000000000000000000000000000000000000000000000000000000000000000000000000000000000000000000000000000000000000000000000000000000000000000000028DCDCDCDCDCDCDCDCDCDCDCDCDCDCDCDCDCDCDCDCDCDC282828BE2828
310
282828BE282828282828282828282828282828282828282828282828282828282828282828282828282828282828282828282828282828F5DC0000000000000000000000000000000000000000000000000000000000000000000000000000000000000000000000000000000000000000000000000000DC00000000000000
310
00280000000000000000000000000000000000000000000000000000000000000000000000000000000000000000000000000000000000000000000000000000000000000000000000000000000000000000000000000000000000000000000000000000280000BE0000000000000000BE00000000BE000000002800000000
310
0000000000BE000000000000000028DCDCDCDCDCDCDCDCDCDCDCDCDCDCDCDCDCDCDCDCDCDC0028DCDCDCDCDCDCDCDCDCDCDCDCDCDCDCDCDC28F5DC0000000000000000000000000000000000000000000000000000000000000000000000000000000000000000000000000000000000000000000000000000DC0000000000
310
00000028000000000000000000000000000000000000000000000000000000000000000000000000000000000000000000000000000000000000000000000000000000000000000000000000000000000000000000000000000000000000000000000000000028DCDCDCDCDCDCDCDCDCDCDCDCDCDCDCDCDCDCDCDCDCDC0000
310
00BEBEBE000000BEF5F5F5F5F5F5F5F5F500BEBEBEBEBEBEBEBE00BEBEBEBEBEBEBEBEBEBEBEBE0028000000BEBEBEBEBEBEBEBEBEBEBE000000F5F5DC0000000000000000000000000000000000000000000000000000000000000000000000000000000000000000000000000000000000000000000000000000DC000000
310
0000000000280000000000000000000000000000000000000000000000000000000000000000000000000000000000000000000000000000000000000000000000000000000000000000000000000000000000000000000000000000000000000000000000000000280000BE0000000000000000BE00000000BE0000000028
310
0000BEBEBEBE000000BEF5F5F5F5F5F5F5F5F500BEBEBEBEBEBEBEBE00BEBEBEBEBEBEBEBEBEBEBEBE0028000000BEBEBEBEBEBEBEBEBEBEBE000000F5F5DC0000000000000000000000000000000000000000000000000000000000000000000000000000000000000000000000000000000000000000000000000000DC00
310
0000000000000028000000000000000000000000000000000000000000000000000000000000000000000000000000000000000000000000000000000000000000000000000000000000000000000000000000000000000000000000000000000000000000000000000028DCDCDCDCDCDCDCDCDCDCDCDCDCDCDCDCDCDCDCDC
310
DCDC000000000000000000BE0000000000000000280000000000000000000000000000000000000000000000280000000000000000000000000000000000F5F5DC0000000000000000000000000000000000000000000000000000000000000000000000000000000000000000000000000000000000000000000000000000
310
DC0000000000000000280000000000000000000000000000000000000000000000000000000000000000000000000000000000000000000000000000000000000000000000000000000000000000000000000000000000000000000000000000000000000000000000000000280000BE0000000000000000BE00000000BE00
310
0000002800F5F5F5F5F5F50000BEF5F5F500F5F5F5002800F5F5F5F5F5F5F5F5000000000000000000000000000028F5F5F5F5F5F5F5F5F5F5F500000000000028F5DC000000000000000000000000000000000000000000000000000000000000000000000000000000000000000000000000000000000000000000000000
310
0000DC0000000000000000280000000000000000000000000000000000000000000000000000000000000000000000000000000000000000000000000000000000000000000000000000000000000000000000000000000000000000000000000000000000000000000000000000280000BE0000000000000000BE00000000
310
BE000000002800F5F5F5F5F5F50000BEF5F5F500F5F5F5002800F5F5F5F5F5F5F5F5000000000000000000000000000028F5F5F5F5F5F5F5F5F5F5F500000000000028F5F500000000000000000000000000000000000000000000000000000000000000000000000000000000000000000000000000000000000000000000
310
00000000DC0000000000000000280000000000000000000000000000000000000000000000000000000000000000000000000000000000000000000000000000000000000000000000000000000000000000000000000000000000000000000000000000000000000000000000000000F5F5F5F5F5F5F5F5F5F5F5F5F5F5F5
310
F528F5F5F5F52828282828282828282828BE282828282828282828282828282828282828282828282828282828282828282828282828282828282828282828282828282828F5DC0000000000000000000000000000000000000000000000000000000000000000000000000000000000000000000000000000000000000000
310
000000000000DC0000000000000000280000000000000000000000000000000000000000000000000000000000000000000000000000000000000000000000000000000000000000000000000000000000000000000000000000000000000000000000000000000000000000000000000000F5F5F5F5F5F5F5F5F500F5F5F5
310
F5F5F500F5F5F5F50000000000000000000000000000000000000000000000000000000000000000000000000000000000000000000000000000000000000000000000000000F5F5DC000000000000000000000000000000000000000000000000000000000000000000000000000000000000000000000000000000000000
310
0000000000000000DC00000000000000002800000000000000000000000000000000000000000000000000000000000000000000000000000000000000000000000000000000000000000000000000000000000000000000000000000000000000000000000000000000000000000000000000000000000000000000000000
310
000000000000000000000000000000000000000000000000000000000000000000000000000000000000000000000000000000000000000000000000000000000000000000000000F5F5DC00000000000000000000000000000000000000000000000000000000000000000000000000000000000000000000000000000000
310
00000000000000000000DC0000000000000000280000000000000000000000000000000000000000000000000000000000000000000000000000000000000000000000000000000000000000000000000000000000000000000000000000000000000000000000000000000000000000000000000000000000000000000000
310
0000000000000000000000000000000000000000000000000000000000000000000000000000000000000000000000000000000000000000000000000000000000000000000000000000F5F5DC0000000000000000000000000000000000000000000000000000000000000000000000000000000000000000000000000000
310
000000000000000000000000DC000000000000000028000000000000000000000000000000000000000000000000000000000000000000000000000000000000000000000000000000000000000000000000000000000000000000000000000000000000000000000000000000000000000000000000000000000000000000
310
00000000000000000000000000000000000000000000000000000000000000000000000000000000000000000000000000000000000000000000000000000000000000000000000000000000F5F5DC000000000000000000000000000000000000000000000000000000000000000000000000000000000000000000000000
310
0000000000000000000000000000DC00000000000000002800000000000000000000000000000000000000000000000000000000000000000000000000000000000000000000000000000000000000000000000000000000000000000000000000000000000000000000000000000000000000000000000000000000000000
310
00000000000000000000000000000000000000000000000000000000000000000000000000000000000000000000000000000000000000000000000000000000000000000000000000000000000028F5DC00000000000000000000000000000000000000000000000000000000000000000000000000000000000000000000
310
00000000000000000000000000000000DC0000000000000000280000000000000000000000000000000000000000000000000000000000000000000000000000000000000000000000000000000000000000000000000000000000000000000000000000000000000000000000000000000000000000000000000000000000
310
0000000000000000000000000000000000000000000000000000000000000000000000000000000000000000000000000000000000000000000000000000000000000000000000000000000000000000F5F5DC0000000000000000000000000000000000000000000000000000000000000000000000000000000000000000
310
000000000000000000000000000000000000DC000000000000000028000000000000000000000000000000000000000000000000000000000000000000000000000000000000000000000000000000000000000000000000000000000000000000000000000000000000000000000000000000000000000000000000000000
310
00000000000000000000000000000000000000000000000000000000000000000000000000000000000000000000000000000000000000000000000000000000000000000000000000000000000000000000F5F5DC000000000000000000000000000000000000000000000000000000000000000000000000000000000000
310
0000000000000000000000000000000000000000DC00000000000000002800000000000000000000000000000000000000000000000000000000000000000000000000000000000000000000000000000000000000000000000000000000000000000000000000000000000000000000000000000000000000000000000000
310
000000000000000000000000000000000000000000000000000000000000000000000000000000000000000000000000000000000000000000000000000000000000000000000000000000000000000000000000F5F5DC00000000000000000000000000000000000000000000000000000000000000000000000000000000
310
00000000000000000000000000000000000000000000DC0000000000000000280000000000000000000000000000000000000000000000000000000000000000000000000000000000000000000000000000000000000000000000000000000000000000000000000000000000000000000000000000000000000000000000
310
0000000000000000000000000000000000000000000000000000000000000000000000000000000000000000000000000000000000000000000000000000000000000000000000000000000000000000000000000000F5F5DC0000000000000000000000000000000000000000000000000000000000000000000000000000
310
000000000000000000000000000000000000000000000000DC000000000000000028000000000000000000000000000000000000000000000000000000000000000000000000000000000000000000000000000000000000000000000000000000000000000000000000000000000000000000000000000000000000000000
310
00000000000000000000000000000000000000000000000000000000000000000000000000000000000000000000000000000000000000000000000000000000000000000000000000000000000000000000000000000000F5F5DC000000000000000000000000000000000000000000000000000000000000000000000000
310
0000000000000000000000000000000000000000000000000000DC00000000000000002800000000000000000000000000000000000000000000000000000000000000000000000000000000000000000000000000000000000000000000000000000000000000000000000000000000000000000000000000000000000000
310
00000000000000000000000000000000000000000000000000000000000000000000000000000000000000000000000000000000000000000000000000000000000000000000000000000000000000000000000000000000000028F5DC00000000000000000000000000000000000000000000000000000000000000000000
310
00000000000000000000000000000000000000000000000000000000DC0000000000000000280000000000000000000000000000000000000000000000000000000000000000000000000000000000000000000000000000000000000000000000000000000000000000000000000000000000000000000000000000000000
310
000000000000000000000000000000000000000000000000000000000000000000000000000000000000000000000000000000000000000000000000000000000000000000000000000000000000000000000000000000000000000028F5DC0000000000000000000000000000000000000000000000000000000000000000
310
000000000000000000000000000000000000000000000000000000000000DC000000000000000028000000000000000000000000000000000000000000000000000000000000000000000000000000000000000000000000000000000000000000000000000000000000000000000000000000000000000000000000000000
310
0000000000000000000000000000000000000000000000000000000000000000000000000000000000000000000000000000000000000000000000000000000000000000000000000000000000000000000000000000000000000000000028F5DC000000000000000000000000000000000000000000000000000000000000
310
0000000000000000000000000000000000000000000000000000000000000000DC00000000000000002800000000000000000000000000000000000000000000000000000000000000000000000000000000000000000000000000000000000000000000000000000000000000000000000000000000000000000000000000
310
00000000000000000000000000000000000000000000000000000000000000000000000000000000000000000000000000000000000000000000000000000000000000000000000000000000000000000000000000000000000000000000000028F5DC00000000000000000000000000000000000000000000000000000000
310
00000000000000000000000000000000000000000000000000000000000000000000DC0000000000000000280000000000000000000000000000000000000000000000000000000000000000000000000000000000000000000000000000000000000000000000000000000000000000000000000000000000000000000000
310
0000000000000000000000000000000000000000000000000000000000000000000000000000000000000000000000000000000000000000000000000000000000000000000000000000000000000000000000000000000000000000000000000000F5F5DC0000000000000000000000000000000000000000000000000000
310
000000000000000000000000000000000000000000000000000000000000000000000000DC000000000000000028000000000000000000000000000000000000000000000000000000000000000000000000000000000000000000000000000000000000000000000000000000000000000000000000000000000000000000
310
0000000000000000000000000000000000000000000000000000000000000000000000000000000000000000000000000000000000000000000000000000000000000000000000000000000000000000000000000000000000000000000000000000000028F5F5000000000000000000000000000000000000000000000000
310
0000000000000000000000000000000000000000000000000000000000000000000000000000DC00000000000000002800000000000000000000000000000000000000000000000000000000000000000000000000000000000000000000000000000000000000000000000000000000000000000000000000000000000000
310
00000000000000000000000000000000000000000000000000000000000000000000000000000000000000000000000000000000000000000000000000000000000000000000000000000000000000000000000000000000000000000000000000000000000028F5DC00000000000000000000000000000000000000000000
310
00000000000000000000000000000000000000000000000000000000000000000000000000000000DC0000000000000000280000000000000000000000000000000000000000000000000000000000000000000000000000000000000000000000000000000000000000000000000000000000000000000000000000000000
310
0000000000000000000000000000000000000000000000000000000000000000000000000000000000000000000000000000000000000000000000000000000000000000000000000000000000000000000000000000000000000000000000000000000000000000F5F5DC0000000000000000000000000000000000000000
310
000000000000000000000000000000000000000000000000000000000000000000000000000000000000DC000000000000000028000000000000000000000000000000000000000000000000000000000000000000000000000000000000000000000000000000000000000000000000000000000000000000000000000000
310
0000000000000000000000000000000000000000000000000000000000000000000000000000000000000000000000000000000000000000000000000000000000000000000000000000000000000000000000000000000000000000000000000000000000000000000028F5DC000000000000000000000000000000000000
310
0000000000000000000000000000000000000000000000000000000000000000000000000000000000000000DC00000000000000002800000000000000000000000000000000000000000000000000000000000000000000000000000000000000000000000000000000000000000000000000000000000000000000000000
310
00000000000000000000000000000000000000000000000000000000000000000000000000000000000000000000000000000000000000000000000000000000000000000000000000000000000000000000000000000000000000000000000000000000000000000000000028F5DC00000000000000000000000000000000
310
00000000000000000000000000000000000000000000000000000000000000000000000000000000000000000000DC0000000000000000280000000000000000000000000000000000000000000000000000000000000000000000000000000000000000000000000000000000000000000000000000000000000000000000
310
0000000000000000000000000000000000000000000000000000000000000000000000000000000000000000000000000000000000000000000000000000000000000000000000000000000000000000000000000000000000000000000000000000000000000000000000000000F5F5DC0000000000000000000000000000
310
000000000000000000000000000000000000000000000000000000000000000000000000000000000000000000000000DC000000000000000028000000000000000000000000000000000000000000000000000000000000000000000000000000000000000000000000000000000000000000000000000000000000000000
310
0000000000000000000000000000000000000000000000000000000000000000000000000000000000000000000000000000000000000000000000000000000000000000000000000000000000000000000000000000000000000000000000000000000000000000000000000000000028F5DC000000000000000000000000
310
0000000000000000000000000000000000000000000000000000000000000000000000000000000000000000000000000000DC00000000000000002800000000000000000000000000000000000000000000000000000000000000000000000000000000000000000000000000000000000000000000000000000000000000
310
000000000000000000000000000000000000000000000000000000000000000000000000000000000000000000000000000000000000000000000000000000000000000000000000000000000000000000000000000000000000000000000000000000000000000000000000000000000000F5F5DC00000000000000000000
310
00000000000000000000000000000000000000000000000000000000000000000000000000000000000000000000000000000000DC0000000000000000280000000000000000000000000000000000000000000000000000000000000000000000000000000000000000000000000000000000000000000000000000000000
310
000000000000000000000000000000000000000000000000000000000000000000000000000000000000000000000000000000000000000000000000000000000000000000000000000000000000000000000000000000000000000000000000000000000000000000000000000000000000000028F5DC0000000000000000
310
000000000000000000000000000000000000000000000000000000000000000000000000000000000000000000000000000000000000DC000000000000000028000000000000000000000000000000000000000000000000000000000000000000000000000000000000000000000000000000000000000000000000000000
310
00000000000000000000000000000000000000000000000000000000000000000000000000000000000000000000000000000000000000000000000000000000000000000000000000000000000000000000000000000000000000000000000000000000000000000000000000000000000000000000F5F5DC000000000000
310
0000000000000000000000000000000000000000000000000000000000000000000000000000000000000000000000000000000000000000DC00000000000000002800000000000000000000000000000000000000000000000000000000000000000000000000000000000000000000000000000000000000000000000000
310
00000000000000000000000000000000000000000000000000000000000000000000000000000000000000000000000000000000000000000000000000000000000000000000000000000000000000000000000000000000000000000000000000000000000000000000000000000000000000000000000028F5DC00000000
310
00000000000000000000000000000000000000000000000000000000000000000000000000000000000000000000000000000000000000000000DC0000000000000000280000000000000000000000000000000000000000000000000000000000000000000000000000000000000000000000000000000000000000000000
310
000000000000000000000000000000000000000000000000000000000000000000000000000000000000000000000000000000000000000000000000000000000000000000000000000000000000000000000000000000000000000000000000000000000000000000000000000000000000000000000000000028F5DC0000
310
000000000000000000000000000000000000000000000000000000000000000000000000000000000000000000000000000000000000000000000000DC000000000000000028000000000000000000000000000000000000000000000000000000000000000000000000000000000000000000000000000000000000000000
310
00000000000000000000000000000000000000000000000000000000000000000000000000000000000000000000000000000000000000000000000000000000000000000000000000000000000000000000000000000000000000000000000000000000000000000000000000000000000000000000000000000000F5F5DC
310
0000000000000000000000000000000000000000000000000000000000000000000000000000000000000000000000000000000000000000000000000000DC00000000000000002800000000000000000000000000000000000000000000000000000000000000000000000000000000000000000000000000000000000000
310
00000000000000000000000000000000000000000000000000000000000000000000000000000000000000000000000000000000000000000000000000000000000000000000000000000000000000000000000000000000000000000000000000000000000000000000000000000000000000000000000000000000000028
310
F5DC0000000000000000000000000000000000000000000000000000000000000000000000000000000000000000000000000000000000000000000000000000DC0000000000000000280000000000000000000000000000000000000000000000000000000000000000000000000000000000000000000000000000000000
310
00000000000000000000000000000000000000000000000000000000000000000000000000000000000000000000000000000000000000000000000000000000000000000000000000000000000000000000000000000000000000000000000000000000000000000000000000000000000000000000000000000000000000
310
0028F5F50000000000000000000000000000000000000000000000000000000000000000000000000000000000000000000000000000000000000000000000000000DC000000000000000028000000000000000000000000000000000000000000000000000000000000000000000000000000000000000000000000000000
310
000000000000000000000000000000000000000000000000000000000000000000000000000000000000000000000000000000000000000000000000000000000000000000000000000000000000000000000000000000000000000000000000000000000000000000000000000000000000282828282828282828F5F5F5F5
310
F5F50028F5DC0000000000000000000000000000000000000000000000000000000000000000000000000000000000000000000000000000000000000000000000000000DC00000000000000002800000000000000000000000000000000000000000000000000000000000000000000000000000000000000000000000000
310
00000000000000000000000000000000000000000000000000000000000000000000000000000000000000000000000000000000000000000000000000000000000000000000000000000000000000000000000000000000000000000000000000002828282828282828282828282828282828282828282828282828282828
310
000000F50028F5DC0000000000000000000000000000000000000000000000000000000000000000000000000000000000000000000000000000000000000000000000000000DC000000000000000028000000000000F500000000000000000000000000000000000000000000000000000000000000000000000000000000
310
00000000000000000000000000000000000000000000F500000000000000000000000000000000000000000000000000000000000000000000000000000000000000000000000000000000000000000000002828282828282828282828282828282828282828282828282828282828282828280000000000000000000000DC
310
00280000F5F50028F5DC0000000000000000000000000000000000000000000000000000000000000000000000000000000000000000000000000000000000000000000000000000DC000000000000000028000000000000F5F5F5F5F5F5F5F5F5F5F5F5F5F5F5F5F5F5F5F5F5F5F5F5F5F5F5F5F5F5BEBEF5BEF5F5F5F5F5
310
F5F5F5F5F5F5F5F5F5F5F5F5F5F5F5F5F5F5F5F5F5F5F5F5F5000000000000000000000000000000000000000000000000000000000000000000000000000000000028282828282828282828282828282828282828282828282828282828280000000000000000000000000000000000000000000000000000000000000000
310
00DC0028000000F50028F5DC0000000000000000000000000000000000000000000000000000000000000000000000000000000000000000000000000000000000000000000000000000DC000000000000000028000000000000F5000000000000000000000000000000000000000000000000000000000000BEBEBE000000
310
0000000000000000000000000000000000000000000000000000F5000000000000000000000000000000000000000000000028282828282828282828282828282828282828282828282828F5F5F500000000000000000000000000000000000000000000000000000000000000000000000000000000000000000000000000
310
000000DC0028000000F500F5F5DC0000000000000000000000000000000000000000000000000000000000000000000000000000000000000000000000000000000000000000000000000000DC000000000000000028000000000000F50000000000000000000000000000000000000000000000000000000000BEBEBEBE00
310
00000000000000000000000000000000000000000000000000000000F50000000000000000000000002828282828282828282828282828F5F5F5F5F5F5000000000000000000000000000000000000000000000000000000000000000000000000000000000000000000000000000000000000000000000000000000000000
310
0000000000DC0028000000F500F5F5DC0000000000000000000000000000000000000000000000000000000000000000000000000000000000000000000000000000000000000000000000000000DC000000000000000028000000000000F50000000000000000000000000000000000000000000000000000000000000000
310
000000000000000000000000000000000000000000000000000000000000F50000000000000000000028282828DC000000000000000000000000000000000000000000000000000000000000000000000000000000000000000000000000000000000000000000000000000000000000000000000000000000000000000000
310
00000000000000DC0028000000F500F5F5DC0000000000000000000000000000000000000000000000000000000000000000000000000000000000000000000000000000000000000000000000000000DC000000000000000028000000000000F5000000000000000000000000000000000000000000000000000000000000
310
0000000000000000000000000000000000000000000000000000000000000000F500000000000000F52828DCDCDCDCDC00000000000000000000000000F50000000000000000000000000000000000000000000000000000000000000000000000000000000000000000000000000000000000000000000000000000000000
310
000000000000000000DC002800BEBEF500F5F5DC0000000000000000000000000000000000000000000000000000000000000000000000000000000000000000000000000000000000000000000000000000DC000000000000000028000000F5F5F5F5F5F5F5F5F5F5F5F5F5F5F5F5F5F5F5F5F5F5F5F5F5F5F5F5F5F5F5F5
310
F5F5F5F5F5F5F5F5F5F5F5F5F5F5F5F5F5F5F5F5F5F5F5F5F5F5F5F5F5F5F5282828282828282828282828DCDCDCDCDCDCDC00000000000000000000BEBEBEF5000000000000000000000000000000000000000000000000000000000000000000000000000000000000000000000000000000000000000000000000000000
310
0000000000000000000000DC002800BEBEF500F5F5DC0000000000000000000000000000000000000000000000000000000000000000000000000000000000000000000000000000000000000000000000000000DC000000000000000028000000F50000F5000000000000000000000000000000282828F5F5F5F5F5F5F5F5
310
F5F5F5F5F5F5F5F5F5F5F5F5F5F5F5F5F5F5F5F5F5F5F5F5F5F5F5F5F5F5F5F5F528C328282800000000DC0000000000000000DCDC00000000000000000000BEBEF500000000000000000000000000000000000000000000000000000000000000000000000000000000000000000000000000000000000000000000000000
310
00DCDCDCDCDCDCDCDCDCDCDCDCDCDC28DCBEF5F50028F5DC0000000000000000000000000000000000000000000000000000000000000000000000000000000000000000000000000000000000000000000000000000DC000000000000000028000000F50000F5000000000000000000000000000000280000000000000000
310
000000000000000000000000000000000000000000000000000000000000000000000028C3C3F50000000000DC00000000000000000000000000000000000000000000F5000000000000000000000000000000000000000000000000000000000000000000000000000000000000DCDCDCDCDCDCDCDCDCDCDCDCDCDCDCDCDC
310
DCDC00000000000000000000000000DC002800BEBEF50028F5DC0000000000000000000000000000000000000000000000000000000000000000000000000000000000000000000000000000000000000000000000000000DCDCDCDCDCDCDCDC0028000000F50000F500000000000000000000000000000028000000000000
310
0000000000000000000000000000000000000000000000000000000000000000000000000028C3C3F50000000000DC00000000000000000000000000000000000000000000F5000000000000000000000000000000000000000000000000DCDCDCDCDCDCDCDCDCDCDCDCDC00DCDCDCDC000000000000000000000000000000
310
0000000000000000000000000000000000DC0028000000F50028F5DC0000000000000000000000000000000000000000000000000000000000000000000000000000000000000000000000000000000000000000000000000000DC000000000000000028000000F50000F50000000000000000000000000000002800000000
310
00000000000000000000000000000000000000000000000000000000000000000000000000000028C3C3F50000000000DC00000000000000000000000000000000000000000000F500000000DCDC00DCDCDCDCDCDCDC00DCDCDCDCDCDCDCDCDC000000000000000000000000BEBE0000000000000000000000000000000000
310
00000000000000000000000000000000000000DC0028000000F50028F5DC0000000000000000000000000000000000000000000000000000000000000000000000000000000000000000000000000000000000000000000000000000DC000000000000000028000000F50000F5000000000000000000000000000000280000
310
000000000000000000000000000000000000000000000000000000000000000000000000000000000028C3C3F50000000000DC000000000000000000DCDCDCDCDC00DCDCDCDCDCDCDCDCDCDCDCDC0000000000000000000000000000000000000000000000000000000000BEBEBEBEBEBE0000000000000000000000000000
310
000000000000000000000000000000000000000000DC0028000000F500F5F5DC0000000000000000000000000000000000000000000000000000000000000000000000000000000000000000000000000000000000000000000000000000DC00000000000000002800BEBEBE0000F500000000000000000000000000000028
310
000000000000000000000000000000000000000000000000000000000000000000000000000000000000DC28C3C3DCDCDCDCDCDCDCDCDCDCDCDCDCF5DCDCF5F5F5F5F5F5F5F5F5F5F5F5F5F5F50000000000000000000000000000000000000000000000000000000000000000BEBEBEBEBEBE000000000000000000000000
310
0000000000000000000000000000000000000000000000DC0028000000F500F5F5DC0000000000000000000000000000000000000000000000000000000000000000000000000000000000000000000000000000000000000000000000000000DC00000000000000002800BEBEBE0000F50000000000000000000000000000
310
00280000000000000000000000000000000000000000000000000000000000000000000000000000000000000028C3C3F50000000000DC00000000000000000000000000000000000000000000F5F5000000000000000000000000000000000000000000000000000000000000000000000000000000000000000000000000
310
00000000000000000000000000000000000000000000000000DC0028000000F5F5F5F5DC0000000000000000000000000000000000000000000000000000000000000000000000000000000000000000000000000000000000000000000000000000DC00000000000000002800BEBEBE0000F5000000000000000000000000
310
000000280000000000000000000000000000000000000000000000000000000000000000000000000000000000000028C3C3F50000000000DC00000000000000000000000000000000000000000000F5F500000000000000000000000000000000000000000000000000000000000000000000000000000000000000000000
310
000000000000000000000000000000000000000000000000000000DC0028000000F5F5F5F5F50000000000000000000000000000000000000000000000000000000000000000000000000000000000000000000000000000000000000000000000000000DC000000000000000028000000F50000F500000000000000000000
310
0000000000280000000000000000000000000000000000000000000000000000000000000000000000000000000000000028C3C3F50000000000DC00000000000000000000DC0000000000000000000000F5000000000000000000000000000000000000000000000000000000000000000000000000000000000000000000
310
000000000000000000000000000000000000F5F5F52828282828282828282828F5F5F5F5F5F5F5DC0000000000000000000000000000000000000000000000000000000000000000000000000000000000000000000000000000000000000000000000000000DC000000000000000028000000F50000F50000000000000000
310
00000000000000280000000000000000000000000000000000000000000000000000000000000000000000000000000000000028C3C3F50000F50000DC0000000000000000DCDC000000000000000000000000F500000000000000000000000000000000000000000000000000000000000000000000000000000000000000
310
00F5F5F5F5282828282828282828282828282828282828F5F5F500000000000000F5000000000028F5DC0000000000000000000000000000000000000000000000000000000000000000000000000000000000000000000000000000000000000000000000000000DC000000000000000028000000F50000F5000000000000
310
000000000000000000280000000000000000000000000000000000000000000000000000000000000000000000000000000000000028C3C3F500F500F50000DC000000DCDCDCDCDC000000000000000000000000000000000000000000000000000000000000000000000000000000F5F5F5F5F52828282828282828282828
310
28282828282828F5F50000000000000000000000000000000000000000000000000000F50000000000F5F5DC0000000000000000000000000000000000000000000000000000000000000000000000000000000000000000000000000000000000000000000000000000DC000000000000000028000000F50000F500000000
310
0000000000000000F52828280000000000000000000000000000DC0000000000000000000000000000000000000000000000000000000028C32828F528282828282828DCDCDCDCDCDCDC0000000000000000000000000000000000000000F5F5F5F5F5F5F52828282828282828282828282828282828000000000000000000
310
00000000000000000000000000000000000000000000000000000000000000000000000000F5000000000028F5DC0000000000000000000000000000000000000000000000000000000000000000000000000000000000000000000000000000000000000000000000000000DC000000000000000028000000F50000F5F5F5
310
F5F5F5F5F5F5F5F5F5F5F52828F5F528282828282828282828282828DC2828282828282828282828282828F5F5F5F5F5F5F5F5F5F5F5F5F5F528282828F5280000F50000000028282828282828F5F5F5F5F5F5F5F528282828282828282828282828282828282800000000000000000000DC00000000000000000000000000
310
000000000000000000000000000000000000000000000000000000000000000000000000000000F50000000000F5F5DC0000000000000000000000000000000000000000000000000000000000000000000000000000000000000000000000000000000000000000000000000000DC000000000000000028000000F5F5F5F5
310
F5F5DCF5F5F5F5F5F5F5F5F5F5F5F5F52828282828282828282828282828DC28282828282828282828282828DCF5F5F5F5F5F5F5F5F5F5F5F5F5F5F5F5F5F5F5F5000000F50000000000000028282828282828282828280000000000000000000000000000000000000000000000000000000000DC00000000000000000000
310
0000000000000000000000000000000000000000000000000000000000000000000000000000000000F50000000000F5F5DC0000000000000000000000000000000000000000000000000000000000000000000000000000000000000000000000000000000000000000000000000000DC0000000000000000280000000000
310
0000F5F5F5F528F528F5F528F5F528F528F528282828282828282828282828282828282828282828282828282828DCF5F5F528F5F528F528F5F528F528F5280000F5F5F5000000F50000000000000000000000000000000000000000000000000000000000000000000000000000000000000000000000DC00000000000000
310
00000000000000000000000000000000000000000000000000000000000000000000000000000000000000F50000000000F5F5DC0000000000000000000000000000000000000000000000000000000000000000000000000000000000000000000000000000000000000000000000000000DC000000000000000028000000
310
00000000F5F5F5F5F5F5F528F52828F5282828282828282828282828282828282828F528282828282828282828282828DCF5282828F52828F5F528F5F5F5F528F5000000F5F5F5000000F50000000000000000000000000000000000000000000000000000000000000000000000000000000000000000000000DC00000000
310
000000000000000000000000000000000000000000000000000000000000000000000000000000000000000000F5000000000028F5DC0000000000000000000000000000000000000000000000000000000000000000000000000000000000000000000000000000000000000000000000000000DC00000000000000002800
310
00000000000028F5F5F5F500000000DCDCDCDCDC000000000000000000000000000028DCDCDCDC0000000000000000002800DC002828DCDCDCDC00000000000000000000000000F5F5F5000000F500000000000000000000000000000000000000000000000000000000000000000000000000000000000000000000DC0000
310
0000000000000000000000000000000000000000000000000000000000000000000000000000000000000000000000F5000000000028F5DC0000000000000000000000000000000000000000000000000000000000000000000000000000000000000000000000000000000000000000000000000000DC0000000000000000
310
2800000000000000F5F5F5F5F5000000002828282828000000000000000000000000000028282828280000000000000000002800DC002828282828280000000000000000000000000000F5F5F5000000BE00000000000000000000000000000000000000000000000000000000000000000000000000000000000000000000
310
DC00BEBEBEBE0000BEBEBEBEBEBE00BEBEBEBEBEBEBEBEBEBEBEBE00000000000000000000000000000000000000000000F50000000000F5F5DC0000000000000000000000000000000000000000000000000000000000000000000000000000000000000000000000000000000000000000000000000000DC000000000000
310
0000280000000000000028F5F5F52800000000002828DC00000000000000000000000000000000282828000000000000000000002828DC2828002828DC00000000000000000000000000000000F5F5F500BEBEBEF5000000000000000000000000000000000000000000000000000000000000000000000000000000000000
310
000000DCBEBEBEBEBEBEBEBEBEBEBEBE00BEBEBEBEBEBEBEBE00BEBEBE00000000000000000000000000000000000000000000F50000000000F5F5DC0000000000000000000000000000000000000000000000000000000000000000000000000000000000000000000000000000000000000000000000000000DC00000000
310
00000000280000000000000000DCDC0000000000000000DC000000000000000000000000000000000000F500000000000000000000000000DC00000000DC000000000000000000000000000000000000F5F5F5BEBEBEBEF5000000000000000000000000000000000000000000000000000000000000000000000000000000
310
000000000000DCDCDCDCDCDCDCDCDCDCDCDCDCDCDCDCDCDCDCDCDCDCDCDCDC00000000000000000000000000000000000000000000F50000000000F5F5DC0000000000000000000000000000000000000000000000000000000000000000000000000000000000000000000000000000000000000000000000000000DC0000
310
000000000000280000000000000000DC00000000000000000000000000000000000000000000000000000000F5000000000000000000000000000000000000000000000000000000000000000000000028F5F5F5F5F5BEBEBE00F5000000000000000000000000000000000000000000000000000000000000000000000000
310
0000000000000000BEBEBEBEBEBEBEBEBEBEBEBEBEBE00BEBEBEBEBE000000000000000000000000000000000000000000000000000000F5000000000028F5DC0000000000000000000000000000000000000000000000000000000000000000000000000000000000000000000000000000000000000000000000000000DC
310
000000000000000028000000000000000000DC000000000000000000000000000000000000000000000000000000F5000000000000000000000000000000000000000000000000000000000000000000000000F5F5F5F5F5F500000000F5000000000000000000000000000000000000000000000000000000000000000000
310
0000000000000000000000BEBEBEBEBEBEBEBEBEBEBEBEBE00BEBEBEBEBEBE0000000000000000000000000000000000000000000000000000F5000000000028F5DC00000000000000000000000000000000000000000000000000000000000000000000000000000000000000000000000000000000000000000000000000
310
00DC000000000000000028000000000000000000DC000000000000000000000000000000000000000000000000000000F500000000000000000000000000000000000000000000000000000000000000000000000000F5F5F5F5F5F500000000F5000000000000000000000000000000000000000000000000000000000000
310
00000000000000000000000000BE0000BE0000BEBEBE0000000000BEBEBEBEBE000000000000000000000000000000000000000000000000000000F50000000000F5F5DC0000000000000000000000000000000000000000000000000000000000000000000000000000000000000000000000000000000000000000000000
310
000000DC000000000000000028000000000000000000DC000000000000000000000000000000000000000000000000000000F50000000000000000000000000000000000000000000000000000000000000000000000000000F5F500F5F5F500000000F5000000000000000000000000000000000000000000000000000000
310
00000000000000000000000000000000000000000000000000000000000000000000000000000000000000000000000000000000000000000000000000F5000000000028F5DC000000000000000000000000000000000000000000000000000000000000000000000000000000000000000000000000000000000000000000
310
0000000000DC000000000000000028000000000000000000DC000000000000000000000000000000000000000000000000000000F5000000000000000000000000000000000000000000000000000000000000000000000000000028DCF528F5F5F500000000F5000000000000000000000000000000000000000000000000
310
000000000000000000000000000000000000000000000000000000000000000000000000000000000000000000000000000000000000000000000000000000F5000000000028F5F500000000000000000000000000000000000000000000000000000000000000000000000000000000000000000000000000000000000000
310
00000000000000DC000000000000000028000000000000000000DC000000000000000000000000000000000000000000000000000000F5000000000000000000000000000000000000000000000000000000000000000000000000000028DCDCDCF5F5F5F5000000F5F5000000000000000000000000000000000000000000
310
0000000000000000000000000000000000000000000000000000000000000000000000000000000000000000000000000000000000000000000000000000000000F5000000000028F5F50000000000000000000000000000000000000000000000000000000000000000000000000000000000000000000000000000000000
310
000000000000000000DC000000000000000028000000000000000000DC000000000000000000000000000000000000000000000000000000F500000000000000000000000000000000000000000000000000000000000000000000000000282800DCDCF5F5F5F5F5000000F5F5000000000000000000000000000000000000
310
00000000000000000000000000000000000000000000000000000000000000000000000000000000000000000000000000000000000000000000000000000000000000F50000000000F5F5DC000000000000000000000000000000000000000000000000000000000000000000000000000000000000000000000000000000
310
0000000000000000000000DC00000000000000002800000000000000000000DC0000000000000000000000000000000000000000000000000000F500000000000000000000000000000000000000000000000000000000000000000000000000DC282828DC28F5F5F5F5F50000F50000000000000000000000000000000000
310
000000000000000000000000000000000000000000000000000000000000000000000000000000000000000000000000000000000000000000000000000000000000000000F5000000000028F5DC00000000000000000000000000000000000000000000000000000000000000000000000000000000000000000000000000
310
00000000000000000000000000DC00000000000000002800000000000000000000DC0000000000000000000000000000000000000000000000000000F500000000000000000000000000000000000000000000000000000000000000000000000000002828280000F5F5F5F5F5F500F5000000000000000000000000000000
310
0000000000000000000000000000000000000000000000000000000000000000000000000000000000000000000000000000000000000000000000000000000000000000000000F5000000000028F5DC0000000000000000000000000000000000000000000000000000000000000000000000000000000000000000000000
310
000000000000000000000000000000DC00000000000000002800000000000000000000DC0000000000000000000000000000000000000000000000000000F500000000000000000000000000000000000000000000000000000000000000000000000000DC000000000000F5DCF5F5F5F50000000000000000000000000000
310
00000000000000000000000000000000000000000000000000000000000000000000000000000000000000000000000000000000000000000000000000000000000000000000000000F5000000000028F5DC000000000000000000000000000000000000000000000000000000000000000000000000000000000000000000
310
0000000000000000000000000000000000DC00000000000000002800000000000000000000DC0000000000000000000000000000000000000000000000000000F5000000000000000000000000000000000000000000000000000000000000000000000000000000000000000000F5DCDC0000000000000000000000000000
310
000000000000000000000000000000000000000000000000000000000000000000000000000000000000000000000000000000000000000000000000000000000000000000000000000000F5000000000028F5DC00000000000000000000000000000000000000000000000000000000000000000000000000000000000000
310
00000000000000000000000000000000000000DC00000000000000002800000000000000000000DC0000000000000000000000000000000000000000000000000000F5000000000000000000000000000000000000000000000000000000000000000000000000000000000000000000002800DCDC0000BEBEBEBE00BEBEBE
310
BEBEBEBE00BEBEBEBEBEBEBEBEBEBEBEBE000000000000000000000000000000000000000000000000000000000000000000000000000000000000000000000000000000000000000000000000F50000000000F5F5DC0000000000000000000000000000000000000000000000000000000000000000000000000000000000
310
000000000000000000000000000000000000000000DC00000000000000002800000000000000000000DCBEBEBEBE00BEBEBEBEBEBEBE00BEBEBEBEBEBEBEBEBEBEBEBE00F50000000000000000000000000000000000000000000000000000000000000000000000000000000000000000000000000000DCDCBEBEBEBEBEBE
310
BEBEBEBEBEBE00BEBEBEBEBEBEBEBEBEBEBEBE000000000000000000000000000000000000000000000000000000000000000000000000000000000000000000000000000000000000000000000000F5000000000028F5DC000000000000000000000000000000000000000000000000000000000000000000000000000000
310
0000000000000000000000000000000000000000000000DC0000000000000000280000000000000000000000BEBEBEBEBEBEBEBEBEBEBEBE00BEBEBEBEBEBE00BEBEBEBEBE00F500000000000000000000000000000000000000000000000000000000000000000000000000000000000000000000000000000000DCDCDCDC
310
DCDCDCDCDCDCDCDCDCDCDCDCDCDCDCDCDCDCDCDCDC000000000000000000000000000000000000000000000000000000000000000000000000000000000000000000000000000000000000000000000000F5000000000028F5DC00000000000000000000000000000000000000000000000000000000000000000000000000
310
00000000000000000000000000000000000000000000000000DC0000000000000000280000000000000000000000BEBEBEBEBE00BE00BEBEBE0000BEBEBEBEBEBE00BEBEBEBEBE00F500000000000000000000000000000000000000000000000000000000000000000000000000000000000000000000000000000000BEBE
310
BEBEBEBEBEBEBEBEBE0000000000000000000000000000000000000000000000000000000000000000000000000000000000000000000000000000000000000000000000000000000000000000000000000000F500000000002800DC0000000000000000000000000000000000000000000000000000000000000000000000
310
000000000000000000000000000000000000000000000000000000DC0000000000000000280000000000000000000000BEBEBEBEBEBEBEBEBEBEBEDCDCDCDCDCDCDCDCDCDCDCDCDCDC00F500000000000000000000000000000000000000000000000000000000000000000000000000000000000000000000000000000000
310
BEBEBEBEBEBEBEBEBEBEBE0000000000000000000000000000000000000000000000000000000000000000000000000000000000000000000000000000000000000000000000000000000000000000000000000000F500000000002800DC000000000000000000000000000000000000000000000000000000000000000000
310
0000000000000000000000000000000000000000000000000000000000DC0000000000000000280000000000000000000000BEBEBEBEBEBEBEBEBEBEBE000000000000000000000000000000F50000000000000000000000000000000000000000000000000000000000000000000000000000000000000000000000000000
310
0000BE000000BE00000000BE000000000000000000000000000000000000000000000000000000000000000000000000000000000000000000000000000000000000000000000000000000000000000000000000000000F500000000002800DC00000000000000000000000000000000000000000000000000000000000000
310
00000000000000000000000000000000000000000000000000000000000000DC0000000000000000280000000000000000000000BE000000BE00000000BE00000000000000000000000000000000F5000000000000000000000000000000000000000000000000000000000000000000000000000000000000000000000000
310
0000000000000000000000000000000000000000000000000000000000000000000000000000000000000000000000000000000000000000000000000000000000000000000000000000000000000000000000000000000000F500000000002800DC0000000000000000000000000000000000000000000000000000000000
310
000000000000000000000000000000000000000000000000000000000000000000DC00000000000000002800000000000000000000000000000000000000000000000000000000000000000000000000F500000000000000000000000000000000000000000000000000000000000000000000000000000000000000000000
310
00000000000000000000000000000000000000000000000000000000000000000000000000000000000000000000000000000000000000000000000000000000000000000000000000000000000000000000000000000000000000F500000000002800DC000000000000000000000000000000000000000000000000000000
310
0000000000000000000000000000000000000000000000000000000000000000000000DC00000000000000002800000000000000000000000000000000000000000000000000000000000000000000000000F500F5000000000000000000000000000000000000000000000000000000000000000000000000000000000000
310
00000000000000000000000000000000000000000000000000000000000000000000000000000000000000000000000000000000000000000000000000000000000000000000000000000000000000000000000000000000000000F500F500000000002800DC00000000000000000000000000000000000000000000000000
310
00000000000000000000000000000000000000000000000000000000000000000000000000DC00000000000000002800000000000000000000000000000000000000000000000000000000000000000000000000F5F5F5F5F5F5F5F5F5F5F5F5F5F5F5F5F5F5F5F5F5F5F5F5F5F5F5F5F5F5F5F5F5F5F5F5F5F5F5F5F5F5F5
310
F5F5F5F5F5F5F5F5F5F5F5F5F5F5F5F5F5F5F5F5F5F5F5F5BEBEBEBEBEF5F5F5F5F5F5F5F5F5F5F5F5F5F5F5F5F5F5F5F5F5F5F5F5F5F5F5F5F5F5F5F5F5F5F5F5F5F5F5F5F5F5F5F5F5F5F5F5F5F5F5F5F5F5F5F5F5F5F5F5F5F5F5F5F5F5F500000000002800DC0000000000000000000000000000000000000000000000
310
000000000000000000000000000000000000000000000000000000000000000000000000000000DC000000000000000028000000000000000000000000000000000000000000000000000000000000000000000000000000000000000000000000000000000000000000000000000000000000000000000000000000000000
310
0000000000000000000000000000000000000000000000000000BEBEBEBEBE0000000000000000000000000000000000000000000000000000000000000000000000000000000000000000000000000000000000000000000000000000000000000000000000002800DC000000000000000000000000000000000000000000
310
0000000000000000000000000000000000000000000000000000000000000000000000000000000000DC00000000000000002800000000000000000000000000000000000000000000000000000000000000000000000000000000000000000000000000000000000000000000000000000000000000000000000000000000
310
0000000000000000000000000000000000000000000000000000000000BEBEBE000000000000000000000000000000000000000000000000000000000000000000000000000000000000000000000000000000000000000000000000000000000000000000000000002800DC00000000000000000000000000000000000000
310
00000000000000000000000000000000000000000000000000000000000000000000000000000000000000DC0000000000000000280000000000000000000000000000000000000000000000000000000000000000000000000000000000000000000000000000000000000000000000000000000000000000000000000000
310
00000000000000000000000000000000000000000000000000000000000000000000000000000000000000000000000000000000000000000000000000000000000000000000000000000000000000000000000000000000000000000000000000000000000000000000002800DC0000000000000000000000000000000000
310
000000000000000000000000000000000000000000000000000000000000000000000000000000000000000000DC000000000000000028000000000000000000000000000000000000000000000000000000000000000000000000000000000000000000000000000000000000000000000000000000000000000000000000
310
000000000000000000000000000000000000000000000000000000000000000000000000000000000000000000000000000000000000000000000000000000000000000000000000000000000000000000000000000000000000000000000000000000000000000000000000002800DC000000000000000000000000000000
310
0000000000000000000000000000000000000000000000000000000000000000000000000000000000000000000000DC00000000000000002800000000000000000000000000000000000000000000000000000000000000000000000000000000000000000000000000000000000000000000000000000000000000000000
310
0000000000000000000000000000000000000000000000000000000000000000000000000000000000000000000000000000000000000000000000000000000000000000000000000000000000000000000000000000000000000000000000000000000000000000000000000000002800DC00000000000000000000000000
310
00000000000000000000000000000000000000000000000000000000000000000000000000000000000000000000000000DC0000000000000000280000000000000000000000000000000000000000000000000000000000000000000000000000000000000000000000000000000000000000000000000000000000000000
310
00000000000000000000000000000000000000000000000000000000000000000000000000000000000000000000000000000000000000000000000000000000000000000000000000000000000000000000000000000000000000000000000000000000000000000000000000000000002800DC0000000000000000000000
310
000000000000000000000000000000000000000000000000000000000000000000000000000000000000000000000000000000DC000000000000000028000000000000000000000000000000000000000000000000000000000000000000000000000000000000000000000000000000000000000000000000000000000000
310
000000000000000000000000000000000000000000000000000000000000000000000000000000000000000000000000000000000000000000000000000000000000000000000000000000000000000000000000000000000000000000000000000000000000000000000000000000000000002800DC000000000000000000
310
0000000000000000000000000000000000000000000000000000000000000000000000000000000000000000000000000000000000DC00000000000000002800000000000000000000000000000000000000000000000000000000000000000000000000000000000000000000000000000000000000000000000000000000
310
0000000000000000000000000000000000000000000000000000000000000000000000000000000000000000000000000000000000000000000000000000000000000000000000000000000000000000000000000000000000000000000000000000000000000000000000000000000000000000002800DC00000000000000
310
00000000000000000000000000000000000000000000000000000000000000000000000000000000000000000000000000000000000000DC0000000000000000280000000000000000000000000000000000000000000000000000000000000000000000000000000000000000000000000000000000000000000000000000
310
00000000000000000000000000000000000000000000000000000000000000000000000000000000000000000000000000000000000000000000000000000000000000000000000000000000000000000000000000000000000000000000000000000000000000000000000000000000000000000000002800DC0000000000
310
000000000000000000000000000000000000000000000000000000000000000000000000000000000000000000000000000000000000000000DC000000000000000028000000000000000000000000000000000000000000000000000000000000000000000000000000000000000000000000000000000000000000000000
310
000000000000000000000000000000000000000000000000000000000000000000000000000000000000000000000000000000000000000000000000000000000000000000000000000000000000000000000000000000000000000000000000000000000000000000000000000000000000000000000000002800DC000000
310
0000000000000000000000000000000000000000000000000000000000000000000000000000000000000000000000000000000000000000000000DC00000000000000002800000000000000000000000000000000000000000000000000000000000000000000000000000000000000000000000000000000000000000000
310
0000000000000000000000000000000000000000000000000000000000000000000000000000000000000000000000000000000000000000000000000000000000000000000000000000000000000000000000000000000000000000000000000000000000000000000000000000000000000000000000000000002800DC00
310
00000000000000000000000000000000000000000000000000000000000000000000000000000000000000000000000000000000000000000000000000DC0000000000000000280000000000000000000000000000000000000000000000000000000000000000000000000000000000000000000000000000000000000000
310
00000000000000000000000000000000000000000000000000000000000000000000000000000000000000000000000000000000000000000000000000000000000000000000000000000000000000000000000000000000000000000000000000000000000000000000000000000000000000000000000000000000002800
310
DC0000000000000000000000000000000000000000000000000000000000000000000000000000000000000000000000000000000000000000000000000000DC000000000000000028000000000000000000000000000000000000000000000000000000000000000000000000000000000000000000000000000000000000
310
00000000000000000000000000000000000000000000000000000000000000000000000000000000000000000000000000000000000000000000000000000000000000000000000000000000000000000000000000000000000000000000000000000000000000000000000000000000000000000000000000000000000000
310
2800DC0000000000000000000000000000000000000000000000000000000000000000000000000000000000000000000000000000000000000000000000000000DC00000000000000002800000000000000000000000000000000000000000000000000000000000000000000000000000000000000000000000000000000
310
00000000000000000000000000000000000000000000000000000000000000000000000000000000000000000000000000000000000000000000000000000000000000000000000000000000000000000000000000000000000000000000000000000000000000000000000000000000000000000000000000000000000000
310
00002800DC0000000000000000000000000000000000000000000000000000000000000000000000000000000000000000000000000000000000000000000000000000DC0000000000000000280000000000000000000000000000000000000000000000000000000000000000000000000000000000000000000000000000
310
00000000000000000000000000000000000000000000000000000000000000000000000000000000000000000000000000000000000000000000000000000000000000000000000000000000000000000000000000000000000000000000000000000000000000000000000000000000000000000000000000000000000000
310
000000002800DC0000000000000000000000000000000000000000000000000000000000000000000000000000000000000000000000000000000000000000000000000000DC000000000000000028000000000000000000000000000000000000000000000000000000000000000000000000000000000000000000000000
310
00000000000000000000000000000000000000000000000000000000000000000000000000000000000000000000000000000000000000000000000000000000000000000000000000000000000000000000000000000000000000000000000000000000000000000000000000000000000000000000000000000000000000
310
0000000000002800DC0000000000000000000000000000000000000000000000000000000000000000000000000000000000000000000000000000000000000000000000000000DC00000000000000002800000000000000000000000000000000000000000000000000000000000000000000000000000000000000000000
310
00000000000000000000000000000000000000000000000000000000000000000000000000000000000000000000000000000000000000000000000000000000000000000000000000000000000000000000000000000000000000000000000000000000000000000000000000000000000000000000000000000000000000
310
00000000000000002800DC0000000000000000000000000000000000000000000000000000000000000000000000000000000000000000000000000000000000000000000000000000DC0000000000000000280000000000000000000000000000000000000000000000000000000000000000000000000000000000000000
310
00000000000000000000000000000000000000000000000000000000000000000000000000000000000000000000000000000000000000000000000000000000000000000000000000000000000000000000000000000000000000000000000000000000000000000000000000000000000000000000000000000000000000
310
000000000000000000002800DC0000000000000000000000000000000000000000000000000000000000000000000000000000000000000000000000000000000000000000000000000000DC000000000000000028000000000000000000000000000000000000000000000000000000000000000000000000000000000000
310
00000000000000000000000000000000000000000000000000000000000000000000000000000000000000000000000000000000000000000000000000000000000000000000000000000000000000000000000000000000000000000000000000000000000000000000000000000000000000000000000000000000000000
310
0000000000000000000000002800DC0000000000000000000000000000000000000000000000000000000000000000000000000000000000000000000000000000000000000000000000000000DC00000000000000002800000000000000000000000000000000000000000000000000000000000000000000000000000000
310
00000000000000000000000000000000000000000000000000000000000000000000000000000000000000000000000000000000000000000000000000000000000000000000000000000000000000000000000000000000000000000000000000000000000000000000000000000000000000000000000000000000000000
310
00000000000000000000000000002800DC0000000000000000000000000000000000000000000000000000000000000000000000000000000000000000000000000000000000000000000000000000DC0000000000000000280000000000000000000000000000000000000000000000000000000000000000000000000000
310
00000000000000000000000000000000000000000000000000000000000000000000000000000000000000000000000000000000000000000000000000000000000000000000000000000000000000000000000000000000000000000000000000000000000000000000000000000000000000000000000000000000000000
310
000000000000000000000000000000002800DC0000000000000000000000000000000000000000000000000000000000000000000000000000000000000000000000000000000000000000000000000000DC000000000000000028000000000000000000000000000000000000000000000000000000000000000000000000
310
00000000000000000000000000000000000000000000000000000000000000000000000000000000000000000000000000000000000000000000000000000000000000000000000000000000000000000000000000000000000000000000000000000000000000000000000000000000000000000000000000000000000000
310
0000000000000000000000000000000000002800DC0000000000000000000000000000000000000000000000000000000000000000000000000000000000000000000000000000000000000000000000000000DC00000000000000002800000000000000000000000000000000000000000000000000000000000000000000
310
00000000000000000000000000000000000000000000000000000000000000000000000000000000000000000000000000000000000000000000000000000000000000000000000000000000000000000000000000000000000000000000000000000000000000000000000000000000000000000000000000000000000000
310
00000000000000000000000000000000000000002800DC0000000000000000000000000000000000000000000000000000000000000000000000000000000000000000000000000000000000000000000000000000DC0000000000000000280000000000000000000000000000000000000000000000000000000000000000
310
00000000000000000000000000000000000000000000000000000000000000000000000000000000000000000000000000000000000000000000000000000000000000000000000000000000000000000000000000000000000000000000000000000000000000000000000000000000000000000000000000000000000000
310
000000000000000000000000000000000000000000002800DC0000000000000000000000000000000000000000000000000000000000000000000000000000000000000000000000000000000000000000000000000000DC000000000000000028000000000000000000000000000000000000000000000000000000000000
310
00000000000000000000000000000000000000000000000000000000000000000000000000000000000000000000000000000000000000000000000000000000000000000000000000000000000000000000000000000000000000000000000000000000000000000000000000000000000000000000000000000000000000
310
0000000000000000000000000000000000000000000000002800DC0000000000000000000000000000000000000000000000000000000000000000000000000000000000000000000000000000000000000000000000000000DC00000000000000002800000000000000000000000000000000000000000000000000000000
310
00000000000000000000000000000000000000000000000000000000000000000000000000000000000000000000000000000000000000000000000000000000000000000000000000000000000000000000000000000000000000000000000000000000000000000000000000000000000000000000000000000000000000
310
00000000000000000000000000000000000000000000000000002800DC0000000000000000000000000000000000000000000000000000000000000000000000000000000000000000000000000000000000000000000000000000DC0000000000000000280000000000000000000000000000000000000000000000000000
310
00000000000000000000000000000000000000000000000000000000000000000000000000000000000000000000000000000000000000000000000000000000000000000000000000000000000000000000000000000000000000000000000000000000000000000000000000000000000000000000000000000000000000
310
000000000000000000000000000000000000000000000000000000002800DC0000000000000000000000000000000000000000000000000000000000000000000000000000000000000000000000000000000000000000000000000000DC000000000000000028282828282828282828282828282828282828282828282828
310
282828282828282828282828282828282828282828282828282828282828282828282828282828282828282828282828282828282828282828282828282828282828282828282828F5282828282828282828282828282828282828282828282828282828282828282828282828282828282828282828282828282828282828
310
2828282828282828282828282828282828282828282828282828282828282800DC0000000000000000000000000000000000000000000000000000000000000000000000000000000000000000000000000000000000000000000000000000DC00000000000000000000000000000000000000000000000000000000000000
310
0000000000000000000000000000000000000000000000000000000000000000000000000000000000000000000000000000000000000000000000000000000000000000000000000000F500000000000000000000000000000000000000000000000000000000000000000000000000000000000000000000000000000000
310
00000000000000000000000000000000000000000000000000000000000000000000DC0000000000000000000000000000000000000000000000000000000000000000000000000000000000000000000000000000000000000000000000000000DC0000000000000000000000000000000000000000000000000000000000
310
00000000000000000000000000000000000000000000000000000000000000000000000000000000000000000000000000000000000000000000000000000000000000000000000000000000F50000000000000000000000000000000000000000000000000000000000000000000000000000000000000000000000000000
310
000000000000000000000000000000000000000000000000000000000000000000000000DC0000000000000000000000000000000000000000000000000000000000000000000000000000000000000000000000000000000000000000000000000000DCDCDCDCDCDCDCDCDCDCDCDCDCDCDCDCDCDCDCDCDCDCDCDCDCDCDCDC
310
DCDCDCDCDCDCDCDCDCDCDCDCDCDCDCDCDCDCDCDCDCDCDCDCDCDCDCDCDCDCDCDCDCDCDCDCDCDCDCDCDCDCDCDCDCDCDCDCDCDCDCDCDCDCDCDCDCDCDCDCDCDCDCDCDCDCDCDCDCDCDCDCDCDCDCDCDCDCF5DCDCDCDCDCDCDCDCDCDCDCDCDCDCDCDCDCDCDCDCDCDCDCDCDCDCDCDCDCDCDCDCDCDCDCDCDCDCDCDCDCDCDCDCDCDCDCDC
310
DCDCDCDCDCDCDCDCDCDCDCDCDCDCDCDCDCDCDCDCDCDCDCDCDCDCDCDCDCDCDCDCDCDCDCDCDCDCDC00000000000000000000000000000000000000000000000000000000000000
  0
XRECORD
  5
35CA
102
{ACAD_REACTORS
330
3333
102
}
330
3333
100
AcDbXrecord
280
     1
102
MATERIAL
148
0.0
149
0.0
149
0.0
 93
        0
 94
      127
282
     0
 72
     0
 77
     0
171
     0
175
     0
179
     0
273
     0
  0
XRECORD
  5
3335
102
{ACAD_REACTORS
330
3333
102
}
330
3333
100
AcDbXrecord
280
     1
270
     1
271
     1
  0
XRECORD
  5
3334
102
{ACAD_REACTORS
330
3333
102
}
330
3333
100
AcDbXrecord
280
     1
270
     1
271
     1
  0
XRECORD
  5
3338
102
{ACAD_REACTORS
330
3333
102
}
330
3333
100
AcDbXrecord
280
     1
270
     1
271
     1
  0
XRECORD
  5
3337
102
{ACAD_REACTORS
330
3333
102
}
330
3333
100
AcDbXrecord
280
     1
270
     1
271
     1
  0
XRECORD
  5
3339
102
{ACAD_REACTORS
330
3333
102
}
330
3333
100
AcDbXrecord
280
     1
270
     1
271
     1
  0
XRECORD
  5
3336
102
{ACAD_REACTORS
330
3333
102
}
330
3333
100
AcDbXrecord
280
     1
270
     1
271
     1
  0
XRECORD
  5
35C9
102
{ACAD_REACTORS
330
332B
102
}
330
332B
100
AcDbXrecord
280
     1
102
MATERIAL
148
0.0
149
0.0
149
0.0
 93
        0
 94
      127
282
     0
 72
     0
 77
     0
171
     0
175
     0
179
     0
273
     0
  0
XRECORD
  5
332D
102
{ACAD_REACTORS
330
332B
102
}
330
332B
100
AcDbXrecord
280
     1
270
     1
271
     1
  0
XRECORD
  5
332C
102
{ACAD_REACTORS
330
332B
102
}
330
332B
100
AcDbXrecord
280
     1
270
     1
271
     1
  0
XRECORD
  5
3330
102
{ACAD_REACTORS
330
332B
102
}
330
332B
100
AcDbXrecord
280
     1
270
     1
271
     1
  0
XRECORD
  5
332F
102
{ACAD_REACTORS
330
332B
102
}
330
332B
100
AcDbXrecord
280
     1
270
     1
271
     1
  0
XRECORD
  5
3331
102
{ACAD_REACTORS
330
332B
102
}
330
332B
100
AcDbXrecord
280
     1
270
     1
271
     1
  0
XRECORD
  5
332E
102
{ACAD_REACTORS
330
332B
102
}
330
332B
100
AcDbXrecord
280
     1
270
     1
271
     1
  0
XRECORD
  5
35CB
102
{ACAD_REACTORS
330
333B
102
}
330
333B
100
AcDbXrecord
280
     1
102
MATERIAL
148
0.0
149
0.0
149
0.0
 93
        0
 94
      127
282
     0
 72
     0
 77
     0
171
     0
175
     0
179
     0
273
     0
  0
XRECORD
  5
333D
102
{ACAD_REACTORS
330
333B
102
}
330
333B
100
AcDbXrecord
280
     1
270
     1
271
     1
  0
XRECORD
  5
333C
102
{ACAD_REACTORS
330
333B
102
}
330
333B
100
AcDbXrecord
280
     1
270
     1
271
     1
  0
XRECORD
  5
3340
102
{ACAD_REACTORS
330
333B
102
}
330
333B
100
AcDbXrecord
280
     1
270
     1
271
     1
  0
XRECORD
  5
333F
102
{ACAD_REACTORS
330
333B
102
}
330
333B
100
AcDbXrecord
280
     1
270
     1
271
     1
  0
XRECORD
  5
3341
102
{ACAD_REACTORS
330
333B
102
}
330
333B
100
AcDbXrecord
280
     1
270
     1
271
     1
  0
XRECORD
  5
333E
102
{ACAD_REACTORS
330
333B
102
}
330
333B
100
AcDbXrecord
280
     1
270
     1
271
     1
  0
XRECORD
  5
35FE
102
{ACAD_REACTORS
330
35FD
102
}
330
35FD
100
AcDbXrecord
280
     1
102
ACAD_ROUNDTRIP_2012_MLEADER_STYLE
298
     1
  0
CELLSTYLEMAP
  5
35C7
102
{ACAD_REACTORS
330
33F0
102
}
330
33F0
100
AcDbCellStyleMap
 90
        3
300
CELLSTYLE
  1
TABLEFORMAT_BEGIN
 90
        5
170
     1
 91
        0
 92
    32768
 62
   257
 93
        1
300
CONTENTFORMAT
  1
CONTENTFORMAT_BEGIN
 90
        0
 91
        0
 92
      512
 93
        0
300

 40
0.0
140
1.0
 94
        5
 62
     0
340
1061
144
0.25
309
CONTENTFORMAT_END
171
     0
 94
        0
309
TABLEFORMAT_END
  1
CELLSTYLE_BEGIN
 90
        1
 91
        1
300
_TITLE
309
CELLSTYLE_END
300
CELLSTYLE
  1
TABLEFORMAT_BEGIN
 90
        5
170
     1
 91
        0
 92
        0
 62
   257
 93
        1
300
CONTENTFORMAT
  1
CONTENTFORMAT_BEGIN
 90
        0
 91
        0
 92
      512
 93
        0
300

 40
0.0
140
1.0
 94
        5
 62
     0
340
1061
144
0.18
309
CONTENTFORMAT_END
171
     0
 94
        0
309
TABLEFORMAT_END
  1
CELLSTYLE_BEGIN
 90
        2
 91
        1
300
_HEADER
309
CELLSTYLE_END
300
CELLSTYLE
  1
TABLEFORMAT_BEGIN
 90
        5
170
     1
 91
        0
 92
        0
 62
   257
 93
        1
300
CONTENTFORMAT
  1
CONTENTFORMAT_BEGIN
 90
        0
 91
        0
 92
      512
 93
        0
300

 40
0.0
140
1.0
 94
        2
 62
     0
340
1061
144
0.18
309
CONTENTFORMAT_END
171
     0
 94
        0
309
TABLEFORMAT_END
  1
CELLSTYLE_BEGIN
 90
        3
 91
        2
300
_DATA
309
CELLSTYLE_END
  0
XRECORD
  5
35FC
102
{ACAD_REACTORS
330
33F0
102
}
330
33F0
100
AcDbXrecord
280
     1
102
ACAD_ROUNDTRIP_PRE2007_TABLESTYLE
 90
      512
 91
        0
  1

 92
      512
 93
        0
  2

 94
      512
 95
        0
  3

  0
XRECORD
  5
35D7
102
{ACAD_REACTORS
330
35D6
102
}
330
35D6
100
AcDbXrecord
280
     1
102
RTVSPost2010Prop28
280
     1
102
RTVSPost2010PropOp28
 70
     1
102
RTVSPost2010Prop29
280
     1
102
RTVSPost2010PropOp29
 70
     1
102
RTVSPost2010Prop30
280
     0
102
RTVSPost2010PropOp30
 70
     1
102
RTVSPost2010Prop31
280
     0
102
RTVSPost2010PropOp31
 70
     1
102
RTVSPost2010Prop32
280
     0
102
RTVSPost2010PropOp32
 70
     1
102
RTVSPost2010Prop33
280
     0
102
RTVSPost2010PropOp33
 70
     1
102
RTVSPost2010Prop34
280
     0
102
RTVSPost2010PropOp34
 70
     1
102
RTVSPost2010Prop35
280
     0
102
RTVSPost2010PropOp35
 70
     1
102
RTVSPost2010Prop36
280
     0
102
RTVSPost2010PropOp36
 70
     1
102
RTVSPost2010Prop37
 90
       50
102
RTVSPost2010PropOp37
 70
     1
102
RTVSPost2010Prop38
140
0.0
102
RTVSPost2010PropOp38
 70
     1
102
RTVSPost2010Prop39
140
1.0
102
RTVSPost2010PropOp39
 70
     1
102
RTVSPost2010Prop40
 90
        0
102
RTVSPost2010PropOp40
 70
     1
102
RTVSPost2010Prop41ColorIndex
 90
       18
102
RTVSPost2010Prop41ColorRGB
 90
        0
102
RTVSPost2010PropOp41
 70
     1
102
RTVSPost2010Prop42
 90
       50
102
RTVSPost2010PropOp42
 70
     1
102
RTVSPost2010Prop43
 90
        3
102
RTVSPost2010PropOp43
 70
     1
102
RTVSPost2010Prop44ColorIndex
 90
        5
102
RTVSPost2010Prop44ColorRGB
 90
      255
102
RTVSPost2010PropOp44
 70
     1
102
RTVSPost2010Prop45
280
     0
102
RTVSPost2010PropOp45
 70
     1
102
RTVSPost2010Prop46
 90
       50
102
RTVSPost2010PropOp46
 70
     1
102
RTVSPost2010Prop47
 90
       50
102
RTVSPost2010PropOp47
 70
     1
102
RTVSPost2010Prop48
 90
       50
102
RTVSPost2010PropOp48
 70
     1
102
RTVSPost2010Prop49
280
     0
102
RTVSPost2010PropOp49
 70
     1
102
RTVSPost2010Prop50
 90
       50
102
RTVSPost2010PropOp50
 70
     1
102
RTVSPost2010Prop51ColorIndex
 90
      256
102
RTVSPost2010Prop51ColorRGB
 90
-16777216
102
RTVSPost2010PropOp51
 70
     0
102
RTVSPost2010Prop52
140
1.0
102
RTVSPost2010PropOp52
 70
     0
102
RTVSPost2010Prop53
 90
        2
102
RTVSPost2010PropOp53
 70
     1
102
RTVSPost2010Prop54
  1
strokes_ogs.tif
102
RTVSPost2010PropOp54
 70
     1
102
RTVSPost2010Prop55
280
     0
102
RTVSPost2010PropOp55
 70
     1
102
RTVSPost2010Prop56
140
1.0
102
RTVSPost2010PropOp56
 70
     1
102
RTVSPost2010Prop57
140
1.0
102
RTVSPost2010PropOp57
 70
     1
102
RTVSPropertyOp0
 70
     1
102
RTVSPropertyOp1
 70
     1
102
RTVSPropertyOp2
 70
     1
102
RTVSPropertyOp3
 70
     1
102
RTVSPropertyOp4
 70
     1
102
RTVSPropertyOp5
 70
     1
102
RTVSPropertyOp6
 70
     1
102
RTVSPropertyOp7
 70
     1
102
RTVSPropertyOp8
 70
     1
102
RTVSPropertyOp9
 70
     1
102
RTVSPropertyOp10
 70
     1
102
RTVSPropertyOp11
 70
     1
102
RTVSPropertyOp12
 70
     1
102
RTVSPropertyOp13
 70
     1
102
RTVSPropertyOp14
 70
     1
102
RTVSPropertyOp15
 70
     1
102
RTVSPropertyOp16
 70
     1
102
RTVSPropertyOp17
 70
     1
102
RTVSPropertyOp18
 70
     1
102
RTVSPropertyOp19
 70
     1
102
RTVSPropertyOp20
 70
     1
102
RTVSPropertyOp21
 70
     1
102
RTVSPropertyOp22
 70
     1
102
RTVSPropertyOp23
 70
     1
102
RTVSPropertyOp24
 70
     1
102
RTVSPropertyOp25
 70
     1
102
RTVSPropertyOp26
 70
     1
102
RTVSPropertyOp27
 70
     1
102
RTVSPropertyOp28
 70
     1
102
RTVSPropertyOp29
 70
     1
102
RTVSPropertyOp30
 70
     1
102
RTVSPropertyOp31
 70
     1
102
RTVSPropertyOp32
 70
     1
102
RTVSPropertyOp33
 70
     1
102
RTVSPropertyOp34
 70
     1
102
RTVSPropertyOp35
 70
     1
102
RTVSPropertyOp36
 70
     1
102
RTVSPropertyOp37
 70
     1
102
RTVSPropertyOp38
 70
     1
102
RTVSPropertyOp39
 70
     1
102
RTVSPropertyOp40
 70
     1
102
RTVSPropertyOp41
 70
     1
102
RTVSPropertyOp42
 70
     1
102
RTVSPropertyOp43
 70
     1
102
RTVSPropertyOp44
 70
     1
102
RTVSPropertyOp45
 70
     1
102
RTVSPropertyOp46
 70
     1
102
RTVSPropertyOp47
 70
     1
102
RTVSPropertyOp48
 70
     1
102
RTVSPropertyOp49
 70
     1
102
RTVSPropertyOp50
 70
     1
102
RTVSPropertyOp51
 70
     0
102
RTVSPropertyOp52
 70
     0
102
RTVSPropertyOp53
 70
     1
102
RTVSPropertyOp54
 70
     1
102
RTVSPropertyOp55
 70
     1
102
RTVSPropertyOp56
 70
     1
102
RTVSPropertyOp57
 70
     1
102
RTVSPropertyOp58
 70
     1
102
RTVSPropertyOp59
 70
     1
102
RTVSPropertyOp60
 70
     1
102
RTVSPropertyOp61
 70
     1
102
RTVSPropertyOp62
 70
     1
  0
XRECORD
  5
35D5
102
{ACAD_REACTORS
330
35D4
102
}
330
35D4
100
AcDbXrecord
280
     1
102
RTVSPost2010Prop28
280
     0
102
RTVSPost2010PropOp28
 70
     1
102
RTVSPost2010Prop29
280
     1
102
RTVSPost2010PropOp29
 70
     1
102
RTVSPost2010Prop30
280
     1
102
RTVSPost2010PropOp30
 70
     1
102
RTVSPost2010Prop31
280
     0
102
RTVSPost2010PropOp31
 70
     1
102
RTVSPost2010Prop32
280
     0
102
RTVSPost2010PropOp32
 70
     1
102
RTVSPost2010Prop33
280
     0
102
RTVSPost2010PropOp33
 70
     1
102
RTVSPost2010Prop34
280
     0
102
RTVSPost2010PropOp34
 70
     1
102
RTVSPost2010Prop35
280
     0
102
RTVSPost2010PropOp35
 70
     1
102
RTVSPost2010Prop36
280
     0
102
RTVSPost2010PropOp36
 70
     1
102
RTVSPost2010Prop37
 90
       50
102
RTVSPost2010PropOp37
 70
     1
102
RTVSPost2010Prop38
140
0.0
102
RTVSPost2010PropOp38
 70
     1
102
RTVSPost2010Prop39
140
1.0
102
RTVSPost2010PropOp39
 70
     1
102
RTVSPost2010Prop40
 90
        0
102
RTVSPost2010PropOp40
 70
     1
102
RTVSPost2010Prop41ColorIndex
 90
       18
102
RTVSPost2010Prop41ColorRGB
 90
        0
102
RTVSPost2010PropOp41
 70
     1
102
RTVSPost2010Prop42
 90
       50
102
RTVSPost2010PropOp42
 70
     1
102
RTVSPost2010Prop43
 90
        3
102
RTVSPost2010PropOp43
 70
     1
102
RTVSPost2010Prop44ColorIndex
 90
        5
102
RTVSPost2010Prop44ColorRGB
 90
      255
102
RTVSPost2010PropOp44
 70
     1
102
RTVSPost2010Prop45
280
     0
102
RTVSPost2010PropOp45
 70
     1
102
RTVSPost2010Prop46
 90
       50
102
RTVSPost2010PropOp46
 70
     1
102
RTVSPost2010Prop47
 90
       50
102
RTVSPost2010PropOp47
 70
     1
102
RTVSPost2010Prop48
 90
       50
102
RTVSPost2010PropOp48
 70
     1
102
RTVSPost2010Prop49
280
     0
102
RTVSPost2010PropOp49
 70
     1
102
RTVSPost2010Prop50
 90
       50
102
RTVSPost2010PropOp50
 70
     1
102
RTVSPost2010Prop51ColorIndex
 90
      256
102
RTVSPost2010Prop51ColorRGB
 90
-16777216
102
RTVSPost2010PropOp51
 70
     0
102
RTVSPost2010Prop52
140
1.0
102
RTVSPost2010PropOp52
 70
     0
102
RTVSPost2010Prop53
 90
        2
102
RTVSPost2010PropOp53
 70
     1
102
RTVSPost2010Prop54
  1
strokes_ogs.tif
102
RTVSPost2010PropOp54
 70
     1
102
RTVSPost2010Prop55
280
     0
102
RTVSPost2010PropOp55
 70
     1
102
RTVSPost2010Prop56
140
1.0
102
RTVSPost2010PropOp56
 70
     1
102
RTVSPost2010Prop57
140
1.0
102
RTVSPost2010PropOp57
 70
     1
102
RTVSPropertyOp0
 70
     1
102
RTVSPropertyOp1
 70
     1
102
RTVSPropertyOp2
 70
     1
102
RTVSPropertyOp3
 70
     1
102
RTVSPropertyOp4
 70
     1
102
RTVSPropertyOp5
 70
     1
102
RTVSPropertyOp6
 70
     1
102
RTVSPropertyOp7
 70
     1
102
RTVSPropertyOp8
 70
     1
102
RTVSPropertyOp9
 70
     1
102
RTVSPropertyOp10
 70
     1
102
RTVSPropertyOp11
 70
     1
102
RTVSPropertyOp12
 70
     1
102
RTVSPropertyOp13
 70
     1
102
RTVSPropertyOp14
 70
     1
102
RTVSPropertyOp15
 70
     1
102
RTVSPropertyOp16
 70
     1
102
RTVSPropertyOp17
 70
     1
102
RTVSPropertyOp18
 70
     1
102
RTVSPropertyOp19
 70
     1
102
RTVSPropertyOp20
 70
     1
102
RTVSPropertyOp21
 70
     1
102
RTVSPropertyOp22
 70
     1
102
RTVSPropertyOp23
 70
     1
102
RTVSPropertyOp24
 70
     1
102
RTVSPropertyOp25
 70
     1
102
RTVSPropertyOp26
 70
     1
102
RTVSPropertyOp27
 70
     1
102
RTVSPropertyOp28
 70
     1
102
RTVSPropertyOp29
 70
     1
102
RTVSPropertyOp30
 70
     1
102
RTVSPropertyOp31
 70
     1
102
RTVSPropertyOp32
 70
     1
102
RTVSPropertyOp33
 70
     1
102
RTVSPropertyOp34
 70
     1
102
RTVSPropertyOp35
 70
     1
102
RTVSPropertyOp36
 70
     1
102
RTVSPropertyOp37
 70
     1
102
RTVSPropertyOp38
 70
     1
102
RTVSPropertyOp39
 70
     1
102
RTVSPropertyOp40
 70
     1
102
RTVSPropertyOp41
 70
     1
102
RTVSPropertyOp42
 70
     1
102
RTVSPropertyOp43
 70
     1
102
RTVSPropertyOp44
 70
     1
102
RTVSPropertyOp45
 70
     1
102
RTVSPropertyOp46
 70
     1
102
RTVSPropertyOp47
 70
     1
102
RTVSPropertyOp48
 70
     1
102
RTVSPropertyOp49
 70
     1
102
RTVSPropertyOp50
 70
     1
102
RTVSPropertyOp51
 70
     0
102
RTVSPropertyOp52
 70
     0
102
RTVSPropertyOp53
 70
     1
102
RTVSPropertyOp54
 70
     1
102
RTVSPropertyOp55
 70
     1
102
RTVSPropertyOp56
 70
     1
102
RTVSPropertyOp57
 70
     1
102
RTVSPropertyOp58
 70
     1
102
RTVSPropertyOp59
 70
     1
102
RTVSPropertyOp60
 70
     1
102
RTVSPropertyOp61
 70
     1
102
RTVSPropertyOp62
 70
     1
  0
XRECORD
  5
35E3
102
{ACAD_REACTORS
330
35E2
102
}
330
35E2
100
AcDbXrecord
280
     1
102
RTVSPost2010Prop28
280
     0
102
RTVSPost2010PropOp28
 70
     1
102
RTVSPost2010Prop29
280
     1
102
RTVSPost2010PropOp29
 70
     1
102
RTVSPost2010Prop30
280
     1
102
RTVSPost2010PropOp30
 70
     1
102
RTVSPost2010Prop31
280
     0
102
RTVSPost2010PropOp31
 70
     1
102
RTVSPost2010Prop32
280
     0
102
RTVSPost2010PropOp32
 70
     1
102
RTVSPost2010Prop33
280
     0
102
RTVSPost2010PropOp33
 70
     1
102
RTVSPost2010Prop34
280
     0
102
RTVSPost2010PropOp34
 70
     1
102
RTVSPost2010Prop35
280
     0
102
RTVSPost2010PropOp35
 70
     1
102
RTVSPost2010Prop36
280
     0
102
RTVSPost2010PropOp36
 70
     1
102
RTVSPost2010Prop37
 90
       50
102
RTVSPost2010PropOp37
 70
     1
102
RTVSPost2010Prop38
140
0.0
102
RTVSPost2010PropOp38
 70
     1
102
RTVSPost2010Prop39
140
1.0
102
RTVSPost2010PropOp39
 70
     1
102
RTVSPost2010Prop40
 90
        0
102
RTVSPost2010PropOp40
 70
     1
102
RTVSPost2010Prop41ColorIndex
 90
       18
102
RTVSPost2010Prop41ColorRGB
 90
        0
102
RTVSPost2010PropOp41
 70
     1
102
RTVSPost2010Prop42
 90
       50
102
RTVSPost2010PropOp42
 70
     1
102
RTVSPost2010Prop43
 90
        3
102
RTVSPost2010PropOp43
 70
     1
102
RTVSPost2010Prop44ColorIndex
 90
        5
102
RTVSPost2010Prop44ColorRGB
 90
      255
102
RTVSPost2010PropOp44
 70
     1
102
RTVSPost2010Prop45
280
     0
102
RTVSPost2010PropOp45
 70
     1
102
RTVSPost2010Prop46
 90
       50
102
RTVSPost2010PropOp46
 70
     1
102
RTVSPost2010Prop47
 90
       50
102
RTVSPost2010PropOp47
 70
     1
102
RTVSPost2010Prop48
 90
       50
102
RTVSPost2010PropOp48
 70
     1
102
RTVSPost2010Prop49
280
     0
102
RTVSPost2010PropOp49
 70
     1
102
RTVSPost2010Prop50
 90
       50
102
RTVSPost2010PropOp50
 70
     1
102
RTVSPost2010Prop51ColorIndex
 90
      256
102
RTVSPost2010Prop51ColorRGB
 90
-16777216
102
RTVSPost2010PropOp51
 70
     0
102
RTVSPost2010Prop52
140
1.0
102
RTVSPost2010PropOp52
 70
     0
102
RTVSPost2010Prop53
 90
        2
102
RTVSPost2010PropOp53
 70
     1
102
RTVSPost2010Prop54
  1
strokes_ogs.tif
102
RTVSPost2010PropOp54
 70
     1
102
RTVSPost2010Prop55
280
     0
102
RTVSPost2010PropOp55
 70
     1
102
RTVSPost2010Prop56
140
1.0
102
RTVSPost2010PropOp56
 70
     1
102
RTVSPost2010Prop57
140
1.0
102
RTVSPost2010PropOp57
 70
     1
102
RTVSPropertyOp0
 70
     1
102
RTVSPropertyOp1
 70
     1
102
RTVSPropertyOp2
 70
     1
102
RTVSPropertyOp3
 70
     1
102
RTVSPropertyOp4
 70
     1
102
RTVSPropertyOp5
 70
     1
102
RTVSPropertyOp6
 70
     1
102
RTVSPropertyOp7
 70
     1
102
RTVSPropertyOp8
 70
     1
102
RTVSPropertyOp9
 70
     1
102
RTVSPropertyOp10
 70
     1
102
RTVSPropertyOp11
 70
     1
102
RTVSPropertyOp12
 70
     1
102
RTVSPropertyOp13
 70
     1
102
RTVSPropertyOp14
 70
     1
102
RTVSPropertyOp15
 70
     1
102
RTVSPropertyOp16
 70
     1
102
RTVSPropertyOp17
 70
     1
102
RTVSPropertyOp18
 70
     1
102
RTVSPropertyOp19
 70
     1
102
RTVSPropertyOp20
 70
     1
102
RTVSPropertyOp21
 70
     1
102
RTVSPropertyOp22
 70
     1
102
RTVSPropertyOp23
 70
     1
102
RTVSPropertyOp24
 70
     1
102
RTVSPropertyOp25
 70
     1
102
RTVSPropertyOp26
 70
     1
102
RTVSPropertyOp27
 70
     1
102
RTVSPropertyOp28
 70
     1
102
RTVSPropertyOp29
 70
     1
102
RTVSPropertyOp30
 70
     1
102
RTVSPropertyOp31
 70
     1
102
RTVSPropertyOp32
 70
     1
102
RTVSPropertyOp33
 70
     1
102
RTVSPropertyOp34
 70
     1
102
RTVSPropertyOp35
 70
     1
102
RTVSPropertyOp36
 70
     1
102
RTVSPropertyOp37
 70
     1
102
RTVSPropertyOp38
 70
     1
102
RTVSPropertyOp39
 70
     1
102
RTVSPropertyOp40
 70
     1
102
RTVSPropertyOp41
 70
     1
102
RTVSPropertyOp42
 70
     1
102
RTVSPropertyOp43
 70
     1
102
RTVSPropertyOp44
 70
     1
102
RTVSPropertyOp45
 70
     1
102
RTVSPropertyOp46
 70
     1
102
RTVSPropertyOp47
 70
     1
102
RTVSPropertyOp48
 70
     1
102
RTVSPropertyOp49
 70
     1
102
RTVSPropertyOp50
 70
     1
102
RTVSPropertyOp51
 70
     0
102
RTVSPropertyOp52
 70
     0
102
RTVSPropertyOp53
 70
     1
102
RTVSPropertyOp54
 70
     1
102
RTVSPropertyOp55
 70
     1
102
RTVSPropertyOp56
 70
     1
102
RTVSPropertyOp57
 70
     1
102
RTVSPropertyOp58
 70
     1
102
RTVSPropertyOp59
 70
     1
102
RTVSPropertyOp60
 70
     1
102
RTVSPropertyOp61
 70
     1
102
RTVSPropertyOp62
 70
     1
  0
XRECORD
  5
35EB
102
{ACAD_REACTORS
330
35EA
102
}
330
35EA
100
AcDbXrecord
280
     1
102
RTVSPost2010Prop28
280
     0
102
RTVSPost2010PropOp28
 70
     1
102
RTVSPost2010Prop29
280
     1
102
RTVSPost2010PropOp29
 70
     1
102
RTVSPost2010Prop30
280
     1
102
RTVSPost2010PropOp30
 70
     1
102
RTVSPost2010Prop31
280
     0
102
RTVSPost2010PropOp31
 70
     1
102
RTVSPost2010Prop32
280
     0
102
RTVSPost2010PropOp32
 70
     1
102
RTVSPost2010Prop33
280
     0
102
RTVSPost2010PropOp33
 70
     1
102
RTVSPost2010Prop34
280
     0
102
RTVSPost2010PropOp34
 70
     1
102
RTVSPost2010Prop35
280
     0
102
RTVSPost2010PropOp35
 70
     1
102
RTVSPost2010Prop36
280
     0
102
RTVSPost2010PropOp36
 70
     1
102
RTVSPost2010Prop37
 90
       50
102
RTVSPost2010PropOp37
 70
     1
102
RTVSPost2010Prop38
140
0.0
102
RTVSPost2010PropOp38
 70
     1
102
RTVSPost2010Prop39
140
1.0
102
RTVSPost2010PropOp39
 70
     1
102
RTVSPost2010Prop40
 90
        0
102
RTVSPost2010PropOp40
 70
     1
102
RTVSPost2010Prop41ColorIndex
 90
       18
102
RTVSPost2010Prop41ColorRGB
 90
        0
102
RTVSPost2010PropOp41
 70
     1
102
RTVSPost2010Prop42
 90
       50
102
RTVSPost2010PropOp42
 70
     1
102
RTVSPost2010Prop43
 90
        3
102
RTVSPost2010PropOp43
 70
     1
102
RTVSPost2010Prop44ColorIndex
 90
        5
102
RTVSPost2010Prop44ColorRGB
 90
      255
102
RTVSPost2010PropOp44
 70
     1
102
RTVSPost2010Prop45
280
     0
102
RTVSPost2010PropOp45
 70
     1
102
RTVSPost2010Prop46
 90
       50
102
RTVSPost2010PropOp46
 70
     1
102
RTVSPost2010Prop47
 90
       50
102
RTVSPost2010PropOp47
 70
     1
102
RTVSPost2010Prop48
 90
       50
102
RTVSPost2010PropOp48
 70
     1
102
RTVSPost2010Prop49
280
     0
102
RTVSPost2010PropOp49
 70
     1
102
RTVSPost2010Prop50
 90
       50
102
RTVSPost2010PropOp50
 70
     1
102
RTVSPost2010Prop51ColorIndex
 90
      256
102
RTVSPost2010Prop51ColorRGB
 90
-16777216
102
RTVSPost2010PropOp51
 70
     0
102
RTVSPost2010Prop52
140
1.0
102
RTVSPost2010PropOp52
 70
     0
102
RTVSPost2010Prop53
 90
        2
102
RTVSPost2010PropOp53
 70
     1
102
RTVSPost2010Prop54
  1
strokes_ogs.tif
102
RTVSPost2010PropOp54
 70
     1
102
RTVSPost2010Prop55
280
     0
102
RTVSPost2010PropOp55
 70
     1
102
RTVSPost2010Prop56
140
1.0
102
RTVSPost2010PropOp56
 70
     1
102
RTVSPost2010Prop57
140
1.0
102
RTVSPost2010PropOp57
 70
     1
102
RTVSPropertyOp0
 70
     1
102
RTVSPropertyOp1
 70
     1
102
RTVSPropertyOp2
 70
     1
102
RTVSPropertyOp3
 70
     1
102
RTVSPropertyOp4
 70
     1
102
RTVSPropertyOp5
 70
     1
102
RTVSPropertyOp6
 70
     1
102
RTVSPropertyOp7
 70
     1
102
RTVSPropertyOp8
 70
     1
102
RTVSPropertyOp9
 70
     1
102
RTVSPropertyOp10
 70
     1
102
RTVSPropertyOp11
 70
     1
102
RTVSPropertyOp12
 70
     1
102
RTVSPropertyOp13
 70
     1
102
RTVSPropertyOp14
 70
     1
102
RTVSPropertyOp15
 70
     1
102
RTVSPropertyOp16
 70
     1
102
RTVSPropertyOp17
 70
     1
102
RTVSPropertyOp18
 70
     1
102
RTVSPropertyOp19
 70
     1
102
RTVSPropertyOp20
 70
     1
102
RTVSPropertyOp21
 70
     1
102
RTVSPropertyOp22
 70
     1
102
RTVSPropertyOp23
 70
     1
102
RTVSPropertyOp24
 70
     1
102
RTVSPropertyOp25
 70
     1
102
RTVSPropertyOp26
 70
     1
102
RTVSPropertyOp27
 70
     1
102
RTVSPropertyOp28
 70
     1
102
RTVSPropertyOp29
 70
     1
102
RTVSPropertyOp30
 70
     1
102
RTVSPropertyOp31
 70
     1
102
RTVSPropertyOp32
 70
     1
102
RTVSPropertyOp33
 70
     1
102
RTVSPropertyOp34
 70
     1
102
RTVSPropertyOp35
 70
     1
102
RTVSPropertyOp36
 70
     1
102
RTVSPropertyOp37
 70
     1
102
RTVSPropertyOp38
 70
     1
102
RTVSPropertyOp39
 70
     1
102
RTVSPropertyOp40
 70
     1
102
RTVSPropertyOp41
 70
     1
102
RTVSPropertyOp42
 70
     1
102
RTVSPropertyOp43
 70
     1
102
RTVSPropertyOp44
 70
     1
102
RTVSPropertyOp45
 70
     1
102
RTVSPropertyOp46
 70
     1
102
RTVSPropertyOp47
 70
     1
102
RTVSPropertyOp48
 70
     1
102
RTVSPropertyOp49
 70
     1
102
RTVSPropertyOp50
 70
     1
102
RTVSPropertyOp51
 70
     0
102
RTVSPropertyOp52
 70
     0
102
RTVSPropertyOp53
 70
     1
102
RTVSPropertyOp54
 70
     1
102
RTVSPropertyOp55
 70
     1
102
RTVSPropertyOp56
 70
     1
102
RTVSPropertyOp57
 70
     1
102
RTVSPropertyOp58
 70
     1
102
RTVSPropertyOp59
 70
     1
102
RTVSPropertyOp60
 70
     1
102
RTVSPropertyOp61
 70
     1
102
RTVSPropertyOp62
 70
     1
  0
XRECORD
  5
35DD
102
{ACAD_REACTORS
330
35DC
102
}
330
35DC
100
AcDbXrecord
280
     1
102
RTVSPost2010Prop28
280
     0
102
RTVSPost2010PropOp28
 70
     1
102
RTVSPost2010Prop29
280
     1
102
RTVSPost2010PropOp29
 70
     1
102
RTVSPost2010Prop30
280
     1
102
RTVSPost2010PropOp30
 70
     1
102
RTVSPost2010Prop31
280
     0
102
RTVSPost2010PropOp31
 70
     1
102
RTVSPost2010Prop32
280
     0
102
RTVSPost2010PropOp32
 70
     1
102
RTVSPost2010Prop33
280
     0
102
RTVSPost2010PropOp33
 70
     1
102
RTVSPost2010Prop34
280
     0
102
RTVSPost2010PropOp34
 70
     1
102
RTVSPost2010Prop35
280
     0
102
RTVSPost2010PropOp35
 70
     1
102
RTVSPost2010Prop36
280
     0
102
RTVSPost2010PropOp36
 70
     1
102
RTVSPost2010Prop37
 90
       50
102
RTVSPost2010PropOp37
 70
     1
102
RTVSPost2010Prop38
140
0.0
102
RTVSPost2010PropOp38
 70
     1
102
RTVSPost2010Prop39
140
1.0
102
RTVSPost2010PropOp39
 70
     1
102
RTVSPost2010Prop40
 90
        0
102
RTVSPost2010PropOp40
 70
     1
102
RTVSPost2010Prop41ColorIndex
 90
       18
102
RTVSPost2010Prop41ColorRGB
 90
        0
102
RTVSPost2010PropOp41
 70
     1
102
RTVSPost2010Prop42
 90
       50
102
RTVSPost2010PropOp42
 70
     1
102
RTVSPost2010Prop43
 90
        3
102
RTVSPost2010PropOp43
 70
     1
102
RTVSPost2010Prop44ColorIndex
 90
        5
102
RTVSPost2010Prop44ColorRGB
 90
      255
102
RTVSPost2010PropOp44
 70
     1
102
RTVSPost2010Prop45
280
     0
102
RTVSPost2010PropOp45
 70
     1
102
RTVSPost2010Prop46
 90
       50
102
RTVSPost2010PropOp46
 70
     1
102
RTVSPost2010Prop47
 90
       50
102
RTVSPost2010PropOp47
 70
     1
102
RTVSPost2010Prop48
 90
       50
102
RTVSPost2010PropOp48
 70
     1
102
RTVSPost2010Prop49
280
     0
102
RTVSPost2010PropOp49
 70
     1
102
RTVSPost2010Prop50
 90
       50
102
RTVSPost2010PropOp50
 70
     1
102
RTVSPost2010Prop51ColorIndex
 90
      256
102
RTVSPost2010Prop51ColorRGB
 90
-16777216
102
RTVSPost2010PropOp51
 70
     0
102
RTVSPost2010Prop52
140
1.0
102
RTVSPost2010PropOp52
 70
     0
102
RTVSPost2010Prop53
 90
        2
102
RTVSPost2010PropOp53
 70
     1
102
RTVSPost2010Prop54
  1
strokes_ogs.tif
102
RTVSPost2010PropOp54
 70
     1
102
RTVSPost2010Prop55
280
     0
102
RTVSPost2010PropOp55
 70
     1
102
RTVSPost2010Prop56
140
1.0
102
RTVSPost2010PropOp56
 70
     1
102
RTVSPost2010Prop57
140
1.0
102
RTVSPost2010PropOp57
 70
     1
102
RTVSPropertyOp0
 70
     1
102
RTVSPropertyOp1
 70
     1
102
RTVSPropertyOp2
 70
     1
102
RTVSPropertyOp3
 70
     1
102
RTVSPropertyOp4
 70
     1
102
RTVSPropertyOp5
 70
     1
102
RTVSPropertyOp6
 70
     1
102
RTVSPropertyOp7
 70
     1
102
RTVSPropertyOp8
 70
     1
102
RTVSPropertyOp9
 70
     1
102
RTVSPropertyOp10
 70
     1
102
RTVSPropertyOp11
 70
     1
102
RTVSPropertyOp12
 70
     1
102
RTVSPropertyOp13
 70
     1
102
RTVSPropertyOp14
 70
     1
102
RTVSPropertyOp15
 70
     1
102
RTVSPropertyOp16
 70
     1
102
RTVSPropertyOp17
 70
     1
102
RTVSPropertyOp18
 70
     1
102
RTVSPropertyOp19
 70
     1
102
RTVSPropertyOp20
 70
     1
102
RTVSPropertyOp21
 70
     1
102
RTVSPropertyOp22
 70
     1
102
RTVSPropertyOp23
 70
     1
102
RTVSPropertyOp24
 70
     1
102
RTVSPropertyOp25
 70
     1
102
RTVSPropertyOp26
 70
     1
102
RTVSPropertyOp27
 70
     1
102
RTVSPropertyOp28
 70
     1
102
RTVSPropertyOp29
 70
     1
102
RTVSPropertyOp30
 70
     1
102
RTVSPropertyOp31
 70
     1
102
RTVSPropertyOp32
 70
     1
102
RTVSPropertyOp33
 70
     1
102
RTVSPropertyOp34
 70
     1
102
RTVSPropertyOp35
 70
     1
102
RTVSPropertyOp36
 70
     1
102
RTVSPropertyOp37
 70
     1
102
RTVSPropertyOp38
 70
     1
102
RTVSPropertyOp39
 70
     1
102
RTVSPropertyOp40
 70
     1
102
RTVSPropertyOp41
 70
     1
102
RTVSPropertyOp42
 70
     1
102
RTVSPropertyOp43
 70
     1
102
RTVSPropertyOp44
 70
     1
102
RTVSPropertyOp45
 70
     1
102
RTVSPropertyOp46
 70
     1
102
RTVSPropertyOp47
 70
     1
102
RTVSPropertyOp48
 70
     1
102
RTVSPropertyOp49
 70
     1
102
RTVSPropertyOp50
 70
     1
102
RTVSPropertyOp51
 70
     0
102
RTVSPropertyOp52
 70
     0
102
RTVSPropertyOp53
 70
     1
102
RTVSPropertyOp54
 70
     1
102
RTVSPropertyOp55
 70
     1
102
RTVSPropertyOp56
 70
     1
102
RTVSPropertyOp57
 70
     1
102
RTVSPropertyOp58
 70
     1
102
RTVSPropertyOp59
 70
     1
102
RTVSPropertyOp60
 70
     1
102
RTVSPropertyOp61
 70
     1
102
RTVSPropertyOp62
 70
     1
  0
XRECORD
  5
35E1
102
{ACAD_REACTORS
330
35E0
102
}
330
35E0
100
AcDbXrecord
280
     1
102
RTVSPost2010Prop28
280
     0
102
RTVSPost2010PropOp28
 70
     1
102
RTVSPost2010Prop29
280
     1
102
RTVSPost2010PropOp29
 70
     1
102
RTVSPost2010Prop30
280
     1
102
RTVSPost2010PropOp30
 70
     1
102
RTVSPost2010Prop31
280
     0
102
RTVSPost2010PropOp31
 70
     1
102
RTVSPost2010Prop32
280
     0
102
RTVSPost2010PropOp32
 70
     1
102
RTVSPost2010Prop33
280
     0
102
RTVSPost2010PropOp33
 70
     1
102
RTVSPost2010Prop34
280
     0
102
RTVSPost2010PropOp34
 70
     1
102
RTVSPost2010Prop35
280
     0
102
RTVSPost2010PropOp35
 70
     1
102
RTVSPost2010Prop36
280
     0
102
RTVSPost2010PropOp36
 70
     1
102
RTVSPost2010Prop37
 90
       50
102
RTVSPost2010PropOp37
 70
     1
102
RTVSPost2010Prop38
140
0.0
102
RTVSPost2010PropOp38
 70
     1
102
RTVSPost2010Prop39
140
1.0
102
RTVSPost2010PropOp39
 70
     1
102
RTVSPost2010Prop40
 90
        0
102
RTVSPost2010PropOp40
 70
     1
102
RTVSPost2010Prop41ColorIndex
 90
       18
102
RTVSPost2010Prop41ColorRGB
 90
        0
102
RTVSPost2010PropOp41
 70
     1
102
RTVSPost2010Prop42
 90
       50
102
RTVSPost2010PropOp42
 70
     1
102
RTVSPost2010Prop43
 90
        3
102
RTVSPost2010PropOp43
 70
     1
102
RTVSPost2010Prop44ColorIndex
 90
        5
102
RTVSPost2010Prop44ColorRGB
 90
      255
102
RTVSPost2010PropOp44
 70
     1
102
RTVSPost2010Prop45
280
     0
102
RTVSPost2010PropOp45
 70
     1
102
RTVSPost2010Prop46
 90
       50
102
RTVSPost2010PropOp46
 70
     1
102
RTVSPost2010Prop47
 90
       50
102
RTVSPost2010PropOp47
 70
     1
102
RTVSPost2010Prop48
 90
       50
102
RTVSPost2010PropOp48
 70
     1
102
RTVSPost2010Prop49
280
     0
102
RTVSPost2010PropOp49
 70
     1
102
RTVSPost2010Prop50
 90
       50
102
RTVSPost2010PropOp50
 70
     1
102
RTVSPost2010Prop51ColorIndex
 90
      256
102
RTVSPost2010Prop51ColorRGB
 90
-16777216
102
RTVSPost2010PropOp51
 70
     0
102
RTVSPost2010Prop52
140
1.0
102
RTVSPost2010PropOp52
 70
     0
102
RTVSPost2010Prop53
 90
        2
102
RTVSPost2010PropOp53
 70
     1
102
RTVSPost2010Prop54
  1
strokes_ogs.tif
102
RTVSPost2010PropOp54
 70
     1
102
RTVSPost2010Prop55
280
     0
102
RTVSPost2010PropOp55
 70
     1
102
RTVSPost2010Prop56
140
1.0
102
RTVSPost2010PropOp56
 70
     1
102
RTVSPost2010Prop57
140
1.0
102
RTVSPost2010PropOp57
 70
     1
102
RTVSPropertyOp0
 70
     1
102
RTVSPropertyOp1
 70
     1
102
RTVSPropertyOp2
 70
     1
102
RTVSPropertyOp3
 70
     1
102
RTVSPropertyOp4
 70
     1
102
RTVSPropertyOp5
 70
     1
102
RTVSPropertyOp6
 70
     1
102
RTVSPropertyOp7
 70
     1
102
RTVSPropertyOp8
 70
     1
102
RTVSPropertyOp9
 70
     1
102
RTVSPropertyOp10
 70
     1
102
RTVSPropertyOp11
 70
     1
102
RTVSPropertyOp12
 70
     1
102
RTVSPropertyOp13
 70
     1
102
RTVSPropertyOp14
 70
     1
102
RTVSPropertyOp15
 70
     1
102
RTVSPropertyOp16
 70
     1
102
RTVSPropertyOp17
 70
     1
102
RTVSPropertyOp18
 70
     1
102
RTVSPropertyOp19
 70
     1
102
RTVSPropertyOp20
 70
     1
102
RTVSPropertyOp21
 70
     1
102
RTVSPropertyOp22
 70
     1
102
RTVSPropertyOp23
 70
     1
102
RTVSPropertyOp24
 70
     1
102
RTVSPropertyOp25
 70
     1
102
RTVSPropertyOp26
 70
     1
102
RTVSPropertyOp27
 70
     1
102
RTVSPropertyOp28
 70
     1
102
RTVSPropertyOp29
 70
     1
102
RTVSPropertyOp30
 70
     1
102
RTVSPropertyOp31
 70
     1
102
RTVSPropertyOp32
 70
     1
102
RTVSPropertyOp33
 70
     1
102
RTVSPropertyOp34
 70
     1
102
RTVSPropertyOp35
 70
     1
102
RTVSPropertyOp36
 70
     1
102
RTVSPropertyOp37
 70
     1
102
RTVSPropertyOp38
 70
     1
102
RTVSPropertyOp39
 70
     1
102
RTVSPropertyOp40
 70
     1
102
RTVSPropertyOp41
 70
     1
102
RTVSPropertyOp42
 70
     1
102
RTVSPropertyOp43
 70
     1
102
RTVSPropertyOp44
 70
     1
102
RTVSPropertyOp45
 70
     1
102
RTVSPropertyOp46
 70
     1
102
RTVSPropertyOp47
 70
     1
102
RTVSPropertyOp48
 70
     1
102
RTVSPropertyOp49
 70
     1
102
RTVSPropertyOp50
 70
     1
102
RTVSPropertyOp51
 70
     0
102
RTVSPropertyOp52
 70
     0
102
RTVSPropertyOp53
 70
     1
102
RTVSPropertyOp54
 70
     1
102
RTVSPropertyOp55
 70
     1
102
RTVSPropertyOp56
 70
     1
102
RTVSPropertyOp57
 70
     1
102
RTVSPropertyOp58
 70
     1
102
RTVSPropertyOp59
 70
     1
102
RTVSPropertyOp60
 70
     1
102
RTVSPropertyOp61
 70
     1
102
RTVSPropertyOp62
 70
     1
  0
XRECORD
  5
35FB
102
{ACAD_REACTORS
330
35FA
102
}
330
35FA
100
AcDbXrecord
280
     1
102
RTVSPost2010Prop28
280
     0
102
RTVSPost2010PropOp28
 70
     0
102
RTVSPost2010Prop29
280
     1
102
RTVSPost2010PropOp29
 70
     0
102
RTVSPost2010Prop30
280
     1
102
RTVSPost2010PropOp30
 70
     0
102
RTVSPost2010Prop31
280
     0
102
RTVSPost2010PropOp31
 70
     0
102
RTVSPost2010Prop32
280
     0
102
RTVSPost2010PropOp32
 70
     0
102
RTVSPost2010Prop33
280
     0
102
RTVSPost2010PropOp33
 70
     0
102
RTVSPost2010Prop34
280
     0
102
RTVSPost2010PropOp34
 70
     0
102
RTVSPost2010Prop35
280
     0
102
RTVSPost2010PropOp35
 70
     0
102
RTVSPost2010Prop36
280
     0
102
RTVSPost2010PropOp36
 70
     0
102
RTVSPost2010Prop37
 90
       50
102
RTVSPost2010PropOp37
 70
     0
102
RTVSPost2010Prop38
140
0.0
102
RTVSPost2010PropOp38
 70
     0
102
RTVSPost2010Prop39
140
1.0
102
RTVSPost2010PropOp39
 70
     0
102
RTVSPost2010Prop40
 90
        0
102
RTVSPost2010PropOp40
 70
     0
102
RTVSPost2010Prop41ColorIndex
 90
       18
102
RTVSPost2010Prop41ColorRGB
 90
        0
102
RTVSPost2010PropOp41
 70
     0
102
RTVSPost2010Prop42
 90
       50
102
RTVSPost2010PropOp42
 70
     0
102
RTVSPost2010Prop43
 90
        3
102
RTVSPost2010PropOp43
 70
     0
102
RTVSPost2010Prop44ColorIndex
 90
        5
102
RTVSPost2010Prop44ColorRGB
 90
      255
102
RTVSPost2010PropOp44
 70
     0
102
RTVSPost2010Prop45
280
     0
102
RTVSPost2010PropOp45
 70
     0
102
RTVSPost2010Prop46
 90
       50
102
RTVSPost2010PropOp46
 70
     0
102
RTVSPost2010Prop47
 90
       50
102
RTVSPost2010PropOp47
 70
     0
102
RTVSPost2010Prop48
 90
       50
102
RTVSPost2010PropOp48
 70
     0
102
RTVSPost2010Prop49
280
     0
102
RTVSPost2010PropOp49
 70
     0
102
RTVSPost2010Prop50
 90
       50
102
RTVSPost2010PropOp50
 70
     0
102
RTVSPost2010Prop51ColorIndex
 90
      256
102
RTVSPost2010Prop51ColorRGB
 90
-16777216
102
RTVSPost2010PropOp51
 70
     0
102
RTVSPost2010Prop52
140
1.0
102
RTVSPost2010PropOp52
 70
     0
102
RTVSPost2010Prop53
 90
        2
102
RTVSPost2010PropOp53
 70
     0
102
RTVSPost2010Prop54
  1
strokes_ogs.tif
102
RTVSPost2010PropOp54
 70
     0
102
RTVSPost2010Prop55
280
     0
102
RTVSPost2010PropOp55
 70
     0
102
RTVSPost2010Prop56
140
1.0
102
RTVSPost2010PropOp56
 70
     0
102
RTVSPost2010Prop57
140
1.0
102
RTVSPost2010PropOp57
 70
     0
102
RTVSPropertyOp0
 70
     0
102
RTVSPropertyOp1
 70
     0
102
RTVSPropertyOp2
 70
     0
102
RTVSPropertyOp3
 70
     0
102
RTVSPropertyOp4
 70
     0
102
RTVSPropertyOp5
 70
     0
102
RTVSPropertyOp6
 70
     0
102
RTVSPropertyOp7
 70
     0
102
RTVSPropertyOp8
 70
     0
102
RTVSPropertyOp9
 70
     0
102
RTVSPropertyOp10
 70
     0
102
RTVSPropertyOp11
 70
     0
102
RTVSPropertyOp12
 70
     0
102
RTVSPropertyOp13
 70
     0
102
RTVSPropertyOp14
 70
     2
102
RTVSPropertyOp15
 70
     0
102
RTVSPropertyOp16
 70
     0
102
RTVSPropertyOp17
 70
     0
102
RTVSPropertyOp18
 70
     0
102
RTVSPropertyOp19
 70
     0
102
RTVSPropertyOp20
 70
     0
102
RTVSPropertyOp21
 70
     0
102
RTVSPropertyOp22
 70
     0
102
RTVSPropertyOp23
 70
     0
102
RTVSPropertyOp24
 70
     0
102
RTVSPropertyOp25
 70
     0
102
RTVSPropertyOp26
 70
     0
102
RTVSPropertyOp27
 70
     0
102
RTVSPropertyOp28
 70
     0
102
RTVSPropertyOp29
 70
     0
102
RTVSPropertyOp30
 70
     0
102
RTVSPropertyOp31
 70
     0
102
RTVSPropertyOp32
 70
     0
102
RTVSPropertyOp33
 70
     0
102
RTVSPropertyOp34
 70
     0
102
RTVSPropertyOp35
 70
     0
102
RTVSPropertyOp36
 70
     0
102
RTVSPropertyOp37
 70
     0
102
RTVSPropertyOp38
 70
     0
102
RTVSPropertyOp39
 70
     0
102
RTVSPropertyOp40
 70
     0
102
RTVSPropertyOp41
 70
     0
102
RTVSPropertyOp42
 70
     0
102
RTVSPropertyOp43
 70
     0
102
RTVSPropertyOp44
 70
     0
102
RTVSPropertyOp45
 70
     0
102
RTVSPropertyOp46
 70
     0
102
RTVSPropertyOp47
 70
     0
102
RTVSPropertyOp48
 70
     0
102
RTVSPropertyOp49
 70
     0
102
RTVSPropertyOp50
 70
     0
102
RTVSPropertyOp51
 70
     0
102
RTVSPropertyOp52
 70
     0
102
RTVSPropertyOp53
 70
     0
102
RTVSPropertyOp54
 70
     0
102
RTVSPropertyOp55
 70
     0
102
RTVSPropertyOp56
 70
     0
102
RTVSPropertyOp57
 70
     0
102
RTVSPropertyOp58
 70
     0
102
RTVSPropertyOp59
 70
     0
102
RTVSPropertyOp60
 70
     0
102
RTVSPropertyOp61
 70
     0
102
RTVSPropertyOp62
 70
     0
  0
XRECORD
  5
35E9
102
{ACAD_REACTORS
330
35E8
102
}
330
35E8
100
AcDbXrecord
280
     1
102
RTVSPost2010Prop28
280
     0
102
RTVSPost2010PropOp28
 70
     1
102
RTVSPost2010Prop29
280
     1
102
RTVSPost2010PropOp29
 70
     1
102
RTVSPost2010Prop30
280
     1
102
RTVSPost2010PropOp30
 70
     1
102
RTVSPost2010Prop31
280
     0
102
RTVSPost2010PropOp31
 70
     1
102
RTVSPost2010Prop32
280
     0
102
RTVSPost2010PropOp32
 70
     1
102
RTVSPost2010Prop33
280
     0
102
RTVSPost2010PropOp33
 70
     1
102
RTVSPost2010Prop34
280
     0
102
RTVSPost2010PropOp34
 70
     1
102
RTVSPost2010Prop35
280
     0
102
RTVSPost2010PropOp35
 70
     1
102
RTVSPost2010Prop36
280
     0
102
RTVSPost2010PropOp36
 70
     1
102
RTVSPost2010Prop37
 90
       50
102
RTVSPost2010PropOp37
 70
     1
102
RTVSPost2010Prop38
140
0.0
102
RTVSPost2010PropOp38
 70
     1
102
RTVSPost2010Prop39
140
1.0
102
RTVSPost2010PropOp39
 70
     1
102
RTVSPost2010Prop40
 90
        0
102
RTVSPost2010PropOp40
 70
     1
102
RTVSPost2010Prop41ColorIndex
 90
       18
102
RTVSPost2010Prop41ColorRGB
 90
        0
102
RTVSPost2010PropOp41
 70
     1
102
RTVSPost2010Prop42
 90
       50
102
RTVSPost2010PropOp42
 70
     1
102
RTVSPost2010Prop43
 90
        3
102
RTVSPost2010PropOp43
 70
     1
102
RTVSPost2010Prop44ColorIndex
 90
        5
102
RTVSPost2010Prop44ColorRGB
 90
      255
102
RTVSPost2010PropOp44
 70
     1
102
RTVSPost2010Prop45
280
     0
102
RTVSPost2010PropOp45
 70
     1
102
RTVSPost2010Prop46
 90
       50
102
RTVSPost2010PropOp46
 70
     1
102
RTVSPost2010Prop47
 90
       50
102
RTVSPost2010PropOp47
 70
     1
102
RTVSPost2010Prop48
 90
       50
102
RTVSPost2010PropOp48
 70
     1
102
RTVSPost2010Prop49
280
     0
102
RTVSPost2010PropOp49
 70
     1
102
RTVSPost2010Prop50
 90
       50
102
RTVSPost2010PropOp50
 70
     1
102
RTVSPost2010Prop51ColorIndex
 90
      256
102
RTVSPost2010Prop51ColorRGB
 90
-16777216
102
RTVSPost2010PropOp51
 70
     0
102
RTVSPost2010Prop52
140
1.0
102
RTVSPost2010PropOp52
 70
     0
102
RTVSPost2010Prop53
 90
        2
102
RTVSPost2010PropOp53
 70
     1
102
RTVSPost2010Prop54
  1
strokes_ogs.tif
102
RTVSPost2010PropOp54
 70
     1
102
RTVSPost2010Prop55
280
     0
102
RTVSPost2010PropOp55
 70
     1
102
RTVSPost2010Prop56
140
1.0
102
RTVSPost2010PropOp56
 70
     1
102
RTVSPost2010Prop57
140
1.0
102
RTVSPost2010PropOp57
 70
     1
102
RTVSPropertyOp0
 70
     1
102
RTVSPropertyOp1
 70
     1
102
RTVSPropertyOp2
 70
     1
102
RTVSPropertyOp3
 70
     1
102
RTVSPropertyOp4
 70
     1
102
RTVSPropertyOp5
 70
     1
102
RTVSPropertyOp6
 70
     1
102
RTVSPropertyOp7
 70
     1
102
RTVSPropertyOp8
 70
     1
102
RTVSPropertyOp9
 70
     1
102
RTVSPropertyOp10
 70
     1
102
RTVSPropertyOp11
 70
     1
102
RTVSPropertyOp12
 70
     1
102
RTVSPropertyOp13
 70
     1
102
RTVSPropertyOp14
 70
     1
102
RTVSPropertyOp15
 70
     1
102
RTVSPropertyOp16
 70
     1
102
RTVSPropertyOp17
 70
     1
102
RTVSPropertyOp18
 70
     1
102
RTVSPropertyOp19
 70
     1
102
RTVSPropertyOp20
 70
     1
102
RTVSPropertyOp21
 70
     1
102
RTVSPropertyOp22
 70
     1
102
RTVSPropertyOp23
 70
     1
102
RTVSPropertyOp24
 70
     1
102
RTVSPropertyOp25
 70
     1
102
RTVSPropertyOp26
 70
     1
102
RTVSPropertyOp27
 70
     1
102
RTVSPropertyOp28
 70
     1
102
RTVSPropertyOp29
 70
     1
102
RTVSPropertyOp30
 70
     1
102
RTVSPropertyOp31
 70
     1
102
RTVSPropertyOp32
 70
     1
102
RTVSPropertyOp33
 70
     1
102
RTVSPropertyOp34
 70
     1
102
RTVSPropertyOp35
 70
     1
102
RTVSPropertyOp36
 70
     1
102
RTVSPropertyOp37
 70
     1
102
RTVSPropertyOp38
 70
     1
102
RTVSPropertyOp39
 70
     1
102
RTVSPropertyOp40
 70
     1
102
RTVSPropertyOp41
 70
     1
102
RTVSPropertyOp42
 70
     1
102
RTVSPropertyOp43
 70
     1
102
RTVSPropertyOp44
 70
     1
102
RTVSPropertyOp45
 70
     1
102
RTVSPropertyOp46
 70
     1
102
RTVSPropertyOp47
 70
     1
102
RTVSPropertyOp48
 70
     1
102
RTVSPropertyOp49
 70
     1
102
RTVSPropertyOp50
 70
     1
102
RTVSPropertyOp51
 70
     0
102
RTVSPropertyOp52
 70
     0
102
RTVSPropertyOp53
 70
     1
102
RTVSPropertyOp54
 70
     1
102
RTVSPropertyOp55
 70
     1
102
RTVSPropertyOp56
 70
     1
102
RTVSPropertyOp57
 70
     1
102
RTVSPropertyOp58
 70
     1
102
RTVSPropertyOp59
 70
     1
102
RTVSPropertyOp60
 70
     1
102
RTVSPropertyOp61
 70
     1
102
RTVSPropertyOp62
 70
     1
  0
XRECORD
  5
35CD
102
{ACAD_REACTORS
330
35CC
102
}
330
35CC
100
AcDbXrecord
280
     1
102
RTVSPost2010Prop28
280
     0
102
RTVSPost2010PropOp28
 70
     1
102
RTVSPost2010Prop29
280
     1
102
RTVSPost2010PropOp29
 70
     1
102
RTVSPost2010Prop30
280
     1
102
RTVSPost2010PropOp30
 70
     1
102
RTVSPost2010Prop31
280
     0
102
RTVSPost2010PropOp31
 70
     1
102
RTVSPost2010Prop32
280
     0
102
RTVSPost2010PropOp32
 70
     1
102
RTVSPost2010Prop33
280
     0
102
RTVSPost2010PropOp33
 70
     1
102
RTVSPost2010Prop34
280
     0
102
RTVSPost2010PropOp34
 70
     1
102
RTVSPost2010Prop35
280
     0
102
RTVSPost2010PropOp35
 70
     1
102
RTVSPost2010Prop36
280
     0
102
RTVSPost2010PropOp36
 70
     1
102
RTVSPost2010Prop37
 90
       50
102
RTVSPost2010PropOp37
 70
     1
102
RTVSPost2010Prop38
140
0.0
102
RTVSPost2010PropOp38
 70
     1
102
RTVSPost2010Prop39
140
1.0
102
RTVSPost2010PropOp39
 70
     1
102
RTVSPost2010Prop40
 90
        0
102
RTVSPost2010PropOp40
 70
     1
102
RTVSPost2010Prop41ColorIndex
 90
       18
102
RTVSPost2010Prop41ColorRGB
 90
        0
102
RTVSPost2010PropOp41
 70
     1
102
RTVSPost2010Prop42
 90
       50
102
RTVSPost2010PropOp42
 70
     1
102
RTVSPost2010Prop43
 90
        3
102
RTVSPost2010PropOp43
 70
     1
102
RTVSPost2010Prop44ColorIndex
 90
        5
102
RTVSPost2010Prop44ColorRGB
 90
      255
102
RTVSPost2010PropOp44
 70
     1
102
RTVSPost2010Prop45
280
     0
102
RTVSPost2010PropOp45
 70
     1
102
RTVSPost2010Prop46
 90
       50
102
RTVSPost2010PropOp46
 70
     1
102
RTVSPost2010Prop47
 90
       50
102
RTVSPost2010PropOp47
 70
     1
102
RTVSPost2010Prop48
 90
       50
102
RTVSPost2010PropOp48
 70
     1
102
RTVSPost2010Prop49
280
     0
102
RTVSPost2010PropOp49
 70
     1
102
RTVSPost2010Prop50
 90
       50
102
RTVSPost2010PropOp50
 70
     1
102
RTVSPost2010Prop51ColorIndex
 90
      256
102
RTVSPost2010Prop51ColorRGB
 90
-16777216
102
RTVSPost2010PropOp51
 70
     0
102
RTVSPost2010Prop52
140
1.0
102
RTVSPost2010PropOp52
 70
     0
102
RTVSPost2010Prop53
 90
        2
102
RTVSPost2010PropOp53
 70
     1
102
RTVSPost2010Prop54
  1
strokes_ogs.tif
102
RTVSPost2010PropOp54
 70
     1
102
RTVSPost2010Prop55
280
     0
102
RTVSPost2010PropOp55
 70
     1
102
RTVSPost2010Prop56
140
1.0
102
RTVSPost2010PropOp56
 70
     1
102
RTVSPost2010Prop57
140
1.0
102
RTVSPost2010PropOp57
 70
     1
102
RTVSPropertyOp0
 70
     1
102
RTVSPropertyOp1
 70
     1
102
RTVSPropertyOp2
 70
     1
102
RTVSPropertyOp3
 70
     1
102
RTVSPropertyOp4
 70
     1
102
RTVSPropertyOp5
 70
     1
102
RTVSPropertyOp6
 70
     1
102
RTVSPropertyOp7
 70
     1
102
RTVSPropertyOp8
 70
     1
102
RTVSPropertyOp9
 70
     1
102
RTVSPropertyOp10
 70
     1
102
RTVSPropertyOp11
 70
     1
102
RTVSPropertyOp12
 70
     1
102
RTVSPropertyOp13
 70
     1
102
RTVSPropertyOp14
 70
     1
102
RTVSPropertyOp15
 70
     1
102
RTVSPropertyOp16
 70
     1
102
RTVSPropertyOp17
 70
     1
102
RTVSPropertyOp18
 70
     1
102
RTVSPropertyOp19
 70
     1
102
RTVSPropertyOp20
 70
     1
102
RTVSPropertyOp21
 70
     1
102
RTVSPropertyOp22
 70
     1
102
RTVSPropertyOp23
 70
     1
102
RTVSPropertyOp24
 70
     1
102
RTVSPropertyOp25
 70
     1
102
RTVSPropertyOp26
 70
     1
102
RTVSPropertyOp27
 70
     1
102
RTVSPropertyOp28
 70
     1
102
RTVSPropertyOp29
 70
     1
102
RTVSPropertyOp30
 70
     1
102
RTVSPropertyOp31
 70
     1
102
RTVSPropertyOp32
 70
     1
102
RTVSPropertyOp33
 70
     1
102
RTVSPropertyOp34
 70
     1
102
RTVSPropertyOp35
 70
     1
102
RTVSPropertyOp36
 70
     1
102
RTVSPropertyOp37
 70
     1
102
RTVSPropertyOp38
 70
     1
102
RTVSPropertyOp39
 70
     1
102
RTVSPropertyOp40
 70
     1
102
RTVSPropertyOp41
 70
     1
102
RTVSPropertyOp42
 70
     1
102
RTVSPropertyOp43
 70
     1
102
RTVSPropertyOp44
 70
     1
102
RTVSPropertyOp45
 70
     1
102
RTVSPropertyOp46
 70
     1
102
RTVSPropertyOp47
 70
     1
102
RTVSPropertyOp48
 70
     1
102
RTVSPropertyOp49
 70
     1
102
RTVSPropertyOp50
 70
     1
102
RTVSPropertyOp51
 70
     0
102
RTVSPropertyOp52
 70
     0
102
RTVSPropertyOp53
 70
     1
102
RTVSPropertyOp54
 70
     1
102
RTVSPropertyOp55
 70
     1
102
RTVSPropertyOp56
 70
     1
102
RTVSPropertyOp57
 70
     1
102
RTVSPropertyOp58
 70
     1
102
RTVSPropertyOp59
 70
     1
102
RTVSPropertyOp60
 70
     1
102
RTVSPropertyOp61
 70
     1
102
RTVSPropertyOp62
 70
     1
  0
XRECORD
  5
35CF
102
{ACAD_REACTORS
330
35CE
102
}
330
35CE
100
AcDbXrecord
280
     1
102
RTVSPost2010Prop28
280
     0
102
RTVSPost2010PropOp28
 70
     1
102
RTVSPost2010Prop29
280
     1
102
RTVSPost2010PropOp29
 70
     1
102
RTVSPost2010Prop30
280
     1
102
RTVSPost2010PropOp30
 70
     1
102
RTVSPost2010Prop31
280
     0
102
RTVSPost2010PropOp31
 70
     1
102
RTVSPost2010Prop32
280
     0
102
RTVSPost2010PropOp32
 70
     1
102
RTVSPost2010Prop33
280
     0
102
RTVSPost2010PropOp33
 70
     1
102
RTVSPost2010Prop34
280
     0
102
RTVSPost2010PropOp34
 70
     1
102
RTVSPost2010Prop35
280
     0
102
RTVSPost2010PropOp35
 70
     1
102
RTVSPost2010Prop36
280
     0
102
RTVSPost2010PropOp36
 70
     1
102
RTVSPost2010Prop37
 90
       50
102
RTVSPost2010PropOp37
 70
     1
102
RTVSPost2010Prop38
140
0.0
102
RTVSPost2010PropOp38
 70
     1
102
RTVSPost2010Prop39
140
1.0
102
RTVSPost2010PropOp39
 70
     1
102
RTVSPost2010Prop40
 90
        0
102
RTVSPost2010PropOp40
 70
     1
102
RTVSPost2010Prop41ColorIndex
 90
       18
102
RTVSPost2010Prop41ColorRGB
 90
        0
102
RTVSPost2010PropOp41
 70
     1
102
RTVSPost2010Prop42
 90
       50
102
RTVSPost2010PropOp42
 70
     1
102
RTVSPost2010Prop43
 90
        3
102
RTVSPost2010PropOp43
 70
     1
102
RTVSPost2010Prop44ColorIndex
 90
        5
102
RTVSPost2010Prop44ColorRGB
 90
      255
102
RTVSPost2010PropOp44
 70
     1
102
RTVSPost2010Prop45
280
     0
102
RTVSPost2010PropOp45
 70
     1
102
RTVSPost2010Prop46
 90
       50
102
RTVSPost2010PropOp46
 70
     1
102
RTVSPost2010Prop47
 90
       50
102
RTVSPost2010PropOp47
 70
     1
102
RTVSPost2010Prop48
 90
       50
102
RTVSPost2010PropOp48
 70
     1
102
RTVSPost2010Prop49
280
     0
102
RTVSPost2010PropOp49
 70
     1
102
RTVSPost2010Prop50
 90
       50
102
RTVSPost2010PropOp50
 70
     1
102
RTVSPost2010Prop51ColorIndex
 90
      256
102
RTVSPost2010Prop51ColorRGB
 90
-16777216
102
RTVSPost2010PropOp51
 70
     0
102
RTVSPost2010Prop52
140
1.0
102
RTVSPost2010PropOp52
 70
     0
102
RTVSPost2010Prop53
 90
        2
102
RTVSPost2010PropOp53
 70
     1
102
RTVSPost2010Prop54
  1
strokes_ogs.tif
102
RTVSPost2010PropOp54
 70
     1
102
RTVSPost2010Prop55
280
     0
102
RTVSPost2010PropOp55
 70
     1
102
RTVSPost2010Prop56
140
1.0
102
RTVSPost2010PropOp56
 70
     1
102
RTVSPost2010Prop57
140
1.0
102
RTVSPost2010PropOp57
 70
     1
102
RTVSPropertyOp0
 70
     1
102
RTVSPropertyOp1
 70
     1
102
RTVSPropertyOp2
 70
     1
102
RTVSPropertyOp3
 70
     1
102
RTVSPropertyOp4
 70
     1
102
RTVSPropertyOp5
 70
     1
102
RTVSPropertyOp6
 70
     1
102
RTVSPropertyOp7
 70
     1
102
RTVSPropertyOp8
 70
     1
102
RTVSPropertyOp9
 70
     1
102
RTVSPropertyOp10
 70
     1
102
RTVSPropertyOp11
 70
     1
102
RTVSPropertyOp12
 70
     1
102
RTVSPropertyOp13
 70
     1
102
RTVSPropertyOp14
 70
     1
102
RTVSPropertyOp15
 70
     1
102
RTVSPropertyOp16
 70
     1
102
RTVSPropertyOp17
 70
     1
102
RTVSPropertyOp18
 70
     1
102
RTVSPropertyOp19
 70
     1
102
RTVSPropertyOp20
 70
     1
102
RTVSPropertyOp21
 70
     1
102
RTVSPropertyOp22
 70
     1
102
RTVSPropertyOp23
 70
     1
102
RTVSPropertyOp24
 70
     1
102
RTVSPropertyOp25
 70
     1
102
RTVSPropertyOp26
 70
     1
102
RTVSPropertyOp27
 70
     1
102
RTVSPropertyOp28
 70
     1
102
RTVSPropertyOp29
 70
     1
102
RTVSPropertyOp30
 70
     1
102
RTVSPropertyOp31
 70
     1
102
RTVSPropertyOp32
 70
     1
102
RTVSPropertyOp33
 70
     1
102
RTVSPropertyOp34
 70
     1
102
RTVSPropertyOp35
 70
     1
102
RTVSPropertyOp36
 70
     1
102
RTVSPropertyOp37
 70
     1
102
RTVSPropertyOp38
 70
     1
102
RTVSPropertyOp39
 70
     1
102
RTVSPropertyOp40
 70
     1
102
RTVSPropertyOp41
 70
     1
102
RTVSPropertyOp42
 70
     1
102
RTVSPropertyOp43
 70
     1
102
RTVSPropertyOp44
 70
     1
102
RTVSPropertyOp45
 70
     1
102
RTVSPropertyOp46
 70
     1
102
RTVSPropertyOp47
 70
     1
102
RTVSPropertyOp48
 70
     1
102
RTVSPropertyOp49
 70
     1
102
RTVSPropertyOp50
 70
     1
102
RTVSPropertyOp51
 70
     0
102
RTVSPropertyOp52
 70
     0
102
RTVSPropertyOp53
 70
     1
102
RTVSPropertyOp54
 70
     1
102
RTVSPropertyOp55
 70
     1
102
RTVSPropertyOp56
 70
     1
102
RTVSPropertyOp57
 70
     1
102
RTVSPropertyOp58
 70
     1
102
RTVSPropertyOp59
 70
     1
102
RTVSPropertyOp60
 70
     1
102
RTVSPropertyOp61
 70
     1
102
RTVSPropertyOp62
 70
     1
  0
XRECORD
  5
35D1
102
{ACAD_REACTORS
330
35D0
102
}
330
35D0
100
AcDbXrecord
280
     1
102
RTVSPost2010Prop28
280
     0
102
RTVSPost2010PropOp28
 70
     1
102
RTVSPost2010Prop29
280
     1
102
RTVSPost2010PropOp29
 70
     1
102
RTVSPost2010Prop30
280
     1
102
RTVSPost2010PropOp30
 70
     1
102
RTVSPost2010Prop31
280
     0
102
RTVSPost2010PropOp31
 70
     1
102
RTVSPost2010Prop32
280
     0
102
RTVSPost2010PropOp32
 70
     1
102
RTVSPost2010Prop33
280
     0
102
RTVSPost2010PropOp33
 70
     1
102
RTVSPost2010Prop34
280
     0
102
RTVSPost2010PropOp34
 70
     1
102
RTVSPost2010Prop35
280
     0
102
RTVSPost2010PropOp35
 70
     1
102
RTVSPost2010Prop36
280
     0
102
RTVSPost2010PropOp36
 70
     1
102
RTVSPost2010Prop37
 90
       50
102
RTVSPost2010PropOp37
 70
     1
102
RTVSPost2010Prop38
140
0.0
102
RTVSPost2010PropOp38
 70
     1
102
RTVSPost2010Prop39
140
1.0
102
RTVSPost2010PropOp39
 70
     1
102
RTVSPost2010Prop40
 90
        0
102
RTVSPost2010PropOp40
 70
     1
102
RTVSPost2010Prop41ColorIndex
 90
       18
102
RTVSPost2010Prop41ColorRGB
 90
        0
102
RTVSPost2010PropOp41
 70
     1
102
RTVSPost2010Prop42
 90
       50
102
RTVSPost2010PropOp42
 70
     1
102
RTVSPost2010Prop43
 90
        3
102
RTVSPost2010PropOp43
 70
     1
102
RTVSPost2010Prop44ColorIndex
 90
        5
102
RTVSPost2010Prop44ColorRGB
 90
      255
102
RTVSPost2010PropOp44
 70
     1
102
RTVSPost2010Prop45
280
     0
102
RTVSPost2010PropOp45
 70
     1
102
RTVSPost2010Prop46
 90
       50
102
RTVSPost2010PropOp46
 70
     1
102
RTVSPost2010Prop47
 90
       50
102
RTVSPost2010PropOp47
 70
     1
102
RTVSPost2010Prop48
 90
       50
102
RTVSPost2010PropOp48
 70
     1
102
RTVSPost2010Prop49
280
     0
102
RTVSPost2010PropOp49
 70
     1
102
RTVSPost2010Prop50
 90
       50
102
RTVSPost2010PropOp50
 70
     1
102
RTVSPost2010Prop51ColorIndex
 90
      256
102
RTVSPost2010Prop51ColorRGB
 90
-16777216
102
RTVSPost2010PropOp51
 70
     0
102
RTVSPost2010Prop52
140
1.0
102
RTVSPost2010PropOp52
 70
     0
102
RTVSPost2010Prop53
 90
        2
102
RTVSPost2010PropOp53
 70
     1
102
RTVSPost2010Prop54
  1
strokes_ogs.tif
102
RTVSPost2010PropOp54
 70
     1
102
RTVSPost2010Prop55
280
     0
102
RTVSPost2010PropOp55
 70
     1
102
RTVSPost2010Prop56
140
1.0
102
RTVSPost2010PropOp56
 70
     1
102
RTVSPost2010Prop57
140
1.0
102
RTVSPost2010PropOp57
 70
     1
102
RTVSPropertyOp0
 70
     1
102
RTVSPropertyOp1
 70
     1
102
RTVSPropertyOp2
 70
     1
102
RTVSPropertyOp3
 70
     1
102
RTVSPropertyOp4
 70
     1
102
RTVSPropertyOp5
 70
     1
102
RTVSPropertyOp6
 70
     1
102
RTVSPropertyOp7
 70
     1
102
RTVSPropertyOp8
 70
     1
102
RTVSPropertyOp9
 70
     1
102
RTVSPropertyOp10
 70
     1
102
RTVSPropertyOp11
 70
     1
102
RTVSPropertyOp12
 70
     1
102
RTVSPropertyOp13
 70
     1
102
RTVSPropertyOp14
 70
     1
102
RTVSPropertyOp15
 70
     1
102
RTVSPropertyOp16
 70
     1
102
RTVSPropertyOp17
 70
     1
102
RTVSPropertyOp18
 70
     1
102
RTVSPropertyOp19
 70
     1
102
RTVSPropertyOp20
 70
     1
102
RTVSPropertyOp21
 70
     1
102
RTVSPropertyOp22
 70
     1
102
RTVSPropertyOp23
 70
     1
102
RTVSPropertyOp24
 70
     1
102
RTVSPropertyOp25
 70
     1
102
RTVSPropertyOp26
 70
     1
102
RTVSPropertyOp27
 70
     1
102
RTVSPropertyOp28
 70
     1
102
RTVSPropertyOp29
 70
     1
102
RTVSPropertyOp30
 70
     1
102
RTVSPropertyOp31
 70
     1
102
RTVSPropertyOp32
 70
     1
102
RTVSPropertyOp33
 70
     1
102
RTVSPropertyOp34
 70
     1
102
RTVSPropertyOp35
 70
     1
102
RTVSPropertyOp36
 70
     1
102
RTVSPropertyOp37
 70
     1
102
RTVSPropertyOp38
 70
     1
102
RTVSPropertyOp39
 70
     1
102
RTVSPropertyOp40
 70
     1
102
RTVSPropertyOp41
 70
     1
102
RTVSPropertyOp42
 70
     1
102
RTVSPropertyOp43
 70
     1
102
RTVSPropertyOp44
 70
     1
102
RTVSPropertyOp45
 70
     1
102
RTVSPropertyOp46
 70
     1
102
RTVSPropertyOp47
 70
     1
102
RTVSPropertyOp48
 70
     1
102
RTVSPropertyOp49
 70
     1
102
RTVSPropertyOp50
 70
     1
102
RTVSPropertyOp51
 70
     0
102
RTVSPropertyOp52
 70
     0
102
RTVSPropertyOp53
 70
     1
102
RTVSPropertyOp54
 70
     1
102
RTVSPropertyOp55
 70
     1
102
RTVSPropertyOp56
 70
     1
102
RTVSPropertyOp57
 70
     1
102
RTVSPropertyOp58
 70
     1
102
RTVSPropertyOp59
 70
     1
102
RTVSPropertyOp60
 70
     1
102
RTVSPropertyOp61
 70
     1
102
RTVSPropertyOp62
 70
     1
  0
XRECORD
  5
35D3
102
{ACAD_REACTORS
330
35D2
102
}
330
35D2
100
AcDbXrecord
280
     1
102
RTVSPost2010Prop28
280
     0
102
RTVSPost2010PropOp28
 70
     1
102
RTVSPost2010Prop29
280
     1
102
RTVSPost2010PropOp29
 70
     1
102
RTVSPost2010Prop30
280
     1
102
RTVSPost2010PropOp30
 70
     1
102
RTVSPost2010Prop31
280
     0
102
RTVSPost2010PropOp31
 70
     1
102
RTVSPost2010Prop32
280
     0
102
RTVSPost2010PropOp32
 70
     1
102
RTVSPost2010Prop33
280
     0
102
RTVSPost2010PropOp33
 70
     1
102
RTVSPost2010Prop34
280
     0
102
RTVSPost2010PropOp34
 70
     1
102
RTVSPost2010Prop35
280
     0
102
RTVSPost2010PropOp35
 70
     1
102
RTVSPost2010Prop36
280
     0
102
RTVSPost2010PropOp36
 70
     1
102
RTVSPost2010Prop37
 90
       50
102
RTVSPost2010PropOp37
 70
     1
102
RTVSPost2010Prop38
140
0.0
102
RTVSPost2010PropOp38
 70
     1
102
RTVSPost2010Prop39
140
1.0
102
RTVSPost2010PropOp39
 70
     1
102
RTVSPost2010Prop40
 90
        0
102
RTVSPost2010PropOp40
 70
     1
102
RTVSPost2010Prop41ColorIndex
 90
       18
102
RTVSPost2010Prop41ColorRGB
 90
        0
102
RTVSPost2010PropOp41
 70
     1
102
RTVSPost2010Prop42
 90
       50
102
RTVSPost2010PropOp42
 70
     1
102
RTVSPost2010Prop43
 90
        3
102
RTVSPost2010PropOp43
 70
     1
102
RTVSPost2010Prop44ColorIndex
 90
        5
102
RTVSPost2010Prop44ColorRGB
 90
      255
102
RTVSPost2010PropOp44
 70
     1
102
RTVSPost2010Prop45
280
     0
102
RTVSPost2010PropOp45
 70
     1
102
RTVSPost2010Prop46
 90
       50
102
RTVSPost2010PropOp46
 70
     1
102
RTVSPost2010Prop47
 90
       50
102
RTVSPost2010PropOp47
 70
     1
102
RTVSPost2010Prop48
 90
       50
102
RTVSPost2010PropOp48
 70
     1
102
RTVSPost2010Prop49
280
     0
102
RTVSPost2010PropOp49
 70
     1
102
RTVSPost2010Prop50
 90
       50
102
RTVSPost2010PropOp50
 70
     1
102
RTVSPost2010Prop51ColorIndex
 90
      256
102
RTVSPost2010Prop51ColorRGB
 90
-16777216
102
RTVSPost2010PropOp51
 70
     0
102
RTVSPost2010Prop52
140
1.0
102
RTVSPost2010PropOp52
 70
     0
102
RTVSPost2010Prop53
 90
        2
102
RTVSPost2010PropOp53
 70
     1
102
RTVSPost2010Prop54
  1
strokes_ogs.tif
102
RTVSPost2010PropOp54
 70
     1
102
RTVSPost2010Prop55
280
     0
102
RTVSPost2010PropOp55
 70
     1
102
RTVSPost2010Prop56
140
1.0
102
RTVSPost2010PropOp56
 70
     1
102
RTVSPost2010Prop57
140
1.0
102
RTVSPost2010PropOp57
 70
     1
102
RTVSPropertyOp0
 70
     1
102
RTVSPropertyOp1
 70
     1
102
RTVSPropertyOp2
 70
     1
102
RTVSPropertyOp3
 70
     1
102
RTVSPropertyOp4
 70
     1
102
RTVSPropertyOp5
 70
     1
102
RTVSPropertyOp6
 70
     1
102
RTVSPropertyOp7
 70
     1
102
RTVSPropertyOp8
 70
     1
102
RTVSPropertyOp9
 70
     1
102
RTVSPropertyOp10
 70
     1
102
RTVSPropertyOp11
 70
     1
102
RTVSPropertyOp12
 70
     1
102
RTVSPropertyOp13
 70
     1
102
RTVSPropertyOp14
 70
     1
102
RTVSPropertyOp15
 70
     1
102
RTVSPropertyOp16
 70
     1
102
RTVSPropertyOp17
 70
     1
102
RTVSPropertyOp18
 70
     1
102
RTVSPropertyOp19
 70
     1
102
RTVSPropertyOp20
 70
     1
102
RTVSPropertyOp21
 70
     1
102
RTVSPropertyOp22
 70
     1
102
RTVSPropertyOp23
 70
     1
102
RTVSPropertyOp24
 70
     1
102
RTVSPropertyOp25
 70
     1
102
RTVSPropertyOp26
 70
     1
102
RTVSPropertyOp27
 70
     1
102
RTVSPropertyOp28
 70
     1
102
RTVSPropertyOp29
 70
     1
102
RTVSPropertyOp30
 70
     1
102
RTVSPropertyOp31
 70
     1
102
RTVSPropertyOp32
 70
     1
102
RTVSPropertyOp33
 70
     1
102
RTVSPropertyOp34
 70
     1
102
RTVSPropertyOp35
 70
     1
102
RTVSPropertyOp36
 70
     1
102
RTVSPropertyOp37
 70
     1
102
RTVSPropertyOp38
 70
     1
102
RTVSPropertyOp39
 70
     1
102
RTVSPropertyOp40
 70
     1
102
RTVSPropertyOp41
 70
     1
102
RTVSPropertyOp42
 70
     1
102
RTVSPropertyOp43
 70
     1
102
RTVSPropertyOp44
 70
     1
102
RTVSPropertyOp45
 70
     1
102
RTVSPropertyOp46
 70
     1
102
RTVSPropertyOp47
 70
     1
102
RTVSPropertyOp48
 70
     1
102
RTVSPropertyOp49
 70
     1
102
RTVSPropertyOp50
 70
     1
102
RTVSPropertyOp51
 70
     0
102
RTVSPropertyOp52
 70
     0
102
RTVSPropertyOp53
 70
     1
102
RTVSPropertyOp54
 70
     1
102
RTVSPropertyOp55
 70
     1
102
RTVSPropertyOp56
 70
     1
102
RTVSPropertyOp57
 70
     1
102
RTVSPropertyOp58
 70
     1
102
RTVSPropertyOp59
 70
     1
102
RTVSPropertyOp60
 70
     1
102
RTVSPropertyOp61
 70
     1
102
RTVSPropertyOp62
 70
     1
  0
XRECORD
  5
35DB
102
{ACAD_REACTORS
330
35DA
102
}
330
35DA
100
AcDbXrecord
280
     1
102
RTVSPost2010Prop28
280
     0
102
RTVSPost2010PropOp28
 70
     1
102
RTVSPost2010Prop29
280
     1
102
RTVSPost2010PropOp29
 70
     1
102
RTVSPost2010Prop30
280
     1
102
RTVSPost2010PropOp30
 70
     1
102
RTVSPost2010Prop31
280
     0
102
RTVSPost2010PropOp31
 70
     1
102
RTVSPost2010Prop32
280
     0
102
RTVSPost2010PropOp32
 70
     1
102
RTVSPost2010Prop33
280
     0
102
RTVSPost2010PropOp33
 70
     1
102
RTVSPost2010Prop34
280
     0
102
RTVSPost2010PropOp34
 70
     1
102
RTVSPost2010Prop35
280
     0
102
RTVSPost2010PropOp35
 70
     1
102
RTVSPost2010Prop36
280
     0
102
RTVSPost2010PropOp36
 70
     1
102
RTVSPost2010Prop37
 90
       50
102
RTVSPost2010PropOp37
 70
     1
102
RTVSPost2010Prop38
140
0.0
102
RTVSPost2010PropOp38
 70
     1
102
RTVSPost2010Prop39
140
1.0
102
RTVSPost2010PropOp39
 70
     1
102
RTVSPost2010Prop40
 90
        0
102
RTVSPost2010PropOp40
 70
     1
102
RTVSPost2010Prop41ColorIndex
 90
       18
102
RTVSPost2010Prop41ColorRGB
 90
        0
102
RTVSPost2010PropOp41
 70
     1
102
RTVSPost2010Prop42
 90
       50
102
RTVSPost2010PropOp42
 70
     1
102
RTVSPost2010Prop43
 90
        3
102
RTVSPost2010PropOp43
 70
     1
102
RTVSPost2010Prop44ColorIndex
 90
        5
102
RTVSPost2010Prop44ColorRGB
 90
      255
102
RTVSPost2010PropOp44
 70
     1
102
RTVSPost2010Prop45
280
     0
102
RTVSPost2010PropOp45
 70
     1
102
RTVSPost2010Prop46
 90
       50
102
RTVSPost2010PropOp46
 70
     1
102
RTVSPost2010Prop47
 90
       50
102
RTVSPost2010PropOp47
 70
     1
102
RTVSPost2010Prop48
 90
       50
102
RTVSPost2010PropOp48
 70
     1
102
RTVSPost2010Prop49
280
     0
102
RTVSPost2010PropOp49
 70
     1
102
RTVSPost2010Prop50
 90
       50
102
RTVSPost2010PropOp50
 70
     1
102
RTVSPost2010Prop51ColorIndex
 90
      256
102
RTVSPost2010Prop51ColorRGB
 90
-16777216
102
RTVSPost2010PropOp51
 70
     0
102
RTVSPost2010Prop52
140
1.0
102
RTVSPost2010PropOp52
 70
     0
102
RTVSPost2010Prop53
 90
        2
102
RTVSPost2010PropOp53
 70
     1
102
RTVSPost2010Prop54
  1
strokes_ogs.tif
102
RTVSPost2010PropOp54
 70
     1
102
RTVSPost2010Prop55
280
     0
102
RTVSPost2010PropOp55
 70
     1
102
RTVSPost2010Prop56
140
1.0
102
RTVSPost2010PropOp56
 70
     1
102
RTVSPost2010Prop57
140
1.0
102
RTVSPost2010PropOp57
 70
     1
102
RTVSPropertyOp0
 70
     1
102
RTVSPropertyOp1
 70
     1
102
RTVSPropertyOp2
 70
     1
102
RTVSPropertyOp3
 70
     1
102
RTVSPropertyOp4
 70
     1
102
RTVSPropertyOp5
 70
     1
102
RTVSPropertyOp6
 70
     1
102
RTVSPropertyOp7
 70
     1
102
RTVSPropertyOp8
 70
     1
102
RTVSPropertyOp9
 70
     1
102
RTVSPropertyOp10
 70
     1
102
RTVSPropertyOp11
 70
     1
102
RTVSPropertyOp12
 70
     1
102
RTVSPropertyOp13
 70
     1
102
RTVSPropertyOp14
 70
     1
102
RTVSPropertyOp15
 70
     1
102
RTVSPropertyOp16
 70
     1
102
RTVSPropertyOp17
 70
     1
102
RTVSPropertyOp18
 70
     1
102
RTVSPropertyOp19
 70
     1
102
RTVSPropertyOp20
 70
     1
102
RTVSPropertyOp21
 70
     1
102
RTVSPropertyOp22
 70
     1
102
RTVSPropertyOp23
 70
     1
102
RTVSPropertyOp24
 70
     1
102
RTVSPropertyOp25
 70
     1
102
RTVSPropertyOp26
 70
     1
102
RTVSPropertyOp27
 70
     1
102
RTVSPropertyOp28
 70
     1
102
RTVSPropertyOp29
 70
     1
102
RTVSPropertyOp30
 70
     1
102
RTVSPropertyOp31
 70
     1
102
RTVSPropertyOp32
 70
     1
102
RTVSPropertyOp33
 70
     1
102
RTVSPropertyOp34
 70
     1
102
RTVSPropertyOp35
 70
     1
102
RTVSPropertyOp36
 70
     1
102
RTVSPropertyOp37
 70
     1
102
RTVSPropertyOp38
 70
     1
102
RTVSPropertyOp39
 70
     1
102
RTVSPropertyOp40
 70
     1
102
RTVSPropertyOp41
 70
     1
102
RTVSPropertyOp42
 70
     1
102
RTVSPropertyOp43
 70
     1
102
RTVSPropertyOp44
 70
     1
102
RTVSPropertyOp45
 70
     1
102
RTVSPropertyOp46
 70
     1
102
RTVSPropertyOp47
 70
     1
102
RTVSPropertyOp48
 70
     1
102
RTVSPropertyOp49
 70
     1
102
RTVSPropertyOp50
 70
     1
102
RTVSPropertyOp51
 70
     0
102
RTVSPropertyOp52
 70
     0
102
RTVSPropertyOp53
 70
     1
102
RTVSPropertyOp54
 70
     1
102
RTVSPropertyOp55
 70
     1
102
RTVSPropertyOp56
 70
     1
102
RTVSPropertyOp57
 70
     1
102
RTVSPropertyOp58
 70
     1
102
RTVSPropertyOp59
 70
     1
102
RTVSPropertyOp60
 70
     1
102
RTVSPropertyOp61
 70
     1
102
RTVSPropertyOp62
 70
     1
  0
XRECORD
  5
35F7
102
{ACAD_REACTORS
330
35F6
102
}
330
35F6
100
AcDbXrecord
280
     1
102
RTVSPost2010Prop28
280
     0
102
RTVSPost2010PropOp28
 70
     0
102
RTVSPost2010Prop29
280
     1
102
RTVSPost2010PropOp29
 70
     0
102
RTVSPost2010Prop30
280
     1
102
RTVSPost2010PropOp30
 70
     0
102
RTVSPost2010Prop31
280
     0
102
RTVSPost2010PropOp31
 70
     0
102
RTVSPost2010Prop32
280
     0
102
RTVSPost2010PropOp32
 70
     0
102
RTVSPost2010Prop33
280
     0
102
RTVSPost2010PropOp33
 70
     0
102
RTVSPost2010Prop34
280
     0
102
RTVSPost2010PropOp34
 70
     0
102
RTVSPost2010Prop35
280
     0
102
RTVSPost2010PropOp35
 70
     0
102
RTVSPost2010Prop36
280
     0
102
RTVSPost2010PropOp36
 70
     0
102
RTVSPost2010Prop37
 90
       50
102
RTVSPost2010PropOp37
 70
     0
102
RTVSPost2010Prop38
140
0.0
102
RTVSPost2010PropOp38
 70
     0
102
RTVSPost2010Prop39
140
1.0
102
RTVSPost2010PropOp39
 70
     0
102
RTVSPost2010Prop40
 90
        0
102
RTVSPost2010PropOp40
 70
     0
102
RTVSPost2010Prop41ColorIndex
 90
       18
102
RTVSPost2010Prop41ColorRGB
 90
        0
102
RTVSPost2010PropOp41
 70
     0
102
RTVSPost2010Prop42
 90
       50
102
RTVSPost2010PropOp42
 70
     0
102
RTVSPost2010Prop43
 90
        3
102
RTVSPost2010PropOp43
 70
     0
102
RTVSPost2010Prop44ColorIndex
 90
        5
102
RTVSPost2010Prop44ColorRGB
 90
      255
102
RTVSPost2010PropOp44
 70
     0
102
RTVSPost2010Prop45
280
     0
102
RTVSPost2010PropOp45
 70
     0
102
RTVSPost2010Prop46
 90
       50
102
RTVSPost2010PropOp46
 70
     0
102
RTVSPost2010Prop47
 90
       50
102
RTVSPost2010PropOp47
 70
     0
102
RTVSPost2010Prop48
 90
       50
102
RTVSPost2010PropOp48
 70
     0
102
RTVSPost2010Prop49
280
     0
102
RTVSPost2010PropOp49
 70
     0
102
RTVSPost2010Prop50
 90
       50
102
RTVSPost2010PropOp50
 70
     0
102
RTVSPost2010Prop51ColorIndex
 90
      256
102
RTVSPost2010Prop51ColorRGB
 90
-16777216
102
RTVSPost2010PropOp51
 70
     0
102
RTVSPost2010Prop52
140
1.0
102
RTVSPost2010PropOp52
 70
     0
102
RTVSPost2010Prop53
 90
        2
102
RTVSPost2010PropOp53
 70
     0
102
RTVSPost2010Prop54
  1
strokes_ogs.tif
102
RTVSPost2010PropOp54
 70
     0
102
RTVSPost2010Prop55
280
     0
102
RTVSPost2010PropOp55
 70
     0
102
RTVSPost2010Prop56
140
1.0
102
RTVSPost2010PropOp56
 70
     0
102
RTVSPost2010Prop57
140
1.0
102
RTVSPost2010PropOp57
 70
     0
102
RTVSPropertyOp0
 70
     0
102
RTVSPropertyOp1
 70
     0
102
RTVSPropertyOp2
 70
     0
102
RTVSPropertyOp3
 70
     0
102
RTVSPropertyOp4
 70
     0
102
RTVSPropertyOp5
 70
     0
102
RTVSPropertyOp6
 70
     0
102
RTVSPropertyOp7
 70
     0
102
RTVSPropertyOp8
 70
     0
102
RTVSPropertyOp9
 70
     0
102
RTVSPropertyOp10
 70
     0
102
RTVSPropertyOp11
 70
     0
102
RTVSPropertyOp12
 70
     0
102
RTVSPropertyOp13
 70
     0
102
RTVSPropertyOp14
 70
     2
102
RTVSPropertyOp15
 70
     0
102
RTVSPropertyOp16
 70
     0
102
RTVSPropertyOp17
 70
     0
102
RTVSPropertyOp18
 70
     0
102
RTVSPropertyOp19
 70
     0
102
RTVSPropertyOp20
 70
     0
102
RTVSPropertyOp21
 70
     0
102
RTVSPropertyOp22
 70
     0
102
RTVSPropertyOp23
 70
     0
102
RTVSPropertyOp24
 70
     0
102
RTVSPropertyOp25
 70
     0
102
RTVSPropertyOp26
 70
     0
102
RTVSPropertyOp27
 70
     0
102
RTVSPropertyOp28
 70
     0
102
RTVSPropertyOp29
 70
     0
102
RTVSPropertyOp30
 70
     0
102
RTVSPropertyOp31
 70
     0
102
RTVSPropertyOp32
 70
     0
102
RTVSPropertyOp33
 70
     0
102
RTVSPropertyOp34
 70
     0
102
RTVSPropertyOp35
 70
     0
102
RTVSPropertyOp36
 70
     0
102
RTVSPropertyOp37
 70
     0
102
RTVSPropertyOp38
 70
     0
102
RTVSPropertyOp39
 70
     0
102
RTVSPropertyOp40
 70
     0
102
RTVSPropertyOp41
 70
     0
102
RTVSPropertyOp42
 70
     0
102
RTVSPropertyOp43
 70
     0
102
RTVSPropertyOp44
 70
     0
102
RTVSPropertyOp45
 70
     0
102
RTVSPropertyOp46
 70
     0
102
RTVSPropertyOp47
 70
     0
102
RTVSPropertyOp48
 70
     0
102
RTVSPropertyOp49
 70
     0
102
RTVSPropertyOp50
 70
     0
102
RTVSPropertyOp51
 70
     0
102
RTVSPropertyOp52
 70
     0
102
RTVSPropertyOp53
 70
     0
102
RTVSPropertyOp54
 70
     0
102
RTVSPropertyOp55
 70
     0
102
RTVSPropertyOp56
 70
     0
102
RTVSPropertyOp57
 70
     0
102
RTVSPropertyOp58
 70
     0
102
RTVSPropertyOp59
 70
     0
102
RTVSPropertyOp60
 70
     0
102
RTVSPropertyOp61
 70
     0
102
RTVSPropertyOp62
 70
     0
  0
XRECORD
  5
35E7
102
{ACAD_REACTORS
330
35E6
102
}
330
35E6
100
AcDbXrecord
280
     1
102
RTVSPost2010Prop28
280
     0
102
RTVSPost2010PropOp28
 70
     1
102
RTVSPost2010Prop29
280
     1
102
RTVSPost2010PropOp29
 70
     1
102
RTVSPost2010Prop30
280
     1
102
RTVSPost2010PropOp30
 70
     1
102
RTVSPost2010Prop31
280
     0
102
RTVSPost2010PropOp31
 70
     1
102
RTVSPost2010Prop32
280
     0
102
RTVSPost2010PropOp32
 70
     1
102
RTVSPost2010Prop33
280
     0
102
RTVSPost2010PropOp33
 70
     1
102
RTVSPost2010Prop34
280
     0
102
RTVSPost2010PropOp34
 70
     1
102
RTVSPost2010Prop35
280
     0
102
RTVSPost2010PropOp35
 70
     1
102
RTVSPost2010Prop36
280
     0
102
RTVSPost2010PropOp36
 70
     1
102
RTVSPost2010Prop37
 90
       50
102
RTVSPost2010PropOp37
 70
     1
102
RTVSPost2010Prop38
140
0.0
102
RTVSPost2010PropOp38
 70
     1
102
RTVSPost2010Prop39
140
1.0
102
RTVSPost2010PropOp39
 70
     1
102
RTVSPost2010Prop40
 90
        0
102
RTVSPost2010PropOp40
 70
     1
102
RTVSPost2010Prop41ColorIndex
 90
       18
102
RTVSPost2010Prop41ColorRGB
 90
        0
102
RTVSPost2010PropOp41
 70
     1
102
RTVSPost2010Prop42
 90
       50
102
RTVSPost2010PropOp42
 70
     1
102
RTVSPost2010Prop43
 90
        3
102
RTVSPost2010PropOp43
 70
     1
102
RTVSPost2010Prop44ColorIndex
 90
        5
102
RTVSPost2010Prop44ColorRGB
 90
      255
102
RTVSPost2010PropOp44
 70
     1
102
RTVSPost2010Prop45
280
     0
102
RTVSPost2010PropOp45
 70
     1
102
RTVSPost2010Prop46
 90
       50
102
RTVSPost2010PropOp46
 70
     1
102
RTVSPost2010Prop47
 90
       50
102
RTVSPost2010PropOp47
 70
     1
102
RTVSPost2010Prop48
 90
       50
102
RTVSPost2010PropOp48
 70
     1
102
RTVSPost2010Prop49
280
     0
102
RTVSPost2010PropOp49
 70
     1
102
RTVSPost2010Prop50
 90
       50
102
RTVSPost2010PropOp50
 70
     1
102
RTVSPost2010Prop51ColorIndex
 90
      256
102
RTVSPost2010Prop51ColorRGB
 90
-16777216
102
RTVSPost2010PropOp51
 70
     0
102
RTVSPost2010Prop52
140
1.0
102
RTVSPost2010PropOp52
 70
     0
102
RTVSPost2010Prop53
 90
        2
102
RTVSPost2010PropOp53
 70
     1
102
RTVSPost2010Prop54
  1
strokes_ogs.tif
102
RTVSPost2010PropOp54
 70
     1
102
RTVSPost2010Prop55
280
     0
102
RTVSPost2010PropOp55
 70
     1
102
RTVSPost2010Prop56
140
1.0
102
RTVSPost2010PropOp56
 70
     1
102
RTVSPost2010Prop57
140
1.0
102
RTVSPost2010PropOp57
 70
     1
102
RTVSPropertyOp0
 70
     1
102
RTVSPropertyOp1
 70
     1
102
RTVSPropertyOp2
 70
     1
102
RTVSPropertyOp3
 70
     1
102
RTVSPropertyOp4
 70
     1
102
RTVSPropertyOp5
 70
     1
102
RTVSPropertyOp6
 70
     1
102
RTVSPropertyOp7
 70
     1
102
RTVSPropertyOp8
 70
     1
102
RTVSPropertyOp9
 70
     1
102
RTVSPropertyOp10
 70
     1
102
RTVSPropertyOp11
 70
     1
102
RTVSPropertyOp12
 70
     1
102
RTVSPropertyOp13
 70
     1
102
RTVSPropertyOp14
 70
     1
102
RTVSPropertyOp15
 70
     1
102
RTVSPropertyOp16
 70
     1
102
RTVSPropertyOp17
 70
     1
102
RTVSPropertyOp18
 70
     1
102
RTVSPropertyOp19
 70
     1
102
RTVSPropertyOp20
 70
     1
102
RTVSPropertyOp21
 70
     1
102
RTVSPropertyOp22
 70
     1
102
RTVSPropertyOp23
 70
     1
102
RTVSPropertyOp24
 70
     1
102
RTVSPropertyOp25
 70
     1
102
RTVSPropertyOp26
 70
     1
102
RTVSPropertyOp27
 70
     1
102
RTVSPropertyOp28
 70
     1
102
RTVSPropertyOp29
 70
     1
102
RTVSPropertyOp30
 70
     1
102
RTVSPropertyOp31
 70
     1
102
RTVSPropertyOp32
 70
     1
102
RTVSPropertyOp33
 70
     1
102
RTVSPropertyOp34
 70
     1
102
RTVSPropertyOp35
 70
     1
102
RTVSPropertyOp36
 70
     1
102
RTVSPropertyOp37
 70
     1
102
RTVSPropertyOp38
 70
     1
102
RTVSPropertyOp39
 70
     1
102
RTVSPropertyOp40
 70
     1
102
RTVSPropertyOp41
 70
     1
102
RTVSPropertyOp42
 70
     1
102
RTVSPropertyOp43
 70
     1
102
RTVSPropertyOp44
 70
     1
102
RTVSPropertyOp45
 70
     1
102
RTVSPropertyOp46
 70
     1
102
RTVSPropertyOp47
 70
     1
102
RTVSPropertyOp48
 70
     1
102
RTVSPropertyOp49
 70
     1
102
RTVSPropertyOp50
 70
     1
102
RTVSPropertyOp51
 70
     0
102
RTVSPropertyOp52
 70
     0
102
RTVSPropertyOp53
 70
     1
102
RTVSPropertyOp54
 70
     1
102
RTVSPropertyOp55
 70
     1
102
RTVSPropertyOp56
 70
     1
102
RTVSPropertyOp57
 70
     1
102
RTVSPropertyOp58
 70
     1
102
RTVSPropertyOp59
 70
     1
102
RTVSPropertyOp60
 70
     1
102
RTVSPropertyOp61
 70
     1
102
RTVSPropertyOp62
 70
     1
  0
XRECORD
  5
35F9
102
{ACAD_REACTORS
330
35F8
102
}
330
35F8
100
AcDbXrecord
280
     1
102
RTVSPost2010Prop28
280
     0
102
RTVSPost2010PropOp28
 70
     0
102
RTVSPost2010Prop29
280
     1
102
RTVSPost2010PropOp29
 70
     0
102
RTVSPost2010Prop30
280
     1
102
RTVSPost2010PropOp30
 70
     0
102
RTVSPost2010Prop31
280
     0
102
RTVSPost2010PropOp31
 70
     0
102
RTVSPost2010Prop32
280
     0
102
RTVSPost2010PropOp32
 70
     0
102
RTVSPost2010Prop33
280
     0
102
RTVSPost2010PropOp33
 70
     0
102
RTVSPost2010Prop34
280
     0
102
RTVSPost2010PropOp34
 70
     0
102
RTVSPost2010Prop35
280
     0
102
RTVSPost2010PropOp35
 70
     0
102
RTVSPost2010Prop36
280
     0
102
RTVSPost2010PropOp36
 70
     0
102
RTVSPost2010Prop37
 90
       50
102
RTVSPost2010PropOp37
 70
     0
102
RTVSPost2010Prop38
140
0.0
102
RTVSPost2010PropOp38
 70
     0
102
RTVSPost2010Prop39
140
1.0
102
RTVSPost2010PropOp39
 70
     0
102
RTVSPost2010Prop40
 90
        0
102
RTVSPost2010PropOp40
 70
     0
102
RTVSPost2010Prop41ColorIndex
 90
       18
102
RTVSPost2010Prop41ColorRGB
 90
        0
102
RTVSPost2010PropOp41
 70
     0
102
RTVSPost2010Prop42
 90
       50
102
RTVSPost2010PropOp42
 70
     0
102
RTVSPost2010Prop43
 90
        3
102
RTVSPost2010PropOp43
 70
     0
102
RTVSPost2010Prop44ColorIndex
 90
        5
102
RTVSPost2010Prop44ColorRGB
 90
      255
102
RTVSPost2010PropOp44
 70
     0
102
RTVSPost2010Prop45
280
     0
102
RTVSPost2010PropOp45
 70
     0
102
RTVSPost2010Prop46
 90
       50
102
RTVSPost2010PropOp46
 70
     0
102
RTVSPost2010Prop47
 90
       50
102
RTVSPost2010PropOp47
 70
     0
102
RTVSPost2010Prop48
 90
       50
102
RTVSPost2010PropOp48
 70
     0
102
RTVSPost2010Prop49
280
     0
102
RTVSPost2010PropOp49
 70
     0
102
RTVSPost2010Prop50
 90
       50
102
RTVSPost2010PropOp50
 70
     0
102
RTVSPost2010Prop51ColorIndex
 90
      256
102
RTVSPost2010Prop51ColorRGB
 90
-16777216
102
RTVSPost2010PropOp51
 70
     0
102
RTVSPost2010Prop52
140
1.0
102
RTVSPost2010PropOp52
 70
     0
102
RTVSPost2010Prop53
 90
        2
102
RTVSPost2010PropOp53
 70
     0
102
RTVSPost2010Prop54
  1
strokes_ogs.tif
102
RTVSPost2010PropOp54
 70
     0
102
RTVSPost2010Prop55
280
     0
102
RTVSPost2010PropOp55
 70
     0
102
RTVSPost2010Prop56
140
1.0
102
RTVSPost2010PropOp56
 70
     0
102
RTVSPost2010Prop57
140
1.0
102
RTVSPost2010PropOp57
 70
     0
102
RTVSPropertyOp0
 70
     0
102
RTVSPropertyOp1
 70
     0
102
RTVSPropertyOp2
 70
     0
102
RTVSPropertyOp3
 70
     0
102
RTVSPropertyOp4
 70
     0
102
RTVSPropertyOp5
 70
     0
102
RTVSPropertyOp6
 70
     0
102
RTVSPropertyOp7
 70
     0
102
RTVSPropertyOp8
 70
     0
102
RTVSPropertyOp9
 70
     0
102
RTVSPropertyOp10
 70
     0
102
RTVSPropertyOp11
 70
     0
102
RTVSPropertyOp12
 70
     0
102
RTVSPropertyOp13
 70
     0
102
RTVSPropertyOp14
 70
     2
102
RTVSPropertyOp15
 70
     0
102
RTVSPropertyOp16
 70
     0
102
RTVSPropertyOp17
 70
     0
102
RTVSPropertyOp18
 70
     0
102
RTVSPropertyOp19
 70
     0
102
RTVSPropertyOp20
 70
     0
102
RTVSPropertyOp21
 70
     0
102
RTVSPropertyOp22
 70
     0
102
RTVSPropertyOp23
 70
     0
102
RTVSPropertyOp24
 70
     0
102
RTVSPropertyOp25
 70
     0
102
RTVSPropertyOp26
 70
     0
102
RTVSPropertyOp27
 70
     0
102
RTVSPropertyOp28
 70
     0
102
RTVSPropertyOp29
 70
     0
102
RTVSPropertyOp30
 70
     0
102
RTVSPropertyOp31
 70
     0
102
RTVSPropertyOp32
 70
     0
102
RTVSPropertyOp33
 70
     0
102
RTVSPropertyOp34
 70
     0
102
RTVSPropertyOp35
 70
     0
102
RTVSPropertyOp36
 70
     0
102
RTVSPropertyOp37
 70
     0
102
RTVSPropertyOp38
 70
     0
102
RTVSPropertyOp39
 70
     0
102
RTVSPropertyOp40
 70
     0
102
RTVSPropertyOp41
 70
     0
102
RTVSPropertyOp42
 70
     0
102
RTVSPropertyOp43
 70
     0
102
RTVSPropertyOp44
 70
     0
102
RTVSPropertyOp45
 70
     0
102
RTVSPropertyOp46
 70
     0
102
RTVSPropertyOp47
 70
     0
102
RTVSPropertyOp48
 70
     0
102
RTVSPropertyOp49
 70
     0
102
RTVSPropertyOp50
 70
     0
102
RTVSPropertyOp51
 70
     0
102
RTVSPropertyOp52
 70
     0
102
RTVSPropertyOp53
 70
     0
102
RTVSPropertyOp54
 70
     0
102
RTVSPropertyOp55
 70
     0
102
RTVSPropertyOp56
 70
     0
102
RTVSPropertyOp57
 70
     0
102
RTVSPropertyOp58
 70
     0
102
RTVSPropertyOp59
 70
     0
102
RTVSPropertyOp60
 70
     0
102
RTVSPropertyOp61
 70
     0
102
RTVSPropertyOp62
 70
     0
  0
XRECORD
  5
35DF
102
{ACAD_REACTORS
330
35DE
102
}
330
35DE
100
AcDbXrecord
280
     1
102
RTVSPost2010Prop28
280
     0
102
RTVSPost2010PropOp28
 70
     1
102
RTVSPost2010Prop29
280
     1
102
RTVSPost2010PropOp29
 70
     1
102
RTVSPost2010Prop30
280
     1
102
RTVSPost2010PropOp30
 70
     1
102
RTVSPost2010Prop31
280
     0
102
RTVSPost2010PropOp31
 70
     1
102
RTVSPost2010Prop32
280
     0
102
RTVSPost2010PropOp32
 70
     1
102
RTVSPost2010Prop33
280
     0
102
RTVSPost2010PropOp33
 70
     1
102
RTVSPost2010Prop34
280
     0
102
RTVSPost2010PropOp34
 70
     1
102
RTVSPost2010Prop35
280
     0
102
RTVSPost2010PropOp35
 70
     1
102
RTVSPost2010Prop36
280
     0
102
RTVSPost2010PropOp36
 70
     1
102
RTVSPost2010Prop37
 90
       50
102
RTVSPost2010PropOp37
 70
     1
102
RTVSPost2010Prop38
140
0.0
102
RTVSPost2010PropOp38
 70
     1
102
RTVSPost2010Prop39
140
1.0
102
RTVSPost2010PropOp39
 70
     1
102
RTVSPost2010Prop40
 90
        0
102
RTVSPost2010PropOp40
 70
     1
102
RTVSPost2010Prop41ColorIndex
 90
       18
102
RTVSPost2010Prop41ColorRGB
 90
        0
102
RTVSPost2010PropOp41
 70
     1
102
RTVSPost2010Prop42
 90
       50
102
RTVSPost2010PropOp42
 70
     1
102
RTVSPost2010Prop43
 90
        3
102
RTVSPost2010PropOp43
 70
     1
102
RTVSPost2010Prop44ColorIndex
 90
        5
102
RTVSPost2010Prop44ColorRGB
 90
      255
102
RTVSPost2010PropOp44
 70
     1
102
RTVSPost2010Prop45
280
     0
102
RTVSPost2010PropOp45
 70
     1
102
RTVSPost2010Prop46
 90
       50
102
RTVSPost2010PropOp46
 70
     1
102
RTVSPost2010Prop47
 90
       50
102
RTVSPost2010PropOp47
 70
     1
102
RTVSPost2010Prop48
 90
       50
102
RTVSPost2010PropOp48
 70
     1
102
RTVSPost2010Prop49
280
     0
102
RTVSPost2010PropOp49
 70
     1
102
RTVSPost2010Prop50
 90
       50
102
RTVSPost2010PropOp50
 70
     1
102
RTVSPost2010Prop51ColorIndex
 90
      256
102
RTVSPost2010Prop51ColorRGB
 90
-16777216
102
RTVSPost2010PropOp51
 70
     0
102
RTVSPost2010Prop52
140
1.0
102
RTVSPost2010PropOp52
 70
     0
102
RTVSPost2010Prop53
 90
        2
102
RTVSPost2010PropOp53
 70
     1
102
RTVSPost2010Prop54
  1
strokes_ogs.tif
102
RTVSPost2010PropOp54
 70
     1
102
RTVSPost2010Prop55
280
     0
102
RTVSPost2010PropOp55
 70
     1
102
RTVSPost2010Prop56
140
1.0
102
RTVSPost2010PropOp56
 70
     1
102
RTVSPost2010Prop57
140
1.0
102
RTVSPost2010PropOp57
 70
     1
102
RTVSPropertyOp0
 70
     1
102
RTVSPropertyOp1
 70
     1
102
RTVSPropertyOp2
 70
     1
102
RTVSPropertyOp3
 70
     1
102
RTVSPropertyOp4
 70
     1
102
RTVSPropertyOp5
 70
     1
102
RTVSPropertyOp6
 70
     1
102
RTVSPropertyOp7
 70
     1
102
RTVSPropertyOp8
 70
     1
102
RTVSPropertyOp9
 70
     1
102
RTVSPropertyOp10
 70
     1
102
RTVSPropertyOp11
 70
     1
102
RTVSPropertyOp12
 70
     1
102
RTVSPropertyOp13
 70
     1
102
RTVSPropertyOp14
 70
     1
102
RTVSPropertyOp15
 70
     1
102
RTVSPropertyOp16
 70
     1
102
RTVSPropertyOp17
 70
     1
102
RTVSPropertyOp18
 70
     1
102
RTVSPropertyOp19
 70
     1
102
RTVSPropertyOp20
 70
     1
102
RTVSPropertyOp21
 70
     1
102
RTVSPropertyOp22
 70
     1
102
RTVSPropertyOp23
 70
     1
102
RTVSPropertyOp24
 70
     1
102
RTVSPropertyOp25
 70
     1
102
RTVSPropertyOp26
 70
     1
102
RTVSPropertyOp27
 70
     1
102
RTVSPropertyOp28
 70
     1
102
RTVSPropertyOp29
 70
     1
102
RTVSPropertyOp30
 70
     1
102
RTVSPropertyOp31
 70
     1
102
RTVSPropertyOp32
 70
     1
102
RTVSPropertyOp33
 70
     1
102
RTVSPropertyOp34
 70
     1
102
RTVSPropertyOp35
 70
     1
102
RTVSPropertyOp36
 70
     1
102
RTVSPropertyOp37
 70
     1
102
RTVSPropertyOp38
 70
     1
102
RTVSPropertyOp39
 70
     1
102
RTVSPropertyOp40
 70
     1
102
RTVSPropertyOp41
 70
     1
102
RTVSPropertyOp42
 70
     1
102
RTVSPropertyOp43
 70
     1
102
RTVSPropertyOp44
 70
     1
102
RTVSPropertyOp45
 70
     1
102
RTVSPropertyOp46
 70
     1
102
RTVSPropertyOp47
 70
     1
102
RTVSPropertyOp48
 70
     1
102
RTVSPropertyOp49
 70
     1
102
RTVSPropertyOp50
 70
     1
102
RTVSPropertyOp51
 70
     0
102
RTVSPropertyOp52
 70
     0
102
RTVSPropertyOp53
 70
     1
102
RTVSPropertyOp54
 70
     1
102
RTVSPropertyOp55
 70
     1
102
RTVSPropertyOp56
 70
     1
102
RTVSPropertyOp57
 70
     1
102
RTVSPropertyOp58
 70
     1
102
RTVSPropertyOp59
 70
     1
102
RTVSPropertyOp60
 70
     1
102
RTVSPropertyOp61
 70
     1
102
RTVSPropertyOp62
 70
     1
  0
XRECORD
  5
35F5
102
{ACAD_REACTORS
330
35F4
102
}
330
35F4
100
AcDbXrecord
280
     1
102
RTVSPost2010Prop28
280
     0
102
RTVSPost2010PropOp28
 70
     1
102
RTVSPost2010Prop29
280
     1
102
RTVSPost2010PropOp29
 70
     1
102
RTVSPost2010Prop30
280
     1
102
RTVSPost2010PropOp30
 70
     1
102
RTVSPost2010Prop31
280
     0
102
RTVSPost2010PropOp31
 70
     1
102
RTVSPost2010Prop32
280
     0
102
RTVSPost2010PropOp32
 70
     1
102
RTVSPost2010Prop33
280
     0
102
RTVSPost2010PropOp33
 70
     1
102
RTVSPost2010Prop34
280
     0
102
RTVSPost2010PropOp34
 70
     1
102
RTVSPost2010Prop35
280
     0
102
RTVSPost2010PropOp35
 70
     1
102
RTVSPost2010Prop36
280
     0
102
RTVSPost2010PropOp36
 70
     1
102
RTVSPost2010Prop37
 90
       50
102
RTVSPost2010PropOp37
 70
     1
102
RTVSPost2010Prop38
140
0.0
102
RTVSPost2010PropOp38
 70
     1
102
RTVSPost2010Prop39
140
1.0
102
RTVSPost2010PropOp39
 70
     1
102
RTVSPost2010Prop40
 90
        0
102
RTVSPost2010PropOp40
 70
     1
102
RTVSPost2010Prop41ColorIndex
 90
       18
102
RTVSPost2010Prop41ColorRGB
 90
        0
102
RTVSPost2010PropOp41
 70
     1
102
RTVSPost2010Prop42
 90
       50
102
RTVSPost2010PropOp42
 70
     1
102
RTVSPost2010Prop43
 90
        3
102
RTVSPost2010PropOp43
 70
     1
102
RTVSPost2010Prop44ColorIndex
 90
        5
102
RTVSPost2010Prop44ColorRGB
 90
      255
102
RTVSPost2010PropOp44
 70
     1
102
RTVSPost2010Prop45
280
     0
102
RTVSPost2010PropOp45
 70
     1
102
RTVSPost2010Prop46
 90
       50
102
RTVSPost2010PropOp46
 70
     1
102
RTVSPost2010Prop47
 90
       50
102
RTVSPost2010PropOp47
 70
     1
102
RTVSPost2010Prop48
 90
       50
102
RTVSPost2010PropOp48
 70
     1
102
RTVSPost2010Prop49
280
     0
102
RTVSPost2010PropOp49
 70
     1
102
RTVSPost2010Prop50
 90
       50
102
RTVSPost2010PropOp50
 70
     1
102
RTVSPost2010Prop51ColorIndex
 90
      256
102
RTVSPost2010Prop51ColorRGB
 90
-16777216
102
RTVSPost2010PropOp51
 70
     0
102
RTVSPost2010Prop52
140
1.0
102
RTVSPost2010PropOp52
 70
     0
102
RTVSPost2010Prop53
 90
        2
102
RTVSPost2010PropOp53
 70
     1
102
RTVSPost2010Prop54
  1
strokes_ogs.tif
102
RTVSPost2010PropOp54
 70
     1
102
RTVSPost2010Prop55
280
     0
102
RTVSPost2010PropOp55
 70
     1
102
RTVSPost2010Prop56
140
1.0
102
RTVSPost2010PropOp56
 70
     1
102
RTVSPost2010Prop57
140
1.0
102
RTVSPost2010PropOp57
 70
     1
102
RTVSPropertyOp0
 70
     1
102
RTVSPropertyOp1
 70
     1
102
RTVSPropertyOp2
 70
     1
102
RTVSPropertyOp3
 70
     1
102
RTVSPropertyOp4
 70
     1
102
RTVSPropertyOp5
 70
     1
102
RTVSPropertyOp6
 70
     1
102
RTVSPropertyOp7
 70
     1
102
RTVSPropertyOp8
 70
     1
102
RTVSPropertyOp9
 70
     1
102
RTVSPropertyOp10
 70
     1
102
RTVSPropertyOp11
 70
     1
102
RTVSPropertyOp12
 70
     1
102
RTVSPropertyOp13
 70
     1
102
RTVSPropertyOp14
 70
     1
102
RTVSPropertyOp15
 70
     1
102
RTVSPropertyOp16
 70
     1
102
RTVSPropertyOp17
 70
     1
102
RTVSPropertyOp18
 70
     1
102
RTVSPropertyOp19
 70
     1
102
RTVSPropertyOp20
 70
     1
102
RTVSPropertyOp21
 70
     1
102
RTVSPropertyOp22
 70
     1
102
RTVSPropertyOp23
 70
     1
102
RTVSPropertyOp24
 70
     1
102
RTVSPropertyOp25
 70
     1
102
RTVSPropertyOp26
 70
     1
102
RTVSPropertyOp27
 70
     1
102
RTVSPropertyOp28
 70
     1
102
RTVSPropertyOp29
 70
     1
102
RTVSPropertyOp30
 70
     1
102
RTVSPropertyOp31
 70
     1
102
RTVSPropertyOp32
 70
     1
102
RTVSPropertyOp33
 70
     1
102
RTVSPropertyOp34
 70
     1
102
RTVSPropertyOp35
 70
     1
102
RTVSPropertyOp36
 70
     1
102
RTVSPropertyOp37
 70
     1
102
RTVSPropertyOp38
 70
     1
102
RTVSPropertyOp39
 70
     1
102
RTVSPropertyOp40
 70
     1
102
RTVSPropertyOp41
 70
     1
102
RTVSPropertyOp42
 70
     1
102
RTVSPropertyOp43
 70
     1
102
RTVSPropertyOp44
 70
     1
102
RTVSPropertyOp45
 70
     1
102
RTVSPropertyOp46
 70
     1
102
RTVSPropertyOp47
 70
     1
102
RTVSPropertyOp48
 70
     1
102
RTVSPropertyOp49
 70
     1
102
RTVSPropertyOp50
 70
     1
102
RTVSPropertyOp51
 70
     0
102
RTVSPropertyOp52
 70
     0
102
RTVSPropertyOp53
 70
     1
102
RTVSPropertyOp54
 70
     1
102
RTVSPropertyOp55
 70
     1
102
RTVSPropertyOp56
 70
     1
102
RTVSPropertyOp57
 70
     1
102
RTVSPropertyOp58
 70
     1
102
RTVSPropertyOp59
 70
     1
102
RTVSPropertyOp60
 70
     1
102
RTVSPropertyOp61
 70
     1
102
RTVSPropertyOp62
 70
     1
  0
XRECORD
  5
35F3
102
{ACAD_REACTORS
330
35F2
102
}
330
35F2
100
AcDbXrecord
280
     1
102
RTVSPost2010Prop28
280
     0
102
RTVSPost2010PropOp28
 70
     1
102
RTVSPost2010Prop29
280
     1
102
RTVSPost2010PropOp29
 70
     1
102
RTVSPost2010Prop30
280
     1
102
RTVSPost2010PropOp30
 70
     1
102
RTVSPost2010Prop31
280
     0
102
RTVSPost2010PropOp31
 70
     1
102
RTVSPost2010Prop32
280
     0
102
RTVSPost2010PropOp32
 70
     1
102
RTVSPost2010Prop33
280
     0
102
RTVSPost2010PropOp33
 70
     1
102
RTVSPost2010Prop34
280
     0
102
RTVSPost2010PropOp34
 70
     1
102
RTVSPost2010Prop35
280
     0
102
RTVSPost2010PropOp35
 70
     1
102
RTVSPost2010Prop36
280
     0
102
RTVSPost2010PropOp36
 70
     1
102
RTVSPost2010Prop37
 90
       50
102
RTVSPost2010PropOp37
 70
     1
102
RTVSPost2010Prop38
140
0.0
102
RTVSPost2010PropOp38
 70
     1
102
RTVSPost2010Prop39
140
1.0
102
RTVSPost2010PropOp39
 70
     1
102
RTVSPost2010Prop40
 90
        0
102
RTVSPost2010PropOp40
 70
     1
102
RTVSPost2010Prop41ColorIndex
 90
       18
102
RTVSPost2010Prop41ColorRGB
 90
        0
102
RTVSPost2010PropOp41
 70
     1
102
RTVSPost2010Prop42
 90
       50
102
RTVSPost2010PropOp42
 70
     1
102
RTVSPost2010Prop43
 90
        3
102
RTVSPost2010PropOp43
 70
     1
102
RTVSPost2010Prop44ColorIndex
 90
        5
102
RTVSPost2010Prop44ColorRGB
 90
      255
102
RTVSPost2010PropOp44
 70
     1
102
RTVSPost2010Prop45
280
     0
102
RTVSPost2010PropOp45
 70
     1
102
RTVSPost2010Prop46
 90
       50
102
RTVSPost2010PropOp46
 70
     1
102
RTVSPost2010Prop47
 90
       50
102
RTVSPost2010PropOp47
 70
     1
102
RTVSPost2010Prop48
 90
       50
102
RTVSPost2010PropOp48
 70
     1
102
RTVSPost2010Prop49
280
     0
102
RTVSPost2010PropOp49
 70
     1
102
RTVSPost2010Prop50
 90
       50
102
RTVSPost2010PropOp50
 70
     1
102
RTVSPost2010Prop51ColorIndex
 90
      256
102
RTVSPost2010Prop51ColorRGB
 90
-16777216
102
RTVSPost2010PropOp51
 70
     0
102
RTVSPost2010Prop52
140
1.0
102
RTVSPost2010PropOp52
 70
     0
102
RTVSPost2010Prop53
 90
        2
102
RTVSPost2010PropOp53
 70
     1
102
RTVSPost2010Prop54
  1
strokes_ogs.tif
102
RTVSPost2010PropOp54
 70
     1
102
RTVSPost2010Prop55
280
     0
102
RTVSPost2010PropOp55
 70
     1
102
RTVSPost2010Prop56
140
1.0
102
RTVSPost2010PropOp56
 70
     1
102
RTVSPost2010Prop57
140
1.0
102
RTVSPost2010PropOp57
 70
     1
102
RTVSPropertyOp0
 70
     1
102
RTVSPropertyOp1
 70
     1
102
RTVSPropertyOp2
 70
     1
102
RTVSPropertyOp3
 70
     1
102
RTVSPropertyOp4
 70
     1
102
RTVSPropertyOp5
 70
     1
102
RTVSPropertyOp6
 70
     1
102
RTVSPropertyOp7
 70
     1
102
RTVSPropertyOp8
 70
     1
102
RTVSPropertyOp9
 70
     1
102
RTVSPropertyOp10
 70
     1
102
RTVSPropertyOp11
 70
     1
102
RTVSPropertyOp12
 70
     1
102
RTVSPropertyOp13
 70
     1
102
RTVSPropertyOp14
 70
     1
102
RTVSPropertyOp15
 70
     1
102
RTVSPropertyOp16
 70
     1
102
RTVSPropertyOp17
 70
     1
102
RTVSPropertyOp18
 70
     1
102
RTVSPropertyOp19
 70
     1
102
RTVSPropertyOp20
 70
     1
102
RTVSPropertyOp21
 70
     1
102
RTVSPropertyOp22
 70
     1
102
RTVSPropertyOp23
 70
     1
102
RTVSPropertyOp24
 70
     1
102
RTVSPropertyOp25
 70
     1
102
RTVSPropertyOp26
 70
     1
102
RTVSPropertyOp27
 70
     1
102
RTVSPropertyOp28
 70
     1
102
RTVSPropertyOp29
 70
     1
102
RTVSPropertyOp30
 70
     1
102
RTVSPropertyOp31
 70
     1
102
RTVSPropertyOp32
 70
     1
102
RTVSPropertyOp33
 70
     1
102
RTVSPropertyOp34
 70
     1
102
RTVSPropertyOp35
 70
     1
102
RTVSPropertyOp36
 70
     1
102
RTVSPropertyOp37
 70
     1
102
RTVSPropertyOp38
 70
     1
102
RTVSPropertyOp39
 70
     1
102
RTVSPropertyOp40
 70
     1
102
RTVSPropertyOp41
 70
     1
102
RTVSPropertyOp42
 70
     1
102
RTVSPropertyOp43
 70
     1
102
RTVSPropertyOp44
 70
     1
102
RTVSPropertyOp45
 70
     1
102
RTVSPropertyOp46
 70
     1
102
RTVSPropertyOp47
 70
     1
102
RTVSPropertyOp48
 70
     1
102
RTVSPropertyOp49
 70
     1
102
RTVSPropertyOp50
 70
     1
102
RTVSPropertyOp51
 70
     0
102
RTVSPropertyOp52
 70
     0
102
RTVSPropertyOp53
 70
     1
102
RTVSPropertyOp54
 70
     1
102
RTVSPropertyOp55
 70
     1
102
RTVSPropertyOp56
 70
     1
102
RTVSPropertyOp57
 70
     1
102
RTVSPropertyOp58
 70
     1
102
RTVSPropertyOp59
 70
     1
102
RTVSPropertyOp60
 70
     1
102
RTVSPropertyOp61
 70
     1
102
RTVSPropertyOp62
 70
     1
  0
XRECORD
  5
35ED
102
{ACAD_REACTORS
330
35EC
102
}
330
35EC
100
AcDbXrecord
280
     1
102
RTVSPost2010Prop28
280
     0
102
RTVSPost2010PropOp28
 70
     1
102
RTVSPost2010Prop29
280
     1
102
RTVSPost2010PropOp29
 70
     1
102
RTVSPost2010Prop30
280
     1
102
RTVSPost2010PropOp30
 70
     1
102
RTVSPost2010Prop31
280
     0
102
RTVSPost2010PropOp31
 70
     1
102
RTVSPost2010Prop32
280
     0
102
RTVSPost2010PropOp32
 70
     1
102
RTVSPost2010Prop33
280
     0
102
RTVSPost2010PropOp33
 70
     1
102
RTVSPost2010Prop34
280
     0
102
RTVSPost2010PropOp34
 70
     1
102
RTVSPost2010Prop35
280
     0
102
RTVSPost2010PropOp35
 70
     1
102
RTVSPost2010Prop36
280
     0
102
RTVSPost2010PropOp36
 70
     1
102
RTVSPost2010Prop37
 90
       50
102
RTVSPost2010PropOp37
 70
     1
102
RTVSPost2010Prop38
140
0.0
102
RTVSPost2010PropOp38
 70
     1
102
RTVSPost2010Prop39
140
1.0
102
RTVSPost2010PropOp39
 70
     1
102
RTVSPost2010Prop40
 90
        0
102
RTVSPost2010PropOp40
 70
     1
102
RTVSPost2010Prop41ColorIndex
 90
       18
102
RTVSPost2010Prop41ColorRGB
 90
        0
102
RTVSPost2010PropOp41
 70
     1
102
RTVSPost2010Prop42
 90
       50
102
RTVSPost2010PropOp42
 70
     1
102
RTVSPost2010Prop43
 90
        3
102
RTVSPost2010PropOp43
 70
     1
102
RTVSPost2010Prop44ColorIndex
 90
        5
102
RTVSPost2010Prop44ColorRGB
 90
      255
102
RTVSPost2010PropOp44
 70
     1
102
RTVSPost2010Prop45
280
     0
102
RTVSPost2010PropOp45
 70
     1
102
RTVSPost2010Prop46
 90
       50
102
RTVSPost2010PropOp46
 70
     1
102
RTVSPost2010Prop47
 90
       50
102
RTVSPost2010PropOp47
 70
     1
102
RTVSPost2010Prop48
 90
       50
102
RTVSPost2010PropOp48
 70
     1
102
RTVSPost2010Prop49
280
     0
102
RTVSPost2010PropOp49
 70
     1
102
RTVSPost2010Prop50
 90
       50
102
RTVSPost2010PropOp50
 70
     1
102
RTVSPost2010Prop51ColorIndex
 90
      256
102
RTVSPost2010Prop51ColorRGB
 90
-16777216
102
RTVSPost2010PropOp51
 70
     0
102
RTVSPost2010Prop52
140
1.0
102
RTVSPost2010PropOp52
 70
     0
102
RTVSPost2010Prop53
 90
        2
102
RTVSPost2010PropOp53
 70
     1
102
RTVSPost2010Prop54
  1
strokes_ogs.tif
102
RTVSPost2010PropOp54
 70
     1
102
RTVSPost2010Prop55
280
     0
102
RTVSPost2010PropOp55
 70
     1
102
RTVSPost2010Prop56
140
1.0
102
RTVSPost2010PropOp56
 70
     1
102
RTVSPost2010Prop57
140
1.0
102
RTVSPost2010PropOp57
 70
     1
102
RTVSPropertyOp0
 70
     1
102
RTVSPropertyOp1
 70
     1
102
RTVSPropertyOp2
 70
     1
102
RTVSPropertyOp3
 70
     1
102
RTVSPropertyOp4
 70
     1
102
RTVSPropertyOp5
 70
     1
102
RTVSPropertyOp6
 70
     1
102
RTVSPropertyOp7
 70
     1
102
RTVSPropertyOp8
 70
     1
102
RTVSPropertyOp9
 70
     1
102
RTVSPropertyOp10
 70
     1
102
RTVSPropertyOp11
 70
     1
102
RTVSPropertyOp12
 70
     1
102
RTVSPropertyOp13
 70
     1
102
RTVSPropertyOp14
 70
     1
102
RTVSPropertyOp15
 70
     1
102
RTVSPropertyOp16
 70
     1
102
RTVSPropertyOp17
 70
     1
102
RTVSPropertyOp18
 70
     1
102
RTVSPropertyOp19
 70
     1
102
RTVSPropertyOp20
 70
     1
102
RTVSPropertyOp21
 70
     1
102
RTVSPropertyOp22
 70
     1
102
RTVSPropertyOp23
 70
     1
102
RTVSPropertyOp24
 70
     1
102
RTVSPropertyOp25
 70
     1
102
RTVSPropertyOp26
 70
     1
102
RTVSPropertyOp27
 70
     1
102
RTVSPropertyOp28
 70
     1
102
RTVSPropertyOp29
 70
     1
102
RTVSPropertyOp30
 70
     1
102
RTVSPropertyOp31
 70
     1
102
RTVSPropertyOp32
 70
     1
102
RTVSPropertyOp33
 70
     1
102
RTVSPropertyOp34
 70
     1
102
RTVSPropertyOp35
 70
     1
102
RTVSPropertyOp36
 70
     1
102
RTVSPropertyOp37
 70
     1
102
RTVSPropertyOp38
 70
     1
102
RTVSPropertyOp39
 70
     1
102
RTVSPropertyOp40
 70
     1
102
RTVSPropertyOp41
 70
     1
102
RTVSPropertyOp42
 70
     1
102
RTVSPropertyOp43
 70
     1
102
RTVSPropertyOp44
 70
     1
102
RTVSPropertyOp45
 70
     1
102
RTVSPropertyOp46
 70
     1
102
RTVSPropertyOp47
 70
     1
102
RTVSPropertyOp48
 70
     1
102
RTVSPropertyOp49
 70
     1
102
RTVSPropertyOp50
 70
     1
102
RTVSPropertyOp51
 70
     0
102
RTVSPropertyOp52
 70
     0
102
RTVSPropertyOp53
 70
     1
102
RTVSPropertyOp54
 70
     1
102
RTVSPropertyOp55
 70
     1
102
RTVSPropertyOp56
 70
     1
102
RTVSPropertyOp57
 70
     1
102
RTVSPropertyOp58
 70
     1
102
RTVSPropertyOp59
 70
     1
102
RTVSPropertyOp60
 70
     1
102
RTVSPropertyOp61
 70
     1
102
RTVSPropertyOp62
 70
     1
  0
XRECORD
  5
35EF
102
{ACAD_REACTORS
330
35EE
102
}
330
35EE
100
AcDbXrecord
280
     1
102
RTVSPost2010Prop28
280
     0
102
RTVSPost2010PropOp28
 70
     1
102
RTVSPost2010Prop29
280
     1
102
RTVSPost2010PropOp29
 70
     1
102
RTVSPost2010Prop30
280
     1
102
RTVSPost2010PropOp30
 70
     1
102
RTVSPost2010Prop31
280
     0
102
RTVSPost2010PropOp31
 70
     1
102
RTVSPost2010Prop32
280
     0
102
RTVSPost2010PropOp32
 70
     1
102
RTVSPost2010Prop33
280
     0
102
RTVSPost2010PropOp33
 70
     1
102
RTVSPost2010Prop34
280
     0
102
RTVSPost2010PropOp34
 70
     1
102
RTVSPost2010Prop35
280
     0
102
RTVSPost2010PropOp35
 70
     1
102
RTVSPost2010Prop36
280
     0
102
RTVSPost2010PropOp36
 70
     1
102
RTVSPost2010Prop37
 90
       50
102
RTVSPost2010PropOp37
 70
     1
102
RTVSPost2010Prop38
140
0.0
102
RTVSPost2010PropOp38
 70
     1
102
RTVSPost2010Prop39
140
1.0
102
RTVSPost2010PropOp39
 70
     1
102
RTVSPost2010Prop40
 90
        0
102
RTVSPost2010PropOp40
 70
     1
102
RTVSPost2010Prop41ColorIndex
 90
       18
102
RTVSPost2010Prop41ColorRGB
 90
        0
102
RTVSPost2010PropOp41
 70
     1
102
RTVSPost2010Prop42
 90
       50
102
RTVSPost2010PropOp42
 70
     1
102
RTVSPost2010Prop43
 90
        3
102
RTVSPost2010PropOp43
 70
     1
102
RTVSPost2010Prop44ColorIndex
 90
        5
102
RTVSPost2010Prop44ColorRGB
 90
      255
102
RTVSPost2010PropOp44
 70
     1
102
RTVSPost2010Prop45
280
     0
102
RTVSPost2010PropOp45
 70
     1
102
RTVSPost2010Prop46
 90
       50
102
RTVSPost2010PropOp46
 70
     1
102
RTVSPost2010Prop47
 90
       50
102
RTVSPost2010PropOp47
 70
     1
102
RTVSPost2010Prop48
 90
       50
102
RTVSPost2010PropOp48
 70
     1
102
RTVSPost2010Prop49
280
     0
102
RTVSPost2010PropOp49
 70
     1
102
RTVSPost2010Prop50
 90
       50
102
RTVSPost2010PropOp50
 70
     1
102
RTVSPost2010Prop51ColorIndex
 90
      256
102
RTVSPost2010Prop51ColorRGB
 90
-16777216
102
RTVSPost2010PropOp51
 70
     0
102
RTVSPost2010Prop52
140
1.0
102
RTVSPost2010PropOp52
 70
     0
102
RTVSPost2010Prop53
 90
        2
102
RTVSPost2010PropOp53
 70
     1
102
RTVSPost2010Prop54
  1
strokes_ogs.tif
102
RTVSPost2010PropOp54
 70
     1
102
RTVSPost2010Prop55
280
     0
102
RTVSPost2010PropOp55
 70
     1
102
RTVSPost2010Prop56
140
1.0
102
RTVSPost2010PropOp56
 70
     1
102
RTVSPost2010Prop57
140
1.0
102
RTVSPost2010PropOp57
 70
     1
102
RTVSPropertyOp0
 70
     1
102
RTVSPropertyOp1
 70
     1
102
RTVSPropertyOp2
 70
     1
102
RTVSPropertyOp3
 70
     1
102
RTVSPropertyOp4
 70
     1
102
RTVSPropertyOp5
 70
     1
102
RTVSPropertyOp6
 70
     1
102
RTVSPropertyOp7
 70
     1
102
RTVSPropertyOp8
 70
     1
102
RTVSPropertyOp9
 70
     1
102
RTVSPropertyOp10
 70
     1
102
RTVSPropertyOp11
 70
     1
102
RTVSPropertyOp12
 70
     1
102
RTVSPropertyOp13
 70
     1
102
RTVSPropertyOp14
 70
     1
102
RTVSPropertyOp15
 70
     1
102
RTVSPropertyOp16
 70
     1
102
RTVSPropertyOp17
 70
     1
102
RTVSPropertyOp18
 70
     1
102
RTVSPropertyOp19
 70
     1
102
RTVSPropertyOp20
 70
     1
102
RTVSPropertyOp21
 70
     1
102
RTVSPropertyOp22
 70
     1
102
RTVSPropertyOp23
 70
     1
102
RTVSPropertyOp24
 70
     1
102
RTVSPropertyOp25
 70
     1
102
RTVSPropertyOp26
 70
     1
102
RTVSPropertyOp27
 70
     1
102
RTVSPropertyOp28
 70
     1
102
RTVSPropertyOp29
 70
     1
102
RTVSPropertyOp30
 70
     1
102
RTVSPropertyOp31
 70
     1
102
RTVSPropertyOp32
 70
     1
102
RTVSPropertyOp33
 70
     1
102
RTVSPropertyOp34
 70
     1
102
RTVSPropertyOp35
 70
     1
102
RTVSPropertyOp36
 70
     1
102
RTVSPropertyOp37
 70
     1
102
RTVSPropertyOp38
 70
     1
102
RTVSPropertyOp39
 70
     1
102
RTVSPropertyOp40
 70
     1
102
RTVSPropertyOp41
 70
     1
102
RTVSPropertyOp42
 70
     1
102
RTVSPropertyOp43
 70
     1
102
RTVSPropertyOp44
 70
     1
102
RTVSPropertyOp45
 70
     1
102
RTVSPropertyOp46
 70
     1
102
RTVSPropertyOp47
 70
     1
102
RTVSPropertyOp48
 70
     1
102
RTVSPropertyOp49
 70
     1
102
RTVSPropertyOp50
 70
     1
102
RTVSPropertyOp51
 70
     0
102
RTVSPropertyOp52
 70
     0
102
RTVSPropertyOp53
 70
     1
102
RTVSPropertyOp54
 70
     1
102
RTVSPropertyOp55
 70
     1
102
RTVSPropertyOp56
 70
     1
102
RTVSPropertyOp57
 70
     1
102
RTVSPropertyOp58
 70
     1
102
RTVSPropertyOp59
 70
     1
102
RTVSPropertyOp60
 70
     1
102
RTVSPropertyOp61
 70
     1
102
RTVSPropertyOp62
 70
     1
  0
XRECORD
  5
35E5
102
{ACAD_REACTORS
330
35E4
102
}
330
35E4
100
AcDbXrecord
280
     1
102
RTVSPost2010Prop28
280
     0
102
RTVSPost2010PropOp28
 70
     1
102
RTVSPost2010Prop29
280
     1
102
RTVSPost2010PropOp29
 70
     1
102
RTVSPost2010Prop30
280
     1
102
RTVSPost2010PropOp30
 70
     1
102
RTVSPost2010Prop31
280
     0
102
RTVSPost2010PropOp31
 70
     1
102
RTVSPost2010Prop32
280
     0
102
RTVSPost2010PropOp32
 70
     1
102
RTVSPost2010Prop33
280
     0
102
RTVSPost2010PropOp33
 70
     1
102
RTVSPost2010Prop34
280
     0
102
RTVSPost2010PropOp34
 70
     1
102
RTVSPost2010Prop35
280
     0
102
RTVSPost2010PropOp35
 70
     1
102
RTVSPost2010Prop36
280
     0
102
RTVSPost2010PropOp36
 70
     1
102
RTVSPost2010Prop37
 90
       50
102
RTVSPost2010PropOp37
 70
     1
102
RTVSPost2010Prop38
140
0.0
102
RTVSPost2010PropOp38
 70
     1
102
RTVSPost2010Prop39
140
1.0
102
RTVSPost2010PropOp39
 70
     1
102
RTVSPost2010Prop40
 90
        0
102
RTVSPost2010PropOp40
 70
     1
102
RTVSPost2010Prop41ColorIndex
 90
       18
102
RTVSPost2010Prop41ColorRGB
 90
        0
102
RTVSPost2010PropOp41
 70
     1
102
RTVSPost2010Prop42
 90
       50
102
RTVSPost2010PropOp42
 70
     1
102
RTVSPost2010Prop43
 90
        3
102
RTVSPost2010PropOp43
 70
     1
102
RTVSPost2010Prop44ColorIndex
 90
        5
102
RTVSPost2010Prop44ColorRGB
 90
      255
102
RTVSPost2010PropOp44
 70
     1
102
RTVSPost2010Prop45
280
     0
102
RTVSPost2010PropOp45
 70
     1
102
RTVSPost2010Prop46
 90
       50
102
RTVSPost2010PropOp46
 70
     1
102
RTVSPost2010Prop47
 90
       50
102
RTVSPost2010PropOp47
 70
     1
102
RTVSPost2010Prop48
 90
       50
102
RTVSPost2010PropOp48
 70
     1
102
RTVSPost2010Prop49
280
     0
102
RTVSPost2010PropOp49
 70
     1
102
RTVSPost2010Prop50
 90
       50
102
RTVSPost2010PropOp50
 70
     1
102
RTVSPost2010Prop51ColorIndex
 90
      256
102
RTVSPost2010Prop51ColorRGB
 90
-16777216
102
RTVSPost2010PropOp51
 70
     0
102
RTVSPost2010Prop52
140
1.0
102
RTVSPost2010PropOp52
 70
     0
102
RTVSPost2010Prop53
 90
        2
102
RTVSPost2010PropOp53
 70
     1
102
RTVSPost2010Prop54
  1
strokes_ogs.tif
102
RTVSPost2010PropOp54
 70
     1
102
RTVSPost2010Prop55
280
     0
102
RTVSPost2010PropOp55
 70
     1
102
RTVSPost2010Prop56
140
1.0
102
RTVSPost2010PropOp56
 70
     1
102
RTVSPost2010Prop57
140
1.0
102
RTVSPost2010PropOp57
 70
     1
102
RTVSPropertyOp0
 70
     1
102
RTVSPropertyOp1
 70
     1
102
RTVSPropertyOp2
 70
     1
102
RTVSPropertyOp3
 70
     1
102
RTVSPropertyOp4
 70
     1
102
RTVSPropertyOp5
 70
     1
102
RTVSPropertyOp6
 70
     1
102
RTVSPropertyOp7
 70
     1
102
RTVSPropertyOp8
 70
     1
102
RTVSPropertyOp9
 70
     1
102
RTVSPropertyOp10
 70
     1
102
RTVSPropertyOp11
 70
     1
102
RTVSPropertyOp12
 70
     1
102
RTVSPropertyOp13
 70
     1
102
RTVSPropertyOp14
 70
     1
102
RTVSPropertyOp15
 70
     1
102
RTVSPropertyOp16
 70
     1
102
RTVSPropertyOp17
 70
     1
102
RTVSPropertyOp18
 70
     1
102
RTVSPropertyOp19
 70
     1
102
RTVSPropertyOp20
 70
     1
102
RTVSPropertyOp21
 70
     1
102
RTVSPropertyOp22
 70
     1
102
RTVSPropertyOp23
 70
     1
102
RTVSPropertyOp24
 70
     1
102
RTVSPropertyOp25
 70
     1
102
RTVSPropertyOp26
 70
     1
102
RTVSPropertyOp27
 70
     1
102
RTVSPropertyOp28
 70
     1
102
RTVSPropertyOp29
 70
     1
102
RTVSPropertyOp30
 70
     1
102
RTVSPropertyOp31
 70
     1
102
RTVSPropertyOp32
 70
     1
102
RTVSPropertyOp33
 70
     1
102
RTVSPropertyOp34
 70
     1
102
RTVSPropertyOp35
 70
     1
102
RTVSPropertyOp36
 70
     1
102
RTVSPropertyOp37
 70
     1
102
RTVSPropertyOp38
 70
     1
102
RTVSPropertyOp39
 70
     1
102
RTVSPropertyOp40
 70
     1
102
RTVSPropertyOp41
 70
     1
102
RTVSPropertyOp42
 70
     1
102
RTVSPropertyOp43
 70
     1
102
RTVSPropertyOp44
 70
     1
102
RTVSPropertyOp45
 70
     1
102
RTVSPropertyOp46
 70
     1
102
RTVSPropertyOp47
 70
     1
102
RTVSPropertyOp48
 70
     1
102
RTVSPropertyOp49
 70
     1
102
RTVSPropertyOp50
 70
     1
102
RTVSPropertyOp51
 70
     0
102
RTVSPropertyOp52
 70
     0
102
RTVSPropertyOp53
 70
     1
102
RTVSPropertyOp54
 70
     1
102
RTVSPropertyOp55
 70
     1
102
RTVSPropertyOp56
 70
     1
102
RTVSPropertyOp57
 70
     1
102
RTVSPropertyOp58
 70
     1
102
RTVSPropertyOp59
 70
     1
102
RTVSPropertyOp60
 70
     1
102
RTVSPropertyOp61
 70
     1
102
RTVSPropertyOp62
 70
     1
  0
XRECORD
  5
35D9
102
{ACAD_REACTORS
330
35D8
102
}
330
35D8
100
AcDbXrecord
280
     1
102
RTVSPost2010Prop28
280
     0
102
RTVSPost2010PropOp28
 70
     1
102
RTVSPost2010Prop29
280
     1
102
RTVSPost2010PropOp29
 70
     1
102
RTVSPost2010Prop30
280
     1
102
RTVSPost2010PropOp30
 70
     1
102
RTVSPost2010Prop31
280
     0
102
RTVSPost2010PropOp31
 70
     1
102
RTVSPost2010Prop32
280
     0
102
RTVSPost2010PropOp32
 70
     1
102
RTVSPost2010Prop33
280
     0
102
RTVSPost2010PropOp33
 70
     1
102
RTVSPost2010Prop34
280
     0
102
RTVSPost2010PropOp34
 70
     1
102
RTVSPost2010Prop35
280
     0
102
RTVSPost2010PropOp35
 70
     1
102
RTVSPost2010Prop36
280
     0
102
RTVSPost2010PropOp36
 70
     1
102
RTVSPost2010Prop37
 90
       50
102
RTVSPost2010PropOp37
 70
     1
102
RTVSPost2010Prop38
140
0.0
102
RTVSPost2010PropOp38
 70
     1
102
RTVSPost2010Prop39
140
1.0
102
RTVSPost2010PropOp39
 70
     1
102
RTVSPost2010Prop40
 90
        0
102
RTVSPost2010PropOp40
 70
     1
102
RTVSPost2010Prop41ColorIndex
 90
       18
102
RTVSPost2010Prop41ColorRGB
 90
        0
102
RTVSPost2010PropOp41
 70
     1
102
RTVSPost2010Prop42
 90
       50
102
RTVSPost2010PropOp42
 70
     1
102
RTVSPost2010Prop43
 90
        3
102
RTVSPost2010PropOp43
 70
     1
102
RTVSPost2010Prop44ColorIndex
 90
        5
102
RTVSPost2010Prop44ColorRGB
 90
      255
102
RTVSPost2010PropOp44
 70
     1
102
RTVSPost2010Prop45
280
     0
102
RTVSPost2010PropOp45
 70
     1
102
RTVSPost2010Prop46
 90
       50
102
RTVSPost2010PropOp46
 70
     1
102
RTVSPost2010Prop47
 90
       50
102
RTVSPost2010PropOp47
 70
     1
102
RTVSPost2010Prop48
 90
       50
102
RTVSPost2010PropOp48
 70
     1
102
RTVSPost2010Prop49
280
     0
102
RTVSPost2010PropOp49
 70
     1
102
RTVSPost2010Prop50
 90
       50
102
RTVSPost2010PropOp50
 70
     1
102
RTVSPost2010Prop51ColorIndex
 90
      256
102
RTVSPost2010Prop51ColorRGB
 90
-16777216
102
RTVSPost2010PropOp51
 70
     0
102
RTVSPost2010Prop52
140
1.0
102
RTVSPost2010PropOp52
 70
     0
102
RTVSPost2010Prop53
 90
        2
102
RTVSPost2010PropOp53
 70
     1
102
RTVSPost2010Prop54
  1
strokes_ogs.tif
102
RTVSPost2010PropOp54
 70
     1
102
RTVSPost2010Prop55
280
     0
102
RTVSPost2010PropOp55
 70
     1
102
RTVSPost2010Prop56
140
1.0
102
RTVSPost2010PropOp56
 70
     1
102
RTVSPost2010Prop57
140
1.0
102
RTVSPost2010PropOp57
 70
     1
102
RTVSPropertyOp0
 70
     1
102
RTVSPropertyOp1
 70
     1
102
RTVSPropertyOp2
 70
     1
102
RTVSPropertyOp3
 70
     1
102
RTVSPropertyOp4
 70
     1
102
RTVSPropertyOp5
 70
     1
102
RTVSPropertyOp6
 70
     1
102
RTVSPropertyOp7
 70
     1
102
RTVSPropertyOp8
 70
     1
102
RTVSPropertyOp9
 70
     1
102
RTVSPropertyOp10
 70
     1
102
RTVSPropertyOp11
 70
     1
102
RTVSPropertyOp12
 70
     1
102
RTVSPropertyOp13
 70
     1
102
RTVSPropertyOp14
 70
     1
102
RTVSPropertyOp15
 70
     1
102
RTVSPropertyOp16
 70
     1
102
RTVSPropertyOp17
 70
     1
102
RTVSPropertyOp18
 70
     1
102
RTVSPropertyOp19
 70
     1
102
RTVSPropertyOp20
 70
     1
102
RTVSPropertyOp21
 70
     1
102
RTVSPropertyOp22
 70
     1
102
RTVSPropertyOp23
 70
     1
102
RTVSPropertyOp24
 70
     1
102
RTVSPropertyOp25
 70
     1
102
RTVSPropertyOp26
 70
     1
102
RTVSPropertyOp27
 70
     1
102
RTVSPropertyOp28
 70
     1
102
RTVSPropertyOp29
 70
     1
102
RTVSPropertyOp30
 70
     1
102
RTVSPropertyOp31
 70
     1
102
RTVSPropertyOp32
 70
     1
102
RTVSPropertyOp33
 70
     1
102
RTVSPropertyOp34
 70
     1
102
RTVSPropertyOp35
 70
     1
102
RTVSPropertyOp36
 70
     1
102
RTVSPropertyOp37
 70
     1
102
RTVSPropertyOp38
 70
     1
102
RTVSPropertyOp39
 70
     1
102
RTVSPropertyOp40
 70
     1
102
RTVSPropertyOp41
 70
     1
102
RTVSPropertyOp42
 70
     1
102
RTVSPropertyOp43
 70
     1
102
RTVSPropertyOp44
 70
     1
102
RTVSPropertyOp45
 70
     1
102
RTVSPropertyOp46
 70
     1
102
RTVSPropertyOp47
 70
     1
102
RTVSPropertyOp48
 70
     1
102
RTVSPropertyOp49
 70
     1
102
RTVSPropertyOp50
 70
     1
102
RTVSPropertyOp51
 70
     0
102
RTVSPropertyOp52
 70
     0
102
RTVSPropertyOp53
 70
     1
102
RTVSPropertyOp54
 70
     1
102
RTVSPropertyOp55
 70
     1
102
RTVSPropertyOp56
 70
     1
102
RTVSPropertyOp57
 70
     1
102
RTVSPropertyOp58
 70
     1
102
RTVSPropertyOp59
 70
     1
102
RTVSPropertyOp60
 70
     1
102
RTVSPropertyOp61
 70
     1
102
RTVSPropertyOp62
 70
     1
  0
XRECORD
  5
35F1
102
{ACAD_REACTORS
330
35F0
102
}
330
35F0
100
AcDbXrecord
280
     1
102
RTVSPost2010Prop28
280
     0
102
RTVSPost2010PropOp28
 70
     1
102
RTVSPost2010Prop29
280
     1
102
RTVSPost2010PropOp29
 70
     1
102
RTVSPost2010Prop30
280
     1
102
RTVSPost2010PropOp30
 70
     1
102
RTVSPost2010Prop31
280
     0
102
RTVSPost2010PropOp31
 70
     1
102
RTVSPost2010Prop32
280
     0
102
RTVSPost2010PropOp32
 70
     1
102
RTVSPost2010Prop33
280
     0
102
RTVSPost2010PropOp33
 70
     1
102
RTVSPost2010Prop34
280
     0
102
RTVSPost2010PropOp34
 70
     1
102
RTVSPost2010Prop35
280
     0
102
RTVSPost2010PropOp35
 70
     1
102
RTVSPost2010Prop36
280
     0
102
RTVSPost2010PropOp36
 70
     1
102
RTVSPost2010Prop37
 90
       50
102
RTVSPost2010PropOp37
 70
     1
102
RTVSPost2010Prop38
140
0.0
102
RTVSPost2010PropOp38
 70
     1
102
RTVSPost2010Prop39
140
1.0
102
RTVSPost2010PropOp39
 70
     1
102
RTVSPost2010Prop40
 90
        0
102
RTVSPost2010PropOp40
 70
     1
102
RTVSPost2010Prop41ColorIndex
 90
       18
102
RTVSPost2010Prop41ColorRGB
 90
        0
102
RTVSPost2010PropOp41
 70
     1
102
RTVSPost2010Prop42
 90
       50
102
RTVSPost2010PropOp42
 70
     1
102
RTVSPost2010Prop43
 90
        3
102
RTVSPost2010PropOp43
 70
     1
102
RTVSPost2010Prop44ColorIndex
 90
        5
102
RTVSPost2010Prop44ColorRGB
 90
      255
102
RTVSPost2010PropOp44
 70
     1
102
RTVSPost2010Prop45
280
     0
102
RTVSPost2010PropOp45
 70
     1
102
RTVSPost2010Prop46
 90
       50
102
RTVSPost2010PropOp46
 70
     1
102
RTVSPost2010Prop47
 90
       50
102
RTVSPost2010PropOp47
 70
     1
102
RTVSPost2010Prop48
 90
       50
102
RTVSPost2010PropOp48
 70
     1
102
RTVSPost2010Prop49
280
     0
102
RTVSPost2010PropOp49
 70
     1
102
RTVSPost2010Prop50
 90
       50
102
RTVSPost2010PropOp50
 70
     1
102
RTVSPost2010Prop51ColorIndex
 90
      256
102
RTVSPost2010Prop51ColorRGB
 90
-16777216
102
RTVSPost2010PropOp51
 70
     0
102
RTVSPost2010Prop52
140
1.0
102
RTVSPost2010PropOp52
 70
     0
102
RTVSPost2010Prop53
 90
        2
102
RTVSPost2010PropOp53
 70
     1
102
RTVSPost2010Prop54
  1
strokes_ogs.tif
102
RTVSPost2010PropOp54
 70
     1
102
RTVSPost2010Prop55
280
     0
102
RTVSPost2010PropOp55
 70
     1
102
RTVSPost2010Prop56
140
1.0
102
RTVSPost2010PropOp56
 70
     1
102
RTVSPost2010Prop57
140
1.0
102
RTVSPost2010PropOp57
 70
     1
102
RTVSPropertyOp0
 70
     1
102
RTVSPropertyOp1
 70
     1
102
RTVSPropertyOp2
 70
     1
102
RTVSPropertyOp3
 70
     1
102
RTVSPropertyOp4
 70
     1
102
RTVSPropertyOp5
 70
     1
102
RTVSPropertyOp6
 70
     1
102
RTVSPropertyOp7
 70
     1
102
RTVSPropertyOp8
 70
     1
102
RTVSPropertyOp9
 70
     1
102
RTVSPropertyOp10
 70
     1
102
RTVSPropertyOp11
 70
     1
102
RTVSPropertyOp12
 70
     1
102
RTVSPropertyOp13
 70
     1
102
RTVSPropertyOp14
 70
     1
102
RTVSPropertyOp15
 70
     1
102
RTVSPropertyOp16
 70
     1
102
RTVSPropertyOp17
 70
     1
102
RTVSPropertyOp18
 70
     1
102
RTVSPropertyOp19
 70
     1
102
RTVSPropertyOp20
 70
     1
102
RTVSPropertyOp21
 70
     1
102
RTVSPropertyOp22
 70
     1
102
RTVSPropertyOp23
 70
     1
102
RTVSPropertyOp24
 70
     1
102
RTVSPropertyOp25
 70
     1
102
RTVSPropertyOp26
 70
     1
102
RTVSPropertyOp27
 70
     1
102
RTVSPropertyOp28
 70
     1
102
RTVSPropertyOp29
 70
     1
102
RTVSPropertyOp30
 70
     1
102
RTVSPropertyOp31
 70
     1
102
RTVSPropertyOp32
 70
     1
102
RTVSPropertyOp33
 70
     1
102
RTVSPropertyOp34
 70
     1
102
RTVSPropertyOp35
 70
     1
102
RTVSPropertyOp36
 70
     1
102
RTVSPropertyOp37
 70
     1
102
RTVSPropertyOp38
 70
     1
102
RTVSPropertyOp39
 70
     1
102
RTVSPropertyOp40
 70
     1
102
RTVSPropertyOp41
 70
     1
102
RTVSPropertyOp42
 70
     1
102
RTVSPropertyOp43
 70
     1
102
RTVSPropertyOp44
 70
     1
102
RTVSPropertyOp45
 70
     1
102
RTVSPropertyOp46
 70
     1
102
RTVSPropertyOp47
 70
     1
102
RTVSPropertyOp48
 70
     1
102
RTVSPropertyOp49
 70
     1
102
RTVSPropertyOp50
 70
     1
102
RTVSPropertyOp51
 70
     0
102
RTVSPropertyOp52
 70
     0
102
RTVSPropertyOp53
 70
     1
102
RTVSPropertyOp54
 70
     1
102
RTVSPropertyOp55
 70
     1
102
RTVSPropertyOp56
 70
     1
102
RTVSPropertyOp57
 70
     1
102
RTVSPropertyOp58
 70
     1
102
RTVSPropertyOp59
 70
     1
102
RTVSPropertyOp60
 70
     1
102
RTVSPropertyOp61
 70
     1
102
RTVSPropertyOp62
 70
     1
  0
ENDSEC
  0
EOF
