  0
SECTION
  2
HEADER
  9
$ACADVER
  1
AC1018
  9
$ACADMAINTVER
 70
   104
  9
$DWGCODEPAGE
  3
ANSI_1252
  9
$LASTSAVEDBY
  1
w.koehlhoff
  9
$INSBASE
 10
0.0
 20
0.0
 30
0.0
  9
$EXTMIN
 10
-0.0128083857496222
 20
-0.0090573584943741
 30
-0.0000000000112498
  9
$EXTMAX
 10
840.0128201211312
 20
594.0090656570853
 30
0.0000000000002956
  9
$LIMMIN
 10
0.0
 20
0.0
  9
$LIMMAX
 10
840.0
 20
594.0
  9
$ORTHOMODE
 70
     1
  9
$REGENMODE
 70
     1
  9
$FILLMODE
 70
     1
  9
$QTEXTMODE
 70
     0
  9
$MIRRTEXT
 70
     1
  9
$LTSCALE
 40
20.0
  9
$ATTMODE
 70
     1
  9
$TEXTSIZE
 40
3.5
  9
$TRACEWID
 40
1.0
  9
$TEXTSTYLE
  7
STANDARD
  9
$CLAYER
  8
VOLL
  9
$CELTYPE
  6
ByLayer
  9
$CECOLOR
 62
   256
  9
$CELTSCALE
 40
1.0
  9
$DISPSILH
 70
     0
  9
$DIMSCALE
 40
2.0
  9
$DIMASZ
 40
3.5
  9
$DIMEXO
 40
1.0
  9
$DIMDLI
 40
7.0
  9
$DIMRND
 40
0.0
  9
$DIMDLE
 40
0.0
  9
$DIMEXE
 40
1.0
  9
$DIMTP
 40
0.0
  9
$DIMTM
 40
0.0
  9
$DIMTXT
 40
3.5
  9
$DIMCEN
 40
1.5
  9
$DIMTSZ
 40
0.0
  9
$DIMTOL
 70
     0
  9
$DIMLIM
 70
     0
  9
$DIMTIH
 70
     0
  9
$DIMTOH
 70
     0
  9
$DIMSE1
 70
     0
  9
$DIMSE2
 70
     0
  9
$DIMTAD
 70
     1
  9
$DIMZIN
 70
     8
  9
$DIMBLK
  1

  9
$DIMASO
 70
     1
  9
$DIMSHO
 70
     0
  9
$DIMPOST
  1

  9
$DIMAPOST
  1

  9
$DIMALT
 70
     0
  9
$DIMALTD
 70
     2
  9
$DIMALTF
 40
25.4
  9
$DIMLFAC
 40
1.0
  9
$DIMTOFL
 70
     1
  9
$DIMTVP
 40
0.0
  9
$DIMTIX
 70
     0
  9
$DIMSOXD
 70
     0
  9
$DIMSAH
 70
     0
  9
$DIMBLK1
  1

  9
$DIMBLK2
  1

  9
$DIMSTYLE
  2
Standard
  9
$DIMCLRD
 70
     0
  9
$DIMCLRE
 70
     0
  9
$DIMCLRT
 70
     1
  9
$DIMTFAC
 40
0.5
  9
$DIMGAP
 40
1.5
  9
$DIMJUST
 70
     0
  9
$DIMSD1
 70
     0
  9
$DIMSD2
 70
     0
  9
$DIMTOLJ
 70
     1
  9
$DIMTZIN
 70
     8
  9
$DIMALTZ
 70
     8
  9
$DIMALTTZ
 70
     8
  9
$DIMUPT
 70
     0
  9
$DIMDEC
 70
     2
  9
$DIMTDEC
 70
     2
  9
$DIMALTU
 70
     2
  9
$DIMALTTD
 70
     2
  9
$DIMTXSTY
  7
STANDARD
  9
$DIMAUNIT
 70
     0
  9
$DIMADEC
 70
     2
  9
$DIMALTRND
 40
0.0
  9
$DIMAZIN
 70
     2
  9
$DIMDSEP
 70
    46
  9
$DIMATFIT
 70
     3
  9
$DIMFRAC
 70
     0
  9
$DIMLDRBLK
  1

  9
$DIMLUNIT
 70
     2
  9
$DIMLWD
 70
    -2
  9
$DIMLWE
 70
    -2
  9
$DIMTMOVE
 70
     0
  9
$LUNITS
 70
     2
  9
$LUPREC
 70
     2
  9
$SKETCHINC
 40
1.0
  9
$FILLETRAD
 40
11.0
  9
$AUNITS
 70
     0
  9
$AUPREC
 70
     0
  9
$MENU
  1
ACAD
  9
$ELEVATION
 40
0.0
  9
$PELEVATION
 40
0.0
  9
$THICKNESS
 40
0.0
  9
$LIMCHECK
 70
     0
  9
$CHAMFERA
 40
0.0
  9
$CHAMFERB
 40
0.0
  9
$CHAMFERC
 40
0.0
  9
$CHAMFERD
 40
0.0
  9
$SKPOLY
 70
     0
  9
$TDCREATE
 40
2455397.867059838
  9
$TDUCREATE
 40
2455397.783726505
  9
$TDUPDATE
 40
2456553.457444965
  9
$TDUUPDATE
 40
2456553.374111632
  9
$TDINDWG
 40
0.7416342940
  9
$TDUSRTIMER
 40
0.7416342940
  9
$USRTIMER
 70
     1
  9
$ANGBASE
 50
0.0
  9
$ANGDIR
 70
     0
  9
$PDMODE
 70
     0
  9
$PDSIZE
 40
0.0
  9
$PLINEWID
 40
0.0
  9
$SPLFRAME
 70
     0
  9
$SPLINETYPE
 70
     6
  9
$SPLINESEGS
 70
     8
  9
$HANDSEED
  5
1C63
  9
$SURFTAB1
 70
     6
  9
$SURFTAB2
 70
     6
  9
$SURFTYPE
 70
     6
  9
$SURFU
 70
     6
  9
$SURFV
 70
     6
  9
$UCSBASE
  2

  9
$UCSNAME
  2

  9
$UCSORG
 10
0.0
 20
0.0
 30
0.0
  9
$UCSXDIR
 10
1.0
 20
0.0
 30
0.0
  9
$UCSYDIR
 10
0.0
 20
1.0
 30
0.0
  9
$UCSORTHOREF
  2

  9
$UCSORTHOVIEW
 70
     0
  9
$UCSORGTOP
 10
0.0
 20
0.0
 30
0.0
  9
$UCSORGBOTTOM
 10
0.0
 20
0.0
 30
0.0
  9
$UCSORGLEFT
 10
0.0
 20
0.0
 30
0.0
  9
$UCSORGRIGHT
 10
0.0
 20
0.0
 30
0.0
  9
$UCSORGFRONT
 10
0.0
 20
0.0
 30
0.0
  9
$UCSORGBACK
 10
0.0
 20
0.0
 30
0.0
  9
$PUCSBASE
  2

  9
$PUCSNAME
  2

  9
$PUCSORG
 10
0.0
 20
0.0
 30
0.0
  9
$PUCSXDIR
 10
1.0
 20
0.0
 30
0.0
  9
$PUCSYDIR
 10
0.0
 20
1.0
 30
0.0
  9
$PUCSORTHOREF
  2

  9
$PUCSORTHOVIEW
 70
     0
  9
$PUCSORGTOP
 10
0.0
 20
0.0
 30
0.0
  9
$PUCSORGBOTTOM
 10
0.0
 20
0.0
 30
0.0
  9
$PUCSORGLEFT
 10
0.0
 20
0.0
 30
0.0
  9
$PUCSORGRIGHT
 10
0.0
 20
0.0
 30
0.0
  9
$PUCSORGFRONT
 10
0.0
 20
0.0
 30
0.0
  9
$PUCSORGBACK
 10
0.0
 20
0.0
 30
0.0
  9
$USERI1
 70
     0
  9
$USERI2
 70
     0
  9
$USERI3
 70
     0
  9
$USERI4
 70
     0
  9
$USERI5
 70
     0
  9
$USERR1
 40
0.0
  9
$USERR2
 40
0.0
  9
$USERR3
 40
0.0
  9
$USERR4
 40
0.0
  9
$USERR5
 40
0.0
  9
$WORLDVIEW
 70
     1
  9
$SHADEDGE
 70
     3
  9
$SHADEDIF
 70
    70
  9
$TILEMODE
 70
     1
  9
$MAXACTVP
 70
    16
  9
$PINSBASE
 10
0.0
 20
0.0
 30
0.0
  9
$PLIMCHECK
 70
     0
  9
$PEXTMIN
 10
1.000000000000000E+20
 20
1.000000000000000E+20
 30
1.000000000000000E+20
  9
$PEXTMAX
 10
-1.000000000000000E+20
 20
-1.000000000000000E+20
 30
-1.000000000000000E+20
  9
$PLIMMIN
 10
0.0
 20
0.0
  9
$PLIMMAX
 10
12.0
 20
9.0
  9
$UNITMODE
 70
     0
  9
$VISRETAIN
 70
     0
  9
$PLINEGEN
 70
     0
  9
$PSLTSCALE
 70
     0
  9
$TREEDEPTH
 70
  3020
  9
$CMLSTYLE
  2
Standard
  9
$CMLJUST
 70
     0
  9
$CMLSCALE
 40
1.0
  9
$PROXYGRAPHICS
 70
     1
  9
$MEASUREMENT
 70
     0
  9
$CELWEIGHT
370
    -1
  9
$ENDCAPS
280
     0
  9
$JOINSTYLE
280
     0
  9
$LWDISPLAY
290
     0
  9
$INSUNITS
 70
     0
  9
$HYPERLINKBASE
  1

  9
$STYLESHEET
  1
monochrome 1.ctb
  9
$XEDIT
290
     1
  9
$CEPSNTYPE
380
     0
  9
$PSTYLEMODE
290
     1
  9
$FINGERPRINTGUID
  2
{D68B0D0D-A558-11D7-B632-000102183313}
  9
$VERSIONGUID
  2
{4E0FF614-E8CA-4835-AD3F-5FA4566B2BB0}
  9
$EXTNAMES
290
     1
  9
$PSVPSCALE
 40
0.0
  9
$OLESTARTUP
290
     0
  9
$SORTENTS
280
   127
  9
$INDEXCTL
280
     0
  9
$HIDETEXT
280
     0
  9
$XCLIPFRAME
290
     0
  9
$HALOGAP
280
     0
  9
$OBSCOLOR
 70
   257
  9
$OBSLTYPE
280
     0
  9
$INTERSECTIONDISPLAY
280
     0
  9
$INTERSECTIONCOLOR
 70
   257
  9
$DIMASSOC
280
     1
  9
$PROJECTNAME
  1

  0
ENDSEC
  0
SECTION
  2
CLASSES
  0
CLASS
  1
ACDBDICTIONARYWDFLT
  2
AcDbDictionaryWithDefault
  3
ObjectDBX Classes
 90
        0
 91
        1
280
     0
281
     0
  0
CLASS
  1
DICTIONARYVAR
  2
AcDbDictionaryVar
  3
ObjectDBX Classes
 90
        0
 91
        7
280
     0
281
     0
  0
CLASS
  1
MATERIAL
  2
AcDbMaterial
  3
ObjectDBX Classes
 90
     1153
 91
        3
280
     0
281
     0
  0
CLASS
  1
VISUALSTYLE
  2
AcDbVisualStyle
  3
ObjectDBX Classes
 90
     4095
 91
       24
280
     0
281
     0
  0
CLASS
  1
TABLESTYLE
  2
AcDbTableStyle
  3
ObjectDBX Classes
 90
     4095
 91
        1
280
     0
281
     0
  0
CLASS
  1
SCALE
  2
AcDbScale
  3
ObjectDBX Classes
 90
     1153
 91
       17
280
     0
281
     0
  0
CLASS
  1
MLEADERSTYLE
  2
AcDbMLeaderStyle
  3
ACDB_MLEADERSTYLE_CLASS
 90
     4095
 91
        1
280
     0
281
     0
  0
CLASS
  1
ACDBSECTIONVIEWSTYLE
  2
AcDbSectionViewStyle
  3
ObjectDBX Classes
 90
     1025
 91
        1
280
     0
281
     0
  0
CLASS
  1
ACDBDETAILVIEWSTYLE
  2
AcDbDetailViewStyle
  3
ObjectDBX Classes
 90
     1025
 91
        1
280
     0
281
     0
  0
CLASS
  1
CELLSTYLEMAP
  2
AcDbCellStyleMap
  3
ObjectDBX Classes
 90
     1152
 91
        2
280
     0
281
     0
  0
ENDSEC
  0
SECTION
  2
TABLES
  0
TABLE
  2
VPORT
  5
8
102
{ACAD_XDICTIONARY
360
1BEA
102
}
330
0
100
AcDbSymbolTable
 70
     1
  0
VPORT
  5
1B48
330
8
100
AcDbSymbolTableRecord
100
AcDbViewportTableRecord
  2
*Active
 70
     0
 10
0.0
 20
0.0
 11
1.0
 21
1.0
 12
420.0000058676907
 22
297.0000041492954
 13
0.0
 23
0.0
 14
1.0
 24
1.0
 15
10.0
 25
10.0
 16
0.0
 26
0.0
 36
1.0
 17
0.0
 27
0.0
 37
0.0
 40
598.0272442057859
 41
1.70045045045045
 42
50.0
 43
0.0
 44
0.0
 50
0.0
 51
0.0
 71
     0
 72
  1500
 73
     1
 74
     0
 75
     0
 76
     0
 77
     0
 78
     0
281
     0
 65
     1
110
0.0
120
0.0
130
0.0
111
1.0
121
0.0
131
0.0
112
0.0
122
1.0
132
0.0
 79
     0
146
0.0
1001
ACAD_NAV_VCDISPLAY
1070
     3
  0
ENDTAB
  0
TABLE
  2
LTYPE
  5
5
330
0
100
AcDbSymbolTable
 70
     4
  0
LTYPE
  5
13
330
5
100
AcDbSymbolTableRecord
100
AcDbLinetypeTableRecord
  2
ByBlock
 70
     0
  3

 72
    65
 73
     0
 40
0.0
  0
LTYPE
  5
14
330
5
100
AcDbSymbolTableRecord
100
AcDbLinetypeTableRecord
  2
ByLayer
 70
     0
  3

 72
    65
 73
     0
 40
0.0
  0
LTYPE
  5
15
330
5
100
AcDbSymbolTableRecord
100
AcDbLinetypeTableRecord
  2
Continuous
 70
     0
  3
Solid line
 72
    65
 73
     0
 40
0.0
  0
LTYPE
  5
25
330
5
100
AcDbSymbolTableRecord
100
AcDbLinetypeTableRecord
  2
STRICHPUNKT
 70
     0
  3
__ . __ . __ . __ . __ . __ . __ . __ . __ . __
 72
    65
 73
     4
 40
1.0
 49
0.5
 74
     0
 49
-0.25
 74
     0
 49
0.0
 74
     0
 49
-0.25
 74
     0
  0
LTYPE
  5
34
330
5
100
AcDbSymbolTableRecord
100
AcDbLinetypeTableRecord
  2
AUSGEZOGEN
 70
     0
  3
Ausgezogene Linie
 72
    65
 73
     0
 40
0.0
  0
LTYPE
  5
1B92
330
5
100
AcDbSymbolTableRecord
100
AcDbLinetypeTableRecord
  2
PHANTOM2
 70
     0
  3
Phantom (.5x) ___ _ _ ___ _ _ ___ _ _ ___ _ _
 72
    65
 73
     6
 40
1.25
 49
0.625
 74
     0
 49
-0.125
 74
     0
 49
0.125
 74
     0
 49
-0.125
 74
     0
 49
0.125
 74
     0
 49
-0.125
 74
     0
  0
ENDTAB
  0
TABLE
  2
LAYER
  5
2
102
{ACAD_XDICTIONARY
360
1201
102
}
330
0
100
AcDbSymbolTable
 70
     9
  0
LAYER
  5
10
102
{ACAD_XDICTIONARY
360
1BD6
102
}
330
2
100
AcDbSymbolTableRecord
100
AcDbLayerTableRecord
  2
0
 70
     0
 62
     7
  6
Continuous
370
    -3
390
F
  0
LAYER
  5
2B
102
{ACAD_XDICTIONARY
360
1BD8
102
}
330
2
100
AcDbSymbolTableRecord
100
AcDbLayerTableRecord
  2
VOLL
 70
     0
 62
     1
  6
Continuous
370
    -3
390
F
  0
LAYER
  5
2C
102
{ACAD_XDICTIONARY
360
1BDA
102
}
330
2
100
AcDbSymbolTableRecord
100
AcDbLayerTableRecord
  2
HILF
 70
     0
 62
     2
  6
Continuous
370
    -3
390
F
  0
LAYER
  5
2D
102
{ACAD_XDICTIONARY
360
1BDC
102
}
330
2
100
AcDbSymbolTableRecord
100
AcDbLayerTableRecord
  2
MITTEL
 70
     0
 62
     2
  6
STRICHPUNKT
370
    -3
390
F
  0
LAYER
  5
2F
102
{ACAD_XDICTIONARY
360
1BDE
102
}
330
2
100
AcDbSymbolTableRecord
100
AcDbLayerTableRecord
  2
BEM
 70
     0
 62
     7
  6
Continuous
370
    -3
390
F
  0
LAYER
  5
30
102
{ACAD_XDICTIONARY
360
1BE0
102
}
330
2
100
AcDbSymbolTableRecord
100
AcDbLayerTableRecord
  2
STEMPEL
 70
     0
 62
     3
  6
Continuous
370
    -3
390
F
  0
LAYER
  5
33
102
{ACAD_XDICTIONARY
360
1BE2
102
}
330
2
100
AcDbSymbolTableRecord
100
AcDbLayerTableRecord
  2
TEXT
 70
     0
 62
     7
  6
Continuous
370
    -3
390
F
  0
LAYER
  5
3A3
102
{ACAD_XDICTIONARY
360
1BE4
102
}
330
2
100
AcDbSymbolTableRecord
100
AcDbLayerTableRecord
  2
SCHRAFF
 70
     0
 62
     7
  6
AUSGEZOGEN
370
    -3
390
F
  0
LAYER
  5
3A4
330
2
100
AcDbSymbolTableRecord
100
AcDbLayerTableRecord
  2
DEFPOINTS
 70
     0
 62
     7
  6
AUSGEZOGEN
290
     0
370
    -3
390
F
  0
ENDTAB
  0
TABLE
  2
STYLE
  5
3
330
0
100
AcDbSymbolTable
 70
     2
  0
STYLE
  5
11
330
3
100
AcDbSymbolTableRecord
100
AcDbTextStyleTableRecord
  2
STANDARD
 70
     0
 40
0.0
 41
0.8
 50
0.0
 71
     0
 42
3.5
  3
simplex.shx
  4

  0
STYLE
  5
24
330
3
100
AcDbSymbolTableRecord
100
AcDbTextStyleTableRecord
  2
GREEKS
 70
     0
 40
0.0
 41
0.8
 50
0.0
 71
     0
 42
2.5
  3
SIMPLEX.shx
  4

  0
ENDTAB
  0
TABLE
  2
VIEW
  5
6
330
0
100
AcDbSymbolTable
 70
     0
  0
ENDTAB
  0
TABLE
  2
UCS
  5
7
330
0
100
AcDbSymbolTable
 70
     0
  0
ENDTAB
  0
TABLE
  2
APPID
  5
9
330
0
100
AcDbSymbolTable
 70
     5
  0
APPID
  5
12
330
9
100
AcDbSymbolTableRecord
100
AcDbRegAppTableRecord
  2
ACAD
 70
     0
  0
APPID
  5
1BA2
330
9
100
AcDbSymbolTableRecord
100
AcDbRegAppTableRecord
  2
ACAD_EXEMPT_FROM_CAD_STANDARDS
 70
     0
  0
APPID
  5
1BA4
330
9
100
AcDbSymbolTableRecord
100
AcDbRegAppTableRecord
  2
AcadAnnoMonitorAlertIconDisabled
 70
     0
  0
APPID
  5
1BE6
330
9
100
AcDbSymbolTableRecord
100
AcDbRegAppTableRecord
  2
ACAD_NAV_VCDISPLAY
 70
     0
  0
APPID
  5
1C20
330
9
100
AcDbSymbolTableRecord
100
AcDbRegAppTableRecord
  2
ACAD_MLEADERVER
 70
     0
  0
ENDTAB
  0
TABLE
  2
DIMSTYLE
  5
A
330
0
100
AcDbSymbolTable
 70
     1
100
AcDbDimStyleTable
 71
     1
340
A2
  0
DIMSTYLE
105
A2
102
{ACAD_REACTORS
330
845
330
A4B
330
A61
330
E3B
330
122D
330
123B
330
1A0A
330
19BE
330
1BAE
102
}
330
A
100
AcDbSymbolTableRecord
100
AcDbDimStyleTableRecord
  2
Standard
 70
     0
340
11
  0
ENDTAB
  0
TABLE
  2
BLOCK_RECORD
  5
1
330
0
100
AcDbSymbolTable
 70
    11
  0
BLOCK_RECORD
  5
1E
102
{ACAD_XDICTIONARY
360
DB
102
}
330
1
100
AcDbSymbolTableRecord
100
AcDbBlockTableRecord
  2
*Model_Space
340
21
  0
BLOCK_RECORD
  5
1A
102
{ACAD_XDICTIONARY
360
DD
102
}
330
1
100
AcDbSymbolTableRecord
100
AcDbBlockTableRecord
  2
*Paper_Space
340
1D
  0
BLOCK_RECORD
  5
22
330
1
100
AcDbSymbolTableRecord
100
AcDbBlockTableRecord
  2
LOGO
340
0
102
{BLKREFS
331
56
102
}
  0
BLOCK_RECORD
  5
23
330
1
100
AcDbSymbolTableRecord
100
AcDbBlockTableRecord
  2
LORO
340
0
102
{BLKREFS
331
9B
102
}
  0
BLOCK_RECORD
  5
846
330
1
100
AcDbSymbolTableRecord
100
AcDbBlockTableRecord
  2
*D2
340
0
  0
BLOCK_RECORD
  5
A4C
330
1
100
AcDbSymbolTableRecord
100
AcDbBlockTableRecord
  2
*D3
340
0
  0
BLOCK_RECORD
  5
A62
330
1
100
AcDbSymbolTableRecord
100
AcDbBlockTableRecord
  2
*D4
340
0
  0
BLOCK_RECORD
  5
E3C
330
1
100
AcDbSymbolTableRecord
100
AcDbBlockTableRecord
  2
*D5
340
0
  0
BLOCK_RECORD
  5
124A
330
1
100
AcDbSymbolTableRecord
100
AcDbBlockTableRecord
  2
*D6
340
0
  0
BLOCK_RECORD
  5
1262
330
1
100
AcDbSymbolTableRecord
100
AcDbBlockTableRecord
  2
*D7
340
0
  0
BLOCK_RECORD
  5
1A54
330
1
100
AcDbSymbolTableRecord
100
AcDbBlockTableRecord
  2
*D8
340
0
  0
BLOCK_RECORD
  5
1A60
330
1
100
AcDbSymbolTableRecord
100
AcDbBlockTableRecord
  2
*D9
340
0
  0
BLOCK_RECORD
  5
1BAF
330
1
100
AcDbSymbolTableRecord
100
AcDbBlockTableRecord
  2
*D10
340
0
  0
ENDTAB
  0
ENDSEC
  0
SECTION
  2
BLOCKS
  0
BLOCK
  5
37
330
1E
100
AcDbEntity
  8
0
100
AcDbBlockBegin
  2
*Model_Space
 70
     0
 10
0.0
 20
0.0
 30
0.0
  3
*Model_Space
  1

  0
ENDBLK
  5
38
330
1E
100
AcDbEntity
  8
0
100
AcDbBlockEnd
  0
BLOCK
  5
35
330
1A
100
AcDbEntity
 67
     1
  8
0
100
AcDbBlockBegin
  2
*Paper_Space
 70
     0
 10
0.0
 20
0.0
 30
0.0
  3
*Paper_Space
  1

  0
ENDBLK
  5
36
330
1A
100
AcDbEntity
 67
     1
  8
0
100
AcDbBlockEnd
  0
BLOCK
  5
39
330
22
100
AcDbEntity
  8
0
100
AcDbBlockBegin
  2
LOGO
 70
     0
 10
0.0
 20
0.0
 30
0.0
  3
LOGO
  1

  0
ARC
  5
3A
330
22
100
AcDbEntity
  8
0
100
AcDbCircle
 10
11.59973089678112
 20
-9.271599258481501
 30
0.0
 40
4.5
100
AcDbArc
 50
270.0
 51
231.0575587310159
  0
LINE
  5
3B
330
22
100
AcDbEntity
  8
0
100
AcDbLine
 10
3.599730896781125
 20
-4.771599258481529
 30
0.0
 11
3.599730896781153
 21
-11.77159925848133
 31
0.0
  0
LINE
  5
3C
330
22
100
AcDbEntity
  8
0
100
AcDbLine
 10
2.599730896781125
 20
-4.771599258481529
 30
0.0
 11
2.599730896781153
 21
-11.77159925848133
 31
0.0
  0
CIRCLE
  5
3D
330
22
100
AcDbEntity
  8
0
100
AcDbCircle
 10
11.59973089678112
 20
-9.271599258481501
 30
0.0
 40
3.5
  0
ARC
  5
3E
330
22
100
AcDbEntity
  8
0
100
AcDbCircle
 10
31.59973089678115
 20
-9.271599258481472
 30
0.0
 40
4.5
100
AcDbArc
 50
270.0
 51
231.0575587310182
  0
LINE
  5
3F
330
22
100
AcDbEntity
  8
0
100
AcDbLine
 10
17.59973089678112
 20
-4.771599258481472
 30
0.0
 11
17.59973089678115
 21
-13.77159925848147
 31
0.0
  0
ARC
  5
40
330
22
100
AcDbEntity
  8
0
100
AcDbCircle
 10
22.59973089678116
 20
-7.271599258481472
 30
0.0
 40
2.5
100
AcDbArc
 50
293.1161887722295
 51
90.0
  0
CIRCLE
  5
41
330
22
100
AcDbEntity
  8
0
100
AcDbCircle
 10
31.59973089678115
 20
-9.271599258481472
 30
0.0
 40
3.5
  0
ARC
  5
42
330
22
100
AcDbEntity
  8
0
100
AcDbCircle
 10
4.599730896781153
 20
-11.77159925848133
 30
0.0
 40
1.0
100
AcDbArc
 50
180.0
 51
270.0
  0
ARC
  5
43
330
22
100
AcDbEntity
  8
0
100
AcDbCircle
 10
4.599730896781153
 20
-11.77159925848133
 30
0.0
 40
2.0
100
AcDbArc
 50
179.9999999999992
 51
270.0
  0
LINE
  5
44
330
22
100
AcDbEntity
  8
0
100
AcDbLine
 10
11.59973089678115
 20
-13.77159925848144
 30
0.0
 11
4.599730896781153
 21
-13.77159925848147
 31
0.0
  0
LINE
  5
45
330
22
100
AcDbEntity
  8
0
100
AcDbLine
 10
8.771303772034769
 20
-12.77159925848136
 30
0.0
 11
4.599730896781153
 21
-12.77159925848133
 31
0.0
  0
LINE
  5
46
330
22
100
AcDbEntity
  8
0
100
AcDbLine
 10
31.59973089678115
 20
-13.77159925848147
 30
0.0
 11
23.6715276665056
 21
-13.77159925848144
 31
0.0
  0
LINE
  5
47
330
22
100
AcDbEntity
  8
0
100
AcDbLine
 10
23.56565672307022
 20
-9.51278021337896
 30
0.0
 11
24.4388546544846
 21
-12.77159925848144
 31
0.0
  0
LINE
  5
48
330
22
100
AcDbEntity
  8
0
100
AcDbLine
 10
22.59973089678116
 20
-9.771599258481472
 30
0.0
 11
18.59973089678112
 21
-9.771599258481472
 31
0.0
  0
LINE
  5
49
330
22
100
AcDbEntity
  8
0
100
AcDbLine
 10
18.59973089678115
 20
-13.77159925848144
 30
0.0
 11
17.59973089678115
 21
-13.77159925848144
 31
0.0
  0
LINE
  5
4A
330
22
100
AcDbEntity
  8
0
100
AcDbLine
 10
18.59973089678115
 20
-9.771599258481472
 30
0.0
 11
18.59973089678115
 21
-13.77159925848144
 31
0.0
  0
LINE
  5
4B
330
22
100
AcDbEntity
  8
0
100
AcDbLine
 10
22.59973089678116
 20
-9.771599258481472
 30
0.0
 11
23.67152766650562
 21
-13.77159925848147
 31
0.0
  0
ARC
  5
4C
330
22
100
AcDbEntity
  8
0
100
AcDbCircle
 10
22.59973089678116
 20
-7.271599258481472
 30
0.0
 40
2.5
100
AcDbArc
 50
270.0
 51
270.0000000000007
  0
LINE
  5
4D
330
22
100
AcDbEntity
  8
0
100
AcDbLine
 10
28.77130377203494
 20
-12.77159925848147
 30
0.0
 11
24.43885465448463
 21
-12.77159925848144
 31
0.0
  0
LINE
  5
4E
330
22
100
AcDbEntity
  8
0
100
AcDbLine
 10
3.599730896781125
 20
-4.771599258481472
 30
0.0
 11
2.599730896781125
 21
-4.771599258481472
 31
0.0
  0
LINE
  5
4F
330
22
100
AcDbEntity
  8
0
100
AcDbLine
 10
22.59973089678116
 20
-8.771599258481472
 30
0.0
 11
18.59973089678115
 21
-8.771599258481472
 31
0.0
  0
LINE
  5
50
330
22
100
AcDbEntity
  8
0
100
AcDbLine
 10
22.59973089678116
 20
-5.771599258481472
 30
0.0
 11
18.59973089678115
 21
-5.771599258481472
 31
0.0
  0
LINE
  5
51
330
22
100
AcDbEntity
  8
0
100
AcDbLine
 10
22.59973089678116
 20
-4.771599258481472
 30
0.0
 11
17.59973089678115
 21
-4.771599258481472
 31
0.0
  0
LINE
  5
52
330
22
100
AcDbEntity
  8
0
100
AcDbLine
 10
18.59973089678115
 20
-5.771599258481472
 30
0.0
 11
18.59973089678115
 21
-8.771599258481472
 31
0.0
  0
ARC
  5
53
330
22
100
AcDbEntity
  8
0
100
AcDbCircle
 10
22.59973089678116
 20
-7.271599258481472
 30
0.0
 40
1.5
100
AcDbArc
 50
270.0
 51
90.0
  0
ENDBLK
  5
54
330
22
100
AcDbEntity
  8
0
100
AcDbBlockEnd
  0
BLOCK
  5
55
330
23
100
AcDbEntity
  8
0
100
AcDbBlockBegin
  2
LORO
 70
     0
 10
0.0
 20
0.0
 30
0.0
  3
LORO
  1

  0
INSERT
  5
56
330
23
100
AcDbEntity
  8
STEMPEL
100
AcDbBlockReference
  2
LOGO
 10
-1.748032802467321
 20
3.771489518552062
 30
0.0
  0
ENDBLK
  5
57
330
23
100
AcDbEntity
  8
0
100
AcDbBlockEnd
  0
BLOCK
  5
850
330
846
100
AcDbEntity
  8
0
100
AcDbBlockBegin
  2
*D2
 70
     1
 10
0.0
 20
0.0
 30
0.0
  3
*D2
  1

  0
LINE
  5
10E6
330
846
100
AcDbEntity
  8
BEM
 62
     0
440
 16777216
370
    -2
100
AcDbLine
 10
103.1795698904583
 20
374.7828617611641
 30
0.0
 11
103.1795698904583
 21
345.0744989992161
 31
0.0
  0
LINE
  5
10E7
330
846
100
AcDbEntity
  8
BEM
 62
     0
440
 16777216
370
    -2
100
AcDbLine
 10
330.1795698904628
 20
393.7828617611694
 30
0.0
 11
330.1795698904628
 21
345.0744989992161
 31
0.0
  0
LINE
  5
10E8
330
846
100
AcDbEntity
  8
BEM
 62
     0
440
 16777216
370
    -2
100
AcDbLine
 10
110.1795698904583
 20
347.0744989992161
 30
0.0
 11
323.1795698904628
 21
347.0744989992161
 31
0.0
  0
SOLID
  5
10E9
330
846
100
AcDbEntity
  8
BEM
 62
     0
440
 16777216
100
AcDbTrace
 10
110.1795698904583
 20
348.2411656658828
 30
0.0
 11
110.1795698904583
 21
345.9078323325494
 31
0.0
 12
103.1795698904583
 22
347.0744989992161
 32
0.0
 13
103.1795698904583
 23
347.0744989992161
 33
0.0
  0
SOLID
  5
10EA
330
846
100
AcDbEntity
  8
BEM
 62
     0
440
 16777216
100
AcDbTrace
 10
323.1795698904628
 20
348.2411656658828
 30
0.0
 11
323.1795698904628
 21
345.9078323325494
 31
0.0
 12
330.1795698904628
 22
347.0744989992161
 32
0.0
 13
330.1795698904628
 23
347.0744989992161
 33
0.0
  0
MTEXT
  5
10EB
330
846
100
AcDbEntity
  8
BEM
 62
     1
440
 16777216
100
AcDbMText
 10
216.6795698904606
 20
353.5744989992161
 30
0.0
 40
7.0
 41
0.0
 71
     5
 72
     1
  1
\A1;227
 73
     1
 44
1.0
  0
POINT
  5
10EC
330
846
100
AcDbEntity
  8
DEFPOINTS
 62
     0
440
 16777216
100
AcDbPoint
 10
103.1795698904583
 20
376.7828617611641
 30
0.0
  0
POINT
  5
10ED
330
846
100
AcDbEntity
  8
DEFPOINTS
 62
     0
440
 16777216
100
AcDbPoint
 10
330.1795698904628
 20
395.7828617611694
 30
0.0
  0
POINT
  5
10EE
330
846
100
AcDbEntity
  8
DEFPOINTS
 62
     0
440
 16777216
100
AcDbPoint
 10
330.1795698904628
 20
347.0744989992161
 30
0.0
  0
ENDBLK
  5
851
330
846
100
AcDbEntity
  8
0
100
AcDbBlockEnd
  0
BLOCK
  5
A56
330
A4C
100
AcDbEntity
  8
0
100
AcDbBlockBegin
  2
*D3
 70
     1
 10
0.0
 20
0.0
 30
0.0
  3
*D3
  1

  0
LINE
  5
1386
330
A4C
100
AcDbEntity
  8
BEM
 62
     0
440
 16777216
370
    -2
100
AcDbLine
 10
103.1795698904583
 20
374.7828617611641
 30
0.0
 11
103.1795698904583
 21
331.7374056173323
 31
0.0
  0
LINE
  5
1387
330
A4C
100
AcDbEntity
  8
BEM
 62
     0
440
 16777216
370
    -2
100
AcDbLine
 10
730.1795698904629
 20
389.0421377459496
 30
0.0
 11
730.1795698904629
 21
331.7374056173323
 31
0.0
  0
LINE
  5
1388
330
A4C
100
AcDbEntity
  8
BEM
 62
     0
440
 16777216
370
    -2
100
AcDbLine
 10
110.1795698904583
 20
333.7374056173323
 30
0.0
 11
723.179569890463
 21
333.7374056173323
 31
0.0
  0
SOLID
  5
1389
330
A4C
100
AcDbEntity
  8
BEM
 62
     0
440
 16777216
100
AcDbTrace
 10
110.1795698904583
 20
334.904072283999
 30
0.0
 11
110.1795698904583
 21
332.5707389506657
 31
0.0
 12
103.1795698904583
 22
333.7374056173323
 32
0.0
 13
103.1795698904583
 23
333.7374056173323
 33
0.0
  0
SOLID
  5
138A
330
A4C
100
AcDbEntity
  8
BEM
 62
     0
440
 16777216
100
AcDbTrace
 10
723.179569890463
 20
334.904072283999
 30
0.0
 11
723.179569890463
 21
332.5707389506657
 31
0.0
 12
730.1795698904629
 22
333.7374056173323
 32
0.0
 13
730.1795698904629
 23
333.7374056173323
 33
0.0
  0
MTEXT
  5
138B
330
A4C
100
AcDbEntity
  8
BEM
 62
     1
440
 16777216
100
AcDbMText
 10
416.6795698904606
 20
340.2374056173323
 30
0.0
 40
7.0
 41
0.0
 71
     5
 72
     1
  1
\A1;627
 73
     1
 44
1.0
  0
POINT
  5
138C
330
A4C
100
AcDbEntity
  8
DEFPOINTS
 62
     0
440
 16777216
100
AcDbPoint
 10
103.1795698904583
 20
376.7828617611641
 30
0.0
  0
POINT
  5
138D
330
A4C
100
AcDbEntity
  8
DEFPOINTS
 62
     0
440
 16777216
100
AcDbPoint
 10
730.1795698904629
 20
391.0421377459496
 30
0.0
  0
POINT
  5
138E
330
A4C
100
AcDbEntity
  8
DEFPOINTS
 62
     0
440
 16777216
100
AcDbPoint
 10
730.1795698904629
 20
333.7374056173323
 30
0.0
  0
ENDBLK
  5
A57
330
A4C
100
AcDbEntity
  8
0
100
AcDbBlockEnd
  0
BLOCK
  5
A6E
330
A62
100
AcDbEntity
  8
0
100
AcDbBlockBegin
  2
*D4
 70
     1
 10
0.0
 20
0.0
 30
0.0
  3
*D4
  1

  0
LINE
  5
10D2
330
A62
100
AcDbEntity
  8
BEM
 62
     0
440
 16777216
370
    -2
100
AcDbLine
 10
101.1795698904583
 20
376.7828617611641
 30
0.0
 11
92.9838016373451
 21
376.7828617611641
 31
0.0
  0
LINE
  5
10D3
330
A62
100
AcDbEntity
  8
BEM
 62
     0
440
 16777216
370
    -2
100
AcDbLine
 10
101.1795698904583
 20
379.782861761164
 30
0.0
 11
92.9838016373451
 21
379.782861761164
 31
0.0
  0
LINE
  5
10D4
330
A62
100
AcDbEntity
  8
BEM
 62
     0
440
 16777216
370
    -2
100
AcDbLine
 10
94.98380163734509
 20
369.782861761164
 30
0.0
 11
94.98380163734509
 21
362.782861761164
 31
0.0
  0
LINE
  5
10D5
330
A62
100
AcDbEntity
  8
BEM
 62
     0
440
 16777216
370
    -2
100
AcDbLine
 10
94.98380163734509
 20
386.782861761164
 30
0.0
 11
94.98380163734509
 21
403.5161950944972
 31
0.0
  0
LINE
  5
10D6
330
A62
100
AcDbEntity
  8
BEM
 62
     0
440
 16777216
370
    -2
100
AcDbLine
 10
94.98380163734509
 20
376.7828617611641
 30
0.0
 11
94.98380163734509
 21
379.782861761164
 31
0.0
  0
SOLID
  5
10D7
330
A62
100
AcDbEntity
  8
BEM
 62
     0
440
 16777216
100
AcDbTrace
 10
93.81713497067842
 20
369.782861761164
 30
0.0
 11
96.15046830401176
 21
369.782861761164
 31
0.0
 12
94.98380163734509
 22
376.7828617611641
 32
0.0
 13
94.98380163734509
 23
376.7828617611641
 33
0.0
  0
SOLID
  5
10D8
330
A62
100
AcDbEntity
  8
BEM
 62
     0
440
 16777216
100
AcDbTrace
 10
93.81713497067842
 20
386.782861761164
 30
0.0
 11
96.15046830401176
 21
386.782861761164
 31
0.0
 12
94.98380163734509
 22
379.782861761164
 32
0.0
 13
94.98380163734509
 23
379.782861761164
 33
0.0
  0
MTEXT
  5
10D9
330
A62
100
AcDbEntity
  8
BEM
 62
     1
440
 16777216
100
AcDbMText
 10
88.48380163734503
 20
398.6495284278307
 30
0.0
 40
7.0
 41
0.0
 71
     5
 72
     1
  1
\A1;3
 11
0.0000000000000001
 21
1.0
 31
0.0
 73
     1
 44
1.0
  0
POINT
  5
10DA
330
A62
100
AcDbEntity
  8
DEFPOINTS
 62
     0
440
 16777216
100
AcDbPoint
 10
103.1795698904583
 20
376.7828617611641
 30
0.0
  0
POINT
  5
10DB
330
A62
100
AcDbEntity
  8
DEFPOINTS
 62
     0
440
 16777216
100
AcDbPoint
 10
103.1795698904583
 20
379.782861761164
 30
0.0
  0
POINT
  5
10DC
330
A62
100
AcDbEntity
  8
DEFPOINTS
 62
     0
440
 16777216
100
AcDbPoint
 10
94.98380163734509
 20
379.782861761164
 30
0.0
  0
ENDBLK
  5
A6F
330
A62
100
AcDbEntity
  8
0
100
AcDbBlockEnd
  0
BLOCK
  5
E46
330
E3C
100
AcDbEntity
  8
0
100
AcDbBlockBegin
  2
*D5
 70
     1
 10
0.0
 20
0.0
 30
0.0
  3
*D5
  1

  0
LINE
  5
1374
330
E3C
100
AcDbEntity
  8
BEM
 62
     0
440
 16777216
370
    -2
100
AcDbLine
 10
330.1795698904628
 20
393.7828617611694
 30
0.0
 11
330.1795698904628
 21
345.0744989992161
 31
0.0
  0
LINE
  5
1375
330
E3C
100
AcDbEntity
  8
BEM
 62
     0
440
 16777216
370
    -2
100
AcDbLine
 10
730.1795698904629
 20
389.0421377459496
 30
0.0
 11
730.1795698904629
 21
345.0744989992161
 31
0.0
  0
LINE
  5
1376
330
E3C
100
AcDbEntity
  8
BEM
 62
     0
440
 16777216
370
    -2
100
AcDbLine
 10
337.1795698904628
 20
347.0744989992161
 30
0.0
 11
723.179569890463
 21
347.0744989992161
 31
0.0
  0
SOLID
  5
1377
330
E3C
100
AcDbEntity
  8
BEM
 62
     0
440
 16777216
100
AcDbTrace
 10
337.1795698904628
 20
348.2411656658828
 30
0.0
 11
337.1795698904628
 21
345.9078323325494
 31
0.0
 12
330.1795698904628
 22
347.0744989992161
 32
0.0
 13
330.1795698904628
 23
347.0744989992161
 33
0.0
  0
SOLID
  5
1378
330
E3C
100
AcDbEntity
  8
BEM
 62
     0
440
 16777216
100
AcDbTrace
 10
723.179569890463
 20
348.2411656658828
 30
0.0
 11
723.179569890463
 21
345.9078323325494
 31
0.0
 12
730.1795698904629
 22
347.0744989992161
 32
0.0
 13
730.1795698904629
 23
347.0744989992161
 33
0.0
  0
MTEXT
  5
1379
330
E3C
100
AcDbEntity
  8
BEM
 62
     1
440
 16777216
100
AcDbMText
 10
530.1795698904628
 20
353.5744989992161
 30
0.0
 40
7.0
 41
0.0
 71
     5
 72
     1
  1
\A1;400
 73
     1
 44
1.0
  0
POINT
  5
137A
330
E3C
100
AcDbEntity
  8
DEFPOINTS
 62
     0
440
 16777216
100
AcDbPoint
 10
330.1795698904628
 20
395.7828617611694
 30
0.0
  0
POINT
  5
137B
330
E3C
100
AcDbEntity
  8
DEFPOINTS
 62
     0
440
 16777216
100
AcDbPoint
 10
730.1795698904629
 20
391.0421377459496
 30
0.0
  0
POINT
  5
137C
330
E3C
100
AcDbEntity
  8
DEFPOINTS
 62
     0
440
 16777216
100
AcDbPoint
 10
730.1795698904629
 20
347.0744989992161
 30
0.0
  0
ENDBLK
  5
E47
330
E3C
100
AcDbEntity
  8
0
100
AcDbBlockEnd
  0
BLOCK
  5
1254
330
124A
100
AcDbEntity
  8
0
100
AcDbBlockBegin
  2
*D6
 70
     1
 10
0.0
 20
0.0
 30
0.0
  3
*D6
  1

  0
LINE
  5
1350
330
124A
100
AcDbEntity
  8
BEM
 62
     0
440
 16777216
370
    -2
100
AcDbLine
 10
725.7967784457611
 20
364.735462943682
 30
0.0
 11
749.2030966430778
 21
363.5087897857685
 31
0.0
  0
LINE
  5
1351
330
124A
100
AcDbEntity
  8
BEM
 62
     0
440
 16777216
370
    -2
100
AcDbLine
 10
728.5705841266369
 20
417.6628282856746
 30
0.0
 11
751.9769023239537
 21
416.436155127761
 31
0.0
  0
LINE
  5
1352
330
124A
100
AcDbEntity
  8
BEM
 62
     0
440
 16777216
370
    -2
100
AcDbLine
 10
747.5721892672692
 20
370.6038684415363
 30
0.0
 11
749.613291560744
 21
409.5504202969649
 31
0.0
  0
SOLID
  5
1353
330
124A
100
AcDbEntity
  8
BEM
 62
     0
440
 16777216
100
AcDbTrace
 10
746.4071214767223
 20
370.6649270571531
 30
0.0
 11
748.7372570578162
 21
370.5428098259196
 31
0.0
 12
747.2058375735687
 22
363.6134616982543
 32
0.0
 13
747.2058375735687
 23
363.6134616982543
 33
0.0
  0
SOLID
  5
1354
330
124A
100
AcDbEntity
  8
BEM
 62
     0
440
 16777216
100
AcDbTrace
 10
748.4482237701971
 20
409.6114789125817
 30
0.0
 11
750.7783593512911
 21
409.4893616813481
 31
0.0
 12
749.9796432544447
 22
416.5408270402469
 32
0.0
 13
749.9796432544447
 23
416.5408270402469
 33
0.0
  0
MTEXT
  5
1355
330
124A
100
AcDbEntity
  8
BEM
 62
     1
440
 16777216
100
AcDbMText
 10
742.1016484381019
 20
390.4173280848297
 30
0.0
 40
7.0
 41
0.0
 71
     5
 72
     1
  1
\A1;%%c53
 11
0.0523359562429426
 21
0.9986295347545739
 31
0.0
 73
     1
 44
1.0
  0
POINT
  5
1356
330
124A
100
AcDbEntity
  8
DEFPOINTS
 62
     0
440
 16777216
100
AcDbPoint
 10
723.7995193762519
 20
364.8401348561679
 30
0.0
  0
POINT
  5
1357
330
124A
100
AcDbEntity
  8
DEFPOINTS
 62
     0
440
 16777216
100
AcDbPoint
 10
726.5733250571279
 20
417.7675001981604
 30
0.0
  0
POINT
  5
1358
330
124A
100
AcDbEntity
  8
DEFPOINTS
 62
     0
440
 16777216
100
AcDbPoint
 10
749.9796432544447
 20
416.5408270402469
 30
0.0
  0
ENDBLK
  5
1255
330
124A
100
AcDbEntity
  8
0
100
AcDbBlockEnd
  0
BLOCK
  5
126F
330
1262
100
AcDbEntity
  8
0
100
AcDbBlockBegin
  2
*D7
 70
     1
 10
0.0
 20
0.0
 30
0.0
  3
*D7
  1

  0
LINE
  5
1B1F
330
1262
100
AcDbEntity
  8
BEM
 62
     0
440
 16777216
370
    -2
100
AcDbLine
 10
279.1795698904616
 20
414.7828617611675
 30
0.0
 11
438.4934857860196
 21
414.7828617611684
 31
0.0
  0
ARC
  5
1B20
330
1262
100
AcDbEntity
  8
BEM
 62
     0
440
 16777216
370
    -2
100
AcDbCircle
 10
274.8484463670343
 20
414.7828617611675
 30
0.0
 40
161.6450394189852
100
AcDbArc
 50
352.0372519524241
 51
354.518625976212
  0
ARC
  5
1B21
330
1262
100
AcDbEntity
  8
BEM
 62
     0
440
 16777216
370
    -2
100
AcDbCircle
 10
274.8484463670343
 20
414.7828617611675
 30
0.0
 40
161.6450394189852
100
AcDbArc
 50
2.481374023788367
 51
4.962748047576255
  0
ARC
  5
1B22
330
1262
100
AcDbEntity
  8
BEM
 62
     0
440
 16777216
370
    -2
100
AcDbCircle
 10
274.8484463670343
 20
414.7828617611675
 30
0.0
 40
161.6450394189852
100
AcDbArc
 50
357.0
 51
0.0000000000003197
  0
SOLID
  5
1B23
330
1262
100
AcDbEntity
  8
BEM
 62
     0
440
 16777216
100
AcDbTrace
 10
434.5908595329854
 20
399.4284493202637
 30
0.0
 11
436.9178047075968
 21
399.2559077345605
 31
0.0
 12
436.2719568774003
 22
406.3230140512464
 32
0.0
 13
436.2719568774003
 23
406.3230140512464
 33
0.0
  0
SOLID
  5
1B24
330
1262
100
AcDbEntity
  8
BEM
 62
     0
440
 16777216
100
AcDbTrace
 10
437.5083122711652
 20
421.8064817904808
 30
0.0
 11
435.1755259651642
 21
421.7559595678626
 31
0.0
 12
436.4934857860196
 22
414.7828617611684
 32
0.0
 13
436.4934857860196
 23
414.7828617611684
 33
0.0
  0
MTEXT
  5
1B25
330
1262
100
AcDbEntity
  8
BEM
 62
     1
440
 16777216
100
AcDbMText
 10
428.4889958893938
 20
393.2290964570283
 30
0.0
 40
7.0
 41
0.0
 71
     5
 72
     1
  1
\A1;3°
 11
0.1389265514698872
 21
0.9903026877155715
 31
0.0
 73
     1
 44
1.0
  0
POINT
  5
1B26
330
1262
100
AcDbEntity
  8
DEFPOINTS
 62
     0
440
 16777216
100
AcDbPoint
 10
436.4688664635707
 20
411.9617668346572
 30
0.0
  0
POINT
  5
1B27
330
1262
100
AcDbEntity
  8
DEFPOINTS
 62
     0
440
 16777216
100
AcDbPoint
 10
274.8484463670347
 20
414.7828617611675
 30
0.0
  0
POINT
  5
1B28
330
1262
100
AcDbEntity
  8
DEFPOINTS
 62
     0
440
 16777216
100
AcDbPoint
 10
269.8552986932618
 20
415.0445415423821
 30
0.0
  0
POINT
  5
1B29
330
1262
100
AcDbEntity
  8
DEFPOINTS
 62
     0
440
 16777216
100
AcDbPoint
 10
729.4953354759516
 20
390.9558279450258
 30
0.0
  0
POINT
  5
1B2A
330
1262
100
AcDbEntity
  8
DEFPOINTS
 62
     0
440
 16777216
100
AcDbPoint
 10
277.1795698904617
 20
414.7828617611675
 30
0.0
  0
ENDBLK
  5
1270
330
1262
100
AcDbEntity
  8
0
100
AcDbBlockEnd
  0
BLOCK
  5
1A5E
330
1A54
100
AcDbEntity
  8
0
100
AcDbBlockBegin
  2
*D8
 70
     1
 10
0.0
 20
0.0
 30
0.0
  3
*D8
  1

  0
LINE
  5
1A6C
330
1A54
100
AcDbEntity
  8
BEM
 62
     0
440
 16777216
370
    -2
100
AcDbLine
 10
103.1795698904583
 20
50.24439327065323
 30
0.0
 11
103.1795698904583
 21
33.13466702920778
 31
0.0
  0
LINE
  5
1A6D
330
1A54
100
AcDbEntity
  8
BEM
 62
     0
440
 16777216
370
    -2
100
AcDbLine
 10
330.1795698904571
 20
50.24439327064985
 30
0.0
 11
330.1795698904571
 21
33.13466702920778
 31
0.0
  0
LINE
  5
1A6E
330
1A54
100
AcDbEntity
  8
BEM
 62
     0
440
 16777216
370
    -2
100
AcDbLine
 10
110.1795698904583
 20
35.13466702920778
 30
0.0
 11
323.1795698904571
 21
35.13466702920778
 31
0.0
  0
SOLID
  5
1A6F
330
1A54
100
AcDbEntity
  8
BEM
 62
     0
440
 16777216
100
AcDbTrace
 10
110.1795698904583
 20
36.30133369587444
 30
0.0
 11
110.1795698904583
 21
33.96800036254111
 31
0.0
 12
103.1795698904583
 22
35.13466702920778
 32
0.0
 13
103.1795698904583
 23
35.13466702920778
 33
0.0
  0
SOLID
  5
1A70
330
1A54
100
AcDbEntity
  8
BEM
 62
     0
440
 16777216
100
AcDbTrace
 10
323.1795698904571
 20
36.30133369587444
 30
0.0
 11
323.1795698904571
 21
33.96800036254111
 31
0.0
 12
330.1795698904571
 22
35.13466702920778
 32
0.0
 13
330.1795698904571
 23
35.13466702920778
 33
0.0
  0
MTEXT
  5
1A71
330
1A54
100
AcDbEntity
  8
BEM
 62
     1
440
 16777216
100
AcDbMText
 10
216.6795698904577
 20
41.63466702920778
 30
0.0
 40
7.0
 41
0.0
 71
     5
 72
     1
  1
\A1;227
 73
     1
 44
1.0
  0
POINT
  5
1A72
330
1A54
100
AcDbEntity
  8
DEFPOINTS
 62
     0
440
 16777216
100
AcDbPoint
 10
103.1795698904583
 20
52.24439327065323
 30
0.0
  0
POINT
  5
1A73
330
1A54
100
AcDbEntity
  8
DEFPOINTS
 62
     0
440
 16777216
100
AcDbPoint
 10
330.1795698904571
 20
52.24439327064985
 30
0.0
  0
POINT
  5
1A74
330
1A54
100
AcDbEntity
  8
DEFPOINTS
 62
     0
440
 16777216
100
AcDbPoint
 10
330.1795698904571
 20
35.13466702920778
 30
0.0
  0
ENDBLK
  5
1A5F
330
1A54
100
AcDbEntity
  8
0
100
AcDbBlockEnd
  0
BLOCK
  5
1A6A
330
1A60
100
AcDbEntity
  8
0
100
AcDbBlockBegin
  2
*D9
 70
     1
 10
0.0
 20
0.0
 30
0.0
  3
*D9
  1

  0
LINE
  5
1A75
330
1A60
100
AcDbEntity
  8
BEM
 62
     0
440
 16777216
370
    -2
100
AcDbLine
 10
101.1795698904583
 20
52.24439327065323
 30
0.0
 11
86.57361872708607
 21
52.24439327065323
 31
0.0
  0
LINE
  5
1A76
330
1A60
100
AcDbEntity
  8
BEM
 62
     0
440
 16777216
370
    -2
100
AcDbLine
 10
101.1795698904583
 20
277.244393270647
 30
0.0
 11
86.57361872708611
 21
277.244393270647
 31
0.0
  0
LINE
  5
1A77
330
1A60
100
AcDbEntity
  8
BEM
 62
     0
440
 16777216
370
    -2
100
AcDbLine
 10
88.57361872708606
 20
59.24439327065323
 30
0.0
 11
88.57361872708612
 21
270.244393270647
 31
0.0
  0
SOLID
  5
1A78
330
1A60
100
AcDbEntity
  8
BEM
 62
     0
440
 16777216
100
AcDbTrace
 10
87.40695206041939
 20
59.24439327065323
 30
0.0
 11
89.74028539375273
 21
59.24439327065323
 31
0.0
 12
88.57361872708606
 22
52.24439327065323
 32
0.0
 13
88.57361872708606
 23
52.24439327065323
 33
0.0
  0
SOLID
  5
1A79
330
1A60
100
AcDbEntity
  8
BEM
 62
     0
440
 16777216
100
AcDbTrace
 10
87.40695206041944
 20
270.244393270647
 30
0.0
 11
89.74028539375279
 21
270.244393270647
 31
0.0
 12
88.57361872708612
 22
277.244393270647
 32
0.0
 13
88.57361872708612
 23
277.244393270647
 33
0.0
  0
MTEXT
  5
1A7A
330
1A60
100
AcDbEntity
  8
BEM
 62
     1
440
 16777216
100
AcDbMText
 10
82.07361872708608
 20
164.7443932706501
 30
0.0
 40
7.0
 41
0.0
 71
     5
 72
     1
  1
\A1;225
 11
0.0000000000000001
 21
1.0
 31
0.0
 73
     1
 44
1.0
  0
POINT
  5
1A7B
330
1A60
100
AcDbEntity
  8
DEFPOINTS
 62
     0
440
 16777216
100
AcDbPoint
 10
103.1795698904583
 20
52.24439327065323
 30
0.0
  0
POINT
  5
1A7C
330
1A60
100
AcDbEntity
  8
DEFPOINTS
 62
     0
440
 16777216
100
AcDbPoint
 10
103.1795698904583
 20
277.244393270647
 30
0.0
  0
POINT
  5
1A7D
330
1A60
100
AcDbEntity
  8
DEFPOINTS
 62
     0
440
 16777216
100
AcDbPoint
 10
88.57361872708612
 20
277.244393270647
 30
0.0
  0
ENDBLK
  5
1A6B
330
1A60
100
AcDbEntity
  8
0
100
AcDbBlockEnd
  0
BLOCK
  5
1BB0
330
1BAF
100
AcDbEntity
  8
0
100
AcDbBlockBegin
  2
*D10
 70
     1
 10
0.0
 20
0.0
 30
0.0
  3
*D10
  1

  0
LINE
  5
1BCD
330
1BAF
100
AcDbEntity
  8
BEM
 62
     0
440
 16777216
370
    -2
100
AcDbLine
 10
320.1795698904533
 20
553.7828617611685
 30
0.0
 11
78.77271001185686
 21
553.7828617611686
 31
0.0
  0
LINE
  5
1BCE
330
1BAF
100
AcDbEntity
  8
BEM
 62
     0
440
 16777216
370
    -2
100
AcDbLine
 10
101.1795698904583
 20
376.782861761164
 30
0.0
 11
78.77271001185682
 21
376.782861761164
 31
0.0
  0
LINE
  5
1BCF
330
1BAF
100
AcDbEntity
  8
BEM
 62
     0
440
 16777216
370
    -2
100
AcDbLine
 10
80.77271001185685
 20
546.7828617611686
 30
0.0
 11
80.77271001185682
 21
383.782861761164
 31
0.0
  0
SOLID
  5
1BD0
330
1BAF
100
AcDbEntity
  8
BEM
 62
     0
440
 16777216
100
AcDbTrace
 10
79.60604334519018
 20
546.7828617611686
 30
0.0
 11
81.93937667852353
 21
546.7828617611686
 31
0.0
 12
80.77271001185685
 22
553.7828617611686
 32
0.0
 13
80.77271001185685
 23
553.7828617611686
 33
0.0
  0
SOLID
  5
1BD1
330
1BAF
100
AcDbEntity
  8
BEM
 62
     0
440
 16777216
100
AcDbTrace
 10
79.60604334519015
 20
383.782861761164
 30
0.0
 11
81.93937667852349
 21
383.782861761164
 31
0.0
 12
80.77271001185682
 22
376.782861761164
 32
0.0
 13
80.77271001185682
 23
376.782861761164
 33
0.0
  0
MTEXT
  5
1BD2
330
1BAF
100
AcDbEntity
  8
BEM
 62
     1
440
 16777216
100
AcDbMText
 10
74.27271001185676
 20
465.2828617611663
 30
0.0
 40
7.0
 41
0.0
 71
     5
 72
     1
  1
\A1;177
 11
0.0000000000000001
 21
1.0
 31
0.0
 73
     1
 44
1.0
  0
POINT
  5
1BD3
330
1BAF
100
AcDbEntity
  8
DEFPOINTS
 62
     0
440
 16777216
100
AcDbPoint
 10
322.1795698904533
 20
553.7828617611685
 30
0.0
  0
POINT
  5
1BD4
330
1BAF
100
AcDbEntity
  8
DEFPOINTS
 62
     0
440
 16777216
100
AcDbPoint
 10
103.1795698904584
 20
376.782861761164
 30
0.0
  0
POINT
  5
1BD5
330
1BAF
100
AcDbEntity
  8
DEFPOINTS
 62
     0
440
 16777216
100
AcDbPoint
 10
80.77271001185682
 20
376.782861761164
 30
0.0
  0
ENDBLK
  5
1BB1
330
1BAF
100
AcDbEntity
  8
0
100
AcDbBlockEnd
  0
ENDSEC
  0
SECTION
  2
ENTITIES
  0
LINE
  5
58
330
1E
100
AcDbEntity
  8
STEMPEL
100
AcDbLine
 10
830.0000000000002
 20
110.0
 30
0.0
 11
470.0000000000001
 21
110.0
 31
0.0
  0
LINE
  5
59
330
1E
100
AcDbEntity
  8
STEMPEL
100
AcDbLine
 10
470.0000000000001
 20
110.0
 30
0.0
 11
470.0000000000001
 21
10.0
 31
0.0
  0
LINE
  5
5A
330
1E
100
AcDbEntity
  8
STEMPEL
100
AcDbLine
 10
566.0000000000002
 20
109.9999999999999
 30
0.0
 11
566.0000000000001
 21
9.999999999999886
 31
0.0
  0
LINE
  5
5B
330
1E
100
AcDbEntity
  8
STEMPEL
100
AcDbLine
 10
650.0
 20
110.0
 30
0.0
 11
650.0
 21
10.0
 31
0.0
  0
LINE
  5
5C
330
1E
100
AcDbEntity
  8
STEMPEL
100
AcDbLine
 10
752.0000000000002
 20
109.9999999999997
 30
0.0
 11
752.0000000000002
 21
40.0
 31
0.0
  0
LINE
  5
5D
330
1E
100
AcDbEntity
  8
STEMPEL
100
AcDbLine
 10
566.0
 20
30.0
 30
0.0
 11
470.0000000000001
 21
30.0
 31
0.0
  0
LINE
  5
5E
330
1E
100
AcDbEntity
  8
STEMPEL
100
AcDbLine
 10
830.0000000000002
 20
40.0
 30
0.0
 11
566.0000000000001
 21
40.0
 31
0.0
  0
LINE
  5
5F
330
1E
100
AcDbEntity
  8
STEMPEL
100
AcDbLine
 10
830.0000000000002
 20
80.0
 30
0.0
 11
566.0000000000002
 21
80.0
 31
0.0
  0
LINE
  5
60
330
1E
100
AcDbEntity
  8
VOLL
100
AcDbLine
 10
484.0000000000002
 20
110.0
 30
0.0
 11
484.0000000000001
 21
9.999999999999985
 31
0.0
  0
LINE
  5
61
330
1E
100
AcDbEntity
  8
VOLL
100
AcDbLine
 10
524.0000000000001
 20
109.9999999999999
 30
0.0
 11
524.0000000000001
 21
9.999999999999943
 31
0.0
  0
LINE
  5
62
330
1E
100
AcDbEntity
  8
VOLL
100
AcDbLine
 10
544.0000000000002
 20
109.9999999999999
 30
0.0
 11
544.0000000000001
 21
9.999999999999914
 31
0.0
  0
LINE
  5
63
330
1E
100
AcDbEntity
  8
VOLL
100
AcDbLine
 10
584.0000000000002
 20
80.0
 30
0.0
 11
584.0000000000002
 21
40.0
 31
0.0
  0
LINE
  5
64
330
1E
100
AcDbEntity
  8
VOLL
100
AcDbLine
 10
610.0000000000002
 20
109.9999999999998
 30
0.0
 11
610.0000000000001
 21
40.0
 31
0.0
  0
LINE
  5
65
330
1E
100
AcDbEntity
  8
HILF
100
AcDbLine
 10
470.0000000000001
 20
100.0
 30
0.0
 11
566.0000000000002
 21
100.0
 31
0.0
  0
LINE
  5
66
330
1E
100
AcDbEntity
  8
HILF
100
AcDbLine
 10
470.0000000000001
 20
90.0
 30
0.0
 11
566.0000000000002
 21
90.0
 31
0.0
  0
LINE
  5
67
330
1E
100
AcDbEntity
  8
HILF
100
AcDbLine
 10
470.0000000000001
 20
80.0
 30
0.0
 11
566.0000000000002
 21
80.0
 31
0.0
  0
LINE
  5
68
330
1E
100
AcDbEntity
  8
HILF
100
AcDbLine
 10
470.0000000000001
 20
70.0
 30
0.0
 11
566.0000000000002
 21
70.0
 31
0.0
  0
LINE
  5
69
330
1E
100
AcDbEntity
  8
HILF
100
AcDbLine
 10
470.0000000000001
 20
60.0
 30
0.0
 11
566.0000000000002
 21
60.0
 31
0.0
  0
LINE
  5
6A
330
1E
100
AcDbEntity
  8
HILF
100
AcDbLine
 10
470.0000000000001
 20
50.0
 30
0.0
 11
566.0000000000002
 21
50.0
 31
0.0
  0
LINE
  5
6B
330
1E
100
AcDbEntity
  8
HILF
100
AcDbLine
 10
470.0000000000001
 20
40.0
 30
0.0
 11
566.0000000000002
 21
40.0
 31
0.0
  0
LINE
  5
6C
330
1E
100
AcDbEntity
  8
HILF
100
AcDbLine
 10
566.0000000000002
 20
70.0
 30
0.0
 11
650.0
 21
70.0
 31
0.0
  0
LINE
  5
6D
330
1E
100
AcDbEntity
  8
HILF
100
AcDbLine
 10
566.0000000000002
 20
60.0
 30
0.0
 11
650.0
 21
60.0
 31
0.0
  0
LINE
  5
6E
330
1E
100
AcDbEntity
  8
HILF
100
AcDbLine
 10
566.0000000000002
 20
50.0
 30
0.0
 11
650.0
 21
50.0
 31
0.0
  0
LINE
  5
6F
330
1E
100
AcDbEntity
  8
HILF
100
AcDbLine
 10
654.7736801096948
 20
84.03758247564136
 30
0.0
 11
746.6297842514811
 21
84.03758247564136
 31
0.0
  0
LINE
  5
70
330
1E
100
AcDbEntity
  8
HILF
100
AcDbLine
 10
654.7736801096948
 20
70.0
 30
0.0
 11
746.6297842514811
 21
70.0
 31
0.0
  0
LINE
  5
71
330
1E
100
AcDbEntity
  8
HILF
100
AcDbLine
 10
654.7736801096948
 20
60.0
 30
0.0
 11
746.6297842514811
 21
60.0
 31
0.0
  0
LINE
  5
72
330
1E
100
AcDbEntity
  8
HILF
100
AcDbLine
 10
654.7736801096948
 20
50.0
 30
0.0
 11
746.6297842514811
 21
50.0
 31
0.0
  0
LINE
  5
73
330
1E
100
AcDbEntity
  8
VOLL
100
AcDbLine
 10
752.0000000000002
 20
60.0
 30
0.0
 11
830.0000000000002
 21
60.0
 31
0.0
  0
LINE
  5
74
330
1E
100
AcDbEntity
  8
HILF
100
AcDbLine
 10
756.7238616296995
 20
83.77983636955823
 30
0.0
 11
824.858883932673
 21
83.77983636955823
 31
0.0
  0
LINE
  5
75
330
1E
100
AcDbEntity
  8
HILF
100
AcDbLine
 10
654.7736801096948
 20
14.89398258028305
 30
0.0
 11
824.858883932673
 21
14.89398258028305
 31
0.0
  0
TEXT
  5
76
330
1E
100
AcDbEntity
  8
TEXT
100
AcDbText
 10
492.3998239263297
 20
18.67381894984129
 30
0.0
 40
4.0
  1
Änderung
 41
0.8
  7
GREEKS
 72
     1
 11
503.1426810691868
 21
18.67381894984129
 31
0.0
100
AcDbText
  0
TEXT
  5
78
330
1E
100
AcDbEntity
  8
TEXT
100
AcDbText
 10
573.5163572150378
 20
102.4620895087088
 30
0.0
 40
5.0
  1
Maßstab
 41
0.8
  7
GREEKS
100
AcDbText
  0
TEXT
  5
79
330
1E
100
AcDbEntity
  8
TEXT
100
AcDbText
 10
654.8779403809011
 20
102.5489328011779
 30
0.0
 40
5.0
  1
Benennung
 41
0.8
  7
GREEKS
100
AcDbText
  0
TEXT
  5
7A
330
1E
100
AcDbEntity
  8
TEXT
100
AcDbText
 10
756.1787549576343
 20
102.3132034537135
 30
0.0
 40
5.0
  1
Zeichnungs Nr.
 41
0.8
  7
GREEKS
100
AcDbText
  0
TEXT
  5
7B
330
1E
100
AcDbEntity
  8
TEXT
100
AcDbText
 10
654.742238391136
 20
30.84560570193055
 30
0.0
 40
5.0
  1
Bauvorhaben
 41
0.8
  7
GREEKS
100
AcDbText
  0
TEXT
  5
7C
330
1E
100
AcDbEntity
  8
TEXT
100
AcDbText
 10
756.7238616296995
 20
73.18118237099965
 30
0.0
 40
5.0
  1
Ersatz für:
 41
0.8
  7
GREEKS
100
AcDbText
  0
TEXT
  5
7D
330
1E
100
AcDbEntity
  8
TEXT
100
AcDbText
 10
478.2664110704577
 20
13.65465846027187
 30
0.0
 40
4.0
  1
Index
 50
90.0
 41
0.8
  7
GREEKS
100
AcDbText
  0
TEXT
  5
7E
330
1E
100
AcDbEntity
  8
TEXT
100
AcDbText
 10
529.8990113186979
 20
18.67156269339808
 30
0.0
 40
4.0
  1
Tag
 41
0.8
  7
GREEKS
 72
     1
 11
533.6323446520313
 21
18.67156269339808
 31
0.0
100
AcDbText
  0
TEXT
  5
7F
330
1E
100
AcDbEntity
  8
TEXT
100
AcDbText
 10
548.9795678138293
 20
18.59324216966404
 30
0.0
 40
4.0
  1
Name
 41
0.8
  7
GREEKS
 72
     1
 11
555.3033773376388
 21
18.59324216966404
 31
0.0
100
AcDbText
  0
TEXT
  5
80
330
1E
100
AcDbEntity
  8
TEXT
100
AcDbText
 10
592.3311673153651
 20
73.31880501229919
 30
0.0
 40
4.0
  1
Tag
 41
0.8
  7
GREEKS
100
AcDbText
  0
TEXT
  5
81
330
1E
100
AcDbEntity
  8
TEXT
100
AcDbText
 10
622.4626584226296
 20
73.3096109191522
 30
0.0
 40
4.0
  1
Name
 41
0.8
  7
GREEKS
100
AcDbText
  0
TEXT
  5
82
330
1E
100
AcDbEntity
  8
TEXT
100
AcDbText
 10
567.5836127167616
 20
63.62990369617961
 30
0.0
 40
4.0
  1
Gez.
 41
0.8
  7
GREEKS
100
AcDbText
  0
TEXT
  5
83
330
1E
100
AcDbEntity
  8
TEXT
100
AcDbText
 10
567.5515086571673
 20
53.68926291428373
 30
0.0
 40
4.0
  1
Gepr.
 41
0.8
  7
GREEKS
100
AcDbText
  0
TEXT
  5
84
330
1E
100
AcDbEntity
  8
TEXT
100
AcDbText
 10
567.6006777387304
 20
43.52946389649804
 30
0.0
 40
4.0
  1
Norm.
 41
0.8
  7
GREEKS
100
AcDbText
  0
TEXT
  5
85
330
1E
100
AcDbEntity
  8
TEXT
100
AcDbText
 10
757.2400861497007
 20
52.07416177878596
 30
0.0
 40
5.0
  1
ersetzt durch:
 41
0.8
  7
GREEKS
100
AcDbText
  0
TEXT
  5
86
330
1E
100
AcDbEntity
  8
TEXT
100
AcDbText
 10
568.8693027807324
 20
72.96682596523723
 30
0.0
 40
4.0
  1
2013
 41
0.8
  7
GREEKS
100
AcDbText
  0
LINE
  5
87
330
1E
100
AcDbEntity
  8
HILF
100
AcDbLine
 10
0.0
 20
0.0
 30
0.0
 11
840.0
 21
0.0
 31
0.0
  0
LINE
  5
88
330
1E
100
AcDbEntity
  8
HILF
100
AcDbLine
 10
840.0
 20
0.0
 30
0.0
 11
840.0
 21
594.0
 31
0.0
  0
LINE
  5
89
330
1E
100
AcDbEntity
  8
HILF
100
AcDbLine
 10
840.0
 20
594.0
 30
0.0
 11
0.0
 21
594.0
 31
0.0
  0
LINE
  5
8B
330
1E
100
AcDbEntity
  8
STEMPEL
100
AcDbLine
 10
830.0
 20
584.0
 30
0.0
 11
40.0
 21
584.0
 31
0.0
  0
LINE
  5
8D
330
1E
100
AcDbEntity
  8
STEMPEL
100
AcDbLine
 10
40.0
 20
10.0
 30
0.0
 11
830.0
 21
10.0
 31
0.0
  0
LINE
  5
8E
330
1E
100
AcDbEntity
  8
STEMPEL
100
AcDbLine
 10
830.0
 20
10.0
 30
0.0
 11
830.0
 21
584.0
 31
0.0
  0
TEXT
  5
8F
330
1E
100
AcDbEntity
  8
TEXT
 62
     1
100
AcDbText
 10
655.0390572473189
 20
87.37343075652544
 30
0.0
 40
7.0
  1
Attika-Drainjet Ablauf DN50
 41
0.6
  7
GREEKS
100
AcDbText
  0
TEXT
  5
90
330
1E
100
AcDbEntity
  8
TEXT
 62
     1
100
AcDbText
 10
767.1961422184136
 20
87.37343075652544
 30
0.0
 40
7.0
  1
13516050W
 41
0.8
  7
GREEKS
 72
     1
 11
790.1294755517469
 21
87.37343075652544
 31
0.0
100
AcDbText
  0
TEXT
  5
91
330
1E
100
AcDbEntity
  8
TEXT
100
AcDbText
 10
618.509022641583
 20
102.83989611379
 30
0.0
 40
5.0
  1
Zul.Abw.
 41
0.8
  7
GREEKS
100
AcDbText
  0
TEXT
  5
93
330
1E
100
AcDbEntity
  8
TEXT
100
AcDbText
 10
590.4612856559488
 20
63.1508587612022
 30
0.0
 40
4.0
  1
17.09.
 41
0.8
  7
GREEKS
 72
     1
 11
597.1660475607107
 21
63.1508587612022
 31
0.0
100
AcDbText
  0
TEXT
  5
94
330
1E
100
AcDbEntity
  8
TEXT
100
AcDbText
 10
624.023175322661
 20
62.94297655165468
 30
0.0
 40
4.0
  1
Koeh
 41
0.8
  7
GREEKS
 72
     1
 11
629.2803181798038
 21
62.94297655165468
 31
0.0
100
AcDbText
  0
TEXT
  5
95
330
1E
100
AcDbEntity
  8
TEXT
100
AcDbText
 10
654.3410940884992
 20
72.10021383107525
 30
0.0
 40
5.0
  1
Ablaufeinheit für Folienklemmung
 41
0.75
  7
GREEKS
100
AcDbText
  0
TEXT
  5
97
330
1E
100
AcDbEntity
  8
TEXT
100
AcDbText
 10
654.3410940884992
 20
52.59097337846058
 30
0.0
 40
5.0
  1
EDV-Art.Nr. 13516.050X
 41
0.8
  7
GREEKS
100
AcDbText
  0
TEXT
  5
98
330
1E
100
AcDbEntity
  8
TEXT
100
AcDbText
 10
654.1676050109348
 20
43.31127624791508
 30
0.0
 40
4.0
  1
13516050W.DWG
 41
0.8
  7
GREEKS
100
AcDbText
  0
TEXT
  5
99
330
1E
100
AcDbEntity
  8
TEXT
 62
     1
100
AcDbText
 10
582.7034912034222
 20
87.47077088414977
 30
0.0
 40
7.0
  1
1:2
 41
0.8
  7
GREEKS
100
AcDbText
  0
TEXT
  5
9A
330
1E
100
AcDbEntity
  8
TEXT
100
AcDbText
 10
470.0441139350127
 20
114.1143585051043
 30
0.0
 40
5.0
  1
Erstellt mit AUTOCAD 2004
 41
0.8
  7
GREEKS
100
AcDbText
  0
INSERT
  5
9B
330
1E
100
AcDbEntity
  8
HILF
100
AcDbBlockReference
  2
LORO
 10
573.0624985962354
 20
36.9805930029896
 30
0.0
 41
2.0
 42
2.0
 43
2.0
  0
LINE
  5
9C
330
1E
100
AcDbEntity
  8
BEM
100
AcDbLine
 10
456.0
 20
0.0
 30
0.0
 11
456.0
 21
10.0
 31
0.0
  0
LINE
  5
13E
330
1E
100
AcDbEntity
  8
HILF
100
AcDbLine
 10
0.0
 20
0.0
 30
0.0
 11
0.0
 21
594.0
 31
0.0
  0
LINE
  5
13F
330
1E
100
AcDbEntity
  8
STEMPEL
100
AcDbLine
 10
40.0
 20
10.0
 30
0.0
 11
40.0
 21
584.0
 31
0.0
  0
LINE
  5
14A
330
1E
100
AcDbEntity
  8
HILF
100
AcDbLine
 10
0.0
 20
297.0
 30
0.0
 11
40.0
 21
297.0
 31
0.0
  0
TEXT
  5
15B
330
1E
100
AcDbEntity
  8
BEM
100
AcDbText
 10
837.3022923857165
 20
10.16790107998861
 30
0.0
 40
4.0
  1
Diese Zeichnung ist urheberrechtlich geschützt und bleibt unser Eigentum. Sie darf weder ganz noch teilweise verfielfältigt und nicht an Dritte weitergegeben werden.
 50
90.0
 41
0.8
  7
GREEKS
100
AcDbText
  0
LINE
  5
4A4
330
1E
100
AcDbEntity
  8
STEMPEL
100
AcDbLine
 10
322.1795698904533
 20
553.7828617611685
 30
0.0
 11
330.1795698904535
 21
553.7828617611685
 31
0.0
  0
LINE
  5
4A8
330
1E
100
AcDbEntity
  8
STEMPEL
  6
Continuous
100
AcDbLine
 10
302.1795698904567
 20
517.2828017611688
 30
0.0
 11
303.6795698904567
 21
518.7828017611687
 31
0.0
  0
LINE
  5
4A9
330
1E
100
AcDbEntity
  8
STEMPEL
  6
Continuous
100
AcDbLine
 10
302.1795698904567
 20
510.2829217611688
 30
0.0
 11
303.6795698904567
 21
508.7829217611688
 31
0.0
  0
LINE
  5
4AA
330
1E
100
AcDbEntity
  8
STEMPEL
  6
Continuous
100
AcDbLine
 10
303.6795698904567
 20
508.7829217611688
 30
0.0
 11
303.6795698904567
 21
518.7828017611687
 31
0.0
  0
LINE
  5
4AB
330
1E
100
AcDbEntity
  8
STEMPEL
  6
Continuous
100
AcDbLine
 10
302.1795698904567
 20
510.2829217611688
 30
0.0
 11
302.1795698904567
 21
517.2828017611688
 31
0.0
  0
LINE
  5
4AC
330
1E
100
AcDbEntity
  8
MITTEL
100
AcDbLine
 10
297.1795698904567
 20
513.7828617611686
 30
0.0
 11
330.1795698904558
 21
513.7828617611686
 31
0.0
  0
LINE
  5
537
330
1E
100
AcDbEntity
  8
STEMPEL
  6
Continuous
100
AcDbLine
 10
230.6795098904628
 20
404.7828617611662
 30
0.0
 11
232.1795098904628
 21
403.2828617611662
 31
0.0
  0
LINE
  5
53B
330
1E
100
AcDbEntity
  8
HILF
  6
Continuous
100
AcDbLine
 10
230.6745223904633
 20
404.7828617611662
 30
0.0
 11
230.6745223904632
 21
398.7828617611665
 31
0.0
  0
LINE
  5
53C
330
1E
100
AcDbEntity
  8
STEMPEL
  6
Continuous
100
AcDbLine
 10
232.179509890463
 20
403.2828617611659
 30
0.0
 11
232.179509890463
 21
398.7828617611666
 31
0.0
  0
LINE
  5
53D
330
1E
100
AcDbEntity
  8
MITTEL
100
AcDbLine
 10
227.1795698904629
 20
409.7828617611662
 30
0.0
 11
227.1795698904629
 21
376.7828617611665
 31
0.0
  0
LINE
  5
540
330
1E
100
AcDbEntity
  8
STEMPEL
  6
Continuous
100
AcDbLine
 10
223.6796298904627
 20
404.7828617611662
 30
0.0
 11
222.1796298904627
 21
403.2828617611662
 31
0.0
  0
LINE
  5
541
330
1E
100
AcDbEntity
  8
STEMPEL
  6
Continuous
100
AcDbLine
 10
222.1796298904652
 20
403.2828617611687
 30
0.0
 11
222.1796298904647
 21
398.7828617611666
 31
0.0
  0
LINE
  5
542
330
1E
100
AcDbEntity
  8
HILF
  6
Continuous
100
AcDbLine
 10
223.6846173904631
 20
404.7828617611662
 30
0.0
 11
223.6846173904631
 21
398.7828617611665
 31
0.0
  0
LINE
  5
543
330
1E
100
AcDbEntity
  8
STEMPEL
  6
Continuous
100
AcDbLine
 10
222.1796298904627
 20
403.2828617611662
 30
0.0
 11
232.1795098904628
 21
403.2828617611662
 31
0.0
  0
LINE
  5
544
330
1E
100
AcDbEntity
  8
STEMPEL
  6
Continuous
100
AcDbLine
 10
223.6796298904627
 20
404.7828617611662
 30
0.0
 11
230.6795098904628
 21
404.7828617611662
 31
0.0
  0
LINE
  5
549
330
1E
100
AcDbEntity
  8
STEMPEL
  6
Continuous
100
AcDbLine
 10
146.6795098904605
 20
404.7828617611664
 30
0.0
 11
148.1795098904605
 21
403.2828617611663
 31
0.0
  0
LINE
  5
54A
330
1E
100
AcDbEntity
  8
STEMPEL
  6
Continuous
100
AcDbLine
 10
139.6796298904604
 20
404.7828617611664
 30
0.0
 11
138.1796298904604
 21
403.2828617611663
 31
0.0
  0
LINE
  5
54B
330
1E
100
AcDbEntity
  8
STEMPEL
  6
Continuous
100
AcDbLine
 10
139.6796298904604
 20
404.7828617611664
 30
0.0
 11
146.6795098904605
 21
404.7828617611664
 31
0.0
  0
LINE
  5
54C
330
1E
100
AcDbEntity
  8
STEMPEL
  6
Continuous
100
AcDbLine
 10
138.1796298904604
 20
403.2828617611663
 30
0.0
 11
148.1795098904605
 21
403.2828617611663
 31
0.0
  0
LINE
  5
54D
330
1E
100
AcDbEntity
  8
STEMPEL
  6
Continuous
100
AcDbLine
 10
138.1796298904629
 20
403.2828617611688
 30
0.0
 11
138.1796298904624
 21
398.7828617611649
 31
0.0
  0
LINE
  5
54E
330
1E
100
AcDbEntity
  8
HILF
  6
Continuous
100
AcDbLine
 10
139.6846173904608
 20
404.7828617611664
 30
0.0
 11
139.6846173904608
 21
398.7828617611648
 31
0.0
  0
LINE
  5
54F
330
1E
100
AcDbEntity
  8
STEMPEL
  6
Continuous
100
AcDbLine
 10
148.1795098904607
 20
403.2828617611659
 30
0.0
 11
148.1795098904607
 21
398.7828617611648
 31
0.0
  0
LINE
  5
550
330
1E
100
AcDbEntity
  8
HILF
  6
Continuous
100
AcDbLine
 10
146.6745223904607
 20
404.7828617611664
 30
0.0
 11
146.6745223904607
 21
398.7828617611648
 31
0.0
  0
LINE
  5
551
330
1E
100
AcDbEntity
  8
MITTEL
100
AcDbLine
 10
143.1795698904604
 20
409.7828617611662
 30
0.0
 11
143.1795698904603
 21
376.7828617611648
 31
0.0
  0
LINE
  5
553
330
1E
100
AcDbEntity
  8
STEMPEL
100
AcDbLine
 10
103.1795698904583
 20
384.7828617611641
 30
0.0
 11
103.1795698904583
 21
376.7828617611641
 31
0.0
  0
LINE
  5
557
330
1E
100
AcDbEntity
  8
STEMPEL
100
AcDbLine
 10
103.1795698904583
 20
379.782861761164
 30
0.0
 11
311.1795698904632
 21
379.7828617611682
 31
0.0
  0
ARC
  5
78A
330
1E
100
AcDbEntity
  8
STEMPEL
100
AcDbCircle
 10
311.1795698904629
 20
395.7828617611683
 30
0.0
 40
16.0
100
AcDbArc
 50
270.0000000000012
 51
0.0000000000034604
  0
LINE
  5
7DD
330
1E
100
AcDbEntity
  8
MITTEL
100
AcDbLine
 10
293.6423912731036
 20
413.3200403785276
 30
0.0
 11
326.7359190765669
 21
380.2265125750643
 31
0.0
  0
LINE
  5
829
330
1E
100
AcDbEntity
  8
STEMPEL
100
AcDbLine
 10
327.1795698904629
 20
395.7828617611693
 30
0.0
 11
327.1795698904534
 21
553.7828617611685
 31
0.0
  0
DIMENSION
  5
845
330
1E
100
AcDbEntity
  8
BEM
100
AcDbDimension
  2
*D2
 10
330.1795698904628
 20
347.0744989992161
 30
0.0
 11
216.6795698904606
 21
353.5744989992161
 31
0.0
 70
    32
 71
     5
 42
227.0000000000045
  3
Standard
100
AcDbAlignedDimension
 13
103.1795698904583
 23
376.7828617611641
 33
0.0
 14
330.1795698904628
 24
395.7828617611694
 34
0.0
100
AcDbRotatedDimension
1001
ACAD
1000
DSTYLE
1002
{
1070
    40
1040
2.0
1070
    41
1040
3.5
1070
    42
1040
1.0
1070
    43
1040
7.0
1070
    44
1040
1.0
1070
    73
1070
     0
1070
    74
1070
     0
1070
    77
1070
     1
1070
    78
1070
     8
1070
    79
1070
     2
1070
   140
1040
3.5
1070
   141
1040
1.5
1070
   146
1040
0.5
1070
   147
1040
1.5
1070
   172
1070
     1
1070
   178
1070
     1
1070
   179
1070
     2
1070
   271
1070
     2
1070
   272
1070
     2
1070
   284
1070
     8
1070
   285
1070
     8
1070
   286
1070
     8
1002
}
  0
LINE
  5
9B9
330
1E
100
AcDbEntity
  8
MITTEL
100
AcDbLine
 10
386.8948843707203
 20
164.7443932706501
 30
0.0
 11
733.9790535250466
 21
164.7443932706501
 31
0.0
  0
DIMENSION
  5
A4B
330
1E
100
AcDbEntity
  8
BEM
100
AcDbDimension
  2
*D3
 10
730.1795698904629
 20
333.7374056173323
 30
0.0
 11
416.6795698904606
 21
340.2374056173323
 31
0.0
 70
    32
 71
     5
 42
627.0000000000046
  3
Standard
100
AcDbAlignedDimension
 13
103.1795698904583
 23
376.7828617611641
 33
0.0
 14
730.1795698904629
 24
391.0421377459496
 34
0.0
100
AcDbRotatedDimension
1001
ACAD
1000
DSTYLE
1002
{
1070
    40
1040
2.0
1070
    41
1040
3.5
1070
    42
1040
1.0
1070
    43
1040
7.0
1070
    44
1040
1.0
1070
    73
1070
     0
1070
    74
1070
     0
1070
    77
1070
     1
1070
    78
1070
     8
1070
    79
1070
     2
1070
   140
1040
3.5
1070
   141
1040
1.5
1070
   146
1040
0.5
1070
   147
1040
1.5
1070
   172
1070
     1
1070
   178
1070
     1
1070
   179
1070
     2
1070
   271
1070
     2
1070
   272
1070
     2
1070
   284
1070
     8
1070
   285
1070
     8
1070
   286
1070
     8
1002
}
  0
DIMENSION
  5
A61
330
1E
100
AcDbEntity
  8
BEM
100
AcDbDimension
  2
*D4
 10
94.98380163734509
 20
379.782861761164
 30
0.0
 11
88.48380163734503
 21
398.6495284278307
 31
0.0
 70
    32
 71
     5
 42
2.999999999999943
  3
Standard
100
AcDbAlignedDimension
 13
103.1795698904583
 23
376.7828617611641
 33
0.0
 14
103.1795698904583
 24
379.782861761164
 34
0.0
 50
90.0
100
AcDbRotatedDimension
1001
ACAD
1000
DSTYLE
1002
{
1070
    40
1040
2.0
1070
    41
1040
3.5
1070
    42
1040
1.0
1070
    43
1040
7.0
1070
    44
1040
1.0
1070
    73
1070
     0
1070
    74
1070
     0
1070
    77
1070
     1
1070
    78
1070
     8
1070
    79
1070
     2
1070
   140
1040
3.5
1070
   141
1040
1.5
1070
   146
1040
0.5
1070
   147
1040
1.5
1070
   172
1070
     1
1070
   178
1070
     1
1070
   179
1070
     2
1070
   271
1070
     2
1070
   272
1070
     2
1070
   284
1070
     8
1070
   285
1070
     8
1070
   286
1070
     8
1002
}
  0
ARC
  5
A9B
330
1E
100
AcDbEntity
  8
SCHRAFF
100
AcDbCircle
 10
330.1795698904511
 20
194.2443932706501
 30
0.0
 40
4.0
100
AcDbArc
 50
359.9999999999988
 51
90.0
  0
ARC
  5
A9C
330
1E
100
AcDbEntity
  8
SCHRAFF
100
AcDbCircle
 10
330.1795698904513
 20
135.2443932706502
 30
0.0
 40
4.0
100
AcDbArc
 50
270.0
 51
0.0000000000012213
  0
ARC
  5
AAB
330
1E
100
AcDbEntity
  8
SCHRAFF
100
AcDbCircle
 10
332.1795698904572
 20
194.3443932706494
 30
0.0
 40
5.0
100
AcDbArc
 50
246.4218215217974
 51
293.5781784782019
  0
ARC
  5
AAC
330
1E
100
AcDbEntity
  8
SCHRAFF
100
AcDbCircle
 10
332.1795698904572
 20
189.3443932706494
 30
0.0
 40
5.0
100
AcDbArc
 50
246.4218215217974
 51
293.5781784782019
  0
ARC
  5
AAD
330
1E
100
AcDbEntity
  8
SCHRAFF
100
AcDbCircle
 10
332.1795698904572
 20
184.3443932706494
 30
0.0
 40
5.0
100
AcDbArc
 50
246.4218215217974
 51
293.5781784782019
  0
ARC
  5
AAE
330
1E
100
AcDbEntity
  8
SCHRAFF
100
AcDbCircle
 10
332.1795698904572
 20
179.3443932706494
 30
0.0
 40
5.0
100
AcDbArc
 50
246.4218215217974
 51
293.5781784782019
  0
ARC
  5
AAF
330
1E
100
AcDbEntity
  8
SCHRAFF
100
AcDbCircle
 10
332.1795698904572
 20
174.3443932706494
 30
0.0
 40
5.0
100
AcDbArc
 50
246.4218215217974
 51
293.5781784782019
  0
ARC
  5
AB0
330
1E
100
AcDbEntity
  8
SCHRAFF
100
AcDbCircle
 10
332.1795698904572
 20
169.3443932706494
 30
0.0
 40
5.0
100
AcDbArc
 50
246.4218215217974
 51
293.5781784782019
  0
ARC
  5
AB1
330
1E
100
AcDbEntity
  8
SCHRAFF
100
AcDbCircle
 10
332.1795698904572
 20
164.3443932706494
 30
0.0
 40
5.0
100
AcDbArc
 50
246.4218215217974
 51
293.5781784782019
  0
ARC
  5
AB2
330
1E
100
AcDbEntity
  8
SCHRAFF
100
AcDbCircle
 10
332.1795698904572
 20
159.3443932706494
 30
0.0
 40
5.0
100
AcDbArc
 50
246.4218215217974
 51
293.5781784782019
  0
ARC
  5
AB3
330
1E
100
AcDbEntity
  8
SCHRAFF
100
AcDbCircle
 10
332.1795698904572
 20
154.3443932706494
 30
0.0
 40
5.0
100
AcDbArc
 50
246.4218215217974
 51
293.5781784782019
  0
ARC
  5
AB4
330
1E
100
AcDbEntity
  8
SCHRAFF
100
AcDbCircle
 10
332.1795698904572
 20
149.3443932706494
 30
0.0
 40
5.0
100
AcDbArc
 50
246.4218215217974
 51
293.5781784782019
  0
ARC
  5
AB5
330
1E
100
AcDbEntity
  8
SCHRAFF
100
AcDbCircle
 10
332.1795698904572
 20
144.3443932706494
 30
0.0
 40
5.0
100
AcDbArc
 50
246.4218215217974
 51
293.5781784782019
  0
TEXT
  5
AB8
330
1E
100
AcDbEntity
  8
TEXT
 62
     1
100
AcDbText
 10
595.6740485472322
 20
173.2170976948619
 30
0.0
 40
7.0
  1
DN50
 50
0.0000000000011191
 41
0.8
  7
GREEKS
 72
     1
 11
605.9407152138988
 21
173.2170976948621
 31
0.0
100
AcDbText
  0
TEXT
  5
B14
330
1E
100
AcDbEntity
  8
TEXT
100
AcDbText
 10
612.2898419893276
 20
87.85335773804371
 30
0.0
 40
4.0
  1
DIN EN1124-3
 41
0.8
  7
GREEKS
 72
     1
 11
629.2803181798038
 21
87.85335773804371
 31
0.0
100
AcDbText
  0
DIMENSION
  5
E3B
330
1E
100
AcDbEntity
  8
BEM
100
AcDbDimension
  2
*D5
 10
730.1795698904629
 20
347.0744989992161
 30
0.0
 11
530.1795698904628
 21
353.5744989992161
 31
0.0
 70
    32
 71
     5
 42
400.0000000000001
  3
Standard
100
AcDbAlignedDimension
 13
330.1795698904628
 23
395.7828617611694
 33
0.0
 14
730.1795698904629
 24
391.0421377459496
 34
0.0
100
AcDbRotatedDimension
1001
ACAD
1000
DSTYLE
1002
{
1070
    40
1040
2.0
1070
    41
1040
3.5
1070
    42
1040
1.0
1070
    43
1040
7.0
1070
    44
1040
1.0
1070
    73
1070
     0
1070
    74
1070
     0
1070
    77
1070
     1
1070
    78
1070
     8
1070
    79
1070
     2
1070
   140
1040
3.5
1070
   141
1040
1.5
1070
   146
1040
0.5
1070
   147
1040
1.5
1070
   172
1070
     1
1070
   178
1070
     1
1070
   179
1070
     2
1070
   271
1070
     2
1070
   272
1070
     2
1070
   284
1070
     8
1070
   285
1070
     8
1070
   286
1070
     8
1002
}
  0
LINE
  5
1006
330
1E
100
AcDbEntity
  8
STEMPEL
100
AcDbLine
 10
301.7741192567487
 20
412.2593802067481
 30
0.0
 11
306.4516478291053
 21
407.5818516343912
 31
0.0
  0
LINE
  5
1007
330
1E
100
AcDbEntity
  8
STEMPEL
100
AcDbLine
 10
294.7030514448836
 20
405.1883123948821
 30
0.0
 11
299.3805800172399
 21
400.5107838225257
 31
0.0
  0
LINE
  5
100E
330
1E
100
AcDbEntity
  8
HILF
100
AcDbLine
 10
299.652798913189
 20
412.2593802067479
 30
0.0
 11
305.3909876573254
 21
406.5211914626113
 31
0.0
  0
LINE
  5
100F
330
1E
100
AcDbEntity
  8
HILF
100
AcDbLine
 10
294.7030514448836
 20
407.3096327384417
 30
0.0
 11
300.4412401890197
 21
401.5714439943056
 31
0.0
  0
LINE
  5
1010
330
1E
100
AcDbEntity
  8
STEMPEL
100
AcDbLine
 10
301.7741192567487
 20
412.2593802067481
 30
0.0
 11
294.7030514448836
 21
405.1883123948821
 31
0.0
  0
LINE
  5
1011
330
1E
100
AcDbEntity
  8
STEMPEL
100
AcDbLine
 10
301.7741192567487
 20
412.2593802067481
 30
0.0
 11
299.652798913189
 21
412.2593802067479
 31
0.0
  0
LINE
  5
1012
330
1E
100
AcDbEntity
  8
STEMPEL
100
AcDbLine
 10
299.652798913189
 20
412.2593802067479
 30
0.0
 11
294.7030514448836
 21
407.3096327384417
 31
0.0
  0
LINE
  5
1013
330
1E
100
AcDbEntity
  8
STEMPEL
100
AcDbLine
 10
294.7030514448836
 20
407.3096327384417
 30
0.0
 11
294.7030514448836
 21
405.1883123948821
 31
0.0
  0
LINE
  5
1099
330
1E
100
AcDbEntity
  8
STEMPEL
100
AcDbLine
 10
330.1795698904628
 20
395.7828617611694
 30
0.0
 11
330.1795698904535
 21
553.7828617611685
 31
0.0
  0
ARC
  5
10B5
330
1E
100
AcDbEntity
  8
STEMPEL
100
AcDbCircle
 10
311.1795698904629
 20
395.7828617611683
 30
0.0
 40
19.0
100
AcDbArc
 50
270.0000000000012
 51
0.0000000000034604
  0
LINE
  5
10B6
330
1E
100
AcDbEntity
  8
STEMPEL
100
AcDbLine
 10
103.1795698904584
 20
376.782861761164
 30
0.0
 11
311.1795698904633
 21
376.7828617611682
 31
0.0
  0
ARC
  5
1168
330
1E
100
AcDbEntity
  8
SCHRAFF
100
AcDbCircle
 10
330.1795698904602
 20
440.9449102585063
 30
0.0
 40
4.0
100
AcDbArc
 50
357.0000000000001
 51
90.00000000000406
  0
ARC
  5
116C
330
1E
100
AcDbEntity
  8
SCHRAFF
100
AcDbCircle
 10
324.5562188925758
 20
386.8766844876578
 30
0.0
 40
6.936188091397512
100
AcDbArc
 50
250.530358597822
 51
326.5844451700867
  0
ARC
  5
118A
330
1E
100
AcDbEntity
  8
SCHRAFF
100
AcDbCircle
 10
332.1795698904588
 20
445.1822315531786
 30
0.0
 40
5.0
100
AcDbArc
 50
246.4218215218016
 51
293.5781784782053
  0
ARC
  5
118B
330
1E
100
AcDbEntity
  8
SCHRAFF
100
AcDbCircle
 10
332.1795698904588
 20
440.1822315531786
 30
0.0
 40
5.0
100
AcDbArc
 50
246.4218215218016
 51
293.5781784782053
  0
ARC
  5
118C
330
1E
100
AcDbEntity
  8
SCHRAFF
100
AcDbCircle
 10
332.1795698904588
 20
420.1822315531786
 30
0.0
 40
5.0
100
AcDbArc
 50
246.4218215218016
 51
293.5781784782053
  0
ARC
  5
118D
330
1E
100
AcDbEntity
  8
SCHRAFF
100
AcDbCircle
 10
332.1795698904588
 20
425.1822315531787
 30
0.0
 40
5.0
100
AcDbArc
 50
246.4218215218016
 51
293.5781784782053
  0
ARC
  5
118E
330
1E
100
AcDbEntity
  8
SCHRAFF
100
AcDbCircle
 10
332.1795698904588
 20
435.1822315531786
 30
0.0
 40
5.0
100
AcDbArc
 50
246.4218215218016
 51
293.5781784782053
  0
ARC
  5
118F
330
1E
100
AcDbEntity
  8
SCHRAFF
100
AcDbCircle
 10
332.1795698904588
 20
430.1822315531786
 30
0.0
 40
5.0
100
AcDbArc
 50
246.4218215218016
 51
293.5781784782053
  0
ARC
  5
1190
330
1E
100
AcDbEntity
  8
SCHRAFF
100
AcDbCircle
 10
332.1795698904588
 20
410.1822315531786
 30
0.0
 40
5.0
100
AcDbArc
 50
246.4218215218016
 51
293.5781784782053
  0
ARC
  5
1191
330
1E
100
AcDbEntity
  8
SCHRAFF
100
AcDbCircle
 10
332.1795698904588
 20
415.1822315531786
 30
0.0
 40
5.0
100
AcDbArc
 50
246.4218215218016
 51
293.5781784782053
  0
ARC
  5
1192
330
1E
100
AcDbEntity
  8
SCHRAFF
100
AcDbCircle
 10
332.1795698904588
 20
405.1822315531786
 30
0.0
 40
5.0
100
AcDbArc
 50
246.4218215218016
 51
293.5781784782053
  0
ARC
  5
1193
330
1E
100
AcDbEntity
  8
SCHRAFF
100
AcDbCircle
 10
332.1795698904588
 20
400.1822315531787
 30
0.0
 40
5.0
100
AcDbArc
 50
246.4218215218016
 51
293.5781784782053
  0
ARC
  5
1194
330
1E
100
AcDbEntity
  8
SCHRAFF
100
AcDbCircle
 10
332.1709789003202
 20
395.1822389336953
 30
0.0
 40
5.0
100
AcDbArc
 50
238.3610549234078
 51
285.8186580471295
  0
ARC
  5
1195
330
1E
100
AcDbEntity
  8
SCHRAFF
100
AcDbCircle
 10
331.4339958553611
 20
390.2368515887602
 30
0.0
 40
5.0
100
AcDbArc
 50
224.6867725871358
 51
272.1443757108578
  0
LINE
  5
1229
330
1E
100
AcDbEntity
  8
STEMPEL
100
AcDbLine
 10
731.5435787165709
 20
417.0689766001799
 30
0.0
 11
728.815561064355
 21
365.0152988917192
 31
0.0
  0
LINE
  5
122A
330
1E
100
AcDbEntity
  8
HILF
100
AcDbLine
 10
726.5209891008849
 20
416.7688706634059
 30
0.0
 11
723.8518553324952
 21
365.8387643909226
 31
0.0
  0
LINE
  5
122B
330
1E
100
AcDbEntity
  8
STEMPEL
100
AcDbLine
 10
723.7995193762519
 20
364.8401348561679
 30
0.0
 11
728.815561064355
 21
365.0152988917192
 31
0.0
  0
LINE
  5
122C
330
1E
100
AcDbEntity
  8
STEMPEL
100
AcDbLine
 10
726.5733250571281
 20
417.7675001981607
 30
0.0
 11
731.5435787165709
 21
417.0689766001799
 31
0.0
  0
DIMENSION
  5
122D
330
1E
100
AcDbEntity
  8
BEM
100
AcDbDimension
  2
*D6
 10
749.9796432544447
 20
416.5408270402469
 30
0.0
 11
742.1016484381019
 21
390.4173280848297
 31
0.0
 70
    33
  1
%%c<>
 71
     5
 42
53.00000000000022
  3
Standard
100
AcDbAlignedDimension
 13
723.7995193762519
 23
364.8401348561679
 33
0.0
 14
726.5733250571279
 24
417.7675001981604
 34
0.0
1001
ACAD
1000
DSTYLE
1002
{
1070
    40
1040
2.0
1070
    41
1040
3.5
1070
    42
1040
1.0
1070
    43
1040
7.0
1070
    44
1040
1.0
1070
    73
1070
     0
1070
    74
1070
     0
1070
    77
1070
     1
1070
    78
1070
     8
1070
    79
1070
     2
1070
   140
1040
3.5
1070
   141
1040
1.5
1070
   146
1040
0.5142857142857144
1070
   147
1040
1.5
1070
   172
1070
     1
1070
   178
1070
     1
1070
   179
1070
     2
1070
   271
1070
     2
1070
   272
1070
     2
1070
   284
1070
     8
1070
   285
1070
     8
1070
   286
1070
     8
1002
}
  0
LINE
  5
122F
330
1E
100
AcDbEntity
  8
MITTEL
100
AcDbLine
 10
272.1864222166886
 20
415.0445415423822
 30
0.0
 11
735.1727175642358
 21
390.7804579647348
 31
0.0
  0
LINE
  5
1230
330
1E
100
AcDbEntity
  8
STEMPEL
100
AcDbLine
 10
372.5605859114659
 20
436.3205216946915
 30
0.0
 11
726.5733250571279
 21
417.7675001981604
 31
0.0
  0
LINE
  5
1231
330
1E
100
AcDbEntity
  8
STEMPEL
100
AcDbLine
 10
369.7867802305899
 20
383.3931563526991
 30
0.0
 11
723.7995193762519
 21
364.8401348561679
 31
0.0
  0
TEXT
  5
1232
330
1E
100
AcDbEntity
  8
TEXT
 62
     1
100
AcDbText
 10
647.1490145798102
 20
403.1586951543456
 30
0.0
 40
7.0
  1
DN50
 50
357.0000000000009
 41
0.8
  7
GREEKS
100
AcDbText
  0
ARC
  5
1236
330
1E
100
AcDbEntity
  8
STEMPEL
100
AcDbCircle
 10
360.9035822321993
 20
392.9711933813073
 30
0.0
 40
11.5
100
AcDbArc
 50
267.0000000000074
 51
295.7266053481451
  0
ARC
  5
1237
330
1E
100
AcDbEntity
  8
STEMPEL
100
AcDbCircle
 10
369.3680925806463
 20
375.4041200746624
 30
0.0
 40
8.0
100
AcDbArc
 50
87.00000000000741
 51
115.7266053481451
  0
LINE
  5
1238
330
1E
100
AcDbEntity
  8
STEMPEL
100
AcDbLine
 10
365.6693251779352
 20
383.6089430283063
 30
0.0
 11
365.6731713563249
 21
383.6087414586383
 31
0.0
  0
LINE
  5
1239
330
1E
100
AcDbEntity
  8
HILF
100
AcDbLine
 10
362.9723914237531
 20
382.677018886529
 30
0.0
 11
365.8583837883415
 21
437.7450336749778
 31
0.0
  0
LINE
  5
123A
330
1E
100
AcDbEntity
  8
HILF
100
AcDbLine
 10
367.5948275593143
 20
384.2276982130437
 30
0.0
 11
370.2934076080771
 21
435.719672986261
 31
0.0
  0
DIMENSION
  5
123B
330
1E
100
AcDbEntity
  8
BEM
100
AcDbDimension
  2
*D7
 10
277.1795698904617
 20
414.7828617611675
 30
0.0
 11
434.9259633595449
 21
392.3260738724741
 31
0.0
 70
   162
 71
     5
 42
0.0523598775598364
  3
Standard
100
AcDb2LineAngularDimension
 13
269.8552986932618
 23
415.0445415423822
 33
0.0
 14
729.4953354759518
 24
390.9558279450259
 34
0.0
 15
274.8484463670347
 25
414.7828617611675
 35
0.0
 16
436.4688664635707
 26
411.9617668346572
 36
0.0
1001
ACAD
1000
DSTYLE
1002
{
1070
    72
1070
     0
1070
    40
1040
2.0
1070
    41
1040
3.5
1070
    42
1040
1.0
1070
    43
1040
7.0
1070
    44
1040
1.0
1070
    48
1040
1.0
1070
    71
1070
     0
1070
    73
1070
     0
1070
    74
1070
     0
1070
    77
1070
     1
1070
    78
1070
     8
1070
    79
1070
     2
1070
   140
1040
3.5
1070
   141
1040
1.5
1070
   146
1040
0.5
1070
   147
1040
1.5
1070
   172
1070
     1
1070
   178
1070
     1
1070
   179
1070
     2
1070
   271
1070
     2
1070
   272
1070
     2
1070
   284
1070
     8
1070
   285
1070
     8
1070
   286
1070
     8
1002
}
  0
ARC
  5
123C
330
1E
100
AcDbEntity
  8
STEMPEL
100
AcDbCircle
 10
372.9792735614093
 20
444.309557972728
 30
0.0
 40
8.0
100
AcDbArc
 50
238.2733946518643
 51
267.0000000000074
  0
ARC
  5
123D
330
1E
100
AcDbEntity
  8
STEMPEL
100
AcDbCircle
 10
362.7248735094537
 20
427.7235011907664
 30
0.0
 40
11.5
100
AcDbArc
 50
58.27339465186432
 51
87.00000000000741
  0
LINE
  5
123F
330
1E
100
AcDbEntity
  8
STEMPEL
100
AcDbLine
 10
303.1585026273696
 20
442.3610243876226
 30
0.0
 11
319.1795698904601
 21
441.5213958306198
 31
0.0
  0
ARC
  5
1240
330
1E
100
AcDbEntity
  8
STEMPEL
100
AcDbCircle
 10
286.0372778750618
 20
426.2349798735322
 30
0.0
 40
19.0
100
AcDbArc
 50
87.00000000000741
 51
112.7223864921787
  0
LINE
  5
1241
330
1E
100
AcDbEntity
  8
STEMPEL
100
AcDbLine
 10
287.0316610436777
 20
445.2089410338691
 30
0.0
 11
291.6567359126763
 21
444.9665511309671
 31
0.0
  0
ARC
  5
1242
330
1E
100
AcDbEntity
  8
STEMPEL
100
AcDbCircle
 10
303.7080301679206
 20
452.8466345025456
 30
0.0
 40
10.5
100
AcDbArc
 50
247.5369005553073
 51
267.0000000000074
  0
ARC
  5
1243
330
1E
100
AcDbEntity
  8
STEMPEL
100
AcDbCircle
 10
290.3349259775954
 20
420.5022017773499
 30
0.0
 40
24.5000320571282
100
AcDbArc
 50
67.53690055530729
 51
87.09463804480064
  0
LINE
  5
1244
330
1E
100
AcDbEntity
  8
STEMPEL
100
AcDbLine
 10
278.6982150382914
 20
443.7603374070588
 30
0.0
 11
275.7645598498195
 21
387.7828617611675
 31
0.0
  0
LINE
  5
1245
330
1E
100
AcDbEntity
  8
HILF
100
AcDbLine
 10
298.3516451910737
 20
387.7828617611679
 30
0.0
 11
298.8602553014551
 21
397.4877207981157
 31
0.0
  0
LINE
  5
1331
330
1E
100
AcDbEntity
  8
STEMPEL
100
AcDbLine
 10
325.5124769762269
 20
383.3101806351692
 30
0.0
 11
360.3017187354055
 21
381.4869537316297
 31
0.0
  0
LINE
  5
1332
330
1E
100
AcDbEntity
  8
HILF
100
AcDbLine
 10
299.6333878781468
 20
412.2399691717056
 30
0.0
 11
301.1736216922536
 21
441.6293811097374
 31
0.0
  0
HATCH
  5
13B6
330
1E
100
AcDbEntity
  8
SCHRAFF
100
AcDbHatch
 10
0.0
 20
0.0
 30
0.0
210
0.0
220
0.0
230
1.0
  2
_USER
 70
     0
 71
     0
 91
        3
 92
        7
 72
     1
 73
     1
 93
        3
 10
330.1795698904599
 20
444.9449102585063
 42
0.0
 10
330.1795698904602
 20
440.9449102585064
 42
0.0
 10
334.1740880294784
 20
440.7355664335346
 42
0.429633905966848
 97
        0
 92
        7
 72
     1
 73
     1
 93
        4
 10
330.3458438998088
 20
383.0568746082441
 42
0.0
 10
325.5124769762269
 20
383.3101806351692
 42
-0.0173231983288754
 10
324.6145987330073
 20
382.3478329186239
 42
0.0
 10
326.6866528795762
 20
380.275778772055
 42
0.1704707278620029
 97
        0
 92
        7
 72
     1
 73
     1
 93
        3
 10
324.6145987330074
 20
382.3478329186239
 42
-0.0409664344765092
 10
322.2443364432984
 20
380.3371199165287
 42
0.1644600436159238
 10
326.6866528795762
 20
380.275778772055
 42
0.0
 97
        0
 75
     0
 76
     0
 52
0.0
 41
0.1
 77
     0
 78
     1
 53
0.0
 43
0.0
 44
0.0
 45
0.0
 46
0.1
 79
     0
 47
0.202042177214158
 98
        3
 10
331.442695580572
 20
442.2170200998134
 10
327.4003998518501
 20
382.2104925269589
 10
324.975022903765
 20
380.3921126849698
  0
ELLIPSE
  5
1405
330
1E
100
AcDbEntity
  8
STEMPEL
100
AcDbEllipse
 10
725.1864222166901
 20
164.7443932706501
 30
0.0
 11
0.0000000000006634
 21
26.5
 31
0.0
210
0.0
220
0.0
230
1.0
 40
0.0548039434423983
 41
3.141592653590243
 42
3.146315469508096
  0
ELLIPSE
  5
1406
330
1E
100
AcDbEntity
  8
STEMPEL
100
AcDbEllipse
 10
730.1795698904628
 20
164.7443932706501
 30
0.0
 11
0.0
 21
26.06999999999999
 31
0.0
210
0.0
220
0.0
230
1.0
 40
0.052332516240258
 41
3.141592653589794
 42
6.283185307179585
  0
LINE
  5
1407
330
1E
100
AcDbEntity
  8
STEMPEL
100
AcDbLine
 10
730.1795698904628
 20
190.8143932706501
 30
0.0
 11
725.1932811580078
 21
191.2440977300793
 31
0.0
  0
ELLIPSE
  5
1408
330
1E
100
AcDbEntity
  8
STEMPEL
100
AcDbEllipse
 10
725.1864222166901
 20
164.7443932706501
 30
0.0
 11
-0.0000000000006844
 21
26.5
 31
0.0
210
0.0
220
0.0
230
1.0
 40
0.0548039434425402
 41
-0.0047228159183084
 42
-0.000000000000471
  0
LINE
  5
1409
330
1E
100
AcDbEntity
  8
STEMPEL
100
AcDbLine
 10
730.1795698904628
 20
138.6743932706501
 30
0.0
 11
725.1932811580078
 21
138.2446888112209
 31
0.0
  0
ELLIPSE
  5
140A
330
1E
100
AcDbEntity
  8
HILF
100
AcDbEllipse
 10
725.1864222166901
 20
164.7443932706501
 30
0.0
 11
-0.0000000000000093
 21
26.49999999999985
 31
0.0
210
0.0
220
0.0
230
1.0
 40
0.0548039434374746
 41
3.48501648520198
 42
5.939761475567383
  0
LINE
  5
140B
330
1E
100
AcDbEntity
  8
STEMPEL
100
AcDbLine
 10
372.1765280347943
 20
138.2443932706501
 30
0.0
 11
725.1864222166901
 21
138.2443932706501
 31
0.0
  0
LINE
  5
140C
330
1E
100
AcDbEntity
  8
STEMPEL
100
AcDbLine
 10
372.1765280347943
 20
191.24439327065
 30
0.0
 11
725.1864222166901
 21
191.2443932706501
 31
0.0
  0
LINE
  5
140D
330
1E
100
AcDbEntity
  8
MITTEL
100
AcDbLine
 10
98.17956989045832
 20
164.7443932706501
 30
0.0
 11
391.2354342733943
 21
164.7443932706501
 31
0.0
  0
ELLIPSE
  5
140E
330
1E
100
AcDbEntity
  8
HILF
100
AcDbEllipse
 10
364.9371445659036
 20
164.7443932706501
 30
0.0
 11
0.0
 21
29.03999999999999
 31
0.0
210
0.0
220
0.0
230
1.0
 40
0.0523381737393996
 41
3.503154933718051
 42
5.921623027050334
  0
ELLIPSE
  5
140F
330
1E
100
AcDbEntity
  8
HILF
100
AcDbEllipse
 10
369.9886403436905
 20
164.7443932706501
 30
0.0
 11
0.0
 21
26.80500000000001
 31
0.0
210
0.0
220
0.0
230
1.0
 40
0.0523376087653208
 41
3.498217543035363
 42
5.926560417733879
  0
POLYLINE
  5
1410
330
1E
100
AcDbEntity
  8
STEMPEL
100
AcDb2dPolyline
 66
     1
 10
0.0
 20
0.0
 30
0.0
 70
     2
  0
VERTEX
  5
1411
330
1410
100
AcDbEntity
  8
STEMPEL
100
AcDbVertex
100
AcDb2dVertex
 10
361.6553130292477
 20
135.24439327065
 30
0.0
 42
0.0346411102972008
  0
VERTEX
  5
1412
330
1410
100
AcDbEntity
  8
STEMPEL
100
AcDbVertex
100
AcDb2dVertex
 10
363.867513313435
 20
135.3995092985022
 30
0.0
 42
0.0693179783428239
 70
     1
  0
VERTEX
  5
1413
330
1410
100
AcDbEntity
  8
STEMPEL
100
AcDbVertex
100
AcDb2dVertex
 10
364.9371445659036
 20
135.7043932706501
 30
0.0
 42
0.0000471290502261
  0
VERTEX
  5
1414
330
1410
100
AcDbEntity
  8
STEMPEL
100
AcDbVertex
100
AcDb2dVertex
 10
367.0181966347095
 20
136.6242195250488
 30
0.0
 42
0.0001032430821809
 70
     1
  0
VERTEX
  5
1415
330
1410
100
AcDbEntity
  8
STEMPEL
100
AcDbVertex
100
AcDb2dVertex
 10
367.9680420325756
 20
137.0443932706501
 30
0.0
 42
0.0001264604383667
  0
VERTEX
  5
1416
330
1410
100
AcDbEntity
  8
STEMPEL
100
AcDbVertex
100
AcDb2dVertex
 10
368.8830038076939
 20
137.4496385871514
 30
0.0
 42
-0.0001046495054002
 70
     1
  0
VERTEX
  5
1417
330
1410
100
AcDbEntity
  8
STEMPEL
100
AcDbVertex
100
AcDb2dVertex
 10
369.9886403436905
 20
137.9393932706501
 30
0.0
 42
-0.0696786878753077
  0
VERTEX
  5
1418
330
1410
100
AcDbEntity
  8
STEMPEL
100
AcDbVertex
100
AcDb2dVertex
 10
370.7016084590823
 20
138.1425926982025
 30
0.0
 42
-0.0348137589249686
 70
     1
  0
VERTEX
  5
1419
330
1410
100
AcDbEntity
  8
STEMPEL
100
AcDbVertex
100
AcDb2dVertex
 10
372.1765280347943
 20
138.2443932706501
 30
0.0
  0
SEQEND
  5
141A
330
1410
100
AcDbEntity
  8
STEMPEL
  0
POLYLINE
  5
141B
330
1E
100
AcDbEntity
  8
STEMPEL
100
AcDb2dPolyline
 66
     1
 10
0.0
 20
0.0
 30
0.0
 70
     2
  0
VERTEX
  5
141C
330
141B
100
AcDbEntity
  8
STEMPEL
100
AcDbVertex
100
AcDb2dVertex
 10
361.6553130292477
 20
194.2443932706501
 30
0.0
 42
-0.0346411102972008
  0
VERTEX
  5
141D
330
141B
100
AcDbEntity
  8
STEMPEL
100
AcDbVertex
100
AcDb2dVertex
 10
363.867513313435
 20
194.089277242798
 30
0.0
 42
-0.0693179783428239
 70
     1
  0
VERTEX
  5
141E
330
141B
100
AcDbEntity
  8
STEMPEL
100
AcDbVertex
100
AcDb2dVertex
 10
364.9371445659036
 20
193.7843932706501
 30
0.0
 42
-0.0000471290502261
  0
VERTEX
  5
141F
330
141B
100
AcDbEntity
  8
STEMPEL
100
AcDbVertex
100
AcDb2dVertex
 10
367.0181966347095
 20
192.8645670162514
 30
0.0
 42
-0.0001032430821809
 70
     1
  0
VERTEX
  5
1420
330
141B
100
AcDbEntity
  8
STEMPEL
100
AcDbVertex
100
AcDb2dVertex
 10
367.9680420325756
 20
192.4443932706501
 30
0.0
 42
-0.0001264604383667
  0
VERTEX
  5
1421
330
141B
100
AcDbEntity
  8
STEMPEL
100
AcDbVertex
100
AcDb2dVertex
 10
368.8830038076939
 20
192.0391479541487
 30
0.0
 42
0.0001046495054002
 70
     1
  0
VERTEX
  5
1422
330
141B
100
AcDbEntity
  8
STEMPEL
100
AcDbVertex
100
AcDb2dVertex
 10
369.9886403436905
 20
191.5493932706501
 30
0.0
 42
0.0696786878753077
  0
VERTEX
  5
1423
330
141B
100
AcDbEntity
  8
STEMPEL
100
AcDbVertex
100
AcDb2dVertex
 10
370.7016084590823
 20
191.3461938430977
 30
0.0
 42
0.0348137589249686
 70
     1
  0
VERTEX
  5
1424
330
141B
100
AcDbEntity
  8
STEMPEL
100
AcDbVertex
100
AcDb2dVertex
 10
372.1765280347943
 20
191.24439327065
 30
0.0
  0
SEQEND
  5
1425
330
141B
100
AcDbEntity
  8
STEMPEL
  0
LINE
  5
1426
330
1E
100
AcDbEntity
  8
STEMPEL
100
AcDbLine
 10
330.1795698904512
 20
135.2443932706501
 30
0.0
 11
361.6553130292477
 21
135.2443932706501
 31
0.0
  0
LINE
  5
1427
330
1E
100
AcDbEntity
  8
STEMPEL
100
AcDbLine
 10
330.1795698904512
 20
194.2443932706501
 30
0.0
 11
361.6553130292477
 21
194.2443932706501
 31
0.0
  0
LINE
  5
1428
330
1E
100
AcDbEntity
  8
STEMPEL
100
AcDbLine
 10
301.6459934919488
 20
194.2443932706501
 30
0.0
 11
319.1795698904589
 21
194.2443932706501
 31
0.0
  0
LINE
  5
1429
330
1E
100
AcDbEntity
  8
STEMPEL
100
AcDbLine
 10
301.6459934919488
 20
135.2443932706501
 30
0.0
 11
319.179569890459
 21
135.2443932706501
 31
0.0
  0
ELLIPSE
  5
142A
330
1E
100
AcDbEntity
  8
STEMPEL
100
AcDbEllipse
 10
277.1795698904617
 20
164.7443932706501
 30
0.0
 11
0.0
 21
29.60499999999999
 31
0.0
210
0.0
220
0.0
230
1.0
 40
0.0523383483522456
 41
0.0
 42
6.283185307179586
  0
LINE
  5
142B
330
1E
100
AcDbEntity
  8
STEMPEL
100
AcDbLine
 10
285.3596929152246
 20
196.2443932706501
 30
0.0
 11
289.768995079647
 21
196.2443932706501
 31
0.0
  0
LINE
  5
142C
330
1E
100
AcDbEntity
  8
STEMPEL
100
AcDbLine
 10
285.3596929152247
 20
133.24439327065
 30
0.0
 11
289.7689950796471
 21
133.2443932706501
 31
0.0
  0
ARC
  5
142D
330
1E
100
AcDbEntity
  8
STEMPEL
100
AcDbCircle
 10
285.5613088370379
 20
176.7710624557091
 30
0.0
 40
19.47437449593842
100
AcDbArc
 50
90.59318710193949
 51
115.4928440531459
  0
ARC
  5
142E
330
1E
100
AcDbEntity
  8
STEMPEL
100
AcDbCircle
 10
285.5613088370388
 20
152.7177240855936
 30
0.0
 40
19.47437449594104
100
AcDbArc
 50
244.5071559468541
 51
269.4068128980605
  0
POLYLINE
  5
142F
330
1E
100
AcDbEntity
  8
STEMPEL
100
AcDb2dPolyline
 66
     1
 10
0.0
 20
0.0
 30
0.0
 70
     2
  0
VERTEX
  5
1430
330
142F
100
AcDbEntity
  8
STEMPEL
100
AcDbVertex
100
AcDb2dVertex
 10
289.768995079647
 20
196.24439327065
 30
0.0
 42
-0.0224058340299262
  0
VERTEX
  5
1431
330
142F
100
AcDbEntity
  8
STEMPEL
100
AcDbVertex
100
AcDb2dVertex
 10
292.7127008667353
 20
196.1409172771526
 30
0.0
 42
-0.0438061132012226
 70
     1
  0
VERTEX
  5
1432
330
142F
100
AcDbEntity
  8
STEMPEL
100
AcDbVertex
100
AcDb2dVertex
 10
294.2002890321705
 20
195.8893932706501
 30
0.0
 42
-0.0002161211348892
  0
VERTEX
  5
1433
330
142F
100
AcDbEntity
  8
STEMPEL
100
AcDbVertex
100
AcDb2dVertex
 10
296.9828125397223
 20
195.1626150534696
 30
0.0
 42
0.0004502605632863
 70
     1
  0
VERTEX
  5
1434
330
142F
100
AcDbEntity
  8
STEMPEL
100
AcDbVertex
100
AcDb2dVertex
 10
298.3185629297998
 20
194.8143932706501
 30
0.0
 42
0.0001159789490458
  0
VERTEX
  5
1435
330
142F
100
AcDbEntity
  8
STEMPEL
100
AcDbVertex
100
AcDb2dVertex
 10
298.9361743737506
 20
194.654132571256
 30
0.0
 42
0.0000701074879892
 70
     1
  0
VERTEX
  5
1436
330
142F
100
AcDbEntity
  8
STEMPEL
100
AcDbVertex
100
AcDb2dVertex
 10
299.9579887366048
 20
194.3893932706501
 30
0.0
 42
0.0419453303333545
  0
VERTEX
  5
1437
330
142F
100
AcDbEntity
  8
STEMPEL
100
AcDbVertex
100
AcDb2dVertex
 10
300.5166288700352
 20
194.2937683547755
 30
0.0
 42
0.0210022653807284
 70
     1
  0
VERTEX
  5
1438
330
142F
100
AcDbEntity
  8
STEMPEL
100
AcDbVertex
100
AcDb2dVertex
 10
301.6459934919488
 20
194.2443932706501
 30
0.0
  0
SEQEND
  5
1439
330
142F
100
AcDbEntity
  8
STEMPEL
  0
POLYLINE
  5
143A
330
1E
100
AcDbEntity
  8
STEMPEL
100
AcDb2dPolyline
 66
     1
 10
0.0
 20
0.0
 30
0.0
 70
     2
  0
VERTEX
  5
143B
330
143A
100
AcDbEntity
  8
STEMPEL
100
AcDbVertex
100
AcDb2dVertex
 10
289.7689950796471
 20
133.2443932706501
 30
0.0
 42
0.0224058340299294
  0
VERTEX
  5
143C
330
143A
100
AcDbEntity
  8
STEMPEL
100
AcDbVertex
100
AcDb2dVertex
 10
292.7127008667351
 20
133.3478692641475
 30
0.0
 42
0.0438061132012366
 70
     1
  0
VERTEX
  5
143D
330
143A
100
AcDbEntity
  8
STEMPEL
100
AcDbVertex
100
AcDb2dVertex
 10
294.2002890321705
 20
133.5993932706501
 30
0.0
 42
0.0002161211351948
  0
VERTEX
  5
143E
330
143A
100
AcDbEntity
  8
STEMPEL
100
AcDbVertex
100
AcDb2dVertex
 10
296.9828125397217
 20
134.3261714878323
 30
0.0
 42
-0.0004502605626407
 70
     1
  0
VERTEX
  5
143F
330
143A
100
AcDbEntity
  8
STEMPEL
100
AcDbVertex
100
AcDb2dVertex
 10
298.3185629297998
 20
134.6743932706501
 30
0.0
 42
-0.0001159789429691
  0
VERTEX
  5
1440
330
143A
100
AcDbEntity
  8
STEMPEL
100
AcDbVertex
100
AcDb2dVertex
 10
298.9361743738671
 20
134.8346539700824
 30
0.0
 42
-0.0000701074842944
 70
     1
  0
VERTEX
  5
1441
330
143A
100
AcDbEntity
  8
STEMPEL
100
AcDbVertex
100
AcDb2dVertex
 10
299.9579887366048
 20
135.0993932706501
 30
0.0
 42
-0.0419453303333718
  0
VERTEX
  5
1442
330
143A
100
AcDbEntity
  8
STEMPEL
100
AcDbVertex
100
AcDb2dVertex
 10
300.5166288700351
 20
135.1950181865247
 30
0.0
 42
-0.0210022653807471
 70
     1
  0
VERTEX
  5
1443
330
143A
100
AcDbEntity
  8
STEMPEL
100
AcDbVertex
100
AcDb2dVertex
 10
301.6459934919488
 20
135.2443932706501
 30
0.0
  0
SEQEND
  5
1444
330
143A
100
AcDbEntity
  8
STEMPEL
  0
ELLIPSE
  5
1445
330
1E
100
AcDbEntity
  8
HILF
100
AcDbEllipse
 10
299.9579887366047
 20
164.74439327065
 30
0.0
 11
0.0
 21
29.64499999999984
 31
0.0
210
0.0
220
0.0
230
1.0
 40
0.0523340047170994
 41
3.471233500428492
 42
5.953544460341539
  0
HATCH
  5
1473
330
1E
100
AcDbEntity
  8
SCHRAFF
100
AcDbHatch
 10
0.0
 20
0.0
 30
0.0
210
0.0
220
0.0
230
1.0
  2
_USER
 70
     0
 71
     0
 91
        2
 92
        7
 72
     1
 73
     1
 93
        3
 10
330.1795698904572
 20
198.2443932706501
 42
0.0
 10
330.1795698904571
 20
194.2443932706501
 42
0.0
 10
334.1795698904511
 20
194.2443932706501
 42
0.4142135623726539
 97
        0
 92
        7
 72
     1
 73
     1
 93
        3
 10
334.1795698904513
 20
135.2443932706501
 42
0.0
 10
330.1795698904572
 20
135.2443932706501
 42
0.0
 10
330.1795698904572
 20
131.2443932706502
 42
0.4142135623726621
 97
        0
 75
     0
 76
     0
 52
0.0
 41
0.1
 77
     0
 78
     1
 53
0.0
 43
0.0
 44
0.0
 45
0.0
 46
0.1
 79
     0
 47
0.1417489590614941
 98
        2
 10
331.0364047399539
 20
196.0462090254841
 10
332.0290049456698
 20
133.9601626321228
  0
LINE
  5
153E
330
1E
100
AcDbEntity
  8
STEMPEL
 62
     3
100
AcDbLine
 10
103.1795698904583
 20
384.7828617611641
 30
0.0
 11
311.1795698904631
 21
384.7828617611682
 31
0.0
  0
LINE
  5
153F
330
1E
100
AcDbEntity
  8
STEMPEL
 62
     3
100
AcDbLine
 10
319.1795698904535
 20
549.7828617611685
 30
0.0
 11
322.1795698904536
 21
549.7828617611684
 31
0.0
  0
LINE
  5
1540
330
1E
100
AcDbEntity
  8
STEMPEL
 62
     3
100
AcDbLine
 10
322.1795698904629
 20
395.7828617611689
 30
0.0
 11
322.1795698904533
 21
553.7828617611685
 31
0.0
  0
ARC
  5
1541
330
1E
100
AcDbEntity
  8
STEMPEL
 62
     3
100
AcDbCircle
 10
311.1795698904629
 20
395.7828617611682
 30
0.0
 40
11.0
100
AcDbArc
 50
270.0000000000012
 51
0.000000000003435
  0
LINE
  5
1542
330
1E
100
AcDbEntity
  8
STEMPEL
 62
     3
100
AcDbLine
 10
319.1795698904629
 20
395.7828617611687
 30
0.0
 11
319.1795698904536
 21
549.7828617611681
 31
0.0
  0
ARC
  5
1543
330
1E
100
AcDbEntity
  8
STEMPEL
 62
     3
100
AcDbCircle
 10
311.1795698904629
 20
395.7828617611682
 30
0.0
 40
8.0
100
AcDbArc
 50
270.0000000000012
 51
0.000000000003435
  0
LINE
  5
1544
330
1E
100
AcDbEntity
  8
STEMPEL
 62
     3
100
AcDbLine
 10
108.679569890459
 20
387.7828617611641
 30
0.0
 11
311.1795698904631
 21
387.7828617611682
 31
0.0
  0
LINE
  5
1545
330
1E
100
AcDbEntity
  8
STEMPEL
 62
     3
100
AcDbLine
 10
108.679569890459
 20
384.7828617611641
 30
0.0
 11
108.679569890459
 21
387.7828617611641
 31
0.0
  0
ARC
  5
15D5
330
1E
100
AcDbEntity
  8
STEMPEL
100
AcDbCircle
 10
148.8087350150592
 20
387.7002109078611
 30
0.0
 40
4.994391509822305
100
AcDbArc
 50
67.93247218100519
 51
112.0675278189948
  0
ARC
  5
15D6
330
1E
100
AcDbEntity
  8
STEMPEL
100
AcDbCircle
 10
137.5504047658615
 20
387.7002109078611
 30
0.0
 40
4.994391509822305
100
AcDbArc
 50
67.93247218100519
 51
112.0675278189948
  0
ARC
  5
15D7
330
1E
100
AcDbEntity
  8
STEMPEL
100
AcDbCircle
 10
143.1795698904603
 20
373.2717465932871
 30
0.0
 40
19.42296676475576
100
AcDbArc
 50
78.85962783889116
 51
101.1403721611088
  0
ARC
  5
15D8
330
1E
100
AcDbEntity
  8
STEMPEL
100
AcDbCircle
 10
148.8087350150592
 20
392.114463481085
 30
0.0
 40
6.668398280079882
100
AcDbArc
 50
73.65710669401501
 51
106.342893305985
  0
ARC
  5
15D9
330
1E
100
AcDbEntity
  8
STEMPEL
100
AcDbCircle
 10
137.5504047658615
 20
392.114463481085
 30
0.0
 40
6.668398280079905
100
AcDbArc
 50
73.65710669401501
 51
106.342893305985
  0
ARC
  5
15DA
330
1E
100
AcDbEntity
  8
STEMPEL
100
AcDbCircle
 10
143.1795698904603
 20
372.5134245130375
 30
0.0
 40
26.26943724812735
100
AcDbArc
 50
81.78678929826221
 51
98.2132107017378
  0
ARC
  5
15DB
330
1E
100
AcDbEntity
  8
STEMPEL
100
AcDbCircle
 10
151.5295698904603
 20
391.3828617611649
 30
0.0
 40
0.5999999999999999
100
AcDbArc
 50
270.0
 51
70.00000000000047
  0
ARC
  5
15DC
330
1E
100
AcDbEntity
  8
STEMPEL
100
AcDbCircle
 10
134.8295698904603
 20
391.3828617611649
 30
0.0
 40
0.5999999999999993
100
AcDbArc
 50
109.9999999999995
 51
270.0
  0
LINE
  5
15DD
330
1E
100
AcDbEntity
  8
STEMPEL
100
AcDbLine
 10
135.6740163909952
 20
392.3287218152753
 30
0.0
 11
134.6243578044649
 21
391.9466773336364
 31
0.0
  0
LINE
  5
15DE
330
1E
100
AcDbEntity
  8
STEMPEL
100
AcDbLine
 10
151.7347819764557
 20
391.9466773336364
 30
0.0
 11
150.6851233899254
 21
392.3287218152753
 31
0.0
  0
LINE
  5
15DF
330
1E
100
AcDbEntity
  8
STEMPEL
100
AcDbLine
 10
150.6851233899254
 20
398.5134245130368
 30
0.0
 11
149.6795698904603
 21
398.7828617611648
 31
0.0
  0
LINE
  5
15E0
330
1E
100
AcDbEntity
  8
STEMPEL
100
AcDbLine
 10
136.6795698904603
 20
398.7828617611648
 30
0.0
 11
135.6740163909952
 21
398.5134245130368
 31
0.0
  0
LINE
  5
15E1
330
1E
100
AcDbEntity
  8
STEMPEL
100
AcDbLine
 10
135.6740163909952
 20
392.3287218152753
 30
0.0
 11
135.6740163909952
 21
398.5134245130368
 31
0.0
  0
LINE
  5
15E2
330
1E
100
AcDbEntity
  8
HILF
100
AcDbLine
 10
151.7347819764557
 20
391.9466773336364
 30
0.0
 11
134.6243578044649
 21
391.9466773336364
 31
0.0
  0
LINE
  5
15E3
330
1E
100
AcDbEntity
  8
STEMPEL
100
AcDbLine
 10
139.4267931407278
 20
392.3287218152753
 30
0.0
 11
139.4267931407278
 21
398.5134245130368
 31
0.0
  0
LINE
  5
15E4
330
1E
100
AcDbEntity
  8
STEMPEL
100
AcDbLine
 10
146.9323466401929
 20
392.3287218152753
 30
0.0
 11
146.9323466401929
 21
398.5134245130368
 31
0.0
  0
LINE
  5
15E5
330
1E
100
AcDbEntity
  8
STEMPEL
100
AcDbLine
 10
150.6851233899254
 20
392.3287218152753
 30
0.0
 11
150.6851233899254
 21
398.5134245130368
 31
0.0
  0
LINE
  5
15E6
330
1E
100
AcDbEntity
  8
STEMPEL
100
AcDbLine
 10
136.6795698904603
 20
398.7828617611648
 30
0.0
 11
149.6795698904603
 21
398.7828617611648
 31
0.0
  0
LINE
  5
15E7
330
1E
100
AcDbEntity
  8
STEMPEL
100
AcDbLine
 10
161.4295698904603
 20
390.7828617611648
 30
0.0
 11
161.4295698904603
 21
387.7828617611648
 31
0.0
  0
LINE
  5
15E8
330
1E
100
AcDbEntity
  8
STEMPEL
100
AcDbLine
 10
161.4295698904603
 20
390.7828617611648
 30
0.0
 11
124.9295698904603
 21
390.7828617611648
 31
0.0
  0
LINE
  5
15E9
330
1E
100
AcDbEntity
  8
STEMPEL
100
AcDbLine
 10
124.9295698904603
 20
390.7828617611648
 30
0.0
 11
124.9295698904603
 21
387.7828617611648
 31
0.0
  0
ARC
  5
1604
330
1E
100
AcDbEntity
  8
STEMPEL
100
AcDbCircle
 10
232.8087350150617
 20
387.7002109078629
 30
0.0
 40
4.994391509822305
100
AcDbArc
 50
67.93247218100519
 51
112.0675278189948
  0
ARC
  5
1605
330
1E
100
AcDbEntity
  8
STEMPEL
100
AcDbCircle
 10
221.550404765864
 20
387.7002109078629
 30
0.0
 40
4.994391509822305
100
AcDbArc
 50
67.93247218100519
 51
112.0675278189948
  0
ARC
  5
1606
330
1E
100
AcDbEntity
  8
STEMPEL
100
AcDbCircle
 10
227.1795698904629
 20
373.2717465932888
 30
0.0
 40
19.42296676475576
100
AcDbArc
 50
78.85962783889116
 51
101.1403721611088
  0
ARC
  5
1607
330
1E
100
AcDbEntity
  8
STEMPEL
100
AcDbCircle
 10
232.8087350150617
 20
392.1144634810866
 30
0.0
 40
6.668398280079882
100
AcDbArc
 50
73.65710669401501
 51
106.342893305985
  0
ARC
  5
1608
330
1E
100
AcDbEntity
  8
STEMPEL
100
AcDbCircle
 10
221.550404765864
 20
392.1144634810866
 30
0.0
 40
6.668398280079905
100
AcDbArc
 50
73.65710669401501
 51
106.342893305985
  0
ARC
  5
1609
330
1E
100
AcDbEntity
  8
STEMPEL
100
AcDbCircle
 10
227.1795698904629
 20
372.5134245130392
 30
0.0
 40
26.26943724812735
100
AcDbArc
 50
81.78678929826221
 51
98.2132107017378
  0
ARC
  5
160A
330
1E
100
AcDbEntity
  8
STEMPEL
100
AcDbCircle
 10
235.5295698904629
 20
391.3828617611666
 30
0.0
 40
0.5999999999999999
100
AcDbArc
 50
270.0
 51
70.00000000000047
  0
ARC
  5
160B
330
1E
100
AcDbEntity
  8
STEMPEL
100
AcDbCircle
 10
218.8295698904628
 20
391.3828617611666
 30
0.0
 40
0.5999999999999993
100
AcDbArc
 50
109.9999999999995
 51
270.0
  0
LINE
  5
160C
330
1E
100
AcDbEntity
  8
STEMPEL
100
AcDbLine
 10
219.6740163909977
 20
392.3287218152771
 30
0.0
 11
218.6243578044674
 21
391.9466773336381
 31
0.0
  0
LINE
  5
160D
330
1E
100
AcDbEntity
  8
STEMPEL
100
AcDbLine
 10
235.7347819764582
 20
391.9466773336381
 30
0.0
 11
234.685123389928
 21
392.3287218152771
 31
0.0
  0
LINE
  5
160E
330
1E
100
AcDbEntity
  8
STEMPEL
100
AcDbLine
 10
234.685123389928
 20
398.5134245130386
 30
0.0
 11
233.6795698904628
 21
398.7828617611666
 31
0.0
  0
LINE
  5
160F
330
1E
100
AcDbEntity
  8
STEMPEL
100
AcDbLine
 10
220.6795698904628
 20
398.7828617611666
 30
0.0
 11
219.6740163909977
 21
398.5134245130386
 31
0.0
  0
LINE
  5
1610
330
1E
100
AcDbEntity
  8
STEMPEL
100
AcDbLine
 10
219.6740163909977
 20
392.3287218152771
 30
0.0
 11
219.6740163909977
 21
398.5134245130386
 31
0.0
  0
LINE
  5
1611
330
1E
100
AcDbEntity
  8
HILF
100
AcDbLine
 10
235.7347819764582
 20
391.9466773336381
 30
0.0
 11
218.6243578044674
 21
391.9466773336381
 31
0.0
  0
LINE
  5
1612
330
1E
100
AcDbEntity
  8
STEMPEL
100
AcDbLine
 10
223.4267931407303
 20
392.3287218152771
 30
0.0
 11
223.4267931407303
 21
398.5134245130386
 31
0.0
  0
LINE
  5
1613
330
1E
100
AcDbEntity
  8
STEMPEL
100
AcDbLine
 10
230.9323466401954
 20
392.3287218152771
 30
0.0
 11
230.9323466401954
 21
398.5134245130386
 31
0.0
  0
LINE
  5
1614
330
1E
100
AcDbEntity
  8
STEMPEL
100
AcDbLine
 10
234.685123389928
 20
392.3287218152771
 30
0.0
 11
234.685123389928
 21
398.5134245130386
 31
0.0
  0
LINE
  5
1615
330
1E
100
AcDbEntity
  8
STEMPEL
100
AcDbLine
 10
220.6795698904628
 20
398.7828617611666
 30
0.0
 11
233.6795698904628
 21
398.7828617611666
 31
0.0
  0
LINE
  5
1616
330
1E
100
AcDbEntity
  8
STEMPEL
100
AcDbLine
 10
245.4295698904628
 20
390.7828617611666
 30
0.0
 11
245.4295698904628
 21
387.7828617611665
 31
0.0
  0
LINE
  5
1617
330
1E
100
AcDbEntity
  8
STEMPEL
100
AcDbLine
 10
245.4295698904628
 20
390.7828617611666
 30
0.0
 11
208.9295698904629
 21
390.7828617611666
 31
0.0
  0
LINE
  5
1618
330
1E
100
AcDbEntity
  8
STEMPEL
100
AcDbLine
 10
208.9295698904629
 20
390.7828617611666
 30
0.0
 11
208.9295698904629
 21
387.7828617611665
 31
0.0
  0
ARC
  5
1633
330
1E
100
AcDbEntity
  8
STEMPEL
100
AcDbCircle
 10
319.2622207437596
 20
519.4120268857675
 30
0.0
 40
4.994391509822305
100
AcDbArc
 50
157.9324721810052
 51
202.0675278189948
  0
ARC
  5
1634
330
1E
100
AcDbEntity
  8
STEMPEL
100
AcDbCircle
 10
319.2622207437596
 20
508.1536966365698
 30
0.0
 40
4.994391509822305
100
AcDbArc
 50
157.9324721810052
 51
202.0675278189948
  0
ARC
  5
1635
330
1E
100
AcDbEntity
  8
STEMPEL
100
AcDbCircle
 10
333.6906850583336
 20
513.7828617611686
 30
0.0
 40
19.42296676475576
100
AcDbArc
 50
168.8596278388911
 51
191.1403721611088
  0
ARC
  5
1636
330
1E
100
AcDbEntity
  8
STEMPEL
100
AcDbCircle
 10
314.8479681705358
 20
519.4120268857675
 30
0.0
 40
6.668398280079882
100
AcDbArc
 50
163.6571066940134
 51
196.3428933059866
  0
ARC
  5
1637
330
1E
100
AcDbEntity
  8
STEMPEL
100
AcDbCircle
 10
314.8479681705358
 20
508.1536966365698
 30
0.0
 40
6.668398280079905
100
AcDbArc
 50
163.6571066940134
 51
196.3428933059866
  0
ARC
  5
1638
330
1E
100
AcDbEntity
  8
STEMPEL
100
AcDbCircle
 10
334.4490071385832
 20
513.7828617611686
 30
0.0
 40
26.26943724812735
100
AcDbArc
 50
171.7867892982633
 51
188.2132107017366
  0
ARC
  5
1639
330
1E
100
AcDbEntity
  8
STEMPEL
100
AcDbCircle
 10
315.5795698904559
 20
522.1328617611686
 30
0.0
 40
0.5999999999999999
100
AcDbArc
 50
0.0
 51
159.9999999999993
  0
ARC
  5
163A
330
1E
100
AcDbEntity
  8
STEMPEL
100
AcDbCircle
 10
315.5795698904559
 20
505.4328617611686
 30
0.0
 40
0.5999999999999993
100
AcDbArc
 50
200.0000000000006
 51
0.0
  0
LINE
  5
163B
330
1E
100
AcDbEntity
  8
STEMPEL
100
AcDbLine
 10
314.6337098363454
 20
506.2773082617034
 30
0.0
 11
315.0157543179842
 21
505.2276496751733
 31
0.0
  0
LINE
  5
163C
330
1E
100
AcDbEntity
  8
STEMPEL
100
AcDbLine
 10
315.0157543179842
 20
522.3380738471639
 30
0.0
 11
314.6337098363454
 21
521.2884152606338
 31
0.0
  0
LINE
  5
163D
330
1E
100
AcDbEntity
  8
STEMPEL
100
AcDbLine
 10
308.4490071385837
 20
521.2884152606338
 30
0.0
 11
308.1795698904558
 21
520.2828617611685
 31
0.0
  0
LINE
  5
163E
330
1E
100
AcDbEntity
  8
STEMPEL
100
AcDbLine
 10
308.1795698904558
 20
507.2828617611686
 30
0.0
 11
308.4490071385837
 21
506.2773082617034
 31
0.0
  0
LINE
  5
163F
330
1E
100
AcDbEntity
  8
STEMPEL
100
AcDbLine
 10
314.6337098363454
 20
506.2773082617034
 30
0.0
 11
308.4490071385837
 21
506.2773082617034
 31
0.0
  0
LINE
  5
1640
330
1E
100
AcDbEntity
  8
HILF
100
AcDbLine
 10
315.0157543179842
 20
522.3380738471639
 30
0.0
 11
315.0157543179842
 21
505.2276496751733
 31
0.0
  0
LINE
  5
1641
330
1E
100
AcDbEntity
  8
STEMPEL
100
AcDbLine
 10
314.6337098363454
 20
510.030085011436
 30
0.0
 11
308.4490071385837
 21
510.030085011436
 31
0.0
  0
LINE
  5
1642
330
1E
100
AcDbEntity
  8
STEMPEL
100
AcDbLine
 10
314.6337098363454
 20
517.5356385109012
 30
0.0
 11
308.4490071385837
 21
517.5356385109012
 31
0.0
  0
LINE
  5
1643
330
1E
100
AcDbEntity
  8
STEMPEL
100
AcDbLine
 10
314.6337098363454
 20
521.2884152606338
 30
0.0
 11
308.4490071385837
 21
521.2884152606338
 31
0.0
  0
LINE
  5
1644
330
1E
100
AcDbEntity
  8
STEMPEL
100
AcDbLine
 10
308.1795698904558
 20
507.2828617611686
 30
0.0
 11
308.1795698904558
 21
520.2828617611685
 31
0.0
  0
LINE
  5
1645
330
1E
100
AcDbEntity
  8
STEMPEL
100
AcDbLine
 10
316.1795698904558
 20
532.0328617611686
 30
0.0
 11
319.1795698904558
 21
532.0328617611686
 31
0.0
  0
LINE
  5
1646
330
1E
100
AcDbEntity
  8
STEMPEL
100
AcDbLine
 10
316.1795698904558
 20
532.0328617611686
 30
0.0
 11
316.1795698904558
 21
495.5328617611686
 31
0.0
  0
LINE
  5
1647
330
1E
100
AcDbEntity
  8
STEMPEL
100
AcDbLine
 10
316.1795698904558
 20
495.5328617611686
 30
0.0
 11
319.1795698904558
 21
495.5328617611686
 31
0.0
  0
LINE
  5
164A
330
1E
100
AcDbEntity
  8
STEMPEL
  6
Continuous
100
AcDbLine
 10
308.1795698904558
 20
518.7828017611687
 30
0.0
 11
303.6795698904567
 21
518.7828017611687
 31
0.0
  0
LINE
  5
164B
330
1E
100
AcDbEntity
  8
HILF
  6
Continuous
100
AcDbLine
 10
308.1795698904558
 20
517.2778142611685
 30
0.0
 11
302.1795698904567
 21
517.2778142611686
 31
0.0
  0
LINE
  5
164C
330
1E
100
AcDbEntity
  8
HILF
  6
Continuous
100
AcDbLine
 10
308.1795698904558
 20
510.2879092611686
 30
0.0
 11
302.1795698904567
 21
510.2879092611686
 31
0.0
  0
LINE
  5
164D
330
1E
100
AcDbEntity
  8
STEMPEL
  6
Continuous
100
AcDbLine
 10
308.1795698904558
 20
508.7829217611688
 30
0.0
 11
303.6795698904567
 21
508.7829217611688
 31
0.0
  0
LINE
  5
1657
330
1E
100
AcDbEntity
  8
STEMPEL
100
AcDbLine
 10
330.1795698904602
 20
440.9449102585063
 30
0.0
 11
363.3267370062477
 21
439.207740840444
 31
0.0
  0
LINE
  5
16DE
330
1E
100
AcDbEntity
  8
STEMPEL
100
AcDbLine
 10
316.351142765717
 20
406.1676380720181
 30
0.0
 11
319.1795698904631
 21
403.339210947272
 31
0.0
  0
LINE
  5
16DF
330
1E
100
AcDbEntity
  8
STEMPEL
100
AcDbLine
 10
300.7947935796129
 20
390.6112888859142
 30
0.0
 11
303.6232207043591
 21
387.782861761168
 31
0.0
  0
LINE
  5
16E0
330
1E
100
AcDbEntity
  8
STEMPEL
100
AcDbLine
 10
303.6232207043591
 20
387.782861761168
 30
0.0
 11
319.1795698904631
 21
403.339210947272
 31
0.0
  0
LINE
  5
16E3
330
1E
100
AcDbEntity
  8
STEMPEL
100
AcDbLine
 10
300.7947935796129
 20
390.6112888859142
 30
0.0
 11
316.351142765717
 21
406.1676380720181
 31
0.0
  0
LINE
  5
172B
330
1E
100
AcDbEntity
  8
STEMPEL
100
AcDbLine
 10
314.9369292033438
 20
399.0965702601528
 30
0.0
 11
319.1309842295595
 21
394.902515233937
 31
0.0
  0
LINE
  5
172C
330
1E
100
AcDbEntity
  8
HILF
100
AcDbLine
 10
313.876269031564
 20
398.0359100883729
 30
0.0
 11
318.7411911119597
 21
393.1709880079771
 31
0.0
  0
LINE
  5
172D
330
1E
100
AcDbEntity
  8
HILF
100
AcDbLine
 10
308.9265215632582
 20
393.0861626200671
 30
0.0
 11
313.7914436436539
 21
388.2212405396712
 31
0.0
  0
LINE
  5
172E
330
1E
100
AcDbEntity
  8
STEMPEL
100
AcDbLine
 10
307.8658613914783
 20
392.0255024482873
 30
0.0
 11
312.0599164176941
 21
387.8314474220715
 31
0.0
  0
LINE
  5
172F
330
1E
100
AcDbEntity
  8
STEMPEL
100
AcDbLine
 10
298.3199198454601
 20
399.450123650746
 30
0.0
 11
307.5123080008851
 21
408.642511806171
 31
0.0
  0
LINE
  5
1730
330
1E
100
AcDbEntity
  8
STEMPEL
100
AcDbLine
 10
312.7871078216682
 20
404.7897793820233
 30
0.0
 11
308.4138626044583
 21
409.1630245992332
 31
0.0
  0
LINE
  5
1731
330
1E
100
AcDbEntity
  8
STEMPEL
100
AcDbLine
 10
310.1334939336532
 20
402.1361654940082
 30
0.0
 11
305.7602487164432
 21
406.5094107112181
 31
0.0
  0
LINE
  5
1732
330
1E
100
AcDbEntity
  8
STEMPEL
100
AcDbLine
 10
304.8262661576229
 20
396.828937717978
 30
0.0
 11
300.453020940413
 21
401.2021829351879
 31
0.0
  0
LINE
  5
1733
330
1E
100
AcDbEntity
  8
HILF
100
AcDbLine
 10
313.7994747698163
 20
405.2618538428077
 30
0.0
 11
301.7005778088234
 21
393.1629568818149
 31
0.0
  0
LINE
  5
1734
330
1E
100
AcDbEntity
  8
STEMPEL
100
AcDbLine
 10
302.1726522696078
 20
394.1753238299629
 30
0.0
 11
297.7994070523979
 21
398.5485690471729
 31
0.0
  0
LINE
  5
1735
330
1E
100
AcDbEntity
  8
STEMPEL
100
AcDbLine
 10
298.3199198454601
 20
399.450123650746
 30
0.0
 11
297.7994070523979
 21
398.5485690471729
 31
0.0
  0
LINE
  5
1736
330
1E
100
AcDbEntity
  8
STEMPEL
100
AcDbLine
 10
308.4138626044583
 20
409.1630245992332
 30
0.0
 11
307.5123080008851
 21
408.642511806171
 31
0.0
  0
LINE
  5
1737
330
1E
100
AcDbEntity
  8
STEMPEL
100
AcDbLine
 10
313.7994747698163
 20
405.2618538428077
 30
0.0
 11
312.7871078216682
 21
404.7897793820233
 31
0.0
  0
LINE
  5
1738
330
1E
100
AcDbEntity
  8
STEMPEL
100
AcDbLine
 10
302.1726522696078
 20
394.1753238299629
 30
0.0
 11
301.7005778088234
 21
393.1629568818149
 31
0.0
  0
ARC
  5
1739
330
1E
100
AcDbEntity
  8
STEMPEL
100
AcDbCircle
 10
302.2443624810454
 20
392.9093859247706
 30
0.0
 40
0.5999999999999993
100
AcDbArc
 50
154.9999999999995
 51
315.0
  0
ARC
  5
173A
330
1E
100
AcDbEntity
  8
STEMPEL
100
AcDbCircle
 10
314.0530457268608
 20
404.7180691705857
 30
0.0
 40
0.5999999999999999
100
AcDbArc
 50
315.0
 51
115.0000000000005
  0
ARC
  5
173B
330
1E
100
AcDbEntity
  8
STEMPEL
100
AcDbCircle
 10
321.4914111392781
 20
385.4710205123533
 30
0.0
 40
26.26943724812735
100
AcDbArc
 50
126.7867892982622
 51
143.2132107017378
  0
ARC
  5
173C
330
1E
100
AcDbEntity
  8
STEMPEL
100
AcDbCircle
 10
303.6509627346471
 20
395.3506272529387
 30
0.0
 40
6.668398280079905
100
AcDbArc
 50
118.657106694015
 51
151.342893305985
  0
ARC
  5
173D
330
1E
100
AcDbEntity
  8
STEMPEL
100
AcDbCircle
 10
311.6118043986925
 20
403.311468916984
 30
0.0
 40
6.668398280079882
100
AcDbArc
 50
118.657106694015
 51
151.342893305985
  0
ARC
  5
173E
330
1E
100
AcDbEntity
  8
STEMPEL
100
AcDbCircle
 10
320.95519645401
 20
386.0072351976213
 30
0.0
 40
19.42296676475576
100
AcDbArc
 50
123.8596278388911
 51
146.1403721611088
  0
ARC
  5
173F
330
1E
100
AcDbEntity
  8
STEMPEL
100
AcDbCircle
 10
306.7723106630439
 20
392.229279324542
 30
0.0
 40
4.994391509822305
100
AcDbArc
 50
112.9324721810052
 51
157.0675278189948
  0
ARC
  5
1740
330
1E
100
AcDbEntity
  8
STEMPEL
100
AcDbCircle
 10
314.7331523270892
 20
400.1901209885873
 30
0.0
 40
4.994391509822305
100
AcDbArc
 50
112.9324721810052
 51
157.0675278189948
  0
LINE
  5
1742
330
1E
100
AcDbEntity
  8
HILF
100
AcDbLine
 10
298.9986723905932
 20
400.1288761958792
 30
0.0
 11
299.036708845659
 21
400.8546549941065
 31
0.0
  0
LINE
  5
1991
330
1E
100
AcDbEntity
  8
STEMPEL
100
AcDbLine
 10
314.7248004248695
 20
231.8378781631528
 30
0.0
 11
313.6669154402966
 21
234.7443932706471
 31
0.0
  0
ELLIPSE
  5
1992
330
1E
100
AcDbEntity
  8
STEMPEL
100
AcDbEllipse
 10
308.2223767863345
 20
242.2443932706471
 30
0.0
 11
-0.0000000000000643
 21
-10.90000000000006
 31
0.0
210
0.0
220
0.0
230
-1.0
 40
0.5800146942293267
 41
5.471219640292206
 42
7.095150974066952
  0
ELLIPSE
  5
1993
330
1E
100
AcDbEntity
  8
STEMPEL
100
AcDbEllipse
 10
308.2223767863345
 20
242.2443932706471
 30
0.0
 11
-0.000000000000049
 21
10.90000000000006
 31
0.0
210
0.0
220
0.0
230
1.0
 40
0.5800146942293267
 41
5.471219640292206
 42
7.095150974066952
  0
ELLIPSE
  5
1994
330
1E
100
AcDbEntity
  8
STEMPEL
100
AcDbEllipse
 10
302.9161139231726
 20
242.2443932706471
 30
0.0
 11
0.0
 21
7.5
 31
0.0
210
0.0
220
0.0
230
1.0
 40
0.6115578483407793
 41
5.491545300425303
 42
7.124253977747528
  0
LINE
  5
1995
330
1E
100
AcDbEntity
  8
STEMPEL
100
AcDbLine
 10
316.1795698904589
 20
260.494393270647
 30
0.0
 11
319.1795698904589
 21
260.494393270647
 31
0.0
  0
LINE
  5
1996
330
1E
100
AcDbEntity
  8
STEMPEL
100
AcDbLine
 10
316.1795698904589
 20
260.494393270647
 30
0.0
 11
316.1795698904589
 21
223.994393270647
 31
0.0
  0
ARC
  5
1997
330
1E
100
AcDbEntity
  8
STEMPEL
100
AcDbCircle
 10
315.429569890459
 20
252.3943932706471
 30
0.0
 40
0.750000000000001
100
AcDbArc
 50
359.9999991462263
 51
159.9999999999999
  0
LINE
  5
1998
330
1E
100
AcDbEntity
  8
STEMPEL
100
AcDbLine
 10
314.7248004248695
 20
252.6509083781413
 30
0.0
 11
313.6669154402966
 21
249.7443932706471
 31
0.0
  0
LINE
  5
1999
330
1E
100
AcDbEntity
  8
STEMPEL
100
AcDbLine
 10
314.7248004248695
 20
252.6509083781413
 30
0.0
 11
314.7248004248695
 21
231.8378781631528
 31
0.0
  0
LINE
  5
199A
330
1E
100
AcDbEntity
  8
STEMPEL
100
AcDbLine
 10
306.1795698904589
 20
234.7443932706471
 30
0.0
 11
306.1795698904589
 21
249.7443932706471
 31
0.0
  0
LINE
  5
199B
330
1E
100
AcDbEntity
  8
STEMPEL
100
AcDbLine
 10
314.0892133742591
 20
249.7443932706471
 30
0.0
 11
306.1795698904589
 21
249.7443932706471
 31
0.0
  0
LINE
  5
199C
330
1E
100
AcDbEntity
  8
STEMPEL
100
AcDbLine
 10
314.0892133742591
 20
242.2443932706471
 30
0.0
 11
306.4904590229143
 21
242.2443932706471
 31
0.0
  0
LINE
  5
199D
330
1E
100
AcDbEntity
  8
STEMPEL
100
AcDbLine
 10
314.0892133742591
 20
234.7443932706471
 30
0.0
 11
306.1795698904589
 21
234.7443932706471
 31
0.0
  0
LWPOLYLINE
  5
199E
330
1E
100
AcDbEntity
  8
HILF
100
AcDbPolyline
 90
       23
 70
     0
 43
0.0
 10
314.0892133742591
 20
234.7443932706471
 10
314.0404734173408
 20
234.9820746217397
 10
313.9534067288488
 20
235.4415467023788
 10
313.879328015928
 20
235.8827028935623
 10
313.8468703228324
 20
236.0973978490397
 10
313.8173356152405
 20
236.3086546783736
 10
313.7667010887129
 20
236.7222028265747
 10
313.7268468545912
 20
237.1259042965583
 10
313.6973291682186
 20
237.5221286822605
 10
313.6778254850864
 20
237.9131069606315
 10
313.668125518032
 20
238.3009747370988
 10
313.6669154402971
 20
238.4943932706466
 10
313.668125518032
 20
238.6878118041945
 10
313.6778254850864
 20
239.0756795806618
 10
313.6973291682186
 20
239.4666578590328
 10
313.7268468545912
 20
239.8628822447351
 10
313.7667010887129
 20
240.2665837147188
 10
313.8173356152405
 20
240.68013186292
 10
313.8468703228324
 20
240.8913886922539
 10
313.879328015928
 20
241.1060836477315
 10
313.9534067288488
 20
241.5472398389151
 10
314.0404734173408
 20
242.0067119195544
 10
314.0892133742591
 20
242.2443932706471
  0
LWPOLYLINE
  5
199F
330
1E
100
AcDbEntity
  8
HILF
100
AcDbPolyline
 90
       23
 70
     0
 43
0.0
 10
314.0892133742591
 20
242.2443932706471
 10
314.0404734173408
 20
242.4820746217397
 10
313.9534067288488
 20
242.9415467023788
 10
313.879328015928
 20
243.3827028935623
 10
313.8468703228324
 20
243.5973978490397
 10
313.8173356152405
 20
243.8086546783736
 10
313.7667010887129
 20
244.2222028265747
 10
313.7268468545912
 20
244.6259042965583
 10
313.6973291682186
 20
245.0221286822605
 10
313.6778254850864
 20
245.4131069606315
 10
313.668125518032
 20
245.8009747370987
 10
313.6669154402971
 20
245.9943932706466
 10
313.668125518032
 20
246.1878118041946
 10
313.6778254850864
 20
246.5756795806619
 10
313.6973291682186
 20
246.9666578590329
 10
313.7268468545912
 20
247.3628822447352
 10
313.7667010887129
 20
247.7665837147188
 10
313.8173356152405
 20
248.18013186292
 10
313.8468703228324
 20
248.391388692254
 10
313.879328015928
 20
248.6060836477315
 10
313.9534067288488
 20
249.0472398389151
 10
314.0404734173408
 20
249.5067119195544
 10
314.0892133742591
 20
249.7443932706471
  0
ARC
  5
19A0
330
1E
100
AcDbEntity
  8
STEMPEL
100
AcDbCircle
 10
328.951597881357
 20
238.494393270647
 30
0.0
 40
22.77202799089803
100
AcDbArc
 50
170.5216033605196
 51
189.4783966394804
  0
ARC
  5
19A1
330
1E
100
AcDbEntity
  8
STEMPEL
100
AcDbCircle
 10
328.951597881357
 20
245.9943932706471
 30
0.0
 40
22.77202799089803
100
AcDbArc
 50
170.5216033605196
 51
189.4783966394804
  0
LINE
  5
19A2
330
1E
100
AcDbEntity
  8
STEMPEL
  6
Continuous
100
AcDbLine
 10
301.573079473192
 20
238.7444532706471
 30
0.0
 11
303.073079473192
 21
237.2444532706471
 31
0.0
  0
LINE
  5
19A3
330
1E
100
AcDbEntity
  8
HILF
  6
Continuous
100
AcDbLine
 10
306.1795698904589
 20
238.7494407706473
 30
0.0
 11
301.573079473192
 21
238.7494407706473
 31
0.0
  0
LINE
  5
19A4
330
1E
100
AcDbEntity
  8
STEMPEL
  6
Continuous
100
AcDbLine
 10
306.179569890459
 20
237.2444532706475
 30
0.0
 11
303.073079473192
 21
237.2444532706475
 31
0.0
  0
LINE
  5
19A5
330
1E
100
AcDbEntity
  8
STEMPEL
  6
Continuous
100
AcDbLine
 10
301.573079473192
 20
238.7443932706471
 30
0.0
 11
301.573079473192
 21
245.744393270647
 31
0.0
  0
LINE
  5
19A6
330
1E
100
AcDbEntity
  8
STEMPEL
  6
Continuous
100
AcDbLine
 10
301.573079473192
 20
245.7443332706474
 30
0.0
 11
303.073079473192
 21
247.2443332706474
 31
0.0
  0
LINE
  5
19A7
330
1E
100
AcDbEntity
  8
STEMPEL
  6
Continuous
100
AcDbLine
 10
303.073079473192
 20
237.2443932706471
 30
0.0
 11
303.073079473192
 21
247.2443932706471
 31
0.0
  0
LINE
  5
19A8
330
1E
100
AcDbEntity
  8
STEMPEL
  6
Continuous
100
AcDbLine
 10
306.179569890459
 20
247.2443332706474
 30
0.0
 11
303.073079473192
 21
247.2443332706475
 31
0.0
  0
LINE
  5
19A9
330
1E
100
AcDbEntity
  8
HILF
  6
Continuous
100
AcDbLine
 10
306.1795698904589
 20
245.7393457706471
 30
0.0
 11
301.573079473192
 21
245.7393457706472
 31
0.0
  0
LINE
  5
19AA
330
1E
100
AcDbEntity
  8
STEMPEL
100
AcDbLine
 10
316.1795698904589
 20
242.9943932706501
 30
0.0
 11
316.1795698904589
 21
196.4943932706501
 31
0.0
  0
LINE
  5
19AB
330
1E
100
AcDbEntity
  8
STEMPEL
100
AcDbLine
 10
300.794793579613
 20
234.7443932706471
 30
0.0
 11
300.7947935796129
 21
227.2443932706471
 31
0.0
  0
ELLIPSE
  5
19AC
330
1E
100
AcDbEntity
  8
STEMPEL
100
AcDbEllipse
 10
302.9161139231726
 20
242.2443932706471
 30
0.0
 11
0.0
 21
7.5
 31
0.0
210
0.0
220
0.0
230
1.0
 40
0.6115578483407793
 41
2.300523983021871
 42
3.933232660344075
  0
ARC
  5
19AD
330
1E
100
AcDbEntity
  8
STEMPEL
100
AcDbCircle
 10
340.5563615966321
 20
253.1530086112444
 30
0.0
 40
44.12657986459898
100
AcDbArc
 50
201.1322747067229
 51
204.6565177427121
  0
ARC
  5
19AE
330
1E
100
AcDbEntity
  8
STEMPEL
100
AcDbCircle
 10
340.5563615966321
 20
231.3357779300498
 30
0.0
 40
44.12657986459898
100
AcDbArc
 50
155.3434822572879
 51
158.867725293277
  0
ARC
  5
19AF
330
1E
100
AcDbEntity
  8
STEMPEL
100
AcDbCircle
 10
348.5172032606813
 20
223.8357779300475
 30
0.0
 40
44.12657986460342
100
AcDbArc
 50
163.6294060143062
 51
165.6874125016693
  0
ARC
  5
19B0
330
1E
100
AcDbEntity
  8
STEMPEL
100
AcDbCircle
 10
348.5172032606816
 20
260.6530086112461
 30
0.0
 40
44.12657986460342
100
AcDbArc
 50
194.3125874983307
 51
196.3705939856919
  0
LINE
  5
19B1
330
1E
100
AcDbEntity
  8
STEMPEL
100
AcDbLine
 10
300.453020940413
 20
234.7443932706472
 30
0.0
 11
310.1334939336532
 21
234.7443932706472
 31
0.0
  0
LINE
  5
19B2
330
1E
100
AcDbEntity
  8
STEMPEL
100
AcDbLine
 10
300.4530209404131
 20
249.7443932706472
 30
0.0
 11
310.1334939336531
 21
249.7443932706472
 31
0.0
  0
LINE
  5
19B3
330
1E
100
AcDbEntity
  8
STEMPEL
100
AcDbLine
 10
312.7871078216681
 20
242.2443932706471
 30
0.0
 11
308.4138626044583
 21
242.2443932706471
 31
0.0
  0
LINE
  5
19B4
330
1E
100
AcDbEntity
  8
STEMPEL
100
AcDbLine
 10
300.794793579613
 20
257.2443932706471
 30
0.0
 11
316.179569890459
 21
257.2443932706471
 31
0.0
  0
LINE
  5
19B5
330
1E
100
AcDbEntity
  8
STEMPEL
100
AcDbLine
 10
300.794793579613
 20
257.2443932706471
 30
0.0
 11
300.7947935796129
 21
249.7443932706472
 31
0.0
  0
LINE
  5
19B6
330
1E
100
AcDbEntity
  8
MITTEL
100
AcDbLine
 10
246.4295698904583
 20
242.2443932706471
 30
0.0
 11
199.9295698904583
 21
242.2443932706471
 31
0.0
  0
LWPOLYLINE
  5
19B7
330
1E
100
AcDbEntity
  8
STEMPEL
100
AcDbPolyline
 90
        6
 70
     1
 43
0.0
 10
218.8494428715361
 20
249.7443932706472
 10
214.519315852614
 20
242.2443932706471
 10
218.8494428715361
 20
234.7443932706472
 10
227.5096969093805
 20
234.7443932706472
 10
231.8398239283027
 20
242.2443932706471
 10
227.5096969093805
 20
249.7443932706472
  0
CIRCLE
  5
19B8
330
1E
100
AcDbEntity
  8
STEMPEL
100
AcDbCircle
 10
223.1795698904583
 20
242.2443932706471
 30
0.0
 40
7.499999999999968
  0
CIRCLE
  5
19B9
330
1E
100
AcDbEntity
  8
STEMPEL
100
AcDbCircle
 10
223.1795698904583
 20
242.2443932706471
 30
0.0
 40
10.9
  0
CIRCLE
  5
19BA
330
1E
100
AcDbEntity
  8
HILF
100
AcDbCircle
 10
223.1795698904583
 20
242.2443932706471
 30
0.0
 40
10.40651510749425
  0
CIRCLE
  5
19BB
330
1E
100
AcDbEntity
  8
STEMPEL
100
AcDbCircle
 10
223.1795698904583
 20
242.2443932706471
 30
0.0
 40
18.25
  0
LINE
  5
19BC
330
1E
100
AcDbEntity
  8
MITTEL
100
AcDbLine
 10
223.1795698904583
 20
218.9943932706472
 30
0.0
 11
223.1795698904583
 21
265.4943932706471
 31
0.0
  0
LINE
  5
19BD
330
1E
100
AcDbEntity
  8
MITTEL
100
AcDbLine
 10
143.1795698904603
 20
191.4943932706471
 30
0.0
 11
143.1795698904603
 21
237.9943932706471
 31
0.0
  0
DIMENSION
  5
19BE
330
1E
100
AcDbEntity
  8
BEM
100
AcDbDimension
  2
*D9
 10
88.57361872708612
 20
277.244393270647
 30
0.0
 11
82.07361872708608
 21
164.7443932706501
 31
0.0
 70
    32
 71
     5
 42
224.9999999999937
  3
Standard
100
AcDbAlignedDimension
 13
103.1795698904583
 23
52.24439327065323
 33
0.0
 14
103.1795698904583
 24
277.244393270647
 34
0.0
 50
90.0
100
AcDbRotatedDimension
1001
ACAD
1000
DSTYLE
1002
{
1070
    40
1040
2.0
1070
    41
1040
3.5
1070
    42
1040
1.0
1070
    43
1040
7.0
1070
    44
1040
1.0
1070
    73
1070
     0
1070
    74
1070
     0
1070
    77
1070
     1
1070
    78
1070
     8
1070
    79
1070
     2
1070
   140
1040
3.5
1070
   141
1040
1.5
1070
   146
1040
0.5
1070
   147
1040
1.5
1070
   172
1070
     1
1070
   178
1070
     1
1070
   179
1070
     2
1070
   271
1070
     2
1070
   272
1070
     2
1070
   284
1070
     8
1070
   285
1070
     8
1070
   286
1070
     8
1002
}
  0
ARC
  5
19BF
330
1E
100
AcDbEntity
  8
STEMPEL
 62
     3
100
AcDbCircle
 10
168.679569890459
 20
212.2443932706478
 30
0.0
 40
60.0
100
AcDbArc
 50
90.0
 51
180.0
  0
LINE
  5
19C0
330
1E
100
AcDbEntity
  8
STEMPEL
 62
     3
100
AcDbLine
 10
322.1795698904588
 20
272.2443932706497
 30
0.0
 11
168.6795698904583
 21
272.2443932706478
 31
0.0
  0
POINT
  5
19C1
330
1E
100
AcDbEntity
  8
STEMPEL
100
AcDbPoint
 10
202.2298224221426
 20
242.2443932706471
 30
0.0
  0
LINE
  5
19C2
330
1E
100
AcDbEntity
  8
STEMPEL
 62
     3
100
AcDbLine
 10
322.1795698904588
 20
272.2443932706497
 30
0.0
 11
322.1795698904591
 21
57.24439327065053
 31
0.0
  0
LINE
  5
19C3
330
1E
100
AcDbEntity
  8
STEMPEL
 62
     3
100
AcDbLine
 10
319.1795698904588
 20
272.2443932706497
 30
0.0
 11
319.1795698904591
 21
57.24439327065053
 31
0.0
  0
ELLIPSE
  5
19C4
330
1E
100
AcDbEntity
  8
STEMPEL
100
AcDbEllipse
 10
297.1779251790363
 20
242.2443932706471
 30
0.0
 11
0.0
 21
-3.5
 31
0.0
210
0.0
220
0.0
230
1.0
 40
0.7071067811864883
 41
0.0
 42
6.283185307179586
  0
LINE
  5
19C5
330
1E
100
AcDbEntity
  8
HILF
100
AcDbLine
 10
297.1779251790363
 20
238.7443932706471
 30
0.0
 11
301.573079473192
 21
238.7443932706471
 31
0.0
  0
LINE
  5
19C6
330
1E
100
AcDbEntity
  8
HILF
100
AcDbLine
 10
297.1779251790363
 20
245.7443932706471
 30
0.0
 11
301.573079473192
 21
245.744393270647
 31
0.0
  0
ELLIPSE
  5
19C7
330
1E
100
AcDbEntity
  8
STEMPEL
100
AcDbEllipse
 10
298.238585350816
 20
242.2443932706471
 30
0.0
 11
0.0
 21
-5.0
 31
0.0
210
0.0
220
0.0
230
1.0
 40
0.7071067811864851
 41
1.909646898088646
 42
7.515131062680732
  0
LINE
  5
19C8
330
1E
100
AcDbEntity
  8
STEMPEL
100
AcDbLine
 10
298.238585350816
 20
237.2443932706471
 30
0.0
 11
303.073079473192
 21
237.2443932706471
 31
0.0
  0
LINE
  5
19C9
330
1E
100
AcDbEntity
  8
STEMPEL
100
AcDbLine
 10
298.238585350816
 20
247.2443932706471
 30
0.0
 11
303.073079473192
 21
247.2443932706471
 31
0.0
  0
LINE
  5
19CA
330
1E
100
AcDbEntity
  8
STEMPEL
100
AcDbLine
 10
330.1795698904572
 20
277.2443932706504
 30
0.0
 11
330.1795698904571
 21
52.24439327064985
 31
0.0
  0
LINE
  5
19CB
330
1E
100
AcDbEntity
  8
MITTEL
100
AcDbLine
 10
289.7025820410063
 20
242.2443932706471
 30
0.0
 11
330.1795698904572
 21
242.2443932706471
 31
0.0
  0
LINE
  5
19CC
330
1E
100
AcDbEntity
  8
STEMPEL
100
AcDbLine
 10
330.1795698904572
 20
277.2443932706504
 30
0.0
 11
103.1795698904583
 21
277.244393270647
 31
0.0
  0
LINE
  5
19CD
330
1E
100
AcDbEntity
  8
STEMPEL
100
AcDbLine
 10
103.1795698904583
 20
277.2443932706502
 30
0.0
 11
103.1795698904583
 21
52.24439327065323
 31
0.0
  0
CIRCLE
  5
19CE
330
1E
100
AcDbEntity
  8
STEMPEL
100
AcDbCircle
 10
223.1795698904583
 20
242.2443932706471
 30
0.0
 40
5.0
  0
ARC
  5
19CF
330
1E
100
AcDbEntity
  8
HILF
100
AcDbCircle
 10
223.1795698904583
 20
242.2443932706471
 30
0.0
 40
4.0
100
AcDbArc
 50
189.9999999999986
 51
99.99999999999861
  0
LINE
  5
19D0
330
1E
100
AcDbEntity
  8
STEMPEL
100
AcDbLine
 10
327.179569890459
 20
277.2443932706503
 30
0.0
 11
327.179569890459
 21
52.24439327064995
 31
0.0
  0
LINE
  5
19D1
330
1E
100
AcDbEntity
  8
STEMPEL
100
AcDbLine
 10
316.1795698904589
 20
86.4943932706501
 30
0.0
 11
316.1795698904589
 21
132.9943932706501
 31
0.0
  0
LINE
  5
19D2
330
1E
100
AcDbEntity
  8
MITTEL
100
AcDbLine
 10
289.7025820410063
 20
87.24439327065311
 30
0.0
 11
330.1795698904572
 21
87.24439327065315
 31
0.0
  0
LINE
  5
19D3
330
1E
100
AcDbEntity
  8
STEMPEL
100
AcDbLine
 10
298.238585350816
 20
82.24439327065311
 30
0.0
 11
303.073079473192
 21
82.24439327065315
 31
0.0
  0
LINE
  5
19D4
330
1E
100
AcDbEntity
  8
STEMPEL
100
AcDbLine
 10
298.238585350816
 20
92.24439327065311
 30
0.0
 11
303.073079473192
 21
92.2443932706531
 31
0.0
  0
ELLIPSE
  5
19D5
330
1E
100
AcDbEntity
  8
STEMPEL
100
AcDbEllipse
 10
298.238585350816
 20
87.24439327065311
 30
0.0
 11
0.0
 21
5.0
 31
0.0
210
0.0
220
0.0
230
-1.0
 40
0.7071067811864851
 41
1.909646898088646
 42
7.515131062680732
  0
LINE
  5
19D6
330
1E
100
AcDbEntity
  8
HILF
100
AcDbLine
 10
297.1779251790363
 20
83.74439327065315
 30
0.0
 11
301.573079473192
 21
83.74439327065321
 31
0.0
  0
LINE
  5
19D7
330
1E
100
AcDbEntity
  8
HILF
100
AcDbLine
 10
297.1779251790363
 20
90.74439327065315
 30
0.0
 11
301.573079473192
 21
90.74439327065315
 31
0.0
  0
ELLIPSE
  5
19D8
330
1E
100
AcDbEntity
  8
STEMPEL
100
AcDbEllipse
 10
297.1779251790363
 20
87.24439327065315
 30
0.0
 11
0.0
 21
3.5
 31
0.0
210
0.0
220
0.0
230
-1.0
 40
0.7071067811864883
 41
0.0
 42
6.283185307179586
  0
LINE
  5
19D9
330
1E
100
AcDbEntity
  8
STEMPEL
100
AcDbLine
 10
300.794793579613
 20
72.24439327065306
 30
0.0
 11
300.7947935796129
 21
79.74439327065306
 31
0.0
  0
LINE
  5
19DA
330
1E
100
AcDbEntity
  8
STEMPEL
100
AcDbLine
 10
300.794793579613
 20
72.24439327065311
 30
0.0
 11
316.179569890459
 21
72.24439327065311
 31
0.0
  0
LINE
  5
19DC
330
1E
100
AcDbEntity
  8
STEMPEL
100
AcDbLine
 10
312.7871078216681
 20
87.24439327065315
 30
0.0
 11
308.4138626044583
 21
87.24439327065311
 31
0.0
  0
LINE
  5
19DD
330
1E
100
AcDbEntity
  8
STEMPEL
100
AcDbLine
 10
300.4530209404131
 20
79.74439327065306
 30
0.0
 11
310.1334939336531
 21
79.74439327065306
 31
0.0
  0
LINE
  5
19DE
330
1E
100
AcDbEntity
  8
STEMPEL
100
AcDbLine
 10
300.453020940413
 20
94.74439327065306
 30
0.0
 11
310.1334939336532
 21
94.74439327065303
 31
0.0
  0
ARC
  5
19DF
330
1E
100
AcDbEntity
  8
STEMPEL
100
AcDbCircle
 10
348.5172032606816
 20
68.83577793005412
 30
0.0
 40
44.12657986460342
100
AcDbArc
 50
163.629406014308
 51
165.6874125016693
  0
ARC
  5
19E0
330
1E
100
AcDbEntity
  8
STEMPEL
100
AcDbCircle
 10
348.5172032606813
 20
105.6530086112527
 30
0.0
 40
44.12657986460342
100
AcDbArc
 50
194.3125874983307
 51
196.3705939856937
  0
ARC
  5
19E1
330
1E
100
AcDbEntity
  8
STEMPEL
100
AcDbCircle
 10
340.5563615966321
 20
98.15300861125042
 30
0.0
 40
44.12657986459898
100
AcDbArc
 50
201.1322747067229
 51
204.6565177427121
  0
ARC
  5
19E2
330
1E
100
AcDbEntity
  8
STEMPEL
100
AcDbCircle
 10
340.5563615966321
 20
76.33577793005582
 30
0.0
 40
44.12657986459898
100
AcDbArc
 50
155.3434822572879
 51
158.867725293277
  0
ELLIPSE
  5
19E3
330
1E
100
AcDbEntity
  8
STEMPEL
100
AcDbEllipse
 10
302.9161139231726
 20
87.24439327065306
 30
0.0
 11
0.0
 21
-7.5
 31
0.0
210
0.0
220
0.0
230
-1.0
 40
0.6115578483407793
 41
2.300523983021871
 42
3.933232660344075
  0
LINE
  5
19E4
330
1E
100
AcDbEntity
  8
STEMPEL
100
AcDbLine
 10
300.794793579613
 20
94.7443932706531
 30
0.0
 11
300.7947935796129
 21
102.2443932706531
 31
0.0
  0
LINE
  5
19E5
330
1E
100
AcDbEntity
  8
STEMPEL
100
AcDbLine
 10
316.1795698904589
 20
96.4943932706501
 30
0.0
 11
319.1795698904589
 21
96.4943932706501
 31
0.0
  0
LINE
  5
19E7
330
1E
100
AcDbEntity
  8
HILF
  6
Continuous
100
AcDbLine
 10
306.1795698904589
 20
83.74944077065306
 30
0.0
 11
301.573079473192
 21
83.74944077065299
 31
0.0
  0
LINE
  5
19E8
330
1E
100
AcDbEntity
  8
STEMPEL
  6
Continuous
100
AcDbLine
 10
306.179569890459
 20
82.2444532706528
 30
0.0
 11
303.073079473192
 21
82.24445327065273
 31
0.0
  0
LINE
  5
19E9
330
1E
100
AcDbEntity
  8
STEMPEL
  6
Continuous
100
AcDbLine
 10
303.073079473192
 20
92.2443932706531
 30
0.0
 11
303.073079473192
 21
82.24439327065315
 31
0.0
  0
LINE
  5
19EA
330
1E
100
AcDbEntity
  8
STEMPEL
  6
Continuous
100
AcDbLine
 10
301.573079473192
 20
83.74445327065279
 30
0.0
 11
303.073079473192
 21
82.2444532706528
 31
0.0
  0
LINE
  5
19EB
330
1E
100
AcDbEntity
  8
STEMPEL
  6
Continuous
100
AcDbLine
 10
301.573079473192
 20
90.74439327065315
 30
0.0
 11
301.573079473192
 21
83.74439327065321
 31
0.0
  0
LINE
  5
19EC
330
1E
100
AcDbEntity
  8
STEMPEL
  6
Continuous
100
AcDbLine
 10
306.179569890459
 20
92.24433327065273
 30
0.0
 11
303.073079473192
 21
92.24433327065275
 31
0.0
  0
LINE
  5
19ED
330
1E
100
AcDbEntity
  8
HILF
  6
Continuous
100
AcDbLine
 10
306.1795698904589
 20
90.73934577065292
 30
0.0
 11
301.573079473192
 21
90.73934577065291
 31
0.0
  0
LINE
  5
19EE
330
1E
100
AcDbEntity
  8
STEMPEL
  6
Continuous
100
AcDbLine
 10
301.573079473192
 20
90.74433327065316
 30
0.0
 11
303.073079473192
 21
92.24433327065316
 31
0.0
  0
ARC
  5
19EF
330
1E
100
AcDbEntity
  8
STEMPEL
100
AcDbCircle
 10
328.951597881357
 20
83.49439327065315
 30
0.0
 40
22.77202799089803
100
AcDbArc
 50
170.5216033605196
 51
189.4783966394804
  0
ARC
  5
19F0
330
1E
100
AcDbEntity
  8
STEMPEL
100
AcDbCircle
 10
328.951597881357
 20
90.99439327065315
 30
0.0
 40
22.77202799089803
100
AcDbArc
 50
170.5216033605196
 51
189.4783966394804
  0
LWPOLYLINE
  5
19F1
330
1E
100
AcDbEntity
  8
HILF
100
AcDbPolyline
 90
       23
 70
     0
 43
0.0
 10
314.0892133742591
 20
87.24439327065315
 10
314.0404734173408
 20
87.00671191956052
 10
313.9534067288488
 20
86.54723983892145
 10
313.879328015928
 20
86.10608364773796
 10
313.8468703228324
 20
85.89138869226051
 10
313.8173356152405
 20
85.6801318629266
 10
313.7667010887129
 20
85.26658371472549
 10
313.7268468545912
 20
84.86288224474193
 10
313.6973291682186
 20
84.46665785903972
 10
313.6778254850864
 20
84.07567958066872
 10
313.668125518032
 20
83.68781180420146
 10
313.6669154402971
 20
83.49439327065358
 10
313.668125518032
 20
83.30097473710566
 10
313.6778254850864
 20
82.91310696063836
 10
313.6973291682186
 20
82.52212868226735
 10
313.7268468545912
 20
82.12590429656506
 10
313.7667010887129
 20
81.72220282658143
 10
313.8173356152405
 20
81.30865467838024
 10
313.8468703228324
 20
81.09739784904627
 10
313.879328015928
 20
80.88270289356874
 10
313.9534067288488
 20
80.4415467023851
 10
314.0404734173408
 20
79.98207462174585
 10
314.0892133742591
 20
79.74439327065315
  0
LWPOLYLINE
  5
19F2
330
1E
100
AcDbEntity
  8
HILF
100
AcDbPolyline
 90
       23
 70
     0
 43
0.0
 10
314.0892133742591
 20
94.74439327065315
 10
314.0404734173408
 20
94.50671191956052
 10
313.9534067288488
 20
94.04723983892145
 10
313.879328015928
 20
93.60608364773796
 10
313.8468703228324
 20
93.39138869226051
 10
313.8173356152405
 20
93.1801318629266
 10
313.7667010887129
 20
92.76658371472549
 10
313.7268468545912
 20
92.36288224474193
 10
313.6973291682186
 20
91.96665785903972
 10
313.6778254850864
 20
91.57567958066872
 10
313.668125518032
 20
91.18781180420146
 10
313.6669154402971
 20
90.99439327065358
 10
313.668125518032
 20
90.80097473710566
 10
313.6778254850864
 20
90.41310696063836
 10
313.6973291682186
 20
90.02212868226735
 10
313.7268468545912
 20
89.62590429656506
 10
313.7667010887129
 20
89.22220282658143
 10
313.8173356152405
 20
88.80865467838024
 10
313.8468703228324
 20
88.59739784904627
 10
313.879328015928
 20
88.38270289356874
 10
313.9534067288488
 20
87.9415467023851
 10
314.0404734173408
 20
87.48207462174585
 10
314.0892133742591
 20
87.24439327065315
  0
LINE
  5
19F3
330
1E
100
AcDbEntity
  8
STEMPEL
100
AcDbLine
 10
314.0892133742591
 20
94.74439327065315
 30
0.0
 11
306.1795698904589
 21
94.74439327065315
 31
0.0
  0
LINE
  5
19F4
330
1E
100
AcDbEntity
  8
STEMPEL
100
AcDbLine
 10
314.0892133742591
 20
87.24439327065315
 30
0.0
 11
306.4904590229143
 21
87.24439327065315
 31
0.0
  0
LINE
  5
19F5
330
1E
100
AcDbEntity
  8
STEMPEL
100
AcDbLine
 10
314.0892133742591
 20
79.74439327065315
 30
0.0
 11
306.1795698904589
 21
79.74439327065311
 31
0.0
  0
LINE
  5
19F6
330
1E
100
AcDbEntity
  8
STEMPEL
100
AcDbLine
 10
306.1795698904589
 20
94.74439327065315
 30
0.0
 11
306.1795698904589
 21
79.74439327065311
 31
0.0
  0
LINE
  5
19F7
330
1E
100
AcDbEntity
  8
STEMPEL
100
AcDbLine
 10
314.7248004248695
 20
76.83787816315888
 30
0.0
 11
314.7248004248695
 21
97.65090837814739
 31
0.0
  0
LINE
  5
19F8
330
1E
100
AcDbEntity
  8
STEMPEL
100
AcDbLine
 10
314.7248004248695
 20
76.83787816315888
 30
0.0
 11
313.6669154402966
 21
79.74439327065315
 31
0.0
  0
LINE
  5
19F9
330
1E
100
AcDbEntity
  8
STEMPEL
100
AcDbLine
 10
313.6669154402966
 20
94.74439327065315
 30
0.0
 11
314.7248004248695
 21
97.6509083781474
 31
0.0
  0
ARC
  5
19FA
330
1E
100
AcDbEntity
  8
STEMPEL
100
AcDbCircle
 10
315.429569890459
 20
77.09439327065314
 30
0.0
 40
0.750000000000001
100
AcDbArc
 50
200.0000000000001
 51
0.0000008537736463
  0
LINE
  5
19FB
330
1E
100
AcDbEntity
  8
STEMPEL
100
AcDbLine
 10
316.1795698904589
 20
68.99439327065318
 30
0.0
 11
316.1795698904589
 21
105.4943932706531
 31
0.0
  0
LINE
  5
19FC
330
1E
100
AcDbEntity
  8
STEMPEL
100
AcDbLine
 10
316.1795698904589
 20
68.99439327065318
 30
0.0
 11
319.1795698904589
 21
68.99439327065318
 31
0.0
  0
ELLIPSE
  5
19FD
330
1E
100
AcDbEntity
  8
STEMPEL
100
AcDbEllipse
 10
302.9161139231726
 20
87.24439327065306
 30
0.0
 11
0.0
 21
-7.5
 31
0.0
210
0.0
220
0.0
230
-1.0
 40
0.6115578483407793
 41
5.491545300425303
 42
7.124253977747528
  0
ELLIPSE
  5
19FE
330
1E
100
AcDbEntity
  8
STEMPEL
100
AcDbEllipse
 10
308.2223767863345
 20
87.24439327065311
 30
0.0
 11
-0.000000000000049
 21
-10.90000000000006
 31
0.0
210
0.0
220
0.0
230
-1.0
 40
0.5800146942293267
 41
5.471219640292206
 42
7.095150974066952
  0
LWPOLYLINE
  5
19FF
330
1E
100
AcDbEntity
  8
STEMPEL
100
AcDbPolyline
 90
        6
 70
     1
 43
0.0
 10
218.8494428715361
 20
94.74439327065306
 10
214.519315852614
 20
87.24439327065306
 10
218.8494428715361
 20
79.74439327065306
 10
227.5096969093805
 20
79.74439327065306
 10
231.8398239283027
 20
87.24439327065306
 10
227.5096969093805
 20
94.74439327065306
  0
CIRCLE
  5
1A00
330
1E
100
AcDbEntity
  8
STEMPEL
100
AcDbCircle
 10
223.1795698904583
 20
87.24439327065306
 30
0.0
 40
7.499999999999968
  0
CIRCLE
  5
1A01
330
1E
100
AcDbEntity
  8
STEMPEL
100
AcDbCircle
 10
223.1795698904583
 20
87.24439327065306
 30
0.0
 40
10.9
  0
CIRCLE
  5
1A02
330
1E
100
AcDbEntity
  8
HILF
100
AcDbCircle
 10
223.1795698904583
 20
87.24439327065306
 30
0.0
 40
10.40651510749425
  0
CIRCLE
  5
1A03
330
1E
100
AcDbEntity
  8
STEMPEL
100
AcDbCircle
 10
223.1795698904583
 20
87.24439327065306
 30
0.0
 40
18.25
  0
LINE
  5
1A04
330
1E
100
AcDbEntity
  8
MITTEL
100
AcDbLine
 10
223.1795698904583
 20
63.99439327065306
 30
0.0
 11
223.1795698904583
 21
110.494393270653
 31
0.0
  0
CIRCLE
  5
1A05
330
1E
100
AcDbEntity
  8
STEMPEL
100
AcDbCircle
 10
143.1795698904603
 20
114.7443932706531
 30
0.0
 40
18.25
  0
LINE
  5
1A06
330
1E
100
AcDbEntity
  8
MITTEL
100
AcDbLine
 10
143.1795698904603
 20
91.49439327065312
 30
0.0
 11
143.1795698904603
 21
137.9943932706531
 31
0.0
  0
ARC
  5
1A07
330
1E
100
AcDbEntity
  8
STEMPEL
 62
     3
100
AcDbCircle
 10
168.679569890459
 20
117.2443932706524
 30
0.0
 40
60.0
100
AcDbArc
 50
180.0
 51
270.0
  0
LINE
  5
1A08
330
1E
100
AcDbEntity
  8
STEMPEL
 62
     3
100
AcDbLine
 10
322.1795698904591
 20
57.24439327065053
 30
0.0
 11
168.6795698904583
 21
57.24439327065238
 31
0.0
  0
POINT
  5
1A09
330
1E
100
AcDbEntity
  8
STEMPEL
100
AcDbPoint
 10
201.6798224221426
 20
87.24439327065317
 30
0.0
  0
DIMENSION
  5
1A0A
330
1E
100
AcDbEntity
  8
BEM
100
AcDbDimension
  2
*D8
 10
330.1795698904571
 20
35.13466702920778
 30
0.0
 11
216.6795698904577
 21
41.63466702920778
 31
0.0
 70
    32
 71
     5
 42
226.9999999999988
  3
Standard
100
AcDbAlignedDimension
 13
103.1795698904583
 23
52.24439327065323
 33
0.0
 14
330.1795698904571
 24
52.24439327064985
 34
0.0
100
AcDbRotatedDimension
1001
ACAD
1000
DSTYLE
1002
{
1070
    40
1040
2.0
1070
    41
1040
3.5
1070
    42
1040
1.0
1070
    43
1040
7.0
1070
    44
1040
1.0
1070
    73
1070
     0
1070
    74
1070
     0
1070
    77
1070
     1
1070
    78
1070
     8
1070
    79
1070
     2
1070
   140
1040
3.5
1070
   141
1040
1.5
1070
   146
1040
0.5
1070
   147
1040
1.5
1070
   172
1070
     1
1070
   178
1070
     1
1070
   179
1070
     2
1070
   271
1070
     2
1070
   272
1070
     2
1070
   284
1070
     8
1070
   285
1070
     8
1070
   286
1070
     8
1002
}
  0
ARC
  5
1A0B
330
1E
100
AcDbEntity
  8
HILF
100
AcDbCircle
 10
223.1795698904583
 20
87.24439327065306
 30
0.0
 40
4.0
100
AcDbArc
 50
260.0000000000014
 51
170.0000000000014
  0
CIRCLE
  5
1A0C
330
1E
100
AcDbEntity
  8
STEMPEL
100
AcDbCircle
 10
223.1795698904583
 20
87.24439327065306
 30
0.0
 40
5.0
  0
LINE
  5
1A0D
330
1E
100
AcDbEntity
  8
STEMPEL
100
AcDbLine
 10
330.1795698904571
 20
52.24439327064985
 30
0.0
 11
103.1795698904583
 21
52.24439327065323
 31
0.0
  0
LINE
  5
1A0E
330
1E
100
AcDbEntity
  8
MITTEL
100
AcDbLine
 10
199.9295698904583
 20
87.2443932706532
 30
0.0
 11
246.4295698904583
 21
87.24439327065311
 31
0.0
  0
LWPOLYLINE
  5
1A0F
330
1E
100
AcDbEntity
  8
STEMPEL
100
AcDbPolyline
 90
        6
 70
     1
 43
0.0
 10
138.8494428715381
 20
122.2443932706531
 10
134.519315852616
 20
114.7443932706531
 10
138.8494428715381
 20
107.2443932706531
 10
147.5096969093826
 20
107.2443932706531
 10
151.8398239283047
 20
114.7443932706531
 10
147.5096969093826
 20
122.2443932706531
  0
CIRCLE
  5
1A10
330
1E
100
AcDbEntity
  8
STEMPEL
100
AcDbCircle
 10
143.1795698904604
 20
114.7443932706531
 30
0.0
 40
7.499999999999968
  0
CIRCLE
  5
1A11
330
1E
100
AcDbEntity
  8
STEMPEL
100
AcDbCircle
 10
143.1795698904603
 20
114.7443932706531
 30
0.0
 40
10.9
  0
CIRCLE
  5
1A12
330
1E
100
AcDbEntity
  8
HILF
100
AcDbCircle
 10
143.1795698904603
 20
114.7443932706531
 30
0.0
 40
10.40651510749425
  0
ARC
  5
1A13
330
1E
100
AcDbEntity
  8
STEMPEL
 62
     3
100
AcDbCircle
 10
193.679569890459
 20
137.244393270653
 30
0.0
 40
20.0
100
AcDbArc
 50
180.0
 51
270.0
  0
LINE
  5
1A14
330
1E
100
AcDbEntity
  8
STEMPEL
 62
     3
100
AcDbLine
 10
173.679569890459
 20
137.244393270653
 30
0.0
 11
173.679569890459
 21
192.2443932706471
 31
0.0
  0
LINE
  5
1A15
330
1E
100
AcDbEntity
  8
MITTEL
100
AcDbLine
 10
121.1795698904589
 20
114.7443932706512
 30
0.0
 11
166.4295698904603
 21
114.7443932706513
 31
0.0
  0
CIRCLE
  5
1A16
330
1E
100
AcDbEntity
  8
STEMPEL
100
AcDbCircle
 10
143.1795698904603
 20
114.7443932706531
 30
0.0
 40
5.0
  0
ARC
  5
1A17
330
1E
100
AcDbEntity
  8
HILF
100
AcDbCircle
 10
143.1795698904603
 20
114.7443932706531
 30
0.0
 40
4.0
100
AcDbArc
 50
260.0000000000014
 51
170.0000000000014
  0
LWPOLYLINE
  5
1A18
330
1E
100
AcDbEntity
  8
STEMPEL
100
AcDbPolyline
 90
        6
 70
     1
 43
0.0
 10
138.8494428715381
 20
222.2443932706471
 10
134.519315852616
 20
214.7443932706471
 10
138.8494428715381
 20
207.2443932706471
 10
147.5096969093826
 20
207.2443932706471
 10
151.8398239283047
 20
214.7443932706471
 10
147.5096969093826
 20
222.2443932706471
  0
CIRCLE
  5
1A19
330
1E
100
AcDbEntity
  8
STEMPEL
100
AcDbCircle
 10
143.1795698904604
 20
214.7443932706471
 30
0.0
 40
7.499999999999968
  0
CIRCLE
  5
1A1A
330
1E
100
AcDbEntity
  8
STEMPEL
100
AcDbCircle
 10
143.1795698904603
 20
214.7443932706471
 30
0.0
 40
10.9
  0
CIRCLE
  5
1A1B
330
1E
100
AcDbEntity
  8
HILF
100
AcDbCircle
 10
143.1795698904603
 20
214.7443932706471
 30
0.0
 40
10.40651510749425
  0
CIRCLE
  5
1A1C
330
1E
100
AcDbEntity
  8
STEMPEL
100
AcDbCircle
 10
143.1795698904603
 20
214.7443932706471
 30
0.0
 40
18.25
  0
LINE
  5
1A1D
330
1E
100
AcDbEntity
  8
STEMPEL
 62
     3
100
AcDbLine
 10
301.573079473192
 20
212.2443932706474
 30
0.0
 11
193.679569890459
 21
212.2443932706472
 31
0.0
  0
ARC
  5
1A1E
330
1E
100
AcDbEntity
  8
STEMPEL
 62
     3
100
AcDbCircle
 10
193.679569890459
 20
192.2443932706471
 30
0.0
 40
20.0
100
AcDbArc
 50
90.0
 51
180.0
  0
LINE
  5
1A1F
330
1E
100
AcDbEntity
  8
MITTEL
100
AcDbLine
 10
121.1795698904589
 20
214.744393270649
 30
0.0
 11
166.4295698904603
 21
214.744393270649
 31
0.0
  0
LINE
  5
1A20
330
1E
100
AcDbEntity
  8
STEMPEL
 62
     3
100
AcDbLine
 10
108.679569890459
 20
212.2443932706478
 30
0.0
 11
108.679569890459
 21
117.2443932706524
 31
0.0
  0
ARC
  5
1A21
330
1E
100
AcDbEntity
  8
HILF
100
AcDbCircle
 10
143.1795698904603
 20
214.7443932706471
 30
0.0
 40
4.0
100
AcDbArc
 50
189.9999999999986
 51
99.99999999999861
  0
CIRCLE
  5
1A22
330
1E
100
AcDbEntity
  8
STEMPEL
100
AcDbCircle
 10
143.1795698904603
 20
214.7443932706471
 30
0.0
 40
5.0
  0
LWPOLYLINE
  5
1A23
330
1E
100
AcDbEntity
  8
HILF
100
AcDbPolyline
 90
       23
 70
     0
 43
0.0
 10
314.0892133742591
 20
207.2443932706501
 10
314.0404734173408
 20
207.4820746217428
 10
313.9534067288488
 20
207.9415467023818
 10
313.879328015928
 20
208.3827028935653
 10
313.8468703228324
 20
208.5973978490428
 10
313.8173356152405
 20
208.8086546783767
 10
313.7667010887129
 20
209.2222028265778
 10
313.7268468545912
 20
209.6259042965614
 10
313.6973291682186
 20
210.0221286822636
 10
313.6778254850864
 20
210.4131069606346
 10
313.668125518032
 20
210.8009747371018
 10
313.6669154402971
 20
210.9943932706497
 10
313.668125518032
 20
211.1878118041976
 10
313.6778254850864
 20
211.5756795806649
 10
313.6973291682186
 20
211.9666578590359
 10
313.7268468545912
 20
212.3628822447382
 10
313.7667010887129
 20
212.7665837147219
 10
313.8173356152405
 20
213.180131862923
 10
313.8468703228324
 20
213.391388692257
 10
313.879328015928
 20
213.6060836477346
 10
313.9534067288488
 20
214.0472398389182
 10
314.0404734173408
 20
214.5067119195574
 10
314.0892133742591
 20
214.7443932706501
  0
LINE
  5
1A24
330
1E
100
AcDbEntity
  8
STEMPEL
100
AcDbLine
 10
314.0892133742591
 20
207.2443932706501
 30
0.0
 11
306.1795698904589
 21
207.2443932706501
 31
0.0
  0
LINE
  5
1A25
330
1E
100
AcDbEntity
  8
STEMPEL
100
AcDbLine
 10
314.7248004248695
 20
225.1509083781444
 30
0.0
 11
314.7248004248695
 21
204.3378781631559
 31
0.0
  0
LINE
  5
1A26
330
1E
100
AcDbEntity
  8
STEMPEL
100
AcDbLine
 10
313.6669154402966
 20
207.2443932706501
 30
0.0
 11
314.7248004248695
 21
204.3378781631559
 31
0.0
  0
ARC
  5
1A27
330
1E
100
AcDbEntity
  8
STEMPEL
100
AcDbCircle
 10
328.951597881357
 20
218.4943932706501
 30
0.0
 40
22.77202799089803
100
AcDbArc
 50
170.5216033605196
 51
189.4783966394804
  0
ARC
  5
1A28
330
1E
100
AcDbEntity
  8
STEMPEL
100
AcDbCircle
 10
328.951597881357
 20
210.9943932706501
 30
0.0
 40
22.77202799089803
100
AcDbArc
 50
170.5216033605196
 51
189.4783966394804
  0
LINE
  5
1A29
330
1E
100
AcDbEntity
  8
STEMPEL
100
AcDbLine
 10
314.0892133742591
 20
214.7443932706501
 30
0.0
 11
306.4904590229143
 21
214.7443932706501
 31
0.0
  0
LINE
  5
1A2A
330
1E
100
AcDbEntity
  8
STEMPEL
100
AcDbLine
 10
314.0892133742591
 20
222.2443932706501
 30
0.0
 11
306.1795698904589
 21
222.2443932706501
 31
0.0
  0
LINE
  5
1A2B
330
1E
100
AcDbEntity
  8
STEMPEL
100
AcDbLine
 10
306.1795698904589
 20
207.2443932706501
 30
0.0
 11
306.1795698904589
 21
222.2443932706501
 31
0.0
  0
LINE
  5
1A2C
330
1E
100
AcDbEntity
  8
STEMPEL
  6
Continuous
100
AcDbLine
 10
306.179569890459
 20
209.7444532706505
 30
0.0
 11
303.073079473192
 21
209.7444532706505
 31
0.0
  0
LINE
  5
1A2D
330
1E
100
AcDbEntity
  8
HILF
  6
Continuous
100
AcDbLine
 10
306.1795698904589
 20
211.2494407706503
 30
0.0
 11
301.573079473192
 21
211.2494407706504
 31
0.0
  0
LINE
  5
1A2E
330
1E
100
AcDbEntity
  8
HILF
  6
Continuous
100
AcDbLine
 10
306.1795698904589
 20
218.2393457706502
 30
0.0
 11
301.573079473192
 21
218.2393457706503
 31
0.0
  0
LINE
  5
1A2F
330
1E
100
AcDbEntity
  8
STEMPEL
  6
Continuous
100
AcDbLine
 10
306.179569890459
 20
219.7443332706505
 30
0.0
 11
303.073079473192
 21
219.7443332706505
 31
0.0
  0
LINE
  5
1A30
330
1E
100
AcDbEntity
  8
MITTEL
100
AcDbLine
 10
296.5730794731921
 20
214.7443932706501
 30
0.0
 11
330.1795698904572
 21
214.7443932706501
 31
0.0
  0
LINE
  5
1A31
330
1E
100
AcDbEntity
  8
STEMPEL
  6
Continuous
100
AcDbLine
 10
301.573079473192
 20
211.2444532706505
 30
0.0
 11
301.573079473192
 21
218.2443332706505
 31
0.0
  0
LINE
  5
1A32
330
1E
100
AcDbEntity
  8
STEMPEL
  6
Continuous
100
AcDbLine
 10
303.073079473192
 20
209.7444532706505
 30
0.0
 11
303.073079473192
 21
219.7443332706505
 31
0.0
  0
LINE
  5
1A33
330
1E
100
AcDbEntity
  8
STEMPEL
  6
Continuous
100
AcDbLine
 10
301.573079473192
 20
211.2444532706501
 30
0.0
 11
303.073079473192
 21
209.7444532706501
 31
0.0
  0
LINE
  5
1A34
330
1E
100
AcDbEntity
  8
STEMPEL
  6
Continuous
100
AcDbLine
 10
301.573079473192
 20
218.2443332706505
 30
0.0
 11
303.073079473192
 21
219.7443332706505
 31
0.0
  0
LWPOLYLINE
  5
1A35
330
1E
100
AcDbEntity
  8
HILF
100
AcDbPolyline
 90
       23
 70
     0
 43
0.0
 10
314.0892133742591
 20
214.7443932706501
 10
314.0404734173408
 20
214.9820746217427
 10
313.9534067288488
 20
215.4415467023818
 10
313.879328015928
 20
215.8827028935653
 10
313.8468703228324
 20
216.0973978490428
 10
313.8173356152405
 20
216.3086546783767
 10
313.7667010887129
 20
216.7222028265778
 10
313.7268468545912
 20
217.1259042965613
 10
313.6973291682186
 20
217.5221286822636
 10
313.6778254850864
 20
217.9131069606345
 10
313.668125518032
 20
218.3009747371018
 10
313.6669154402971
 20
218.4943932706497
 10
313.668125518032
 20
218.6878118041976
 10
313.6778254850864
 20
219.0756795806649
 10
313.6973291682186
 20
219.4666578590359
 10
313.7268468545912
 20
219.8628822447382
 10
313.7667010887129
 20
220.2665837147219
 10
313.8173356152405
 20
220.6801318629231
 10
313.8468703228324
 20
220.891388692257
 10
313.879328015928
 20
221.1060836477345
 10
313.9534067288488
 20
221.5472398389182
 10
314.0404734173408
 20
222.0067119195574
 10
314.0892133742591
 20
222.2443932706501
  0
LINE
  5
1A36
330
1E
100
AcDbEntity
  8
STEMPEL
100
AcDbLine
 10
314.7248004248695
 20
225.1509083781444
 30
0.0
 11
313.6669154402966
 21
222.2443932706501
 31
0.0
  0
ARC
  5
1A37
330
1E
100
AcDbEntity
  8
STEMPEL
100
AcDbCircle
 10
315.429569890459
 20
224.8943932706501
 30
0.0
 40
0.750000000000001
100
AcDbArc
 50
359.9999991462263
 51
159.9999999999999
  0
ARC
  5
1A38
330
1E
100
AcDbEntity
  8
STEMPEL
100
AcDbCircle
 10
315.429569890459
 20
232.094393270647
 30
0.0
 40
0.750000000000001
100
AcDbArc
 50
200.0000000000001
 51
0.0000008537736463
  0
LINE
  5
1A39
330
1E
100
AcDbEntity
  8
STEMPEL
100
AcDbLine
 10
316.1795698904589
 20
232.9943932706501
 30
0.0
 11
319.1795698904589
 21
232.9943932706501
 31
0.0
  0
LINE
  5
1A3A
330
1E
100
AcDbEntity
  8
STEMPEL
100
AcDbLine
 10
300.7947935796129
 20
227.2443932706471
 30
0.0
 11
316.179569890459
 21
227.2443932706471
 31
0.0
  0
LINE
  5
1A3B
330
1E
100
AcDbEntity
  8
STEMPEL
  6
Continuous
100
AcDbLine
 10
301.573079473192
 20
111.2444532706497
 30
0.0
 11
303.073079473192
 21
109.7444532706497
 31
0.0
  0
LINE
  5
1A3C
330
1E
100
AcDbEntity
  8
STEMPEL
  6
Continuous
100
AcDbLine
 10
301.573079473192
 20
118.2443332706501
 30
0.0
 11
303.073079473192
 21
119.7443332706501
 31
0.0
  0
LINE
  5
1A3D
330
1E
100
AcDbEntity
  8
STEMPEL
  6
Continuous
100
AcDbLine
 10
303.073079473192
 20
119.7443332706497
 30
0.0
 11
303.073079473192
 21
109.7444532706497
 31
0.0
  0
LINE
  5
1A3E
330
1E
100
AcDbEntity
  8
STEMPEL
  6
Continuous
100
AcDbLine
 10
301.573079473192
 20
118.2443332706497
 30
0.0
 11
301.573079473192
 21
111.2444532706497
 31
0.0
  0
LINE
  5
1A3F
330
1E
100
AcDbEntity
  8
MITTEL
100
AcDbLine
 10
296.5730794731921
 20
114.7443932706501
 30
0.0
 11
330.1795698904572
 21
114.7443932706501
 31
0.0
  0
LINE
  5
1A40
330
1E
100
AcDbEntity
  8
STEMPEL
100
AcDbLine
 10
300.794793579613
 20
102.2443932706531
 30
0.0
 11
316.1795698904589
 21
102.2443932706531
 31
0.0
  0
LINE
  5
1A41
330
1E
100
AcDbEntity
  8
STEMPEL
  6
Continuous
100
AcDbLine
 10
306.179569890459
 20
109.7444532706497
 30
0.0
 11
303.073079473192
 21
109.7444532706497
 31
0.0
  0
LINE
  5
1A42
330
1E
100
AcDbEntity
  8
HILF
  6
Continuous
100
AcDbLine
 10
306.1795698904589
 20
111.2494407706499
 30
0.0
 11
301.573079473192
 21
111.2494407706499
 31
0.0
  0
LINE
  5
1A43
330
1E
100
AcDbEntity
  8
HILF
  6
Continuous
100
AcDbLine
 10
306.1795698904589
 20
118.2393457706498
 30
0.0
 11
301.573079473192
 21
118.2393457706498
 31
0.0
  0
LINE
  5
1A44
330
1E
100
AcDbEntity
  8
STEMPEL
  6
Continuous
100
AcDbLine
 10
306.179569890459
 20
119.7443332706496
 30
0.0
 11
303.073079473192
 21
119.7443332706497
 31
0.0
  0
ARC
  5
1A45
330
1E
100
AcDbEntity
  8
STEMPEL
100
AcDbCircle
 10
315.429569890459
 20
104.59439327065
 30
0.0
 40
0.750000000000001
100
AcDbArc
 50
200.0000000000001
 51
0.0000008537736463
  0
LINE
  5
1A46
330
1E
100
AcDbEntity
  8
STEMPEL
100
AcDbLine
 10
314.7248004248695
 20
104.3378781631558
 30
0.0
 11
313.6669154402966
 21
107.24439327065
 31
0.0
  0
LINE
  5
1A47
330
1E
100
AcDbEntity
  8
STEMPEL
100
AcDbLine
 10
314.7248004248695
 20
104.3378781631558
 30
0.0
 11
314.7248004248695
 21
125.1509083781443
 31
0.0
  0
LINE
  5
1A48
330
1E
100
AcDbEntity
  8
STEMPEL
100
AcDbLine
 10
306.1795698904589
 20
122.2443932706501
 30
0.0
 11
306.1795698904589
 21
107.24439327065
 31
0.0
  0
LINE
  5
1A49
330
1E
100
AcDbEntity
  8
STEMPEL
100
AcDbLine
 10
314.0892133742591
 20
107.24439327065
 30
0.0
 11
306.1795698904589
 21
107.24439327065
 31
0.0
  0
LINE
  5
1A4A
330
1E
100
AcDbEntity
  8
STEMPEL
100
AcDbLine
 10
314.0892133742591
 20
114.7443932706501
 30
0.0
 11
306.4904590229143
 21
114.7443932706501
 31
0.0
  0
LWPOLYLINE
  5
1A4B
330
1E
100
AcDbEntity
  8
HILF
100
AcDbPolyline
 90
       23
 70
     0
 43
0.0
 10
314.0892133742591
 20
122.2443932706501
 10
314.0404734173408
 20
122.0067119195574
 10
313.9534067288488
 20
121.5472398389184
 10
313.879328015928
 20
121.1060836477349
 10
313.8468703228324
 20
120.8913886922574
 10
313.8173356152405
 20
120.6801318629235
 10
313.7667010887129
 20
120.2665837147224
 10
313.7268468545912
 20
119.8628822447388
 10
313.6973291682186
 20
119.4666578590366
 10
313.6778254850864
 20
119.0756795806656
 10
313.668125518032
 20
118.6878118041984
 10
313.6669154402971
 20
118.4943932706505
 10
313.668125518032
 20
118.3009747371026
 10
313.6778254850864
 20
117.9131069606353
 10
313.6973291682186
 20
117.5221286822643
 10
313.7268468545912
 20
117.125904296562
 10
313.7667010887129
 20
116.7222028265783
 10
313.8173356152405
 20
116.3086546783771
 10
313.8468703228324
 20
116.0973978490432
 10
313.879328015928
 20
115.8827028935656
 10
313.9534067288488
 20
115.441546702382
 10
314.0404734173408
 20
114.9820746217428
 10
314.0892133742591
 20
114.7443932706501
  0
LWPOLYLINE
  5
1A4C
330
1E
100
AcDbEntity
  8
HILF
100
AcDbPolyline
 90
       23
 70
     0
 43
0.0
 10
314.0892133742591
 20
114.7443932706501
 10
314.0404734173408
 20
114.5067119195574
 10
313.9534067288488
 20
114.0472398389184
 10
313.879328015928
 20
113.6060836477349
 10
313.8468703228324
 20
113.3913886922574
 10
313.8173356152405
 20
113.1801318629235
 10
313.7667010887129
 20
112.7665837147224
 10
313.7268468545912
 20
112.3628822447388
 10
313.6973291682186
 20
111.9666578590366
 10
313.6778254850864
 20
111.5756795806656
 10
313.668125518032
 20
111.1878118041984
 10
313.6669154402971
 20
110.9943932706505
 10
313.668125518032
 20
110.8009747371026
 10
313.6778254850864
 20
110.4131069606353
 10
313.6973291682186
 20
110.0221286822643
 10
313.7268468545912
 20
109.625904296562
 10
313.7667010887129
 20
109.2222028265783
 10
313.8173356152405
 20
108.8086546783771
 10
313.8468703228324
 20
108.5973978490432
 10
313.879328015928
 20
108.3827028935656
 10
313.9534067288488
 20
107.941546702382
 10
314.0404734173408
 20
107.4820746217428
 10
314.0892133742591
 20
107.24439327065
  0
ARC
  5
1A4D
330
1E
100
AcDbEntity
  8
STEMPEL
100
AcDbCircle
 10
328.951597881357
 20
118.4943932706501
 30
0.0
 40
22.77202799089803
100
AcDbArc
 50
170.5216033605196
 51
189.4783966394804
  0
ARC
  5
1A4E
330
1E
100
AcDbEntity
  8
STEMPEL
100
AcDbCircle
 10
328.951597881357
 20
110.9943932706501
 30
0.0
 40
22.77202799089803
100
AcDbArc
 50
170.5216033605196
 51
189.4783966394804
  0
LINE
  5
1A4F
330
1E
100
AcDbEntity
  8
STEMPEL
 62
     3
100
AcDbLine
 10
301.573079473192
 20
117.2443932706529
 30
0.0
 11
193.679569890459
 21
117.244393270653
 31
0.0
  0
LINE
  5
1A50
330
1E
100
AcDbEntity
  8
STEMPEL
100
AcDbLine
 10
313.6669154402966
 20
122.2443932706501
 30
0.0
 11
314.7248004248695
 21
125.1509083781443
 31
0.0
  0
LINE
  5
1A51
330
1E
100
AcDbEntity
  8
STEMPEL
100
AcDbLine
 10
314.0892133742591
 20
122.2443932706501
 30
0.0
 11
306.1795698904589
 21
122.2443932706501
 31
0.0
  0
ARC
  5
1A52
330
1E
100
AcDbEntity
  8
STEMPEL
100
AcDbCircle
 10
315.429569890459
 20
124.8943932706501
 30
0.0
 40
0.7500000000000013
100
AcDbArc
 50
0.0000008537736463
 51
159.9999999999999
  0
LINE
  5
1A53
330
1E
100
AcDbEntity
  8
STEMPEL
100
AcDbLine
 10
316.1795698904589
 20
132.9943932706501
 30
0.0
 11
319.1795698904589
 21
132.9943932706501
 31
0.0
  0
ARC
  5
1ABC
330
1E
100
AcDbEntity
  8
STEMPEL
100
AcDbCircle
 10
319.2622207437596
 20
459.1536966365698
 30
0.0
 40
4.994391509822305
100
AcDbArc
 50
157.9324721810021
 51
202.0675278189978
  0
ARC
  5
1ABD
330
1E
100
AcDbEntity
  8
STEMPEL
100
AcDbCircle
 10
333.6906850583336
 20
464.7828617611686
 30
0.0
 40
19.42296676475576
100
AcDbArc
 50
168.8596278388943
 51
191.1403721611056
  0
ARC
  5
1ABE
330
1E
100
AcDbEntity
  8
STEMPEL
100
AcDbCircle
 10
315.5795698904559
 20
456.4328617611685
 30
0.0
 40
0.5999999999999993
100
AcDbArc
 50
200.0000000000037
 51
0.0
  0
LINE
  5
1ABF
330
1E
100
AcDbEntity
  8
STEMPEL
100
AcDbLine
 10
314.6337098363454
 20
457.2773082617035
 30
0.0
 11
315.0157543179842
 21
456.2276496751732
 31
0.0
  0
LINE
  5
1AC0
330
1E
100
AcDbEntity
  8
STEMPEL
100
AcDbLine
 10
314.6337098363454
 20
457.2773082617035
 30
0.0
 11
308.4490071385837
 21
457.2773082617035
 31
0.0
  0
LINE
  5
1AC1
330
1E
100
AcDbEntity
  8
HILF
100
AcDbLine
 10
315.0157543179842
 20
473.3380738471639
 30
0.0
 11
315.0157543179842
 21
456.2276496751732
 31
0.0
  0
LINE
  5
1AC2
330
1E
100
AcDbEntity
  8
STEMPEL
100
AcDbLine
 10
314.6337098363454
 20
461.030085011436
 30
0.0
 11
308.4490071385837
 21
461.030085011436
 31
0.0
  0
LINE
  5
1AC3
330
1E
100
AcDbEntity
  8
STEMPEL
100
AcDbLine
 10
316.1795698904558
 20
483.0328617611686
 30
0.0
 11
316.1795698904558
 21
446.5328617611686
 31
0.0
  0
LINE
  5
1AC4
330
1E
100
AcDbEntity
  8
STEMPEL
100
AcDbLine
 10
316.1795698904558
 20
446.5328617611686
 30
0.0
 11
319.1795698904558
 21
446.5328617611686
 31
0.0
  0
LINE
  5
1AC5
330
1E
100
AcDbEntity
  8
STEMPEL
  6
Continuous
100
AcDbLine
 10
302.1795698904567
 20
461.2829217611688
 30
0.0
 11
303.6795698904567
 21
459.7829217611688
 31
0.0
  0
LINE
  5
1AC6
330
1E
100
AcDbEntity
  8
STEMPEL
  6
Continuous
100
AcDbLine
 10
303.6795698904567
 20
459.7829217611688
 30
0.0
 11
303.6795698904567
 21
469.7828017611688
 31
0.0
  0
LINE
  5
1AC7
330
1E
100
AcDbEntity
  8
STEMPEL
  6
Continuous
100
AcDbLine
 10
302.1795698904567
 20
461.2829217611688
 30
0.0
 11
302.1795698904567
 21
468.2828017611687
 31
0.0
  0
ARC
  5
1AC8
330
1E
100
AcDbEntity
  8
STEMPEL
100
AcDbCircle
 10
314.8479681705358
 20
459.1536966365698
 30
0.0
 40
6.668398280079905
100
AcDbArc
 50
163.6571066940134
 51
196.3428933059866
  0
ARC
  5
1AC9
330
1E
100
AcDbEntity
  8
STEMPEL
100
AcDbCircle
 10
334.4490071385832
 20
464.7828617611686
 30
0.0
 40
26.26943724812735
100
AcDbArc
 50
171.7867892982638
 51
188.2132107017362
  0
LINE
  5
1ACA
330
1E
100
AcDbEntity
  8
STEMPEL
100
AcDbLine
 10
308.1795698904558
 20
458.2828617611686
 30
0.0
 11
308.1795698904558
 21
471.2828617611685
 31
0.0
  0
LINE
  5
1ACB
330
1E
100
AcDbEntity
  8
HILF
  6
Continuous
100
AcDbLine
 10
308.1795698904558
 20
461.2879092611685
 30
0.0
 11
302.1795698904567
 21
461.2879092611686
 31
0.0
  0
LINE
  5
1ACC
330
1E
100
AcDbEntity
  8
STEMPEL
  6
Continuous
100
AcDbLine
 10
308.1795698904558
 20
459.7829217611688
 30
0.0
 11
303.6795698904567
 21
459.7829217611688
 31
0.0
  0
LINE
  5
1ACD
330
1E
100
AcDbEntity
  8
MITTEL
100
AcDbLine
 10
297.1795698904567
 20
464.7828617611686
 30
0.0
 11
330.1795698904558
 21
464.7828617611686
 31
0.0
  0
LINE
  5
1ACE
330
1E
100
AcDbEntity
  8
STEMPEL
  6
Continuous
100
AcDbLine
 10
302.1795698904567
 20
468.2828017611687
 30
0.0
 11
303.6795698904567
 21
469.7828017611688
 31
0.0
  0
ARC
  5
1ACF
330
1E
100
AcDbEntity
  8
STEMPEL
100
AcDbCircle
 10
314.8479681705358
 20
470.4120268857675
 30
0.0
 40
6.668398280079882
100
AcDbArc
 50
163.6571066940134
 51
196.3428933059866
  0
LINE
  5
1AD0
330
1E
100
AcDbEntity
  8
STEMPEL
100
AcDbLine
 10
308.4490071385837
 20
472.2884152606337
 30
0.0
 11
308.1795698904558
 21
471.2828617611685
 31
0.0
  0
LINE
  5
1AD1
330
1E
100
AcDbEntity
  8
STEMPEL
100
AcDbLine
 10
314.6337098363454
 20
468.5356385109011
 30
0.0
 11
308.4490071385837
 21
468.5356385109011
 31
0.0
  0
LINE
  5
1AD2
330
1E
100
AcDbEntity
  8
STEMPEL
100
AcDbLine
 10
314.6337098363454
 20
472.2884152606337
 30
0.0
 11
308.4490071385837
 21
472.2884152606337
 31
0.0
  0
LINE
  5
1AD3
330
1E
100
AcDbEntity
  8
STEMPEL
  6
Continuous
100
AcDbLine
 10
308.1795698904558
 20
469.7828017611688
 30
0.0
 11
303.6795698904567
 21
469.7828017611688
 31
0.0
  0
LINE
  5
1AD4
330
1E
100
AcDbEntity
  8
HILF
  6
Continuous
100
AcDbLine
 10
308.1795698904558
 20
468.2778142611685
 30
0.0
 11
302.1795698904567
 21
468.2778142611685
 31
0.0
  0
ARC
  5
1AD5
330
1E
100
AcDbEntity
  8
STEMPEL
100
AcDbCircle
 10
319.2622207437596
 20
470.4120268857675
 30
0.0
 40
4.994391509822305
100
AcDbArc
 50
157.9324721810021
 51
202.0675278189978
  0
ARC
  5
1AD6
330
1E
100
AcDbEntity
  8
STEMPEL
100
AcDbCircle
 10
315.5795698904559
 20
473.1328617611686
 30
0.0
 40
0.5999999999999999
100
AcDbArc
 50
0.0
 51
159.9999999999963
  0
LINE
  5
1AD7
330
1E
100
AcDbEntity
  8
STEMPEL
100
AcDbLine
 10
315.0157543179842
 20
473.3380738471639
 30
0.0
 11
314.6337098363454
 21
472.2884152606337
 31
0.0
  0
LINE
  5
1AD8
330
1E
100
AcDbEntity
  8
STEMPEL
100
AcDbLine
 10
316.1795698904558
 20
483.0328617611686
 30
0.0
 11
319.1795698904558
 21
483.0328617611686
 31
0.0
  0
ELLIPSE
  5
1B03
330
1E
100
AcDbEntity
  8
STEMPEL
100
AcDbEllipse
 10
308.2223767863345
 20
87.24439327065317
 30
0.0
 11
-0.0000000000000645
 21
10.90000000000006
 31
0.0
210
0.0
220
0.0
230
1.0
 40
0.5800146942293267
 41
5.471219640292206
 42
7.095150974066952
  0
ARC
  5
1B04
330
1E
100
AcDbEntity
  8
STEMPEL
100
AcDbCircle
 10
315.429569890459
 20
97.39439327065316
 30
0.0
 40
0.750000000000001
100
AcDbArc
 50
359.9999991462265
 51
159.9999999999999
  0
ARC
  5
1B05
330
1E
100
AcDbEntity
  8
STEMPEL
100
AcDbCircle
 10
315.429569890459
 20
204.5943932706501
 30
0.0
 40
0.750000000000001
100
AcDbArc
 50
200.0000000000002
 51
0.0000008537737741
  0
LINE
  5
1B06
330
1E
100
AcDbEntity
  8
STEMPEL
100
AcDbLine
 10
316.1795698904589
 20
196.4943932706501
 30
0.0
 11
319.1795698904589
 21
196.4943932706501
 31
0.0
  0
TEXT
  5
1B2B
330
1E
100
AcDbEntity
  8
TEXT
 62
     1
100
AcDbText
 10
790.1294755517469
 20
63.91284935842161
 30
0.0
 40
7.0
  1

 41
0.8
  7
GREEKS
 72
     1
 11
790.1294755517469
 21
63.91284935842161
 31
0.0
100
AcDbText
  0
DIMENSION
  5
1BAE
330
1E
100
AcDbEntity
  8
BEM
100
AcDbDimension
  2
*D10
 10
80.77271001185682
 20
376.782861761164
 30
0.0
 11
74.27271001185676
 21
465.2828617611663
 31
0.0
 70
    32
 71
     5
 42
177.0000000000046
  3
Standard
100
AcDbAlignedDimension
 13
322.1795698904533
 23
553.7828617611685
 33
0.0
 14
103.1795698904584
 24
376.782861761164
 34
0.0
 50
90.0
100
AcDbRotatedDimension
1001
ACAD
1000
DSTYLE
1002
{
1070
    40
1040
2.0
1070
    41
1040
3.5
1070
    42
1040
1.0
1070
    43
1040
7.0
1070
    44
1040
1.0
1070
    73
1070
     0
1070
    74
1070
     0
1070
    77
1070
     1
1070
    78
1070
     8
1070
    79
1070
     2
1070
   140
1040
3.5
1070
   141
1040
1.5
1070
   146
1040
0.5
1070
   147
1040
1.5
1070
   172
1070
     1
1070
   178
1070
     1
1070
   179
1070
     2
1070
   271
1070
     2
1070
   272
1070
     2
1070
   284
1070
     8
1070
   285
1070
     8
1070
   286
1070
     8
1002
}
  0
ENDSEC
  0
SECTION
  2
OBJECTS
  0
DICTIONARY
  5
C
330
0
100
AcDbDictionary
281
     1
  3
ACAD_CIP_PREVIOUS_PRODUCT_INFO
350
1B98
  3
ACAD_COLOR
350
11A
  3
ACAD_DETAILVIEWSTYLE
350
1B94
  3
ACAD_GROUP
350
D
  3
ACAD_LAYOUT
350
19
  3
ACAD_MATERIAL
350
119
  3
ACAD_MLEADERSTYLE
350
1B8F
  3
ACAD_MLINESTYLE
350
16
  3
ACAD_PLOTSETTINGS
350
18
  3
ACAD_PLOTSTYLENAME
350
E
  3
ACAD_SCALELIST
350
1B7D
  3
ACAD_SECTIONVIEWSTYLE
350
1B91
  3
ACAD_TABLESTYLE
350
1B7B
  3
ACAD_VISUALSTYLE
350
1B62
  3
ACDB_RECOMPOSE_DATA
350
1C2C
  3
AcDbVariableDictionary
350
125
  0
DICTIONARY
  5
1BEA
330
8
100
AcDbDictionary
280
     1
281
     1
  0
DICTIONARY
  5
1201
330
2
100
AcDbDictionary
280
     1
281
     1
  3
ACAD_LAYERFILTERS
360
1528
  3
ACAD_LAYERSTATES
360
1202
  0
DICTIONARY
  5
1BD6
330
10
100
AcDbDictionary
280
     1
281
     1
  3
ADSK_XREC_LAYER_RECONCILED
360
1BD7
  0
DICTIONARY
  5
1BD8
330
2B
100
AcDbDictionary
280
     1
281
     1
  3
ADSK_XREC_LAYER_RECONCILED
360
1BD9
  0
DICTIONARY
  5
1BDA
330
2C
100
AcDbDictionary
280
     1
281
     1
  3
ADSK_XREC_LAYER_RECONCILED
360
1BDB
  0
DICTIONARY
  5
1BDC
330
2D
100
AcDbDictionary
280
     1
281
     1
  3
ADSK_XREC_LAYER_RECONCILED
360
1BDD
  0
DICTIONARY
  5
1BDE
330
2F
100
AcDbDictionary
280
     1
281
     1
  3
ADSK_XREC_LAYER_RECONCILED
360
1BDF
  0
DICTIONARY
  5
1BE0
330
30
100
AcDbDictionary
280
     1
281
     1
  3
ADSK_XREC_LAYER_RECONCILED
360
1BE1
  0
DICTIONARY
  5
1BE2
330
33
100
AcDbDictionary
280
     1
281
     1
  3
ADSK_XREC_LAYER_RECONCILED
360
1BE3
  0
DICTIONARY
  5
1BE4
330
3A3
100
AcDbDictionary
280
     1
281
     1
  3
ADSK_XREC_LAYER_RECONCILED
360
1BE5
  0
DICTIONARY
  5
DB
330
1E
100
AcDbDictionary
280
     1
281
     1
  3
ACAD_LAYOUTSELFREF
360
10F
  0
DICTIONARY
  5
DD
330
1A
100
AcDbDictionary
280
     1
281
     1
  3
ACAD_LAYOUTSELFREF
360
10E
  0
XRECORD
  5
1B98
102
{ACAD_REACTORS
330
C
102
}
330
C
100
AcDbXrecord
280
     1
300
ACD
300
2013
300
ACD_F_S
  0
DICTIONARY
  5
11A
102
{ACAD_REACTORS
330
C
102
}
330
C
100
AcDbDictionary
281
     1
  0
DICTIONARY
  5
1B94
102
{ACAD_REACTORS
330
C
102
}
330
C
100
AcDbDictionary
281
     1
  3
Imperial24
350
1B95
  0
DICTIONARY
  5
D
102
{ACAD_REACTORS
330
C
102
}
330
C
100
AcDbDictionary
281
     1
  0
DICTIONARY
  5
19
102
{ACAD_REACTORS
330
C
102
}
330
C
100
AcDbDictionary
281
     1
  3
Layout1
350
1D
  3
Model
350
21
  0
DICTIONARY
  5
119
102
{ACAD_REACTORS
330
C
102
}
330
C
100
AcDbDictionary
281
     1
  3
ByBlock
350
1B52
  3
ByLayer
350
1B4A
  3
Global
350
1B5A
  0
DICTIONARY
  5
1B8F
102
{ACAD_REACTORS
330
C
102
}
330
C
100
AcDbDictionary
281
     1
  3
Standard
350
1B90
  0
DICTIONARY
  5
16
102
{ACAD_REACTORS
330
C
102
}
330
C
100
AcDbDictionary
281
     1
  3
Standard
350
17
  0
DICTIONARY
  5
18
102
{ACAD_REACTORS
330
C
102
}
330
C
100
AcDbDictionary
281
     1
  0
ACDBDICTIONARYWDFLT
  5
E
102
{ACAD_REACTORS
330
C
102
}
330
C
100
AcDbDictionary
281
     1
  3
Normal
350
F
100
AcDbDictionaryWithDefault
340
F
  0
DICTIONARY
  5
1B7D
102
{ACAD_REACTORS
330
C
102
}
330
C
100
AcDbDictionary
281
     1
  3
A0
350
1B7E
  3
A1
350
1B7F
  3
A2
350
1B80
  3
A3
350
1B81
  3
A4
350
1B82
  3
A5
350
1B83
  3
A6
350
1B84
  3
A7
350
1B85
  3
A8
350
1B86
  3
A9
350
1B87
  3
B0
350
1B88
  3
B1
350
1B89
  3
B2
350
1B8A
  3
B3
350
1B8B
  3
B4
350
1B8C
  3
B5
350
1B8D
  3
B6
350
1B8E
  0
DICTIONARY
  5
1B91
102
{ACAD_REACTORS
330
C
102
}
330
C
100
AcDbDictionary
281
     1
  3
Imperial24
350
1B93
  0
DICTIONARY
  5
1B7B
102
{ACAD_REACTORS
330
C
102
}
330
C
100
AcDbDictionary
281
     1
  3
Standard
350
1B7C
  0
DICTIONARY
  5
1B62
102
{ACAD_REACTORS
330
C
102
}
330
C
100
AcDbDictionary
281
     1
  3
2dWireframe
350
1B68
  3
Basic
350
1B67
  3
Brighten
350
1B6E
  3
ColorChange
350
1B72
  3
Conceptual
350
1B6B
  3
Dim
350
1B6D
  3
EdgeColorOff
350
1B7A
  3
Facepattern
350
1B71
  3
Flat
350
1B63
  3
FlatWithEdges
350
1B64
  3
Gouraud
350
1B65
  3
GouraudWithEdges
350
1B66
  3
Hidden
350
1B6A
  3
JitterOff
350
1B78
  3
Linepattern
350
1B70
  3
OverhangOff
350
1B79
  3
Realistic
350
1B6C
  3
Shaded
350
1B77
  3
Shaded with edges
350
1B76
  3
Shades of Gray
350
1B73
  3
Sketchy
350
1B74
  3
Thicken
350
1B6F
  3
Wireframe
350
1B69
  3
X-Ray
350
1B75
  0
XRECORD
  5
1C2C
102
{ACAD_REACTORS
330
C
102
}
330
C
100
AcDbXrecord
280
     1
 90
        1
330
1B7C
  0
DICTIONARY
  5
125
102
{ACAD_REACTORS
330
C
102
}
330
C
100
AcDbDictionary
281
     1
  3
CANNOSCALE
350
1C27
  3
CMLEADERSTYLE
350
1C24
  3
CTABLESTYLE
350
1C23
  3
CVIEWDETAILSTYLE
350
1C25
  3
CVIEWSECTIONSTYLE
350
1C26
  3
DIMASSOC
350
126
  3
PROJECTNAME
350
127
  0
DICTIONARY
  5
1528
102
{ACAD_REACTORS
330
1201
102
}
330
1201
100
AcDbDictionary
281
     1
  0
DICTIONARY
  5
1202
102
{ACAD_REACTORS
330
1201
102
}
330
1201
100
AcDbDictionary
281
     1
  0
XRECORD
  5
1BD7
102
{ACAD_REACTORS
330
1BD6
102
}
330
1BD6
100
AcDbXrecord
280
     1
290
     1
  0
XRECORD
  5
1BD9
102
{ACAD_REACTORS
330
1BD8
102
}
330
1BD8
100
AcDbXrecord
280
     1
290
     1
  0
XRECORD
  5
1BDB
102
{ACAD_REACTORS
330
1BDA
102
}
330
1BDA
100
AcDbXrecord
280
     1
290
     1
  0
XRECORD
  5
1BDD
102
{ACAD_REACTORS
330
1BDC
102
}
330
1BDC
100
AcDbXrecord
280
     1
290
     1
  0
XRECORD
  5
1BDF
102
{ACAD_REACTORS
330
1BDE
102
}
330
1BDE
100
AcDbXrecord
280
     1
290
     1
  0
XRECORD
  5
1BE1
102
{ACAD_REACTORS
330
1BE0
102
}
330
1BE0
100
AcDbXrecord
280
     1
290
     1
  0
XRECORD
  5
1BE3
102
{ACAD_REACTORS
330
1BE2
102
}
330
1BE2
100
AcDbXrecord
280
     1
290
     1
  0
XRECORD
  5
1BE5
102
{ACAD_REACTORS
330
1BE4
102
}
330
1BE4
100
AcDbXrecord
280
     1
290
     1
  0
XRECORD
  5
10F
102
{ACAD_REACTORS
330
DB
102
}
330
DB
100
AcDbXrecord
280
     1
340
1E
  0
XRECORD
  5
10E
102
{ACAD_REACTORS
330
DD
102
}
330
DD
100
AcDbXrecord
280
     1
340
1A
  0
ACDBDETAILVIEWSTYLE
  5
1B95
102
{ACAD_REACTORS
330
1B94
102
}
330
1B94
100
AcDbModelDocViewStyle
 70
     0
  3
Imperial24
290
     0
100
AcDbDetailViewStyle
 70
     0
 71
     0
 90
        3
 71
     1
340
11
 62
   256
 40
0.24
340
0
 62
   256
 40
0.24
300

 40
0.36
280
     3
 71
     2
340
15
 90
       25
 62
   256
 71
     3
340
11
 62
   256
 40
0.24
 90
        1
 40
0.75
 90
        1
300
%<\AcVar ViewType \f "%tc1">% %<\AcVar ViewDetailId>%\PVARIA %<\AcVar ViewScale \f "%sn">%
 71
     4
340
15
 90
       25
 62
   256
340
15
 90
       25
 62
   256
280
     0
  0
LAYOUT
  5
1D
102
{ACAD_REACTORS
330
19
102
}
330
19
100
AcDbPlotSettings
  1

  2
\\NT_WORK01\HP LaserJet 5000 PCL 6
  4

  6

 40
0.0
 41
0.0
 42
0.0
 43
0.0
 44
0.0
 45
0.0
 46
0.0
 47
0.0
 48
0.0
 49
0.0
140
0.0
141
0.0
142
1.0
143
1.0
 70
   688
 72
     0
 73
     0
 74
     5
  7

 75
    16
147
1.0
 76
     0
 77
     2
 78
   300
148
0.0
149
0.0
100
AcDbLayout
  1
Layout1
 70
     0
 71
     1
 10
0.0
 20
0.0
 11
12.0
 21
9.0
 12
0.0
 22
0.0
 32
0.0
 14
1.000000000000000E+20
 24
1.000000000000000E+20
 34
1.000000000000000E+20
 15
-1.000000000000000E+20
 25
-1.000000000000000E+20
 35
-1.000000000000000E+20
146
0.0
 13
0.0
 23
0.0
 33
0.0
 16
1.0
 26
0.0
 36
0.0
 17
0.0
 27
1.0
 37
0.0
 76
     0
330
1A
  0
LAYOUT
  5
21
102
{ACAD_REACTORS
330
19
102
}
330
19
100
AcDbPlotSettings
  1

  2
none_device
  4
Letter_(8.50_x_11.00_Inches)
  6

 40
6.349999904632568
 41
6.349999904632568
 42
6.350006103515625
 43
6.350006103515625
 44
215.8999938964844
 45
279.3999938964844
 46
0.0
 47
0.0
 48
0.0
 49
0.0
140
0.0
141
0.0
142
1.0
143
1.0
 70
 11952
 72
     0
 73
     1
 74
     0
  7

 75
     0
147
1.0
 76
     0
 77
     2
 78
   300
148
-3047.045153467363
149
77.1549047285168
100
AcDbLayout
  1
Model
 70
     1
 71
     0
 10
0.0
 20
0.0
 11
12.0
 21
9.0
 12
0.0
 22
0.0
 32
0.0
 14
0.0
 24
0.0
 34
0.0
 15
0.0
 25
0.0
 35
0.0
146
0.0
 13
0.0
 23
0.0
 33
0.0
 16
1.0
 26
0.0
 36
0.0
 17
0.0
 27
1.0
 37
0.0
 76
     0
330
1E
331
1B48
  0
MATERIAL
  5
1B52
102
{ACAD_XDICTIONARY
360
1B53
102
}
102
{ACAD_REACTORS
330
119
102
}
330
119
100
AcDbMaterial
  1
ByBlock
 72
     0
 43
0.0208333333333333
 43
0.0
 43
0.0
 43
0.0
 43
0.0
 43
0.0208333333333333
 43
0.0
 43
0.0
 43
0.0
 43
0.0
 43
1.0
 43
0.0
 43
0.0
 43
0.0
 43
0.0
 43
1.0
 77
     0
 47
0.0208333333333333
 47
0.0
 47
0.0
 47
0.0
 47
0.0
 47
0.0208333333333333
 47
0.0
 47
0.0
 47
0.0
 47
0.0
 47
1.0
 47
0.0
 47
0.0
 47
0.0
 47
0.0
 47
1.0
171
     0
 49
0.0208333333333333
 49
0.0
 49
0.0
 49
0.0
 49
0.0
 49
0.0208333333333333
 49
0.0
 49
0.0
 49
0.0
 49
0.0
 49
1.0
 49
0.0
 49
0.0
 49
0.0
 49
0.0
 49
1.0
175
     0
142
0.0208333333333333
142
0.0
142
0.0
142
0.0
142
0.0
142
0.0208333333333333
142
0.0
142
0.0
142
0.0
142
0.0
142
1.0
142
0.0
142
0.0
142
0.0
142
0.0
142
1.0
179
     0
144
0.0208333333333333
144
0.0
144
0.0
144
0.0
144
0.0
144
0.0208333333333333
144
0.0
144
0.0
144
0.0
144
0.0
144
1.0
144
0.0
144
0.0
144
0.0
144
0.0
144
1.0
147
0.0208333333333333
147
0.0
147
0.0
147
0.0
147
0.0
147
0.0208333333333333
147
0.0
147
0.0
147
0.0
147
0.0
147
1.0
147
0.0
147
0.0
147
0.0
147
0.0
147
1.0
  0
MATERIAL
  5
1B4A
102
{ACAD_XDICTIONARY
360
1B4B
102
}
102
{ACAD_REACTORS
330
119
102
}
330
119
100
AcDbMaterial
  1
ByLayer
 72
     0
 43
0.0208333333333333
 43
0.0
 43
0.0
 43
0.0
 43
0.0
 43
0.0208333333333333
 43
0.0
 43
0.0
 43
0.0
 43
0.0
 43
1.0
 43
0.0
 43
0.0
 43
0.0
 43
0.0
 43
1.0
 77
     0
 47
0.0208333333333333
 47
0.0
 47
0.0
 47
0.0
 47
0.0
 47
0.0208333333333333
 47
0.0
 47
0.0
 47
0.0
 47
0.0
 47
1.0
 47
0.0
 47
0.0
 47
0.0
 47
0.0
 47
1.0
171
     0
 49
0.0208333333333333
 49
0.0
 49
0.0
 49
0.0
 49
0.0
 49
0.0208333333333333
 49
0.0
 49
0.0
 49
0.0
 49
0.0
 49
1.0
 49
0.0
 49
0.0
 49
0.0
 49
0.0
 49
1.0
175
     0
142
0.0208333333333333
142
0.0
142
0.0
142
0.0
142
0.0
142
0.0208333333333333
142
0.0
142
0.0
142
0.0
142
0.0
142
1.0
142
0.0
142
0.0
142
0.0
142
0.0
142
1.0
179
     0
144
0.0208333333333333
144
0.0
144
0.0
144
0.0
144
0.0
144
0.0208333333333333
144
0.0
144
0.0
144
0.0
144
0.0
144
1.0
144
0.0
144
0.0
144
0.0
144
0.0
144
1.0
147
0.0208333333333333
147
0.0
147
0.0
147
0.0
147
0.0
147
0.0208333333333333
147
0.0
147
0.0
147
0.0
147
0.0
147
1.0
147
0.0
147
0.0
147
0.0
147
0.0
147
1.0
  0
MATERIAL
  5
1B5A
102
{ACAD_XDICTIONARY
360
1B5B
102
}
102
{ACAD_REACTORS
330
119
102
}
330
119
100
AcDbMaterial
  1
Global
 72
     0
 43
0.0208333333333333
 43
0.0
 43
0.0
 43
0.0
 43
0.0
 43
0.0208333333333333
 43
0.0
 43
0.0
 43
0.0
 43
0.0
 43
1.0
 43
0.0
 43
0.0
 43
0.0
 43
0.0
 43
1.0
 77
     0
 47
0.0208333333333333
 47
0.0
 47
0.0
 47
0.0
 47
0.0
 47
0.0208333333333333
 47
0.0
 47
0.0
 47
0.0
 47
0.0
 47
1.0
 47
0.0
 47
0.0
 47
0.0
 47
0.0
 47
1.0
171
     0
 49
0.0208333333333333
 49
0.0
 49
0.0
 49
0.0
 49
0.0
 49
0.0208333333333333
 49
0.0
 49
0.0
 49
0.0
 49
0.0
 49
1.0
 49
0.0
 49
0.0
 49
0.0
 49
0.0
 49
1.0
175
     0
142
0.0208333333333333
142
0.0
142
0.0
142
0.0
142
0.0
142
0.0208333333333333
142
0.0
142
0.0
142
0.0
142
0.0
142
1.0
142
0.0
142
0.0
142
0.0
142
0.0
142
1.0
179
     0
144
0.0208333333333333
144
0.0
144
0.0
144
0.0
144
0.0
144
0.0208333333333333
144
0.0
144
0.0
144
0.0
144
0.0
144
1.0
144
0.0
144
0.0
144
0.0
144
0.0
144
1.0
147
0.0208333333333333
147
0.0
147
0.0
147
0.0
147
0.0
147
0.0208333333333333
147
0.0
147
0.0
147
0.0
147
0.0
147
1.0
147
0.0
147
0.0
147
0.0
147
0.0
147
1.0
  0
MLEADERSTYLE
  5
1B90
102
{ACAD_XDICTIONARY
360
1C61
102
}
102
{ACAD_REACTORS
330
1B8F
102
}
330
1B8F
100
AcDbMLeaderStyle
170
     2
171
     1
172
     0
 90
        2
 40
0.0
 41
0.0
173
     1
 91
-1056964608
340
13
 92
       -2
290
     1
 42
0.09
291
     1
 43
0.36
  3
Standard
 44
0.18
300

342
11
174
     1
178
     6
175
     1
176
     0
 93
-1056964608
 45
0.18
292
     0
297
     0
 46
0.18
 94
-1056964608
 47
1.0
 49
1.0
140
1.0
293
     1
141
0.0
294
     1
177
     0
142
1.0
295
     0
296
     0
143
0.125
1001
ACAD_MLEADERVER
1070
     2
  0
MLINESTYLE
  5
17
102
{ACAD_REACTORS
330
16
102
}
330
16
100
AcDbMlineStyle
  2
STANDARD
 70
     0
  3

 62
   256
 51
90.0
 52
90.0
 71
     2
 49
0.5
 62
   256
  6
BYLAYER
 49
-0.5
 62
   256
  6
BYLAYER
  0
ACDBPLACEHOLDER
  5
F
102
{ACAD_REACTORS
330
E
102
}
330
E
  0
SCALE
  5
1B7E
102
{ACAD_REACTORS
330
1B7D
102
}
330
1B7D
100
AcDbScale
 70
     0
300
1:1
140
1.0
141
1.0
290
     1
  0
SCALE
  5
1B7F
102
{ACAD_REACTORS
330
1B7D
102
}
330
1B7D
100
AcDbScale
 70
     0
300
1/128" = 1'-0"
140
0.0078125
141
12.0
290
     0
  0
SCALE
  5
1B80
102
{ACAD_REACTORS
330
1B7D
102
}
330
1B7D
100
AcDbScale
 70
     0
300
1/64" = 1'-0"
140
0.015625
141
12.0
290
     0
  0
SCALE
  5
1B81
102
{ACAD_REACTORS
330
1B7D
102
}
330
1B7D
100
AcDbScale
 70
     0
300
1/32" = 1'-0"
140
0.03125
141
12.0
290
     0
  0
SCALE
  5
1B82
102
{ACAD_REACTORS
330
1B7D
102
}
330
1B7D
100
AcDbScale
 70
     0
300
1/16" = 1'-0"
140
0.0625
141
12.0
290
     0
  0
SCALE
  5
1B83
102
{ACAD_REACTORS
330
1B7D
102
}
330
1B7D
100
AcDbScale
 70
     0
300
3/32" = 1'-0"
140
0.09375
141
12.0
290
     0
  0
SCALE
  5
1B84
102
{ACAD_REACTORS
330
1B7D
102
}
330
1B7D
100
AcDbScale
 70
     0
300
1/8" = 1'-0"
140
0.125
141
12.0
290
     0
  0
SCALE
  5
1B85
102
{ACAD_REACTORS
330
1B7D
102
}
330
1B7D
100
AcDbScale
 70
     0
300
3/16" = 1'-0"
140
0.1875
141
12.0
290
     0
  0
SCALE
  5
1B86
102
{ACAD_REACTORS
330
1B7D
102
}
330
1B7D
100
AcDbScale
 70
     0
300
1/4" = 1'-0"
140
0.25
141
12.0
290
     0
  0
SCALE
  5
1B87
102
{ACAD_REACTORS
330
1B7D
102
}
330
1B7D
100
AcDbScale
 70
     0
300
3/8" = 1'-0"
140
0.375
141
12.0
290
     0
  0
SCALE
  5
1B88
102
{ACAD_REACTORS
330
1B7D
102
}
330
1B7D
100
AcDbScale
 70
     0
300
1/2" = 1'-0"
140
0.5
141
12.0
290
     0
  0
SCALE
  5
1B89
102
{ACAD_REACTORS
330
1B7D
102
}
330
1B7D
100
AcDbScale
 70
     0
300
3/4" = 1'-0"
140
0.75
141
12.0
290
     0
  0
SCALE
  5
1B8A
102
{ACAD_REACTORS
330
1B7D
102
}
330
1B7D
100
AcDbScale
 70
     0
300
1" = 1'-0"
140
1.0
141
12.0
290
     0
  0
SCALE
  5
1B8B
102
{ACAD_REACTORS
330
1B7D
102
}
330
1B7D
100
AcDbScale
 70
     0
300
1-1/2" = 1'-0"
140
1.5
141
12.0
290
     0
  0
SCALE
  5
1B8C
102
{ACAD_REACTORS
330
1B7D
102
}
330
1B7D
100
AcDbScale
 70
     0
300
3" = 1'-0"
140
3.0
141
12.0
290
     0
  0
SCALE
  5
1B8D
102
{ACAD_REACTORS
330
1B7D
102
}
330
1B7D
100
AcDbScale
 70
     0
300
6" = 1'-0"
140
6.0
141
12.0
290
     0
  0
SCALE
  5
1B8E
102
{ACAD_REACTORS
330
1B7D
102
}
330
1B7D
100
AcDbScale
 70
     0
300
1'-0" = 1'-0"
140
12.0
141
12.0
290
     0
  0
ACDBSECTIONVIEWSTYLE
  5
1B93
102
{ACAD_REACTORS
330
1B91
102
}
330
1B91
100
AcDbModelDocViewStyle
 70
     0
  3
Imperial24
290
     0
100
AcDbSectionViewStyle
 70
     0
 71
     0
 90
       78
 71
     1
340
11
 62
   256
 40
0.24
340
0
340
0
 62
   256
 40
0.24
300
I, O, Q, S, X, Z
 40
0.48
 90
        3
 40
0.18
 90
        1
 71
     2
340
1B92
 90
       25
 62
   256
340
15
 90
       50
 62
   256
 40
0.24
 40
0.0
 40
0.24
 71
     3
340
11
 62
   256
 40
0.24
 90
        1
 40
0.75
 90
        1
300
%<\AcVar ViewType \f "%tc1">% %<\AcVar ViewSectionStartId>%-%<\AcVar ViewSectionEndId>%\PVARIA %<\AcVar ViewScale \f "%sn">%
 71
     4
 62
   256
 62
   257
300
ANSI31
 40
1.0
 90
        0
290
     0
290
     0
 90
        6
 40
0.0
 40
1.570796326794896
 40
0.2617993877991494
 40
1.308996938995747
 40
-0.2617993877991494
 40
1.832595714594046
  0
TABLESTYLE
  5
1B7C
102
{ACAD_XDICTIONARY
360
1BE7
102
}
102
{ACAD_REACTORS
330
1B7B
102
}
330
1B7B
100
AcDbTableStyle
  3
Standard
 70
     0
 71
     0
 40
0.06
 41
0.06
280
     0
281
     0
  7
STANDARD
140
0.18
170
     2
 62
     0
 63
     7
283
     0
274
    -2
284
     1
 64
     0
275
    -2
285
     1
 65
     0
276
    -2
286
     1
 66
     0
277
    -2
287
     1
 67
     0
278
    -2
288
     1
 68
     0
279
    -2
289
     1
 69
     0
  7
STANDARD
140
0.25
170
     5
 62
     0
 63
     7
283
     0
274
    -2
284
     1
 64
     0
275
    -2
285
     1
 65
     0
276
    -2
286
     1
 66
     0
277
    -2
287
     1
 67
     0
278
    -2
288
     1
 68
     0
279
    -2
289
     1
 69
     0
  7
STANDARD
140
0.18
170
     5
 62
     0
 63
     7
283
     0
274
    -2
284
     1
 64
     0
275
    -2
285
     1
 65
     0
276
    -2
286
     1
 66
     0
277
    -2
287
     1
 67
     0
278
    -2
288
     1
 68
     0
279
    -2
289
     1
 69
     0
  0
VISUALSTYLE
  5
1B68
102
{ACAD_XDICTIONARY
360
1C3A
102
}
102
{ACAD_REACTORS
330
1B62
102
}
330
1B62
100
AcDbVisualStyle
  2
2dWireframe
 70
     4
 71
     0
 72
     2
 73
     0
 90
        0
 40
-0.6
 41
-30.0
 62
     5
 63
     7
421
 16777215
 74
     1
 91
        4
 64
     7
 65
   257
 75
     1
175
     1
 42
1.0
 92
        0
 66
   257
 43
1.0
 76
     1
 77
     6
 78
     2
 67
     7
 79
     5
170
     0
171
     0
290
     0
174
     0
 93
        1
 44
0.0
173
     0
291
     0
 45
0.0
1001
ACAD
1000
AcDbSavedByObjectVersion
1070
     0
  0
VISUALSTYLE
  5
1B67
102
{ACAD_XDICTIONARY
360
1C38
102
}
102
{ACAD_REACTORS
330
1B62
102
}
330
1B62
100
AcDbVisualStyle
  2
Basic
 70
     7
 71
     1
 72
     0
 73
     1
 90
        0
 40
-0.6
 41
-30.0
 62
     5
 63
     7
421
 16777215
 74
     0
 91
        4
 64
     7
 65
   257
 75
     1
175
     1
 42
1.0
 92
        8
 66
     7
 43
1.0
 76
     1
 77
     6
 78
     2
 67
     7
 79
     5
170
     0
171
     0
290
     0
174
     0
 93
        1
 44
0.0
173
     0
291
     1
 45
0.0
1001
ACAD
1000
AcDbSavedByObjectVersion
1070
     0
  0
VISUALSTYLE
  5
1B6E
102
{ACAD_XDICTIONARY
360
1C46
102
}
102
{ACAD_REACTORS
330
1B62
102
}
330
1B62
100
AcDbVisualStyle
  2
Brighten
 70
    12
 71
     2
 72
     2
 73
     0
 90
        0
 40
-0.6
 41
-30.0
 62
     5
 63
     7
421
 16777215
 74
     1
 91
        4
 64
     7
 65
   257
 75
     1
175
     1
 42
1.0
 92
        8
 66
     7
 43
1.0
 76
     1
 77
     6
 78
     2
 67
     7
 79
     5
170
     0
171
     0
290
     0
174
     0
 93
        1
 44
50.0
173
     0
291
     1
 45
0.0
1001
ACAD
1000
AcDbSavedByObjectVersion
1070
     0
  0
VISUALSTYLE
  5
1B72
102
{ACAD_XDICTIONARY
360
1C4E
102
}
102
{ACAD_REACTORS
330
1B62
102
}
330
1B62
100
AcDbVisualStyle
  2
ColorChange
 70
    16
 71
     2
 72
     2
 73
     3
 90
        0
 40
-0.6
 41
-30.0
 62
     5
 63
     8
421
  8421504
 74
     1
 91
        4
 64
     7
 65
   257
 75
     1
175
     1
 42
1.0
 92
        8
 66
     8
424
  8421504
 43
1.0
 76
     1
 77
     6
 78
     2
 67
     7
 79
     5
170
     0
171
     0
290
     0
174
     0
 93
        1
 44
0.0
173
     0
291
     1
 45
0.0
1001
ACAD
1000
AcDbSavedByObjectVersion
1070
     0
  0
VISUALSTYLE
  5
1B6B
102
{ACAD_XDICTIONARY
360
1C40
102
}
102
{ACAD_REACTORS
330
1B62
102
}
330
1B62
100
AcDbVisualStyle
  2
Conceptual
 70
     9
 71
     3
 72
     2
 73
     0
 90
        0
 40
-0.6
 41
-30.0
 62
     5
 63
     7
421
 16777215
 74
     2
 91
        2
 64
     7
 65
   257
 75
     1
175
     1
 42
179.0
 92
        8
 66
     7
 43
1.0
 76
     1
 77
     6
 78
     2
 67
     7
 79
     3
170
     0
171
     0
290
     0
174
     0
 93
        1
 44
0.0
173
     0
291
     0
 45
0.0
1001
ACAD
1000
AcDbSavedByObjectVersion
1070
     0
  0
VISUALSTYLE
  5
1B6D
102
{ACAD_XDICTIONARY
360
1C44
102
}
102
{ACAD_REACTORS
330
1B62
102
}
330
1B62
100
AcDbVisualStyle
  2
Dim
 70
    11
 71
     2
 72
     2
 73
     0
 90
        0
 40
-0.6
 41
-30.0
 62
     5
 63
     7
421
 16777215
 74
     1
 91
        4
 64
     7
 65
   257
 75
     1
175
     1
 42
1.0
 92
        8
 66
     7
 43
1.0
 76
     1
 77
     6
 78
     2
 67
     7
 79
     5
170
     0
171
     0
290
     0
174
     0
 93
        1
 44
-50.0
173
     0
291
     1
 45
0.0
1001
ACAD
1000
AcDbSavedByObjectVersion
1070
     0
  0
VISUALSTYLE
  5
1B7A
102
{ACAD_XDICTIONARY
360
1C5E
102
}
102
{ACAD_REACTORS
330
1B62
102
}
330
1B62
100
AcDbVisualStyle
  2
EdgeColorOff
 70
    22
 71
     2
 72
     2
 73
     0
 90
        0
 40
-0.6
 41
-30.0
 62
     5
 63
     7
421
 16777215
 74
     1
 91
        4
 64
     7
 65
   257
 75
     1
175
     1
 42
1.0
 92
        8
 66
     7
 43
1.0
 76
     1
 77
     6
 78
     2
 67
     7
 79
     5
170
     0
171
     0
290
     0
174
     0
 93
        1
 44
0.0
173
     0
291
     1
 45
0.0
1001
ACAD
1000
AcDbSavedByObjectVersion
1070
     0
  0
VISUALSTYLE
  5
1B71
102
{ACAD_XDICTIONARY
360
1C4C
102
}
102
{ACAD_REACTORS
330
1B62
102
}
330
1B62
100
AcDbVisualStyle
  2
Facepattern
 70
    15
 71
     2
 72
     2
 73
     0
 90
        0
 40
-0.6
 41
-30.0
 62
     5
 63
     7
421
 16777215
 74
     1
 91
        4
 64
     7
 65
   257
 75
     1
175
     1
 42
1.0
 92
        8
 66
     7
 43
1.0
 76
     1
 77
     6
 78
     2
 67
     7
 79
     5
170
     0
171
     0
290
     0
174
     0
 93
        1
 44
0.0
173
     0
291
     1
 45
0.0
1001
ACAD
1000
AcDbSavedByObjectVersion
1070
     0
  0
VISUALSTYLE
  5
1B63
102
{ACAD_XDICTIONARY
360
1C30
102
}
102
{ACAD_REACTORS
330
1B62
102
}
330
1B62
100
AcDbVisualStyle
  2
Flat
 70
     0
 71
     2
 72
     1
 73
     1
 90
        2
 40
-0.6
 41
30.0
 62
     5
 63
     7
421
 16777215
 74
     0
 91
        0
 64
     7
 65
   257
 75
     1
175
     1
 42
1.0
 92
        8
 66
     7
 43
1.0
 76
     1
 77
     6
 78
     2
 67
     7
 79
     5
170
     0
171
     0
290
     0
174
     0
 93
       13
 44
0.0
173
     0
291
     1
 45
0.0
1001
ACAD
1000
AcDbSavedByObjectVersion
1070
     0
  0
VISUALSTYLE
  5
1B64
102
{ACAD_XDICTIONARY
360
1C32
102
}
102
{ACAD_REACTORS
330
1B62
102
}
330
1B62
100
AcDbVisualStyle
  2
FlatWithEdges
 70
     1
 71
     2
 72
     1
 73
     1
 90
        2
 40
-0.6
 41
30.0
 62
     5
 63
     7
421
 16777215
 74
     1
 91
        0
 64
     7
 65
   257
 75
     1
175
     1
 42
1.0
 92
        0
 66
   257
 43
1.0
 76
     1
 77
     6
 78
     2
 67
     7
 79
     5
170
     0
171
     0
290
     0
174
     0
 93
       13
 44
0.0
173
     0
291
     1
 45
0.0
1001
ACAD
1000
AcDbSavedByObjectVersion
1070
     0
  0
VISUALSTYLE
  5
1B65
102
{ACAD_XDICTIONARY
360
1C34
102
}
102
{ACAD_REACTORS
330
1B62
102
}
330
1B62
100
AcDbVisualStyle
  2
Gouraud
 70
     2
 71
     2
 72
     2
 73
     1
 90
        2
 40
-0.6
 41
30.0
 62
     5
 63
     7
421
 16777215
 74
     0
 91
        0
 64
     7
 65
   257
 75
     1
175
     1
 42
1.0
 92
        0
 66
     7
 43
1.0
 76
     1
 77
     6
 78
     2
 67
     7
 79
     5
170
     0
171
     0
290
     0
174
     0
 93
       13
 44
0.0
173
     0
291
     1
 45
0.0
1001
ACAD
1000
AcDbSavedByObjectVersion
1070
     0
  0
VISUALSTYLE
  5
1B66
102
{ACAD_XDICTIONARY
360
1C36
102
}
102
{ACAD_REACTORS
330
1B62
102
}
330
1B62
100
AcDbVisualStyle
  2
GouraudWithEdges
 70
     3
 71
     2
 72
     2
 73
     1
 90
        2
 40
-0.6
 41
30.0
 62
     5
 63
     7
421
 16777215
 74
     1
 91
        0
 64
     7
 65
   257
 75
     1
175
     1
 42
1.0
 92
        0
 66
   257
 43
1.0
 76
     1
 77
     6
 78
     2
 67
     7
 79
     5
170
     0
171
     0
290
     0
174
     0
 93
       13
 44
0.0
173
     0
291
     1
 45
0.0
1001
ACAD
1000
AcDbSavedByObjectVersion
1070
     0
  0
VISUALSTYLE
  5
1B6A
102
{ACAD_XDICTIONARY
360
1C3E
102
}
102
{ACAD_REACTORS
330
1B62
102
}
330
1B62
100
AcDbVisualStyle
  2
Hidden
 70
     6
 71
     1
 72
     2
 73
     2
 90
        0
 40
-0.6
 41
-30.0
 62
     5
 63
     7
421
 16777215
 74
     2
 91
        2
 64
     7
 65
   257
 75
     2
175
     1
 42
40.0
 92
        0
 66
   257
 43
1.0
 76
     1
 77
     6
 78
     2
 67
     7
 79
     3
170
     0
171
     0
290
     0
174
     0
 93
        1
 44
0.0
173
     0
291
     0
 45
0.0
1001
ACAD
1000
AcDbSavedByObjectVersion
1070
     0
  0
VISUALSTYLE
  5
1B78
102
{ACAD_XDICTIONARY
360
1C5A
102
}
102
{ACAD_REACTORS
330
1B62
102
}
330
1B62
100
AcDbVisualStyle
  2
JitterOff
 70
    20
 71
     2
 72
     2
 73
     0
 90
        0
 40
-0.6
 41
-30.0
 62
     5
 63
     7
421
 16777215
 74
     1
 91
        4
 64
     7
 65
   257
 75
     1
175
     1
 42
1.0
 92
       10
 66
     7
 43
1.0
 76
     1
 77
     6
 78
     2
 67
     7
 79
     5
170
     0
171
     0
290
     0
174
     0
 93
        1
 44
0.0
173
     0
291
     1
 45
0.0
1001
ACAD
1000
AcDbSavedByObjectVersion
1070
     0
  0
VISUALSTYLE
  5
1B70
102
{ACAD_XDICTIONARY
360
1C4A
102
}
102
{ACAD_REACTORS
330
1B62
102
}
330
1B62
100
AcDbVisualStyle
  2
Linepattern
 70
    14
 71
     2
 72
     2
 73
     0
 90
        0
 40
-0.6
 41
-30.0
 62
     5
 63
     7
421
 16777215
 74
     1
 91
        4
 64
     7
 65
   257
 75
     7
175
     7
 42
1.0
 92
        8
 66
     7
 43
1.0
 76
     1
 77
     6
 78
     2
 67
     7
 79
     5
170
     0
171
     0
290
     0
174
     0
 93
        1
 44
0.0
173
     0
291
     1
 45
0.0
1001
ACAD
1000
AcDbSavedByObjectVersion
1070
     0
  0
VISUALSTYLE
  5
1B79
102
{ACAD_XDICTIONARY
360
1C5C
102
}
102
{ACAD_REACTORS
330
1B62
102
}
330
1B62
100
AcDbVisualStyle
  2
OverhangOff
 70
    21
 71
     2
 72
     2
 73
     0
 90
        0
 40
-0.6
 41
-30.0
 62
     5
 63
     7
421
 16777215
 74
     1
 91
        4
 64
     7
 65
   257
 75
     1
175
     1
 42
1.0
 92
        9
 66
     7
 43
1.0
 76
     1
 77
     6
 78
     2
 67
     7
 79
     5
170
     0
171
     0
290
     0
174
     0
 93
        1
 44
0.0
173
     0
291
     1
 45
0.0
1001
ACAD
1000
AcDbSavedByObjectVersion
1070
     0
  0
VISUALSTYLE
  5
1B6C
102
{ACAD_XDICTIONARY
360
1C42
102
}
102
{ACAD_REACTORS
330
1B62
102
}
330
1B62
100
AcDbVisualStyle
  2
Realistic
 70
     8
 71
     2
 72
     2
 73
     0
 90
        2
 40
-0.6
 41
30.0
 62
     5
 63
     7
421
 16777215
 74
     0
 91
        0
 64
     7
 65
   257
 75
     1
175
     1
 42
1.0
 92
        8
 66
   257
 43
1.0
 76
     1
 77
     6
 78
     2
 67
     7
 79
     3
170
     0
171
     0
290
     0
174
     0
 93
       13
 44
0.0
173
     0
291
     0
 45
0.0
1001
ACAD
1000
AcDbSavedByObjectVersion
1070
     0
  0
VISUALSTYLE
  5
1B77
102
{ACAD_XDICTIONARY
360
1C58
102
}
102
{ACAD_REACTORS
330
1B62
102
}
330
1B62
100
AcDbVisualStyle
  2
Shaded
 70
    27
 71
     2
 72
     2
 73
     1
 90
        2
 40
-0.6
 41
30.0
 62
     5
 63
     7
421
 16777215
 74
     0
 91
        4
 64
     7
 65
   257
 75
     1
175
     1
 42
1.0
 92
        8
 66
   257
 43
1.0
 76
     1
 77
     6
 78
     2
 67
     8
425
  7895160
 79
     3
170
     0
171
     0
290
     0
174
     0
 93
        5
 44
0.0
173
     0
291
     0
 45
0.0
1001
ACAD
1000
AcDbSavedByObjectVersion
1070
     0
  0
VISUALSTYLE
  5
1B76
102
{ACAD_XDICTIONARY
360
1C56
102
}
102
{ACAD_REACTORS
330
1B62
102
}
330
1B62
100
AcDbVisualStyle
  2
Shaded with edges
 70
    26
 71
     2
 72
     2
 73
     1
 90
        2
 40
-0.6
 41
30.0
 62
     5
 63
     7
421
 16777215
 74
     1
 91
       10
 64
     7
 65
   257
 75
     2
175
     1
 42
1.0
 92
        8
 66
   257
 43
1.0
 76
     1
 77
     6
 78
     2
 67
     7
 79
     3
170
     0
171
     0
290
     0
174
     0
 93
        5
 44
0.0
173
     0
291
     0
 45
0.0
1001
ACAD
1000
AcDbSavedByObjectVersion
1070
     0
  0
VISUALSTYLE
  5
1B73
102
{ACAD_XDICTIONARY
360
1C50
102
}
102
{ACAD_REACTORS
330
1B62
102
}
330
1B62
100
AcDbVisualStyle
  2
Shades of Gray
 70
    23
 71
     2
 72
     2
 73
     3
 90
        0
 40
-0.6
 41
-30.0
 62
     5
 63
     7
421
 16777215
 74
     2
 91
        2
 64
     7
 65
     7
 75
     1
175
     1
 42
40.0
 92
        8
 66
     7
 43
1.0
 76
     1
 77
     6
 78
     2
 67
     7
 79
     3
170
     0
171
     0
290
     0
174
     0
 93
        1
 44
0.0
173
     0
291
     0
 45
0.0
1001
ACAD
1000
AcDbSavedByObjectVersion
1070
     0
  0
VISUALSTYLE
  5
1B74
102
{ACAD_XDICTIONARY
360
1C52
102
}
102
{ACAD_REACTORS
330
1B62
102
}
330
1B62
100
AcDbVisualStyle
  2
Sketchy
 70
    24
 71
     1
 72
     2
 73
     2
 90
        0
 40
-0.6
 41
-30.0
 62
     5
 63
     7
421
 16777215
 74
     2
 91
        2
 64
     7
 65
     7
 75
     1
175
     1
 42
40.0
 92
       11
 66
     7
 43
1.0
 76
     1
 77
     6
 78
     2
 67
     7
 79
     6
170
     0
171
     0
290
     0
174
     0
 93
        1
 44
0.0
173
     0
291
     0
 45
0.0
1001
ACAD
1000
AcDbSavedByObjectVersion
1070
     0
  0
VISUALSTYLE
  5
1B6F
102
{ACAD_XDICTIONARY
360
1C48
102
}
102
{ACAD_REACTORS
330
1B62
102
}
330
1B62
100
AcDbVisualStyle
  2
Thicken
 70
    13
 71
     2
 72
     2
 73
     0
 90
        0
 40
-0.6
 41
-30.0
 62
     5
 63
     7
421
 16777215
 74
     1
 91
        4
 64
     7
 65
   257
 75
     1
175
     1
 42
1.0
 92
       12
 66
     7
 43
1.0
 76
     1
 77
     6
 78
     2
 67
     7
 79
     5
170
     0
171
     0
290
     0
174
     0
 93
        1
 44
0.0
173
     0
291
     1
 45
0.0
1001
ACAD
1000
AcDbSavedByObjectVersion
1070
     0
  0
VISUALSTYLE
  5
1B69
102
{ACAD_XDICTIONARY
360
1C3C
102
}
102
{ACAD_REACTORS
330
1B62
102
}
330
1B62
100
AcDbVisualStyle
  2
Wireframe
 70
     5
 71
     0
 72
     2
 73
     0
 90
        0
 40
-0.6
 41
-30.0
 62
     5
 63
     7
421
 16777215
 74
     1
 91
        4
 64
     7
 65
   257
 75
     1
175
     1
 42
1.0
 92
        0
 66
   257
 43
1.0
 76
     1
 77
     6
 78
     2
 67
     7
 79
     3
170
     0
171
     0
290
     0
174
     0
 93
        1
 44
0.0
173
     0
291
     0
 45
0.0
1001
ACAD
1000
AcDbSavedByObjectVersion
1070
     0
  0
VISUALSTYLE
  5
1B75
102
{ACAD_XDICTIONARY
360
1C54
102
}
102
{ACAD_REACTORS
330
1B62
102
}
330
1B62
100
AcDbVisualStyle
  2
X-Ray
 70
    25
 71
     2
 72
     2
 73
     1
 90
        1
 40
0.5
 41
-30.0
 62
     5
 63
     7
421
 16777215
 74
     1
 91
        0
 64
     7
 65
   257
 75
     1
175
     1
 42
1.0
 92
        8
 66
     7
 43
1.0
 76
     1
 77
     6
 78
     2
 67
     7
 79
     3
170
     0
171
     0
290
     0
174
     0
 93
       13
 44
0.0
173
     0
291
     0
 45
0.0
1001
ACAD
1000
AcDbSavedByObjectVersion
1070
     0
  0
DICTIONARYVAR
  5
1C27
102
{ACAD_REACTORS
330
125
102
}
330
125
100
DictionaryVariables
280
     0
  1
1:1
  0
DICTIONARYVAR
  5
1C24
102
{ACAD_REACTORS
330
125
102
}
330
125
100
DictionaryVariables
280
     0
  1
STANDARD
  0
DICTIONARYVAR
  5
1C23
102
{ACAD_REACTORS
330
125
102
}
330
125
100
DictionaryVariables
280
     0
  1
STANDARD
  0
DICTIONARYVAR
  5
1C25
102
{ACAD_REACTORS
330
125
102
}
330
125
100
DictionaryVariables
280
     0
  1
Imperial24
  0
DICTIONARYVAR
  5
1C26
102
{ACAD_REACTORS
330
125
102
}
330
125
100
DictionaryVariables
280
     0
  1
Imperial24
  0
DICTIONARYVAR
  5
126
102
{ACAD_REACTORS
330
125
102
}
330
125
100
DictionaryVariables
280
     0
  1
1
  0
DICTIONARYVAR
  5
127
102
{ACAD_REACTORS
330
125
102
}
330
125
100
DictionaryVariables
280
     0
  1

  0
DICTIONARY
  5
1B53
330
1B52
100
AcDbDictionary
280
     1
281
     1
  3
ACAD_XREC_ROUNDTRIP
360
1C2E
  3
BUMPTILE
360
1B55
  3
DIFFUSETILE
360
1B54
  3
OPACITYTILE
360
1B58
  3
REFLECTIONTILE
360
1B57
  3
REFRACTIONTILE
360
1B59
  3
SPECULARTILE
360
1B56
  0
DICTIONARY
  5
1B4B
330
1B4A
100
AcDbDictionary
280
     1
281
     1
  3
ACAD_XREC_ROUNDTRIP
360
1C2D
  3
BUMPTILE
360
1B4D
  3
DIFFUSETILE
360
1B4C
  3
OPACITYTILE
360
1B50
  3
REFLECTIONTILE
360
1B4F
  3
REFRACTIONTILE
360
1B51
  3
SPECULARTILE
360
1B4E
  0
DICTIONARY
  5
1B5B
330
1B5A
100
AcDbDictionary
280
     1
281
     1
  3
ACAD_XREC_ROUNDTRIP
360
1C2F
  3
BUMPTILE
360
1B5D
  3
DIFFUSETILE
360
1B5C
  3
OPACITYTILE
360
1B60
  3
REFLECTIONTILE
360
1B5F
  3
REFRACTIONTILE
360
1B61
  3
SPECULARTILE
360
1B5E
  0
DICTIONARY
  5
1C61
330
1B90
100
AcDbDictionary
280
     1
281
     1
  3
ACAD_XREC_ROUNDTRIP
360
1C62
  0
DICTIONARY
  5
1BE7
330
1B7C
100
AcDbDictionary
280
     1
281
     1
  3
ACAD_ROUNDTRIP_2008_TABLESTYLE_CELLSTYLEMAP
360
1C2B
  3
ACAD_XREC_ROUNDTRIP
360
1C60
  0
DICTIONARY
  5
1C3A
330
1B68
100
AcDbDictionary
280
     1
281
     1
  3
ACAD_XREC_ROUNDTRIP
360
1C3B
  0
DICTIONARY
  5
1C38
330
1B67
100
AcDbDictionary
280
     1
281
     1
  3
ACAD_XREC_ROUNDTRIP
360
1C39
  0
DICTIONARY
  5
1C46
330
1B6E
100
AcDbDictionary
280
     1
281
     1
  3
ACAD_XREC_ROUNDTRIP
360
1C47
  0
DICTIONARY
  5
1C4E
330
1B72
100
AcDbDictionary
280
     1
281
     1
  3
ACAD_XREC_ROUNDTRIP
360
1C4F
  0
DICTIONARY
  5
1C40
330
1B6B
100
AcDbDictionary
280
     1
281
     1
  3
ACAD_XREC_ROUNDTRIP
360
1C41
  0
DICTIONARY
  5
1C44
330
1B6D
100
AcDbDictionary
280
     1
281
     1
  3
ACAD_XREC_ROUNDTRIP
360
1C45
  0
DICTIONARY
  5
1C5E
330
1B7A
100
AcDbDictionary
280
     1
281
     1
  3
ACAD_XREC_ROUNDTRIP
360
1C5F
  0
DICTIONARY
  5
1C4C
330
1B71
100
AcDbDictionary
280
     1
281
     1
  3
ACAD_XREC_ROUNDTRIP
360
1C4D
  0
DICTIONARY
  5
1C30
330
1B63
100
AcDbDictionary
280
     1
281
     1
  3
ACAD_XREC_ROUNDTRIP
360
1C31
  0
DICTIONARY
  5
1C32
330
1B64
100
AcDbDictionary
280
     1
281
     1
  3
ACAD_XREC_ROUNDTRIP
360
1C33
  0
DICTIONARY
  5
1C34
330
1B65
100
AcDbDictionary
280
     1
281
     1
  3
ACAD_XREC_ROUNDTRIP
360
1C35
  0
DICTIONARY
  5
1C36
330
1B66
100
AcDbDictionary
280
     1
281
     1
  3
ACAD_XREC_ROUNDTRIP
360
1C37
  0
DICTIONARY
  5
1C3E
330
1B6A
100
AcDbDictionary
280
     1
281
     1
  3
ACAD_XREC_ROUNDTRIP
360
1C3F
  0
DICTIONARY
  5
1C5A
330
1B78
100
AcDbDictionary
280
     1
281
     1
  3
ACAD_XREC_ROUNDTRIP
360
1C5B
  0
DICTIONARY
  5
1C4A
330
1B70
100
AcDbDictionary
280
     1
281
     1
  3
ACAD_XREC_ROUNDTRIP
360
1C4B
  0
DICTIONARY
  5
1C5C
330
1B79
100
AcDbDictionary
280
     1
281
     1
  3
ACAD_XREC_ROUNDTRIP
360
1C5D
  0
DICTIONARY
  5
1C42
330
1B6C
100
AcDbDictionary
280
     1
281
     1
  3
ACAD_XREC_ROUNDTRIP
360
1C43
  0
DICTIONARY
  5
1C58
330
1B77
100
AcDbDictionary
280
     1
281
     1
  3
ACAD_XREC_ROUNDTRIP
360
1C59
  0
DICTIONARY
  5
1C56
330
1B76
100
AcDbDictionary
280
     1
281
     1
  3
ACAD_XREC_ROUNDTRIP
360
1C57
  0
DICTIONARY
  5
1C50
330
1B73
100
AcDbDictionary
280
     1
281
     1
  3
ACAD_XREC_ROUNDTRIP
360
1C51
  0
DICTIONARY
  5
1C52
330
1B74
100
AcDbDictionary
280
     1
281
     1
  3
ACAD_XREC_ROUNDTRIP
360
1C53
  0
DICTIONARY
  5
1C48
330
1B6F
100
AcDbDictionary
280
     1
281
     1
  3
ACAD_XREC_ROUNDTRIP
360
1C49
  0
DICTIONARY
  5
1C3C
330
1B69
100
AcDbDictionary
280
     1
281
     1
  3
ACAD_XREC_ROUNDTRIP
360
1C3D
  0
DICTIONARY
  5
1C54
330
1B75
100
AcDbDictionary
280
     1
281
     1
  3
ACAD_XREC_ROUNDTRIP
360
1C55
  0
XRECORD
  5
1C2E
102
{ACAD_REACTORS
330
1B53
102
}
330
1B53
100
AcDbXrecord
280
     1
102
MATERIAL
148
0.0
149
0.0
149
0.0
 93
        0
 94
      127
282
     0
 72
     0
 77
     0
171
     0
175
     0
179
     0
273
     0
  0
XRECORD
  5
1B55
102
{ACAD_REACTORS
330
1B53
102
}
330
1B53
100
AcDbXrecord
280
     1
270
     1
271
     1
  0
XRECORD
  5
1B54
102
{ACAD_REACTORS
330
1B53
102
}
330
1B53
100
AcDbXrecord
280
     1
270
     1
271
     1
  0
XRECORD
  5
1B58
102
{ACAD_REACTORS
330
1B53
102
}
330
1B53
100
AcDbXrecord
280
     1
270
     1
271
     1
  0
XRECORD
  5
1B57
102
{ACAD_REACTORS
330
1B53
102
}
330
1B53
100
AcDbXrecord
280
     1
270
     1
271
     1
  0
XRECORD
  5
1B59
102
{ACAD_REACTORS
330
1B53
102
}
330
1B53
100
AcDbXrecord
280
     1
270
     1
271
     1
  0
XRECORD
  5
1B56
102
{ACAD_REACTORS
330
1B53
102
}
330
1B53
100
AcDbXrecord
280
     1
270
     1
271
     1
  0
XRECORD
  5
1C2D
102
{ACAD_REACTORS
330
1B4B
102
}
330
1B4B
100
AcDbXrecord
280
     1
102
MATERIAL
148
0.0
149
0.0
149
0.0
 93
        0
 94
      127
282
     0
 72
     0
 77
     0
171
     0
175
     0
179
     0
273
     0
  0
XRECORD
  5
1B4D
102
{ACAD_REACTORS
330
1B4B
102
}
330
1B4B
100
AcDbXrecord
280
     1
270
     1
271
     1
  0
XRECORD
  5
1B4C
102
{ACAD_REACTORS
330
1B4B
102
}
330
1B4B
100
AcDbXrecord
280
     1
270
     1
271
     1
  0
XRECORD
  5
1B50
102
{ACAD_REACTORS
330
1B4B
102
}
330
1B4B
100
AcDbXrecord
280
     1
270
     1
271
     1
  0
XRECORD
  5
1B4F
102
{ACAD_REACTORS
330
1B4B
102
}
330
1B4B
100
AcDbXrecord
280
     1
270
     1
271
     1
  0
XRECORD
  5
1B51
102
{ACAD_REACTORS
330
1B4B
102
}
330
1B4B
100
AcDbXrecord
280
     1
270
     1
271
     1
  0
XRECORD
  5
1B4E
102
{ACAD_REACTORS
330
1B4B
102
}
330
1B4B
100
AcDbXrecord
280
     1
270
     1
271
     1
  0
XRECORD
  5
1C2F
102
{ACAD_REACTORS
330
1B5B
102
}
330
1B5B
100
AcDbXrecord
280
     1
102
MATERIAL
148
0.0
149
0.0
149
0.0
 93
        0
 94
      127
282
     0
 72
     0
 77
     0
171
     0
175
     0
179
     0
273
     0
  0
XRECORD
  5
1B5D
102
{ACAD_REACTORS
330
1B5B
102
}
330
1B5B
100
AcDbXrecord
280
     1
270
     1
271
     1
  0
XRECORD
  5
1B5C
102
{ACAD_REACTORS
330
1B5B
102
}
330
1B5B
100
AcDbXrecord
280
     1
270
     1
271
     1
  0
XRECORD
  5
1B60
102
{ACAD_REACTORS
330
1B5B
102
}
330
1B5B
100
AcDbXrecord
280
     1
270
     1
271
     1
  0
XRECORD
  5
1B5F
102
{ACAD_REACTORS
330
1B5B
102
}
330
1B5B
100
AcDbXrecord
280
     1
270
     1
271
     1
  0
XRECORD
  5
1B61
102
{ACAD_REACTORS
330
1B5B
102
}
330
1B5B
100
AcDbXrecord
280
     1
270
     1
271
     1
  0
XRECORD
  5
1B5E
102
{ACAD_REACTORS
330
1B5B
102
}
330
1B5B
100
AcDbXrecord
280
     1
270
     1
271
     1
  0
XRECORD
  5
1C62
102
{ACAD_REACTORS
330
1C61
102
}
330
1C61
100
AcDbXrecord
280
     1
102
ACAD_ROUNDTRIP_2012_MLEADER_STYLE
298
     1
  0
CELLSTYLEMAP
  5
1C2B
102
{ACAD_REACTORS
330
1BE7
102
}
330
1BE7
100
AcDbCellStyleMap
 90
        3
300
CELLSTYLE
  1
TABLEFORMAT_BEGIN
 90
        5
170
     1
 91
        0
 92
    32768
 62
   257
 93
        1
300
CONTENTFORMAT
  1
CONTENTFORMAT_BEGIN
 90
        0
 91
        0
 92
      512
 93
        0
300

 40
0.0
140
1.0
 94
        5
 62
     0
340
11
144
0.25
309
CONTENTFORMAT_END
171
     0
 94
        0
309
TABLEFORMAT_END
  1
CELLSTYLE_BEGIN
 90
        1
 91
        1
300
_TITLE
309
CELLSTYLE_END
300
CELLSTYLE
  1
TABLEFORMAT_BEGIN
 90
        5
170
     1
 91
        0
 92
        0
 62
   257
 93
        1
300
CONTENTFORMAT
  1
CONTENTFORMAT_BEGIN
 90
        0
 91
        0
 92
      512
 93
        0
300

 40
0.0
140
1.0
 94
        5
 62
     0
340
11
144
0.18
309
CONTENTFORMAT_END
171
     0
 94
        0
309
TABLEFORMAT_END
  1
CELLSTYLE_BEGIN
 90
        2
 91
        1
300
_HEADER
309
CELLSTYLE_END
300
CELLSTYLE
  1
TABLEFORMAT_BEGIN
 90
        5
170
     1
 91
        0
 92
        0
 62
   257
 93
        1
300
CONTENTFORMAT
  1
CONTENTFORMAT_BEGIN
 90
        0
 91
        0
 92
      512
 93
        0
300

 40
0.0
140
1.0
 94
        2
 62
     0
340
11
144
0.18
309
CONTENTFORMAT_END
171
     0
 94
        0
309
TABLEFORMAT_END
  1
CELLSTYLE_BEGIN
 90
        3
 91
        2
300
_DATA
309
CELLSTYLE_END
  0
XRECORD
  5
1C60
102
{ACAD_REACTORS
330
1BE7
102
}
330
1BE7
100
AcDbXrecord
280
     1
102
ACAD_ROUNDTRIP_PRE2007_TABLESTYLE
 90
      512
 91
        0
  1

 92
      512
 93
        0
  2

 94
      512
 95
        0
  3

  0
XRECORD
  5
1C3B
102
{ACAD_REACTORS
330
1C3A
102
}
330
1C3A
100
AcDbXrecord
280
     1
102
RTVSPost2010Prop28
280
     1
102
RTVSPost2010PropOp28
 70
     1
102
RTVSPost2010Prop29
280
     1
102
RTVSPost2010PropOp29
 70
     1
102
RTVSPost2010Prop30
280
     0
102
RTVSPost2010PropOp30
 70
     1
102
RTVSPost2010Prop31
280
     0
102
RTVSPost2010PropOp31
 70
     1
102
RTVSPost2010Prop32
280
     0
102
RTVSPost2010PropOp32
 70
     1
102
RTVSPost2010Prop33
280
     0
102
RTVSPost2010PropOp33
 70
     1
102
RTVSPost2010Prop34
280
     0
102
RTVSPost2010PropOp34
 70
     1
102
RTVSPost2010Prop35
280
     0
102
RTVSPost2010PropOp35
 70
     1
102
RTVSPost2010Prop36
280
     0
102
RTVSPost2010PropOp36
 70
     1
102
RTVSPost2010Prop37
 90
       50
102
RTVSPost2010PropOp37
 70
     1
102
RTVSPost2010Prop38
140
0.0
102
RTVSPost2010PropOp38
 70
     1
102
RTVSPost2010Prop39
140
1.0
102
RTVSPost2010PropOp39
 70
     1
102
RTVSPost2010Prop40
 90
        0
102
RTVSPost2010PropOp40
 70
     1
102
RTVSPost2010Prop41ColorIndex
 90
       18
102
RTVSPost2010Prop41ColorRGB
 90
        0
102
RTVSPost2010PropOp41
 70
     1
102
RTVSPost2010Prop42
 90
       50
102
RTVSPost2010PropOp42
 70
     1
102
RTVSPost2010Prop43
 90
        3
102
RTVSPost2010PropOp43
 70
     1
102
RTVSPost2010Prop44ColorIndex
 90
        5
102
RTVSPost2010Prop44ColorRGB
 90
      255
102
RTVSPost2010PropOp44
 70
     1
102
RTVSPost2010Prop45
280
     0
102
RTVSPost2010PropOp45
 70
     1
102
RTVSPost2010Prop46
 90
       50
102
RTVSPost2010PropOp46
 70
     1
102
RTVSPost2010Prop47
 90
       50
102
RTVSPost2010PropOp47
 70
     1
102
RTVSPost2010Prop48
 90
       50
102
RTVSPost2010PropOp48
 70
     1
102
RTVSPost2010Prop49
280
     0
102
RTVSPost2010PropOp49
 70
     1
102
RTVSPost2010Prop50
 90
       50
102
RTVSPost2010PropOp50
 70
     1
102
RTVSPost2010Prop51ColorIndex
 90
      256
102
RTVSPost2010Prop51ColorRGB
 90
-16777216
102
RTVSPost2010PropOp51
 70
     0
102
RTVSPost2010Prop52
140
1.0
102
RTVSPost2010PropOp52
 70
     0
102
RTVSPost2010Prop53
 90
        2
102
RTVSPost2010PropOp53
 70
     1
102
RTVSPost2010Prop54
  1
strokes_ogs.tif
102
RTVSPost2010PropOp54
 70
     1
102
RTVSPost2010Prop55
280
     0
102
RTVSPost2010PropOp55
 70
     1
102
RTVSPost2010Prop56
140
1.0
102
RTVSPost2010PropOp56
 70
     1
102
RTVSPost2010Prop57
140
1.0
102
RTVSPost2010PropOp57
 70
     1
102
RTVSPropertyOp0
 70
     1
102
RTVSPropertyOp1
 70
     1
102
RTVSPropertyOp2
 70
     1
102
RTVSPropertyOp3
 70
     1
102
RTVSPropertyOp4
 70
     1
102
RTVSPropertyOp5
 70
     1
102
RTVSPropertyOp6
 70
     1
102
RTVSPropertyOp7
 70
     1
102
RTVSPropertyOp8
 70
     1
102
RTVSPropertyOp9
 70
     1
102
RTVSPropertyOp10
 70
     1
102
RTVSPropertyOp11
 70
     1
102
RTVSPropertyOp12
 70
     1
102
RTVSPropertyOp13
 70
     1
102
RTVSPropertyOp14
 70
     1
102
RTVSPropertyOp15
 70
     1
102
RTVSPropertyOp16
 70
     1
102
RTVSPropertyOp17
 70
     1
102
RTVSPropertyOp18
 70
     1
102
RTVSPropertyOp19
 70
     1
102
RTVSPropertyOp20
 70
     1
102
RTVSPropertyOp21
 70
     1
102
RTVSPropertyOp22
 70
     1
102
RTVSPropertyOp23
 70
     1
102
RTVSPropertyOp24
 70
     1
102
RTVSPropertyOp25
 70
     1
102
RTVSPropertyOp26
 70
     1
102
RTVSPropertyOp27
 70
     1
102
RTVSPropertyOp28
 70
     1
102
RTVSPropertyOp29
 70
     1
102
RTVSPropertyOp30
 70
     1
102
RTVSPropertyOp31
 70
     1
102
RTVSPropertyOp32
 70
     1
102
RTVSPropertyOp33
 70
     1
102
RTVSPropertyOp34
 70
     1
102
RTVSPropertyOp35
 70
     1
102
RTVSPropertyOp36
 70
     1
102
RTVSPropertyOp37
 70
     1
102
RTVSPropertyOp38
 70
     1
102
RTVSPropertyOp39
 70
     1
102
RTVSPropertyOp40
 70
     1
102
RTVSPropertyOp41
 70
     1
102
RTVSPropertyOp42
 70
     1
102
RTVSPropertyOp43
 70
     1
102
RTVSPropertyOp44
 70
     1
102
RTVSPropertyOp45
 70
     1
102
RTVSPropertyOp46
 70
     1
102
RTVSPropertyOp47
 70
     1
102
RTVSPropertyOp48
 70
     1
102
RTVSPropertyOp49
 70
     1
102
RTVSPropertyOp50
 70
     1
102
RTVSPropertyOp51
 70
     0
102
RTVSPropertyOp52
 70
     0
102
RTVSPropertyOp53
 70
     1
102
RTVSPropertyOp54
 70
     1
102
RTVSPropertyOp55
 70
     1
102
RTVSPropertyOp56
 70
     1
102
RTVSPropertyOp57
 70
     1
102
RTVSPropertyOp58
 70
     1
102
RTVSPropertyOp59
 70
     1
102
RTVSPropertyOp60
 70
     1
102
RTVSPropertyOp61
 70
     1
102
RTVSPropertyOp62
 70
     1
  0
XRECORD
  5
1C39
102
{ACAD_REACTORS
330
1C38
102
}
330
1C38
100
AcDbXrecord
280
     1
102
RTVSPost2010Prop28
280
     0
102
RTVSPost2010PropOp28
 70
     1
102
RTVSPost2010Prop29
280
     1
102
RTVSPost2010PropOp29
 70
     1
102
RTVSPost2010Prop30
280
     1
102
RTVSPost2010PropOp30
 70
     1
102
RTVSPost2010Prop31
280
     0
102
RTVSPost2010PropOp31
 70
     1
102
RTVSPost2010Prop32
280
     0
102
RTVSPost2010PropOp32
 70
     1
102
RTVSPost2010Prop33
280
     0
102
RTVSPost2010PropOp33
 70
     1
102
RTVSPost2010Prop34
280
     0
102
RTVSPost2010PropOp34
 70
     1
102
RTVSPost2010Prop35
280
     0
102
RTVSPost2010PropOp35
 70
     1
102
RTVSPost2010Prop36
280
     0
102
RTVSPost2010PropOp36
 70
     1
102
RTVSPost2010Prop37
 90
       50
102
RTVSPost2010PropOp37
 70
     1
102
RTVSPost2010Prop38
140
0.0
102
RTVSPost2010PropOp38
 70
     1
102
RTVSPost2010Prop39
140
1.0
102
RTVSPost2010PropOp39
 70
     1
102
RTVSPost2010Prop40
 90
        0
102
RTVSPost2010PropOp40
 70
     1
102
RTVSPost2010Prop41ColorIndex
 90
       18
102
RTVSPost2010Prop41ColorRGB
 90
        0
102
RTVSPost2010PropOp41
 70
     1
102
RTVSPost2010Prop42
 90
       50
102
RTVSPost2010PropOp42
 70
     1
102
RTVSPost2010Prop43
 90
        3
102
RTVSPost2010PropOp43
 70
     1
102
RTVSPost2010Prop44ColorIndex
 90
        5
102
RTVSPost2010Prop44ColorRGB
 90
      255
102
RTVSPost2010PropOp44
 70
     1
102
RTVSPost2010Prop45
280
     0
102
RTVSPost2010PropOp45
 70
     1
102
RTVSPost2010Prop46
 90
       50
102
RTVSPost2010PropOp46
 70
     1
102
RTVSPost2010Prop47
 90
       50
102
RTVSPost2010PropOp47
 70
     1
102
RTVSPost2010Prop48
 90
       50
102
RTVSPost2010PropOp48
 70
     1
102
RTVSPost2010Prop49
280
     0
102
RTVSPost2010PropOp49
 70
     1
102
RTVSPost2010Prop50
 90
       50
102
RTVSPost2010PropOp50
 70
     1
102
RTVSPost2010Prop51ColorIndex
 90
      256
102
RTVSPost2010Prop51ColorRGB
 90
-16777216
102
RTVSPost2010PropOp51
 70
     0
102
RTVSPost2010Prop52
140
1.0
102
RTVSPost2010PropOp52
 70
     0
102
RTVSPost2010Prop53
 90
        2
102
RTVSPost2010PropOp53
 70
     1
102
RTVSPost2010Prop54
  1
strokes_ogs.tif
102
RTVSPost2010PropOp54
 70
     1
102
RTVSPost2010Prop55
280
     0
102
RTVSPost2010PropOp55
 70
     1
102
RTVSPost2010Prop56
140
1.0
102
RTVSPost2010PropOp56
 70
     1
102
RTVSPost2010Prop57
140
1.0
102
RTVSPost2010PropOp57
 70
     1
102
RTVSPropertyOp0
 70
     1
102
RTVSPropertyOp1
 70
     1
102
RTVSPropertyOp2
 70
     1
102
RTVSPropertyOp3
 70
     1
102
RTVSPropertyOp4
 70
     1
102
RTVSPropertyOp5
 70
     1
102
RTVSPropertyOp6
 70
     1
102
RTVSPropertyOp7
 70
     1
102
RTVSPropertyOp8
 70
     1
102
RTVSPropertyOp9
 70
     1
102
RTVSPropertyOp10
 70
     1
102
RTVSPropertyOp11
 70
     1
102
RTVSPropertyOp12
 70
     1
102
RTVSPropertyOp13
 70
     1
102
RTVSPropertyOp14
 70
     1
102
RTVSPropertyOp15
 70
     1
102
RTVSPropertyOp16
 70
     1
102
RTVSPropertyOp17
 70
     1
102
RTVSPropertyOp18
 70
     1
102
RTVSPropertyOp19
 70
     1
102
RTVSPropertyOp20
 70
     1
102
RTVSPropertyOp21
 70
     1
102
RTVSPropertyOp22
 70
     1
102
RTVSPropertyOp23
 70
     1
102
RTVSPropertyOp24
 70
     1
102
RTVSPropertyOp25
 70
     1
102
RTVSPropertyOp26
 70
     1
102
RTVSPropertyOp27
 70
     1
102
RTVSPropertyOp28
 70
     1
102
RTVSPropertyOp29
 70
     1
102
RTVSPropertyOp30
 70
     1
102
RTVSPropertyOp31
 70
     1
102
RTVSPropertyOp32
 70
     1
102
RTVSPropertyOp33
 70
     1
102
RTVSPropertyOp34
 70
     1
102
RTVSPropertyOp35
 70
     1
102
RTVSPropertyOp36
 70
     1
102
RTVSPropertyOp37
 70
     1
102
RTVSPropertyOp38
 70
     1
102
RTVSPropertyOp39
 70
     1
102
RTVSPropertyOp40
 70
     1
102
RTVSPropertyOp41
 70
     1
102
RTVSPropertyOp42
 70
     1
102
RTVSPropertyOp43
 70
     1
102
RTVSPropertyOp44
 70
     1
102
RTVSPropertyOp45
 70
     1
102
RTVSPropertyOp46
 70
     1
102
RTVSPropertyOp47
 70
     1
102
RTVSPropertyOp48
 70
     1
102
RTVSPropertyOp49
 70
     1
102
RTVSPropertyOp50
 70
     1
102
RTVSPropertyOp51
 70
     0
102
RTVSPropertyOp52
 70
     0
102
RTVSPropertyOp53
 70
     1
102
RTVSPropertyOp54
 70
     1
102
RTVSPropertyOp55
 70
     1
102
RTVSPropertyOp56
 70
     1
102
RTVSPropertyOp57
 70
     1
102
RTVSPropertyOp58
 70
     1
102
RTVSPropertyOp59
 70
     1
102
RTVSPropertyOp60
 70
     1
102
RTVSPropertyOp61
 70
     1
102
RTVSPropertyOp62
 70
     1
  0
XRECORD
  5
1C47
102
{ACAD_REACTORS
330
1C46
102
}
330
1C46
100
AcDbXrecord
280
     1
102
RTVSPost2010Prop28
280
     0
102
RTVSPost2010PropOp28
 70
     1
102
RTVSPost2010Prop29
280
     1
102
RTVSPost2010PropOp29
 70
     1
102
RTVSPost2010Prop30
280
     1
102
RTVSPost2010PropOp30
 70
     1
102
RTVSPost2010Prop31
280
     0
102
RTVSPost2010PropOp31
 70
     1
102
RTVSPost2010Prop32
280
     0
102
RTVSPost2010PropOp32
 70
     1
102
RTVSPost2010Prop33
280
     0
102
RTVSPost2010PropOp33
 70
     1
102
RTVSPost2010Prop34
280
     0
102
RTVSPost2010PropOp34
 70
     1
102
RTVSPost2010Prop35
280
     0
102
RTVSPost2010PropOp35
 70
     1
102
RTVSPost2010Prop36
280
     0
102
RTVSPost2010PropOp36
 70
     1
102
RTVSPost2010Prop37
 90
       50
102
RTVSPost2010PropOp37
 70
     1
102
RTVSPost2010Prop38
140
0.0
102
RTVSPost2010PropOp38
 70
     1
102
RTVSPost2010Prop39
140
1.0
102
RTVSPost2010PropOp39
 70
     1
102
RTVSPost2010Prop40
 90
        0
102
RTVSPost2010PropOp40
 70
     1
102
RTVSPost2010Prop41ColorIndex
 90
       18
102
RTVSPost2010Prop41ColorRGB
 90
        0
102
RTVSPost2010PropOp41
 70
     1
102
RTVSPost2010Prop42
 90
       50
102
RTVSPost2010PropOp42
 70
     1
102
RTVSPost2010Prop43
 90
        3
102
RTVSPost2010PropOp43
 70
     1
102
RTVSPost2010Prop44ColorIndex
 90
        5
102
RTVSPost2010Prop44ColorRGB
 90
      255
102
RTVSPost2010PropOp44
 70
     1
102
RTVSPost2010Prop45
280
     0
102
RTVSPost2010PropOp45
 70
     1
102
RTVSPost2010Prop46
 90
       50
102
RTVSPost2010PropOp46
 70
     1
102
RTVSPost2010Prop47
 90
       50
102
RTVSPost2010PropOp47
 70
     1
102
RTVSPost2010Prop48
 90
       50
102
RTVSPost2010PropOp48
 70
     1
102
RTVSPost2010Prop49
280
     0
102
RTVSPost2010PropOp49
 70
     1
102
RTVSPost2010Prop50
 90
       50
102
RTVSPost2010PropOp50
 70
     1
102
RTVSPost2010Prop51ColorIndex
 90
      256
102
RTVSPost2010Prop51ColorRGB
 90
-16777216
102
RTVSPost2010PropOp51
 70
     0
102
RTVSPost2010Prop52
140
1.0
102
RTVSPost2010PropOp52
 70
     0
102
RTVSPost2010Prop53
 90
        2
102
RTVSPost2010PropOp53
 70
     1
102
RTVSPost2010Prop54
  1
strokes_ogs.tif
102
RTVSPost2010PropOp54
 70
     1
102
RTVSPost2010Prop55
280
     0
102
RTVSPost2010PropOp55
 70
     1
102
RTVSPost2010Prop56
140
1.0
102
RTVSPost2010PropOp56
 70
     1
102
RTVSPost2010Prop57
140
1.0
102
RTVSPost2010PropOp57
 70
     1
102
RTVSPropertyOp0
 70
     1
102
RTVSPropertyOp1
 70
     1
102
RTVSPropertyOp2
 70
     1
102
RTVSPropertyOp3
 70
     1
102
RTVSPropertyOp4
 70
     1
102
RTVSPropertyOp5
 70
     1
102
RTVSPropertyOp6
 70
     1
102
RTVSPropertyOp7
 70
     1
102
RTVSPropertyOp8
 70
     1
102
RTVSPropertyOp9
 70
     1
102
RTVSPropertyOp10
 70
     1
102
RTVSPropertyOp11
 70
     1
102
RTVSPropertyOp12
 70
     1
102
RTVSPropertyOp13
 70
     1
102
RTVSPropertyOp14
 70
     1
102
RTVSPropertyOp15
 70
     1
102
RTVSPropertyOp16
 70
     1
102
RTVSPropertyOp17
 70
     1
102
RTVSPropertyOp18
 70
     1
102
RTVSPropertyOp19
 70
     1
102
RTVSPropertyOp20
 70
     1
102
RTVSPropertyOp21
 70
     1
102
RTVSPropertyOp22
 70
     1
102
RTVSPropertyOp23
 70
     1
102
RTVSPropertyOp24
 70
     1
102
RTVSPropertyOp25
 70
     1
102
RTVSPropertyOp26
 70
     1
102
RTVSPropertyOp27
 70
     1
102
RTVSPropertyOp28
 70
     1
102
RTVSPropertyOp29
 70
     1
102
RTVSPropertyOp30
 70
     1
102
RTVSPropertyOp31
 70
     1
102
RTVSPropertyOp32
 70
     1
102
RTVSPropertyOp33
 70
     1
102
RTVSPropertyOp34
 70
     1
102
RTVSPropertyOp35
 70
     1
102
RTVSPropertyOp36
 70
     1
102
RTVSPropertyOp37
 70
     1
102
RTVSPropertyOp38
 70
     1
102
RTVSPropertyOp39
 70
     1
102
RTVSPropertyOp40
 70
     1
102
RTVSPropertyOp41
 70
     1
102
RTVSPropertyOp42
 70
     1
102
RTVSPropertyOp43
 70
     1
102
RTVSPropertyOp44
 70
     1
102
RTVSPropertyOp45
 70
     1
102
RTVSPropertyOp46
 70
     1
102
RTVSPropertyOp47
 70
     1
102
RTVSPropertyOp48
 70
     1
102
RTVSPropertyOp49
 70
     1
102
RTVSPropertyOp50
 70
     1
102
RTVSPropertyOp51
 70
     0
102
RTVSPropertyOp52
 70
     0
102
RTVSPropertyOp53
 70
     1
102
RTVSPropertyOp54
 70
     1
102
RTVSPropertyOp55
 70
     1
102
RTVSPropertyOp56
 70
     1
102
RTVSPropertyOp57
 70
     1
102
RTVSPropertyOp58
 70
     1
102
RTVSPropertyOp59
 70
     1
102
RTVSPropertyOp60
 70
     1
102
RTVSPropertyOp61
 70
     1
102
RTVSPropertyOp62
 70
     1
  0
XRECORD
  5
1C4F
102
{ACAD_REACTORS
330
1C4E
102
}
330
1C4E
100
AcDbXrecord
280
     1
102
RTVSPost2010Prop28
280
     0
102
RTVSPost2010PropOp28
 70
     1
102
RTVSPost2010Prop29
280
     1
102
RTVSPost2010PropOp29
 70
     1
102
RTVSPost2010Prop30
280
     1
102
RTVSPost2010PropOp30
 70
     1
102
RTVSPost2010Prop31
280
     0
102
RTVSPost2010PropOp31
 70
     1
102
RTVSPost2010Prop32
280
     0
102
RTVSPost2010PropOp32
 70
     1
102
RTVSPost2010Prop33
280
     0
102
RTVSPost2010PropOp33
 70
     1
102
RTVSPost2010Prop34
280
     0
102
RTVSPost2010PropOp34
 70
     1
102
RTVSPost2010Prop35
280
     0
102
RTVSPost2010PropOp35
 70
     1
102
RTVSPost2010Prop36
280
     0
102
RTVSPost2010PropOp36
 70
     1
102
RTVSPost2010Prop37
 90
       50
102
RTVSPost2010PropOp37
 70
     1
102
RTVSPost2010Prop38
140
0.0
102
RTVSPost2010PropOp38
 70
     1
102
RTVSPost2010Prop39
140
1.0
102
RTVSPost2010PropOp39
 70
     1
102
RTVSPost2010Prop40
 90
        0
102
RTVSPost2010PropOp40
 70
     1
102
RTVSPost2010Prop41ColorIndex
 90
       18
102
RTVSPost2010Prop41ColorRGB
 90
        0
102
RTVSPost2010PropOp41
 70
     1
102
RTVSPost2010Prop42
 90
       50
102
RTVSPost2010PropOp42
 70
     1
102
RTVSPost2010Prop43
 90
        3
102
RTVSPost2010PropOp43
 70
     1
102
RTVSPost2010Prop44ColorIndex
 90
        5
102
RTVSPost2010Prop44ColorRGB
 90
      255
102
RTVSPost2010PropOp44
 70
     1
102
RTVSPost2010Prop45
280
     0
102
RTVSPost2010PropOp45
 70
     1
102
RTVSPost2010Prop46
 90
       50
102
RTVSPost2010PropOp46
 70
     1
102
RTVSPost2010Prop47
 90
       50
102
RTVSPost2010PropOp47
 70
     1
102
RTVSPost2010Prop48
 90
       50
102
RTVSPost2010PropOp48
 70
     1
102
RTVSPost2010Prop49
280
     0
102
RTVSPost2010PropOp49
 70
     1
102
RTVSPost2010Prop50
 90
       50
102
RTVSPost2010PropOp50
 70
     1
102
RTVSPost2010Prop51ColorIndex
 90
      256
102
RTVSPost2010Prop51ColorRGB
 90
-16777216
102
RTVSPost2010PropOp51
 70
     0
102
RTVSPost2010Prop52
140
1.0
102
RTVSPost2010PropOp52
 70
     0
102
RTVSPost2010Prop53
 90
        2
102
RTVSPost2010PropOp53
 70
     1
102
RTVSPost2010Prop54
  1
strokes_ogs.tif
102
RTVSPost2010PropOp54
 70
     1
102
RTVSPost2010Prop55
280
     0
102
RTVSPost2010PropOp55
 70
     1
102
RTVSPost2010Prop56
140
1.0
102
RTVSPost2010PropOp56
 70
     1
102
RTVSPost2010Prop57
140
1.0
102
RTVSPost2010PropOp57
 70
     1
102
RTVSPropertyOp0
 70
     1
102
RTVSPropertyOp1
 70
     1
102
RTVSPropertyOp2
 70
     1
102
RTVSPropertyOp3
 70
     1
102
RTVSPropertyOp4
 70
     1
102
RTVSPropertyOp5
 70
     1
102
RTVSPropertyOp6
 70
     1
102
RTVSPropertyOp7
 70
     1
102
RTVSPropertyOp8
 70
     1
102
RTVSPropertyOp9
 70
     1
102
RTVSPropertyOp10
 70
     1
102
RTVSPropertyOp11
 70
     1
102
RTVSPropertyOp12
 70
     1
102
RTVSPropertyOp13
 70
     1
102
RTVSPropertyOp14
 70
     1
102
RTVSPropertyOp15
 70
     1
102
RTVSPropertyOp16
 70
     1
102
RTVSPropertyOp17
 70
     1
102
RTVSPropertyOp18
 70
     1
102
RTVSPropertyOp19
 70
     1
102
RTVSPropertyOp20
 70
     1
102
RTVSPropertyOp21
 70
     1
102
RTVSPropertyOp22
 70
     1
102
RTVSPropertyOp23
 70
     1
102
RTVSPropertyOp24
 70
     1
102
RTVSPropertyOp25
 70
     1
102
RTVSPropertyOp26
 70
     1
102
RTVSPropertyOp27
 70
     1
102
RTVSPropertyOp28
 70
     1
102
RTVSPropertyOp29
 70
     1
102
RTVSPropertyOp30
 70
     1
102
RTVSPropertyOp31
 70
     1
102
RTVSPropertyOp32
 70
     1
102
RTVSPropertyOp33
 70
     1
102
RTVSPropertyOp34
 70
     1
102
RTVSPropertyOp35
 70
     1
102
RTVSPropertyOp36
 70
     1
102
RTVSPropertyOp37
 70
     1
102
RTVSPropertyOp38
 70
     1
102
RTVSPropertyOp39
 70
     1
102
RTVSPropertyOp40
 70
     1
102
RTVSPropertyOp41
 70
     1
102
RTVSPropertyOp42
 70
     1
102
RTVSPropertyOp43
 70
     1
102
RTVSPropertyOp44
 70
     1
102
RTVSPropertyOp45
 70
     1
102
RTVSPropertyOp46
 70
     1
102
RTVSPropertyOp47
 70
     1
102
RTVSPropertyOp48
 70
     1
102
RTVSPropertyOp49
 70
     1
102
RTVSPropertyOp50
 70
     1
102
RTVSPropertyOp51
 70
     0
102
RTVSPropertyOp52
 70
     0
102
RTVSPropertyOp53
 70
     1
102
RTVSPropertyOp54
 70
     1
102
RTVSPropertyOp55
 70
     1
102
RTVSPropertyOp56
 70
     1
102
RTVSPropertyOp57
 70
     1
102
RTVSPropertyOp58
 70
     1
102
RTVSPropertyOp59
 70
     1
102
RTVSPropertyOp60
 70
     1
102
RTVSPropertyOp61
 70
     1
102
RTVSPropertyOp62
 70
     1
  0
XRECORD
  5
1C41
102
{ACAD_REACTORS
330
1C40
102
}
330
1C40
100
AcDbXrecord
280
     1
102
RTVSPost2010Prop28
280
     0
102
RTVSPost2010PropOp28
 70
     1
102
RTVSPost2010Prop29
280
     1
102
RTVSPost2010PropOp29
 70
     1
102
RTVSPost2010Prop30
280
     1
102
RTVSPost2010PropOp30
 70
     1
102
RTVSPost2010Prop31
280
     0
102
RTVSPost2010PropOp31
 70
     1
102
RTVSPost2010Prop32
280
     0
102
RTVSPost2010PropOp32
 70
     1
102
RTVSPost2010Prop33
280
     0
102
RTVSPost2010PropOp33
 70
     1
102
RTVSPost2010Prop34
280
     0
102
RTVSPost2010PropOp34
 70
     1
102
RTVSPost2010Prop35
280
     0
102
RTVSPost2010PropOp35
 70
     1
102
RTVSPost2010Prop36
280
     0
102
RTVSPost2010PropOp36
 70
     1
102
RTVSPost2010Prop37
 90
       50
102
RTVSPost2010PropOp37
 70
     1
102
RTVSPost2010Prop38
140
0.0
102
RTVSPost2010PropOp38
 70
     1
102
RTVSPost2010Prop39
140
1.0
102
RTVSPost2010PropOp39
 70
     1
102
RTVSPost2010Prop40
 90
        0
102
RTVSPost2010PropOp40
 70
     1
102
RTVSPost2010Prop41ColorIndex
 90
       18
102
RTVSPost2010Prop41ColorRGB
 90
        0
102
RTVSPost2010PropOp41
 70
     1
102
RTVSPost2010Prop42
 90
       50
102
RTVSPost2010PropOp42
 70
     1
102
RTVSPost2010Prop43
 90
        3
102
RTVSPost2010PropOp43
 70
     1
102
RTVSPost2010Prop44ColorIndex
 90
        5
102
RTVSPost2010Prop44ColorRGB
 90
      255
102
RTVSPost2010PropOp44
 70
     1
102
RTVSPost2010Prop45
280
     0
102
RTVSPost2010PropOp45
 70
     1
102
RTVSPost2010Prop46
 90
       50
102
RTVSPost2010PropOp46
 70
     1
102
RTVSPost2010Prop47
 90
       50
102
RTVSPost2010PropOp47
 70
     1
102
RTVSPost2010Prop48
 90
       50
102
RTVSPost2010PropOp48
 70
     1
102
RTVSPost2010Prop49
280
     0
102
RTVSPost2010PropOp49
 70
     1
102
RTVSPost2010Prop50
 90
       50
102
RTVSPost2010PropOp50
 70
     1
102
RTVSPost2010Prop51ColorIndex
 90
      256
102
RTVSPost2010Prop51ColorRGB
 90
-16777216
102
RTVSPost2010PropOp51
 70
     0
102
RTVSPost2010Prop52
140
1.0
102
RTVSPost2010PropOp52
 70
     0
102
RTVSPost2010Prop53
 90
        2
102
RTVSPost2010PropOp53
 70
     1
102
RTVSPost2010Prop54
  1
strokes_ogs.tif
102
RTVSPost2010PropOp54
 70
     1
102
RTVSPost2010Prop55
280
     0
102
RTVSPost2010PropOp55
 70
     1
102
RTVSPost2010Prop56
140
1.0
102
RTVSPost2010PropOp56
 70
     1
102
RTVSPost2010Prop57
140
1.0
102
RTVSPost2010PropOp57
 70
     1
102
RTVSPropertyOp0
 70
     1
102
RTVSPropertyOp1
 70
     1
102
RTVSPropertyOp2
 70
     1
102
RTVSPropertyOp3
 70
     1
102
RTVSPropertyOp4
 70
     1
102
RTVSPropertyOp5
 70
     1
102
RTVSPropertyOp6
 70
     1
102
RTVSPropertyOp7
 70
     1
102
RTVSPropertyOp8
 70
     1
102
RTVSPropertyOp9
 70
     1
102
RTVSPropertyOp10
 70
     1
102
RTVSPropertyOp11
 70
     1
102
RTVSPropertyOp12
 70
     1
102
RTVSPropertyOp13
 70
     1
102
RTVSPropertyOp14
 70
     1
102
RTVSPropertyOp15
 70
     1
102
RTVSPropertyOp16
 70
     1
102
RTVSPropertyOp17
 70
     1
102
RTVSPropertyOp18
 70
     1
102
RTVSPropertyOp19
 70
     1
102
RTVSPropertyOp20
 70
     1
102
RTVSPropertyOp21
 70
     1
102
RTVSPropertyOp22
 70
     1
102
RTVSPropertyOp23
 70
     1
102
RTVSPropertyOp24
 70
     1
102
RTVSPropertyOp25
 70
     1
102
RTVSPropertyOp26
 70
     1
102
RTVSPropertyOp27
 70
     1
102
RTVSPropertyOp28
 70
     1
102
RTVSPropertyOp29
 70
     1
102
RTVSPropertyOp30
 70
     1
102
RTVSPropertyOp31
 70
     1
102
RTVSPropertyOp32
 70
     1
102
RTVSPropertyOp33
 70
     1
102
RTVSPropertyOp34
 70
     1
102
RTVSPropertyOp35
 70
     1
102
RTVSPropertyOp36
 70
     1
102
RTVSPropertyOp37
 70
     1
102
RTVSPropertyOp38
 70
     1
102
RTVSPropertyOp39
 70
     1
102
RTVSPropertyOp40
 70
     1
102
RTVSPropertyOp41
 70
     1
102
RTVSPropertyOp42
 70
     1
102
RTVSPropertyOp43
 70
     1
102
RTVSPropertyOp44
 70
     1
102
RTVSPropertyOp45
 70
     1
102
RTVSPropertyOp46
 70
     1
102
RTVSPropertyOp47
 70
     1
102
RTVSPropertyOp48
 70
     1
102
RTVSPropertyOp49
 70
     1
102
RTVSPropertyOp50
 70
     1
102
RTVSPropertyOp51
 70
     0
102
RTVSPropertyOp52
 70
     0
102
RTVSPropertyOp53
 70
     1
102
RTVSPropertyOp54
 70
     1
102
RTVSPropertyOp55
 70
     1
102
RTVSPropertyOp56
 70
     1
102
RTVSPropertyOp57
 70
     1
102
RTVSPropertyOp58
 70
     1
102
RTVSPropertyOp59
 70
     1
102
RTVSPropertyOp60
 70
     1
102
RTVSPropertyOp61
 70
     1
102
RTVSPropertyOp62
 70
     1
  0
XRECORD
  5
1C45
102
{ACAD_REACTORS
330
1C44
102
}
330
1C44
100
AcDbXrecord
280
     1
102
RTVSPost2010Prop28
280
     0
102
RTVSPost2010PropOp28
 70
     1
102
RTVSPost2010Prop29
280
     1
102
RTVSPost2010PropOp29
 70
     1
102
RTVSPost2010Prop30
280
     1
102
RTVSPost2010PropOp30
 70
     1
102
RTVSPost2010Prop31
280
     0
102
RTVSPost2010PropOp31
 70
     1
102
RTVSPost2010Prop32
280
     0
102
RTVSPost2010PropOp32
 70
     1
102
RTVSPost2010Prop33
280
     0
102
RTVSPost2010PropOp33
 70
     1
102
RTVSPost2010Prop34
280
     0
102
RTVSPost2010PropOp34
 70
     1
102
RTVSPost2010Prop35
280
     0
102
RTVSPost2010PropOp35
 70
     1
102
RTVSPost2010Prop36
280
     0
102
RTVSPost2010PropOp36
 70
     1
102
RTVSPost2010Prop37
 90
       50
102
RTVSPost2010PropOp37
 70
     1
102
RTVSPost2010Prop38
140
0.0
102
RTVSPost2010PropOp38
 70
     1
102
RTVSPost2010Prop39
140
1.0
102
RTVSPost2010PropOp39
 70
     1
102
RTVSPost2010Prop40
 90
        0
102
RTVSPost2010PropOp40
 70
     1
102
RTVSPost2010Prop41ColorIndex
 90
       18
102
RTVSPost2010Prop41ColorRGB
 90
        0
102
RTVSPost2010PropOp41
 70
     1
102
RTVSPost2010Prop42
 90
       50
102
RTVSPost2010PropOp42
 70
     1
102
RTVSPost2010Prop43
 90
        3
102
RTVSPost2010PropOp43
 70
     1
102
RTVSPost2010Prop44ColorIndex
 90
        5
102
RTVSPost2010Prop44ColorRGB
 90
      255
102
RTVSPost2010PropOp44
 70
     1
102
RTVSPost2010Prop45
280
     0
102
RTVSPost2010PropOp45
 70
     1
102
RTVSPost2010Prop46
 90
       50
102
RTVSPost2010PropOp46
 70
     1
102
RTVSPost2010Prop47
 90
       50
102
RTVSPost2010PropOp47
 70
     1
102
RTVSPost2010Prop48
 90
       50
102
RTVSPost2010PropOp48
 70
     1
102
RTVSPost2010Prop49
280
     0
102
RTVSPost2010PropOp49
 70
     1
102
RTVSPost2010Prop50
 90
       50
102
RTVSPost2010PropOp50
 70
     1
102
RTVSPost2010Prop51ColorIndex
 90
      256
102
RTVSPost2010Prop51ColorRGB
 90
-16777216
102
RTVSPost2010PropOp51
 70
     0
102
RTVSPost2010Prop52
140
1.0
102
RTVSPost2010PropOp52
 70
     0
102
RTVSPost2010Prop53
 90
        2
102
RTVSPost2010PropOp53
 70
     1
102
RTVSPost2010Prop54
  1
strokes_ogs.tif
102
RTVSPost2010PropOp54
 70
     1
102
RTVSPost2010Prop55
280
     0
102
RTVSPost2010PropOp55
 70
     1
102
RTVSPost2010Prop56
140
1.0
102
RTVSPost2010PropOp56
 70
     1
102
RTVSPost2010Prop57
140
1.0
102
RTVSPost2010PropOp57
 70
     1
102
RTVSPropertyOp0
 70
     1
102
RTVSPropertyOp1
 70
     1
102
RTVSPropertyOp2
 70
     1
102
RTVSPropertyOp3
 70
     1
102
RTVSPropertyOp4
 70
     1
102
RTVSPropertyOp5
 70
     1
102
RTVSPropertyOp6
 70
     1
102
RTVSPropertyOp7
 70
     1
102
RTVSPropertyOp8
 70
     1
102
RTVSPropertyOp9
 70
     1
102
RTVSPropertyOp10
 70
     1
102
RTVSPropertyOp11
 70
     1
102
RTVSPropertyOp12
 70
     1
102
RTVSPropertyOp13
 70
     1
102
RTVSPropertyOp14
 70
     1
102
RTVSPropertyOp15
 70
     1
102
RTVSPropertyOp16
 70
     1
102
RTVSPropertyOp17
 70
     1
102
RTVSPropertyOp18
 70
     1
102
RTVSPropertyOp19
 70
     1
102
RTVSPropertyOp20
 70
     1
102
RTVSPropertyOp21
 70
     1
102
RTVSPropertyOp22
 70
     1
102
RTVSPropertyOp23
 70
     1
102
RTVSPropertyOp24
 70
     1
102
RTVSPropertyOp25
 70
     1
102
RTVSPropertyOp26
 70
     1
102
RTVSPropertyOp27
 70
     1
102
RTVSPropertyOp28
 70
     1
102
RTVSPropertyOp29
 70
     1
102
RTVSPropertyOp30
 70
     1
102
RTVSPropertyOp31
 70
     1
102
RTVSPropertyOp32
 70
     1
102
RTVSPropertyOp33
 70
     1
102
RTVSPropertyOp34
 70
     1
102
RTVSPropertyOp35
 70
     1
102
RTVSPropertyOp36
 70
     1
102
RTVSPropertyOp37
 70
     1
102
RTVSPropertyOp38
 70
     1
102
RTVSPropertyOp39
 70
     1
102
RTVSPropertyOp40
 70
     1
102
RTVSPropertyOp41
 70
     1
102
RTVSPropertyOp42
 70
     1
102
RTVSPropertyOp43
 70
     1
102
RTVSPropertyOp44
 70
     1
102
RTVSPropertyOp45
 70
     1
102
RTVSPropertyOp46
 70
     1
102
RTVSPropertyOp47
 70
     1
102
RTVSPropertyOp48
 70
     1
102
RTVSPropertyOp49
 70
     1
102
RTVSPropertyOp50
 70
     1
102
RTVSPropertyOp51
 70
     0
102
RTVSPropertyOp52
 70
     0
102
RTVSPropertyOp53
 70
     1
102
RTVSPropertyOp54
 70
     1
102
RTVSPropertyOp55
 70
     1
102
RTVSPropertyOp56
 70
     1
102
RTVSPropertyOp57
 70
     1
102
RTVSPropertyOp58
 70
     1
102
RTVSPropertyOp59
 70
     1
102
RTVSPropertyOp60
 70
     1
102
RTVSPropertyOp61
 70
     1
102
RTVSPropertyOp62
 70
     1
  0
XRECORD
  5
1C5F
102
{ACAD_REACTORS
330
1C5E
102
}
330
1C5E
100
AcDbXrecord
280
     1
102
RTVSPost2010Prop28
280
     0
102
RTVSPost2010PropOp28
 70
     0
102
RTVSPost2010Prop29
280
     1
102
RTVSPost2010PropOp29
 70
     0
102
RTVSPost2010Prop30
280
     1
102
RTVSPost2010PropOp30
 70
     0
102
RTVSPost2010Prop31
280
     0
102
RTVSPost2010PropOp31
 70
     0
102
RTVSPost2010Prop32
280
     0
102
RTVSPost2010PropOp32
 70
     0
102
RTVSPost2010Prop33
280
     0
102
RTVSPost2010PropOp33
 70
     0
102
RTVSPost2010Prop34
280
     0
102
RTVSPost2010PropOp34
 70
     0
102
RTVSPost2010Prop35
280
     0
102
RTVSPost2010PropOp35
 70
     0
102
RTVSPost2010Prop36
280
     0
102
RTVSPost2010PropOp36
 70
     0
102
RTVSPost2010Prop37
 90
       50
102
RTVSPost2010PropOp37
 70
     0
102
RTVSPost2010Prop38
140
0.0
102
RTVSPost2010PropOp38
 70
     0
102
RTVSPost2010Prop39
140
1.0
102
RTVSPost2010PropOp39
 70
     0
102
RTVSPost2010Prop40
 90
        0
102
RTVSPost2010PropOp40
 70
     0
102
RTVSPost2010Prop41ColorIndex
 90
       18
102
RTVSPost2010Prop41ColorRGB
 90
        0
102
RTVSPost2010PropOp41
 70
     0
102
RTVSPost2010Prop42
 90
       50
102
RTVSPost2010PropOp42
 70
     0
102
RTVSPost2010Prop43
 90
        3
102
RTVSPost2010PropOp43
 70
     0
102
RTVSPost2010Prop44ColorIndex
 90
        5
102
RTVSPost2010Prop44ColorRGB
 90
      255
102
RTVSPost2010PropOp44
 70
     0
102
RTVSPost2010Prop45
280
     0
102
RTVSPost2010PropOp45
 70
     0
102
RTVSPost2010Prop46
 90
       50
102
RTVSPost2010PropOp46
 70
     0
102
RTVSPost2010Prop47
 90
       50
102
RTVSPost2010PropOp47
 70
     0
102
RTVSPost2010Prop48
 90
       50
102
RTVSPost2010PropOp48
 70
     0
102
RTVSPost2010Prop49
280
     0
102
RTVSPost2010PropOp49
 70
     0
102
RTVSPost2010Prop50
 90
       50
102
RTVSPost2010PropOp50
 70
     0
102
RTVSPost2010Prop51ColorIndex
 90
      256
102
RTVSPost2010Prop51ColorRGB
 90
-16777216
102
RTVSPost2010PropOp51
 70
     0
102
RTVSPost2010Prop52
140
1.0
102
RTVSPost2010PropOp52
 70
     0
102
RTVSPost2010Prop53
 90
        2
102
RTVSPost2010PropOp53
 70
     0
102
RTVSPost2010Prop54
  1
strokes_ogs.tif
102
RTVSPost2010PropOp54
 70
     0
102
RTVSPost2010Prop55
280
     0
102
RTVSPost2010PropOp55
 70
     0
102
RTVSPost2010Prop56
140
1.0
102
RTVSPost2010PropOp56
 70
     0
102
RTVSPost2010Prop57
140
1.0
102
RTVSPost2010PropOp57
 70
     0
102
RTVSPropertyOp0
 70
     0
102
RTVSPropertyOp1
 70
     0
102
RTVSPropertyOp2
 70
     0
102
RTVSPropertyOp3
 70
     0
102
RTVSPropertyOp4
 70
     0
102
RTVSPropertyOp5
 70
     0
102
RTVSPropertyOp6
 70
     0
102
RTVSPropertyOp7
 70
     0
102
RTVSPropertyOp8
 70
     0
102
RTVSPropertyOp9
 70
     0
102
RTVSPropertyOp10
 70
     0
102
RTVSPropertyOp11
 70
     0
102
RTVSPropertyOp12
 70
     0
102
RTVSPropertyOp13
 70
     0
102
RTVSPropertyOp14
 70
     2
102
RTVSPropertyOp15
 70
     0
102
RTVSPropertyOp16
 70
     0
102
RTVSPropertyOp17
 70
     0
102
RTVSPropertyOp18
 70
     0
102
RTVSPropertyOp19
 70
     0
102
RTVSPropertyOp20
 70
     0
102
RTVSPropertyOp21
 70
     0
102
RTVSPropertyOp22
 70
     0
102
RTVSPropertyOp23
 70
     0
102
RTVSPropertyOp24
 70
     0
102
RTVSPropertyOp25
 70
     0
102
RTVSPropertyOp26
 70
     0
102
RTVSPropertyOp27
 70
     0
102
RTVSPropertyOp28
 70
     0
102
RTVSPropertyOp29
 70
     0
102
RTVSPropertyOp30
 70
     0
102
RTVSPropertyOp31
 70
     0
102
RTVSPropertyOp32
 70
     0
102
RTVSPropertyOp33
 70
     0
102
RTVSPropertyOp34
 70
     0
102
RTVSPropertyOp35
 70
     0
102
RTVSPropertyOp36
 70
     0
102
RTVSPropertyOp37
 70
     0
102
RTVSPropertyOp38
 70
     0
102
RTVSPropertyOp39
 70
     0
102
RTVSPropertyOp40
 70
     0
102
RTVSPropertyOp41
 70
     0
102
RTVSPropertyOp42
 70
     0
102
RTVSPropertyOp43
 70
     0
102
RTVSPropertyOp44
 70
     0
102
RTVSPropertyOp45
 70
     0
102
RTVSPropertyOp46
 70
     0
102
RTVSPropertyOp47
 70
     0
102
RTVSPropertyOp48
 70
     0
102
RTVSPropertyOp49
 70
     0
102
RTVSPropertyOp50
 70
     0
102
RTVSPropertyOp51
 70
     0
102
RTVSPropertyOp52
 70
     0
102
RTVSPropertyOp53
 70
     0
102
RTVSPropertyOp54
 70
     0
102
RTVSPropertyOp55
 70
     0
102
RTVSPropertyOp56
 70
     0
102
RTVSPropertyOp57
 70
     0
102
RTVSPropertyOp58
 70
     0
102
RTVSPropertyOp59
 70
     0
102
RTVSPropertyOp60
 70
     0
102
RTVSPropertyOp61
 70
     0
102
RTVSPropertyOp62
 70
     0
  0
XRECORD
  5
1C4D
102
{ACAD_REACTORS
330
1C4C
102
}
330
1C4C
100
AcDbXrecord
280
     1
102
RTVSPost2010Prop28
280
     0
102
RTVSPost2010PropOp28
 70
     1
102
RTVSPost2010Prop29
280
     1
102
RTVSPost2010PropOp29
 70
     1
102
RTVSPost2010Prop30
280
     1
102
RTVSPost2010PropOp30
 70
     1
102
RTVSPost2010Prop31
280
     0
102
RTVSPost2010PropOp31
 70
     1
102
RTVSPost2010Prop32
280
     0
102
RTVSPost2010PropOp32
 70
     1
102
RTVSPost2010Prop33
280
     0
102
RTVSPost2010PropOp33
 70
     1
102
RTVSPost2010Prop34
280
     0
102
RTVSPost2010PropOp34
 70
     1
102
RTVSPost2010Prop35
280
     0
102
RTVSPost2010PropOp35
 70
     1
102
RTVSPost2010Prop36
280
     0
102
RTVSPost2010PropOp36
 70
     1
102
RTVSPost2010Prop37
 90
       50
102
RTVSPost2010PropOp37
 70
     1
102
RTVSPost2010Prop38
140
0.0
102
RTVSPost2010PropOp38
 70
     1
102
RTVSPost2010Prop39
140
1.0
102
RTVSPost2010PropOp39
 70
     1
102
RTVSPost2010Prop40
 90
        0
102
RTVSPost2010PropOp40
 70
     1
102
RTVSPost2010Prop41ColorIndex
 90
       18
102
RTVSPost2010Prop41ColorRGB
 90
        0
102
RTVSPost2010PropOp41
 70
     1
102
RTVSPost2010Prop42
 90
       50
102
RTVSPost2010PropOp42
 70
     1
102
RTVSPost2010Prop43
 90
        3
102
RTVSPost2010PropOp43
 70
     1
102
RTVSPost2010Prop44ColorIndex
 90
        5
102
RTVSPost2010Prop44ColorRGB
 90
      255
102
RTVSPost2010PropOp44
 70
     1
102
RTVSPost2010Prop45
280
     0
102
RTVSPost2010PropOp45
 70
     1
102
RTVSPost2010Prop46
 90
       50
102
RTVSPost2010PropOp46
 70
     1
102
RTVSPost2010Prop47
 90
       50
102
RTVSPost2010PropOp47
 70
     1
102
RTVSPost2010Prop48
 90
       50
102
RTVSPost2010PropOp48
 70
     1
102
RTVSPost2010Prop49
280
     0
102
RTVSPost2010PropOp49
 70
     1
102
RTVSPost2010Prop50
 90
       50
102
RTVSPost2010PropOp50
 70
     1
102
RTVSPost2010Prop51ColorIndex
 90
      256
102
RTVSPost2010Prop51ColorRGB
 90
-16777216
102
RTVSPost2010PropOp51
 70
     0
102
RTVSPost2010Prop52
140
1.0
102
RTVSPost2010PropOp52
 70
     0
102
RTVSPost2010Prop53
 90
        2
102
RTVSPost2010PropOp53
 70
     1
102
RTVSPost2010Prop54
  1
strokes_ogs.tif
102
RTVSPost2010PropOp54
 70
     1
102
RTVSPost2010Prop55
280
     0
102
RTVSPost2010PropOp55
 70
     1
102
RTVSPost2010Prop56
140
1.0
102
RTVSPost2010PropOp56
 70
     1
102
RTVSPost2010Prop57
140
1.0
102
RTVSPost2010PropOp57
 70
     1
102
RTVSPropertyOp0
 70
     1
102
RTVSPropertyOp1
 70
     1
102
RTVSPropertyOp2
 70
     1
102
RTVSPropertyOp3
 70
     1
102
RTVSPropertyOp4
 70
     1
102
RTVSPropertyOp5
 70
     1
102
RTVSPropertyOp6
 70
     1
102
RTVSPropertyOp7
 70
     1
102
RTVSPropertyOp8
 70
     1
102
RTVSPropertyOp9
 70
     1
102
RTVSPropertyOp10
 70
     1
102
RTVSPropertyOp11
 70
     1
102
RTVSPropertyOp12
 70
     1
102
RTVSPropertyOp13
 70
     1
102
RTVSPropertyOp14
 70
     1
102
RTVSPropertyOp15
 70
     1
102
RTVSPropertyOp16
 70
     1
102
RTVSPropertyOp17
 70
     1
102
RTVSPropertyOp18
 70
     1
102
RTVSPropertyOp19
 70
     1
102
RTVSPropertyOp20
 70
     1
102
RTVSPropertyOp21
 70
     1
102
RTVSPropertyOp22
 70
     1
102
RTVSPropertyOp23
 70
     1
102
RTVSPropertyOp24
 70
     1
102
RTVSPropertyOp25
 70
     1
102
RTVSPropertyOp26
 70
     1
102
RTVSPropertyOp27
 70
     1
102
RTVSPropertyOp28
 70
     1
102
RTVSPropertyOp29
 70
     1
102
RTVSPropertyOp30
 70
     1
102
RTVSPropertyOp31
 70
     1
102
RTVSPropertyOp32
 70
     1
102
RTVSPropertyOp33
 70
     1
102
RTVSPropertyOp34
 70
     1
102
RTVSPropertyOp35
 70
     1
102
RTVSPropertyOp36
 70
     1
102
RTVSPropertyOp37
 70
     1
102
RTVSPropertyOp38
 70
     1
102
RTVSPropertyOp39
 70
     1
102
RTVSPropertyOp40
 70
     1
102
RTVSPropertyOp41
 70
     1
102
RTVSPropertyOp42
 70
     1
102
RTVSPropertyOp43
 70
     1
102
RTVSPropertyOp44
 70
     1
102
RTVSPropertyOp45
 70
     1
102
RTVSPropertyOp46
 70
     1
102
RTVSPropertyOp47
 70
     1
102
RTVSPropertyOp48
 70
     1
102
RTVSPropertyOp49
 70
     1
102
RTVSPropertyOp50
 70
     1
102
RTVSPropertyOp51
 70
     0
102
RTVSPropertyOp52
 70
     0
102
RTVSPropertyOp53
 70
     1
102
RTVSPropertyOp54
 70
     1
102
RTVSPropertyOp55
 70
     1
102
RTVSPropertyOp56
 70
     1
102
RTVSPropertyOp57
 70
     1
102
RTVSPropertyOp58
 70
     1
102
RTVSPropertyOp59
 70
     1
102
RTVSPropertyOp60
 70
     1
102
RTVSPropertyOp61
 70
     1
102
RTVSPropertyOp62
 70
     1
  0
XRECORD
  5
1C31
102
{ACAD_REACTORS
330
1C30
102
}
330
1C30
100
AcDbXrecord
280
     1
102
RTVSPost2010Prop28
280
     0
102
RTVSPost2010PropOp28
 70
     1
102
RTVSPost2010Prop29
280
     1
102
RTVSPost2010PropOp29
 70
     1
102
RTVSPost2010Prop30
280
     1
102
RTVSPost2010PropOp30
 70
     1
102
RTVSPost2010Prop31
280
     0
102
RTVSPost2010PropOp31
 70
     1
102
RTVSPost2010Prop32
280
     0
102
RTVSPost2010PropOp32
 70
     1
102
RTVSPost2010Prop33
280
     0
102
RTVSPost2010PropOp33
 70
     1
102
RTVSPost2010Prop34
280
     0
102
RTVSPost2010PropOp34
 70
     1
102
RTVSPost2010Prop35
280
     0
102
RTVSPost2010PropOp35
 70
     1
102
RTVSPost2010Prop36
280
     0
102
RTVSPost2010PropOp36
 70
     1
102
RTVSPost2010Prop37
 90
       50
102
RTVSPost2010PropOp37
 70
     1
102
RTVSPost2010Prop38
140
0.0
102
RTVSPost2010PropOp38
 70
     1
102
RTVSPost2010Prop39
140
1.0
102
RTVSPost2010PropOp39
 70
     1
102
RTVSPost2010Prop40
 90
        0
102
RTVSPost2010PropOp40
 70
     1
102
RTVSPost2010Prop41ColorIndex
 90
       18
102
RTVSPost2010Prop41ColorRGB
 90
        0
102
RTVSPost2010PropOp41
 70
     1
102
RTVSPost2010Prop42
 90
       50
102
RTVSPost2010PropOp42
 70
     1
102
RTVSPost2010Prop43
 90
        3
102
RTVSPost2010PropOp43
 70
     1
102
RTVSPost2010Prop44ColorIndex
 90
        5
102
RTVSPost2010Prop44ColorRGB
 90
      255
102
RTVSPost2010PropOp44
 70
     1
102
RTVSPost2010Prop45
280
     0
102
RTVSPost2010PropOp45
 70
     1
102
RTVSPost2010Prop46
 90
       50
102
RTVSPost2010PropOp46
 70
     1
102
RTVSPost2010Prop47
 90
       50
102
RTVSPost2010PropOp47
 70
     1
102
RTVSPost2010Prop48
 90
       50
102
RTVSPost2010PropOp48
 70
     1
102
RTVSPost2010Prop49
280
     0
102
RTVSPost2010PropOp49
 70
     1
102
RTVSPost2010Prop50
 90
       50
102
RTVSPost2010PropOp50
 70
     1
102
RTVSPost2010Prop51ColorIndex
 90
      256
102
RTVSPost2010Prop51ColorRGB
 90
-16777216
102
RTVSPost2010PropOp51
 70
     0
102
RTVSPost2010Prop52
140
1.0
102
RTVSPost2010PropOp52
 70
     0
102
RTVSPost2010Prop53
 90
        2
102
RTVSPost2010PropOp53
 70
     1
102
RTVSPost2010Prop54
  1
strokes_ogs.tif
102
RTVSPost2010PropOp54
 70
     1
102
RTVSPost2010Prop55
280
     0
102
RTVSPost2010PropOp55
 70
     1
102
RTVSPost2010Prop56
140
1.0
102
RTVSPost2010PropOp56
 70
     1
102
RTVSPost2010Prop57
140
1.0
102
RTVSPost2010PropOp57
 70
     1
102
RTVSPropertyOp0
 70
     1
102
RTVSPropertyOp1
 70
     1
102
RTVSPropertyOp2
 70
     1
102
RTVSPropertyOp3
 70
     1
102
RTVSPropertyOp4
 70
     1
102
RTVSPropertyOp5
 70
     1
102
RTVSPropertyOp6
 70
     1
102
RTVSPropertyOp7
 70
     1
102
RTVSPropertyOp8
 70
     1
102
RTVSPropertyOp9
 70
     1
102
RTVSPropertyOp10
 70
     1
102
RTVSPropertyOp11
 70
     1
102
RTVSPropertyOp12
 70
     1
102
RTVSPropertyOp13
 70
     1
102
RTVSPropertyOp14
 70
     1
102
RTVSPropertyOp15
 70
     1
102
RTVSPropertyOp16
 70
     1
102
RTVSPropertyOp17
 70
     1
102
RTVSPropertyOp18
 70
     1
102
RTVSPropertyOp19
 70
     1
102
RTVSPropertyOp20
 70
     1
102
RTVSPropertyOp21
 70
     1
102
RTVSPropertyOp22
 70
     1
102
RTVSPropertyOp23
 70
     1
102
RTVSPropertyOp24
 70
     1
102
RTVSPropertyOp25
 70
     1
102
RTVSPropertyOp26
 70
     1
102
RTVSPropertyOp27
 70
     1
102
RTVSPropertyOp28
 70
     1
102
RTVSPropertyOp29
 70
     1
102
RTVSPropertyOp30
 70
     1
102
RTVSPropertyOp31
 70
     1
102
RTVSPropertyOp32
 70
     1
102
RTVSPropertyOp33
 70
     1
102
RTVSPropertyOp34
 70
     1
102
RTVSPropertyOp35
 70
     1
102
RTVSPropertyOp36
 70
     1
102
RTVSPropertyOp37
 70
     1
102
RTVSPropertyOp38
 70
     1
102
RTVSPropertyOp39
 70
     1
102
RTVSPropertyOp40
 70
     1
102
RTVSPropertyOp41
 70
     1
102
RTVSPropertyOp42
 70
     1
102
RTVSPropertyOp43
 70
     1
102
RTVSPropertyOp44
 70
     1
102
RTVSPropertyOp45
 70
     1
102
RTVSPropertyOp46
 70
     1
102
RTVSPropertyOp47
 70
     1
102
RTVSPropertyOp48
 70
     1
102
RTVSPropertyOp49
 70
     1
102
RTVSPropertyOp50
 70
     1
102
RTVSPropertyOp51
 70
     0
102
RTVSPropertyOp52
 70
     0
102
RTVSPropertyOp53
 70
     1
102
RTVSPropertyOp54
 70
     1
102
RTVSPropertyOp55
 70
     1
102
RTVSPropertyOp56
 70
     1
102
RTVSPropertyOp57
 70
     1
102
RTVSPropertyOp58
 70
     1
102
RTVSPropertyOp59
 70
     1
102
RTVSPropertyOp60
 70
     1
102
RTVSPropertyOp61
 70
     1
102
RTVSPropertyOp62
 70
     1
  0
XRECORD
  5
1C33
102
{ACAD_REACTORS
330
1C32
102
}
330
1C32
100
AcDbXrecord
280
     1
102
RTVSPost2010Prop28
280
     0
102
RTVSPost2010PropOp28
 70
     1
102
RTVSPost2010Prop29
280
     1
102
RTVSPost2010PropOp29
 70
     1
102
RTVSPost2010Prop30
280
     1
102
RTVSPost2010PropOp30
 70
     1
102
RTVSPost2010Prop31
280
     0
102
RTVSPost2010PropOp31
 70
     1
102
RTVSPost2010Prop32
280
     0
102
RTVSPost2010PropOp32
 70
     1
102
RTVSPost2010Prop33
280
     0
102
RTVSPost2010PropOp33
 70
     1
102
RTVSPost2010Prop34
280
     0
102
RTVSPost2010PropOp34
 70
     1
102
RTVSPost2010Prop35
280
     0
102
RTVSPost2010PropOp35
 70
     1
102
RTVSPost2010Prop36
280
     0
102
RTVSPost2010PropOp36
 70
     1
102
RTVSPost2010Prop37
 90
       50
102
RTVSPost2010PropOp37
 70
     1
102
RTVSPost2010Prop38
140
0.0
102
RTVSPost2010PropOp38
 70
     1
102
RTVSPost2010Prop39
140
1.0
102
RTVSPost2010PropOp39
 70
     1
102
RTVSPost2010Prop40
 90
        0
102
RTVSPost2010PropOp40
 70
     1
102
RTVSPost2010Prop41ColorIndex
 90
       18
102
RTVSPost2010Prop41ColorRGB
 90
        0
102
RTVSPost2010PropOp41
 70
     1
102
RTVSPost2010Prop42
 90
       50
102
RTVSPost2010PropOp42
 70
     1
102
RTVSPost2010Prop43
 90
        3
102
RTVSPost2010PropOp43
 70
     1
102
RTVSPost2010Prop44ColorIndex
 90
        5
102
RTVSPost2010Prop44ColorRGB
 90
      255
102
RTVSPost2010PropOp44
 70
     1
102
RTVSPost2010Prop45
280
     0
102
RTVSPost2010PropOp45
 70
     1
102
RTVSPost2010Prop46
 90
       50
102
RTVSPost2010PropOp46
 70
     1
102
RTVSPost2010Prop47
 90
       50
102
RTVSPost2010PropOp47
 70
     1
102
RTVSPost2010Prop48
 90
       50
102
RTVSPost2010PropOp48
 70
     1
102
RTVSPost2010Prop49
280
     0
102
RTVSPost2010PropOp49
 70
     1
102
RTVSPost2010Prop50
 90
       50
102
RTVSPost2010PropOp50
 70
     1
102
RTVSPost2010Prop51ColorIndex
 90
      256
102
RTVSPost2010Prop51ColorRGB
 90
-16777216
102
RTVSPost2010PropOp51
 70
     0
102
RTVSPost2010Prop52
140
1.0
102
RTVSPost2010PropOp52
 70
     0
102
RTVSPost2010Prop53
 90
        2
102
RTVSPost2010PropOp53
 70
     1
102
RTVSPost2010Prop54
  1
strokes_ogs.tif
102
RTVSPost2010PropOp54
 70
     1
102
RTVSPost2010Prop55
280
     0
102
RTVSPost2010PropOp55
 70
     1
102
RTVSPost2010Prop56
140
1.0
102
RTVSPost2010PropOp56
 70
     1
102
RTVSPost2010Prop57
140
1.0
102
RTVSPost2010PropOp57
 70
     1
102
RTVSPropertyOp0
 70
     1
102
RTVSPropertyOp1
 70
     1
102
RTVSPropertyOp2
 70
     1
102
RTVSPropertyOp3
 70
     1
102
RTVSPropertyOp4
 70
     1
102
RTVSPropertyOp5
 70
     1
102
RTVSPropertyOp6
 70
     1
102
RTVSPropertyOp7
 70
     1
102
RTVSPropertyOp8
 70
     1
102
RTVSPropertyOp9
 70
     1
102
RTVSPropertyOp10
 70
     1
102
RTVSPropertyOp11
 70
     1
102
RTVSPropertyOp12
 70
     1
102
RTVSPropertyOp13
 70
     1
102
RTVSPropertyOp14
 70
     1
102
RTVSPropertyOp15
 70
     1
102
RTVSPropertyOp16
 70
     1
102
RTVSPropertyOp17
 70
     1
102
RTVSPropertyOp18
 70
     1
102
RTVSPropertyOp19
 70
     1
102
RTVSPropertyOp20
 70
     1
102
RTVSPropertyOp21
 70
     1
102
RTVSPropertyOp22
 70
     1
102
RTVSPropertyOp23
 70
     1
102
RTVSPropertyOp24
 70
     1
102
RTVSPropertyOp25
 70
     1
102
RTVSPropertyOp26
 70
     1
102
RTVSPropertyOp27
 70
     1
102
RTVSPropertyOp28
 70
     1
102
RTVSPropertyOp29
 70
     1
102
RTVSPropertyOp30
 70
     1
102
RTVSPropertyOp31
 70
     1
102
RTVSPropertyOp32
 70
     1
102
RTVSPropertyOp33
 70
     1
102
RTVSPropertyOp34
 70
     1
102
RTVSPropertyOp35
 70
     1
102
RTVSPropertyOp36
 70
     1
102
RTVSPropertyOp37
 70
     1
102
RTVSPropertyOp38
 70
     1
102
RTVSPropertyOp39
 70
     1
102
RTVSPropertyOp40
 70
     1
102
RTVSPropertyOp41
 70
     1
102
RTVSPropertyOp42
 70
     1
102
RTVSPropertyOp43
 70
     1
102
RTVSPropertyOp44
 70
     1
102
RTVSPropertyOp45
 70
     1
102
RTVSPropertyOp46
 70
     1
102
RTVSPropertyOp47
 70
     1
102
RTVSPropertyOp48
 70
     1
102
RTVSPropertyOp49
 70
     1
102
RTVSPropertyOp50
 70
     1
102
RTVSPropertyOp51
 70
     0
102
RTVSPropertyOp52
 70
     0
102
RTVSPropertyOp53
 70
     1
102
RTVSPropertyOp54
 70
     1
102
RTVSPropertyOp55
 70
     1
102
RTVSPropertyOp56
 70
     1
102
RTVSPropertyOp57
 70
     1
102
RTVSPropertyOp58
 70
     1
102
RTVSPropertyOp59
 70
     1
102
RTVSPropertyOp60
 70
     1
102
RTVSPropertyOp61
 70
     1
102
RTVSPropertyOp62
 70
     1
  0
XRECORD
  5
1C35
102
{ACAD_REACTORS
330
1C34
102
}
330
1C34
100
AcDbXrecord
280
     1
102
RTVSPost2010Prop28
280
     0
102
RTVSPost2010PropOp28
 70
     1
102
RTVSPost2010Prop29
280
     1
102
RTVSPost2010PropOp29
 70
     1
102
RTVSPost2010Prop30
280
     1
102
RTVSPost2010PropOp30
 70
     1
102
RTVSPost2010Prop31
280
     0
102
RTVSPost2010PropOp31
 70
     1
102
RTVSPost2010Prop32
280
     0
102
RTVSPost2010PropOp32
 70
     1
102
RTVSPost2010Prop33
280
     0
102
RTVSPost2010PropOp33
 70
     1
102
RTVSPost2010Prop34
280
     0
102
RTVSPost2010PropOp34
 70
     1
102
RTVSPost2010Prop35
280
     0
102
RTVSPost2010PropOp35
 70
     1
102
RTVSPost2010Prop36
280
     0
102
RTVSPost2010PropOp36
 70
     1
102
RTVSPost2010Prop37
 90
       50
102
RTVSPost2010PropOp37
 70
     1
102
RTVSPost2010Prop38
140
0.0
102
RTVSPost2010PropOp38
 70
     1
102
RTVSPost2010Prop39
140
1.0
102
RTVSPost2010PropOp39
 70
     1
102
RTVSPost2010Prop40
 90
        0
102
RTVSPost2010PropOp40
 70
     1
102
RTVSPost2010Prop41ColorIndex
 90
       18
102
RTVSPost2010Prop41ColorRGB
 90
        0
102
RTVSPost2010PropOp41
 70
     1
102
RTVSPost2010Prop42
 90
       50
102
RTVSPost2010PropOp42
 70
     1
102
RTVSPost2010Prop43
 90
        3
102
RTVSPost2010PropOp43
 70
     1
102
RTVSPost2010Prop44ColorIndex
 90
        5
102
RTVSPost2010Prop44ColorRGB
 90
      255
102
RTVSPost2010PropOp44
 70
     1
102
RTVSPost2010Prop45
280
     0
102
RTVSPost2010PropOp45
 70
     1
102
RTVSPost2010Prop46
 90
       50
102
RTVSPost2010PropOp46
 70
     1
102
RTVSPost2010Prop47
 90
       50
102
RTVSPost2010PropOp47
 70
     1
102
RTVSPost2010Prop48
 90
       50
102
RTVSPost2010PropOp48
 70
     1
102
RTVSPost2010Prop49
280
     0
102
RTVSPost2010PropOp49
 70
     1
102
RTVSPost2010Prop50
 90
       50
102
RTVSPost2010PropOp50
 70
     1
102
RTVSPost2010Prop51ColorIndex
 90
      256
102
RTVSPost2010Prop51ColorRGB
 90
-16777216
102
RTVSPost2010PropOp51
 70
     0
102
RTVSPost2010Prop52
140
1.0
102
RTVSPost2010PropOp52
 70
     0
102
RTVSPost2010Prop53
 90
        2
102
RTVSPost2010PropOp53
 70
     1
102
RTVSPost2010Prop54
  1
strokes_ogs.tif
102
RTVSPost2010PropOp54
 70
     1
102
RTVSPost2010Prop55
280
     0
102
RTVSPost2010PropOp55
 70
     1
102
RTVSPost2010Prop56
140
1.0
102
RTVSPost2010PropOp56
 70
     1
102
RTVSPost2010Prop57
140
1.0
102
RTVSPost2010PropOp57
 70
     1
102
RTVSPropertyOp0
 70
     1
102
RTVSPropertyOp1
 70
     1
102
RTVSPropertyOp2
 70
     1
102
RTVSPropertyOp3
 70
     1
102
RTVSPropertyOp4
 70
     1
102
RTVSPropertyOp5
 70
     1
102
RTVSPropertyOp6
 70
     1
102
RTVSPropertyOp7
 70
     1
102
RTVSPropertyOp8
 70
     1
102
RTVSPropertyOp9
 70
     1
102
RTVSPropertyOp10
 70
     1
102
RTVSPropertyOp11
 70
     1
102
RTVSPropertyOp12
 70
     1
102
RTVSPropertyOp13
 70
     1
102
RTVSPropertyOp14
 70
     1
102
RTVSPropertyOp15
 70
     1
102
RTVSPropertyOp16
 70
     1
102
RTVSPropertyOp17
 70
     1
102
RTVSPropertyOp18
 70
     1
102
RTVSPropertyOp19
 70
     1
102
RTVSPropertyOp20
 70
     1
102
RTVSPropertyOp21
 70
     1
102
RTVSPropertyOp22
 70
     1
102
RTVSPropertyOp23
 70
     1
102
RTVSPropertyOp24
 70
     1
102
RTVSPropertyOp25
 70
     1
102
RTVSPropertyOp26
 70
     1
102
RTVSPropertyOp27
 70
     1
102
RTVSPropertyOp28
 70
     1
102
RTVSPropertyOp29
 70
     1
102
RTVSPropertyOp30
 70
     1
102
RTVSPropertyOp31
 70
     1
102
RTVSPropertyOp32
 70
     1
102
RTVSPropertyOp33
 70
     1
102
RTVSPropertyOp34
 70
     1
102
RTVSPropertyOp35
 70
     1
102
RTVSPropertyOp36
 70
     1
102
RTVSPropertyOp37
 70
     1
102
RTVSPropertyOp38
 70
     1
102
RTVSPropertyOp39
 70
     1
102
RTVSPropertyOp40
 70
     1
102
RTVSPropertyOp41
 70
     1
102
RTVSPropertyOp42
 70
     1
102
RTVSPropertyOp43
 70
     1
102
RTVSPropertyOp44
 70
     1
102
RTVSPropertyOp45
 70
     1
102
RTVSPropertyOp46
 70
     1
102
RTVSPropertyOp47
 70
     1
102
RTVSPropertyOp48
 70
     1
102
RTVSPropertyOp49
 70
     1
102
RTVSPropertyOp50
 70
     1
102
RTVSPropertyOp51
 70
     0
102
RTVSPropertyOp52
 70
     0
102
RTVSPropertyOp53
 70
     1
102
RTVSPropertyOp54
 70
     1
102
RTVSPropertyOp55
 70
     1
102
RTVSPropertyOp56
 70
     1
102
RTVSPropertyOp57
 70
     1
102
RTVSPropertyOp58
 70
     1
102
RTVSPropertyOp59
 70
     1
102
RTVSPropertyOp60
 70
     1
102
RTVSPropertyOp61
 70
     1
102
RTVSPropertyOp62
 70
     1
  0
XRECORD
  5
1C37
102
{ACAD_REACTORS
330
1C36
102
}
330
1C36
100
AcDbXrecord
280
     1
102
RTVSPost2010Prop28
280
     0
102
RTVSPost2010PropOp28
 70
     1
102
RTVSPost2010Prop29
280
     1
102
RTVSPost2010PropOp29
 70
     1
102
RTVSPost2010Prop30
280
     1
102
RTVSPost2010PropOp30
 70
     1
102
RTVSPost2010Prop31
280
     0
102
RTVSPost2010PropOp31
 70
     1
102
RTVSPost2010Prop32
280
     0
102
RTVSPost2010PropOp32
 70
     1
102
RTVSPost2010Prop33
280
     0
102
RTVSPost2010PropOp33
 70
     1
102
RTVSPost2010Prop34
280
     0
102
RTVSPost2010PropOp34
 70
     1
102
RTVSPost2010Prop35
280
     0
102
RTVSPost2010PropOp35
 70
     1
102
RTVSPost2010Prop36
280
     0
102
RTVSPost2010PropOp36
 70
     1
102
RTVSPost2010Prop37
 90
       50
102
RTVSPost2010PropOp37
 70
     1
102
RTVSPost2010Prop38
140
0.0
102
RTVSPost2010PropOp38
 70
     1
102
RTVSPost2010Prop39
140
1.0
102
RTVSPost2010PropOp39
 70
     1
102
RTVSPost2010Prop40
 90
        0
102
RTVSPost2010PropOp40
 70
     1
102
RTVSPost2010Prop41ColorIndex
 90
       18
102
RTVSPost2010Prop41ColorRGB
 90
        0
102
RTVSPost2010PropOp41
 70
     1
102
RTVSPost2010Prop42
 90
       50
102
RTVSPost2010PropOp42
 70
     1
102
RTVSPost2010Prop43
 90
        3
102
RTVSPost2010PropOp43
 70
     1
102
RTVSPost2010Prop44ColorIndex
 90
        5
102
RTVSPost2010Prop44ColorRGB
 90
      255
102
RTVSPost2010PropOp44
 70
     1
102
RTVSPost2010Prop45
280
     0
102
RTVSPost2010PropOp45
 70
     1
102
RTVSPost2010Prop46
 90
       50
102
RTVSPost2010PropOp46
 70
     1
102
RTVSPost2010Prop47
 90
       50
102
RTVSPost2010PropOp47
 70
     1
102
RTVSPost2010Prop48
 90
       50
102
RTVSPost2010PropOp48
 70
     1
102
RTVSPost2010Prop49
280
     0
102
RTVSPost2010PropOp49
 70
     1
102
RTVSPost2010Prop50
 90
       50
102
RTVSPost2010PropOp50
 70
     1
102
RTVSPost2010Prop51ColorIndex
 90
      256
102
RTVSPost2010Prop51ColorRGB
 90
-16777216
102
RTVSPost2010PropOp51
 70
     0
102
RTVSPost2010Prop52
140
1.0
102
RTVSPost2010PropOp52
 70
     0
102
RTVSPost2010Prop53
 90
        2
102
RTVSPost2010PropOp53
 70
     1
102
RTVSPost2010Prop54
  1
strokes_ogs.tif
102
RTVSPost2010PropOp54
 70
     1
102
RTVSPost2010Prop55
280
     0
102
RTVSPost2010PropOp55
 70
     1
102
RTVSPost2010Prop56
140
1.0
102
RTVSPost2010PropOp56
 70
     1
102
RTVSPost2010Prop57
140
1.0
102
RTVSPost2010PropOp57
 70
     1
102
RTVSPropertyOp0
 70
     1
102
RTVSPropertyOp1
 70
     1
102
RTVSPropertyOp2
 70
     1
102
RTVSPropertyOp3
 70
     1
102
RTVSPropertyOp4
 70
     1
102
RTVSPropertyOp5
 70
     1
102
RTVSPropertyOp6
 70
     1
102
RTVSPropertyOp7
 70
     1
102
RTVSPropertyOp8
 70
     1
102
RTVSPropertyOp9
 70
     1
102
RTVSPropertyOp10
 70
     1
102
RTVSPropertyOp11
 70
     1
102
RTVSPropertyOp12
 70
     1
102
RTVSPropertyOp13
 70
     1
102
RTVSPropertyOp14
 70
     1
102
RTVSPropertyOp15
 70
     1
102
RTVSPropertyOp16
 70
     1
102
RTVSPropertyOp17
 70
     1
102
RTVSPropertyOp18
 70
     1
102
RTVSPropertyOp19
 70
     1
102
RTVSPropertyOp20
 70
     1
102
RTVSPropertyOp21
 70
     1
102
RTVSPropertyOp22
 70
     1
102
RTVSPropertyOp23
 70
     1
102
RTVSPropertyOp24
 70
     1
102
RTVSPropertyOp25
 70
     1
102
RTVSPropertyOp26
 70
     1
102
RTVSPropertyOp27
 70
     1
102
RTVSPropertyOp28
 70
     1
102
RTVSPropertyOp29
 70
     1
102
RTVSPropertyOp30
 70
     1
102
RTVSPropertyOp31
 70
     1
102
RTVSPropertyOp32
 70
     1
102
RTVSPropertyOp33
 70
     1
102
RTVSPropertyOp34
 70
     1
102
RTVSPropertyOp35
 70
     1
102
RTVSPropertyOp36
 70
     1
102
RTVSPropertyOp37
 70
     1
102
RTVSPropertyOp38
 70
     1
102
RTVSPropertyOp39
 70
     1
102
RTVSPropertyOp40
 70
     1
102
RTVSPropertyOp41
 70
     1
102
RTVSPropertyOp42
 70
     1
102
RTVSPropertyOp43
 70
     1
102
RTVSPropertyOp44
 70
     1
102
RTVSPropertyOp45
 70
     1
102
RTVSPropertyOp46
 70
     1
102
RTVSPropertyOp47
 70
     1
102
RTVSPropertyOp48
 70
     1
102
RTVSPropertyOp49
 70
     1
102
RTVSPropertyOp50
 70
     1
102
RTVSPropertyOp51
 70
     0
102
RTVSPropertyOp52
 70
     0
102
RTVSPropertyOp53
 70
     1
102
RTVSPropertyOp54
 70
     1
102
RTVSPropertyOp55
 70
     1
102
RTVSPropertyOp56
 70
     1
102
RTVSPropertyOp57
 70
     1
102
RTVSPropertyOp58
 70
     1
102
RTVSPropertyOp59
 70
     1
102
RTVSPropertyOp60
 70
     1
102
RTVSPropertyOp61
 70
     1
102
RTVSPropertyOp62
 70
     1
  0
XRECORD
  5
1C3F
102
{ACAD_REACTORS
330
1C3E
102
}
330
1C3E
100
AcDbXrecord
280
     1
102
RTVSPost2010Prop28
280
     0
102
RTVSPost2010PropOp28
 70
     1
102
RTVSPost2010Prop29
280
     1
102
RTVSPost2010PropOp29
 70
     1
102
RTVSPost2010Prop30
280
     1
102
RTVSPost2010PropOp30
 70
     1
102
RTVSPost2010Prop31
280
     0
102
RTVSPost2010PropOp31
 70
     1
102
RTVSPost2010Prop32
280
     0
102
RTVSPost2010PropOp32
 70
     1
102
RTVSPost2010Prop33
280
     0
102
RTVSPost2010PropOp33
 70
     1
102
RTVSPost2010Prop34
280
     0
102
RTVSPost2010PropOp34
 70
     1
102
RTVSPost2010Prop35
280
     0
102
RTVSPost2010PropOp35
 70
     1
102
RTVSPost2010Prop36
280
     0
102
RTVSPost2010PropOp36
 70
     1
102
RTVSPost2010Prop37
 90
       50
102
RTVSPost2010PropOp37
 70
     1
102
RTVSPost2010Prop38
140
0.0
102
RTVSPost2010PropOp38
 70
     1
102
RTVSPost2010Prop39
140
1.0
102
RTVSPost2010PropOp39
 70
     1
102
RTVSPost2010Prop40
 90
        0
102
RTVSPost2010PropOp40
 70
     1
102
RTVSPost2010Prop41ColorIndex
 90
       18
102
RTVSPost2010Prop41ColorRGB
 90
        0
102
RTVSPost2010PropOp41
 70
     1
102
RTVSPost2010Prop42
 90
       50
102
RTVSPost2010PropOp42
 70
     1
102
RTVSPost2010Prop43
 90
        3
102
RTVSPost2010PropOp43
 70
     1
102
RTVSPost2010Prop44ColorIndex
 90
        5
102
RTVSPost2010Prop44ColorRGB
 90
      255
102
RTVSPost2010PropOp44
 70
     1
102
RTVSPost2010Prop45
280
     0
102
RTVSPost2010PropOp45
 70
     1
102
RTVSPost2010Prop46
 90
       50
102
RTVSPost2010PropOp46
 70
     1
102
RTVSPost2010Prop47
 90
       50
102
RTVSPost2010PropOp47
 70
     1
102
RTVSPost2010Prop48
 90
       50
102
RTVSPost2010PropOp48
 70
     1
102
RTVSPost2010Prop49
280
     0
102
RTVSPost2010PropOp49
 70
     1
102
RTVSPost2010Prop50
 90
       50
102
RTVSPost2010PropOp50
 70
     1
102
RTVSPost2010Prop51ColorIndex
 90
      256
102
RTVSPost2010Prop51ColorRGB
 90
-16777216
102
RTVSPost2010PropOp51
 70
     0
102
RTVSPost2010Prop52
140
1.0
102
RTVSPost2010PropOp52
 70
     0
102
RTVSPost2010Prop53
 90
        2
102
RTVSPost2010PropOp53
 70
     1
102
RTVSPost2010Prop54
  1
strokes_ogs.tif
102
RTVSPost2010PropOp54
 70
     1
102
RTVSPost2010Prop55
280
     0
102
RTVSPost2010PropOp55
 70
     1
102
RTVSPost2010Prop56
140
1.0
102
RTVSPost2010PropOp56
 70
     1
102
RTVSPost2010Prop57
140
1.0
102
RTVSPost2010PropOp57
 70
     1
102
RTVSPropertyOp0
 70
     1
102
RTVSPropertyOp1
 70
     1
102
RTVSPropertyOp2
 70
     1
102
RTVSPropertyOp3
 70
     1
102
RTVSPropertyOp4
 70
     1
102
RTVSPropertyOp5
 70
     1
102
RTVSPropertyOp6
 70
     1
102
RTVSPropertyOp7
 70
     1
102
RTVSPropertyOp8
 70
     1
102
RTVSPropertyOp9
 70
     1
102
RTVSPropertyOp10
 70
     1
102
RTVSPropertyOp11
 70
     1
102
RTVSPropertyOp12
 70
     1
102
RTVSPropertyOp13
 70
     1
102
RTVSPropertyOp14
 70
     1
102
RTVSPropertyOp15
 70
     1
102
RTVSPropertyOp16
 70
     1
102
RTVSPropertyOp17
 70
     1
102
RTVSPropertyOp18
 70
     1
102
RTVSPropertyOp19
 70
     1
102
RTVSPropertyOp20
 70
     1
102
RTVSPropertyOp21
 70
     1
102
RTVSPropertyOp22
 70
     1
102
RTVSPropertyOp23
 70
     1
102
RTVSPropertyOp24
 70
     1
102
RTVSPropertyOp25
 70
     1
102
RTVSPropertyOp26
 70
     1
102
RTVSPropertyOp27
 70
     1
102
RTVSPropertyOp28
 70
     1
102
RTVSPropertyOp29
 70
     1
102
RTVSPropertyOp30
 70
     1
102
RTVSPropertyOp31
 70
     1
102
RTVSPropertyOp32
 70
     1
102
RTVSPropertyOp33
 70
     1
102
RTVSPropertyOp34
 70
     1
102
RTVSPropertyOp35
 70
     1
102
RTVSPropertyOp36
 70
     1
102
RTVSPropertyOp37
 70
     1
102
RTVSPropertyOp38
 70
     1
102
RTVSPropertyOp39
 70
     1
102
RTVSPropertyOp40
 70
     1
102
RTVSPropertyOp41
 70
     1
102
RTVSPropertyOp42
 70
     1
102
RTVSPropertyOp43
 70
     1
102
RTVSPropertyOp44
 70
     1
102
RTVSPropertyOp45
 70
     1
102
RTVSPropertyOp46
 70
     1
102
RTVSPropertyOp47
 70
     1
102
RTVSPropertyOp48
 70
     1
102
RTVSPropertyOp49
 70
     1
102
RTVSPropertyOp50
 70
     1
102
RTVSPropertyOp51
 70
     0
102
RTVSPropertyOp52
 70
     0
102
RTVSPropertyOp53
 70
     1
102
RTVSPropertyOp54
 70
     1
102
RTVSPropertyOp55
 70
     1
102
RTVSPropertyOp56
 70
     1
102
RTVSPropertyOp57
 70
     1
102
RTVSPropertyOp58
 70
     1
102
RTVSPropertyOp59
 70
     1
102
RTVSPropertyOp60
 70
     1
102
RTVSPropertyOp61
 70
     1
102
RTVSPropertyOp62
 70
     1
  0
XRECORD
  5
1C5B
102
{ACAD_REACTORS
330
1C5A
102
}
330
1C5A
100
AcDbXrecord
280
     1
102
RTVSPost2010Prop28
280
     0
102
RTVSPost2010PropOp28
 70
     0
102
RTVSPost2010Prop29
280
     1
102
RTVSPost2010PropOp29
 70
     0
102
RTVSPost2010Prop30
280
     1
102
RTVSPost2010PropOp30
 70
     0
102
RTVSPost2010Prop31
280
     0
102
RTVSPost2010PropOp31
 70
     0
102
RTVSPost2010Prop32
280
     0
102
RTVSPost2010PropOp32
 70
     0
102
RTVSPost2010Prop33
280
     0
102
RTVSPost2010PropOp33
 70
     0
102
RTVSPost2010Prop34
280
     0
102
RTVSPost2010PropOp34
 70
     0
102
RTVSPost2010Prop35
280
     0
102
RTVSPost2010PropOp35
 70
     0
102
RTVSPost2010Prop36
280
     0
102
RTVSPost2010PropOp36
 70
     0
102
RTVSPost2010Prop37
 90
       50
102
RTVSPost2010PropOp37
 70
     0
102
RTVSPost2010Prop38
140
0.0
102
RTVSPost2010PropOp38
 70
     0
102
RTVSPost2010Prop39
140
1.0
102
RTVSPost2010PropOp39
 70
     0
102
RTVSPost2010Prop40
 90
        0
102
RTVSPost2010PropOp40
 70
     0
102
RTVSPost2010Prop41ColorIndex
 90
       18
102
RTVSPost2010Prop41ColorRGB
 90
        0
102
RTVSPost2010PropOp41
 70
     0
102
RTVSPost2010Prop42
 90
       50
102
RTVSPost2010PropOp42
 70
     0
102
RTVSPost2010Prop43
 90
        3
102
RTVSPost2010PropOp43
 70
     0
102
RTVSPost2010Prop44ColorIndex
 90
        5
102
RTVSPost2010Prop44ColorRGB
 90
      255
102
RTVSPost2010PropOp44
 70
     0
102
RTVSPost2010Prop45
280
     0
102
RTVSPost2010PropOp45
 70
     0
102
RTVSPost2010Prop46
 90
       50
102
RTVSPost2010PropOp46
 70
     0
102
RTVSPost2010Prop47
 90
       50
102
RTVSPost2010PropOp47
 70
     0
102
RTVSPost2010Prop48
 90
       50
102
RTVSPost2010PropOp48
 70
     0
102
RTVSPost2010Prop49
280
     0
102
RTVSPost2010PropOp49
 70
     0
102
RTVSPost2010Prop50
 90
       50
102
RTVSPost2010PropOp50
 70
     0
102
RTVSPost2010Prop51ColorIndex
 90
      256
102
RTVSPost2010Prop51ColorRGB
 90
-16777216
102
RTVSPost2010PropOp51
 70
     0
102
RTVSPost2010Prop52
140
1.0
102
RTVSPost2010PropOp52
 70
     0
102
RTVSPost2010Prop53
 90
        2
102
RTVSPost2010PropOp53
 70
     0
102
RTVSPost2010Prop54
  1
strokes_ogs.tif
102
RTVSPost2010PropOp54
 70
     0
102
RTVSPost2010Prop55
280
     0
102
RTVSPost2010PropOp55
 70
     0
102
RTVSPost2010Prop56
140
1.0
102
RTVSPost2010PropOp56
 70
     0
102
RTVSPost2010Prop57
140
1.0
102
RTVSPost2010PropOp57
 70
     0
102
RTVSPropertyOp0
 70
     0
102
RTVSPropertyOp1
 70
     0
102
RTVSPropertyOp2
 70
     0
102
RTVSPropertyOp3
 70
     0
102
RTVSPropertyOp4
 70
     0
102
RTVSPropertyOp5
 70
     0
102
RTVSPropertyOp6
 70
     0
102
RTVSPropertyOp7
 70
     0
102
RTVSPropertyOp8
 70
     0
102
RTVSPropertyOp9
 70
     0
102
RTVSPropertyOp10
 70
     0
102
RTVSPropertyOp11
 70
     0
102
RTVSPropertyOp12
 70
     0
102
RTVSPropertyOp13
 70
     0
102
RTVSPropertyOp14
 70
     2
102
RTVSPropertyOp15
 70
     0
102
RTVSPropertyOp16
 70
     0
102
RTVSPropertyOp17
 70
     0
102
RTVSPropertyOp18
 70
     0
102
RTVSPropertyOp19
 70
     0
102
RTVSPropertyOp20
 70
     0
102
RTVSPropertyOp21
 70
     0
102
RTVSPropertyOp22
 70
     0
102
RTVSPropertyOp23
 70
     0
102
RTVSPropertyOp24
 70
     0
102
RTVSPropertyOp25
 70
     0
102
RTVSPropertyOp26
 70
     0
102
RTVSPropertyOp27
 70
     0
102
RTVSPropertyOp28
 70
     0
102
RTVSPropertyOp29
 70
     0
102
RTVSPropertyOp30
 70
     0
102
RTVSPropertyOp31
 70
     0
102
RTVSPropertyOp32
 70
     0
102
RTVSPropertyOp33
 70
     0
102
RTVSPropertyOp34
 70
     0
102
RTVSPropertyOp35
 70
     0
102
RTVSPropertyOp36
 70
     0
102
RTVSPropertyOp37
 70
     0
102
RTVSPropertyOp38
 70
     0
102
RTVSPropertyOp39
 70
     0
102
RTVSPropertyOp40
 70
     0
102
RTVSPropertyOp41
 70
     0
102
RTVSPropertyOp42
 70
     0
102
RTVSPropertyOp43
 70
     0
102
RTVSPropertyOp44
 70
     0
102
RTVSPropertyOp45
 70
     0
102
RTVSPropertyOp46
 70
     0
102
RTVSPropertyOp47
 70
     0
102
RTVSPropertyOp48
 70
     0
102
RTVSPropertyOp49
 70
     0
102
RTVSPropertyOp50
 70
     0
102
RTVSPropertyOp51
 70
     0
102
RTVSPropertyOp52
 70
     0
102
RTVSPropertyOp53
 70
     0
102
RTVSPropertyOp54
 70
     0
102
RTVSPropertyOp55
 70
     0
102
RTVSPropertyOp56
 70
     0
102
RTVSPropertyOp57
 70
     0
102
RTVSPropertyOp58
 70
     0
102
RTVSPropertyOp59
 70
     0
102
RTVSPropertyOp60
 70
     0
102
RTVSPropertyOp61
 70
     0
102
RTVSPropertyOp62
 70
     0
  0
XRECORD
  5
1C4B
102
{ACAD_REACTORS
330
1C4A
102
}
330
1C4A
100
AcDbXrecord
280
     1
102
RTVSPost2010Prop28
280
     0
102
RTVSPost2010PropOp28
 70
     1
102
RTVSPost2010Prop29
280
     1
102
RTVSPost2010PropOp29
 70
     1
102
RTVSPost2010Prop30
280
     1
102
RTVSPost2010PropOp30
 70
     1
102
RTVSPost2010Prop31
280
     0
102
RTVSPost2010PropOp31
 70
     1
102
RTVSPost2010Prop32
280
     0
102
RTVSPost2010PropOp32
 70
     1
102
RTVSPost2010Prop33
280
     0
102
RTVSPost2010PropOp33
 70
     1
102
RTVSPost2010Prop34
280
     0
102
RTVSPost2010PropOp34
 70
     1
102
RTVSPost2010Prop35
280
     0
102
RTVSPost2010PropOp35
 70
     1
102
RTVSPost2010Prop36
280
     0
102
RTVSPost2010PropOp36
 70
     1
102
RTVSPost2010Prop37
 90
       50
102
RTVSPost2010PropOp37
 70
     1
102
RTVSPost2010Prop38
140
0.0
102
RTVSPost2010PropOp38
 70
     1
102
RTVSPost2010Prop39
140
1.0
102
RTVSPost2010PropOp39
 70
     1
102
RTVSPost2010Prop40
 90
        0
102
RTVSPost2010PropOp40
 70
     1
102
RTVSPost2010Prop41ColorIndex
 90
       18
102
RTVSPost2010Prop41ColorRGB
 90
        0
102
RTVSPost2010PropOp41
 70
     1
102
RTVSPost2010Prop42
 90
       50
102
RTVSPost2010PropOp42
 70
     1
102
RTVSPost2010Prop43
 90
        3
102
RTVSPost2010PropOp43
 70
     1
102
RTVSPost2010Prop44ColorIndex
 90
        5
102
RTVSPost2010Prop44ColorRGB
 90
      255
102
RTVSPost2010PropOp44
 70
     1
102
RTVSPost2010Prop45
280
     0
102
RTVSPost2010PropOp45
 70
     1
102
RTVSPost2010Prop46
 90
       50
102
RTVSPost2010PropOp46
 70
     1
102
RTVSPost2010Prop47
 90
       50
102
RTVSPost2010PropOp47
 70
     1
102
RTVSPost2010Prop48
 90
       50
102
RTVSPost2010PropOp48
 70
     1
102
RTVSPost2010Prop49
280
     0
102
RTVSPost2010PropOp49
 70
     1
102
RTVSPost2010Prop50
 90
       50
102
RTVSPost2010PropOp50
 70
     1
102
RTVSPost2010Prop51ColorIndex
 90
      256
102
RTVSPost2010Prop51ColorRGB
 90
-16777216
102
RTVSPost2010PropOp51
 70
     0
102
RTVSPost2010Prop52
140
1.0
102
RTVSPost2010PropOp52
 70
     0
102
RTVSPost2010Prop53
 90
        2
102
RTVSPost2010PropOp53
 70
     1
102
RTVSPost2010Prop54
  1
strokes_ogs.tif
102
RTVSPost2010PropOp54
 70
     1
102
RTVSPost2010Prop55
280
     0
102
RTVSPost2010PropOp55
 70
     1
102
RTVSPost2010Prop56
140
1.0
102
RTVSPost2010PropOp56
 70
     1
102
RTVSPost2010Prop57
140
1.0
102
RTVSPost2010PropOp57
 70
     1
102
RTVSPropertyOp0
 70
     1
102
RTVSPropertyOp1
 70
     1
102
RTVSPropertyOp2
 70
     1
102
RTVSPropertyOp3
 70
     1
102
RTVSPropertyOp4
 70
     1
102
RTVSPropertyOp5
 70
     1
102
RTVSPropertyOp6
 70
     1
102
RTVSPropertyOp7
 70
     1
102
RTVSPropertyOp8
 70
     1
102
RTVSPropertyOp9
 70
     1
102
RTVSPropertyOp10
 70
     1
102
RTVSPropertyOp11
 70
     1
102
RTVSPropertyOp12
 70
     1
102
RTVSPropertyOp13
 70
     1
102
RTVSPropertyOp14
 70
     1
102
RTVSPropertyOp15
 70
     1
102
RTVSPropertyOp16
 70
     1
102
RTVSPropertyOp17
 70
     1
102
RTVSPropertyOp18
 70
     1
102
RTVSPropertyOp19
 70
     1
102
RTVSPropertyOp20
 70
     1
102
RTVSPropertyOp21
 70
     1
102
RTVSPropertyOp22
 70
     1
102
RTVSPropertyOp23
 70
     1
102
RTVSPropertyOp24
 70
     1
102
RTVSPropertyOp25
 70
     1
102
RTVSPropertyOp26
 70
     1
102
RTVSPropertyOp27
 70
     1
102
RTVSPropertyOp28
 70
     1
102
RTVSPropertyOp29
 70
     1
102
RTVSPropertyOp30
 70
     1
102
RTVSPropertyOp31
 70
     1
102
RTVSPropertyOp32
 70
     1
102
RTVSPropertyOp33
 70
     1
102
RTVSPropertyOp34
 70
     1
102
RTVSPropertyOp35
 70
     1
102
RTVSPropertyOp36
 70
     1
102
RTVSPropertyOp37
 70
     1
102
RTVSPropertyOp38
 70
     1
102
RTVSPropertyOp39
 70
     1
102
RTVSPropertyOp40
 70
     1
102
RTVSPropertyOp41
 70
     1
102
RTVSPropertyOp42
 70
     1
102
RTVSPropertyOp43
 70
     1
102
RTVSPropertyOp44
 70
     1
102
RTVSPropertyOp45
 70
     1
102
RTVSPropertyOp46
 70
     1
102
RTVSPropertyOp47
 70
     1
102
RTVSPropertyOp48
 70
     1
102
RTVSPropertyOp49
 70
     1
102
RTVSPropertyOp50
 70
     1
102
RTVSPropertyOp51
 70
     0
102
RTVSPropertyOp52
 70
     0
102
RTVSPropertyOp53
 70
     1
102
RTVSPropertyOp54
 70
     1
102
RTVSPropertyOp55
 70
     1
102
RTVSPropertyOp56
 70
     1
102
RTVSPropertyOp57
 70
     1
102
RTVSPropertyOp58
 70
     1
102
RTVSPropertyOp59
 70
     1
102
RTVSPropertyOp60
 70
     1
102
RTVSPropertyOp61
 70
     1
102
RTVSPropertyOp62
 70
     1
  0
XRECORD
  5
1C5D
102
{ACAD_REACTORS
330
1C5C
102
}
330
1C5C
100
AcDbXrecord
280
     1
102
RTVSPost2010Prop28
280
     0
102
RTVSPost2010PropOp28
 70
     0
102
RTVSPost2010Prop29
280
     1
102
RTVSPost2010PropOp29
 70
     0
102
RTVSPost2010Prop30
280
     1
102
RTVSPost2010PropOp30
 70
     0
102
RTVSPost2010Prop31
280
     0
102
RTVSPost2010PropOp31
 70
     0
102
RTVSPost2010Prop32
280
     0
102
RTVSPost2010PropOp32
 70
     0
102
RTVSPost2010Prop33
280
     0
102
RTVSPost2010PropOp33
 70
     0
102
RTVSPost2010Prop34
280
     0
102
RTVSPost2010PropOp34
 70
     0
102
RTVSPost2010Prop35
280
     0
102
RTVSPost2010PropOp35
 70
     0
102
RTVSPost2010Prop36
280
     0
102
RTVSPost2010PropOp36
 70
     0
102
RTVSPost2010Prop37
 90
       50
102
RTVSPost2010PropOp37
 70
     0
102
RTVSPost2010Prop38
140
0.0
102
RTVSPost2010PropOp38
 70
     0
102
RTVSPost2010Prop39
140
1.0
102
RTVSPost2010PropOp39
 70
     0
102
RTVSPost2010Prop40
 90
        0
102
RTVSPost2010PropOp40
 70
     0
102
RTVSPost2010Prop41ColorIndex
 90
       18
102
RTVSPost2010Prop41ColorRGB
 90
        0
102
RTVSPost2010PropOp41
 70
     0
102
RTVSPost2010Prop42
 90
       50
102
RTVSPost2010PropOp42
 70
     0
102
RTVSPost2010Prop43
 90
        3
102
RTVSPost2010PropOp43
 70
     0
102
RTVSPost2010Prop44ColorIndex
 90
        5
102
RTVSPost2010Prop44ColorRGB
 90
      255
102
RTVSPost2010PropOp44
 70
     0
102
RTVSPost2010Prop45
280
     0
102
RTVSPost2010PropOp45
 70
     0
102
RTVSPost2010Prop46
 90
       50
102
RTVSPost2010PropOp46
 70
     0
102
RTVSPost2010Prop47
 90
       50
102
RTVSPost2010PropOp47
 70
     0
102
RTVSPost2010Prop48
 90
       50
102
RTVSPost2010PropOp48
 70
     0
102
RTVSPost2010Prop49
280
     0
102
RTVSPost2010PropOp49
 70
     0
102
RTVSPost2010Prop50
 90
       50
102
RTVSPost2010PropOp50
 70
     0
102
RTVSPost2010Prop51ColorIndex
 90
      256
102
RTVSPost2010Prop51ColorRGB
 90
-16777216
102
RTVSPost2010PropOp51
 70
     0
102
RTVSPost2010Prop52
140
1.0
102
RTVSPost2010PropOp52
 70
     0
102
RTVSPost2010Prop53
 90
        2
102
RTVSPost2010PropOp53
 70
     0
102
RTVSPost2010Prop54
  1
strokes_ogs.tif
102
RTVSPost2010PropOp54
 70
     0
102
RTVSPost2010Prop55
280
     0
102
RTVSPost2010PropOp55
 70
     0
102
RTVSPost2010Prop56
140
1.0
102
RTVSPost2010PropOp56
 70
     0
102
RTVSPost2010Prop57
140
1.0
102
RTVSPost2010PropOp57
 70
     0
102
RTVSPropertyOp0
 70
     0
102
RTVSPropertyOp1
 70
     0
102
RTVSPropertyOp2
 70
     0
102
RTVSPropertyOp3
 70
     0
102
RTVSPropertyOp4
 70
     0
102
RTVSPropertyOp5
 70
     0
102
RTVSPropertyOp6
 70
     0
102
RTVSPropertyOp7
 70
     0
102
RTVSPropertyOp8
 70
     0
102
RTVSPropertyOp9
 70
     0
102
RTVSPropertyOp10
 70
     0
102
RTVSPropertyOp11
 70
     0
102
RTVSPropertyOp12
 70
     0
102
RTVSPropertyOp13
 70
     0
102
RTVSPropertyOp14
 70
     2
102
RTVSPropertyOp15
 70
     0
102
RTVSPropertyOp16
 70
     0
102
RTVSPropertyOp17
 70
     0
102
RTVSPropertyOp18
 70
     0
102
RTVSPropertyOp19
 70
     0
102
RTVSPropertyOp20
 70
     0
102
RTVSPropertyOp21
 70
     0
102
RTVSPropertyOp22
 70
     0
102
RTVSPropertyOp23
 70
     0
102
RTVSPropertyOp24
 70
     0
102
RTVSPropertyOp25
 70
     0
102
RTVSPropertyOp26
 70
     0
102
RTVSPropertyOp27
 70
     0
102
RTVSPropertyOp28
 70
     0
102
RTVSPropertyOp29
 70
     0
102
RTVSPropertyOp30
 70
     0
102
RTVSPropertyOp31
 70
     0
102
RTVSPropertyOp32
 70
     0
102
RTVSPropertyOp33
 70
     0
102
RTVSPropertyOp34
 70
     0
102
RTVSPropertyOp35
 70
     0
102
RTVSPropertyOp36
 70
     0
102
RTVSPropertyOp37
 70
     0
102
RTVSPropertyOp38
 70
     0
102
RTVSPropertyOp39
 70
     0
102
RTVSPropertyOp40
 70
     0
102
RTVSPropertyOp41
 70
     0
102
RTVSPropertyOp42
 70
     0
102
RTVSPropertyOp43
 70
     0
102
RTVSPropertyOp44
 70
     0
102
RTVSPropertyOp45
 70
     0
102
RTVSPropertyOp46
 70
     0
102
RTVSPropertyOp47
 70
     0
102
RTVSPropertyOp48
 70
     0
102
RTVSPropertyOp49
 70
     0
102
RTVSPropertyOp50
 70
     0
102
RTVSPropertyOp51
 70
     0
102
RTVSPropertyOp52
 70
     0
102
RTVSPropertyOp53
 70
     0
102
RTVSPropertyOp54
 70
     0
102
RTVSPropertyOp55
 70
     0
102
RTVSPropertyOp56
 70
     0
102
RTVSPropertyOp57
 70
     0
102
RTVSPropertyOp58
 70
     0
102
RTVSPropertyOp59
 70
     0
102
RTVSPropertyOp60
 70
     0
102
RTVSPropertyOp61
 70
     0
102
RTVSPropertyOp62
 70
     0
  0
XRECORD
  5
1C43
102
{ACAD_REACTORS
330
1C42
102
}
330
1C42
100
AcDbXrecord
280
     1
102
RTVSPost2010Prop28
280
     0
102
RTVSPost2010PropOp28
 70
     1
102
RTVSPost2010Prop29
280
     1
102
RTVSPost2010PropOp29
 70
     1
102
RTVSPost2010Prop30
280
     1
102
RTVSPost2010PropOp30
 70
     1
102
RTVSPost2010Prop31
280
     0
102
RTVSPost2010PropOp31
 70
     1
102
RTVSPost2010Prop32
280
     0
102
RTVSPost2010PropOp32
 70
     1
102
RTVSPost2010Prop33
280
     0
102
RTVSPost2010PropOp33
 70
     1
102
RTVSPost2010Prop34
280
     0
102
RTVSPost2010PropOp34
 70
     1
102
RTVSPost2010Prop35
280
     0
102
RTVSPost2010PropOp35
 70
     1
102
RTVSPost2010Prop36
280
     0
102
RTVSPost2010PropOp36
 70
     1
102
RTVSPost2010Prop37
 90
       50
102
RTVSPost2010PropOp37
 70
     1
102
RTVSPost2010Prop38
140
0.0
102
RTVSPost2010PropOp38
 70
     1
102
RTVSPost2010Prop39
140
1.0
102
RTVSPost2010PropOp39
 70
     1
102
RTVSPost2010Prop40
 90
        0
102
RTVSPost2010PropOp40
 70
     1
102
RTVSPost2010Prop41ColorIndex
 90
       18
102
RTVSPost2010Prop41ColorRGB
 90
        0
102
RTVSPost2010PropOp41
 70
     1
102
RTVSPost2010Prop42
 90
       50
102
RTVSPost2010PropOp42
 70
     1
102
RTVSPost2010Prop43
 90
        3
102
RTVSPost2010PropOp43
 70
     1
102
RTVSPost2010Prop44ColorIndex
 90
        5
102
RTVSPost2010Prop44ColorRGB
 90
      255
102
RTVSPost2010PropOp44
 70
     1
102
RTVSPost2010Prop45
280
     0
102
RTVSPost2010PropOp45
 70
     1
102
RTVSPost2010Prop46
 90
       50
102
RTVSPost2010PropOp46
 70
     1
102
RTVSPost2010Prop47
 90
       50
102
RTVSPost2010PropOp47
 70
     1
102
RTVSPost2010Prop48
 90
       50
102
RTVSPost2010PropOp48
 70
     1
102
RTVSPost2010Prop49
280
     0
102
RTVSPost2010PropOp49
 70
     1
102
RTVSPost2010Prop50
 90
       50
102
RTVSPost2010PropOp50
 70
     1
102
RTVSPost2010Prop51ColorIndex
 90
      256
102
RTVSPost2010Prop51ColorRGB
 90
-16777216
102
RTVSPost2010PropOp51
 70
     0
102
RTVSPost2010Prop52
140
1.0
102
RTVSPost2010PropOp52
 70
     0
102
RTVSPost2010Prop53
 90
        2
102
RTVSPost2010PropOp53
 70
     1
102
RTVSPost2010Prop54
  1
strokes_ogs.tif
102
RTVSPost2010PropOp54
 70
     1
102
RTVSPost2010Prop55
280
     0
102
RTVSPost2010PropOp55
 70
     1
102
RTVSPost2010Prop56
140
1.0
102
RTVSPost2010PropOp56
 70
     1
102
RTVSPost2010Prop57
140
1.0
102
RTVSPost2010PropOp57
 70
     1
102
RTVSPropertyOp0
 70
     1
102
RTVSPropertyOp1
 70
     1
102
RTVSPropertyOp2
 70
     1
102
RTVSPropertyOp3
 70
     1
102
RTVSPropertyOp4
 70
     1
102
RTVSPropertyOp5
 70
     1
102
RTVSPropertyOp6
 70
     1
102
RTVSPropertyOp7
 70
     1
102
RTVSPropertyOp8
 70
     1
102
RTVSPropertyOp9
 70
     1
102
RTVSPropertyOp10
 70
     1
102
RTVSPropertyOp11
 70
     1
102
RTVSPropertyOp12
 70
     1
102
RTVSPropertyOp13
 70
     1
102
RTVSPropertyOp14
 70
     1
102
RTVSPropertyOp15
 70
     1
102
RTVSPropertyOp16
 70
     1
102
RTVSPropertyOp17
 70
     1
102
RTVSPropertyOp18
 70
     1
102
RTVSPropertyOp19
 70
     1
102
RTVSPropertyOp20
 70
     1
102
RTVSPropertyOp21
 70
     1
102
RTVSPropertyOp22
 70
     1
102
RTVSPropertyOp23
 70
     1
102
RTVSPropertyOp24
 70
     1
102
RTVSPropertyOp25
 70
     1
102
RTVSPropertyOp26
 70
     1
102
RTVSPropertyOp27
 70
     1
102
RTVSPropertyOp28
 70
     1
102
RTVSPropertyOp29
 70
     1
102
RTVSPropertyOp30
 70
     1
102
RTVSPropertyOp31
 70
     1
102
RTVSPropertyOp32
 70
     1
102
RTVSPropertyOp33
 70
     1
102
RTVSPropertyOp34
 70
     1
102
RTVSPropertyOp35
 70
     1
102
RTVSPropertyOp36
 70
     1
102
RTVSPropertyOp37
 70
     1
102
RTVSPropertyOp38
 70
     1
102
RTVSPropertyOp39
 70
     1
102
RTVSPropertyOp40
 70
     1
102
RTVSPropertyOp41
 70
     1
102
RTVSPropertyOp42
 70
     1
102
RTVSPropertyOp43
 70
     1
102
RTVSPropertyOp44
 70
     1
102
RTVSPropertyOp45
 70
     1
102
RTVSPropertyOp46
 70
     1
102
RTVSPropertyOp47
 70
     1
102
RTVSPropertyOp48
 70
     1
102
RTVSPropertyOp49
 70
     1
102
RTVSPropertyOp50
 70
     1
102
RTVSPropertyOp51
 70
     0
102
RTVSPropertyOp52
 70
     0
102
RTVSPropertyOp53
 70
     1
102
RTVSPropertyOp54
 70
     1
102
RTVSPropertyOp55
 70
     1
102
RTVSPropertyOp56
 70
     1
102
RTVSPropertyOp57
 70
     1
102
RTVSPropertyOp58
 70
     1
102
RTVSPropertyOp59
 70
     1
102
RTVSPropertyOp60
 70
     1
102
RTVSPropertyOp61
 70
     1
102
RTVSPropertyOp62
 70
     1
  0
XRECORD
  5
1C59
102
{ACAD_REACTORS
330
1C58
102
}
330
1C58
100
AcDbXrecord
280
     1
102
RTVSPost2010Prop28
280
     0
102
RTVSPost2010PropOp28
 70
     1
102
RTVSPost2010Prop29
280
     1
102
RTVSPost2010PropOp29
 70
     1
102
RTVSPost2010Prop30
280
     1
102
RTVSPost2010PropOp30
 70
     1
102
RTVSPost2010Prop31
280
     0
102
RTVSPost2010PropOp31
 70
     1
102
RTVSPost2010Prop32
280
     0
102
RTVSPost2010PropOp32
 70
     1
102
RTVSPost2010Prop33
280
     0
102
RTVSPost2010PropOp33
 70
     1
102
RTVSPost2010Prop34
280
     0
102
RTVSPost2010PropOp34
 70
     1
102
RTVSPost2010Prop35
280
     0
102
RTVSPost2010PropOp35
 70
     1
102
RTVSPost2010Prop36
280
     0
102
RTVSPost2010PropOp36
 70
     1
102
RTVSPost2010Prop37
 90
       50
102
RTVSPost2010PropOp37
 70
     1
102
RTVSPost2010Prop38
140
0.0
102
RTVSPost2010PropOp38
 70
     1
102
RTVSPost2010Prop39
140
1.0
102
RTVSPost2010PropOp39
 70
     1
102
RTVSPost2010Prop40
 90
        0
102
RTVSPost2010PropOp40
 70
     1
102
RTVSPost2010Prop41ColorIndex
 90
       18
102
RTVSPost2010Prop41ColorRGB
 90
        0
102
RTVSPost2010PropOp41
 70
     1
102
RTVSPost2010Prop42
 90
       50
102
RTVSPost2010PropOp42
 70
     1
102
RTVSPost2010Prop43
 90
        3
102
RTVSPost2010PropOp43
 70
     1
102
RTVSPost2010Prop44ColorIndex
 90
        5
102
RTVSPost2010Prop44ColorRGB
 90
      255
102
RTVSPost2010PropOp44
 70
     1
102
RTVSPost2010Prop45
280
     0
102
RTVSPost2010PropOp45
 70
     1
102
RTVSPost2010Prop46
 90
       50
102
RTVSPost2010PropOp46
 70
     1
102
RTVSPost2010Prop47
 90
       50
102
RTVSPost2010PropOp47
 70
     1
102
RTVSPost2010Prop48
 90
       50
102
RTVSPost2010PropOp48
 70
     1
102
RTVSPost2010Prop49
280
     0
102
RTVSPost2010PropOp49
 70
     1
102
RTVSPost2010Prop50
 90
       50
102
RTVSPost2010PropOp50
 70
     1
102
RTVSPost2010Prop51ColorIndex
 90
      256
102
RTVSPost2010Prop51ColorRGB
 90
-16777216
102
RTVSPost2010PropOp51
 70
     0
102
RTVSPost2010Prop52
140
1.0
102
RTVSPost2010PropOp52
 70
     0
102
RTVSPost2010Prop53
 90
        2
102
RTVSPost2010PropOp53
 70
     1
102
RTVSPost2010Prop54
  1
strokes_ogs.tif
102
RTVSPost2010PropOp54
 70
     1
102
RTVSPost2010Prop55
280
     0
102
RTVSPost2010PropOp55
 70
     1
102
RTVSPost2010Prop56
140
1.0
102
RTVSPost2010PropOp56
 70
     1
102
RTVSPost2010Prop57
140
1.0
102
RTVSPost2010PropOp57
 70
     1
102
RTVSPropertyOp0
 70
     1
102
RTVSPropertyOp1
 70
     1
102
RTVSPropertyOp2
 70
     1
102
RTVSPropertyOp3
 70
     1
102
RTVSPropertyOp4
 70
     1
102
RTVSPropertyOp5
 70
     1
102
RTVSPropertyOp6
 70
     1
102
RTVSPropertyOp7
 70
     1
102
RTVSPropertyOp8
 70
     1
102
RTVSPropertyOp9
 70
     1
102
RTVSPropertyOp10
 70
     1
102
RTVSPropertyOp11
 70
     1
102
RTVSPropertyOp12
 70
     1
102
RTVSPropertyOp13
 70
     1
102
RTVSPropertyOp14
 70
     1
102
RTVSPropertyOp15
 70
     1
102
RTVSPropertyOp16
 70
     1
102
RTVSPropertyOp17
 70
     1
102
RTVSPropertyOp18
 70
     1
102
RTVSPropertyOp19
 70
     1
102
RTVSPropertyOp20
 70
     1
102
RTVSPropertyOp21
 70
     1
102
RTVSPropertyOp22
 70
     1
102
RTVSPropertyOp23
 70
     1
102
RTVSPropertyOp24
 70
     1
102
RTVSPropertyOp25
 70
     1
102
RTVSPropertyOp26
 70
     1
102
RTVSPropertyOp27
 70
     1
102
RTVSPropertyOp28
 70
     1
102
RTVSPropertyOp29
 70
     1
102
RTVSPropertyOp30
 70
     1
102
RTVSPropertyOp31
 70
     1
102
RTVSPropertyOp32
 70
     1
102
RTVSPropertyOp33
 70
     1
102
RTVSPropertyOp34
 70
     1
102
RTVSPropertyOp35
 70
     1
102
RTVSPropertyOp36
 70
     1
102
RTVSPropertyOp37
 70
     1
102
RTVSPropertyOp38
 70
     1
102
RTVSPropertyOp39
 70
     1
102
RTVSPropertyOp40
 70
     1
102
RTVSPropertyOp41
 70
     1
102
RTVSPropertyOp42
 70
     1
102
RTVSPropertyOp43
 70
     1
102
RTVSPropertyOp44
 70
     1
102
RTVSPropertyOp45
 70
     1
102
RTVSPropertyOp46
 70
     1
102
RTVSPropertyOp47
 70
     1
102
RTVSPropertyOp48
 70
     1
102
RTVSPropertyOp49
 70
     1
102
RTVSPropertyOp50
 70
     1
102
RTVSPropertyOp51
 70
     0
102
RTVSPropertyOp52
 70
     0
102
RTVSPropertyOp53
 70
     1
102
RTVSPropertyOp54
 70
     1
102
RTVSPropertyOp55
 70
     1
102
RTVSPropertyOp56
 70
     1
102
RTVSPropertyOp57
 70
     1
102
RTVSPropertyOp58
 70
     1
102
RTVSPropertyOp59
 70
     1
102
RTVSPropertyOp60
 70
     1
102
RTVSPropertyOp61
 70
     1
102
RTVSPropertyOp62
 70
     1
  0
XRECORD
  5
1C57
102
{ACAD_REACTORS
330
1C56
102
}
330
1C56
100
AcDbXrecord
280
     1
102
RTVSPost2010Prop28
280
     0
102
RTVSPost2010PropOp28
 70
     1
102
RTVSPost2010Prop29
280
     1
102
RTVSPost2010PropOp29
 70
     1
102
RTVSPost2010Prop30
280
     1
102
RTVSPost2010PropOp30
 70
     1
102
RTVSPost2010Prop31
280
     0
102
RTVSPost2010PropOp31
 70
     1
102
RTVSPost2010Prop32
280
     0
102
RTVSPost2010PropOp32
 70
     1
102
RTVSPost2010Prop33
280
     0
102
RTVSPost2010PropOp33
 70
     1
102
RTVSPost2010Prop34
280
     0
102
RTVSPost2010PropOp34
 70
     1
102
RTVSPost2010Prop35
280
     0
102
RTVSPost2010PropOp35
 70
     1
102
RTVSPost2010Prop36
280
     0
102
RTVSPost2010PropOp36
 70
     1
102
RTVSPost2010Prop37
 90
       50
102
RTVSPost2010PropOp37
 70
     1
102
RTVSPost2010Prop38
140
0.0
102
RTVSPost2010PropOp38
 70
     1
102
RTVSPost2010Prop39
140
1.0
102
RTVSPost2010PropOp39
 70
     1
102
RTVSPost2010Prop40
 90
        0
102
RTVSPost2010PropOp40
 70
     1
102
RTVSPost2010Prop41ColorIndex
 90
       18
102
RTVSPost2010Prop41ColorRGB
 90
        0
102
RTVSPost2010PropOp41
 70
     1
102
RTVSPost2010Prop42
 90
       50
102
RTVSPost2010PropOp42
 70
     1
102
RTVSPost2010Prop43
 90
        3
102
RTVSPost2010PropOp43
 70
     1
102
RTVSPost2010Prop44ColorIndex
 90
        5
102
RTVSPost2010Prop44ColorRGB
 90
      255
102
RTVSPost2010PropOp44
 70
     1
102
RTVSPost2010Prop45
280
     0
102
RTVSPost2010PropOp45
 70
     1
102
RTVSPost2010Prop46
 90
       50
102
RTVSPost2010PropOp46
 70
     1
102
RTVSPost2010Prop47
 90
       50
102
RTVSPost2010PropOp47
 70
     1
102
RTVSPost2010Prop48
 90
       50
102
RTVSPost2010PropOp48
 70
     1
102
RTVSPost2010Prop49
280
     0
102
RTVSPost2010PropOp49
 70
     1
102
RTVSPost2010Prop50
 90
       50
102
RTVSPost2010PropOp50
 70
     1
102
RTVSPost2010Prop51ColorIndex
 90
      256
102
RTVSPost2010Prop51ColorRGB
 90
-16777216
102
RTVSPost2010PropOp51
 70
     0
102
RTVSPost2010Prop52
140
1.0
102
RTVSPost2010PropOp52
 70
     0
102
RTVSPost2010Prop53
 90
        2
102
RTVSPost2010PropOp53
 70
     1
102
RTVSPost2010Prop54
  1
strokes_ogs.tif
102
RTVSPost2010PropOp54
 70
     1
102
RTVSPost2010Prop55
280
     0
102
RTVSPost2010PropOp55
 70
     1
102
RTVSPost2010Prop56
140
1.0
102
RTVSPost2010PropOp56
 70
     1
102
RTVSPost2010Prop57
140
1.0
102
RTVSPost2010PropOp57
 70
     1
102
RTVSPropertyOp0
 70
     1
102
RTVSPropertyOp1
 70
     1
102
RTVSPropertyOp2
 70
     1
102
RTVSPropertyOp3
 70
     1
102
RTVSPropertyOp4
 70
     1
102
RTVSPropertyOp5
 70
     1
102
RTVSPropertyOp6
 70
     1
102
RTVSPropertyOp7
 70
     1
102
RTVSPropertyOp8
 70
     1
102
RTVSPropertyOp9
 70
     1
102
RTVSPropertyOp10
 70
     1
102
RTVSPropertyOp11
 70
     1
102
RTVSPropertyOp12
 70
     1
102
RTVSPropertyOp13
 70
     1
102
RTVSPropertyOp14
 70
     1
102
RTVSPropertyOp15
 70
     1
102
RTVSPropertyOp16
 70
     1
102
RTVSPropertyOp17
 70
     1
102
RTVSPropertyOp18
 70
     1
102
RTVSPropertyOp19
 70
     1
102
RTVSPropertyOp20
 70
     1
102
RTVSPropertyOp21
 70
     1
102
RTVSPropertyOp22
 70
     1
102
RTVSPropertyOp23
 70
     1
102
RTVSPropertyOp24
 70
     1
102
RTVSPropertyOp25
 70
     1
102
RTVSPropertyOp26
 70
     1
102
RTVSPropertyOp27
 70
     1
102
RTVSPropertyOp28
 70
     1
102
RTVSPropertyOp29
 70
     1
102
RTVSPropertyOp30
 70
     1
102
RTVSPropertyOp31
 70
     1
102
RTVSPropertyOp32
 70
     1
102
RTVSPropertyOp33
 70
     1
102
RTVSPropertyOp34
 70
     1
102
RTVSPropertyOp35
 70
     1
102
RTVSPropertyOp36
 70
     1
102
RTVSPropertyOp37
 70
     1
102
RTVSPropertyOp38
 70
     1
102
RTVSPropertyOp39
 70
     1
102
RTVSPropertyOp40
 70
     1
102
RTVSPropertyOp41
 70
     1
102
RTVSPropertyOp42
 70
     1
102
RTVSPropertyOp43
 70
     1
102
RTVSPropertyOp44
 70
     1
102
RTVSPropertyOp45
 70
     1
102
RTVSPropertyOp46
 70
     1
102
RTVSPropertyOp47
 70
     1
102
RTVSPropertyOp48
 70
     1
102
RTVSPropertyOp49
 70
     1
102
RTVSPropertyOp50
 70
     1
102
RTVSPropertyOp51
 70
     0
102
RTVSPropertyOp52
 70
     0
102
RTVSPropertyOp53
 70
     1
102
RTVSPropertyOp54
 70
     1
102
RTVSPropertyOp55
 70
     1
102
RTVSPropertyOp56
 70
     1
102
RTVSPropertyOp57
 70
     1
102
RTVSPropertyOp58
 70
     1
102
RTVSPropertyOp59
 70
     1
102
RTVSPropertyOp60
 70
     1
102
RTVSPropertyOp61
 70
     1
102
RTVSPropertyOp62
 70
     1
  0
XRECORD
  5
1C51
102
{ACAD_REACTORS
330
1C50
102
}
330
1C50
100
AcDbXrecord
280
     1
102
RTVSPost2010Prop28
280
     0
102
RTVSPost2010PropOp28
 70
     1
102
RTVSPost2010Prop29
280
     1
102
RTVSPost2010PropOp29
 70
     1
102
RTVSPost2010Prop30
280
     1
102
RTVSPost2010PropOp30
 70
     1
102
RTVSPost2010Prop31
280
     0
102
RTVSPost2010PropOp31
 70
     1
102
RTVSPost2010Prop32
280
     0
102
RTVSPost2010PropOp32
 70
     1
102
RTVSPost2010Prop33
280
     0
102
RTVSPost2010PropOp33
 70
     1
102
RTVSPost2010Prop34
280
     0
102
RTVSPost2010PropOp34
 70
     1
102
RTVSPost2010Prop35
280
     0
102
RTVSPost2010PropOp35
 70
     1
102
RTVSPost2010Prop36
280
     0
102
RTVSPost2010PropOp36
 70
     1
102
RTVSPost2010Prop37
 90
       50
102
RTVSPost2010PropOp37
 70
     1
102
RTVSPost2010Prop38
140
0.0
102
RTVSPost2010PropOp38
 70
     1
102
RTVSPost2010Prop39
140
1.0
102
RTVSPost2010PropOp39
 70
     1
102
RTVSPost2010Prop40
 90
        0
102
RTVSPost2010PropOp40
 70
     1
102
RTVSPost2010Prop41ColorIndex
 90
       18
102
RTVSPost2010Prop41ColorRGB
 90
        0
102
RTVSPost2010PropOp41
 70
     1
102
RTVSPost2010Prop42
 90
       50
102
RTVSPost2010PropOp42
 70
     1
102
RTVSPost2010Prop43
 90
        3
102
RTVSPost2010PropOp43
 70
     1
102
RTVSPost2010Prop44ColorIndex
 90
        5
102
RTVSPost2010Prop44ColorRGB
 90
      255
102
RTVSPost2010PropOp44
 70
     1
102
RTVSPost2010Prop45
280
     0
102
RTVSPost2010PropOp45
 70
     1
102
RTVSPost2010Prop46
 90
       50
102
RTVSPost2010PropOp46
 70
     1
102
RTVSPost2010Prop47
 90
       50
102
RTVSPost2010PropOp47
 70
     1
102
RTVSPost2010Prop48
 90
       50
102
RTVSPost2010PropOp48
 70
     1
102
RTVSPost2010Prop49
280
     0
102
RTVSPost2010PropOp49
 70
     1
102
RTVSPost2010Prop50
 90
       50
102
RTVSPost2010PropOp50
 70
     1
102
RTVSPost2010Prop51ColorIndex
 90
      256
102
RTVSPost2010Prop51ColorRGB
 90
-16777216
102
RTVSPost2010PropOp51
 70
     0
102
RTVSPost2010Prop52
140
1.0
102
RTVSPost2010PropOp52
 70
     0
102
RTVSPost2010Prop53
 90
        2
102
RTVSPost2010PropOp53
 70
     1
102
RTVSPost2010Prop54
  1
strokes_ogs.tif
102
RTVSPost2010PropOp54
 70
     1
102
RTVSPost2010Prop55
280
     0
102
RTVSPost2010PropOp55
 70
     1
102
RTVSPost2010Prop56
140
1.0
102
RTVSPost2010PropOp56
 70
     1
102
RTVSPost2010Prop57
140
1.0
102
RTVSPost2010PropOp57
 70
     1
102
RTVSPropertyOp0
 70
     1
102
RTVSPropertyOp1
 70
     1
102
RTVSPropertyOp2
 70
     1
102
RTVSPropertyOp3
 70
     1
102
RTVSPropertyOp4
 70
     1
102
RTVSPropertyOp5
 70
     1
102
RTVSPropertyOp6
 70
     1
102
RTVSPropertyOp7
 70
     1
102
RTVSPropertyOp8
 70
     1
102
RTVSPropertyOp9
 70
     1
102
RTVSPropertyOp10
 70
     1
102
RTVSPropertyOp11
 70
     1
102
RTVSPropertyOp12
 70
     1
102
RTVSPropertyOp13
 70
     1
102
RTVSPropertyOp14
 70
     1
102
RTVSPropertyOp15
 70
     1
102
RTVSPropertyOp16
 70
     1
102
RTVSPropertyOp17
 70
     1
102
RTVSPropertyOp18
 70
     1
102
RTVSPropertyOp19
 70
     1
102
RTVSPropertyOp20
 70
     1
102
RTVSPropertyOp21
 70
     1
102
RTVSPropertyOp22
 70
     1
102
RTVSPropertyOp23
 70
     1
102
RTVSPropertyOp24
 70
     1
102
RTVSPropertyOp25
 70
     1
102
RTVSPropertyOp26
 70
     1
102
RTVSPropertyOp27
 70
     1
102
RTVSPropertyOp28
 70
     1
102
RTVSPropertyOp29
 70
     1
102
RTVSPropertyOp30
 70
     1
102
RTVSPropertyOp31
 70
     1
102
RTVSPropertyOp32
 70
     1
102
RTVSPropertyOp33
 70
     1
102
RTVSPropertyOp34
 70
     1
102
RTVSPropertyOp35
 70
     1
102
RTVSPropertyOp36
 70
     1
102
RTVSPropertyOp37
 70
     1
102
RTVSPropertyOp38
 70
     1
102
RTVSPropertyOp39
 70
     1
102
RTVSPropertyOp40
 70
     1
102
RTVSPropertyOp41
 70
     1
102
RTVSPropertyOp42
 70
     1
102
RTVSPropertyOp43
 70
     1
102
RTVSPropertyOp44
 70
     1
102
RTVSPropertyOp45
 70
     1
102
RTVSPropertyOp46
 70
     1
102
RTVSPropertyOp47
 70
     1
102
RTVSPropertyOp48
 70
     1
102
RTVSPropertyOp49
 70
     1
102
RTVSPropertyOp50
 70
     1
102
RTVSPropertyOp51
 70
     0
102
RTVSPropertyOp52
 70
     0
102
RTVSPropertyOp53
 70
     1
102
RTVSPropertyOp54
 70
     1
102
RTVSPropertyOp55
 70
     1
102
RTVSPropertyOp56
 70
     1
102
RTVSPropertyOp57
 70
     1
102
RTVSPropertyOp58
 70
     1
102
RTVSPropertyOp59
 70
     1
102
RTVSPropertyOp60
 70
     1
102
RTVSPropertyOp61
 70
     1
102
RTVSPropertyOp62
 70
     1
  0
XRECORD
  5
1C53
102
{ACAD_REACTORS
330
1C52
102
}
330
1C52
100
AcDbXrecord
280
     1
102
RTVSPost2010Prop28
280
     0
102
RTVSPost2010PropOp28
 70
     1
102
RTVSPost2010Prop29
280
     1
102
RTVSPost2010PropOp29
 70
     1
102
RTVSPost2010Prop30
280
     1
102
RTVSPost2010PropOp30
 70
     1
102
RTVSPost2010Prop31
280
     0
102
RTVSPost2010PropOp31
 70
     1
102
RTVSPost2010Prop32
280
     0
102
RTVSPost2010PropOp32
 70
     1
102
RTVSPost2010Prop33
280
     0
102
RTVSPost2010PropOp33
 70
     1
102
RTVSPost2010Prop34
280
     0
102
RTVSPost2010PropOp34
 70
     1
102
RTVSPost2010Prop35
280
     0
102
RTVSPost2010PropOp35
 70
     1
102
RTVSPost2010Prop36
280
     0
102
RTVSPost2010PropOp36
 70
     1
102
RTVSPost2010Prop37
 90
       50
102
RTVSPost2010PropOp37
 70
     1
102
RTVSPost2010Prop38
140
0.0
102
RTVSPost2010PropOp38
 70
     1
102
RTVSPost2010Prop39
140
1.0
102
RTVSPost2010PropOp39
 70
     1
102
RTVSPost2010Prop40
 90
        0
102
RTVSPost2010PropOp40
 70
     1
102
RTVSPost2010Prop41ColorIndex
 90
       18
102
RTVSPost2010Prop41ColorRGB
 90
        0
102
RTVSPost2010PropOp41
 70
     1
102
RTVSPost2010Prop42
 90
       50
102
RTVSPost2010PropOp42
 70
     1
102
RTVSPost2010Prop43
 90
        3
102
RTVSPost2010PropOp43
 70
     1
102
RTVSPost2010Prop44ColorIndex
 90
        5
102
RTVSPost2010Prop44ColorRGB
 90
      255
102
RTVSPost2010PropOp44
 70
     1
102
RTVSPost2010Prop45
280
     0
102
RTVSPost2010PropOp45
 70
     1
102
RTVSPost2010Prop46
 90
       50
102
RTVSPost2010PropOp46
 70
     1
102
RTVSPost2010Prop47
 90
       50
102
RTVSPost2010PropOp47
 70
     1
102
RTVSPost2010Prop48
 90
       50
102
RTVSPost2010PropOp48
 70
     1
102
RTVSPost2010Prop49
280
     0
102
RTVSPost2010PropOp49
 70
     1
102
RTVSPost2010Prop50
 90
       50
102
RTVSPost2010PropOp50
 70
     1
102
RTVSPost2010Prop51ColorIndex
 90
      256
102
RTVSPost2010Prop51ColorRGB
 90
-16777216
102
RTVSPost2010PropOp51
 70
     0
102
RTVSPost2010Prop52
140
1.0
102
RTVSPost2010PropOp52
 70
     0
102
RTVSPost2010Prop53
 90
        2
102
RTVSPost2010PropOp53
 70
     1
102
RTVSPost2010Prop54
  1
strokes_ogs.tif
102
RTVSPost2010PropOp54
 70
     1
102
RTVSPost2010Prop55
280
     0
102
RTVSPost2010PropOp55
 70
     1
102
RTVSPost2010Prop56
140
1.0
102
RTVSPost2010PropOp56
 70
     1
102
RTVSPost2010Prop57
140
1.0
102
RTVSPost2010PropOp57
 70
     1
102
RTVSPropertyOp0
 70
     1
102
RTVSPropertyOp1
 70
     1
102
RTVSPropertyOp2
 70
     1
102
RTVSPropertyOp3
 70
     1
102
RTVSPropertyOp4
 70
     1
102
RTVSPropertyOp5
 70
     1
102
RTVSPropertyOp6
 70
     1
102
RTVSPropertyOp7
 70
     1
102
RTVSPropertyOp8
 70
     1
102
RTVSPropertyOp9
 70
     1
102
RTVSPropertyOp10
 70
     1
102
RTVSPropertyOp11
 70
     1
102
RTVSPropertyOp12
 70
     1
102
RTVSPropertyOp13
 70
     1
102
RTVSPropertyOp14
 70
     1
102
RTVSPropertyOp15
 70
     1
102
RTVSPropertyOp16
 70
     1
102
RTVSPropertyOp17
 70
     1
102
RTVSPropertyOp18
 70
     1
102
RTVSPropertyOp19
 70
     1
102
RTVSPropertyOp20
 70
     1
102
RTVSPropertyOp21
 70
     1
102
RTVSPropertyOp22
 70
     1
102
RTVSPropertyOp23
 70
     1
102
RTVSPropertyOp24
 70
     1
102
RTVSPropertyOp25
 70
     1
102
RTVSPropertyOp26
 70
     1
102
RTVSPropertyOp27
 70
     1
102
RTVSPropertyOp28
 70
     1
102
RTVSPropertyOp29
 70
     1
102
RTVSPropertyOp30
 70
     1
102
RTVSPropertyOp31
 70
     1
102
RTVSPropertyOp32
 70
     1
102
RTVSPropertyOp33
 70
     1
102
RTVSPropertyOp34
 70
     1
102
RTVSPropertyOp35
 70
     1
102
RTVSPropertyOp36
 70
     1
102
RTVSPropertyOp37
 70
     1
102
RTVSPropertyOp38
 70
     1
102
RTVSPropertyOp39
 70
     1
102
RTVSPropertyOp40
 70
     1
102
RTVSPropertyOp41
 70
     1
102
RTVSPropertyOp42
 70
     1
102
RTVSPropertyOp43
 70
     1
102
RTVSPropertyOp44
 70
     1
102
RTVSPropertyOp45
 70
     1
102
RTVSPropertyOp46
 70
     1
102
RTVSPropertyOp47
 70
     1
102
RTVSPropertyOp48
 70
     1
102
RTVSPropertyOp49
 70
     1
102
RTVSPropertyOp50
 70
     1
102
RTVSPropertyOp51
 70
     0
102
RTVSPropertyOp52
 70
     0
102
RTVSPropertyOp53
 70
     1
102
RTVSPropertyOp54
 70
     1
102
RTVSPropertyOp55
 70
     1
102
RTVSPropertyOp56
 70
     1
102
RTVSPropertyOp57
 70
     1
102
RTVSPropertyOp58
 70
     1
102
RTVSPropertyOp59
 70
     1
102
RTVSPropertyOp60
 70
     1
102
RTVSPropertyOp61
 70
     1
102
RTVSPropertyOp62
 70
     1
  0
XRECORD
  5
1C49
102
{ACAD_REACTORS
330
1C48
102
}
330
1C48
100
AcDbXrecord
280
     1
102
RTVSPost2010Prop28
280
     0
102
RTVSPost2010PropOp28
 70
     1
102
RTVSPost2010Prop29
280
     1
102
RTVSPost2010PropOp29
 70
     1
102
RTVSPost2010Prop30
280
     1
102
RTVSPost2010PropOp30
 70
     1
102
RTVSPost2010Prop31
280
     0
102
RTVSPost2010PropOp31
 70
     1
102
RTVSPost2010Prop32
280
     0
102
RTVSPost2010PropOp32
 70
     1
102
RTVSPost2010Prop33
280
     0
102
RTVSPost2010PropOp33
 70
     1
102
RTVSPost2010Prop34
280
     0
102
RTVSPost2010PropOp34
 70
     1
102
RTVSPost2010Prop35
280
     0
102
RTVSPost2010PropOp35
 70
     1
102
RTVSPost2010Prop36
280
     0
102
RTVSPost2010PropOp36
 70
     1
102
RTVSPost2010Prop37
 90
       50
102
RTVSPost2010PropOp37
 70
     1
102
RTVSPost2010Prop38
140
0.0
102
RTVSPost2010PropOp38
 70
     1
102
RTVSPost2010Prop39
140
1.0
102
RTVSPost2010PropOp39
 70
     1
102
RTVSPost2010Prop40
 90
        0
102
RTVSPost2010PropOp40
 70
     1
102
RTVSPost2010Prop41ColorIndex
 90
       18
102
RTVSPost2010Prop41ColorRGB
 90
        0
102
RTVSPost2010PropOp41
 70
     1
102
RTVSPost2010Prop42
 90
       50
102
RTVSPost2010PropOp42
 70
     1
102
RTVSPost2010Prop43
 90
        3
102
RTVSPost2010PropOp43
 70
     1
102
RTVSPost2010Prop44ColorIndex
 90
        5
102
RTVSPost2010Prop44ColorRGB
 90
      255
102
RTVSPost2010PropOp44
 70
     1
102
RTVSPost2010Prop45
280
     0
102
RTVSPost2010PropOp45
 70
     1
102
RTVSPost2010Prop46
 90
       50
102
RTVSPost2010PropOp46
 70
     1
102
RTVSPost2010Prop47
 90
       50
102
RTVSPost2010PropOp47
 70
     1
102
RTVSPost2010Prop48
 90
       50
102
RTVSPost2010PropOp48
 70
     1
102
RTVSPost2010Prop49
280
     0
102
RTVSPost2010PropOp49
 70
     1
102
RTVSPost2010Prop50
 90
       50
102
RTVSPost2010PropOp50
 70
     1
102
RTVSPost2010Prop51ColorIndex
 90
      256
102
RTVSPost2010Prop51ColorRGB
 90
-16777216
102
RTVSPost2010PropOp51
 70
     0
102
RTVSPost2010Prop52
140
1.0
102
RTVSPost2010PropOp52
 70
     0
102
RTVSPost2010Prop53
 90
        2
102
RTVSPost2010PropOp53
 70
     1
102
RTVSPost2010Prop54
  1
strokes_ogs.tif
102
RTVSPost2010PropOp54
 70
     1
102
RTVSPost2010Prop55
280
     0
102
RTVSPost2010PropOp55
 70
     1
102
RTVSPost2010Prop56
140
1.0
102
RTVSPost2010PropOp56
 70
     1
102
RTVSPost2010Prop57
140
1.0
102
RTVSPost2010PropOp57
 70
     1
102
RTVSPropertyOp0
 70
     1
102
RTVSPropertyOp1
 70
     1
102
RTVSPropertyOp2
 70
     1
102
RTVSPropertyOp3
 70
     1
102
RTVSPropertyOp4
 70
     1
102
RTVSPropertyOp5
 70
     1
102
RTVSPropertyOp6
 70
     1
102
RTVSPropertyOp7
 70
     1
102
RTVSPropertyOp8
 70
     1
102
RTVSPropertyOp9
 70
     1
102
RTVSPropertyOp10
 70
     1
102
RTVSPropertyOp11
 70
     1
102
RTVSPropertyOp12
 70
     1
102
RTVSPropertyOp13
 70
     1
102
RTVSPropertyOp14
 70
     1
102
RTVSPropertyOp15
 70
     1
102
RTVSPropertyOp16
 70
     1
102
RTVSPropertyOp17
 70
     1
102
RTVSPropertyOp18
 70
     1
102
RTVSPropertyOp19
 70
     1
102
RTVSPropertyOp20
 70
     1
102
RTVSPropertyOp21
 70
     1
102
RTVSPropertyOp22
 70
     1
102
RTVSPropertyOp23
 70
     1
102
RTVSPropertyOp24
 70
     1
102
RTVSPropertyOp25
 70
     1
102
RTVSPropertyOp26
 70
     1
102
RTVSPropertyOp27
 70
     1
102
RTVSPropertyOp28
 70
     1
102
RTVSPropertyOp29
 70
     1
102
RTVSPropertyOp30
 70
     1
102
RTVSPropertyOp31
 70
     1
102
RTVSPropertyOp32
 70
     1
102
RTVSPropertyOp33
 70
     1
102
RTVSPropertyOp34
 70
     1
102
RTVSPropertyOp35
 70
     1
102
RTVSPropertyOp36
 70
     1
102
RTVSPropertyOp37
 70
     1
102
RTVSPropertyOp38
 70
     1
102
RTVSPropertyOp39
 70
     1
102
RTVSPropertyOp40
 70
     1
102
RTVSPropertyOp41
 70
     1
102
RTVSPropertyOp42
 70
     1
102
RTVSPropertyOp43
 70
     1
102
RTVSPropertyOp44
 70
     1
102
RTVSPropertyOp45
 70
     1
102
RTVSPropertyOp46
 70
     1
102
RTVSPropertyOp47
 70
     1
102
RTVSPropertyOp48
 70
     1
102
RTVSPropertyOp49
 70
     1
102
RTVSPropertyOp50
 70
     1
102
RTVSPropertyOp51
 70
     0
102
RTVSPropertyOp52
 70
     0
102
RTVSPropertyOp53
 70
     1
102
RTVSPropertyOp54
 70
     1
102
RTVSPropertyOp55
 70
     1
102
RTVSPropertyOp56
 70
     1
102
RTVSPropertyOp57
 70
     1
102
RTVSPropertyOp58
 70
     1
102
RTVSPropertyOp59
 70
     1
102
RTVSPropertyOp60
 70
     1
102
RTVSPropertyOp61
 70
     1
102
RTVSPropertyOp62
 70
     1
  0
XRECORD
  5
1C3D
102
{ACAD_REACTORS
330
1C3C
102
}
330
1C3C
100
AcDbXrecord
280
     1
102
RTVSPost2010Prop28
280
     0
102
RTVSPost2010PropOp28
 70
     1
102
RTVSPost2010Prop29
280
     1
102
RTVSPost2010PropOp29
 70
     1
102
RTVSPost2010Prop30
280
     1
102
RTVSPost2010PropOp30
 70
     1
102
RTVSPost2010Prop31
280
     0
102
RTVSPost2010PropOp31
 70
     1
102
RTVSPost2010Prop32
280
     0
102
RTVSPost2010PropOp32
 70
     1
102
RTVSPost2010Prop33
280
     0
102
RTVSPost2010PropOp33
 70
     1
102
RTVSPost2010Prop34
280
     0
102
RTVSPost2010PropOp34
 70
     1
102
RTVSPost2010Prop35
280
     0
102
RTVSPost2010PropOp35
 70
     1
102
RTVSPost2010Prop36
280
     0
102
RTVSPost2010PropOp36
 70
     1
102
RTVSPost2010Prop37
 90
       50
102
RTVSPost2010PropOp37
 70
     1
102
RTVSPost2010Prop38
140
0.0
102
RTVSPost2010PropOp38
 70
     1
102
RTVSPost2010Prop39
140
1.0
102
RTVSPost2010PropOp39
 70
     1
102
RTVSPost2010Prop40
 90
        0
102
RTVSPost2010PropOp40
 70
     1
102
RTVSPost2010Prop41ColorIndex
 90
       18
102
RTVSPost2010Prop41ColorRGB
 90
        0
102
RTVSPost2010PropOp41
 70
     1
102
RTVSPost2010Prop42
 90
       50
102
RTVSPost2010PropOp42
 70
     1
102
RTVSPost2010Prop43
 90
        3
102
RTVSPost2010PropOp43
 70
     1
102
RTVSPost2010Prop44ColorIndex
 90
        5
102
RTVSPost2010Prop44ColorRGB
 90
      255
102
RTVSPost2010PropOp44
 70
     1
102
RTVSPost2010Prop45
280
     0
102
RTVSPost2010PropOp45
 70
     1
102
RTVSPost2010Prop46
 90
       50
102
RTVSPost2010PropOp46
 70
     1
102
RTVSPost2010Prop47
 90
       50
102
RTVSPost2010PropOp47
 70
     1
102
RTVSPost2010Prop48
 90
       50
102
RTVSPost2010PropOp48
 70
     1
102
RTVSPost2010Prop49
280
     0
102
RTVSPost2010PropOp49
 70
     1
102
RTVSPost2010Prop50
 90
       50
102
RTVSPost2010PropOp50
 70
     1
102
RTVSPost2010Prop51ColorIndex
 90
      256
102
RTVSPost2010Prop51ColorRGB
 90
-16777216
102
RTVSPost2010PropOp51
 70
     0
102
RTVSPost2010Prop52
140
1.0
102
RTVSPost2010PropOp52
 70
     0
102
RTVSPost2010Prop53
 90
        2
102
RTVSPost2010PropOp53
 70
     1
102
RTVSPost2010Prop54
  1
strokes_ogs.tif
102
RTVSPost2010PropOp54
 70
     1
102
RTVSPost2010Prop55
280
     0
102
RTVSPost2010PropOp55
 70
     1
102
RTVSPost2010Prop56
140
1.0
102
RTVSPost2010PropOp56
 70
     1
102
RTVSPost2010Prop57
140
1.0
102
RTVSPost2010PropOp57
 70
     1
102
RTVSPropertyOp0
 70
     1
102
RTVSPropertyOp1
 70
     1
102
RTVSPropertyOp2
 70
     1
102
RTVSPropertyOp3
 70
     1
102
RTVSPropertyOp4
 70
     1
102
RTVSPropertyOp5
 70
     1
102
RTVSPropertyOp6
 70
     1
102
RTVSPropertyOp7
 70
     1
102
RTVSPropertyOp8
 70
     1
102
RTVSPropertyOp9
 70
     1
102
RTVSPropertyOp10
 70
     1
102
RTVSPropertyOp11
 70
     1
102
RTVSPropertyOp12
 70
     1
102
RTVSPropertyOp13
 70
     1
102
RTVSPropertyOp14
 70
     1
102
RTVSPropertyOp15
 70
     1
102
RTVSPropertyOp16
 70
     1
102
RTVSPropertyOp17
 70
     1
102
RTVSPropertyOp18
 70
     1
102
RTVSPropertyOp19
 70
     1
102
RTVSPropertyOp20
 70
     1
102
RTVSPropertyOp21
 70
     1
102
RTVSPropertyOp22
 70
     1
102
RTVSPropertyOp23
 70
     1
102
RTVSPropertyOp24
 70
     1
102
RTVSPropertyOp25
 70
     1
102
RTVSPropertyOp26
 70
     1
102
RTVSPropertyOp27
 70
     1
102
RTVSPropertyOp28
 70
     1
102
RTVSPropertyOp29
 70
     1
102
RTVSPropertyOp30
 70
     1
102
RTVSPropertyOp31
 70
     1
102
RTVSPropertyOp32
 70
     1
102
RTVSPropertyOp33
 70
     1
102
RTVSPropertyOp34
 70
     1
102
RTVSPropertyOp35
 70
     1
102
RTVSPropertyOp36
 70
     1
102
RTVSPropertyOp37
 70
     1
102
RTVSPropertyOp38
 70
     1
102
RTVSPropertyOp39
 70
     1
102
RTVSPropertyOp40
 70
     1
102
RTVSPropertyOp41
 70
     1
102
RTVSPropertyOp42
 70
     1
102
RTVSPropertyOp43
 70
     1
102
RTVSPropertyOp44
 70
     1
102
RTVSPropertyOp45
 70
     1
102
RTVSPropertyOp46
 70
     1
102
RTVSPropertyOp47
 70
     1
102
RTVSPropertyOp48
 70
     1
102
RTVSPropertyOp49
 70
     1
102
RTVSPropertyOp50
 70
     1
102
RTVSPropertyOp51
 70
     0
102
RTVSPropertyOp52
 70
     0
102
RTVSPropertyOp53
 70
     1
102
RTVSPropertyOp54
 70
     1
102
RTVSPropertyOp55
 70
     1
102
RTVSPropertyOp56
 70
     1
102
RTVSPropertyOp57
 70
     1
102
RTVSPropertyOp58
 70
     1
102
RTVSPropertyOp59
 70
     1
102
RTVSPropertyOp60
 70
     1
102
RTVSPropertyOp61
 70
     1
102
RTVSPropertyOp62
 70
     1
  0
XRECORD
  5
1C55
102
{ACAD_REACTORS
330
1C54
102
}
330
1C54
100
AcDbXrecord
280
     1
102
RTVSPost2010Prop28
280
     0
102
RTVSPost2010PropOp28
 70
     1
102
RTVSPost2010Prop29
280
     1
102
RTVSPost2010PropOp29
 70
     1
102
RTVSPost2010Prop30
280
     1
102
RTVSPost2010PropOp30
 70
     1
102
RTVSPost2010Prop31
280
     0
102
RTVSPost2010PropOp31
 70
     1
102
RTVSPost2010Prop32
280
     0
102
RTVSPost2010PropOp32
 70
     1
102
RTVSPost2010Prop33
280
     0
102
RTVSPost2010PropOp33
 70
     1
102
RTVSPost2010Prop34
280
     0
102
RTVSPost2010PropOp34
 70
     1
102
RTVSPost2010Prop35
280
     0
102
RTVSPost2010PropOp35
 70
     1
102
RTVSPost2010Prop36
280
     0
102
RTVSPost2010PropOp36
 70
     1
102
RTVSPost2010Prop37
 90
       50
102
RTVSPost2010PropOp37
 70
     1
102
RTVSPost2010Prop38
140
0.0
102
RTVSPost2010PropOp38
 70
     1
102
RTVSPost2010Prop39
140
1.0
102
RTVSPost2010PropOp39
 70
     1
102
RTVSPost2010Prop40
 90
        0
102
RTVSPost2010PropOp40
 70
     1
102
RTVSPost2010Prop41ColorIndex
 90
       18
102
RTVSPost2010Prop41ColorRGB
 90
        0
102
RTVSPost2010PropOp41
 70
     1
102
RTVSPost2010Prop42
 90
       50
102
RTVSPost2010PropOp42
 70
     1
102
RTVSPost2010Prop43
 90
        3
102
RTVSPost2010PropOp43
 70
     1
102
RTVSPost2010Prop44ColorIndex
 90
        5
102
RTVSPost2010Prop44ColorRGB
 90
      255
102
RTVSPost2010PropOp44
 70
     1
102
RTVSPost2010Prop45
280
     0
102
RTVSPost2010PropOp45
 70
     1
102
RTVSPost2010Prop46
 90
       50
102
RTVSPost2010PropOp46
 70
     1
102
RTVSPost2010Prop47
 90
       50
102
RTVSPost2010PropOp47
 70
     1
102
RTVSPost2010Prop48
 90
       50
102
RTVSPost2010PropOp48
 70
     1
102
RTVSPost2010Prop49
280
     0
102
RTVSPost2010PropOp49
 70
     1
102
RTVSPost2010Prop50
 90
       50
102
RTVSPost2010PropOp50
 70
     1
102
RTVSPost2010Prop51ColorIndex
 90
      256
102
RTVSPost2010Prop51ColorRGB
 90
-16777216
102
RTVSPost2010PropOp51
 70
     0
102
RTVSPost2010Prop52
140
1.0
102
RTVSPost2010PropOp52
 70
     0
102
RTVSPost2010Prop53
 90
        2
102
RTVSPost2010PropOp53
 70
     1
102
RTVSPost2010Prop54
  1
strokes_ogs.tif
102
RTVSPost2010PropOp54
 70
     1
102
RTVSPost2010Prop55
280
     0
102
RTVSPost2010PropOp55
 70
     1
102
RTVSPost2010Prop56
140
1.0
102
RTVSPost2010PropOp56
 70
     1
102
RTVSPost2010Prop57
140
1.0
102
RTVSPost2010PropOp57
 70
     1
102
RTVSPropertyOp0
 70
     1
102
RTVSPropertyOp1
 70
     1
102
RTVSPropertyOp2
 70
     1
102
RTVSPropertyOp3
 70
     1
102
RTVSPropertyOp4
 70
     1
102
RTVSPropertyOp5
 70
     1
102
RTVSPropertyOp6
 70
     1
102
RTVSPropertyOp7
 70
     1
102
RTVSPropertyOp8
 70
     1
102
RTVSPropertyOp9
 70
     1
102
RTVSPropertyOp10
 70
     1
102
RTVSPropertyOp11
 70
     1
102
RTVSPropertyOp12
 70
     1
102
RTVSPropertyOp13
 70
     1
102
RTVSPropertyOp14
 70
     1
102
RTVSPropertyOp15
 70
     1
102
RTVSPropertyOp16
 70
     1
102
RTVSPropertyOp17
 70
     1
102
RTVSPropertyOp18
 70
     1
102
RTVSPropertyOp19
 70
     1
102
RTVSPropertyOp20
 70
     1
102
RTVSPropertyOp21
 70
     1
102
RTVSPropertyOp22
 70
     1
102
RTVSPropertyOp23
 70
     1
102
RTVSPropertyOp24
 70
     1
102
RTVSPropertyOp25
 70
     1
102
RTVSPropertyOp26
 70
     1
102
RTVSPropertyOp27
 70
     1
102
RTVSPropertyOp28
 70
     1
102
RTVSPropertyOp29
 70
     1
102
RTVSPropertyOp30
 70
     1
102
RTVSPropertyOp31
 70
     1
102
RTVSPropertyOp32
 70
     1
102
RTVSPropertyOp33
 70
     1
102
RTVSPropertyOp34
 70
     1
102
RTVSPropertyOp35
 70
     1
102
RTVSPropertyOp36
 70
     1
102
RTVSPropertyOp37
 70
     1
102
RTVSPropertyOp38
 70
     1
102
RTVSPropertyOp39
 70
     1
102
RTVSPropertyOp40
 70
     1
102
RTVSPropertyOp41
 70
     1
102
RTVSPropertyOp42
 70
     1
102
RTVSPropertyOp43
 70
     1
102
RTVSPropertyOp44
 70
     1
102
RTVSPropertyOp45
 70
     1
102
RTVSPropertyOp46
 70
     1
102
RTVSPropertyOp47
 70
     1
102
RTVSPropertyOp48
 70
     1
102
RTVSPropertyOp49
 70
     1
102
RTVSPropertyOp50
 70
     1
102
RTVSPropertyOp51
 70
     0
102
RTVSPropertyOp52
 70
     0
102
RTVSPropertyOp53
 70
     1
102
RTVSPropertyOp54
 70
     1
102
RTVSPropertyOp55
 70
     1
102
RTVSPropertyOp56
 70
     1
102
RTVSPropertyOp57
 70
     1
102
RTVSPropertyOp58
 70
     1
102
RTVSPropertyOp59
 70
     1
102
RTVSPropertyOp60
 70
     1
102
RTVSPropertyOp61
 70
     1
102
RTVSPropertyOp62
 70
     1
  0
ENDSEC
  0
EOF
