  0
SECTION
  2
HEADER
  9
$ACADVER
  1
AC1018
  9
$ACADMAINTVER
 70
     2
  9
$DWGCODEPAGE
  3
ANSI_1252
  9
$INSBASE
 10
0.0
 20
0.0
 30
0.0
  9
$EXTMIN
 10
-0.0128164049388033
 20
-0.0181260584133725
 30
-0.0015258207003583
  9
$EXTMAX
 10
420.012818360716
 20
594.0181288244416
 30
0.0000000349246037
  9
$LIMMIN
 10
0.0
 20
0.0
  9
$LIMMAX
 10
419.9999999999999
 20
594.0
  9
$ORTHOMODE
 70
     1
  9
$REGENMODE
 70
     1
  9
$FILLMODE
 70
     1
  9
$QTEXTMODE
 70
     0
  9
$MIRRTEXT
 70
     1
  9
$LTSCALE
 40
20.0
  9
$ATTMODE
 70
     1
  9
$TEXTSIZE
 40
2.5
  9
$TRACEWID
 40
0.5
  9
$TEXTSTYLE
  7
GREEKS
  9
$CLAYER
  8
BEM
  9
$CELTYPE
  6
ByLayer
  9
$CECOLOR
 62
   256
  9
$CELTSCALE
 40
1.0
  9
$DISPSILH
 70
     0
  9
$DIMSCALE
 40
2.0
  9
$DIMASZ
 40
3.5
  9
$DIMEXO
 40
1.0
  9
$DIMDLI
 40
7.0
  9
$DIMRND
 40
0.0
  9
$DIMDLE
 40
0.0
  9
$DIMEXE
 40
1.0
  9
$DIMTP
 40
0.0
  9
$DIMTM
 40
0.0
  9
$DIMTXT
 40
3.5
  9
$DIMCEN
 40
1.5
  9
$DIMTSZ
 40
0.0
  9
$DIMTOL
 70
     0
  9
$DIMLIM
 70
     0
  9
$DIMTIH
 70
     0
  9
$DIMTOH
 70
     0
  9
$DIMSE1
 70
     0
  9
$DIMSE2
 70
     0
  9
$DIMTAD
 70
     1
  9
$DIMZIN
 70
     8
  9
$DIMBLK
  1

  9
$DIMASO
 70
     1
  9
$DIMSHO
 70
     0
  9
$DIMPOST
  1

  9
$DIMAPOST
  1

  9
$DIMALT
 70
     0
  9
$DIMALTD
 70
     2
  9
$DIMALTF
 40
25.4
  9
$DIMLFAC
 40
1.0
  9
$DIMTOFL
 70
     1
  9
$DIMTVP
 40
0.0
  9
$DIMTIX
 70
     0
  9
$DIMSOXD
 70
     0
  9
$DIMSAH
 70
     0
  9
$DIMBLK1
  1

  9
$DIMBLK2
  1

  9
$DIMSTYLE
  2
Standard
  9
$DIMCLRD
 70
     0
  9
$DIMCLRE
 70
     0
  9
$DIMCLRT
 70
     1
  9
$DIMTFAC
 40
0.5
  9
$DIMGAP
 40
1.5
  9
$DIMJUST
 70
     0
  9
$DIMSD1
 70
     0
  9
$DIMSD2
 70
     0
  9
$DIMTOLJ
 70
     1
  9
$DIMTZIN
 70
     8
  9
$DIMALTZ
 70
     8
  9
$DIMALTTZ
 70
     8
  9
$DIMUPT
 70
     0
  9
$DIMDEC
 70
     2
  9
$DIMTDEC
 70
     2
  9
$DIMALTU
 70
     2
  9
$DIMALTTD
 70
     2
  9
$DIMTXSTY
  7
STANDARD
  9
$DIMAUNIT
 70
     0
  9
$DIMADEC
 70
     2
  9
$DIMALTRND
 40
0.0
  9
$DIMAZIN
 70
     2
  9
$DIMDSEP
 70
    46
  9
$DIMATFIT
 70
     3
  9
$DIMFRAC
 70
     0
  9
$DIMLDRBLK
  1

  9
$DIMLUNIT
 70
     2
  9
$DIMLWD
 70
    -2
  9
$DIMLWE
 70
    -2
  9
$DIMTMOVE
 70
     0
  9
$LUNITS
 70
     2
  9
$LUPREC
 70
     2
  9
$SKETCHINC
 40
1.0
  9
$FILLETRAD
 40
0.0
  9
$AUNITS
 70
     0
  9
$AUPREC
 70
     0
  9
$MENU
  1
ACAD
  9
$ELEVATION
 40
0.0
  9
$PELEVATION
 40
0.0
  9
$THICKNESS
 40
0.0
  9
$LIMCHECK
 70
     0
  9
$CHAMFERA
 40
0.0
  9
$CHAMFERB
 40
0.0
  9
$CHAMFERC
 40
0.0
  9
$CHAMFERD
 40
0.0
  9
$SKPOLY
 70
     0
  9
$TDCREATE
 40
2455397.823042361
  9
$TDUCREATE
 40
2455397.781375695
  9
$TDUPDATE
 40
2456230.342877304
  9
$TDUUPDATE
 40
2456230.301210637
  9
$TDINDWG
 40
0.3117987500
  9
$TDUSRTIMER
 40
0.3117987500
  9
$USRTIMER
 70
     1
  9
$ANGBASE
 50
0.0
  9
$ANGDIR
 70
     0
  9
$PDMODE
 70
     0
  9
$PDSIZE
 40
0.0
  9
$PLINEWID
 40
0.0
  9
$SPLFRAME
 70
     0
  9
$SPLINETYPE
 70
     6
  9
$SPLINESEGS
 70
     8
  9
$HANDSEED
  5
189A
  9
$SURFTAB1
 70
     6
  9
$SURFTAB2
 70
     6
  9
$SURFTYPE
 70
     6
  9
$SURFU
 70
     6
  9
$SURFV
 70
     6
  9
$UCSBASE
  2

  9
$UCSNAME
  2

  9
$UCSORG
 10
0.0
 20
0.0
 30
0.0
  9
$UCSXDIR
 10
1.0
 20
0.0
 30
0.0
  9
$UCSYDIR
 10
0.0
 20
1.0
 30
0.0
  9
$UCSORTHOREF
  2

  9
$UCSORTHOVIEW
 70
     0
  9
$UCSORGTOP
 10
0.0
 20
0.0
 30
0.0
  9
$UCSORGBOTTOM
 10
0.0
 20
0.0
 30
0.0
  9
$UCSORGLEFT
 10
0.0
 20
0.0
 30
0.0
  9
$UCSORGRIGHT
 10
0.0
 20
0.0
 30
0.0
  9
$UCSORGFRONT
 10
0.0
 20
0.0
 30
0.0
  9
$UCSORGBACK
 10
0.0
 20
0.0
 30
0.0
  9
$PUCSBASE
  2

  9
$PUCSNAME
  2

  9
$PUCSORG
 10
0.0
 20
0.0
 30
0.0
  9
$PUCSXDIR
 10
1.0
 20
0.0
 30
0.0
  9
$PUCSYDIR
 10
0.0
 20
1.0
 30
0.0
  9
$PUCSORTHOREF
  2

  9
$PUCSORTHOVIEW
 70
     0
  9
$PUCSORGTOP
 10
0.0
 20
0.0
 30
0.0
  9
$PUCSORGBOTTOM
 10
0.0
 20
0.0
 30
0.0
  9
$PUCSORGLEFT
 10
0.0
 20
0.0
 30
0.0
  9
$PUCSORGRIGHT
 10
0.0
 20
0.0
 30
0.0
  9
$PUCSORGFRONT
 10
0.0
 20
0.0
 30
0.0
  9
$PUCSORGBACK
 10
0.0
 20
0.0
 30
0.0
  9
$USERI1
 70
     0
  9
$USERI2
 70
     0
  9
$USERI3
 70
     0
  9
$USERI4
 70
     0
  9
$USERI5
 70
     0
  9
$USERR1
 40
0.0
  9
$USERR2
 40
0.0
  9
$USERR3
 40
0.0
  9
$USERR4
 40
0.0
  9
$USERR5
 40
0.0
  9
$WORLDVIEW
 70
     1
  9
$SHADEDGE
 70
     3
  9
$SHADEDIF
 70
    70
  9
$TILEMODE
 70
     1
  9
$MAXACTVP
 70
    16
  9
$PINSBASE
 10
0.0
 20
0.0
 30
0.0
  9
$PLIMCHECK
 70
     0
  9
$PEXTMIN
 10
1.000000000000000E+20
 20
1.000000000000000E+20
 30
1.000000000000000E+20
  9
$PEXTMAX
 10
-1.000000000000000E+20
 20
-1.000000000000000E+20
 30
-1.000000000000000E+20
  9
$PLIMMIN
 10
0.0
 20
0.0
  9
$PLIMMAX
 10
12.0
 20
9.0
  9
$UNITMODE
 70
     0
  9
$VISRETAIN
 70
     0
  9
$PLINEGEN
 70
     0
  9
$PSLTSCALE
 70
     0
  9
$TREEDEPTH
 70
  3020
  9
$CMLSTYLE
  2
Standard
  9
$CMLJUST
 70
     0
  9
$CMLSCALE
 40
1.0
  9
$PROXYGRAPHICS
 70
     1
  9
$MEASUREMENT
 70
     0
  9
$CELWEIGHT
370
    -1
  9
$ENDCAPS
280
     0
  9
$JOINSTYLE
280
     0
  9
$LWDISPLAY
290
     0
  9
$INSUNITS
 70
     0
  9
$HYPERLINKBASE
  1

  9
$STYLESHEET
  1
monochrome 1.ctb
  9
$XEDIT
290
     1
  9
$CEPSNTYPE
380
     0
  9
$PSTYLEMODE
290
     1
  9
$FINGERPRINTGUID
  2
{D68B0D02-A558-11D7-B632-000102183313}
  9
$VERSIONGUID
  2
{3FFB8399-CEA8-4C53-AFFE-4BB90C3E7407}
  9
$EXTNAMES
290
     1
  9
$PSVPSCALE
 40
0.0
  9
$OLESTARTUP
290
     0
  9
$SORTENTS
280
   127
  9
$INDEXCTL
280
     0
  9
$HIDETEXT
280
     0
  9
$XCLIPFRAME
290
     0
  9
$HALOGAP
280
     0
  9
$OBSCOLOR
 70
   257
  9
$OBSLTYPE
280
     0
  9
$INTERSECTIONDISPLAY
280
     0
  9
$INTERSECTIONCOLOR
 70
   257
  9
$DIMASSOC
280
     1
  9
$PROJECTNAME
  1

  0
ENDSEC
  0
SECTION
  2
CLASSES
  0
CLASS
  1
ACDBDICTIONARYWDFLT
  2
AcDbDictionaryWithDefault
  3
ObjectDBX Classes
 90
        0
 91
        1
280
     0
281
     0
  0
CLASS
  1
DICTIONARYVAR
  2
AcDbDictionaryVar
  3
ObjectDBX Classes
 90
        0
 91
        2
280
     0
281
     0
  0
ENDSEC
  0
SECTION
  2
TABLES
  0
TABLE
  2
VPORT
  5
8
330
0
100
AcDbSymbolTable
 70
     3
  0
VPORT
  5
1899
330
8
100
AcDbSymbolTableRecord
100
AcDbViewportTableRecord
  2
*Active
 70
     0
 10
0.0
 20
0.0
 11
1.0
 21
1.0
 12
209.9999999999999
 22
297.0
 13
0.0
 23
0.0
 14
1.0
 24
1.0
 15
10.0
 25
10.0
 16
0.0
 26
0.0
 36
1.0
 17
0.0
 27
0.0
 37
0.0
 40
594.1181190144972
 41
1.404858299595141
 42
50.0
 43
0.0
 44
0.0
 50
0.0
 51
0.0
 71
     0
 72
  1500
 73
     1
 74
     0
 75
     0
 76
     0
 77
     0
 78
     0
281
     0
 65
     1
110
0.0
120
0.0
130
0.0
111
1.0
121
0.0
131
0.0
112
0.0
122
1.0
132
0.0
 79
     0
146
0.0
  0
ENDTAB
  0
TABLE
  2
LTYPE
  5
5
330
0
100
AcDbSymbolTable
 70
     2
  0
LTYPE
  5
13
330
5
100
AcDbSymbolTableRecord
100
AcDbLinetypeTableRecord
  2
ByBlock
 70
     0
  3

 72
    65
 73
     0
 40
0.0
  0
LTYPE
  5
14
330
5
100
AcDbSymbolTableRecord
100
AcDbLinetypeTableRecord
  2
ByLayer
 70
     0
  3

 72
    65
 73
     0
 40
0.0
  0
LTYPE
  5
15
330
5
100
AcDbSymbolTableRecord
100
AcDbLinetypeTableRecord
  2
Continuous
 70
     0
  3
Solid line
 72
    65
 73
     0
 40
0.0
  0
LTYPE
  5
25
330
5
100
AcDbSymbolTableRecord
100
AcDbLinetypeTableRecord
  2
STRICHPUNKT
 70
     0
  3
__ . __ . __ . __ . __ . __ . __ . __ . __ . __
 72
    65
 73
     4
 40
1.0
 49
0.5
 74
     0
 49
-0.25
 74
     0
 49
0.0
 74
     0
 49
-0.25
 74
     0
  0
ENDTAB
  0
TABLE
  2
LAYER
  5
2
330
0
100
AcDbSymbolTable
 70
     9
  0
LAYER
  5
10
330
2
100
AcDbSymbolTableRecord
100
AcDbLayerTableRecord
  2
0
 70
     0
 62
     7
  6
Continuous
370
    -3
390
F
  0
LAYER
  5
2A
330
2
100
AcDbSymbolTableRecord
100
AcDbLayerTableRecord
  2
VOLL
 70
     0
 62
     1
  6
Continuous
370
    -3
390
F
  0
LAYER
  5
2B
330
2
100
AcDbSymbolTableRecord
100
AcDbLayerTableRecord
  2
HILF
 70
     0
 62
     2
  6
Continuous
370
    -3
390
F
  0
LAYER
  5
2C
330
2
100
AcDbSymbolTableRecord
100
AcDbLayerTableRecord
  2
MITTEL
 70
     0
 62
     2
  6
STRICHPUNKT
370
    -3
390
F
  0
LAYER
  5
2F
330
2
100
AcDbSymbolTableRecord
100
AcDbLayerTableRecord
  2
BEM
 70
     0
 62
     7
  6
Continuous
370
    -3
390
F
  0
LAYER
  5
30
330
2
100
AcDbSymbolTableRecord
100
AcDbLayerTableRecord
  2
STEMPEL
 70
     0
 62
     3
  6
Continuous
370
    -3
390
F
  0
LAYER
  5
31
330
2
100
AcDbSymbolTableRecord
100
AcDbLayerTableRecord
  2
TEXT
 70
     0
 62
     7
  6
Continuous
370
    -3
390
F
  0
LAYER
  5
1A8
330
2
100
AcDbSymbolTableRecord
100
AcDbLayerTableRecord
  2
Defpoints
 70
     0
 62
     7
  6
Continuous
290
     0
370
    -3
390
F
  0
LAYER
  5
143D
330
2
100
AcDbSymbolTableRecord
100
AcDbLayerTableRecord
  2
8
 70
     0
 62
     7
  6
Continuous
370
    -3
390
F
  0
ENDTAB
  0
TABLE
  2
STYLE
  5
3
330
0
100
AcDbSymbolTable
 70
     2
  0
STYLE
  5
11
330
3
100
AcDbSymbolTableRecord
100
AcDbTextStyleTableRecord
  2
STANDARD
 70
     0
 40
0.0
 41
0.8
 50
0.0
 71
     0
 42
3.5
  3
simplex.shx
  4

  0
STYLE
  5
24
330
3
100
AcDbSymbolTableRecord
100
AcDbTextStyleTableRecord
  2
GREEKS
 70
     0
 40
0.0
 41
0.8
 50
0.0
 71
     0
 42
2.5
  3
SIMPLEX.shx
  4

  0
ENDTAB
  0
TABLE
  2
VIEW
  5
6
330
0
100
AcDbSymbolTable
 70
     0
  0
ENDTAB
  0
TABLE
  2
UCS
  5
7
330
0
100
AcDbSymbolTable
 70
     0
  0
ENDTAB
  0
TABLE
  2
APPID
  5
9
330
0
100
AcDbSymbolTable
 70
     1
  0
APPID
  5
12
330
9
100
AcDbSymbolTableRecord
100
AcDbRegAppTableRecord
  2
ACAD
 70
     0
  0
ENDTAB
  0
TABLE
  2
DIMSTYLE
  5
A
330
0
100
AcDbSymbolTable
 70
     1
100
AcDbDimStyleTable
 71
     1
340
9D
  0
DIMSTYLE
105
9D
102
{ACAD_REACTORS
330
1644
330
1651
330
1694
330
16C4
330
16D1
330
1720
330
1847
330
187B
102
}
330
A
100
AcDbSymbolTableRecord
100
AcDbDimStyleTableRecord
  2
Standard
 70
     0
340
11
  0
ENDTAB
  0
TABLE
  2
BLOCK_RECORD
  5
1
330
0
100
AcDbSymbolTable
 70
     9
  0
BLOCK_RECORD
  5
1E
102
{ACAD_XDICTIONARY
360
A0
102
}
330
1
100
AcDbSymbolTableRecord
100
AcDbBlockTableRecord
  2
*Model_Space
340
21
  0
BLOCK_RECORD
  5
1A
102
{ACAD_XDICTIONARY
360
A2
102
}
330
1
100
AcDbSymbolTableRecord
100
AcDbBlockTableRecord
  2
*Paper_Space
340
1D
  0
BLOCK_RECORD
  5
22
330
1
100
AcDbSymbolTableRecord
100
AcDbBlockTableRecord
  2
LOGO
340
0
102
{BLKREFS
331
9B
102
}
  0
BLOCK_RECORD
  5
1645
330
1
100
AcDbSymbolTableRecord
100
AcDbBlockTableRecord
  2
*D1
340
0
  0
BLOCK_RECORD
  5
1652
330
1
100
AcDbSymbolTableRecord
100
AcDbBlockTableRecord
  2
*D2
340
0
  0
BLOCK_RECORD
  5
1695
330
1
100
AcDbSymbolTableRecord
100
AcDbBlockTableRecord
  2
*D3
340
0
  0
BLOCK_RECORD
  5
16C5
330
1
100
AcDbSymbolTableRecord
100
AcDbBlockTableRecord
  2
*D4
340
0
  0
BLOCK_RECORD
  5
16D2
330
1
100
AcDbSymbolTableRecord
100
AcDbBlockTableRecord
  2
*D5
340
0
  0
BLOCK_RECORD
  5
1721
330
1
100
AcDbSymbolTableRecord
100
AcDbBlockTableRecord
  2
*D6
340
0
  0
BLOCK_RECORD
  5
1848
330
1
100
AcDbSymbolTableRecord
100
AcDbBlockTableRecord
  2
*D7
340
0
  0
BLOCK_RECORD
  5
187C
330
1
100
AcDbSymbolTableRecord
100
AcDbBlockTableRecord
  2
*D8
340
0
  0
ENDTAB
  0
ENDSEC
  0
SECTION
  2
BLOCKS
  0
BLOCK
  5
35
330
1E
100
AcDbEntity
  8
0
100
AcDbBlockBegin
  2
*Model_Space
 70
     0
 10
0.0
 20
0.0
 30
0.0
  3
*Model_Space
  1

  0
ENDBLK
  5
36
330
1E
100
AcDbEntity
  8
0
100
AcDbBlockEnd
  0
BLOCK
  5
33
330
1A
100
AcDbEntity
 67
     1
  8
0
100
AcDbBlockBegin
  2
*Paper_Space
 70
     0
 10
0.0
 20
0.0
 30
0.0
  3
*Paper_Space
  1

  0
ENDBLK
  5
34
330
1A
100
AcDbEntity
 67
     1
  8
0
100
AcDbBlockEnd
  0
BLOCK
  5
37
330
22
100
AcDbEntity
  8
0
100
AcDbBlockBegin
  2
LOGO
 70
     0
 10
0.0
 20
0.0
 30
0.0
  3
LOGO
  1

  0
ARC
  5
38
330
22
100
AcDbEntity
  8
0
100
AcDbCircle
 10
11.59973089678112
 20
-9.271599258481501
 30
0.0
 40
4.5
100
AcDbArc
 50
270.0
 51
231.0575587310159
  0
LINE
  5
39
330
22
100
AcDbEntity
  8
0
100
AcDbLine
 10
3.599730896781125
 20
-4.771599258481529
 30
0.0
 11
3.599730896781153
 21
-11.77159925848133
 31
0.0
  0
LINE
  5
3A
330
22
100
AcDbEntity
  8
0
100
AcDbLine
 10
2.599730896781125
 20
-4.771599258481529
 30
0.0
 11
2.599730896781153
 21
-11.77159925848133
 31
0.0
  0
CIRCLE
  5
3B
330
22
100
AcDbEntity
  8
0
100
AcDbCircle
 10
11.59973089678112
 20
-9.271599258481501
 30
0.0
 40
3.5
  0
ARC
  5
3C
330
22
100
AcDbEntity
  8
0
100
AcDbCircle
 10
31.59973089678115
 20
-9.271599258481472
 30
0.0
 40
4.5
100
AcDbArc
 50
270.0
 51
231.0575587310182
  0
LINE
  5
3D
330
22
100
AcDbEntity
  8
0
100
AcDbLine
 10
17.59973089678112
 20
-4.771599258481472
 30
0.0
 11
17.59973089678115
 21
-13.77159925848147
 31
0.0
  0
ARC
  5
3E
330
22
100
AcDbEntity
  8
0
100
AcDbCircle
 10
22.59973089678116
 20
-7.271599258481472
 30
0.0
 40
2.5
100
AcDbArc
 50
293.1161887722295
 51
90.0
  0
CIRCLE
  5
3F
330
22
100
AcDbEntity
  8
0
100
AcDbCircle
 10
31.59973089678115
 20
-9.271599258481472
 30
0.0
 40
3.5
  0
ARC
  5
40
330
22
100
AcDbEntity
  8
0
100
AcDbCircle
 10
4.599730896781153
 20
-11.77159925848133
 30
0.0
 40
1.0
100
AcDbArc
 50
180.0
 51
270.0
  0
ARC
  5
41
330
22
100
AcDbEntity
  8
0
100
AcDbCircle
 10
4.599730896781153
 20
-11.77159925848133
 30
0.0
 40
2.0
100
AcDbArc
 50
179.9999999999992
 51
270.0
  0
LINE
  5
42
330
22
100
AcDbEntity
  8
0
100
AcDbLine
 10
11.59973089678115
 20
-13.77159925848144
 30
0.0
 11
4.599730896781153
 21
-13.77159925848147
 31
0.0
  0
LINE
  5
43
330
22
100
AcDbEntity
  8
0
100
AcDbLine
 10
8.771303772034769
 20
-12.77159925848136
 30
0.0
 11
4.599730896781153
 21
-12.77159925848133
 31
0.0
  0
LINE
  5
44
330
22
100
AcDbEntity
  8
0
100
AcDbLine
 10
31.59973089678115
 20
-13.77159925848147
 30
0.0
 11
23.6715276665056
 21
-13.77159925848144
 31
0.0
  0
LINE
  5
45
330
22
100
AcDbEntity
  8
0
100
AcDbLine
 10
23.56565672307022
 20
-9.51278021337896
 30
0.0
 11
24.4388546544846
 21
-12.77159925848144
 31
0.0
  0
LINE
  5
46
330
22
100
AcDbEntity
  8
0
100
AcDbLine
 10
22.59973089678116
 20
-9.771599258481472
 30
0.0
 11
18.59973089678112
 21
-9.771599258481472
 31
0.0
  0
LINE
  5
47
330
22
100
AcDbEntity
  8
0
100
AcDbLine
 10
18.59973089678115
 20
-13.77159925848144
 30
0.0
 11
17.59973089678115
 21
-13.77159925848144
 31
0.0
  0
LINE
  5
48
330
22
100
AcDbEntity
  8
0
100
AcDbLine
 10
18.59973089678115
 20
-9.771599258481472
 30
0.0
 11
18.59973089678115
 21
-13.77159925848144
 31
0.0
  0
LINE
  5
49
330
22
100
AcDbEntity
  8
0
100
AcDbLine
 10
22.59973089678116
 20
-9.771599258481472
 30
0.0
 11
23.67152766650562
 21
-13.77159925848147
 31
0.0
  0
ARC
  5
4A
330
22
100
AcDbEntity
  8
0
100
AcDbCircle
 10
22.59973089678116
 20
-7.271599258481472
 30
0.0
 40
2.5
100
AcDbArc
 50
270.0
 51
270.0000000000007
  0
LINE
  5
4B
330
22
100
AcDbEntity
  8
0
100
AcDbLine
 10
28.77130377203494
 20
-12.77159925848147
 30
0.0
 11
24.43885465448463
 21
-12.77159925848144
 31
0.0
  0
LINE
  5
4C
330
22
100
AcDbEntity
  8
0
100
AcDbLine
 10
3.599730896781125
 20
-4.771599258481472
 30
0.0
 11
2.599730896781125
 21
-4.771599258481472
 31
0.0
  0
LINE
  5
4D
330
22
100
AcDbEntity
  8
0
100
AcDbLine
 10
22.59973089678116
 20
-8.771599258481472
 30
0.0
 11
18.59973089678115
 21
-8.771599258481472
 31
0.0
  0
LINE
  5
4E
330
22
100
AcDbEntity
  8
0
100
AcDbLine
 10
22.59973089678116
 20
-5.771599258481472
 30
0.0
 11
18.59973089678115
 21
-5.771599258481472
 31
0.0
  0
LINE
  5
4F
330
22
100
AcDbEntity
  8
0
100
AcDbLine
 10
22.59973089678116
 20
-4.771599258481472
 30
0.0
 11
17.59973089678115
 21
-4.771599258481472
 31
0.0
  0
LINE
  5
50
330
22
100
AcDbEntity
  8
0
100
AcDbLine
 10
18.59973089678115
 20
-5.771599258481472
 30
0.0
 11
18.59973089678115
 21
-8.771599258481472
 31
0.0
  0
ARC
  5
51
330
22
100
AcDbEntity
  8
0
100
AcDbCircle
 10
22.59973089678116
 20
-7.271599258481472
 30
0.0
 40
1.5
100
AcDbArc
 50
270.0
 51
90.0
  0
ENDBLK
  5
52
330
22
100
AcDbEntity
  8
0
100
AcDbBlockEnd
  0
BLOCK
  5
164F
330
1645
100
AcDbEntity
  8
0
100
AcDbBlockBegin
  2
*D1
 70
     1
 10
0.0
 20
0.0
 30
0.0
  3
*D1
  1

  0
LINE
  5
1758
330
1645
100
AcDbEntity
  8
TEXT
 62
     0
370
    -2
100
AcDbLine
 10
177.1832613544287
 20
180.6621708494515
 30
0.0
 11
177.1832613544287
 21
157.8206607595173
 31
0.0
  0
LINE
  5
1759
330
1645
100
AcDbEntity
  8
TEXT
 62
     0
370
    -2
100
AcDbLine
 10
270.1842613544288
 20
180.6621708494515
 30
0.0
 11
270.1842613544288
 21
157.8206607595173
 31
0.0
  0
LINE
  5
175A
330
1645
100
AcDbEntity
  8
TEXT
 62
     0
370
    -2
100
AcDbLine
 10
184.1832613544287
 20
159.8206607595173
 30
0.0
 11
263.1842613544288
 21
159.8206607595173
 31
0.0
  0
SOLID
  5
175B
330
1645
100
AcDbEntity
  8
TEXT
 62
     0
100
AcDbTrace
 10
184.1832613544287
 20
160.9873274261839
 30
0.0
 11
184.1832613544287
 21
158.6539940928506
 31
0.0
 12
177.1832613544287
 22
159.8206607595173
 32
0.0
 13
177.1832613544287
 23
159.8206607595173
 33
0.0
  0
SOLID
  5
175C
330
1645
100
AcDbEntity
  8
TEXT
 62
     0
100
AcDbTrace
 10
263.1842613544288
 20
160.9873274261839
 30
0.0
 11
263.1842613544288
 21
158.6539940928506
 31
0.0
 12
270.1842613544288
 22
159.8206607595173
 32
0.0
 13
270.1842613544288
 23
159.8206607595173
 33
0.0
  0
MTEXT
  5
175D
330
1645
100
AcDbEntity
  8
TEXT
 62
     1
100
AcDbMText
 10
223.6837613544288
 20
166.3206607595173
 30
0.0
 40
7.0
 41
0.0
 71
     5
 72
     1
  1
\A1;93
 73
     1
 44
1.0
  0
POINT
  5
175E
330
1645
100
AcDbEntity
  8
Defpoints
 62
     0
100
AcDbPoint
 10
177.1832613544287
 20
182.6621708494515
 30
0.0
  0
POINT
  5
175F
330
1645
100
AcDbEntity
  8
Defpoints
 62
     0
100
AcDbPoint
 10
270.1842613544288
 20
182.6621708494515
 30
0.0
  0
POINT
  5
1760
330
1645
100
AcDbEntity
  8
Defpoints
 62
     0
100
AcDbPoint
 10
270.1842613544288
 20
159.8206607595173
 30
0.0
  0
ENDBLK
  5
1650
330
1645
100
AcDbEntity
  8
0
100
AcDbBlockEnd
  0
BLOCK
  5
165C
330
1652
100
AcDbEntity
  8
0
100
AcDbBlockBegin
  2
*D2
 70
     1
 10
0.0
 20
0.0
 30
0.0
  3
*D2
  1

  0
LINE
  5
174F
330
1652
100
AcDbEntity
  8
TEXT
 62
     0
370
    -2
100
AcDbLine
 10
169.1832613544287
 20
190.6621708494515
 30
0.0
 11
169.1832613544287
 21
141.5338122777559
 31
0.0
  0
LINE
  5
1750
330
1652
100
AcDbEntity
  8
TEXT
 62
     0
370
    -2
100
AcDbLine
 10
278.1842613544288
 20
190.6621708494515
 30
0.0
 11
278.1842613544288
 21
141.5338122777559
 31
0.0
  0
LINE
  5
1751
330
1652
100
AcDbEntity
  8
TEXT
 62
     0
370
    -2
100
AcDbLine
 10
176.1832613544287
 20
143.5338122777559
 30
0.0
 11
271.1842613544288
 21
143.5338122777559
 31
0.0
  0
SOLID
  5
1752
330
1652
100
AcDbEntity
  8
TEXT
 62
     0
100
AcDbTrace
 10
176.1832613544287
 20
144.7004789444226
 30
0.0
 11
176.1832613544287
 21
142.3671456110893
 31
0.0
 12
169.1832613544287
 22
143.5338122777559
 32
0.0
 13
169.1832613544287
 23
143.5338122777559
 33
0.0
  0
SOLID
  5
1753
330
1652
100
AcDbEntity
  8
TEXT
 62
     0
100
AcDbTrace
 10
271.1842613544288
 20
144.7004789444226
 30
0.0
 11
271.1842613544288
 21
142.3671456110893
 31
0.0
 12
278.1842613544288
 22
143.5338122777559
 32
0.0
 13
278.1842613544288
 23
143.5338122777559
 33
0.0
  0
MTEXT
  5
1754
330
1652
100
AcDbEntity
  8
TEXT
 62
     1
100
AcDbMText
 10
223.6837613544288
 20
150.0338122777559
 30
0.0
 40
7.0
 41
0.0
 71
     5
 72
     1
  1
\A1;109
 73
     1
 44
1.0
  0
POINT
  5
1755
330
1652
100
AcDbEntity
  8
Defpoints
 62
     0
100
AcDbPoint
 10
169.1832613544287
 20
192.6621708494515
 30
0.0
  0
POINT
  5
1756
330
1652
100
AcDbEntity
  8
Defpoints
 62
     0
100
AcDbPoint
 10
278.1842613544288
 20
192.6621708494515
 30
0.0
  0
POINT
  5
1757
330
1652
100
AcDbEntity
  8
Defpoints
 62
     0
100
AcDbPoint
 10
278.1842613544288
 20
143.5338122777559
 30
0.0
  0
ENDBLK
  5
165D
330
1652
100
AcDbEntity
  8
0
100
AcDbBlockEnd
  0
BLOCK
  5
16A1
330
1695
100
AcDbEntity
  8
0
100
AcDbBlockBegin
  2
*D3
 70
     1
 10
0.0
 20
0.0
 30
0.0
  3
*D3
  1

  0
LINE
  5
17BF
330
1695
100
AcDbEntity
  8
BEM
 62
     0
370
    -2
100
AcDbLine
 10
167.1832613544287
 20
458.5232900674616
 30
0.0
 11
155.6051372258472
 21
458.5232900674616
 31
0.0
  0
LINE
  5
17C0
330
1695
100
AcDbEntity
  8
BEM
 62
     0
370
    -2
100
AcDbLine
 10
167.1832613544287
 20
461.5232900674616
 30
0.0
 11
155.6051372258472
 21
461.5232900674616
 31
0.0
  0
LINE
  5
17C1
330
1695
100
AcDbEntity
  8
BEM
 62
     0
370
    -2
100
AcDbLine
 10
157.6051372258472
 20
451.5232900674616
 30
0.0
 11
157.6051372258471
 21
444.5232900674616
 31
0.0
  0
LINE
  5
17C2
330
1695
100
AcDbEntity
  8
BEM
 62
     0
370
    -2
100
AcDbLine
 10
157.6051372258472
 20
468.5232900674616
 30
0.0
 11
157.6051372258472
 21
475.5232900674616
 31
0.0
  0
LINE
  5
17C3
330
1695
100
AcDbEntity
  8
BEM
 62
     0
370
    -2
100
AcDbLine
 10
157.6051372258472
 20
458.5232900674616
 30
0.0
 11
157.6051372258472
 21
461.5232900674616
 31
0.0
  0
SOLID
  5
17C4
330
1695
100
AcDbEntity
  8
BEM
 62
     0
100
AcDbTrace
 10
156.4384705591805
 20
451.5232900674616
 30
0.0
 11
158.7718038925138
 21
451.5232900674616
 31
0.0
 12
157.6051372258472
 22
458.5232900674616
 32
0.0
 13
157.6051372258472
 23
458.5232900674616
 33
0.0
  0
SOLID
  5
17C5
330
1695
100
AcDbEntity
  8
BEM
 62
     0
100
AcDbTrace
 10
156.4384705591805
 20
468.5232900674616
 30
0.0
 11
158.7718038925138
 21
468.5232900674616
 31
0.0
 12
157.6051372258472
 22
461.5232900674616
 32
0.0
 13
157.6051372258472
 23
461.5232900674616
 33
0.0
  0
MTEXT
  5
17C6
330
1695
100
AcDbEntity
  8
BEM
 62
     1
100
AcDbMText
 10
151.1051372258471
 20
460.0232900674616
 30
0.0
 40
7.0
 41
0.0
 71
     5
 72
     1
  1
\A1;3
 11
0.0000000000000001
 21
1.0
 31
0.0
 73
     1
 44
1.0
  0
POINT
  5
17C7
330
1695
100
AcDbEntity
  8
Defpoints
 62
     0
100
AcDbPoint
 10
169.1832613544287
 20
458.5232900674616
 30
0.0
  0
POINT
  5
17C8
330
1695
100
AcDbEntity
  8
Defpoints
 62
     0
100
AcDbPoint
 10
169.1832613544287
 20
461.5232900674616
 30
0.0
  0
POINT
  5
17C9
330
1695
100
AcDbEntity
  8
Defpoints
 62
     0
100
AcDbPoint
 10
157.6051372258472
 20
461.5232900674616
 30
0.0
  0
ENDBLK
  5
16A2
330
1695
100
AcDbEntity
  8
0
100
AcDbBlockEnd
  0
BLOCK
  5
16CF
330
16C5
100
AcDbEntity
  8
0
100
AcDbBlockBegin
  2
*D4
 70
     1
 10
0.0
 20
0.0
 30
0.0
  3
*D4
  1

  0
LINE
  5
17B6
330
16C5
100
AcDbEntity
  8
BEM
 62
     0
370
    -2
100
AcDbLine
 10
221.6832613544287
 20
256.5232900674617
 30
0.0
 11
156.0300075932118
 21
256.5232900674617
 31
0.0
  0
LINE
  5
17B7
330
16C5
100
AcDbEntity
  8
BEM
 62
     0
370
    -2
100
AcDbLine
 10
211.1832613544287
 20
406.5232900674616
 30
0.0
 11
156.0300075932118
 21
406.5232900674616
 31
0.0
  0
LINE
  5
17B8
330
16C5
100
AcDbEntity
  8
BEM
 62
     0
370
    -2
100
AcDbLine
 10
158.0300075932118
 20
263.5232900674617
 30
0.0
 11
158.0300075932118
 21
399.5232900674617
 31
0.0
  0
SOLID
  5
17B9
330
16C5
100
AcDbEntity
  8
BEM
 62
     0
100
AcDbTrace
 10
156.8633409265451
 20
263.5232900674617
 30
0.0
 11
159.1966742598785
 21
263.5232900674617
 31
0.0
 12
158.0300075932118
 22
256.5232900674617
 32
0.0
 13
158.0300075932118
 23
256.5232900674617
 33
0.0
  0
SOLID
  5
17BA
330
16C5
100
AcDbEntity
  8
BEM
 62
     0
100
AcDbTrace
 10
156.8633409265452
 20
399.5232900674617
 30
0.0
 11
159.1966742598785
 21
399.5232900674617
 31
0.0
 12
158.0300075932118
 22
406.5232900674616
 32
0.0
 13
158.0300075932118
 23
406.5232900674616
 33
0.0
  0
MTEXT
  5
17BB
330
16C5
100
AcDbEntity
  8
BEM
 62
     1
100
AcDbMText
 10
151.5300075932118
 20
331.5232900674617
 30
0.0
 40
7.0
 41
0.0
 71
     5
 72
     1
  1
\A1;150
 11
0.0000000000000001
 21
1.0
 31
0.0
 73
     1
 44
1.0
  0
POINT
  5
17BC
330
16C5
100
AcDbEntity
  8
Defpoints
 62
     0
100
AcDbPoint
 10
223.6832613544287
 20
256.5232900674617
 30
0.0
  0
POINT
  5
17BD
330
16C5
100
AcDbEntity
  8
Defpoints
 62
     0
100
AcDbPoint
 10
213.1832613544287
 20
406.5232900674616
 30
0.0
  0
POINT
  5
17BE
330
16C5
100
AcDbEntity
  8
Defpoints
 62
     0
100
AcDbPoint
 10
158.0300075932118
 20
406.5232900674616
 30
0.0
  0
ENDBLK
  5
16D0
330
16C5
100
AcDbEntity
  8
0
100
AcDbBlockEnd
  0
BLOCK
  5
16DC
330
16D2
100
AcDbEntity
  8
0
100
AcDbBlockBegin
  2
*D5
 70
     1
 10
0.0
 20
0.0
 30
0.0
  3
*D5
  1

  0
LINE
  5
17AD
330
16D2
100
AcDbEntity
  8
BEM
 62
     0
370
    -2
100
AcDbLine
 10
221.6832613544287
 20
499.5232900674616
 30
0.0
 11
139.4600654450069
 21
499.5232900674616
 31
0.0
  0
LINE
  5
17AE
330
16D2
100
AcDbEntity
  8
BEM
 62
     0
370
    -2
100
AcDbLine
 10
221.6832613544287
 20
256.5232900674617
 30
0.0
 11
139.4600654450068
 21
256.5232900674617
 31
0.0
  0
LINE
  5
17AF
330
16D2
100
AcDbEntity
  8
BEM
 62
     0
370
    -2
100
AcDbLine
 10
141.4600654450069
 20
492.5232900674616
 30
0.0
 11
141.4600654450068
 21
263.5232900674617
 31
0.0
  0
SOLID
  5
17B0
330
16D2
100
AcDbEntity
  8
BEM
 62
     0
100
AcDbTrace
 10
140.2933987783402
 20
492.5232900674616
 30
0.0
 11
142.6267321116735
 21
492.5232900674616
 31
0.0
 12
141.4600654450069
 22
499.5232900674616
 32
0.0
 13
141.4600654450069
 23
499.5232900674616
 33
0.0
  0
SOLID
  5
17B1
330
16D2
100
AcDbEntity
  8
BEM
 62
     0
100
AcDbTrace
 10
140.2933987783402
 20
263.5232900674617
 30
0.0
 11
142.6267321116735
 21
263.5232900674617
 31
0.0
 12
141.4600654450068
 22
256.5232900674617
 32
0.0
 13
141.4600654450068
 23
256.5232900674617
 33
0.0
  0
MTEXT
  5
17B2
330
16D2
100
AcDbEntity
  8
BEM
 62
     1
100
AcDbMText
 10
134.9600654450068
 20
378.0232900674617
 30
0.0
 40
7.0
 41
0.0
 71
     5
 72
     1
  1
\A1;243
 11
0.0000000000000001
 21
1.0
 31
0.0
 73
     1
 44
1.0
  0
POINT
  5
17B3
330
16D2
100
AcDbEntity
  8
Defpoints
 62
     0
100
AcDbPoint
 10
223.6832613544287
 20
499.5232900674616
 30
0.0
  0
POINT
  5
17B4
330
16D2
100
AcDbEntity
  8
Defpoints
 62
     0
100
AcDbPoint
 10
223.6832613544287
 20
256.5232900674617
 30
0.0
  0
POINT
  5
17B5
330
16D2
100
AcDbEntity
  8
Defpoints
 62
     0
100
AcDbPoint
 10
141.4600654450068
 20
256.5232900674617
 30
0.0
  0
ENDBLK
  5
16DD
330
16D2
100
AcDbEntity
  8
0
100
AcDbBlockEnd
  0
BLOCK
  5
1729
330
1721
100
AcDbEntity
  8
0
100
AcDbBlockBegin
  2
*D6
 70
     1
 10
0.0
 20
0.0
 30
0.0
  3
*D6
  1

  0
LINE
  5
17A4
330
1721
100
AcDbEntity
  8
BEM
 62
     0
370
    -2
100
AcDbLine
 10
195.4775354685404
 20
436.7716456308439
 30
0.0
 11
195.4060995021291
 21
436.8492312376146
 31
0.0
  0
LINE
  5
17A5
330
1721
100
AcDbEntity
  8
BEM
 62
     0
370
    -2
100
AcDbLine
 10
249.1802868056345
 20
486.2177748857845
 30
0.0
 11
249.1088508392232
 21
486.2953604925553
 31
0.0
  0
LINE
  5
17A6
330
1721
100
AcDbEntity
  8
BEM
 62
     0
370
    -2
100
AcDbLine
 10
201.9104247249827
 20
440.119361723597
 30
0.0
 11
245.3139266614703
 21
480.0825873206854
 31
0.0
  0
SOLID
  5
17A7
330
1721
100
AcDbEntity
  8
BEM
 62
     0
100
AcDbTrace
 10
201.120182753495
 20
440.9776325069808
 30
0.0
 11
202.7006666964703
 21
439.261090940213
 31
0.0
 12
196.7608000246795
 22
435.3779098946708
 32
0.0
 13
196.7608000246795
 23
435.3779098946708
 33
0.0
  0
SOLID
  5
17A8
330
1721
100
AcDbEntity
  8
BEM
 62
     0
100
AcDbTrace
 10
244.5236846899826
 20
480.9408581040692
 30
0.0
 11
246.104168632958
 21
479.2243165373015
 31
0.0
 12
250.4635513617736
 22
484.8240391496115
 32
0.0
 13
250.4635513617736
 23
484.8240391496115
 33
0.0
  0
MTEXT
  5
17A9
330
1721
100
AcDbEntity
  8
BEM
 62
     1
100
AcDbMText
 10
232.1760045890842
 20
476.8216070326625
 30
0.0
 40
7.0
 41
0.0
 71
     5
 72
     1
  1
\A1;73
 11
0.7356606714718912
 21
0.6773502612751593
 31
0.0
 73
     1
 44
1.0
  0
POINT
  5
17AA
330
1721
100
AcDbEntity
  8
Defpoints
 62
     0
100
AcDbPoint
 10
196.8322359910907
 20
435.3003242879001
 30
0.0
  0
POINT
  5
17AB
330
1721
100
AcDbEntity
  8
Defpoints
 62
     0
100
AcDbPoint
 10
250.5349873281848
 20
484.7464535428408
 30
0.0
  0
POINT
  5
17AC
330
1721
100
AcDbEntity
  8
Defpoints
 62
     0
100
AcDbPoint
 10
250.4635513617736
 20
484.8240391496115
 30
0.0
  0
ENDBLK
  5
172A
330
1721
100
AcDbEntity
  8
0
100
AcDbBlockEnd
  0
BLOCK
  5
1854
330
1848
100
AcDbEntity
  8
0
100
AcDbBlockBegin
  2
*D7
 70
     1
 10
0.0
 20
0.0
 30
0.0
  3
*D7
  1

  0
LINE
  5
1856
330
1848
100
AcDbEntity
  8
BEM
 62
     0
370
    -2
100
AcDbLine
 10
227.1832613544287
 20
302.2589943056389
 30
0.0
 11
227.1832613544287
 21
302.3164003068736
 31
0.0
  0
LINE
  5
1857
330
1848
100
AcDbEntity
  8
BEM
 62
     0
370
    -2
100
AcDbLine
 10
220.1832613544287
 20
302.2589943056389
 30
0.0
 11
220.1832613544287
 21
302.3164003068736
 31
0.0
  0
LINE
  5
1858
330
1848
100
AcDbEntity
  8
BEM
 62
     0
370
    -2
100
AcDbLine
 10
234.1832613544287
 20
300.3164003068736
 30
0.0
 11
241.1832613544287
 21
300.3164003068736
 31
0.0
  0
LINE
  5
1859
330
1848
100
AcDbEntity
  8
BEM
 62
     0
370
    -2
100
AcDbLine
 10
213.1832613544287
 20
300.3164003068736
 30
0.0
 11
196.4499280210954
 21
300.3164003068736
 31
0.0
  0
LINE
  5
185A
330
1848
100
AcDbEntity
  8
BEM
 62
     0
370
    -2
100
AcDbLine
 10
227.1832613544287
 20
300.3164003068736
 30
0.0
 11
220.1832613544287
 21
300.3164003068736
 31
0.0
  0
SOLID
  5
185B
330
1848
100
AcDbEntity
  8
BEM
 62
     0
100
AcDbTrace
 10
234.1832613544287
 20
301.4830669735403
 30
0.0
 11
234.1832613544287
 21
299.1497336402069
 31
0.0
 12
227.1832613544287
 22
300.3164003068736
 32
0.0
 13
227.1832613544287
 23
300.3164003068736
 33
0.0
  0
SOLID
  5
185C
330
1848
100
AcDbEntity
  8
BEM
 62
     0
100
AcDbTrace
 10
213.1832613544287
 20
301.4830669735403
 30
0.0
 11
213.1832613544287
 21
299.1497336402069
 31
0.0
 12
220.1832613544287
 22
300.3164003068736
 32
0.0
 13
220.1832613544287
 23
300.3164003068736
 33
0.0
  0
MTEXT
  5
185D
330
1848
100
AcDbEntity
  8
BEM
 62
     1
100
AcDbMText
 10
201.3165946877621
 20
306.8164003068736
 30
0.0
 40
7.0
 41
0.0
 71
     5
 72
     1
  1
\A1;7
 73
     1
 44
1.0
  0
POINT
  5
185E
330
1848
100
AcDbEntity
  8
Defpoints
 62
     0
100
AcDbPoint
 10
227.1832613544287
 20
300.2589943056389
 30
0.0
  0
POINT
  5
185F
330
1848
100
AcDbEntity
  8
Defpoints
 62
     0
100
AcDbPoint
 10
220.1832613544287
 20
300.2589943056389
 30
0.0
  0
POINT
  5
1860
330
1848
100
AcDbEntity
  8
Defpoints
 62
     0
100
AcDbPoint
 10
220.1832613544287
 20
300.3164003068736
 30
0.0
  0
ENDBLK
  5
1855
330
1848
100
AcDbEntity
  8
0
100
AcDbBlockEnd
  0
BLOCK
  5
1886
330
187C
100
AcDbEntity
  8
0
100
AcDbBlockBegin
  2
*D8
 70
     1
 10
0.0
 20
0.0
 30
0.0
  3
*D8
  1

  0
LINE
  5
187D
330
187C
100
AcDbEntity
  8
BEM
 62
     0
370
    -2
100
AcDbLine
 10
170.5326174500557
 20
205.1621555904836
 30
0.0
 11
155.1136944065215
 21
205.1621555904836
 31
0.0
  0
LINE
  5
187E
330
187C
100
AcDbEntity
  8
BEM
 62
     0
370
    -2
100
AcDbLine
 10
170.5322613544287
 20
180.1621708494515
 30
0.0
 11
155.1136944065215
 21
180.1621708494515
 31
0.0
  0
LINE
  5
187F
330
187C
100
AcDbEntity
  8
BEM
 62
     0
370
    -2
100
AcDbLine
 10
157.1136944065215
 20
198.1621555904835
 30
0.0
 11
157.1136944065215
 21
187.1621708494515
 31
0.0
  0
SOLID
  5
1880
330
187C
100
AcDbEntity
  8
BEM
 62
     0
100
AcDbTrace
 10
155.9470277398549
 20
198.1621555904835
 30
0.0
 11
158.2803610731882
 21
198.1621555904835
 31
0.0
 12
157.1136944065215
 22
205.1621555904836
 32
0.0
 13
157.1136944065215
 23
205.1621555904836
 33
0.0
  0
SOLID
  5
1881
330
187C
100
AcDbEntity
  8
BEM
 62
     0
100
AcDbTrace
 10
155.9470277398548
 20
187.1621708494515
 30
0.0
 11
158.2803610731881
 21
187.1621708494515
 31
0.0
 12
157.1136944065215
 22
180.1621708494515
 32
0.0
 13
157.1136944065215
 23
180.1621708494515
 33
0.0
  0
MTEXT
  5
1882
330
187C
100
AcDbEntity
  8
BEM
 62
     1
100
AcDbMText
 10
150.6136944065215
 20
192.6621632199675
 30
0.0
 40
7.0
 41
0.0
 71
     5
 72
     1
  1
\A1;25
 11
0.0000000000000001
 21
1.0
 31
0.0
 73
     1
 44
1.0
  0
POINT
  5
1883
330
187C
100
AcDbEntity
  8
Defpoints
 62
     0
100
AcDbPoint
 10
172.5326174500557
 20
205.1621555904836
 30
0.0
  0
POINT
  5
1884
330
187C
100
AcDbEntity
  8
Defpoints
 62
     0
100
AcDbPoint
 10
172.5322613544287
 20
180.1621708494515
 30
0.0
  0
POINT
  5
1885
330
187C
100
AcDbEntity
  8
Defpoints
 62
     0
100
AcDbPoint
 10
157.1136944065215
 20
180.1621708494515
 30
0.0
  0
ENDBLK
  5
1887
330
187C
100
AcDbEntity
  8
0
100
AcDbBlockEnd
  0
ENDSEC
  0
SECTION
  2
ENTITIES
  0
LINE
  5
57
330
1E
100
AcDbEntity
  8
STEMPEL
100
AcDbLine
 10
410.0
 20
110.0
 30
0.0
 11
39.99999999999997
 21
110.0
 31
0.0
  0
LINE
  5
58
330
1E
100
AcDbEntity
  8
STEMPEL
100
AcDbLine
 10
136.0000000000001
 20
109.9999999999999
 30
0.0
 11
136.0
 21
9.999999999999971
 31
0.0
  0
LINE
  5
59
330
1E
100
AcDbEntity
  8
STEMPEL
100
AcDbLine
 10
220.0
 20
110.0
 30
0.0
 11
220.0
 21
9.999999999999971
 31
0.0
  0
LINE
  5
5A
330
1E
100
AcDbEntity
  8
STEMPEL
100
AcDbLine
 10
332.0
 20
109.9999999999997
 30
0.0
 11
332.0
 21
40.0
 31
0.0
  0
LINE
  5
5B
330
1E
100
AcDbEntity
  8
STEMPEL
100
AcDbLine
 10
135.9999999999999
 20
29.99999999999997
 30
0.0
 11
39.99999999999997
 21
29.99999999999997
 31
0.0
  0
LINE
  5
5C
330
1E
100
AcDbEntity
  8
STEMPEL
100
AcDbLine
 10
410.0
 20
40.0
 30
0.0
 11
136.0000000000001
 21
39.99999999999997
 31
0.0
  0
LINE
  5
5D
330
1E
100
AcDbEntity
  8
STEMPEL
100
AcDbLine
 10
410.0
 20
80.0
 30
0.0
 11
136.0000000000001
 21
79.99999999999994
 31
0.0
  0
LINE
  5
5E
330
1E
100
AcDbEntity
  8
VOLL
100
AcDbLine
 10
54.00000000000009
 20
110.0
 30
0.0
 11
53.99999999999997
 21
9.999999999999971
 31
0.0
  0
LINE
  5
5F
330
1E
100
AcDbEntity
  8
VOLL
100
AcDbLine
 10
94.00000000000011
 20
109.9999999999999
 30
0.0
 11
94.0
 21
9.999999999999971
 31
0.0
  0
LINE
  5
60
330
1E
100
AcDbEntity
  8
VOLL
100
AcDbLine
 10
114.0000000000001
 20
109.9999999999999
 30
0.0
 11
114.0
 21
9.999999999999971
 31
0.0
  0
LINE
  5
61
330
1E
100
AcDbEntity
  8
VOLL
100
AcDbLine
 10
154.0000000000001
 20
79.99999999999994
 30
0.0
 11
154.0000000000001
 21
39.99999999999997
 31
0.0
  0
LINE
  5
62
330
1E
100
AcDbEntity
  8
VOLL
100
AcDbLine
 10
180.0000000000001
 20
109.9999999999998
 30
0.0
 11
180.0
 21
39.99999999999997
 31
0.0
  0
LINE
  5
63
330
1E
100
AcDbEntity
  8
HILF
100
AcDbLine
 10
40.00000000000008
 20
100.0
 30
0.0
 11
136.0000000000001
 21
100.0
 31
0.0
  0
LINE
  5
64
330
1E
100
AcDbEntity
  8
HILF
100
AcDbLine
 10
40.00000000000008
 20
90.00000000000005
 30
0.0
 11
136.0000000000001
 21
90.00000000000005
 31
0.0
  0
LINE
  5
65
330
1E
100
AcDbEntity
  8
HILF
100
AcDbLine
 10
40.00000000000008
 20
79.99999999999994
 30
0.0
 11
136.0000000000001
 21
79.99999999999994
 31
0.0
  0
LINE
  5
66
330
1E
100
AcDbEntity
  8
HILF
100
AcDbLine
 10
40.00000000000008
 20
69.99999999999994
 30
0.0
 11
136.0000000000001
 21
69.99999999999994
 31
0.0
  0
LINE
  5
67
330
1E
100
AcDbEntity
  8
HILF
100
AcDbLine
 10
40.00000000000008
 20
59.99999999999997
 30
0.0
 11
136.0000000000001
 21
59.99999999999997
 31
0.0
  0
LINE
  5
68
330
1E
100
AcDbEntity
  8
HILF
100
AcDbLine
 10
40.00000000000008
 20
49.99999999999997
 30
0.0
 11
136.0000000000001
 21
49.99999999999997
 31
0.0
  0
LINE
  5
69
330
1E
100
AcDbEntity
  8
HILF
100
AcDbLine
 10
40.00000000000008
 20
39.99999999999997
 30
0.0
 11
136.0000000000001
 21
39.99999999999997
 31
0.0
  0
LINE
  5
6A
330
1E
100
AcDbEntity
  8
HILF
100
AcDbLine
 10
136.0000000000001
 20
69.99999999999994
 30
0.0
 11
220.0
 21
69.99999999999994
 31
0.0
  0
LINE
  5
6B
330
1E
100
AcDbEntity
  8
HILF
100
AcDbLine
 10
136.0000000000001
 20
59.99999999999997
 30
0.0
 11
220.0
 21
59.99999999999997
 31
0.0
  0
LINE
  5
6C
330
1E
100
AcDbEntity
  8
HILF
100
AcDbLine
 10
136.0000000000001
 20
49.99999999999997
 30
0.0
 11
220.0
 21
49.99999999999997
 31
0.0
  0
LINE
  5
6D
330
1E
100
AcDbEntity
  8
HILF
100
AcDbLine
 10
224.7736801096948
 20
84.03758247564139
 30
0.0
 11
324.8353916556311
 21
84.03758247564139
 31
0.0
  0
LINE
  5
6E
330
1E
100
AcDbEntity
  8
HILF
100
AcDbLine
 10
224.7736801096948
 20
69.99999999999994
 30
0.0
 11
324.835391655631
 21
69.99999999999994
 31
0.0
  0
LINE
  5
6F
330
1E
100
AcDbEntity
  8
HILF
100
AcDbLine
 10
224.7736801096948
 20
59.99999999999997
 30
0.0
 11
324.835391655631
 21
59.99999999999997
 31
0.0
  0
LINE
  5
70
330
1E
100
AcDbEntity
  8
HILF
100
AcDbLine
 10
224.7736801096948
 20
49.99999999999997
 30
0.0
 11
324.835391655631
 21
49.99999999999997
 31
0.0
  0
LINE
  5
71
330
1E
100
AcDbEntity
  8
VOLL
100
AcDbLine
 10
332.0
 20
60.0
 30
0.0
 11
410.0
 21
60.0
 31
0.0
  0
LINE
  5
72
330
1E
100
AcDbEntity
  8
HILF
100
AcDbLine
 10
336.7238616296993
 20
83.77983636955827
 30
0.0
 11
404.8588839326728
 21
83.77983636955827
 31
0.0
  0
LINE
  5
73
330
1E
100
AcDbEntity
  8
HILF
100
AcDbLine
 10
223.4909699289885
 20
14.89398258028314
 30
0.0
 11
404.8588839326728
 21
14.89398258028314
 31
0.0
  0
TEXT
  5
74
330
1E
100
AcDbEntity
  8
TEXT
100
AcDbText
 10
63.86165979631819
 20
18.67381894984132
 30
0.0
 40
4.0
  1
Änderung
 41
0.8
  7
GREEKS
 72
     1
 11
74.60451693917534
 21
18.67381894984132
 31
0.0
100
AcDbText
  0
TEXT
  5
75
330
1E
100
AcDbEntity
  8
TEXT
100
AcDbText
 10
143.5163572150377
 20
102.4620895087088
 30
0.0
 40
5.0
  1
Maßstab
 41
0.8
  7
GREEKS
100
AcDbText
  0
TEXT
  5
76
330
1E
100
AcDbEntity
  8
TEXT
100
AcDbText
 10
184.2858954734051
 20
102.4184168434819
 30
0.0
 40
5.0
  1
Zul. Abw.
 41
0.8
  7
GREEKS
100
AcDbText
  0
TEXT
  5
77
330
1E
100
AcDbEntity
  8
TEXT
100
AcDbText
 10
224.877940380901
 20
102.5489328011779
 30
0.0
 40
5.0
  1
Benennung
 41
0.8
  7
GREEKS
100
AcDbText
  0
TEXT
  5
78
330
1E
100
AcDbEntity
  8
TEXT
100
AcDbText
 10
336.178754957634
 20
102.3132034537136
 30
0.0
 40
5.0
  1
Zeichnungs Nr.
 41
0.8
  7
GREEKS
100
AcDbText
  0
TEXT
  5
79
330
1E
100
AcDbEntity
  8
TEXT
100
AcDbText
 10
224.742238391136
 20
30.84560570193057
 30
0.0
 40
5.0
  1
Bauvorhaben
 41
0.8
  7
GREEKS
100
AcDbText
  0
TEXT
  5
7A
330
1E
100
AcDbEntity
  8
TEXT
100
AcDbText
 10
336.7238616296993
 20
73.1811823709997
 30
0.0
 40
5.0
  1
Ersatz für:
 41
0.8
  7
GREEKS
100
AcDbText
  0
TEXT
  5
7B
330
1E
100
AcDbEntity
  8
TEXT
100
AcDbText
 10
48.26641107045756
 20
13.65465846027192
 30
0.0
 40
4.0
  1
Index
 50
90.0
 41
0.8
  7
GREEKS
100
AcDbText
  0
TEXT
  5
7C
330
1E
100
AcDbEntity
  8
TEXT
100
AcDbText
 10
100.0934676075481
 20
18.6715626933981
 30
0.0
 40
4.0
  1
Tag
 41
0.8
  7
GREEKS
 72
     1
 11
103.8268009408814
 21
18.6715626933981
 31
0.0
100
AcDbText
  0
TEXT
  5
7D
330
1E
100
AcDbEntity
  8
TEXT
100
AcDbText
 10
119.0122744386592
 20
18.59324216966408
 30
0.0
 40
4.0
  1
Name
 41
0.8
  7
GREEKS
 72
     1
 11
125.3360839624688
 21
18.59324216966408
 31
0.0
100
AcDbText
  0
TEXT
  5
7E
330
1E
100
AcDbEntity
  8
TEXT
100
AcDbText
 10
162.3311673153651
 20
73.31880501229926
 30
0.0
 40
4.0
  1
Tag
 41
0.8
  7
GREEKS
100
AcDbText
  0
TEXT
  5
7F
330
1E
100
AcDbEntity
  8
TEXT
100
AcDbText
 10
192.4626584226295
 20
73.30961091915225
 30
0.0
 40
4.0
  1
Name
 41
0.8
  7
GREEKS
100
AcDbText
  0
TEXT
  5
80
330
1E
100
AcDbEntity
  8
TEXT
100
AcDbText
 10
137.5836127167615
 20
63.62990369617964
 30
0.0
 40
4.0
  1
Gez.
 41
0.8
  7
GREEKS
100
AcDbText
  0
TEXT
  5
81
330
1E
100
AcDbEntity
  8
TEXT
100
AcDbText
 10
137.5515086571672
 20
53.68926291428377
 30
0.0
 40
4.0
  1
Gepr.
 41
0.8
  7
GREEKS
100
AcDbText
  0
TEXT
  5
82
330
1E
100
AcDbEntity
  8
TEXT
100
AcDbText
 10
137.6006777387304
 20
43.52946389649807
 30
0.0
 40
4.0
  1
Norm.
 41
0.8
  7
GREEKS
100
AcDbText
  0
LINE
  5
83
330
1E
100
AcDbEntity
  8
STEMPEL
100
AcDbLine
 10
49.99999999999989
 20
10.0
 30
0.0
 11
410.0
 21
10.0
 31
0.0
  0
TEXT
  5
84
330
1E
100
AcDbEntity
  8
TEXT
100
AcDbText
 10
337.2400861497006
 20
52.07416177878602
 30
0.0
 40
5.0
  1
ersetzt durch:
 41
0.8
  7
GREEKS
100
AcDbText
  0
LINE
  5
85
330
1E
100
AcDbEntity
  8
STEMPEL
100
AcDbLine
 10
410.0
 20
10.0
 30
0.0
 11
39.99999999999989
 21
10.0
 31
0.0
  0
LINE
  5
86
330
1E
100
AcDbEntity
  8
STEMPEL
100
AcDbLine
 10
410.0
 20
10.0
 30
0.0
 11
410.0
 21
584.0
 31
0.0
  0
LINE
  5
87
330
1E
100
AcDbEntity
  8
STEMPEL
100
AcDbLine
 10
40.0
 20
10.0
 30
0.0
 11
39.99999999999989
 21
584.0
 31
0.0
  0
LINE
  5
88
330
1E
100
AcDbEntity
  8
STEMPEL
100
AcDbLine
 10
410.0
 20
584.0
 30
0.0
 11
39.99999999999989
 21
584.0
 31
0.0
  0
LINE
  5
89
330
1E
100
AcDbEntity
  8
HILF
100
AcDbLine
 10
0.0
 20
0.0
 30
0.0
 11
-0.0000000000001137
 21
594.0
 31
0.0
  0
LINE
  5
8A
330
1E
100
AcDbEntity
  8
HILF
100
AcDbLine
 10
419.9999999999999
 20
594.0000000000002
 30
0.0
 11
0.0
 21
594.0
 31
0.0
  0
LINE
  5
8B
330
1E
100
AcDbEntity
  8
HILF
100
AcDbLine
 10
420.0
 20
0.0
 30
0.0
 11
0.0
 21
0.0
 31
0.0
  0
LINE
  5
8C
330
1E
100
AcDbEntity
  8
HILF
100
AcDbLine
 10
31.08767135713856
 20
297.0
 30
0.0
 11
0.0000000000001137
 21
297.0
 31
0.0
  0
TEXT
  5
8D
330
1E
100
AcDbEntity
  8
TEXT
100
AcDbText
 10
138.622109822104
 20
73.14025471151666
 30
0.0
 40
4.0
  1
2012
 41
0.8
  7
GREEKS
100
AcDbText
  0
LINE
  5
8E
330
1E
100
AcDbEntity
  8
HILF
100
AcDbLine
 10
420.0
 20
-0.0000000000001137
 30
0.0
 11
419.9999999999999
 21
594.0
 31
0.0
  0
TEXT
  5
8F
330
1E
100
AcDbEntity
  8
VOLL
100
AcDbText
 10
78.07675471698113
 20
31.02594776470585
 30
0.0
 40
1.8
  1

  7
GREEKS
100
AcDbText
  0
TEXT
  5
90
330
1E
100
AcDbEntity
  8
TEXT
100
AcDbText
 10
41.85509950977674
 20
111.6719999999999
 30
0.0
 40
5.0
  1
Erstellt mit AUTOCAD 2004
 41
0.8
  7
GREEKS
100
AcDbText
  0
TEXT
  5
91
330
1E
100
AcDbEntity
  8
TEXT
100
AcDbText
 10
194.4216048581257
 20
63.0896391972351
 30
0.0
 40
4.0
  1
Koeh
 41
0.8
  7
GREEKS
 72
     1
 11
199.6787477152685
 21
63.0896391972351
 31
0.0
100
AcDbText
  0
TEXT
  5
92
330
1E
100
AcDbEntity
  8
TEXT
 62
     1
100
AcDbText
 10
346.2033232399428
 20
88.14901428913959
 30
0.0
 40
7.0
  1
09917070W
 41
0.8
  7
GREEKS
 72
     1
 11
369.6699899066094
 21
88.14901428913959
 31
0.0
100
AcDbText
  0
TEXT
  5
93
330
1E
100
AcDbEntity
  8
TEXT
 62
     1
100
AcDbText
 10
150.5006306481887
 20
88.14901428913959
 30
0.0
 40
7.0
  1
1:2
 41
0.8
  7
GREEKS
100
AcDbText
  0
TEXT
  5
94
330
1E
100
AcDbEntity
  8
TEXT
100
AcDbText
 10
160.7037590129979
 20
63.10765040825732
 30
0.0
 40
4.0
  1
29.10.
 41
0.8
  7
GREEKS
 72
     1
 11
167.4085209177598
 21
63.10765040825732
 31
0.0
100
AcDbText
  0
TEXT
  5
95
330
1E
100
AcDbEntity
  8
TEXT
 62
     1
100
AcDbText
 10
226.8935731057402
 20
87.41748789253779
 30
0.0
 40
7.0
  1
Rohrschelle DN70
 41
0.8
  7
GREEKS
100
AcDbText
  0
TEXT
  5
96
330
1E
100
AcDbEntity
  8
TEXT
100
AcDbText
 10
225.1296391125315
 20
71.50334417585288
 30
0.0
 40
5.0
  1
mit Schlagstift
 41
0.8
  7
GREEKS
100
AcDbText
  0
TEXT
  5
98
330
1E
100
AcDbEntity
  8
TEXT
100
AcDbText
 10
225.1296391125315
 20
51.64011943042158
 30
0.0
 40
5.0
  1
EDV-Art.Nr. 09917.070X
 41
0.8
  7
GREEKS
100
AcDbText
  0
TEXT
  5
99
330
1E
100
AcDbEntity
  8
TEXT
100
AcDbText
 10
224.9837501577827
 20
42.62974153022632
 30
0.0
 40
4.0
  1
09917070W.DWG
 41
0.8
  7
GREEKS
100
AcDbText
  0
TEXT
  5
9A
330
1E
100
AcDbEntity
  8
TEXT
100
AcDbText
 10
182.626132208084
 20
90.76363841023022
 30
0.0
 40
4.0
  1
DIN EN1123-2
 41
0.8
  7
GREEKS
 72
     1
 11
199.6166083985602
 21
90.76363841023022
 31
0.0
100
AcDbText
  0
INSERT
  5
9B
330
1E
100
AcDbEntity
  8
STEMPEL
100
AcDbBlockReference
  2
LOGO
 10
140.9955485457794
 20
45.02105276448322
 30
0.0
 41
2.0
 42
2.0
 43
2.0
  0
TEXT
  5
118
330
1E
100
AcDbEntity
  8
BEM
100
AcDbText
 10
417.3022923857165
 20
10.16790107998849
 30
0.0
 40
4.0
  1
Diese Zeichnung ist urheberrechtlich geschützt und bleibt unser Eigentum. Sie darf weder ganz noch teilweise verfielfältigt und nicht an Dritte weitergegeben werden.
 50
90.0
 41
0.8
  7
GREEKS
100
AcDbText
  0
TEXT
  5
C1B
330
1E
100
AcDbEntity
  8
TEXT
 62
     1
100
AcDbText
 10
294.2397913817538
 20
494.4047272544962
 30
0.0
 40
7.0
  1
Schraube M6x16
 41
0.8
  7
GREEKS
100
AcDbText
  0
LINE
  5
C1C
330
1E
100
AcDbEntity
  8
TEXT
 62
     2
100
AcDbLine
 10
292.1198983857083
 20
491.0248218375998
 30
0.0
 11
367.1215802033388
 21
491.0248218375998
 31
0.0
  0
LINE
  5
C1D
330
1E
100
AcDbEntity
  8
TEXT
 62
     2
100
AcDbLine
 10
292.1198983857083
 20
491.0248218375998
 30
0.0
 11
271.9651210160873
 21
466.0124033380879
 31
0.0
  0
LINE
  5
1540
330
1E
100
AcDbEntity
  8
HILF
100
AcDbLine
 10
185.3432613544287
 20
197.6621708494515
 30
0.0
 11
262.0242613544288
 21
197.6621708494515
 31
0.0
  0
LINE
  5
1541
330
1E
100
AcDbEntity
  8
HILF
100
AcDbLine
 10
185.3432613544287
 20
187.6621708494515
 30
0.0
 11
262.0242613544288
 21
187.6621708494515
 31
0.0
  0
CIRCLE
  5
1542
330
1E
100
AcDbEntity
  8
STEMPEL
100
AcDbCircle
 10
270.1842613544288
 20
192.6621708494515
 30
0.0
 40
5.0
  0
LINE
  5
1543
330
1E
100
AcDbEntity
  8
HILF
100
AcDbLine
 10
270.9342613544288
 20
189.5941708494515
 30
0.0
 11
269.4342613544288
 21
189.5941708494515
 31
0.0
  0
LINE
  5
1544
330
1E
100
AcDbEntity
  8
HILF
100
AcDbLine
 10
270.9342613544288
 20
195.7311708494515
 30
0.0
 11
269.4342613544288
 21
195.7311708494515
 31
0.0
  0
LINE
  5
1545
330
1E
100
AcDbEntity
  8
HILF
100
AcDbLine
 10
268.1372613544287
 20
190.6161708494515
 30
0.0
 11
269.1942613544288
 21
191.9121708494515
 31
0.0
  0
LINE
  5
1546
330
1E
100
AcDbEntity
  8
HILF
100
AcDbLine
 10
269.4342613544288
 20
191.6731708494515
 30
0.0
 11
268.1372613544287
 21
190.6161708494515
 31
0.0
  0
LINE
  5
1547
330
1E
100
AcDbEntity
  8
HILF
100
AcDbLine
 10
272.2302613544288
 20
190.6161708494515
 30
0.0
 11
270.9342613544288
 21
191.6731708494515
 31
0.0
  0
LINE
  5
1548
330
1E
100
AcDbEntity
  8
HILF
100
AcDbLine
 10
271.1742613544288
 20
191.9121708494515
 30
0.0
 11
272.2302613544288
 21
190.6161708494515
 31
0.0
  0
LINE
  5
1549
330
1E
100
AcDbEntity
  8
HILF
100
AcDbLine
 10
272.2302613544288
 20
194.7091708494515
 30
0.0
 11
271.1742613544288
 21
193.4121708494515
 31
0.0
  0
LINE
  5
154A
330
1E
100
AcDbEntity
  8
HILF
100
AcDbLine
 10
270.9342613544288
 20
193.6521708494515
 30
0.0
 11
272.2302613544288
 21
194.7091708494515
 31
0.0
  0
LINE
  5
154B
330
1E
100
AcDbEntity
  8
HILF
100
AcDbLine
 10
268.1372613544287
 20
194.7091708494515
 30
0.0
 11
269.4342613544288
 21
193.6521708494515
 31
0.0
  0
LINE
  5
154C
330
1E
100
AcDbEntity
  8
HILF
100
AcDbLine
 10
269.1942613544288
 20
193.4121708494515
 30
0.0
 11
268.1372613544287
 21
194.7091708494515
 31
0.0
  0
ARC
  5
154D
330
1E
100
AcDbEntity
  8
HILF
100
AcDbCircle
 10
270.1842613544288
 20
192.6621708494515
 30
0.0
 40
1.274999999999999
100
AcDbArc
 50
143.9687949600013
 51
216.0312050399987
  0
ARC
  5
154E
330
1E
100
AcDbEntity
  8
HILF
100
AcDbCircle
 10
270.1842613544288
 20
192.6621708494515
 30
0.0
 40
1.274999999999999
100
AcDbArc
 50
233.9687889640013
 51
306.0312110359987
  0
ARC
  5
154F
330
1E
100
AcDbEntity
  8
HILF
100
AcDbCircle
 10
270.1842613544288
 20
192.6621708494515
 30
0.0
 40
1.274999999999999
100
AcDbArc
 50
323.9688056879998
 51
36.03120503999869
  0
ARC
  5
1550
330
1E
100
AcDbEntity
  8
HILF
100
AcDbCircle
 10
270.1842613544288
 20
192.6621708494515
 30
0.0
 40
1.274999999999999
100
AcDbArc
 50
53.96878896400135
 51
126.0312110359986
  0
LINE
  5
1551
330
1E
100
AcDbEntity
  8
STEMPEL
100
AcDbLine
 10
269.4342613544288
 20
193.6121708494516
 30
0.0
 11
269.4342613544288
 21
197.6061708494515
 31
0.0
  0
ARC
  5
1552
330
1E
100
AcDbEntity
  8
STEMPEL
100
AcDbCircle
 10
269.2342613544287
 20
193.6121708494516
 30
0.0
 40
0.2
100
AcDbArc
 50
270.0
 51
0.0087434430012266
  0
LINE
  5
1553
330
1E
100
AcDbEntity
  8
STEMPEL
100
AcDbLine
 10
266.8342613544287
 20
193.4121708494515
 30
0.0
 11
269.2342613544287
 21
193.4121708494515
 31
0.0
  0
LINE
  5
1554
330
1E
100
AcDbEntity
  8
STEMPEL
100
AcDbLine
 10
266.8342613544287
 20
191.9121708494515
 30
0.0
 11
266.8342613544287
 21
193.4121708494515
 31
0.0
  0
LINE
  5
1555
330
1E
100
AcDbEntity
  8
STEMPEL
100
AcDbLine
 10
269.2342613544287
 20
191.9121708494515
 30
0.0
 11
266.8342613544287
 21
191.9121708494515
 31
0.0
  0
ARC
  5
1556
330
1E
100
AcDbEntity
  8
STEMPEL
100
AcDbCircle
 10
269.2342613544287
 20
191.7121708494515
 30
0.0
 40
0.2
100
AcDbArc
 50
0.0
 51
90.0
  0
LINE
  5
1557
330
1E
100
AcDbEntity
  8
STEMPEL
100
AcDbLine
 10
269.4342613544288
 20
187.7191708494515
 30
0.0
 11
269.4342613544288
 21
191.7121708494515
 31
0.0
  0
LINE
  5
1558
330
1E
100
AcDbEntity
  8
STEMPEL
100
AcDbLine
 10
270.9342613544288
 20
191.7121708494515
 30
0.0
 11
270.9342613544288
 21
187.7191708494515
 31
0.0
  0
ARC
  5
1559
330
1E
100
AcDbEntity
  8
STEMPEL
100
AcDbCircle
 10
271.1342613544287
 20
191.7121708494515
 30
0.0
 40
0.2
100
AcDbArc
 50
90.0
 51
180.0
  0
LINE
  5
155A
330
1E
100
AcDbEntity
  8
STEMPEL
100
AcDbLine
 10
273.5342613544288
 20
191.9121708494515
 30
0.0
 11
271.1342613544287
 21
191.9121708494515
 31
0.0
  0
LINE
  5
155B
330
1E
100
AcDbEntity
  8
STEMPEL
100
AcDbLine
 10
273.5342613544288
 20
193.4121708494515
 30
0.0
 11
273.5342613544288
 21
191.9121708494515
 31
0.0
  0
LINE
  5
155C
330
1E
100
AcDbEntity
  8
STEMPEL
100
AcDbLine
 10
271.1342613544287
 20
193.4121708494515
 30
0.0
 11
273.5342613544288
 21
193.4121708494515
 31
0.0
  0
ARC
  5
155D
330
1E
100
AcDbEntity
  8
STEMPEL
100
AcDbCircle
 10
271.1342613544287
 20
193.6121708494516
 30
0.0
 40
0.2
100
AcDbArc
 50
180.0
 51
270.0087434429996
  0
LINE
  5
155E
330
1E
100
AcDbEntity
  8
STEMPEL
100
AcDbLine
 10
270.9342613544288
 20
197.6061708494515
 30
0.0
 11
270.9342613544288
 21
193.6121708494516
 31
0.0
  0
CIRCLE
  5
155F
330
1E
100
AcDbEntity
  8
STEMPEL
100
AcDbCircle
 10
177.1832613544287
 20
192.6621708494515
 30
0.0
 40
5.0
  0
LINE
  5
1560
330
1E
100
AcDbEntity
  8
HILF
100
AcDbLine
 10
177.9332613544287
 20
189.5941708494515
 30
0.0
 11
176.4332613544287
 21
189.5941708494515
 31
0.0
  0
LINE
  5
1561
330
1E
100
AcDbEntity
  8
HILF
100
AcDbLine
 10
177.9332613544287
 20
195.7311708494515
 30
0.0
 11
176.4332613544287
 21
195.7311708494515
 31
0.0
  0
LINE
  5
1562
330
1E
100
AcDbEntity
  8
HILF
100
AcDbLine
 10
175.1362613544287
 20
190.6161708494515
 30
0.0
 11
176.1932613544287
 21
191.9121708494515
 31
0.0
  0
LINE
  5
1563
330
1E
100
AcDbEntity
  8
HILF
100
AcDbLine
 10
176.4332613544287
 20
191.6731708494515
 30
0.0
 11
175.1362613544287
 21
190.6161708494515
 31
0.0
  0
LINE
  5
1564
330
1E
100
AcDbEntity
  8
HILF
100
AcDbLine
 10
179.2292613544287
 20
190.6161708494515
 30
0.0
 11
177.9332613544287
 21
191.6731708494515
 31
0.0
  0
LINE
  5
1565
330
1E
100
AcDbEntity
  8
HILF
100
AcDbLine
 10
178.1732613544287
 20
191.9121708494515
 30
0.0
 11
179.2292613544287
 21
190.6161708494515
 31
0.0
  0
LINE
  5
1566
330
1E
100
AcDbEntity
  8
HILF
100
AcDbLine
 10
179.2292613544287
 20
194.7091708494515
 30
0.0
 11
178.1732613544287
 21
193.4121708494515
 31
0.0
  0
LINE
  5
1567
330
1E
100
AcDbEntity
  8
HILF
100
AcDbLine
 10
177.9332613544287
 20
193.6521708494515
 30
0.0
 11
179.2292613544287
 21
194.7091708494515
 31
0.0
  0
LINE
  5
1568
330
1E
100
AcDbEntity
  8
HILF
100
AcDbLine
 10
175.1362613544287
 20
194.7091708494515
 30
0.0
 11
176.4332613544287
 21
193.6521708494515
 31
0.0
  0
LINE
  5
1569
330
1E
100
AcDbEntity
  8
HILF
100
AcDbLine
 10
176.1932613544287
 20
193.4121708494515
 30
0.0
 11
175.1362613544287
 21
194.7091708494515
 31
0.0
  0
ARC
  5
156A
330
1E
100
AcDbEntity
  8
HILF
100
AcDbCircle
 10
177.1832613544287
 20
192.6621708494515
 30
0.0
 40
1.274999999999999
100
AcDbArc
 50
143.9687949600013
 51
216.0312050399987
  0
ARC
  5
156B
330
1E
100
AcDbEntity
  8
HILF
100
AcDbCircle
 10
177.1832613544287
 20
192.6621708494515
 30
0.0
 40
1.274999999999999
100
AcDbArc
 50
233.9687889640013
 51
306.0312110359987
  0
ARC
  5
156C
330
1E
100
AcDbEntity
  8
HILF
100
AcDbCircle
 10
177.1832613544287
 20
192.6621708494515
 30
0.0
 40
1.274999999999999
100
AcDbArc
 50
323.9688056879998
 51
36.03120503999869
  0
ARC
  5
156D
330
1E
100
AcDbEntity
  8
HILF
100
AcDbCircle
 10
177.1832613544287
 20
192.6621708494515
 30
0.0
 40
1.274999999999999
100
AcDbArc
 50
53.96878896400135
 51
126.0312110359986
  0
LINE
  5
156E
330
1E
100
AcDbEntity
  8
STEMPEL
100
AcDbLine
 10
176.4332613544287
 20
193.6121708494516
 30
0.0
 11
176.4332613544287
 21
197.6061708494515
 31
0.0
  0
ARC
  5
156F
330
1E
100
AcDbEntity
  8
STEMPEL
100
AcDbCircle
 10
176.2332613544287
 20
193.6121708494516
 30
0.0
 40
0.2
100
AcDbArc
 50
270.0
 51
0.0087434430012266
  0
LINE
  5
1570
330
1E
100
AcDbEntity
  8
STEMPEL
100
AcDbLine
 10
173.8332613544287
 20
193.4121708494515
 30
0.0
 11
176.2332613544287
 21
193.4121708494515
 31
0.0
  0
LINE
  5
1571
330
1E
100
AcDbEntity
  8
STEMPEL
100
AcDbLine
 10
173.8332613544287
 20
191.9121708494515
 30
0.0
 11
173.8332613544287
 21
193.4121708494515
 31
0.0
  0
LINE
  5
1572
330
1E
100
AcDbEntity
  8
STEMPEL
100
AcDbLine
 10
176.2332613544287
 20
191.9121708494515
 30
0.0
 11
173.8332613544287
 21
191.9121708494515
 31
0.0
  0
ARC
  5
1573
330
1E
100
AcDbEntity
  8
8
100
AcDbCircle
 10
176.2332613544287
 20
191.7121708494515
 30
0.0
 40
0.2
100
AcDbArc
 50
0.0
 51
90.0
  0
LINE
  5
1574
330
1E
100
AcDbEntity
  8
STEMPEL
100
AcDbLine
 10
176.4332613544287
 20
187.7191708494515
 30
0.0
 11
176.4332613544287
 21
191.7121708494515
 31
0.0
  0
LINE
  5
1575
330
1E
100
AcDbEntity
  8
STEMPEL
100
AcDbLine
 10
177.9332613544287
 20
191.7121708494515
 30
0.0
 11
177.9332613544287
 21
187.7191708494515
 31
0.0
  0
ARC
  5
1576
330
1E
100
AcDbEntity
  8
STEMPEL
100
AcDbCircle
 10
178.1332613544287
 20
191.7121708494515
 30
0.0
 40
0.2
100
AcDbArc
 50
90.0
 51
180.0
  0
LINE
  5
1577
330
1E
100
AcDbEntity
  8
STEMPEL
100
AcDbLine
 10
180.5332613544287
 20
191.9121708494515
 30
0.0
 11
178.1332613544287
 21
191.9121708494515
 31
0.0
  0
LINE
  5
1578
330
1E
100
AcDbEntity
  8
STEMPEL
100
AcDbLine
 10
180.5332613544287
 20
193.4121708494515
 30
0.0
 11
180.5332613544287
 21
191.9121708494515
 31
0.0
  0
LINE
  5
1579
330
1E
100
AcDbEntity
  8
STEMPEL
100
AcDbLine
 10
178.1332613544287
 20
193.4121708494515
 30
0.0
 11
180.5332613544287
 21
193.4121708494515
 31
0.0
  0
ARC
  5
157A
330
1E
100
AcDbEntity
  8
STEMPEL
100
AcDbCircle
 10
178.1332613544287
 20
193.6121708494516
 30
0.0
 40
0.2
100
AcDbArc
 50
180.0
 51
270.0087434429996
  0
LINE
  5
157B
330
1E
100
AcDbEntity
  8
STEMPEL
100
AcDbLine
 10
177.9332613544287
 20
197.6061708494515
 30
0.0
 11
177.9332613544287
 21
193.6121708494516
 31
0.0
  0
ARC
  5
157C
330
1E
100
AcDbEntity
  8
STEMPEL
100
AcDbCircle
 10
253.1842613544288
 20
192.6621708494515
 30
0.0
 40
25.0
100
AcDbArc
 50
329.9999596189993
 51
29.99995961900046
  0
ARC
  5
157D
330
1E
100
AcDbEntity
  8
STEMPEL
100
AcDbCircle
 10
194.1832613544287
 20
192.6621708494515
 30
0.0
 40
25.0
100
AcDbArc
 50
150.0000403809995
 51
210.000040381
  0
LINE
  5
157E
330
1E
100
AcDbEntity
  8
STEMPEL
100
AcDbLine
 10
272.6902613544287
 20
185.3451708494515
 30
0.0
 11
274.1362613544288
 21
185.1421708494515
 31
0.0
  0
LINE
  5
157F
330
1E
100
AcDbEntity
  8
HILF
100
AcDbLine
 10
185.3432613544287
 20
205.1621708494515
 30
0.0
 11
185.3432613544287
 21
180.1621708494515
 31
0.0
  0
LINE
  5
1580
330
1E
100
AcDbEntity
  8
HILF
100
AcDbLine
 10
262.0242613544288
 20
205.1621708494515
 30
0.0
 11
262.0242613544288
 21
180.1621708494515
 31
0.0
  0
LINE
  5
1581
330
1E
100
AcDbEntity
  8
MITTEL
100
AcDbLine
 10
223.6832613544287
 20
210.1621708494515
 30
0.0
 11
223.6832613544287
 21
175.1621708494515
 31
0.0
  0
LINE
  5
1582
330
1E
100
AcDbEntity
  8
MITTEL
100
AcDbLine
 10
177.1832613544287
 20
202.6621708494515
 30
0.0
 11
177.1832613544287
 21
182.6621708494515
 31
0.0
  0
LINE
  5
1583
330
1E
100
AcDbEntity
  8
MITTEL
100
AcDbLine
 10
164.1832613544287
 20
192.6621708494515
 30
0.0
 11
283.1842613544288
 21
192.6621708494515
 31
0.0
  0
LINE
  5
1584
330
1E
100
AcDbEntity
  8
HILF
100
AcDbLine
 10
270.1842613544288
 20
182.6621708494515
 30
0.0
 11
270.1842613544288
 21
202.6621708494515
 31
0.0
  0
LINE
  5
1585
330
1E
100
AcDbEntity
  8
STEMPEL
100
AcDbLine
 10
274.1362613544288
 20
185.1421708494515
 30
0.0
 11
273.4362613544287
 21
180.1621708494515
 31
0.0
  0
LINE
  5
1586
330
1E
100
AcDbEntity
  8
STEMPEL
100
AcDbLine
 10
271.9612613544287
 20
180.1621708494515
 30
0.0
 11
274.8352613544287
 21
180.1621708494515
 31
0.0
  0
LINE
  5
1587
330
1E
100
AcDbEntity
  8
STEMPEL
100
AcDbLine
 10
273.1532613544288
 20
188.6391708494515
 30
0.0
 11
271.9612613544287
 21
180.1621708494515
 31
0.0
  0
LINE
  5
1588
330
1E
100
AcDbEntity
  8
STEMPEL
100
AcDbLine
 10
264.8932613544288
 20
180.1621708494515
 30
0.0
 11
266.2212613544288
 21
189.6141708494515
 31
0.0
  0
LINE
  5
1589
330
1E
100
AcDbEntity
  8
STEMPEL
100
AcDbLine
 10
172.5322613544287
 20
180.1621708494515
 30
0.0
 11
271.9612613544287
 21
180.1621708494515
 31
0.0
  0
LINE
  5
158A
330
1E
100
AcDbEntity
  8
STEMPEL
100
AcDbLine
 10
274.8352613544287
 20
205.1621708494515
 30
0.0
 11
172.5322613544287
 21
205.1621708494515
 31
0.0
  0
LINE
  5
158B
330
1E
100
AcDbEntity
  8
STEMPEL
100
AcDbLine
 10
264.8932613544288
 20
463.5232900674616
 30
0.0
 11
264.8932613544288
 21
461.5232900674616
 31
0.0
  0
LINE
  5
158C
330
1E
100
AcDbEntity
  8
STEMPEL
100
AcDbLine
 10
275.5042613544288
 20
461.5232900674616
 30
0.0
 11
275.5042613544288
 21
463.5232900674616
 31
0.0
  0
LINE
  5
158D
330
1E
100
AcDbEntity
  8
STEMPEL
100
AcDbLine
 10
274.4872613544288
 20
463.5232900674616
 30
0.0
 11
275.1842613544288
 21
463.5232900674616
 31
0.0
  0
LINE
  5
158E
330
1E
100
AcDbEntity
  8
STEMPEL
100
AcDbLine
 10
171.8622613544287
 20
461.5232900674616
 30
0.0
 11
171.8622613544287
 21
463.5232900674616
 31
0.0
  0
ARC
  5
158F
330
1E
100
AcDbEntity
  8
HILF
100
AcDbCircle
 10
223.6832613544287
 20
460.0232900674616
 30
0.0
 40
39.5
100
AcDbArc
 50
5.323657548000784
 51
174.6763424519992
  0
LINE
  5
1590
330
1E
100
AcDbEntity
  8
STEMPEL
100
AcDbLine
 10
274.3442613544287
 20
464.5232900674616
 30
0.0
 11
274.3442613544287
 21
463.5382900674617
 31
0.0
  0
LINE
  5
1591
330
1E
100
AcDbEntity
  8
STEMPEL
100
AcDbLine
 10
272.3132613544288
 20
464.5232900674616
 30
0.0
 11
274.3442613544287
 21
464.5232900674616
 31
0.0
  0
LINE
  5
1592
330
1E
100
AcDbEntity
  8
STEMPEL
100
AcDbLine
 10
272.3132613544288
 20
463.7232900674616
 30
0.0
 11
272.3132613544288
 21
464.5232900674616
 31
0.0
  0
ARC
  5
1593
330
1E
100
AcDbEntity
  8
STEMPEL
100
AcDbCircle
 10
274.7632613544288
 20
463.9732900674617
 30
0.0
 40
2.463
100
AcDbArc
 50
185.837524417999
 51
264.1736792309998
  0
LINE
  5
1594
330
1E
100
AcDbEntity
  8
STEMPEL
100
AcDbLine
 10
263.8082613544288
 20
463.5232900674616
 30
0.0
 11
272.3422613544288
 21
463.5232900674616
 31
0.0
  0
ARC
  5
1595
330
1E
100
AcDbEntity
  8
STEMPEL
100
AcDbCircle
 10
263.8082613544288
 20
465.5232900674616
 30
0.0
 40
2.0
100
AcDbArc
 50
187.805025338999
 51
270.0
  0
ARC
  5
1596
330
1E
100
AcDbEntity
  8
STEMPEL
100
AcDbCircle
 10
223.6832613544287
 20
460.0232900674616
 30
0.0
 40
38.5
100
AcDbArc
 50
7.805025338999073
 51
172.1949746610009
  0
ARC
  5
1597
330
1E
100
AcDbEntity
  8
STEMPEL
100
AcDbCircle
 10
183.5582613544287
 20
465.5232900674616
 30
0.0
 40
2.0
100
AcDbArc
 50
270.0
 51
352.1949746610009
  0
LINE
  5
1598
330
1E
100
AcDbEntity
  8
STEMPEL
100
AcDbLine
 10
169.1832613544287
 20
463.5232900674616
 30
0.0
 11
183.5582613544287
 21
463.5232900674616
 31
0.0
  0
LINE
  5
1599
330
1E
100
AcDbEntity
  8
STEMPEL
100
AcDbLine
 10
169.1832613544287
 20
461.5232900674616
 30
0.0
 11
169.1832613544287
 21
463.5232900674616
 31
0.0
  0
LINE
  5
159A
330
1E
100
AcDbEntity
  8
STEMPEL
100
AcDbLine
 10
183.5582613544287
 20
461.5232900674616
 30
0.0
 11
169.1832613544287
 21
461.5232900674616
 31
0.0
  0
ARC
  5
159B
330
1E
100
AcDbEntity
  8
STEMPEL
100
AcDbCircle
 10
183.5582613544287
 20
465.5232900674616
 30
0.0
 40
4.0
100
AcDbArc
 50
270.0
 51
352.1949746610009
  0
ARC
  5
159C
330
1E
100
AcDbEntity
  8
STEMPEL
100
AcDbCircle
 10
223.6832613544287
 20
460.0232900674616
 30
0.0
 40
36.5
100
AcDbArc
 50
7.805025338999073
 51
172.1949746610009
  0
ARC
  5
159D
330
1E
100
AcDbEntity
  8
STEMPEL
100
AcDbCircle
 10
263.8082613544288
 20
465.5232900674616
 30
0.0
 40
4.0
100
AcDbArc
 50
187.805025338999
 51
270.0
  0
LINE
  5
159E
330
1E
100
AcDbEntity
  8
STEMPEL
100
AcDbLine
 10
267.1842613544288
 20
461.5232900674616
 30
0.0
 11
263.8082613544288
 21
461.5232900674616
 31
0.0
  0
LINE
  5
159F
330
1E
100
AcDbEntity
  8
STEMPEL
100
AcDbLine
 10
278.1842613544288
 20
461.5232900674616
 30
0.0
 11
273.1842613544288
 21
461.5232900674616
 31
0.0
  0
LINE
  5
15A0
330
1E
100
AcDbEntity
  8
STEMPEL
100
AcDbLine
 10
278.1842613544288
 20
463.5232900674616
 30
0.0
 11
278.1842613544288
 21
461.5232900674616
 31
0.0
  0
LINE
  5
15A1
330
1E
100
AcDbEntity
  8
STEMPEL
100
AcDbLine
 10
274.4872613544288
 20
463.5232900674616
 30
0.0
 11
278.1842613544288
 21
463.5232900674616
 31
0.0
  0
ARC
  5
15A2
330
1E
100
AcDbEntity
  8
STEMPEL
100
AcDbCircle
 10
274.4872613544288
 20
464.2232900674616
 30
0.0
 40
0.7
100
AcDbArc
 50
180.0
 51
270.0
  0
LINE
  5
15A3
330
1E
100
AcDbEntity
  8
STEMPEL
100
AcDbLine
 10
273.7872613544288
 20
464.5232900674616
 30
0.0
 11
273.7872613544288
 21
464.2232900674616
 31
0.0
  0
LINE
  5
15A8
330
1E
100
AcDbEntity
  8
STEMPEL
100
AcDbLine
 10
223.6832613544287
 20
256.5232900674617
 30
0.0
 11
227.1832613544287
 21
267.7202900674617
 31
0.0
  0
LINE
  5
15A9
330
1E
100
AcDbEntity
  8
STEMPEL
100
AcDbLine
 10
223.6832613544287
 20
256.5232900674617
 30
0.0
 11
220.1832613544287
 21
267.7202900674617
 31
0.0
  0
LINE
  5
15AA
330
1E
100
AcDbEntity
  8
HILF
100
AcDbLine
 10
226.6832613544287
 20
376.2732900674617
 30
0.0
 11
227.0682613544287
 21
376.2732900674617
 31
0.0
  0
LINE
  5
15B3
330
1E
100
AcDbEntity
  8
HILF
100
AcDbLine
 10
220.6832613544287
 20
376.2732900674617
 30
0.0
 11
220.2992613544287
 21
376.2732900674617
 31
0.0
  0
LINE
  5
15B9
330
1E
100
AcDbEntity
  8
HILF
100
AcDbLine
 10
221.1832613544288
 20
376.2732900674617
 30
0.0
 11
226.1832613544287
 21
376.2732900674617
 31
0.0
  0
LINE
  5
15BB
330
1E
100
AcDbEntity
  8
STEMPEL
100
AcDbLine
 10
220.1832613544287
 20
267.7202900674617
 30
0.0
 11
227.1832613544287
 21
267.7202900674617
 31
0.0
  0
ARC
  5
15BF
330
1E
100
AcDbEntity
  8
HILF
100
AcDbCircle
 10
223.6832613544287
 20
460.0232900674616
 30
0.0
 40
39.5
100
AcDbArc
 50
185.3236575480008
 51
248.4392918859995
  0
ARC
  5
15C0
330
1E
100
AcDbEntity
  8
HILF
100
AcDbCircle
 10
223.6832613544287
 20
460.0232900674616
 30
0.0
 40
39.5
100
AcDbArc
 50
291.5607081140005
 51
354.6763424519992
  0
ARC
  5
15C2
330
1E
100
AcDbEntity
  8
STEMPEL
100
AcDbCircle
 10
223.6832613544287
 20
460.0232900674616
 30
0.0
 40
36.5
100
AcDbArc
 50
187.805025338999
 51
245.9579240939999
  0
ARC
  5
15C3
330
1E
100
AcDbEntity
  8
STEMPEL
100
AcDbCircle
 10
223.6832613544287
 20
460.0232900674616
 30
0.0
 40
36.5
100
AcDbArc
 50
294.042075906
 51
352.1949746610009
  0
ARC
  5
15C4
330
1E
100
AcDbEntity
  8
STEMPEL
100
AcDbCircle
 10
181.4332613544287
 20
456.0232900674616
 30
0.0
 40
0.5
100
AcDbArc
 50
90.0
 51
180.0
  0
LINE
  5
15C5
330
1E
100
AcDbEntity
  8
STEMPEL
100
AcDbLine
 10
180.9332613544287
 20
456.0232900674616
 30
0.0
 11
180.9332613544287
 21
455.0232900674616
 31
0.0
  0
LINE
  5
15C6
330
1E
100
AcDbEntity
  8
STEMPEL
100
AcDbLine
 10
180.9332613544287
 20
455.0232900674616
 30
0.0
 11
173.4332613544287
 21
455.0232900674616
 31
0.0
  0
ARC
  5
15C7
330
1E
100
AcDbEntity
  8
STEMPEL
100
AcDbCircle
 10
172.9332613544287
 20
456.0232900674616
 30
0.0
 40
0.5
100
AcDbArc
 50
0.0
 51
90.0
  0
LINE
  5
15C8
330
1E
100
AcDbEntity
  8
STEMPEL
100
AcDbLine
 10
173.4332613544287
 20
455.0232900674616
 30
0.0
 11
173.4332613544287
 21
456.0232900674616
 31
0.0
  0
LINE
  5
15C9
330
1E
100
AcDbEntity
  8
STEMPEL
100
AcDbLine
 10
171.8622613544287
 20
456.5232900674616
 30
0.0
 11
171.8622613544287
 21
458.5232900674616
 31
0.0
  0
ARC
  5
15CA
330
1E
100
AcDbEntity
  8
STEMPEL
100
AcDbCircle
 10
274.4342613544288
 20
456.0232900674616
 30
0.0
 40
0.5
100
AcDbArc
 50
90.0
 51
180.0
  0
LINE
  5
15CB
330
1E
100
AcDbEntity
  8
STEMPEL
100
AcDbLine
 10
273.9342613544287
 20
455.0232900674616
 30
0.0
 11
273.9342613544287
 21
456.0232900674616
 31
0.0
  0
LINE
  5
15CC
330
1E
100
AcDbEntity
  8
STEMPEL
100
AcDbLine
 10
266.4342613544288
 20
455.0232900674616
 30
0.0
 11
273.9342613544287
 21
455.0232900674616
 31
0.0
  0
LINE
  5
15CD
330
1E
100
AcDbEntity
  8
STEMPEL
100
AcDbLine
 10
266.4342613544288
 20
456.0232900674616
 30
0.0
 11
266.4342613544288
 21
455.0232900674616
 31
0.0
  0
ARC
  5
15CE
330
1E
100
AcDbEntity
  8
STEMPEL
100
AcDbCircle
 10
265.9342613544288
 20
456.0232900674616
 30
0.0
 40
0.5
100
AcDbArc
 50
0.0
 51
90.0
  0
LINE
  5
15CF
330
1E
100
AcDbEntity
  8
STEMPEL
100
AcDbLine
 10
275.5042613544288
 20
456.5232900674616
 30
0.0
 11
275.5042613544288
 21
458.5232900674616
 31
0.0
  0
ARC
  5
15D0
330
1E
100
AcDbEntity
  8
STEMPEL
100
AcDbCircle
 10
223.6832613544287
 20
460.0232900674616
 30
0.0
 40
38.5
100
AcDbArc
 50
187.805025338999
 51
245.9579240939999
  0
ARC
  5
15D1
330
1E
100
AcDbEntity
  8
STEMPEL
100
AcDbCircle
 10
183.5582613544287
 20
454.5232900674616
 30
0.0
 40
2.0
100
AcDbArc
 50
7.805025338999073
 51
90.0
  0
LINE
  5
15D2
330
1E
100
AcDbEntity
  8
STEMPEL
100
AcDbLine
 10
169.1832613544287
 20
456.5232900674616
 30
0.0
 11
183.5582613544287
 21
456.5232900674616
 31
0.0
  0
LINE
  5
15D3
330
1E
100
AcDbEntity
  8
STEMPEL
100
AcDbLine
 10
169.1832613544287
 20
458.5232900674616
 30
0.0
 11
169.1832613544287
 21
456.5232900674616
 31
0.0
  0
LINE
  5
15D4
330
1E
100
AcDbEntity
  8
STEMPEL
100
AcDbLine
 10
183.5582613544287
 20
458.5232900674616
 30
0.0
 11
169.1832613544287
 21
458.5232900674616
 31
0.0
  0
ARC
  5
15D5
330
1E
100
AcDbEntity
  8
STEMPEL
100
AcDbCircle
 10
183.5582613544287
 20
454.5232900674616
 30
0.0
 40
4.0
100
AcDbArc
 50
7.805025338999073
 51
90.0
  0
ARC
  5
15D6
330
1E
100
AcDbEntity
  8
STEMPEL
100
AcDbCircle
 10
207.1832613544287
 20
423.0372900674616
 30
0.0
 40
4.0
100
AcDbArc
 50
0.0
 51
65.95792409399995
  0
LINE
  5
15D7
330
1E
100
AcDbEntity
  8
STEMPEL
100
AcDbLine
 10
211.1832613544287
 20
410.5232900674616
 30
0.0
 11
211.1832613544287
 21
423.0372900674616
 31
0.0
  0
ARC
  5
15D8
330
1E
100
AcDbEntity
  8
STEMPEL
100
AcDbCircle
 10
213.1832613544287
 20
410.5232900674616
 30
0.0
 40
2.0
100
AcDbArc
 50
180.0
 51
270.0
  0
LINE
  5
15D9
330
1E
100
AcDbEntity
  8
STEMPEL
100
AcDbLine
 10
234.1832613544287
 20
408.5232900674617
 30
0.0
 11
213.1832613544287
 21
408.5232900674617
 31
0.0
  0
ARC
  5
15DA
330
1E
100
AcDbEntity
  8
STEMPEL
100
AcDbCircle
 10
234.1832613544287
 20
410.5232900674616
 30
0.0
 40
2.0
100
AcDbArc
 50
270.0
 51
0.0
  0
LINE
  5
15DB
330
1E
100
AcDbEntity
  8
STEMPEL
100
AcDbLine
 10
236.1832613544287
 20
423.0372900674616
 30
0.0
 11
236.1832613544287
 21
410.5232900674616
 31
0.0
  0
ARC
  5
15DC
330
1E
100
AcDbEntity
  8
STEMPEL
100
AcDbCircle
 10
240.1832613544288
 20
423.0372900674616
 30
0.0
 40
4.0
100
AcDbArc
 50
114.042075906
 51
180.0
  0
ARC
  5
15DD
330
1E
100
AcDbEntity
  8
STEMPEL
100
AcDbCircle
 10
263.8082613544288
 20
454.5232900674616
 30
0.0
 40
4.0
100
AcDbArc
 50
90.0
 51
172.1949746610009
  0
LINE
  5
15DE
330
1E
100
AcDbEntity
  8
STEMPEL
100
AcDbLine
 10
278.1842613544288
 20
458.5232900674616
 30
0.0
 11
263.8082613544288
 21
458.5232900674616
 31
0.0
  0
LINE
  5
15DF
330
1E
100
AcDbEntity
  8
STEMPEL
100
AcDbLine
 10
278.1842613544288
 20
456.5232900674616
 30
0.0
 11
278.1842613544288
 21
458.5232900674616
 31
0.0
  0
LINE
  5
15E0
330
1E
100
AcDbEntity
  8
STEMPEL
100
AcDbLine
 10
263.8082613544288
 20
456.5232900674616
 30
0.0
 11
278.1842613544288
 21
456.5232900674616
 31
0.0
  0
ARC
  5
15E1
330
1E
100
AcDbEntity
  8
STEMPEL
100
AcDbCircle
 10
263.8082613544288
 20
454.5232900674616
 30
0.0
 40
2.0
100
AcDbArc
 50
90.0
 51
172.1949746610009
  0
ARC
  5
15E2
330
1E
100
AcDbEntity
  8
STEMPEL
100
AcDbCircle
 10
223.6832613544287
 20
460.0232900674616
 30
0.0
 40
38.5
100
AcDbArc
 50
294.042075906
 51
352.1949746610009
  0
ARC
  5
15E3
330
1E
100
AcDbEntity
  8
STEMPEL
100
AcDbCircle
 10
240.1832613544288
 20
423.0372900674616
 30
0.0
 40
2.0
100
AcDbArc
 50
114.042075906
 51
180.0
  0
LINE
  5
15E4
330
1E
100
AcDbEntity
  8
STEMPEL
100
AcDbLine
 10
238.1832613544287
 20
410.5232900674616
 30
0.0
 11
238.1832613544287
 21
423.0372900674616
 31
0.0
  0
ARC
  5
15E5
330
1E
100
AcDbEntity
  8
STEMPEL
100
AcDbCircle
 10
234.1832613544287
 20
410.5232900674616
 30
0.0
 40
4.0
100
AcDbArc
 50
270.0
 51
0.0
  0
LINE
  5
15E6
330
1E
100
AcDbEntity
  8
STEMPEL
100
AcDbLine
 10
213.1832613544287
 20
406.5232900674616
 30
0.0
 11
234.1832613544287
 21
406.5232900674616
 31
0.0
  0
ARC
  5
15E7
330
1E
100
AcDbEntity
  8
STEMPEL
100
AcDbCircle
 10
213.1832613544287
 20
410.5232900674616
 30
0.0
 40
4.0
100
AcDbArc
 50
180.0
 51
270.0
  0
LINE
  5
15E8
330
1E
100
AcDbEntity
  8
STEMPEL
100
AcDbLine
 10
209.1832613544287
 20
423.0372900674616
 30
0.0
 11
209.1832613544287
 21
410.5232900674616
 31
0.0
  0
ARC
  5
15E9
330
1E
100
AcDbEntity
  8
STEMPEL
100
AcDbCircle
 10
207.1832613544287
 20
423.0372900674616
 30
0.0
 40
2.0
100
AcDbArc
 50
0.0
 51
65.95792409399995
  0
LINE
  5
15EA
330
1E
100
AcDbEntity
  8
HILF
100
AcDbLine
 10
267.8842613544288
 20
461.0232900674616
 30
0.0
 11
267.8842613544288
 21
458.5232900674616
 31
0.0
  0
LINE
  5
15EB
330
1E
100
AcDbEntity
  8
HILF
100
AcDbLine
 10
272.4842613544287
 20
461.0232900674616
 30
0.0
 11
272.4842613544288
 21
458.5232900674616
 31
0.0
  0
LINE
  5
15EC
330
1E
100
AcDbEntity
  8
STEMPEL
100
AcDbLine
 10
265.1842613544288
 20
465.9842900674616
 30
0.0
 11
265.1842613544288
 21
463.5232900674616
 31
0.0
  0
LINE
  5
15ED
330
1E
100
AcDbEntity
  8
HILF
100
AcDbLine
 10
265.1855536214243
 20
465.9842900674617
 30
0.0
 11
269.4842613544287
 21
465.9842900674617
 31
0.0
  0
ARC
  5
15EE
330
1E
100
AcDbEntity
  8
STEMPEL
100
AcDbCircle
 10
270.1842613544288
 20
457.3232900674617
 30
0.0
 40
10.0
100
AcDbArc
 50
94.01396748799905
 51
119.9999850770009
  0
LINE
  5
15EF
330
1E
100
AcDbEntity
  8
STEMPEL
100
AcDbLine
 10
269.4842613544287
 20
465.6952900674617
 30
0.0
 11
269.4842613544287
 21
467.2992900674617
 31
0.0
  0
LINE
  5
15F0
330
1E
100
AcDbEntity
  8
STEMPEL
100
AcDbLine
 10
270.8842613544288
 20
465.6952900674617
 30
0.0
 11
269.4842613544287
 21
465.6952900674617
 31
0.0
  0
LINE
  5
15F1
330
1E
100
AcDbEntity
  8
STEMPEL
100
AcDbLine
 10
270.8842613544288
 20
467.2992900674617
 30
0.0
 11
270.8842613544288
 21
465.6952900674617
 31
0.0
  0
LINE
  5
15F2
330
1E
100
AcDbEntity
  8
HILF
100
AcDbLine
 10
270.8842613544288
 20
465.9842900674616
 30
0.0
 11
275.1829690874334
 21
465.9842900674616
 31
0.0
  0
ARC
  5
15F3
330
1E
100
AcDbEntity
  8
STEMPEL
100
AcDbCircle
 10
270.1842613544288
 20
457.3232900674617
 30
0.0
 40
10.0
100
AcDbArc
 50
59.99999358400034
 51
85.98594517699961
  0
LINE
  5
15F4
330
1E
100
AcDbEntity
  8
STEMPEL
100
AcDbLine
 10
275.1842613544288
 20
463.5232900674616
 30
0.0
 11
275.1842613544288
 21
465.9842900674616
 31
0.0
  0
LINE
  5
15F5
330
1E
100
AcDbEntity
  8
STEMPEL
100
AcDbLine
 10
273.1842613544288
 20
458.5232900674616
 30
0.0
 11
273.1842613544288
 21
462.0832900674616
 31
0.0
  0
LINE
  5
15F6
330
1E
100
AcDbEntity
  8
STEMPEL
100
AcDbLine
 10
267.1842613544288
 20
458.5232900674616
 30
0.0
 11
267.1842613544288
 21
463.5232900674616
 31
0.0
  0
LINE
  5
15F7
330
1E
100
AcDbEntity
  8
STEMPEL
100
AcDbLine
 10
267.1842613544288
 20
449.5232900674617
 30
0.0
 11
267.1842613544288
 21
455.0232900674616
 31
0.0
  0
LINE
  5
15F8
330
1E
100
AcDbEntity
  8
HILF
100
AcDbLine
 10
267.8842613544288
 20
448.3112900674616
 30
0.0
 11
267.8842613544288
 21
455.0232900674616
 31
0.0
  0
LINE
  5
15F9
330
1E
100
AcDbEntity
  8
STEMPEL
100
AcDbLine
 10
267.1842613544288
 20
449.5232900674617
 30
0.0
 11
268.3392613544287
 21
447.5232900674616
 31
0.0
  0
LINE
  5
15FA
330
1E
100
AcDbEntity
  8
STEMPEL
100
AcDbLine
 10
268.3392613544287
 20
447.5232900674616
 30
0.0
 11
272.0292613544288
 21
447.5232900674616
 31
0.0
  0
LINE
  5
15FB
330
1E
100
AcDbEntity
  8
STEMPEL
100
AcDbLine
 10
272.0292613544288
 20
447.5232900674616
 30
0.0
 11
273.1842613544288
 21
449.5232900674617
 31
0.0
  0
LINE
  5
15FC
330
1E
100
AcDbEntity
  8
STEMPEL
100
AcDbLine
 10
273.1842613544288
 20
449.5232900674617
 30
0.0
 11
267.1842613544288
 21
449.5232900674617
 31
0.0
  0
LINE
  5
15FD
330
1E
100
AcDbEntity
  8
HILF
100
AcDbLine
 10
272.4842613544287
 20
448.3112900674616
 30
0.0
 11
272.4842613544287
 21
455.0232900674616
 31
0.0
  0
LINE
  5
15FE
330
1E
100
AcDbEntity
  8
STEMPEL
100
AcDbLine
 10
273.1842613544288
 20
449.5232900674617
 30
0.0
 11
273.1842613544288
 21
455.0232900674616
 31
0.0
  0
LINE
  5
15FF
330
1E
100
AcDbEntity
  8
STEMPEL
100
AcDbLine
 10
182.1832613544287
 20
463.5232900674616
 30
0.0
 11
182.1832613544287
 21
465.9842900674616
 31
0.0
  0
LINE
  5
1600
330
1E
100
AcDbEntity
  8
HILF
100
AcDbLine
 10
178.4332613544287
 20
465.9842900674616
 30
0.0
 11
181.6832613544287
 21
465.9842900674616
 31
0.0
  0
ARC
  5
1601
330
1E
100
AcDbEntity
  8
STEMPEL
100
AcDbCircle
 10
177.1832613544287
 20
457.3232900674617
 30
0.0
 40
10.0
100
AcDbArc
 50
59.99999358400034
 51
85.98594517699961
  0
LINE
  5
1602
330
1E
100
AcDbEntity
  8
STEMPEL
100
AcDbLine
 10
177.8832613544287
 20
467.2992900674617
 30
0.0
 11
177.8832613544287
 21
465.6952900674617
 31
0.0
  0
LINE
  5
1603
330
1E
100
AcDbEntity
  8
STEMPEL
100
AcDbLine
 10
177.8832613544287
 20
465.6952900674617
 30
0.0
 11
176.4832613544287
 21
465.6952900674617
 31
0.0
  0
LINE
  5
1604
330
1E
100
AcDbEntity
  8
STEMPEL
100
AcDbLine
 10
176.4832613544287
 20
465.6952900674617
 30
0.0
 11
176.4832613544287
 21
467.2992900674617
 31
0.0
  0
LINE
  5
1605
330
1E
100
AcDbEntity
  8
HILF
100
AcDbLine
 10
172.6832613544287
 20
465.9842900674616
 30
0.0
 11
175.9332613544287
 21
465.9842900674616
 31
0.0
  0
ARC
  5
1606
330
1E
100
AcDbEntity
  8
STEMPEL
100
AcDbCircle
 10
177.1832613544287
 20
457.3232900674617
 30
0.0
 40
10.0
100
AcDbArc
 50
94.01396748799905
 51
119.9999850770009
  0
LINE
  5
1607
330
1E
100
AcDbEntity
  8
STEMPEL
100
AcDbLine
 10
172.1832613544287
 20
465.9842900674616
 30
0.0
 11
172.1832613544287
 21
463.5232900674616
 31
0.0
  0
LINE
  5
160A
330
1E
100
AcDbEntity
  8
STEMPEL
100
AcDbLine
 10
180.1832613544287
 20
458.5232900674616
 30
0.0
 11
180.1832613544287
 21
461.5232900674616
 31
0.0
  0
LINE
  5
160B
330
1E
100
AcDbEntity
  8
HILF
100
AcDbLine
 10
179.4832613544287
 20
458.5232900674616
 30
0.0
 11
179.4832613544287
 21
461.0232900674616
 31
0.0
  0
LINE
  5
160C
330
1E
100
AcDbEntity
  8
STEMPEL
100
AcDbLine
 10
174.1832613544287
 20
461.0232900674616
 30
0.0
 11
180.1832613544287
 21
461.0232900674616
 31
0.0
  0
LINE
  5
160D
330
1E
100
AcDbEntity
  8
HILF
100
AcDbLine
 10
174.8832613544287
 20
458.5232900674616
 30
0.0
 11
174.8832613544287
 21
461.0232900674616
 31
0.0
  0
LINE
  5
160E
330
1E
100
AcDbEntity
  8
STEMPEL
100
AcDbLine
 10
174.1832613544287
 20
458.5232900674616
 30
0.0
 11
174.1832613544287
 21
461.5232900674616
 31
0.0
  0
LINE
  5
160F
330
1E
100
AcDbEntity
  8
STEMPEL
100
AcDbLine
 10
174.1832613544287
 20
449.5232900674617
 30
0.0
 11
174.1832613544287
 21
455.0232900674616
 31
0.0
  0
LINE
  5
1610
330
1E
100
AcDbEntity
  8
HILF
100
AcDbLine
 10
174.8832613544287
 20
448.3112900674616
 30
0.0
 11
174.8832613544287
 21
455.0232900674616
 31
0.0
  0
LINE
  5
1611
330
1E
100
AcDbEntity
  8
STEMPEL
100
AcDbLine
 10
174.1832613544287
 20
449.5232900674617
 30
0.0
 11
175.3372613544287
 21
447.5232900674616
 31
0.0
  0
LINE
  5
1612
330
1E
100
AcDbEntity
  8
STEMPEL
100
AcDbLine
 10
175.3372613544287
 20
447.5232900674616
 30
0.0
 11
179.0282613544287
 21
447.5232900674616
 31
0.0
  0
LINE
  5
1613
330
1E
100
AcDbEntity
  8
STEMPEL
100
AcDbLine
 10
179.0282613544287
 20
447.5232900674616
 30
0.0
 11
180.1832613544287
 21
449.5232900674617
 31
0.0
  0
LINE
  5
1614
330
1E
100
AcDbEntity
  8
STEMPEL
100
AcDbLine
 10
180.1832613544287
 20
449.5232900674617
 30
0.0
 11
174.1832613544287
 21
449.5232900674617
 31
0.0
  0
LINE
  5
1615
330
1E
100
AcDbEntity
  8
HILF
100
AcDbLine
 10
179.4832613544287
 20
448.3112900674616
 30
0.0
 11
179.4832613544287
 21
455.0232900674616
 31
0.0
  0
LINE
  5
1616
330
1E
100
AcDbEntity
  8
STEMPEL
100
AcDbLine
 10
180.1832613544287
 20
449.5232900674617
 30
0.0
 11
180.1832613544287
 21
455.0232900674616
 31
0.0
  0
LINE
  5
1617
330
1E
100
AcDbEntity
  8
HILF
100
AcDbLine
 10
273.1842613544288
 20
461.0232900674616
 30
0.0
 11
267.1842613544288
 21
461.0232900674616
 31
0.0
  0
LINE
  5
161A
330
1E
100
AcDbEntity
  8
MITTEL
100
AcDbLine
 10
164.1832613544287
 20
460.0232900674617
 30
0.0
 11
283.1842613544288
 21
460.0232900674616
 31
0.0
  0
LINE
  5
161B
330
1E
100
AcDbEntity
  8
MITTEL
100
AcDbLine
 10
223.6832613544287
 20
251.5232900674617
 30
0.0
 11
223.6832613544287
 21
504.5232900674616
 31
0.0
  0
LINE
  5
161C
330
1E
100
AcDbEntity
  8
MITTEL
100
AcDbLine
 10
270.1842613544288
 20
442.5232900674616
 30
0.0
 11
270.1842613544288
 21
472.3232900674616
 31
0.0
  0
LINE
  5
161D
330
1E
100
AcDbEntity
  8
MITTEL
100
AcDbLine
 10
177.1832613544287
 20
442.5232900674616
 30
0.0
 11
177.1832613544287
 21
472.3232900674616
 31
0.0
  0
DIMENSION
  5
1644
330
1E
100
AcDbEntity
  8
TEXT
100
AcDbDimension
  2
*D1
 10
270.1842613544288
 20
159.8206607595173
 30
0.0
 11
223.6837613544288
 21
166.3206607595173
 31
0.0
 70
    32
 71
     5
 42
93.00100000000004
  3
Standard
100
AcDbAlignedDimension
 13
177.1832613544287
 23
182.6621708494515
 33
0.0
 14
270.1842613544288
 24
182.6621708494515
 34
0.0
100
AcDbRotatedDimension
1001
ACAD
1000
DSTYLE
1002
{
1070
    40
1040
2.0
1070
    41
1040
3.5
1070
    42
1040
1.0
1070
    43
1040
7.0
1070
    44
1040
1.0
1070
    73
1070
     0
1070
    74
1070
     0
1070
    77
1070
     1
1070
    78
1070
     8
1070
    79
1070
     2
1070
   140
1040
3.5
1070
   141
1040
1.5
1070
   146
1040
0.5
1070
   147
1040
1.5
1070
   172
1070
     1
1070
   178
1070
     1
1070
   179
1070
     2
1070
   271
1070
     2
1070
   272
1070
     2
1070
   284
1070
     8
1070
   285
1070
     8
1070
   286
1070
     8
1002
}
  0
DIMENSION
  5
1651
330
1E
100
AcDbEntity
  8
TEXT
100
AcDbDimension
  2
*D2
 10
278.1842613544288
 20
143.5338122777559
 30
0.0
 11
223.6837613544288
 21
150.0338122777559
 31
0.0
 70
    32
 71
     5
 42
109.001
  3
Standard
100
AcDbAlignedDimension
 13
169.1832613544287
 23
192.6621708494515
 33
0.0
 14
278.1842613544288
 24
192.6621708494515
 34
0.0
100
AcDbRotatedDimension
1001
ACAD
1000
DSTYLE
1002
{
1070
    40
1040
2.0
1070
    41
1040
3.5
1070
    42
1040
1.0
1070
    43
1040
7.0
1070
    44
1040
1.0
1070
    73
1070
     0
1070
    74
1070
     0
1070
    77
1070
     1
1070
    78
1070
     8
1070
    79
1070
     2
1070
   140
1040
3.5
1070
   141
1040
1.5
1070
   146
1040
0.5
1070
   147
1040
1.5
1070
   172
1070
     1
1070
   178
1070
     1
1070
   179
1070
     2
1070
   271
1070
     2
1070
   272
1070
     2
1070
   284
1070
     8
1070
   285
1070
     8
1070
   286
1070
     8
1002
}
  0
DIMENSION
  5
1694
330
1E
100
AcDbEntity
  8
BEM
100
AcDbDimension
  2
*D3
 10
157.6051372258472
 20
461.5232900674616
 30
0.0
 11
157.6051372258471
 21
460.0232900674616
 31
0.0
 70
   160
 71
     5
 42
3.0
  3
Standard
100
AcDbAlignedDimension
 13
169.1832613544287
 23
458.5232900674616
 33
0.0
 14
169.1832613544287
 24
461.5232900674616
 34
0.0
 50
90.0
100
AcDbRotatedDimension
1001
ACAD
1000
DSTYLE
1002
{
1070
    40
1040
2.0
1070
    41
1040
3.5
1070
    42
1040
1.0
1070
    43
1040
7.0
1070
    44
1040
1.0
1070
    73
1070
     0
1070
    74
1070
     0
1070
    77
1070
     1
1070
    78
1070
     8
1070
    79
1070
     2
1070
   140
1040
3.5
1070
   141
1040
1.5
1070
   146
1040
0.5
1070
   147
1040
1.5
1070
   172
1070
     1
1070
   178
1070
     1
1070
   179
1070
     2
1070
   271
1070
     2
1070
   272
1070
     2
1070
   284
1070
     8
1070
   285
1070
     8
1070
   286
1070
     8
1002
}
  0
DIMENSION
  5
16C4
330
1E
100
AcDbEntity
  8
BEM
100
AcDbDimension
  2
*D4
 10
158.0300075932118
 20
406.5232900674616
 30
0.0
 11
151.5300075932118
 21
331.5232900674617
 31
0.0
 70
    32
 71
     5
 42
150.0
  3
Standard
100
AcDbAlignedDimension
 13
223.6832613544287
 23
256.5232900674617
 33
0.0
 14
213.1832613544287
 24
406.5232900674616
 34
0.0
 50
90.0
100
AcDbRotatedDimension
1001
ACAD
1000
DSTYLE
1002
{
1070
    40
1040
2.0
1070
    41
1040
3.5
1070
    42
1040
1.0
1070
    43
1040
7.0
1070
    44
1040
1.0
1070
    73
1070
     0
1070
    74
1070
     0
1070
    77
1070
     1
1070
    78
1070
     8
1070
    79
1070
     2
1070
   140
1040
3.5
1070
   141
1040
1.5
1070
   146
1040
0.5
1070
   147
1040
1.5
1070
   172
1070
     1
1070
   178
1070
     1
1070
   179
1070
     2
1070
   271
1070
     2
1070
   272
1070
     2
1070
   284
1070
     8
1070
   285
1070
     8
1070
   286
1070
     8
1002
}
  0
DIMENSION
  5
16D1
330
1E
100
AcDbEntity
  8
BEM
100
AcDbDimension
  2
*D5
 10
141.4600654450068
 20
256.5232900674617
 30
0.0
 11
134.9600654450068
 21
378.0232900674617
 31
0.0
 70
    32
 71
     5
 42
242.9999999999999
  3
Standard
100
AcDbAlignedDimension
 13
223.6832613544287
 23
499.5232900674616
 33
0.0
 14
223.6832613544287
 24
256.5232900674617
 34
0.0
 50
90.0
100
AcDbRotatedDimension
1001
ACAD
1000
DSTYLE
1002
{
1070
    40
1040
2.0
1070
    41
1040
3.5
1070
    42
1040
1.0
1070
    43
1040
7.0
1070
    44
1040
1.0
1070
    73
1070
     0
1070
    74
1070
     0
1070
    77
1070
     1
1070
    78
1070
     8
1070
    79
1070
     2
1070
   140
1040
3.5
1070
   141
1040
1.5
1070
   146
1040
0.5
1070
   147
1040
1.5
1070
   172
1070
     1
1070
   178
1070
     1
1070
   179
1070
     2
1070
   271
1070
     2
1070
   272
1070
     2
1070
   284
1070
     8
1070
   285
1070
     8
1070
   286
1070
     8
1002
}
  0
DIMENSION
  5
1720
330
1E
100
AcDbEntity
  8
BEM
100
AcDbDimension
  2
*D6
 10
250.4635513617736
 20
484.8240391496115
 30
0.0
 11
236.5787812873727
 21
472.0398126680952
 31
0.0
 70
   161
 71
     5
 42
72.99935067841397
  3
Standard
100
AcDbAlignedDimension
 13
196.8322359910907
 23
435.3003242879001
 33
0.0
 14
250.5349873281847
 24
484.7464535428407
 34
0.0
1001
ACAD
1000
DSTYLE
1002
{
1070
    40
1040
2.0
1070
    41
1040
3.5
1070
    42
1040
1.0
1070
    43
1040
7.0
1070
    44
1040
1.0
1070
    73
1070
     0
1070
    74
1070
     0
1070
    77
1070
     1
1070
    78
1070
     8
1070
    79
1070
     2
1070
   140
1040
3.5
1070
   141
1040
1.5
1070
   146
1040
0.5
1070
   147
1040
1.5
1070
   172
1070
     1
1070
   178
1070
     1
1070
   179
1070
     2
1070
   271
1070
     2
1070
   272
1070
     2
1070
   284
1070
     8
1070
   285
1070
     8
1070
   286
1070
     8
1002
}
  0
LINE
  5
17F6
330
1E
100
AcDbEntity
  8
STEMPEL
100
AcDbLine
 10
216.6832613544287
 20
406.5232900674616
 30
0.0
 11
220.1832613544287
 21
403.0232900674617
 31
0.0
  0
LINE
  5
17F7
330
1E
100
AcDbEntity
  8
STEMPEL
100
AcDbLine
 10
230.6832613544287
 20
406.5232900674616
 30
0.0
 11
227.1832613544287
 21
403.0232900674617
 31
0.0
  0
ARC
  5
17F8
330
1E
100
AcDbEntity
  8
HILF
100
AcDbCircle
 10
223.6832613544287
 20
407.0232900674616
 30
0.0
 40
5.315
100
AcDbArc
 50
244.9837960419997
 51
295.0163005179989
  0
LINE
  5
17F9
330
1E
100
AcDbEntity
  8
HILF
100
AcDbLine
 10
221.1832613544288
 20
391.5232900674617
 30
0.0
 11
226.1832613544287
 21
391.5232900674617
 31
0.0
  0
LINE
  5
17FA
330
1E
100
AcDbEntity
  8
HILF
100
AcDbLine
 10
227.1832613544287
 20
391.5232900674617
 30
0.0
 11
227.5682613544287
 21
391.5232900674617
 31
0.0
  0
LINE
  5
17FB
330
1E
100
AcDbEntity
  8
HILF
100
AcDbLine
 10
220.1832613544287
 20
391.5232900674617
 30
0.0
 11
219.7992613544287
 21
391.5232900674617
 31
0.0
  0
LINE
  5
17FC
330
1E
100
AcDbEntity
  8
HILF
100
AcDbLine
 10
221.1832613544288
 20
387.5232900674617
 30
0.0
 11
226.1832613544287
 21
387.5232900674617
 31
0.0
  0
LINE
  5
17FD
330
1E
100
AcDbEntity
  8
HILF
100
AcDbLine
 10
227.1832613544287
 20
387.5232900674617
 30
0.0
 11
227.5682613544287
 21
387.5232900674617
 31
0.0
  0
LINE
  5
17FE
330
1E
100
AcDbEntity
  8
HILF
100
AcDbLine
 10
220.1832613544287
 20
387.5232900674617
 30
0.0
 11
219.7992613544287
 21
387.5232900674617
 31
0.0
  0
LINE
  5
17FF
330
1E
100
AcDbEntity
  8
HILF
100
AcDbLine
 10
221.1832613544288
 20
383.5232900674617
 30
0.0
 11
226.1832613544287
 21
383.5232900674617
 31
0.0
  0
LINE
  5
1800
330
1E
100
AcDbEntity
  8
HILF
100
AcDbLine
 10
227.1832613544287
 20
383.5232900674617
 30
0.0
 11
227.5682613544287
 21
383.5232900674617
 31
0.0
  0
LINE
  5
1801
330
1E
100
AcDbEntity
  8
HILF
100
AcDbLine
 10
220.1832613544287
 20
383.5232900674617
 30
0.0
 11
219.7992613544287
 21
383.5232900674617
 31
0.0
  0
LINE
  5
1802
330
1E
100
AcDbEntity
  8
HILF
100
AcDbLine
 10
221.1832613544288
 20
379.5232900674617
 30
0.0
 11
226.1832613544287
 21
379.5232900674617
 31
0.0
  0
LINE
  5
1803
330
1E
100
AcDbEntity
  8
HILF
100
AcDbLine
 10
227.1832613544287
 20
379.5232900674617
 30
0.0
 11
227.5682613544287
 21
379.5232900674617
 31
0.0
  0
LINE
  5
1804
330
1E
100
AcDbEntity
  8
HILF
100
AcDbLine
 10
220.1832613544287
 20
379.5232900674617
 30
0.0
 11
219.7992613544287
 21
379.5232900674617
 31
0.0
  0
LINE
  5
1805
330
1E
100
AcDbEntity
  8
HILF
100
AcDbLine
 10
221.1832613544288
 20
375.5232900674617
 30
0.0
 11
226.1832613544287
 21
375.5232900674617
 31
0.0
  0
LINE
  5
1806
330
1E
100
AcDbEntity
  8
HILF
100
AcDbLine
 10
227.1832613544287
 20
375.5232900674617
 30
0.0
 11
227.5682613544287
 21
375.5232900674617
 31
0.0
  0
LINE
  5
1807
330
1E
100
AcDbEntity
  8
HILF
100
AcDbLine
 10
220.1832613544287
 20
375.5232900674617
 30
0.0
 11
219.7992613544287
 21
375.5232900674617
 31
0.0
  0
ARC
  5
1808
330
1E
100
AcDbEntity
  8
STEMPEL
100
AcDbCircle
 10
219.1832613544288
 20
408.5232900674617
 30
0.0
 40
2.0
100
AcDbArc
 50
90.0
 51
180.0
  0
LINE
  5
1809
330
1E
100
AcDbEntity
  8
STEMPEL
100
AcDbLine
 10
228.1832613544287
 20
410.5232900674616
 30
0.0
 11
219.1832613544288
 21
410.5232900674616
 31
0.0
  0
ARC
  5
180A
330
1E
100
AcDbEntity
  8
STEMPEL
100
AcDbCircle
 10
228.1832613544287
 20
408.5232900674617
 30
0.0
 40
2.0
100
AcDbArc
 50
0.0
 51
90.0
  0
LINE
  5
180B
330
1E
100
AcDbEntity
  8
STEMPEL
100
AcDbLine
 10
227.1832613544287
 20
403.0232900674617
 30
0.0
 11
227.1832613544287
 21
267.7202900674617
 31
0.0
  0
LINE
  5
180C
330
1E
100
AcDbEntity
  8
STEMPEL
100
AcDbLine
 10
220.1832613544287
 20
403.0232900674617
 30
0.0
 11
220.1832613544287
 21
267.7202900674617
 31
0.0
  0
LWPOLYLINE
  5
1846
330
1E
100
AcDbEntity
  8
BEM
 62
     1
100
AcDbPolyline
 90
        4
 70
     1
 43
0.0
 10
190.0090204678541
 20
310.4653374473462
 10
190.0090204678541
 20
303.4653374473462
 10
197.0090204678541
 20
303.4653374473462
 10
197.0090204678541
 20
310.4653374473462
  0
DIMENSION
  5
1847
330
1E
100
AcDbEntity
  8
BEM
100
AcDbDimension
  2
*D7
 10
220.1832613544287
 20
300.3164003068736
 30
0.0
 11
201.3165946877621
 21
300.3164003068736
 31
0.0
 70
   160
 71
     5
 42
7.0
  3
Standard
100
AcDbAlignedDimension
 13
227.1832613544287
 23
300.2589943056389
 33
0.0
 14
220.1832613544287
 24
300.2589943056389
 34
0.0
100
AcDbRotatedDimension
1001
ACAD
1000
DSTYLE
1002
{
1070
    40
1040
2.0
1070
    41
1040
3.5
1070
    42
1040
1.0
1070
    43
1040
7.0
1070
    44
1040
1.0
1070
    73
1070
     0
1070
    74
1070
     0
1070
    77
1070
     1
1070
    78
1070
     8
1070
    79
1070
     2
1070
   140
1040
3.5
1070
   141
1040
1.5
1070
   146
1040
0.5
1070
   147
1040
1.5
1070
   172
1070
     1
1070
   178
1070
     1
1070
   179
1070
     2
1070
   271
1070
     2
1070
   272
1070
     2
1070
   284
1070
     8
1070
   285
1070
     8
1070
   286
1070
     8
1002
}
  0
DIMENSION
  5
187B
330
1E
100
AcDbEntity
  8
BEM
100
AcDbDimension
  2
*D8
 10
157.1136944065215
 20
180.1621708494515
 30
0.0
 11
150.6136944065215
 21
192.6621632199675
 31
0.0
 70
    32
 71
     5
 42
24.99998474103205
  3
Standard
100
AcDbAlignedDimension
 13
172.5326174500557
 23
205.1621555904836
 33
0.0
 14
172.5322613544287
 24
180.1621708494515
 34
0.0
 50
90.0
100
AcDbRotatedDimension
1001
ACAD
1000
DSTYLE
1002
{
1070
    40
1040
2.0
1070
    41
1040
3.5
1070
    42
1040
1.0
1070
    43
1040
7.0
1070
    44
1040
1.0
1070
    73
1070
     0
1070
    74
1070
     0
1070
    77
1070
     1
1070
    78
1070
     8
1070
    79
1070
     2
1070
   140
1040
3.5
1070
   141
1040
1.5
1070
   146
1040
0.5
1070
   147
1040
1.5
1070
   172
1070
     1
1070
   178
1070
     1
1070
   179
1070
     2
1070
   271
1070
     2
1070
   272
1070
     2
1070
   284
1070
     8
1070
   285
1070
     8
1070
   286
1070
     8
1002
}
  0
TEXT
  5
1893
330
1E
100
AcDbEntity
  8
TEXT
 62
     1
100
AcDbText
 10
227.8365522679116
 20
115.6405708316599
 30
0.0
 40
7.0
  1
Werkstoff: St37 Dickschichtpassiviert
 41
0.8
  7
GREEKS
100
AcDbText
  0
ENDSEC
  0
SECTION
  2
OBJECTS
  0
DICTIONARY
  5
C
330
0
100
AcDbDictionary
281
     1
  3
ACAD_COLOR
350
DF
  3
ACAD_GROUP
350
D
  3
ACAD_LAYOUT
350
19
  3
ACAD_MATERIAL
350
DE
  3
ACAD_MLINESTYLE
350
16
  3
ACAD_PLOTSETTINGS
350
18
  3
ACAD_PLOTSTYLENAME
350
E
  3
AcDbVariableDictionary
350
EA
  0
DICTIONARY
  5
A0
330
1E
100
AcDbDictionary
280
     1
281
     1
  3
ACAD_LAYOUTSELFREF
360
D4
  0
DICTIONARY
  5
A2
330
1A
100
AcDbDictionary
280
     1
281
     1
  3
ACAD_LAYOUTSELFREF
360
D3
  0
DICTIONARY
  5
DF
102
{ACAD_REACTORS
330
C
102
}
330
C
100
AcDbDictionary
281
     1
  0
DICTIONARY
  5
D
102
{ACAD_REACTORS
330
C
102
}
330
C
100
AcDbDictionary
281
     1
  0
DICTIONARY
  5
19
102
{ACAD_REACTORS
330
C
102
}
330
C
100
AcDbDictionary
281
     1
  3
Layout1
350
1D
  3
Model
350
21
  0
DICTIONARY
  5
DE
102
{ACAD_REACTORS
330
C
102
}
330
C
100
AcDbDictionary
281
     1
  0
DICTIONARY
  5
16
102
{ACAD_REACTORS
330
C
102
}
330
C
100
AcDbDictionary
281
     1
  3
Standard
350
17
  0
DICTIONARY
  5
18
102
{ACAD_REACTORS
330
C
102
}
330
C
100
AcDbDictionary
281
     1
  0
ACDBDICTIONARYWDFLT
  5
E
102
{ACAD_REACTORS
330
C
102
}
330
C
100
AcDbDictionary
281
     1
  3
Normal
350
F
100
AcDbDictionaryWithDefault
340
F
  0
DICTIONARY
  5
EA
102
{ACAD_REACTORS
330
C
102
}
330
C
100
AcDbDictionary
281
     1
  3
DIMASSOC
350
EB
  3
PROJECTNAME
350
EC
  0
XRECORD
  5
D4
102
{ACAD_REACTORS
330
A0
102
}
330
A0
100
AcDbXrecord
280
     1
340
1E
  0
XRECORD
  5
D3
102
{ACAD_REACTORS
330
A2
102
}
330
A2
100
AcDbXrecord
280
     1
340
1A
  0
LAYOUT
  5
1D
102
{ACAD_REACTORS
330
19
102
}
330
19
100
AcDbPlotSettings
  1

  2
\\NT_WORK01\HP LaserJet 5000 PCL 6
  4

  6

 40
0.0
 41
0.0
 42
0.0
 43
0.0
 44
0.0
 45
0.0
 46
0.0
 47
0.0
 48
0.0
 49
0.0
140
0.0
141
0.0
142
1.0
143
1.0
 70
   688
 72
     0
 73
     0
 74
     5
  7

 75
    16
147
1.0
 76
     0
 77
     2
 78
   300
148
0.0
149
0.0
100
AcDbLayout
  1
Layout1
 70
     0
 71
     1
 10
0.0
 20
0.0
 11
12.0
 21
9.0
 12
0.0
 22
0.0
 32
0.0
 14
1.000000000000000E+20
 24
1.000000000000000E+20
 34
1.000000000000000E+20
 15
-1.000000000000000E+20
 25
-1.000000000000000E+20
 35
-1.000000000000000E+20
146
0.0
 13
0.0
 23
0.0
 33
0.0
 16
1.0
 26
0.0
 36
0.0
 17
0.0
 27
1.0
 37
0.0
 76
     0
330
1A
  0
LAYOUT
  5
21
102
{ACAD_REACTORS
330
19
102
}
330
19
100
AcDbPlotSettings
  1

  2
none_device
  4
Letter_(8.50_x_11.00_Inches)
  6

 40
6.349999904632568
 41
6.349999904632568
 42
6.350006103515625
 43
6.350006103515625
 44
215.8999938964844
 45
279.3999938964844
 46
0.0
 47
0.0
 48
0.0
 49
0.0
140
0.0
141
0.0
142
1.0
143
1.0
 70
 11952
 72
     0
 73
     1
 74
     0
  7

 75
     0
147
1.0
 76
     0
 77
     2
 78
   300
148
-230.4417396561563
149
47.00486644638983
100
AcDbLayout
  1
Model
 70
     1
 71
     0
 10
0.0
 20
0.0
 11
12.0
 21
9.0
 12
0.0
 22
0.0
 32
0.0
 14
0.0
 24
0.0
 34
0.0
 15
0.0
 25
0.0
 35
0.0
146
0.0
 13
0.0
 23
0.0
 33
0.0
 16
1.0
 26
0.0
 36
0.0
 17
0.0
 27
1.0
 37
0.0
 76
     0
330
1E
  0
MLINESTYLE
  5
17
102
{ACAD_REACTORS
330
16
102
}
330
16
100
AcDbMlineStyle
  2
STANDARD
 70
     0
  3

 62
   256
 51
90.0
 52
90.0
 71
     2
 49
0.5
 62
   256
  6
BYLAYER
 49
-0.5
 62
   256
  6
BYLAYER
  0
ACDBPLACEHOLDER
  5
F
102
{ACAD_REACTORS
330
E
102
}
330
E
  0
DICTIONARYVAR
  5
EB
102
{ACAD_REACTORS
330
EA
102
}
330
EA
100
DictionaryVariables
280
     0
  1
1
  0
DICTIONARYVAR
  5
EC
102
{ACAD_REACTORS
330
EA
102
}
330
EA
100
DictionaryVariables
280
     0
  1

  0
ENDSEC
  0
EOF
