  0
SECTION
  2
HEADER
  9
$ACADVER
  1
AC1018
  9
$ACADMAINTVER
 70
     2
  9
$DWGCODEPAGE
  3
ANSI_1252
  9
$INSBASE
 10
0.0
 20
0.0
 30
0.0
  9
$EXTMIN
 10
-0.0096073160188439
 20
-0.0135874897982831
 30
-0.000000000000013
  9
$EXTMAX
 10
210.0096158731046
 20
297.013599591962
 30
0.0000000000000023
  9
$LIMMIN
 10
0.0
 20
0.0
  9
$LIMMAX
 10
210.0
 20
297.0
  9
$ORTHOMODE
 70
     0
  9
$REGENMODE
 70
     1
  9
$FILLMODE
 70
     1
  9
$QTEXTMODE
 70
     0
  9
$MIRRTEXT
 70
     1
  9
$LTSCALE
 40
10.0
  9
$ATTMODE
 70
     1
  9
$TEXTSIZE
 40
3.5
  9
$TRACEWID
 40
0.5
  9
$TEXTSTYLE
  7
STANDARD
  9
$CLAYER
  8
BEM
  9
$CELTYPE
  6
ByLayer
  9
$CECOLOR
 62
   256
  9
$CELTSCALE
 40
1.0
  9
$DISPSILH
 70
     0
  9
$DIMSCALE
 40
1.0
  9
$DIMASZ
 40
3.5
  9
$DIMEXO
 40
1.0
  9
$DIMDLI
 40
7.0
  9
$DIMRND
 40
0.0
  9
$DIMDLE
 40
0.0
  9
$DIMEXE
 40
1.0
  9
$DIMTP
 40
0.6
  9
$DIMTM
 40
0.6
  9
$DIMTXT
 40
3.5
  9
$DIMCEN
 40
1.5
  9
$DIMTSZ
 40
0.0
  9
$DIMTOL
 70
     0
  9
$DIMLIM
 70
     0
  9
$DIMTIH
 70
     0
  9
$DIMTOH
 70
     0
  9
$DIMSE1
 70
     0
  9
$DIMSE2
 70
     0
  9
$DIMTAD
 70
     1
  9
$DIMZIN
 70
     8
  9
$DIMBLK
  1

  9
$DIMASO
 70
     1
  9
$DIMSHO
 70
     0
  9
$DIMPOST
  1

  9
$DIMAPOST
  1

  9
$DIMALT
 70
     0
  9
$DIMALTD
 70
     2
  9
$DIMALTF
 40
25.4
  9
$DIMLFAC
 40
1.0
  9
$DIMTOFL
 70
     1
  9
$DIMTVP
 40
0.0
  9
$DIMTIX
 70
     0
  9
$DIMSOXD
 70
     0
  9
$DIMSAH
 70
     0
  9
$DIMBLK1
  1

  9
$DIMBLK2
  1

  9
$DIMSTYLE
  2
Standard
  9
$DIMCLRD
 70
     0
  9
$DIMCLRE
 70
     0
  9
$DIMCLRT
 70
     1
  9
$DIMTFAC
 40
0.5142857142857144
  9
$DIMGAP
 40
1.5
  9
$DIMJUST
 70
     0
  9
$DIMSD1
 70
     0
  9
$DIMSD2
 70
     0
  9
$DIMTOLJ
 70
     1
  9
$DIMTZIN
 70
     8
  9
$DIMALTZ
 70
     8
  9
$DIMALTTZ
 70
     8
  9
$DIMUPT
 70
     0
  9
$DIMDEC
 70
     2
  9
$DIMTDEC
 70
     2
  9
$DIMALTU
 70
     2
  9
$DIMALTTD
 70
     2
  9
$DIMTXSTY
  7
STANDARD
  9
$DIMAUNIT
 70
     0
  9
$DIMADEC
 70
     2
  9
$DIMALTRND
 40
0.0
  9
$DIMAZIN
 70
     2
  9
$DIMDSEP
 70
    46
  9
$DIMATFIT
 70
     3
  9
$DIMFRAC
 70
     0
  9
$DIMLDRBLK
  1

  9
$DIMLUNIT
 70
     2
  9
$DIMLWD
 70
    -2
  9
$DIMLWE
 70
    -2
  9
$DIMTMOVE
 70
     0
  9
$LUNITS
 70
     2
  9
$LUPREC
 70
     2
  9
$SKETCHINC
 40
1.0
  9
$FILLETRAD
 40
0.0
  9
$AUNITS
 70
     0
  9
$AUPREC
 70
     0
  9
$MENU
  1
ACAD
  9
$ELEVATION
 40
0.0
  9
$PELEVATION
 40
0.0
  9
$THICKNESS
 40
0.0
  9
$LIMCHECK
 70
     0
  9
$CHAMFERA
 40
0.0
  9
$CHAMFERB
 40
0.0
  9
$CHAMFERC
 40
0.0
  9
$CHAMFERD
 40
0.0
  9
$SKPOLY
 70
     0
  9
$TDCREATE
 40
2451729.335056250
  9
$TDUCREATE
 40
2451729.251722917
  9
$TDUPDATE
 40
2455460.352746921
  9
$TDUUPDATE
 40
2455460.269413588
  9
$TDINDWG
 40
0.0870933218
  9
$TDUSRTIMER
 40
0.0870933218
  9
$USRTIMER
 70
     1
  9
$ANGBASE
 50
0.0
  9
$ANGDIR
 70
     0
  9
$PDMODE
 70
     0
  9
$PDSIZE
 40
0.0
  9
$PLINEWID
 40
0.0
  9
$SPLFRAME
 70
     0
  9
$SPLINETYPE
 70
     6
  9
$SPLINESEGS
 70
     8
  9
$HANDSEED
  5
A53
  9
$SURFTAB1
 70
     6
  9
$SURFTAB2
 70
     6
  9
$SURFTYPE
 70
     6
  9
$SURFU
 70
     6
  9
$SURFV
 70
     6
  9
$UCSBASE
  2

  9
$UCSNAME
  2

  9
$UCSORG
 10
0.0
 20
0.0
 30
0.0
  9
$UCSXDIR
 10
1.0
 20
0.0
 30
0.0
  9
$UCSYDIR
 10
0.0
 20
1.0
 30
0.0
  9
$UCSORTHOREF
  2

  9
$UCSORTHOVIEW
 70
     0
  9
$UCSORGTOP
 10
0.0
 20
0.0
 30
0.0
  9
$UCSORGBOTTOM
 10
0.0
 20
0.0
 30
0.0
  9
$UCSORGLEFT
 10
0.0
 20
0.0
 30
0.0
  9
$UCSORGRIGHT
 10
0.0
 20
0.0
 30
0.0
  9
$UCSORGFRONT
 10
0.0
 20
0.0
 30
0.0
  9
$UCSORGBACK
 10
0.0
 20
0.0
 30
0.0
  9
$PUCSBASE
  2

  9
$PUCSNAME
  2

  9
$PUCSORG
 10
0.0
 20
0.0
 30
0.0
  9
$PUCSXDIR
 10
1.0
 20
0.0
 30
0.0
  9
$PUCSYDIR
 10
0.0
 20
1.0
 30
0.0
  9
$PUCSORTHOREF
  2

  9
$PUCSORTHOVIEW
 70
     0
  9
$PUCSORGTOP
 10
0.0
 20
0.0
 30
0.0
  9
$PUCSORGBOTTOM
 10
0.0
 20
0.0
 30
0.0
  9
$PUCSORGLEFT
 10
0.0
 20
0.0
 30
0.0
  9
$PUCSORGRIGHT
 10
0.0
 20
0.0
 30
0.0
  9
$PUCSORGFRONT
 10
0.0
 20
0.0
 30
0.0
  9
$PUCSORGBACK
 10
0.0
 20
0.0
 30
0.0
  9
$USERI1
 70
     0
  9
$USERI2
 70
     0
  9
$USERI3
 70
     0
  9
$USERI4
 70
     0
  9
$USERI5
 70
     0
  9
$USERR1
 40
0.0
  9
$USERR2
 40
0.0
  9
$USERR3
 40
0.0
  9
$USERR4
 40
0.0
  9
$USERR5
 40
0.0
  9
$WORLDVIEW
 70
     1
  9
$SHADEDGE
 70
     3
  9
$SHADEDIF
 70
    70
  9
$TILEMODE
 70
     1
  9
$MAXACTVP
 70
    16
  9
$PINSBASE
 10
94.77699787264981
 20
50.00000000000001
 30
160.541677480246
  9
$PLIMCHECK
 70
     0
  9
$PEXTMIN
 10
1.000000000000000E+20
 20
1.000000000000000E+20
 30
1.000000000000000E+20
  9
$PEXTMAX
 10
-1.000000000000000E+20
 20
-1.000000000000000E+20
 30
-1.000000000000000E+20
  9
$PLIMMIN
 10
0.0
 20
0.0
  9
$PLIMMAX
 10
12.0
 20
9.0
  9
$UNITMODE
 70
     0
  9
$VISRETAIN
 70
     0
  9
$PLINEGEN
 70
     0
  9
$PSLTSCALE
 70
     0
  9
$TREEDEPTH
 70
  3020
  9
$CMLSTYLE
  2
Standard
  9
$CMLJUST
 70
     0
  9
$CMLSCALE
 40
1.0
  9
$PROXYGRAPHICS
 70
     1
  9
$MEASUREMENT
 70
     0
  9
$CELWEIGHT
370
    -1
  9
$ENDCAPS
280
     0
  9
$JOINSTYLE
280
     0
  9
$LWDISPLAY
290
     0
  9
$INSUNITS
 70
     0
  9
$HYPERLINKBASE
  1

  9
$STYLESHEET
  1
monochrome 1.ctb
  9
$XEDIT
290
     1
  9
$CEPSNTYPE
380
     0
  9
$PSTYLEMODE
290
     1
  9
$FINGERPRINTGUID
  2
{5FB5DE59-4758-4550-9D6E-98D0683C8784}
  9
$VERSIONGUID
  2
{68F93DC4-E948-4762-A63C-80E90CF1BE55}
  9
$EXTNAMES
290
     1
  9
$PSVPSCALE
 40
0.0
  9
$OLESTARTUP
290
     0
  9
$SORTENTS
280
   127
  9
$INDEXCTL
280
     0
  9
$HIDETEXT
280
     1
  9
$XCLIPFRAME
290
     0
  9
$HALOGAP
280
     0
  9
$OBSCOLOR
 70
   257
  9
$OBSLTYPE
280
     0
  9
$INTERSECTIONDISPLAY
280
     0
  9
$INTERSECTIONCOLOR
 70
   257
  9
$DIMASSOC
280
     2
  9
$PROJECTNAME
  1

  0
ENDSEC
  0
SECTION
  2
CLASSES
  0
CLASS
  1
ACDBDICTIONARYWDFLT
  2
AcDbDictionaryWithDefault
  3
ObjectDBX Classes
 90
        0
 91
        1
280
     0
281
     0
  0
CLASS
  1
DICTIONARYVAR
  2
AcDbDictionaryVar
  3
ObjectDBX Classes
 90
        0
 91
        3
280
     0
281
     0
  0
CLASS
  1
DIMASSOC
  2
AcDbDimAssoc
  3
"AcDbDimAssoc|Product Desc:     AcDim ARX App For Dimension|Company:          Autodesk, Inc.|WEB Address:      www.autodesk.com"
 90
        0
 91
        5
280
     0
281
     0
  0
ENDSEC
  0
SECTION
  2
TABLES
  0
TABLE
  2
VPORT
  5
8
330
0
100
AcDbSymbolTable
 70
     2
  0
VPORT
  5
A52
330
8
100
AcDbSymbolTableRecord
100
AcDbViewportTableRecord
  2
*Active
 70
     0
 10
0.0
 20
0.0
 11
1.0
 21
1.0
 12
105.0000042785429
 22
148.5000060510818
 13
0.0
 23
0.0
 14
1.0
 24
1.0
 15
10.0
 25
10.0
 16
0.0
 26
0.0
 36
1.0
 17
0.0
 27
0.0
 37
0.0
 40
299.4257915534838
 41
1.336927223719676
 42
50.0
 43
0.0
 44
0.0
 50
0.0
 51
0.0
 71
     0
 72
  1500
 73
     1
 74
     0
 75
     0
 76
     0
 77
     0
 78
     0
281
     0
 65
     1
110
0.0
120
0.0
130
0.0
111
1.0
121
0.0
131
0.0
112
0.0
122
1.0
132
0.0
 79
     0
146
0.0
  0
ENDTAB
  0
TABLE
  2
LTYPE
  5
5
330
0
100
AcDbSymbolTable
 70
     2
  0
LTYPE
  5
13
330
5
100
AcDbSymbolTableRecord
100
AcDbLinetypeTableRecord
  2
ByBlock
 70
     0
  3

 72
    65
 73
     0
 40
0.0
  0
LTYPE
  5
14
330
5
100
AcDbSymbolTableRecord
100
AcDbLinetypeTableRecord
  2
ByLayer
 70
     0
  3

 72
    65
 73
     0
 40
0.0
  0
LTYPE
  5
15
330
5
100
AcDbSymbolTableRecord
100
AcDbLinetypeTableRecord
  2
Continuous
 70
     0
  3
Solid line
 72
    65
 73
     0
 40
0.0
  0
LTYPE
  5
38
330
5
100
AcDbSymbolTableRecord
100
AcDbLinetypeTableRecord
  2
STRICHPUNKT
 70
     0
  3
__ . __ . __ . __ . __ . __ . __ . __ . __ . __
 72
    65
 73
     4
 40
1.0
 49
0.5
 74
     0
 49
-0.25
 74
     0
 49
0.0
 74
     0
 49
-0.25
 74
     0
  0
ENDTAB
  0
TABLE
  2
LAYER
  5
2
330
0
100
AcDbSymbolTable
 70
     9
  0
LAYER
  5
10
330
2
100
AcDbSymbolTableRecord
100
AcDbLayerTableRecord
  2
0
 70
     0
 62
     7
  6
Continuous
370
    -3
390
F
  0
LAYER
  5
3B
330
2
100
AcDbSymbolTableRecord
100
AcDbLayerTableRecord
  2
VOLL
 70
     0
 62
     1
  6
Continuous
370
    -3
390
F
  0
LAYER
  5
3C
330
2
100
AcDbSymbolTableRecord
100
AcDbLayerTableRecord
  2
HILF
 70
     0
 62
     2
  6
Continuous
370
    -3
390
F
  0
LAYER
  5
3D
330
2
100
AcDbSymbolTableRecord
100
AcDbLayerTableRecord
  2
MITTEL
 70
     0
 62
     2
  6
STRICHPUNKT
370
    -3
390
F
  0
LAYER
  5
3E
330
2
100
AcDbSymbolTableRecord
100
AcDbLayerTableRecord
  2
BEM
 70
     0
 62
     7
  6
Continuous
370
    -3
390
F
  0
LAYER
  5
3F
330
2
100
AcDbSymbolTableRecord
100
AcDbLayerTableRecord
  2
SCHRAFF
 70
     0
 62
     7
  6
Continuous
370
    -3
390
F
  0
LAYER
  5
40
330
2
100
AcDbSymbolTableRecord
100
AcDbLayerTableRecord
  2
STEMPEL
 70
     0
 62
     3
  6
Continuous
370
    -3
390
F
  0
LAYER
  5
41
330
2
100
AcDbSymbolTableRecord
100
AcDbLayerTableRecord
  2
DEFPOINTS
 70
     0
 62
     7
  6
Continuous
290
     0
370
    -3
390
F
  0
LAYER
  5
42
330
2
100
AcDbSymbolTableRecord
100
AcDbLayerTableRecord
  2
TEXT
 70
     0
 62
     7
  6
Continuous
370
    -3
390
F
  0
ENDTAB
  0
TABLE
  2
STYLE
  5
3
330
0
100
AcDbSymbolTable
 70
     2
  0
STYLE
  5
11
330
3
100
AcDbSymbolTableRecord
100
AcDbTextStyleTableRecord
  2
STANDARD
 70
     0
 40
0.0
 41
0.8
 50
0.0
 71
     0
 42
3.5
  3
simplex.shx
  4

  0
STYLE
  5
37
330
3
100
AcDbSymbolTableRecord
100
AcDbTextStyleTableRecord
  2
GREEKS
 70
     0
 40
0.0
 41
0.8
 50
0.0
 71
     0
 42
3.5
  3
SIMPLEX.shx
  4

  0
ENDTAB
  0
TABLE
  2
VIEW
  5
6
330
0
100
AcDbSymbolTable
 70
     0
  0
ENDTAB
  0
TABLE
  2
UCS
  5
7
330
0
100
AcDbSymbolTable
 70
     0
  0
ENDTAB
  0
TABLE
  2
APPID
  5
9
330
0
100
AcDbSymbolTable
 70
     1
  0
APPID
  5
12
330
9
100
AcDbSymbolTableRecord
100
AcDbRegAppTableRecord
  2
ACAD
 70
     0
  0
ENDTAB
  0
TABLE
  2
DIMSTYLE
  5
A
330
0
100
AcDbSymbolTable
 70
     1
100
AcDbDimStyleTable
 71
     1
340
20F
  0
DIMSTYLE
105
20F
102
{ACAD_REACTORS
330
81E
330
836
330
84E
330
866
330
87E
102
}
330
A
100
AcDbSymbolTableRecord
100
AcDbDimStyleTableRecord
  2
Standard
 70
     0
340
11
  0
ENDTAB
  0
TABLE
  2
BLOCK_RECORD
  5
1
330
0
100
AcDbSymbolTable
 70
     6
  0
BLOCK_RECORD
  5
20
330
1
100
AcDbSymbolTableRecord
100
AcDbBlockTableRecord
  2
*Model_Space
340
23
  0
BLOCK_RECORD
  5
1C
330
1
100
AcDbSymbolTableRecord
100
AcDbBlockTableRecord
  2
*Paper_Space
340
1F
  0
BLOCK_RECORD
  5
739
330
1
100
AcDbSymbolTableRecord
100
AcDbBlockTableRecord
  2
*X0
340
0
102
{BLKREFS
331
7EB
102
}
  0
BLOCK_RECORD
  5
81F
330
1
100
AcDbSymbolTableRecord
100
AcDbBlockTableRecord
  2
*D1
340
0
  0
BLOCK_RECORD
  5
837
330
1
100
AcDbSymbolTableRecord
100
AcDbBlockTableRecord
  2
*D2
340
0
  0
BLOCK_RECORD
  5
84F
330
1
100
AcDbSymbolTableRecord
100
AcDbBlockTableRecord
  2
*D3
340
0
  0
BLOCK_RECORD
  5
867
330
1
100
AcDbSymbolTableRecord
100
AcDbBlockTableRecord
  2
*D4
340
0
  0
BLOCK_RECORD
  5
87F
330
1
100
AcDbSymbolTableRecord
100
AcDbBlockTableRecord
  2
*D5
340
0
  0
ENDTAB
  0
ENDSEC
  0
SECTION
  2
BLOCKS
  0
BLOCK
  5
46
330
20
100
AcDbEntity
  8
0
100
AcDbBlockBegin
  2
*Model_Space
 70
     0
 10
0.0
 20
0.0
 30
0.0
  3
*Model_Space
  1

  0
ENDBLK
  5
47
330
20
100
AcDbEntity
  8
0
100
AcDbBlockEnd
  0
BLOCK
  5
44
330
1C
100
AcDbEntity
 67
     1
  8
0
100
AcDbBlockBegin
  2
*Paper_Space
 70
     0
 10
0.0
 20
0.0
 30
0.0
  3
*Paper_Space
  1

  0
ENDBLK
  5
45
330
1C
100
AcDbEntity
 67
     1
  8
0
100
AcDbBlockEnd
  0
BLOCK
  5
73A
330
739
100
AcDbEntity
  8
0
100
AcDbBlockBegin
  2
*X0
 70
     1
 10
0.0
 20
0.0
 30
0.0
  3
*X0
  1

  0
LINE
  5
73B
330
739
100
AcDbEntity
  8
0
 62
     0
100
AcDbLine
 10
93.70021274941839
 20
61.88040759602376
 30
0.0
 11
95.07112620335011
 21
63.25132104995546
 31
0.0
  0
LINE
  5
73C
330
739
100
AcDbEntity
  8
0
 62
     0
100
AcDbLine
 10
91.97683926464383
 20
61.92480106421558
 30
0.0
 11
93.64125828771827
 21
63.58922008729001
 31
0.0
  0
LINE
  5
73D
330
739
100
AcDbEntity
  8
0
 62
     0
100
AcDbLine
 10
90.65402199992767
 20
62.36975075246578
 30
0.0
 11
92.42332018360089
 21
64.13904893613899
 31
0.0
  0
LINE
  5
73E
330
739
100
AcDbEntity
  8
0
 62
     0
100
AcDbLine
 10
89.65693356126196
 20
63.14042926676644
 30
0.0
 11
91.44955836059216
 21
64.93305406609661
 31
0.0
  0
LINE
  5
73F
330
739
100
AcDbEntity
  8
0
 62
     0
100
AcDbLine
 10
88.94360076156543
 20
64.19486342003627
 30
0.0
 11
90.70055071479295
 21
65.95181337326379
 31
0.0
  0
LINE
  5
740
330
739
100
AcDbEntity
  8
0
 62
     0
100
AcDbLine
 10
88.57967200237885
 20
65.59870161381605
 30
0.0
 11
90.2063613919087
 21
67.2253910033459
 31
0.0
  0
LINE
  5
741
330
739
100
AcDbEntity
  8
0
 62
     0
100
AcDbLine
 10
85.59361103162018
 20
64.38040759602376
 30
0.0
 11
86.63097382413278
 21
65.41777038853635
 31
0.0
  0
LINE
  5
742
330
739
100
AcDbEntity
  8
0
 62
     0
100
AcDbLine
 10
87.5881082353735
 20
66.37490479977708
 30
0.0
 11
90.07112620335011
 21
68.85792276775368
 31
0.0
  0
LINE
  5
743
330
739
100
AcDbEntity
  8
0
 62
     0
100
AcDbLine
 10
84.87356672499798
 20
65.42813024236792
 30
0.0
 11
90.07112620335011
 21
70.62568972072004
 31
0.0
  0
LINE
  5
744
330
739
100
AcDbEntity
  8
0
 62
     0
100
AcDbLine
 10
86.57112620335007
 20
68.89345667368639
 30
0.0
 11
90.07112620335011
 21
72.39345667368642
 31
0.0
  0
LINE
  5
745
330
739
100
AcDbEntity
  8
0
 62
     0
100
AcDbLine
 10
85.73071818803558
 20
69.82081561133826
 30
0.0
 11
90.07112620335011
 21
74.16122362665278
 31
0.0
  0
LINE
  5
746
330
739
100
AcDbEntity
  8
0
 62
     0
100
AcDbLine
 10
85.1711262033501
 20
71.02899057961915
 30
0.0
 11
90.07112620335011
 21
75.92899057961915
 31
0.0
  0
LINE
  5
747
330
739
100
AcDbEntity
  8
0
 62
     0
100
AcDbLine
 10
86.7492714383072
 20
74.37490276754262
 30
0.0
 11
90.07112620335011
 21
77.69675753258552
 31
0.0
  0
LINE
  5
748
330
739
100
AcDbEntity
  8
0
 62
     0
100
AcDbLine
 10
87.76088219406627
 20
77.15428047626805
 30
0.0
 11
89.90862116776007
 21
79.30201944996186
 31
0.0
  0
LINE
  5
749
330
739
100
AcDbEntity
  8
0
 62
     0
100
AcDbLine
 10
88.13492114341713
 20
79.29608637858528
 30
0.0
 11
89.64363956440942
 21
80.80480479957758
 31
0.0
  0
LINE
  5
74A
330
739
100
AcDbEntity
  8
0
 62
     0
100
AcDbLine
 10
86.45147540788924
 20
79.38040759602377
 30
0.0
 11
89.37865796105878
 21
82.3075901491933
 31
0.0
  0
LINE
  5
74B
330
739
100
AcDbEntity
  8
0
 62
     0
100
AcDbLine
 10
84.88409069335453
 20
79.58078983445543
 30
0.0
 11
89.08848175613028
 21
83.78518089723119
 31
0.0
  0
LINE
  5
74C
330
739
100
AcDbEntity
  8
0
 62
     0
100
AcDbLine
 10
87.16846538706764
 20
83.6329314811349
 30
0.0
 11
87.86792957609936
 21
84.33239567016663
 31
0.0
  0
LINE
  5
74D
330
739
100
AcDbEntity
  8
0
 62
     0
100
AcDbLine
 10
165.0223618914125
 20
83.7050820549596
 30
0.0
 11
165.6435132598423
 21
84.32623342338933
 31
0.0
  0
LINE
  5
74E
330
739
100
AcDbEntity
  8
0
 62
     0
100
AcDbLine
 10
164.6289328008806
 20
81.54388601146125
 30
0.0
 11
166.8815655210309
 21
83.79651873161156
 31
0.0
  0
LINE
  5
74F
330
739
100
AcDbEntity
  8
0
 62
     0
100
AcDbLine
 10
164.250499852232
 20
79.39768610984632
 30
0.0
 11
167.5188624007054
 21
82.6660486583197
 31
0.0
  0
LINE
  5
750
330
739
100
AcDbEntity
  8
0
 62
     0
100
AcDbLine
 10
164.0711262033501
 20
77.45054550799804
 30
0.0
 11
168.1561592803799
 21
81.53557858502784
 31
0.0
  0
LINE
  5
751
330
739
100
AcDbEntity
  8
0
 62
     0
100
AcDbLine
 10
164.0711262033501
 20
75.68277855503168
 30
0.0
 11
166.1575550980469
 21
77.76920744972851
 31
0.0
  0
LINE
  5
752
330
739
100
AcDbEntity
  8
0
 62
     0
100
AcDbLine
 10
167.7687552443422
 20
79.38040759602377
 30
0.0
 11
168.7934561600544
 21
80.40510851173598
 31
0.0
  0
LINE
  5
753
330
739
100
AcDbEntity
  8
0
 62
     0
100
AcDbLine
 10
164.0711262033501
 20
73.9150116020653
 30
0.0
 11
166.6292769405293
 21
76.47316233924456
 31
0.0
  0
LINE
  5
754
330
739
100
AcDbEntity
  8
0
 62
     0
100
AcDbLine
 10
164.0711262033501
 20
72.14724464909894
 30
0.0
 11
167.1009987830118
 21
75.17711722876061
 31
0.0
  0
LINE
  5
755
330
739
100
AcDbEntity
  8
0
 62
     0
100
AcDbLine
 10
164.0711262033501
 20
70.37947769613257
 30
0.0
 11
167.5711262033501
 21
73.87947769613258
 31
0.0
  0
LINE
  5
756
330
739
100
AcDbEntity
  8
0
 62
     0
100
AcDbLine
 10
164.0711262033501
 20
68.6117107431662
 30
0.0
 11
167.9054746297789
 21
72.44605916959499
 31
0.0
  0
LINE
  5
757
330
739
100
AcDbEntity
  8
0
 62
     0
100
AcDbLine
 10
159.107590009174
 20
61.88040759602376
 30
0.0
 11
160.9907809936025
 21
63.76359858045224
 31
0.0
  0
LINE
  5
758
330
739
100
AcDbEntity
  8
0
 62
     0
100
AcDbLine
 10
163.6879352189216
 20
66.46075280577135
 30
0.0
 11
168.7893581062621
 21
71.5621756931118
 31
0.0
  0
LINE
  5
759
330
739
100
AcDbEntity
  8
0
 62
     0
100
AcDbLine
 10
160.8753569621404
 20
61.88040759602376
 30
0.0
 11
167.5711262033501
 21
68.57617683723351
 31
0.0
  0
LINE
  5
75A
330
739
100
AcDbEntity
  8
0
 62
     0
100
AcDbLine
 10
162.8546436010886
 20
62.09192728200563
 30
0.0
 11
165.3596065173682
 21
64.59689019828522
 31
0.0
  0
LINE
  5
75B
330
739
100
AcDbEntity
  8
0
 62
     0
100
AcDbLine
 10
166.9764839895293
 20
66.21376767044634
 30
0.0
 11
168.1450301298644
 21
67.38231381078145
 31
0.0
  0
LINE
  5
75C
330
739
100
AcDbEntity
  8
0
 62
     0
100
AcDbLine
 10
167.6644452885527
 20
65.13396201650334
 30
0.0
 11
168.7904053666617
 21
66.25992209461232
 31
0.0
  0
LINE
  5
75D
330
739
100
AcDbEntity
  8
0
 62
     0
100
AcDbLine
 10
168.6786578210395
 20
64.38040759602376
 30
0.0
 11
169.4357806034589
 21
65.1375303784432
 31
0.0
  0
LINE
  5
75E
330
739
100
AcDbEntity
  8
0
 62
     0
100
AcDbLine
 10
89.42422439886616
 20
82.04917003887159
 30
0.0
 11
87.42758200238787
 21
84.04581243534988
 31
0.0
  0
LINE
  5
75F
330
739
100
AcDbEntity
  8
0
 62
     0
100
AcDbLine
 10
89.80265734751471
 20
79.9029701372567
 30
0.0
 11
86.77343005295206
 21
82.93219743181932
 31
0.0
  0
LINE
  5
760
330
739
100
AcDbEntity
  8
0
 62
     0
100
AcDbLine
 10
90.07112620335011
 20
77.86673432845493
 30
0.0
 11
86.13613317327757
 21
81.80172735852746
 31
0.0
  0
LINE
  5
761
330
739
100
AcDbEntity
  8
0
 62
     0
100
AcDbLine
 10
90.07112620335011
 20
76.09896737548855
 30
0.0
 11
88.09575570177294
 21
78.07433787706571
 31
0.0
  0
LINE
  5
762
330
739
100
AcDbEntity
  8
0
 62
     0
100
AcDbLine
 10
86.78968598281489
 20
79.38040759602379
 30
0.0
 11
85.49883629360307
 21
80.67125728523558
 31
0.0
  0
LINE
  5
763
330
739
100
AcDbEntity
  8
0
 62
     0
100
AcDbLine
 10
90.07112620335011
 20
74.33120042252219
 30
0.0
 11
87.62403385929053
 21
76.77829276658176
 31
0.0
  0
LINE
  5
764
330
739
100
AcDbEntity
  8
0
 62
     0
100
AcDbLine
 10
85.02191902984852
 20
79.38040759602377
 30
0.0
 11
84.86153941392855
 21
79.54078721194372
 31
0.0
  0
LINE
  5
765
330
739
100
AcDbEntity
  8
0
 62
     0
100
AcDbLine
 10
90.07112620335011
 20
72.56343346955581
 30
0.0
 11
87.15231201680811
 21
75.48224765609781
 31
0.0
  0
LINE
  5
766
330
739
100
AcDbEntity
  8
0
 62
     0
100
AcDbLine
 10
90.07112620335011
 20
70.79566651658945
 30
0.0
 11
86.6805901743257
 21
74.18620254561385
 31
0.0
  0
LINE
  5
767
330
739
100
AcDbEntity
  8
0
 62
     0
100
AcDbLine
 10
90.07112620335011
 20
69.02789956362308
 30
0.0
 11
86.44487218714976
 21
72.65415357982343
 31
0.0
  0
LINE
  5
768
330
739
100
AcDbEntity
  8
0
 62
     0
100
AcDbLine
 10
95.07112620335011
 20
62.26013261065671
 30
0.0
 11
93.78173954742269
 21
63.54951926658413
 31
0.0
  0
LINE
  5
769
330
739
100
AcDbEntity
  8
0
 62
     0
100
AcDbLine
 10
90.24023787391049
 20
67.09102094009634
 30
0.0
 11
85.56098871066657
 21
71.77027010334024
 31
0.0
  0
LINE
  5
76A
330
739
100
AcDbEntity
  8
0
 62
     0
100
AcDbLine
 10
93.68308426501668
 20
61.88040759602376
 30
0.0
 11
85.1711262033501
 21
70.39236565769036
 31
0.0
  0
LINE
  5
76B
330
739
100
AcDbEntity
  8
0
 62
     0
100
AcDbLine
 10
91.84972755972014
 20
61.94599734835395
 30
0.0
 11
88.63671595568028
 21
65.1590089523938
 31
0.0
  0
LINE
  5
76C
330
739
100
AcDbEntity
  8
0
 62
     0
100
AcDbLine
 10
87.44781481276103
 20
66.34791009531305
 30
0.0
 11
86.14916422716127
 21
67.6465606809128
 31
0.0
  0
LINE
  5
76D
330
739
100
AcDbEntity
  8
0
 62
     0
100
AcDbLine
 10
86.62368791067775
 20
65.40427004442995
 30
0.0
 11
85.50378899036402
 21
66.52416896474367
 31
0.0
  0
LINE
  5
76E
330
739
100
AcDbEntity
  8
0
 62
     0
100
AcDbLine
 10
85.87978340611758
 20
64.38040759602376
 30
0.0
 11
84.85841375356679
 21
65.40177724857454
 31
0.0
  0
LINE
  5
76F
330
739
100
AcDbEntity
  8
0
 62
     0
100
AcDbLine
 10
159.0904615247723
 20
61.88040759602376
 30
0.0
 11
159.0711262033501
 21
61.89974291744597
 31
0.0
  0
LINE
  5
770
330
739
100
AcDbEntity
  8
0
 62
     0
100
AcDbLine
 10
160.8582284777387
 20
61.88040759602376
 30
0.0
 11
159.3504217813016
 21
63.38821429246086
 31
0.0
  0
LINE
  5
771
330
739
100
AcDbEntity
  8
0
 62
     0
100
AcDbLine
 10
162.5134213063737
 20
61.99298172035511
 30
0.0
 11
160.8128338581685
 21
63.69356916856028
 31
0.0
  0
LINE
  5
772
330
739
100
AcDbEntity
  8
0
 62
     0
100
AcDbLine
 10
163.7489318877407
 20
62.52523809195449
 30
0.0
 11
161.9686246687967
 21
64.30554531089851
 31
0.0
  0
LINE
  5
773
330
739
100
AcDbEntity
  8
0
 62
     0
100
AcDbLine
 10
164.6793076908343
 20
63.36262924182721
 30
0.0
 11
162.889516103741
 21
65.1524208289205
 31
0.0
  0
LINE
  5
774
330
739
100
AcDbEntity
  8
0
 62
     0
100
AcDbLine
 10
165.3211562986076
 20
64.48854758702029
 30
0.0
 11
163.5833416761295
 21
66.22636220949837
 31
0.0
  0
LINE
  5
775
330
739
100
AcDbEntity
  8
0
 62
     0
100
AcDbLine
 10
165.6651715124601
 20
65.91229932613416
 30
0.0
 11
164.0053594072237
 21
67.57211143137062
 31
0.0
  0
LINE
  5
776
330
739
100
AcDbEntity
  8
0
 62
     0
100
AcDbLine
 10
168.9648301955369
 20
64.38040759602376
 30
0.0
 11
164.0711262033501
 21
69.27411158821056
 31
0.0
  0
LINE
  5
777
330
739
100
AcDbEntity
  8
0
 62
     0
100
AcDbLine
 10
168.7056066893194
 20
66.40739805520762
 30
0.0
 11
164.0711262033501
 21
71.04187854117693
 31
0.0
  0
LINE
  5
778
330
739
100
AcDbEntity
  8
0
 62
     0
100
AcDbLine
 10
167.7357451524099
 20
69.14502654508352
 30
0.0
 11
164.0711262033501
 21
72.8096454941433
 31
0.0
  0
LINE
  5
779
330
739
100
AcDbEntity
  8
0
 62
     0
100
AcDbLine
 10
168.6196286288931
 20
70.0289100215667
 30
0.0
 11
164.0711262033501
 21
74.57741244710966
 31
0.0
  0
LINE
  5
77A
330
739
100
AcDbEntity
  8
0
 62
     0
100
AcDbLine
 10
167.5711262033501
 20
72.84517940007603
 30
0.0
 11
164.0711262033501
 21
76.34517940007603
 31
0.0
  0
LINE
  5
77B
330
739
100
AcDbEntity
  8
0
 62
     0
100
AcDbLine
 10
167.1548154757672
 20
75.0292570806253
 30
0.0
 11
164.0711262033501
 21
78.1129463530424
 31
0.0
  0
LINE
  5
77C
330
739
100
AcDbEntity
  8
0
 62
     0
100
AcDbLine
 10
166.1432047200081
 20
77.80863478935073
 30
0.0
 11
164.2960163744673
 21
79.65582313489156
 31
0.0
  0
LINE
  5
77D
330
739
100
AcDbEntity
  8
0
 62
     0
100
AcDbLine
 10
166.3391988663015
 20
79.3804075960238
 30
0.0
 11
164.5609979778179
 21
81.15860848450727
 31
0.0
  0
LINE
  5
77E
330
739
100
AcDbEntity
  8
0
 62
     0
100
AcDbLine
 10
168.1069658192678
 20
79.38040759602379
 30
0.0
 11
164.8259795811686
 21
82.661393834123
 31
0.0
  0
LINE
  5
77F
330
739
100
AcDbEntity
  8
0
 62
     0
100
AcDbLine
 10
168.7203469252241
 20
80.53479344303392
 30
0.0
 11
165.2158990906513
 21
84.03924127760667
 31
0.0
  0
ENDBLK
  5
780
330
739
100
AcDbEntity
  8
0
100
AcDbBlockEnd
  0
BLOCK
  5
829
330
81F
100
AcDbEntity
  8
0
100
AcDbBlockBegin
  2
*D1
 70
     1
 10
0.0
 20
0.0
 30
0.0
  3
*D1
  1

  0
LINE
  5
A02
330
81F
100
AcDbEntity
  8
BEM
 62
     0
370
    -2
100
AcDbLine
 10
73.95201222263373
 20
151.745876857365
 30
0.0
 11
73.95201222263373
 21
167.8463293335716
 31
0.0
  0
LINE
  5
A03
330
81F
100
AcDbEntity
  8
BEM
 62
     0
370
    -2
100
AcDbLine
 10
147.9520122226337
 20
151.745876857365
 30
0.0
 11
147.9520122226337
 21
167.8463293335716
 31
0.0
  0
LINE
  5
A04
330
81F
100
AcDbEntity
  8
BEM
 62
     0
370
    -2
100
AcDbLine
 10
77.45201222263372
 20
166.8463293335716
 30
0.0
 11
144.4520122226337
 21
166.8463293335716
 31
0.0
  0
SOLID
  5
A05
330
81F
100
AcDbEntity
  8
BEM
 62
     0
100
AcDbTrace
 10
77.45201222263372
 20
167.4296626669049
 30
0.0
 11
77.45201222263372
 21
166.2629960002382
 31
0.0
 12
73.95201222263373
 22
166.8463293335716
 32
0.0
 13
73.95201222263373
 23
166.8463293335716
 33
0.0
  0
SOLID
  5
A06
330
81F
100
AcDbEntity
  8
BEM
 62
     0
100
AcDbTrace
 10
144.4520122226337
 20
167.4296626669049
 30
0.0
 11
144.4520122226337
 21
166.2629960002382
 31
0.0
 12
147.9520122226337
 22
166.8463293335716
 32
0.0
 13
147.9520122226337
 23
166.8463293335716
 33
0.0
  0
MTEXT
  5
A07
330
81F
100
AcDbEntity
  8
BEM
 62
     1
100
AcDbMText
 10
110.9520122226337
 20
170.0963293335716
 30
0.0
 40
3.5
 41
0.0
 71
     5
 72
     1
  1
\A1;%%c74
 73
     1
 44
1.0
  0
POINT
  5
A08
330
81F
100
AcDbEntity
  8
DEFPOINTS
 62
     0
100
AcDbPoint
 10
73.95201222263373
 20
150.745876857365
 30
0.0
  0
POINT
  5
A09
330
81F
100
AcDbEntity
  8
DEFPOINTS
 62
     0
100
AcDbPoint
 10
147.9520122226337
 20
150.745876857365
 30
0.0
  0
POINT
  5
A0A
330
81F
100
AcDbEntity
  8
DEFPOINTS
 62
     0
100
AcDbPoint
 10
147.9520122226337
 20
166.8463293335716
 30
0.0
  0
ENDBLK
  5
82A
330
81F
100
AcDbEntity
  8
0
100
AcDbBlockEnd
  0
BLOCK
  5
841
330
837
100
AcDbEntity
  8
0
100
AcDbBlockBegin
  2
*D2
 70
     1
 10
0.0
 20
0.0
 30
0.0
  3
*D2
  1

  0
LINE
  5
9F9
330
837
100
AcDbEntity
  8
BEM
 62
     0
370
    -2
100
AcDbLine
 10
68.65201222263372
 20
152.745876857365
 30
0.0
 11
68.65201222263372
 21
174.8966458339216
 31
0.0
  0
LINE
  5
9FA
330
837
100
AcDbEntity
  8
BEM
 62
     0
370
    -2
100
AcDbLine
 10
153.2520122226337
 20
152.745876857365
 30
0.0
 11
153.2520122226337
 21
174.8966458339216
 31
0.0
  0
LINE
  5
9FB
330
837
100
AcDbEntity
  8
BEM
 62
     0
370
    -2
100
AcDbLine
 10
72.15201222263371
 20
173.8966458339216
 30
0.0
 11
149.7520122226337
 21
173.8966458339216
 31
0.0
  0
SOLID
  5
9FC
330
837
100
AcDbEntity
  8
BEM
 62
     0
100
AcDbTrace
 10
72.15201222263371
 20
174.479979167255
 30
0.0
 11
72.15201222263371
 21
173.3133125005883
 31
0.0
 12
68.65201222263372
 22
173.8966458339216
 32
0.0
 13
68.65201222263372
 23
173.8966458339216
 33
0.0
  0
SOLID
  5
9FD
330
837
100
AcDbEntity
  8
BEM
 62
     0
100
AcDbTrace
 10
149.7520122226337
 20
174.479979167255
 30
0.0
 11
149.7520122226337
 21
173.3133125005883
 31
0.0
 12
153.2520122226337
 22
173.8966458339216
 32
0.0
 13
153.2520122226337
 23
173.8966458339216
 33
0.0
  0
MTEXT
  5
9FE
330
837
100
AcDbEntity
  8
BEM
 62
     1
100
AcDbMText
 10
110.9520122226337
 20
177.1466458339216
 30
0.0
 40
3.5
 41
0.0
 71
     5
 72
     1
  1
\A1;%%c84.6
 73
     1
 44
1.0
  0
POINT
  5
9FF
330
837
100
AcDbEntity
  8
DEFPOINTS
 62
     0
100
AcDbPoint
 10
68.65201222263372
 20
151.745876857365
 30
0.0
  0
POINT
  5
A00
330
837
100
AcDbEntity
  8
DEFPOINTS
 62
     0
100
AcDbPoint
 10
153.2520122226337
 20
151.745876857365
 30
0.0
  0
POINT
  5
A01
330
837
100
AcDbEntity
  8
DEFPOINTS
 62
     0
100
AcDbPoint
 10
153.2520122226337
 20
173.8966458339216
 30
0.0
  0
ENDBLK
  5
842
330
837
100
AcDbEntity
  8
0
100
AcDbBlockEnd
  0
BLOCK
  5
859
330
84F
100
AcDbEntity
  8
0
100
AcDbBlockBegin
  2
*D3
 70
     1
 10
0.0
 20
0.0
 30
0.0
  3
*D3
  1

  0
LINE
  5
A0B
330
84F
100
AcDbEntity
  8
BEM
 62
     0
370
    -2
100
AcDbLine
 10
152.8520122226337
 20
141.745876857365
 30
0.0
 11
152.8520122226337
 21
120.1333618379176
 31
0.0
  0
LINE
  5
A0C
330
84F
100
AcDbEntity
  8
BEM
 62
     0
370
    -2
100
AcDbLine
 10
69.05201222263369
 20
141.745876857365
 30
0.0
 11
69.05201222263369
 21
120.1333618379176
 31
0.0
  0
LINE
  5
A0D
330
84F
100
AcDbEntity
  8
BEM
 62
     0
370
    -2
100
AcDbLine
 10
149.3520122226337
 20
121.1333618379176
 30
0.0
 11
72.55201222263369
 21
121.1333618379176
 31
0.0
  0
SOLID
  5
A0E
330
84F
100
AcDbEntity
  8
BEM
 62
     0
100
AcDbTrace
 10
149.3520122226337
 20
121.7166951712509
 30
0.0
 11
149.3520122226337
 21
120.5500285045843
 31
0.0
 12
152.8520122226337
 22
121.1333618379176
 32
0.0
 13
152.8520122226337
 23
121.1333618379176
 33
0.0
  0
SOLID
  5
A0F
330
84F
100
AcDbEntity
  8
BEM
 62
     0
100
AcDbTrace
 10
72.55201222263369
 20
121.7166951712509
 30
0.0
 11
72.55201222263369
 21
120.5500285045843
 31
0.0
 12
69.05201222263369
 22
121.1333618379176
 32
0.0
 13
69.05201222263369
 23
121.1333618379176
 33
0.0
  0
MTEXT
  5
A10
330
84F
100
AcDbEntity
  8
BEM
 62
     1
100
AcDbMText
 10
110.9520122226337
 20
124.3833618379176
 30
0.0
 40
3.5
 41
0.0
 71
     5
 72
     1
  1
\A1;%%c83.8
 73
     1
 44
1.0
  0
POINT
  5
A11
330
84F
100
AcDbEntity
  8
DEFPOINTS
 62
     0
100
AcDbPoint
 10
152.8520122226337
 20
142.745876857365
 30
0.0
  0
POINT
  5
A12
330
84F
100
AcDbEntity
  8
DEFPOINTS
 62
     0
100
AcDbPoint
 10
69.05201222263369
 20
142.745876857365
 30
0.0
  0
POINT
  5
A13
330
84F
100
AcDbEntity
  8
DEFPOINTS
 62
     0
100
AcDbPoint
 10
69.05201222263369
 20
121.1333618379176
 30
0.0
  0
ENDBLK
  5
85A
330
84F
100
AcDbEntity
  8
0
100
AcDbBlockEnd
  0
BLOCK
  5
871
330
867
100
AcDbEntity
  8
0
100
AcDbBlockBegin
  2
*D4
 70
     1
 10
0.0
 20
0.0
 30
0.0
  3
*D4
  1

  0
LINE
  5
874
330
867
100
AcDbEntity
  8
BEM
 62
     0
370
    -2
100
AcDbLine
 10
75.45201222263372
 20
134.245876857365
 30
0.0
 11
61.88488868198874
 21
134.245876857365
 31
0.0
  0
LINE
  5
875
330
867
100
AcDbEntity
  8
BEM
 62
     0
370
    -2
100
AcDbLine
 10
67.65201222263371
 20
151.745876857365
 30
0.0
 11
61.88488868198874
 21
151.745876857365
 31
0.0
  0
LINE
  5
876
330
867
100
AcDbEntity
  8
BEM
 62
     0
370
    -2
100
AcDbLine
 10
62.88488868198873
 20
137.745876857365
 30
0.0
 11
62.88488868198874
 21
148.245876857365
 31
0.0
  0
SOLID
  5
877
330
867
100
AcDbEntity
  8
BEM
 62
     0
100
AcDbTrace
 10
62.3015553486554
 20
137.745876857365
 30
0.0
 11
63.46822201532207
 21
137.745876857365
 31
0.0
 12
62.88488868198873
 22
134.245876857365
 32
0.0
 13
62.88488868198873
 23
134.245876857365
 33
0.0
  0
SOLID
  5
878
330
867
100
AcDbEntity
  8
BEM
 62
     0
100
AcDbTrace
 10
62.30155534865541
 20
148.245876857365
 30
0.0
 11
63.46822201532208
 21
148.245876857365
 31
0.0
 12
62.88488868198874
 22
151.745876857365
 32
0.0
 13
62.88488868198874
 23
151.745876857365
 33
0.0
  0
MTEXT
  5
879
330
867
100
AcDbEntity
  8
BEM
 62
     1
100
AcDbMText
 10
59.63488868198871
 20
142.995876857365
 30
0.0
 40
3.5
 41
0.0
 71
     5
 72
     1
  1
\A1;17.5
 11
0.0000000000000001
 21
1.0
 31
0.0
 73
     1
 44
1.0
  0
POINT
  5
87A
330
867
100
AcDbEntity
  8
DEFPOINTS
 62
     0
100
AcDbPoint
 10
76.45201222263373
 20
134.245876857365
 30
0.0
  0
POINT
  5
87B
330
867
100
AcDbEntity
  8
DEFPOINTS
 62
     0
100
AcDbPoint
 10
68.65201222263372
 20
151.745876857365
 30
0.0
  0
POINT
  5
87C
330
867
100
AcDbEntity
  8
DEFPOINTS
 62
     0
100
AcDbPoint
 10
62.88488868198874
 20
151.745876857365
 30
0.0
  0
ENDBLK
  5
872
330
867
100
AcDbEntity
  8
0
100
AcDbBlockEnd
  0
BLOCK
  5
889
330
87F
100
AcDbEntity
  8
0
100
AcDbBlockBegin
  2
*D5
 70
     1
 10
0.0
 20
0.0
 30
0.0
  3
*D5
  1

  0
LINE
  5
88C
330
87F
100
AcDbEntity
  8
BEM
 62
     0
370
    -2
100
AcDbLine
 10
75.45201222263372
 20
134.245876857365
 30
0.0
 11
54.21687467058085
 21
134.245876857365
 31
0.0
  0
LINE
  5
88D
330
87F
100
AcDbEntity
  8
BEM
 62
     0
370
    -2
100
AcDbLine
 10
71.05495070720568
 20
156.745876857365
 30
0.0
 11
54.21687467058086
 21
156.745876857365
 31
0.0
  0
LINE
  5
88E
330
87F
100
AcDbEntity
  8
BEM
 62
     0
370
    -2
100
AcDbLine
 10
55.21687467058086
 20
137.745876857365
 30
0.0
 11
55.21687467058086
 21
153.245876857365
 31
0.0
  0
SOLID
  5
88F
330
87F
100
AcDbEntity
  8
BEM
 62
     0
100
AcDbTrace
 10
54.63354133724752
 20
137.745876857365
 30
0.0
 11
55.8002080039142
 21
137.745876857365
 31
0.0
 12
55.21687467058086
 22
134.245876857365
 32
0.0
 13
55.21687467058086
 23
134.245876857365
 33
0.0
  0
SOLID
  5
890
330
87F
100
AcDbEntity
  8
BEM
 62
     0
100
AcDbTrace
 10
54.63354133724752
 20
153.245876857365
 30
0.0
 11
55.8002080039142
 21
153.245876857365
 31
0.0
 12
55.21687467058086
 22
156.745876857365
 32
0.0
 13
55.21687467058086
 23
156.745876857365
 33
0.0
  0
MTEXT
  5
891
330
87F
100
AcDbEntity
  8
BEM
 62
     1
100
AcDbMText
 10
51.96687467058083
 20
145.495876857365
 30
0.0
 40
3.5
 41
0.0
 71
     5
 72
     1
  1
\A1;22.5
 11
0.0000000000000001
 21
1.0
 31
0.0
 73
     1
 44
1.0
  0
POINT
  5
892
330
87F
100
AcDbEntity
  8
DEFPOINTS
 62
     0
100
AcDbPoint
 10
76.45201222263373
 20
134.245876857365
 30
0.0
  0
POINT
  5
893
330
87F
100
AcDbEntity
  8
DEFPOINTS
 62
     0
100
AcDbPoint
 10
72.05495070720568
 20
156.745876857365
 30
0.0
  0
POINT
  5
894
330
87F
100
AcDbEntity
  8
DEFPOINTS
 62
     0
100
AcDbPoint
 10
55.21687467058086
 20
156.745876857365
 30
0.0
  0
ENDBLK
  5
88A
330
87F
100
AcDbEntity
  8
0
100
AcDbBlockEnd
  0
ENDSEC
  0
SECTION
  2
ENTITIES
  0
LINE
  5
144
330
20
100
AcDbEntity
  8
HILF
100
AcDbLine
 10
210.0
 20
0.0
 30
0.0
 11
0.0
 21
0.0
 31
0.0
  0
LINE
  5
145
330
20
100
AcDbEntity
  8
HILF
100
AcDbLine
 10
210.0
 20
297.0000000000001
 30
0.0
 11
0.0
 21
297.0
 31
0.0
  0
LINE
  5
146
330
20
100
AcDbEntity
  8
STEMPEL
100
AcDbLine
 10
205.0
 20
292.0
 30
0.0
 11
19.99999999999994
 21
292.0
 31
0.0
  0
LINE
  5
147
330
20
100
AcDbEntity
  8
STEMPEL
100
AcDbLine
 10
205.0
 20
5.0
 30
0.0
 11
19.99999999999994
 21
5.0
 31
0.0
  0
LINE
  5
148
330
20
100
AcDbEntity
  8
STEMPEL
100
AcDbLine
 10
24.99999999999995
 20
5.0
 30
0.0
 11
205.0
 21
5.0
 31
0.0
  0
LINE
  5
149
330
20
100
AcDbEntity
  8
HILF
100
AcDbLine
 10
111.7454849644942
 20
7.446991290141568
 30
0.0
 11
202.4294419663364
 21
7.446991290141568
 31
0.0
  0
LINE
  5
14A
330
20
100
AcDbEntity
  8
HILF
100
AcDbLine
 10
112.3868400548474
 20
24.99999999999999
 30
0.0
 11
162.4176958278155
 21
24.99999999999999
 31
0.0
  0
LINE
  5
14B
330
20
100
AcDbEntity
  8
HILF
100
AcDbLine
 10
112.3868400548474
 20
29.99999999999999
 30
0.0
 11
162.4176958278155
 21
29.99999999999999
 31
0.0
  0
LINE
  5
14C
330
20
100
AcDbEntity
  8
HILF
100
AcDbLine
 10
112.3868400548474
 20
34.99999999999997
 30
0.0
 11
162.4176958278155
 21
34.99999999999997
 31
0.0
  0
LINE
  5
14D
330
20
100
AcDbEntity
  8
HILF
100
AcDbLine
 10
112.3868400548474
 20
42.01879123782069
 30
0.0
 11
162.4176958278155
 21
42.01879123782069
 31
0.0
  0
LINE
  5
14E
330
20
100
AcDbEntity
  8
STEMPEL
100
AcDbLine
 10
205.0
 20
40.0
 30
0.0
 11
68.00000000000006
 21
39.99999999999997
 31
0.0
  0
LINE
  5
14F
330
20
100
AcDbEntity
  8
STEMPEL
100
AcDbLine
 10
205.0
 20
20.0
 30
0.0
 11
68.00000000000006
 21
19.99999999999998
 31
0.0
  0
LINE
  5
150
330
20
100
AcDbEntity
  8
STEMPEL
100
AcDbLine
 10
205.0
 20
55.00000000000003
 30
0.0
 11
19.99999999999998
 21
55.0
 31
0.0
  0
LINE
  5
154
330
20
100
AcDbEntity
  8
HILF
100
AcDbLine
 10
0.0
 20
0.0
 30
0.0
 11
-0.0000000000000568
 21
297.0
 31
0.0
  0
LINE
  5
155
330
20
100
AcDbEntity
  8
STEMPEL
100
AcDbLine
 10
20.0
 20
5.0
 30
0.0
 11
19.99999999999994
 21
292.0
 31
0.0
  0
TEXT
  5
15C
330
20
100
AcDbEntity
  8
TEXT
100
AcDbText
 10
21.16299821803051
 20
55.83599999999997
 30
0.0
 40
2.5
  1
Erstellt mit AUTOCAD 2004
 41
0.8
  7
GREEKS
100
AcDbText
  0
LINE
  5
15D
330
20
100
AcDbEntity
  8
HILF
100
AcDbLine
 10
20.00000000000004
 20
19.99999999999998
 30
0.0
 11
68.00000000000006
 21
19.99999999999998
 31
0.0
  0
LINE
  5
15E
330
20
100
AcDbEntity
  8
HILF
100
AcDbLine
 10
20.00000000000004
 20
24.99999999999999
 30
0.0
 11
68.00000000000006
 21
24.99999999999999
 31
0.0
  0
LINE
  5
15F
330
20
100
AcDbEntity
  8
HILF
100
AcDbLine
 10
20.00000000000004
 20
29.99999999999999
 30
0.0
 11
68.00000000000006
 21
29.99999999999999
 31
0.0
  0
LINE
  5
160
330
20
100
AcDbEntity
  8
HILF
100
AcDbLine
 10
20.00000000000004
 20
34.99999999999997
 30
0.0
 11
68.00000000000006
 21
34.99999999999997
 31
0.0
  0
LINE
  5
161
330
20
100
AcDbEntity
  8
HILF
100
AcDbLine
 10
20.00000000000004
 20
39.99999999999997
 30
0.0
 11
68.00000000000006
 21
39.99999999999997
 31
0.0
  0
LINE
  5
162
330
20
100
AcDbEntity
  8
HILF
100
AcDbLine
 10
20.00000000000004
 20
45.00000000000002
 30
0.0
 11
68.00000000000006
 21
45.00000000000002
 31
0.0
  0
LINE
  5
163
330
20
100
AcDbEntity
  8
HILF
100
AcDbLine
 10
20.00000000000004
 20
50.00000000000003
 30
0.0
 11
68.00000000000006
 21
50.00000000000003
 31
0.0
  0
LINE
  5
164
330
20
100
AcDbEntity
  8
STEMPEL
100
AcDbLine
 10
67.99999999999994
 20
14.99999999999998
 30
0.0
 11
19.99999999999998
 21
14.99999999999998
 31
0.0
  0
TEXT
  5
165
330
20
100
AcDbEntity
  8
TEXT
100
AcDbText
 10
49.79273626936724
 20
9.33578134669905
 30
0.0
 40
2.0
  1
Tag
 41
0.8
  7
GREEKS
 72
     1
 11
51.65940293603391
 21
9.33578134669905
 31
0.0
100
AcDbText
  0
TEXT
  5
166
330
20
100
AcDbEntity
  8
TEXT
100
AcDbText
 10
31.1234419470788
 20
9.336909474920659
 30
0.0
 40
2.0
  1
Änderung
 41
0.8
  7
GREEKS
 72
     1
 11
36.49487051850737
 21
9.336909474920659
 31
0.0
100
AcDbText
  0
TEXT
  5
167
330
20
100
AcDbEntity
  8
TEXT
100
AcDbText
 10
24.13320553522878
 20
6.827329230135958
 30
0.0
 40
1.8
  1
Index
 50
90.0
 41
0.8
  7
GREEKS
100
AcDbText
  0
LINE
  5
168
330
20
100
AcDbEntity
  8
VOLL
100
AcDbLine
 10
57.00000000000006
 20
54.99999999999997
 30
0.0
 11
57.0
 21
4.999999999999985
 31
0.0
  0
LINE
  5
169
330
20
100
AcDbEntity
  8
VOLL
100
AcDbLine
 10
47.00000000000005
 20
54.99999999999997
 30
0.0
 11
47.0
 21
4.999999999999985
 31
0.0
  0
LINE
  5
16A
330
20
100
AcDbEntity
  8
VOLL
100
AcDbLine
 10
27.00000000000005
 20
55.00000000000003
 30
0.0
 11
26.99999999999999
 21
4.999999999999985
 31
0.0
  0
LINE
  5
16E
330
20
100
AcDbEntity
  8
HILF
100
AcDbLine
 10
15.54383567856928
 20
148.5
 30
0.0
 11
0.0000000000000568
 21
148.5
 31
0.0
  0
TEXT
  5
17F
330
20
100
AcDbEntity
  8
TEXT
100
AcDbText
 10
92.14294773670257
 20
51.20920842174095
 30
0.0
 40
2.5
  1
Zul. Abw.
 41
0.8
  7
GREEKS
100
AcDbText
  0
LINE
  5
180
330
20
100
AcDbEntity
  8
HILF
100
AcDbLine
 10
68.00000000000006
 20
24.99999999999999
 30
0.0
 11
110.0
 21
24.99999999999999
 31
0.0
  0
LINE
  5
181
330
20
100
AcDbEntity
  8
HILF
100
AcDbLine
 10
68.00000000000006
 20
29.99999999999999
 30
0.0
 11
110.0
 21
29.99999999999999
 31
0.0
  0
LINE
  5
182
330
20
100
AcDbEntity
  8
HILF
100
AcDbLine
 10
68.00000000000006
 20
34.99999999999997
 30
0.0
 11
110.0
 21
34.99999999999997
 31
0.0
  0
ARC
  5
183
330
20
100
AcDbEntity
  8
TEXT
 62
     3
100
AcDbCircle
 10
82.09750516967082
 20
13.23892712376011
 30
0.0
 40
4.5
100
AcDbArc
 50
270.0
 51
231.0575587310159
  0
ARC
  5
184
330
20
100
AcDbEntity
  8
TEXT
 62
     3
100
AcDbCircle
 10
102.0975051696708
 20
13.23892712376014
 30
0.0
 40
4.5
100
AcDbArc
 50
270.0
 51
231.0575587310182
  0
LINE
  5
185
330
20
100
AcDbEntity
  8
TEXT
 62
     3
100
AcDbLine
 10
88.09750516967083
 20
17.73892712376014
 30
0.0
 11
88.09750516967085
 21
8.738927123760138
 31
0.0
  0
ARC
  5
186
330
20
100
AcDbEntity
  8
TEXT
 62
     3
100
AcDbCircle
 10
75.09750516967085
 20
10.73892712376028
 30
0.0
 40
2.0
100
AcDbArc
 50
179.9999999999992
 51
270.0
  0
LINE
  5
187
330
20
100
AcDbEntity
  8
TEXT
 62
     3
100
AcDbLine
 10
89.09750516967084
 20
12.73892712376014
 30
0.0
 11
89.09750516967084
 21
8.738927123760166
 31
0.0
  0
LINE
  5
188
330
20
100
AcDbEntity
  8
TEXT
 62
     3
100
AcDbLine
 10
93.09750516967085
 20
12.73892712376014
 30
0.0
 11
94.16930193939533
 21
8.738927123760138
 31
0.0
  0
LINE
  5
189
330
20
100
AcDbEntity
  8
STEMPEL
100
AcDbLine
 10
68.00000000000006
 20
54.99999999999997
 30
0.0
 11
68.0
 21
4.999999999999985
 31
0.0
  0
LINE
  5
18A
330
20
100
AcDbEntity
  8
TEXT
 62
     3
100
AcDbLine
 10
82.09750516967085
 20
8.738927123760166
 30
0.0
 11
75.09750516967085
 21
8.738927123760138
 31
0.0
  0
LINE
  5
18B
330
20
100
AcDbEntity
  8
TEXT
 62
     3
100
AcDbLine
 10
102.0975051696708
 20
8.738927123760138
 30
0.0
 11
94.1693019393953
 21
8.738927123760166
 31
0.0
  0
LINE
  5
18C
330
20
100
AcDbEntity
  8
TEXT
 62
     3
100
AcDbLine
 10
89.09750516967084
 20
8.738927123760166
 30
0.0
 11
88.09750516967085
 21
8.738927123760166
 31
0.0
  0
CIRCLE
  5
18D
330
20
100
AcDbEntity
  8
TEXT
 62
     3
100
AcDbCircle
 10
82.09750516967082
 20
13.23892712376011
 30
0.0
 40
3.5
  0
TEXT
  5
18E
330
20
100
AcDbEntity
  8
TEXT
100
AcDbText
 10
80.16366688624525
 20
31.6381230352273
 30
0.0
 40
2.0
  1
25.06.
 41
0.8
  7
GREEKS
 72
     1
 11
83.66842879100715
 21
31.6381230352273
 31
0.0
100
AcDbText
  0
TEXT
  5
18F
330
20
100
AcDbEntity
  8
TEXT
100
AcDbText
 10
81.16558365768254
 20
36.65940250614963
 30
0.0
 40
1.8
  1
Tag
 41
0.8
  7
GREEKS
100
AcDbText
  0
TEXT
  5
190
330
20
100
AcDbEntity
  8
TEXT
100
AcDbText
 10
71.75817860751886
 20
51.23104475435443
 30
0.0
 40
2.5
  1
Maßstab
 41
0.8
  7
GREEKS
100
AcDbText
  0
TEXT
  5
191
330
20
100
AcDbEntity
  8
TEXT
100
AcDbText
 10
68.79180635838077
 20
31.81495184808982
 30
0.0
 40
1.8
  1
Gez.
 41
0.8
  7
GREEKS
100
AcDbText
  0
LINE
  5
192
330
20
100
AcDbEntity
  8
VOLL
100
AcDbLine
 10
77.00000000000006
 20
39.99999999999997
 30
0.0
 11
77.00000000000006
 21
19.99999999999998
 31
0.0
  0
TEXT
  5
193
330
20
100
AcDbEntity
  8
TEXT
100
AcDbText
 10
68.80033886936519
 20
21.76473194824904
 30
0.0
 40
1.8
  1
Norm.
 41
0.8
  7
GREEKS
100
AcDbText
  0
TEXT
  5
194
330
20
100
AcDbEntity
  8
TEXT
100
AcDbText
 10
68.77575432858361
 20
26.84463145714189
 30
0.0
 40
1.8
  1
Gepr.
 41
0.8
  7
GREEKS
100
AcDbText
  0
TEXT
  5
195
330
20
100
AcDbEntity
  8
TEXT
100
AcDbText
 10
59.44494414379217
 20
9.29662108483204
 30
0.0
 40
2.0
  1
Name
 41
0.8
  7
GREEKS
 72
     1
 11
62.60684890569694
 21
9.29662108483204
 31
0.0
100
AcDbText
  0
LINE
  5
197
330
20
100
AcDbEntity
  8
TEXT
 62
     3
100
AcDbLine
 10
79.26907804492447
 20
9.738927123760252
 30
0.0
 11
75.09750516967085
 21
9.73892712376028
 31
0.0
  0
LINE
  5
198
330
20
100
AcDbEntity
  8
TEXT
 62
     3
100
AcDbLine
 10
74.09750516967083
 20
17.73892712376008
 30
0.0
 11
74.09750516967085
 21
10.73892712376028
 31
0.0
  0
LINE
  5
199
330
20
100
AcDbEntity
  8
TEXT
 62
     3
100
AcDbLine
 10
73.09750516967082
 20
17.73892712376008
 30
0.0
 11
73.09750516967085
 21
10.73892712376028
 31
0.0
  0
ARC
  5
19A
330
20
100
AcDbEntity
  8
TEXT
 62
     3
100
AcDbCircle
 10
75.09750516967085
 20
10.73892712376028
 30
0.0
 40
1.0
100
AcDbArc
 50
180.0
 51
270.0
  0
LINE
  5
19B
330
20
100
AcDbEntity
  8
TEXT
 62
     3
100
AcDbLine
 10
74.09750516967083
 20
17.73892712376014
 30
0.0
 11
73.09750516967082
 21
17.73892712376014
 31
0.0
  0
TEXT
  5
19C
330
20
100
AcDbEntity
  8
TEXT
100
AcDbText
 10
69.31105491105199
 20
36.57012735575833
 30
0.0
 40
1.8
  1
2008
 41
0.8
  7
GREEKS
100
AcDbText
  0
TEXT
  5
19E
330
20
100
AcDbEntity
  8
TEXT
 62
     1
100
AcDbText
 10
75.62939046306187
 20
43.47879250756998
 30
0.0
 40
3.5
  1
1:1
 41
0.8
  7
GREEKS
100
AcDbText
  0
TEXT
  5
19F
330
20
100
AcDbEntity
  8
TEXT
100
AcDbText
 10
97.42845740347638
 20
31.54481959861755
 30
0.0
 40
2.0
  1
Koeh
 41
0.8
  7
GREEKS
 72
     1
 11
100.0570288320478
 21
31.54481959861755
 31
0.0
100
AcDbText
  0
LINE
  5
1A0
330
20
100
AcDbEntity
  8
VOLL
100
AcDbLine
 10
90.00000000000005
 20
54.99999999999992
 30
0.0
 11
90.0
 21
19.99999999999998
 31
0.0
  0
LINE
  5
1A1
330
20
100
AcDbEntity
  8
TEXT
 62
     3
100
AcDbLine
 10
99.26907804492465
 20
9.738927123760138
 30
0.0
 11
94.93662892737432
 21
9.738927123760166
 31
0.0
  0
LINE
  5
1A2
330
20
100
AcDbEntity
  8
TEXT
 62
     3
100
AcDbLine
 10
93.09750516967085
 20
12.73892712376014
 30
0.0
 11
89.09750516967083
 21
12.73892712376014
 31
0.0
  0
LINE
  5
1A3
330
20
100
AcDbEntity
  8
TEXT
 62
     3
100
AcDbLine
 10
93.09750516967085
 20
13.73892712376014
 30
0.0
 11
89.09750516967084
 21
13.73892712376014
 31
0.0
  0
LINE
  5
1A4
330
20
100
AcDbEntity
  8
TEXT
 62
     3
100
AcDbLine
 10
93.09750516967085
 20
16.73892712376014
 30
0.0
 11
89.09750516967084
 21
16.73892712376014
 31
0.0
  0
LINE
  5
1A5
330
20
100
AcDbEntity
  8
TEXT
 62
     3
100
AcDbLine
 10
93.09750516967085
 20
17.73892712376014
 30
0.0
 11
88.09750516967085
 21
17.73892712376014
 31
0.0
  0
LINE
  5
1A6
330
20
100
AcDbEntity
  8
TEXT
 62
     3
100
AcDbLine
 10
89.09750516967084
 20
16.73892712376014
 30
0.0
 11
89.09750516967084
 21
13.73892712376014
 31
0.0
  0
ARC
  5
1A7
330
20
100
AcDbEntity
  8
TEXT
 62
     3
100
AcDbCircle
 10
93.09750516967085
 20
15.23892712376014
 30
0.0
 40
2.5
100
AcDbArc
 50
293.1161887722295
 51
90.0
  0
ARC
  5
1A8
330
20
100
AcDbEntity
  8
TEXT
 62
     3
100
AcDbCircle
 10
93.09750516967085
 20
15.23892712376014
 30
0.0
 40
1.5
100
AcDbArc
 50
270.0
 51
90.0
  0
ARC
  5
1A9
330
20
100
AcDbEntity
  8
TEXT
 62
     3
100
AcDbCircle
 10
93.09750516967085
 20
15.23892712376014
 30
0.0
 40
2.5
100
AcDbArc
 50
270.0
 51
270.0000000000007
  0
LINE
  5
1AA
330
20
100
AcDbEntity
  8
TEXT
 62
     3
100
AcDbLine
 10
94.06343099595991
 20
12.99774616886265
 30
0.0
 11
94.93662892737431
 21
9.738927123760166
 31
0.0
  0
CIRCLE
  5
1AB
330
20
100
AcDbEntity
  8
TEXT
 62
     3
100
AcDbCircle
 10
102.0975051696708
 20
13.23892712376014
 30
0.0
 40
3.5
  0
TEXT
  5
1AC
330
20
100
AcDbEntity
  8
TEXT
100
AcDbText
 10
91.3473965120978
 20
44.64562352614806
 30
0.0
 40
2.0
  1
DIN EN1123-2
 41
0.8
  7
GREEKS
 72
     1
 11
99.8426346073359
 21
44.64562352614806
 31
0.0
100
AcDbText
  0
TEXT
  5
1AD
330
20
100
AcDbEntity
  8
TEXT
100
AcDbText
 10
96.23132921131475
 20
36.65480545957612
 30
0.0
 40
1.8
  1
Name
 41
0.8
  7
GREEKS
100
AcDbText
  0
LINE
  5
1AE
330
20
100
AcDbEntity
  8
STEMPEL
100
AcDbLine
 10
110.0
 20
55.00000000000003
 30
0.0
 11
110.0
 21
4.999999999999985
 31
0.0
  0
TEXT
  5
1AF
330
20
100
AcDbEntity
  8
TEXT
100
AcDbText
 10
112.5648195562657
 20
25.82005971521079
 30
0.0
 40
2.5
  1
EDV-Art.Nr. 09111.070X
 41
0.8
  7
GREEKS
100
AcDbText
  0
TEXT
  5
1B0
330
20
100
AcDbEntity
  8
TEXT
100
AcDbText
 10
112.371119195568
 20
15.42280285096528
 30
0.0
 40
2.5
  1
Bauvorhaben
 41
0.8
  7
GREEKS
100
AcDbText
  0
TEXT
  5
1B1
330
20
100
AcDbEntity
  8
TEXT
 62
     1
100
AcDbText
 10
113.4467865528701
 20
43.70874394626889
 30
0.0
 40
3.5
  1
Dichtelement DN70
 41
0.8
  7
GREEKS
100
AcDbText
  0
TEXT
  5
1B2
330
20
100
AcDbEntity
  8
TEXT
100
AcDbText
 10
112.4918750788913
 20
21.31487076511316
 30
0.0
 40
1.8
  1
09111070W.DWG
 41
0.8
  7
GREEKS
100
AcDbText
  0
TEXT
  5
1B3
330
20
100
AcDbEntity
  8
TEXT
100
AcDbText
 10
112.4389701904505
 20
51.27446640058898
 30
0.0
 40
2.5
  1
Benennung
 41
0.8
  7
GREEKS
100
AcDbText
  0
LINE
  5
1EF
330
20
100
AcDbEntity
  8
HILF
100
AcDbLine
 10
210.0
 20
-0.0000000000000568
 30
0.0
 11
210.0
 21
297.0
 31
0.0
  0
LINE
  5
1F0
330
20
100
AcDbEntity
  8
STEMPEL
100
AcDbLine
 10
205.0
 20
55.00000000000003
 30
0.0
 11
205.0
 21
292.0
 31
0.0
  0
LINE
  5
1F1
330
20
100
AcDbEntity
  8
STEMPEL
100
AcDbLine
 10
205.0
 20
55.00000000000003
 30
0.0
 11
205.0
 21
5.0
 31
0.0
  0
TEXT
  5
1F2
330
20
100
AcDbEntity
  8
TEXT
 62
     1
100
AcDbText
 10
172.4238587271335
 20
44.07450714456979
 30
0.0
 40
3.5
  1
09111070W
 41
0.8
  7
GREEKS
 72
     1
 11
183.6238587271335
 21
44.07450714456979
 31
0.0
100
AcDbText
  0
TEXT
  5
1F4
330
20
100
AcDbEntity
  8
TEXT
100
AcDbText
 10
168.6200430748503
 20
26.03708088939301
 30
0.0
 40
2.5
  1
ersetzt durch:
 41
0.8
  7
GREEKS
100
AcDbText
  0
TEXT
  5
1F5
330
20
100
AcDbEntity
  8
TEXT
100
AcDbText
 10
168.3619308148496
 20
36.59059118549985
 30
0.0
 40
2.5
  1
Ersatz für:
 41
0.8
  7
GREEKS
100
AcDbText
  0
TEXT
  5
1F6
330
20
100
AcDbEntity
  8
TEXT
100
AcDbText
 10
168.089377478817
 20
51.15660172685682
 30
0.0
 40
2.5
  1
Zeichnungs Nr.
 41
0.8
  7
GREEKS
100
AcDbText
  0
LINE
  5
1F7
330
20
100
AcDbEntity
  8
HILF
100
AcDbLine
 10
168.3619308148496
 20
41.88991818477913
 30
0.0
 11
202.4294419663364
 21
41.88991818477913
 31
0.0
  0
LINE
  5
1F8
330
20
100
AcDbEntity
  8
VOLL
100
AcDbLine
 10
166.0
 20
30.0
 30
0.0
 11
205.0
 21
30.0
 31
0.0
  0
LINE
  5
1F9
330
20
100
AcDbEntity
  8
STEMPEL
100
AcDbLine
 10
166.0
 20
54.99999999999989
 30
0.0
 11
166.0
 21
20.0
 31
0.0
  0
TEXT
  5
208
330
20
100
AcDbEntity
  8
TEXT
100
AcDbText
 10
99.8426346073359
 20
42.01939489256613
 30
0.0
 40
2.0
  1

 41
0.8
  7
GREEKS
 72
     1
 11
99.8426346073359
 21
42.01939489256613
 31
0.0
100
AcDbText
  0
TEXT
  5
249
330
20
100
AcDbEntity
  8
BEM
100
AcDbText
 10
208.2905770718719
 20
6.074024076691515
 30
0.0
 40
2.0
  1
Diese Zeichnung ist urheberrechtlich geschützt und bleibt unser Eigentum. Sie darf weder ganz noch teilweise vervielfältigt und nicht an Dritte weitergegeben werden.
 50
90.0
 41
0.8
  7
GREEKS
100
AcDbText
  0
TEXT
  5
486
330
20
100
AcDbEntity
  8
TEXT
 62
     1
100
AcDbText
 10
77.26419550697716
 20
62.52069007806972
 30
0.0
 40
3.5
  1
Farbe: schwarz
 41
0.8
  7
GREEKS
100
AcDbText
  0
TEXT
  5
487
330
20
100
AcDbEntity
  8
TEXT
 62
     1
100
AcDbText
 10
69.34094534650705
 20
68.52069007806972
 30
0.0
 40
3.5
  1
Werkstoff: Nitril-Butadien-Kautschuk (NBR) 60%%P5 IRHD
 41
0.8
  7
GREEKS
100
AcDbText
  0
LINE
  5
7BB
330
20
100
AcDbEntity
  8
STEMPEL
100
AcDbLine
 10
153.2520122226337
 20
151.745876857365
 30
0.0
 11
150.1660862260048
 21
151.745876857365
 31
0.0
  0
LINE
  5
7BC
102
{ACAD_REACTORS
330
84D
102
}
330
20
100
AcDbEntity
  8
STEMPEL
100
AcDbLine
 10
153.2520122226337
 20
151.745876857365
 30
0.0
 11
150.720185455411
 21
156.2369617541974
 31
0.0
  0
ARC
  5
7BD
330
20
100
AcDbEntity
  8
STEMPEL
100
AcDbCircle
 10
149.8490737380618
 20
155.745876857365
 30
0.0
 40
1.0
100
AcDbArc
 50
29.41191366553082
 51
169.9999999999997
  0
LINE
  5
7BE
330
20
100
AcDbEntity
  8
STEMPEL
100
AcDbLine
 10
149.6962399156118
 20
151.0748667857022
 30
0.0
 11
151.4520122226337
 21
146.2509220184558
 31
0.0
  0
ARC
  5
7BF
330
20
100
AcDbEntity
  8
STEMPEL
100
AcDbCircle
 10
150.1660862260048
 20
151.245876857365
 30
0.0
 40
0.5
100
AcDbArc
 50
90.0
 51
199.9999999999993
  0
LINE
  5
7C0
330
20
100
AcDbEntity
  8
STEMPEL
100
AcDbLine
 10
147.9520122226337
 20
150.745876857365
 30
0.0
 11
148.8642659850496
 21
155.9195250350319
 31
0.0
  0
LINE
  5
7C1
330
20
100
AcDbEntity
  8
STEMPEL
100
AcDbLine
 10
152.8520122226337
 20
143.745876857365
 30
0.0
 11
151.4520122226337
 21
145.145876857365
 31
0.0
  0
LINE
  5
7C2
330
20
100
AcDbEntity
  8
STEMPEL
100
AcDbLine
 10
151.4520122226338
 20
141.345876857365
 30
0.0
 11
151.4520122226338
 21
140.745876857365
 31
0.0
  0
LINE
  5
7C3
102
{ACAD_REACTORS
330
865
102
}
330
20
100
AcDbEntity
  8
STEMPEL
100
AcDbLine
 10
152.8520122226337
 20
143.745876857365
 30
0.0
 11
152.8520122226337
 21
142.745876857365
 31
0.0
  0
LINE
  5
7C4
102
{ACAD_REACTORS
330
865
102
}
330
20
100
AcDbEntity
  8
STEMPEL
100
AcDbLine
 10
152.8520122226337
 20
142.745876857365
 30
0.0
 11
151.4520122226338
 21
141.345876857365
 31
0.0
  0
LINE
  5
7C5
330
20
100
AcDbEntity
  8
STEMPEL
100
AcDbLine
 10
151.9520122226337
 20
136.745876857365
 30
0.0
 11
151.1276780268028
 21
138.2733168099638
 31
0.0
  0
LINE
  5
7C6
330
20
100
AcDbEntity
  8
STEMPEL
100
AcDbLine
 10
153.7520122226337
 20
136.745876857365
 30
0.0
 11
151.9520122226337
 21
136.745876857365
 31
0.0
  0
ARC
  5
7C7
330
20
100
AcDbEntity
  8
STEMPEL
100
AcDbCircle
 10
145.4520122226337
 20
138.245876857365
 30
0.0
 40
4.0
100
AcDbArc
 50
337.975687162958
 51
355.3175831377298
  0
ARC
  5
7C8
330
20
100
AcDbEntity
  8
STEMPEL
100
AcDbCircle
 10
150.3356584014636
 20
137.845876857365
 30
0.0
 40
0.9
100
AcDbArc
 50
28.35500602840906
 51
175.3175831377306
  0
LINE
  5
7C9
330
20
100
AcDbEntity
  8
STEMPEL
100
AcDbLine
 10
151.9520122226337
 20
136.745876857365
 30
0.0
 11
149.1601114661815
 21
136.745876857365
 31
0.0
  0
LINE
  5
7CA
330
20
100
AcDbEntity
  8
STEMPEL
100
AcDbLine
 10
153.7520122226337
 20
136.745876857365
 30
0.0
 11
151.4520122226338
 21
140.745876857365
 31
0.0
  0
LINE
  5
7CB
330
20
100
AcDbEntity
  8
STEMPEL
100
AcDbLine
 10
147.9520122226337
 20
150.745876857365
 30
0.0
 11
147.9520122226337
 21
140.745876857365
 31
0.0
  0
LINE
  5
7CC
330
20
100
AcDbEntity
  8
STEMPEL
100
AcDbLine
 10
151.4520122226337
 20
146.2509220184558
 30
0.0
 11
151.4520122226337
 21
145.145876857365
 31
0.0
  0
ARC
  5
7CD
330
20
100
AcDbEntity
  8
STEMPEL
100
AcDbCircle
 10
142.9520122226337
 20
140.745876857365
 30
0.0
 40
5.0
100
AcDbArc
 50
270.0
 51
0.0
  0
LINE
  5
7CF
330
20
100
AcDbEntity
  8
STEMPEL
100
AcDbLine
 10
142.9520122226337
 20
135.745876857365
 30
0.0
 11
142.9520122226337
 21
134.245876857365
 31
0.0
  0
ARC
  5
7D0
330
20
100
AcDbEntity
  8
STEMPEL
100
AcDbCircle
 10
145.4520122226337
 20
138.245876857365
 30
0.0
 40
4.0
100
AcDbArc
 50
270.0
 51
337.975687162958
  0
LINE
  5
7D1
330
20
100
AcDbEntity
  8
STEMPEL
100
AcDbLine
 10
73.95201222263373
 20
150.745876857365
 30
0.0
 11
73.03975846021788
 21
155.9195250350319
 31
0.0
  0
LINE
  5
7D2
330
20
100
AcDbEntity
  8
STEMPEL
100
AcDbLine
 10
68.65201222263372
 20
151.745876857365
 30
0.0
 11
71.73793821926264
 21
151.745876857365
 31
0.0
  0
LINE
  5
7D3
102
{ACAD_REACTORS
330
84D
330
87D
102
}
330
20
100
AcDbEntity
  8
STEMPEL
100
AcDbLine
 10
68.65201222263372
 20
151.745876857365
 30
0.0
 11
71.18383898985641
 21
156.2369617541974
 31
0.0
  0
ARC
  5
7D4
330
20
100
AcDbEntity
  8
STEMPEL
100
AcDbCircle
 10
71.73793821926264
 20
151.245876857365
 30
0.0
 40
0.5
100
AcDbArc
 50
339.9999999999999
 51
90.0
  0
LINE
  5
7D5
330
20
100
AcDbEntity
  8
STEMPEL
100
AcDbLine
 10
72.20778452965564
 20
151.0748667857022
 30
0.0
 11
70.45201222263372
 21
146.2509220184558
 31
0.0
  0
ARC
  5
7D6
330
20
100
AcDbEntity
  8
STEMPEL
100
AcDbCircle
 10
72.05495070720568
 20
155.745876857365
 30
0.0
 40
1.0
100
AcDbArc
 50
10.00000000000021
 51
150.5880863344692
  0
ARC
  5
7D7
330
20
100
AcDbEntity
  8
STEMPEL
100
AcDbCircle
 10
76.45201222263373
 20
138.245876857365
 30
0.0
 40
4.0
100
AcDbArc
 50
184.6824168622694
 51
202.0243128370421
  0
ARC
  5
7D8
330
20
100
AcDbEntity
  8
STEMPEL
100
AcDbCircle
 10
78.95201222263373
 20
140.745876857365
 30
0.0
 40
5.0
100
AcDbArc
 50
180.0
 51
270.0
  0
LINE
  5
7D9
330
20
100
AcDbEntity
  8
STEMPEL
100
AcDbLine
 10
70.45201222263367
 20
141.345876857365
 30
0.0
 11
70.45201222263367
 21
140.745876857365
 31
0.0
  0
LINE
  5
7DA
102
{ACAD_REACTORS
330
865
102
}
330
20
100
AcDbEntity
  8
STEMPEL
100
AcDbLine
 10
69.05201222263369
 20
143.745876857365
 30
0.0
 11
69.05201222263369
 21
142.745876857365
 31
0.0
  0
LINE
  5
7DB
102
{ACAD_REACTORS
330
865
102
}
330
20
100
AcDbEntity
  8
STEMPEL
100
AcDbLine
 10
69.05201222263369
 20
142.745876857365
 30
0.0
 11
70.45201222263367
 21
141.345876857365
 31
0.0
  0
LINE
  5
7DC
330
20
100
AcDbEntity
  8
STEMPEL
100
AcDbLine
 10
69.05201222263369
 20
143.745876857365
 30
0.0
 11
70.45201222263372
 21
145.145876857365
 31
0.0
  0
LINE
  5
7DD
330
20
100
AcDbEntity
  8
STEMPEL
100
AcDbLine
 10
69.95201222263372
 20
136.745876857365
 30
0.0
 11
70.77634641846467
 21
138.2733168099638
 31
0.0
  0
LINE
  5
7DE
330
20
100
AcDbEntity
  8
STEMPEL
100
AcDbLine
 10
68.15201222263372
 20
136.745876857365
 30
0.0
 11
69.95201222263372
 21
136.745876857365
 31
0.0
  0
LINE
  5
7DF
330
20
100
AcDbEntity
  8
STEMPEL
100
AcDbLine
 10
68.15201222263372
 20
136.745876857365
 30
0.0
 11
70.45201222263367
 21
140.745876857365
 31
0.0
  0
ARC
  5
7E0
330
20
100
AcDbEntity
  8
STEMPEL
100
AcDbCircle
 10
71.56836604380382
 20
137.845876857365
 30
0.0
 40
0.9
100
AcDbArc
 50
4.68241686226937
 51
151.6449939715909
  0
LINE
  5
7E1
330
20
100
AcDbEntity
  8
STEMPEL
100
AcDbLine
 10
69.95201222263372
 20
136.745876857365
 30
0.0
 11
72.74391297908593
 21
136.745876857365
 31
0.0
  0
LINE
  5
7E2
330
20
100
AcDbEntity
  8
STEMPEL
100
AcDbLine
 10
73.95201222263373
 20
150.745876857365
 30
0.0
 11
73.95201222263373
 21
140.745876857365
 31
0.0
  0
LINE
  5
7E3
330
20
100
AcDbEntity
  8
STEMPEL
100
AcDbLine
 10
70.45201222263372
 20
146.2509220184558
 30
0.0
 11
70.45201222263372
 21
145.145876857365
 31
0.0
  0
LINE
  5
7E5
330
20
100
AcDbEntity
  8
STEMPEL
100
AcDbLine
 10
78.95201222263373
 20
135.745876857365
 30
0.0
 11
78.95201222263373
 21
134.245876857365
 31
0.0
  0
ARC
  5
7E6
330
20
100
AcDbEntity
  8
STEMPEL
100
AcDbCircle
 10
76.45201222263373
 20
138.245876857365
 30
0.0
 40
4.0
100
AcDbArc
 50
202.0243128370421
 51
270.0
  0
LINE
  5
7E7
102
{ACAD_REACTORS
330
895
102
}
330
20
100
AcDbEntity
  8
STEMPEL
100
AcDbLine
 10
72.05495070720568
 20
156.745876857365
 30
0.0
 11
149.8490737380618
 21
156.745876857365
 31
0.0
  0
LINE
  5
7E8
102
{ACAD_REACTORS
330
835
102
}
330
20
100
AcDbEntity
  8
STEMPEL
100
AcDbLine
 10
73.95201222263373
 20
150.745876857365
 30
0.0
 11
147.9520122226337
 21
150.745876857365
 31
0.0
  0
LINE
  5
7E9
102
{ACAD_REACTORS
330
87D
330
895
102
}
330
20
100
AcDbEntity
  8
STEMPEL
100
AcDbLine
 10
76.45201222263373
 20
134.245876857365
 30
0.0
 11
145.4520122226337
 21
134.245876857365
 31
0.0
  0
LINE
  5
7EA
330
20
100
AcDbEntity
  8
STEMPEL
100
AcDbLine
 10
78.95201222263373
 20
135.745876857365
 30
0.0
 11
142.9520122226337
 21
135.745876857365
 31
0.0
  0
INSERT
  5
7EB
330
20
100
AcDbEntity
  8
SCHRAFF
100
AcDbBlockReference
  2
*X0
 10
-16.11911398071638
 20
72.36546926134126
 30
0.0
1001
ACAD
1000
HATCH
1002
{
1070
    16
1000
NET,I
1040
10.0
1040
0.7853981633974483
1002
}
  0
LINE
  5
7F0
330
20
100
AcDbEntity
  8
MITTEL
100
AcDbLine
 10
110.9520122226337
 20
161.745876857365
 30
0.0
 11
110.9520122226337
 21
129.245876857365
 31
0.0
  0
DIMENSION
  5
81E
102
{ACAD_XDICTIONARY
360
82B
102
}
102
{ACAD_REACTORS
330
835
102
}
330
20
100
AcDbEntity
  8
BEM
100
AcDbDimension
  2
*D1
 10
147.9520122226337
 20
166.8463293335716
 30
0.0
 11
110.9520122226337
 21
170.0963293335716
 31
0.0
 70
    32
  1
%%c<>
 71
     5
 42
74.0
  3
Standard
100
AcDbAlignedDimension
 13
73.95201222263373
 23
150.745876857365
 33
0.0
 14
147.9520122226337
 24
150.745876857365
 34
0.0
100
AcDbRotatedDimension
1001
ACAD
1000
DSTYLE
1002
{
1070
    41
1040
3.5
1070
    42
1040
1.0
1070
    43
1040
7.0
1070
    44
1040
1.0
1070
    47
1040
0.6
1070
    48
1040
0.6
1070
    73
1070
     0
1070
    74
1070
     0
1070
    77
1070
     1
1070
    78
1070
     8
1070
    79
1070
     2
1070
   140
1040
3.5
1070
   141
1040
1.5
1070
   146
1040
0.5142857142857144
1070
   147
1040
1.5
1070
   172
1070
     1
1070
   178
1070
     1
1070
   179
1070
     2
1070
   271
1070
     2
1070
   272
1070
     2
1070
   284
1070
     8
1070
   285
1070
     8
1070
   286
1070
     8
1002
}
  0
DIMENSION
  5
836
102
{ACAD_XDICTIONARY
360
843
102
}
102
{ACAD_REACTORS
330
84D
102
}
330
20
100
AcDbEntity
  8
BEM
100
AcDbDimension
  2
*D2
 10
153.2520122226337
 20
173.8966458339216
 30
0.0
 11
110.9520122226337
 21
177.1466458339216
 31
0.0
 70
    32
  1
%%c<>
 71
     5
 42
84.60000000000002
  3
Standard
100
AcDbAlignedDimension
 13
68.65201222263372
 23
151.745876857365
 33
0.0
 14
153.2520122226337
 24
151.745876857365
 34
0.0
100
AcDbRotatedDimension
1001
ACAD
1000
DSTYLE
1002
{
1070
    41
1040
3.5
1070
    42
1040
1.0
1070
    43
1040
7.0
1070
    44
1040
1.0
1070
    47
1040
0.6
1070
    48
1040
0.6
1070
    73
1070
     0
1070
    74
1070
     0
1070
    77
1070
     1
1070
    78
1070
     8
1070
    79
1070
     2
1070
   140
1040
3.5
1070
   141
1040
1.5
1070
   146
1040
0.5142857142857144
1070
   147
1040
1.5
1070
   172
1070
     1
1070
   178
1070
     1
1070
   179
1070
     2
1070
   271
1070
     2
1070
   272
1070
     2
1070
   284
1070
     8
1070
   285
1070
     8
1070
   286
1070
     8
1002
}
  0
DIMENSION
  5
84E
102
{ACAD_XDICTIONARY
360
85B
102
}
102
{ACAD_REACTORS
330
865
102
}
330
20
100
AcDbEntity
  8
BEM
100
AcDbDimension
  2
*D3
 10
69.05201222263369
 20
121.1333618379176
 30
0.0
 11
110.9520122226337
 21
124.3833618379176
 31
0.0
 70
    32
  1
%%c<>
 71
     5
 42
83.80000000000007
  3
Standard
100
AcDbAlignedDimension
 13
152.8520122226337
 23
142.745876857365
 33
0.0
 14
69.05201222263369
 24
142.745876857365
 34
0.0
100
AcDbRotatedDimension
1001
ACAD
1000
DSTYLE
1002
{
1070
    41
1040
3.5
1070
    42
1040
1.0
1070
    43
1040
7.0
1070
    44
1040
1.0
1070
    47
1040
0.6
1070
    48
1040
0.6
1070
    73
1070
     0
1070
    74
1070
     0
1070
    77
1070
     1
1070
    78
1070
     8
1070
    79
1070
     2
1070
   140
1040
3.5
1070
   141
1040
1.5
1070
   146
1040
0.5142857142857144
1070
   147
1040
1.5
1070
   172
1070
     1
1070
   178
1070
     1
1070
   179
1070
     2
1070
   271
1070
     2
1070
   272
1070
     2
1070
   284
1070
     8
1070
   285
1070
     8
1070
   286
1070
     8
1002
}
  0
DIMENSION
  5
866
102
{ACAD_XDICTIONARY
360
873
102
}
102
{ACAD_REACTORS
330
87D
102
}
330
20
100
AcDbEntity
  8
BEM
100
AcDbDimension
  2
*D4
 10
62.88488868198874
 20
151.745876857365
 30
0.0
 11
59.63488868198871
 21
142.995876857365
 31
0.0
 70
    32
 71
     5
 42
17.5
  3
Standard
100
AcDbAlignedDimension
 13
76.45201222263373
 23
134.245876857365
 33
0.0
 14
68.65201222263372
 24
151.745876857365
 34
0.0
 50
90.0
100
AcDbRotatedDimension
1001
ACAD
1000
DSTYLE
1002
{
1070
    41
1040
3.5
1070
    42
1040
1.0
1070
    43
1040
7.0
1070
    44
1040
1.0
1070
    47
1040
0.6
1070
    48
1040
0.6
1070
    73
1070
     0
1070
    74
1070
     0
1070
    77
1070
     1
1070
    78
1070
     8
1070
    79
1070
     2
1070
   140
1040
3.5
1070
   141
1040
1.5
1070
   146
1040
0.5142857142857144
1070
   147
1040
1.5
1070
   172
1070
     1
1070
   178
1070
     1
1070
   179
1070
     2
1070
   271
1070
     2
1070
   272
1070
     2
1070
   284
1070
     8
1070
   285
1070
     8
1070
   286
1070
     8
1002
}
  0
DIMENSION
  5
87E
102
{ACAD_XDICTIONARY
360
88B
102
}
102
{ACAD_REACTORS
330
895
102
}
330
20
100
AcDbEntity
  8
BEM
100
AcDbDimension
  2
*D5
 10
55.21687467058086
 20
156.745876857365
 30
0.0
 11
51.96687467058083
 21
145.495876857365
 31
0.0
 70
    32
 71
     5
 42
22.5
  3
Standard
100
AcDbAlignedDimension
 13
76.45201222263373
 23
134.245876857365
 33
0.0
 14
72.05495070720568
 24
156.745876857365
 34
0.0
 50
90.0
100
AcDbRotatedDimension
1001
ACAD
1000
DSTYLE
1002
{
1070
    41
1040
3.5
1070
    42
1040
1.0
1070
    43
1040
7.0
1070
    44
1040
1.0
1070
    47
1040
0.6
1070
    48
1040
0.6
1070
    73
1070
     0
1070
    74
1070
     0
1070
    77
1070
     1
1070
    78
1070
     8
1070
    79
1070
     2
1070
   140
1040
3.5
1070
   141
1040
1.5
1070
   146
1040
0.5142857142857144
1070
   147
1040
1.5
1070
   172
1070
     1
1070
   178
1070
     1
1070
   179
1070
     2
1070
   271
1070
     2
1070
   272
1070
     2
1070
   284
1070
     8
1070
   285
1070
     8
1070
   286
1070
     8
1002
}
  0
TEXT
  5
941
330
20
100
AcDbEntity
  8
TEXT
 62
     1
100
AcDbText
 10
36.04866732963427
 20
194.336671405522
 30
0.0
 40
3.5
  1
Gravur: EN 1123 LORO DN70 TG Nest.Nr. WC Jahreszahl
 41
0.8
  7
GREEKS
100
AcDbText
  0
LINE
  5
942
330
20
100
AcDbEntity
  8
TEXT
 62
     2
100
AcDbLine
 10
49.76190647018686
 20
192.4122653591487
 30
0.0
 11
36.04866732963427
 21
192.4122653591487
 31
0.0
  0
ARC
  5
943
330
20
100
AcDbEntity
  8
TEXT
 62
     2
100
AcDbCircle
 10
171.6514651101058
 20
204.9618648497744
 30
0.0
 40
1.873481366226997
100
AcDbArc
 50
268.4391661543623
 51
0.9693128199328235
  0
ARC
  5
944
330
20
100
AcDbEntity
  8
TEXT
 62
     2
100
AcDbCircle
 10
175.3978916489077
 20
204.9618648497744
 30
0.0
 40
1.873481366226997
100
AcDbArc
 50
179.0306871800672
 51
271.5608338456491
  0
ARC
  5
945
330
20
100
AcDbEntity
  8
TEXT
 62
     2
100
AcDbCircle
 10
185.4186875236603
 20
201.2162923599612
 30
0.0
 40
1.873481366226997
100
AcDbArc
 50
359.0306871800672
 51
91.56083384564263
  0
ARC
  5
946
330
20
100
AcDbEntity
  8
TEXT
 62
     2
100
AcDbCircle
 10
161.4535623855747
 20
201.2162923599612
 30
0.0
 40
1.873481366226997
100
AcDbArc
 50
88.43916615436063
 51
180.9693128199328
  0
LINE
  5
947
330
20
100
AcDbEntity
  8
TEXT
 62
     2
100
AcDbLine
 10
175.4489221346642
 20
203.0890786048678
 30
0.0
 11
185.3676570379039
 21
203.0890786048679
 31
0.0
  0
LINE
  5
948
330
20
100
AcDbEntity
  8
TEXT
 62
     2
100
AcDbLine
 10
161.5045928713309
 20
203.0890786048678
 30
0.0
 11
171.6004346243496
 21
203.0890786048678
 31
0.0
  0
TEXT
  5
949
330
20
100
AcDbEntity
  8
TEXT
 62
     2
100
AcDbText
 10
158.9587867324396
 20
207.1043081742529
 30
0.0
 40
2.0
  1
Raster für weitere Jahre
 41
0.8
  7
GREEKS
100
AcDbText
  0
LINE
  5
94A
330
20
100
AcDbEntity
  8
TEXT
 62
     1
100
AcDbLine
 10
159.4261640960599
 20
196.107501985477
 30
0.0
 11
187.4261640960599
 21
196.107501985477
 31
0.0
  0
LINE
  5
94B
330
20
100
AcDbEntity
  8
TEXT
 62
     1
100
AcDbLine
 10
187.4261640960599
 20
198.1917024254896
 30
0.0
 11
187.4261640960599
 21
194.0233015454644
 31
0.0
  0
LINE
  5
94C
330
20
100
AcDbEntity
  8
TEXT
 62
     1
100
AcDbLine
 10
183.4261640960599
 20
198.1917024254896
 30
0.0
 11
183.4261640960599
 21
194.0233015454644
 31
0.0
  0
LINE
  5
94D
330
20
100
AcDbEntity
  8
TEXT
 62
     1
100
AcDbLine
 10
179.4261640960599
 20
198.1917024254896
 30
0.0
 11
179.4261640960599
 21
194.0233015454644
 31
0.0
  0
LINE
  5
94E
330
20
100
AcDbEntity
  8
TEXT
 62
     1
100
AcDbLine
 10
175.4261640960599
 20
198.1917024254896
 30
0.0
 11
175.4261640960599
 21
194.0233015454644
 31
0.0
  0
LINE
  5
94F
330
20
100
AcDbEntity
  8
TEXT
 62
     1
100
AcDbLine
 10
171.4261640960599
 20
198.1917024254896
 30
0.0
 11
171.4261640960599
 21
194.0233015454644
 31
0.0
  0
LINE
  5
950
330
20
100
AcDbEntity
  8
TEXT
 62
     1
100
AcDbLine
 10
167.4261640960599
 20
198.1917024254896
 30
0.0
 11
167.4261640960599
 21
194.0233015454644
 31
0.0
  0
LINE
  5
951
330
20
100
AcDbEntity
  8
TEXT
 62
     1
100
AcDbLine
 10
163.4261640960599
 20
198.1917024254896
 30
0.0
 11
163.4261640960599
 21
194.0233015454644
 31
0.0
  0
LINE
  5
952
330
20
100
AcDbEntity
  8
TEXT
 62
     1
100
AcDbLine
 10
159.4261640960599
 20
198.1917024254896
 30
0.0
 11
159.4261640960599
 21
194.0233015454644
 31
0.0
  0
LINE
  5
953
330
20
100
AcDbEntity
  8
TEXT
 62
     2
100
AcDbLine
 10
35.9044038801448
 20
192.315170527345
 30
0.0
 11
69.91792560624507
 21
153.9914193057812
 31
0.0
  0
ENDSEC
  0
SECTION
  2
OBJECTS
  0
DICTIONARY
  5
C
330
0
100
AcDbDictionary
281
     1
  3
ACAD_COLOR
350
1B
  3
ACAD_GROUP
350
D
  3
ACAD_LAYOUT
350
19
  3
ACAD_MATERIAL
350
1A
  3
ACAD_MLINESTYLE
350
16
  3
ACAD_PLOTSETTINGS
350
18
  3
ACAD_PLOTSTYLENAME
350
E
  3
AcDbVariableDictionary
350
25E
  0
DICTIONARY
  5
82B
330
81E
100
AcDbDictionary
280
     1
281
     1
  3
ACAD_DIMASSOC
360
835
  0
DICTIONARY
  5
843
330
836
100
AcDbDictionary
280
     1
281
     1
  3
ACAD_DIMASSOC
360
84D
  0
DICTIONARY
  5
85B
330
84E
100
AcDbDictionary
280
     1
281
     1
  3
ACAD_DIMASSOC
360
865
  0
DICTIONARY
  5
873
330
866
100
AcDbDictionary
280
     1
281
     1
  3
ACAD_DIMASSOC
360
87D
  0
DICTIONARY
  5
88B
330
87E
100
AcDbDictionary
280
     1
281
     1
  3
ACAD_DIMASSOC
360
895
  0
DICTIONARY
  5
1B
102
{ACAD_REACTORS
330
C
102
}
330
C
100
AcDbDictionary
281
     1
  0
DICTIONARY
  5
D
102
{ACAD_REACTORS
330
C
102
}
330
C
100
AcDbDictionary
281
     1
  0
DICTIONARY
  5
19
102
{ACAD_REACTORS
330
C
102
}
330
C
100
AcDbDictionary
281
     1
  3
Layout1
350
1F
  3
Model
350
23
  0
DICTIONARY
  5
1A
102
{ACAD_REACTORS
330
C
102
}
330
C
100
AcDbDictionary
281
     1
  0
DICTIONARY
  5
16
102
{ACAD_REACTORS
330
C
102
}
330
C
100
AcDbDictionary
281
     1
  3
Standard
350
17
  0
DICTIONARY
  5
18
102
{ACAD_REACTORS
330
C
102
}
330
C
100
AcDbDictionary
281
     1
  0
ACDBDICTIONARYWDFLT
  5
E
102
{ACAD_REACTORS
330
C
102
}
330
C
100
AcDbDictionary
281
     1
  3
Normal
350
F
100
AcDbDictionaryWithDefault
340
F
  0
DICTIONARY
  5
25E
102
{ACAD_REACTORS
330
C
102
}
330
C
100
AcDbDictionary
281
     1
  3
DIMASSOC
350
260
  3
HIDETEXT
350
25F
  3
PROJECTNAME
350
261
  0
DIMASSOC
  5
835
102
{ACAD_REACTORS
330
82B
102
}
330
82B
100
AcDbDimAssoc
330
81E
 90
        3
 70
     0
 71
     0
  1
AcDbOsnapPointRef
 72
    13
331
7E8
 73
     2
 91
        0
 40
0.0
 10
0.0
 20
0.0
 30
2.000000000000000E+50
 75
     0
  1
AcDbOsnapPointRef
 72
     1
331
7E8
 73
     2
 91
        0
 40
1.0
 10
0.0
 20
0.0
 30
2.000000000000000E+50
 75
     0
  0
DIMASSOC
  5
84D
102
{ACAD_REACTORS
330
843
102
}
330
843
100
AcDbDimAssoc
330
836
 90
        3
 70
     0
 71
     0
  1
AcDbOsnapPointRef
 72
    13
331
7D3
 73
     2
 91
        0
 40
0.0
 10
0.0
 20
0.0
 30
2.000000000000000E+50
 75
     0
  1
AcDbOsnapPointRef
 72
    13
331
7BC
 73
     2
 91
        0
 40
0.0
 10
0.0
 20
0.0
 30
2.000000000000000E+50
 75
     0
  0
DIMASSOC
  5
865
102
{ACAD_REACTORS
330
85B
102
}
330
85B
100
AcDbDimAssoc
330
84E
 90
        3
 70
     0
 71
     0
  1
AcDbOsnapPointRef
 72
     6
331
7C4
 73
     2
 91
        0
 40
0.0
 10
0.0
 20
0.0
 30
0.0
332
7C3
 74
     2
 92
        0
 75
     0
  1
AcDbOsnapPointRef
 72
     6
331
7DB
 73
     2
 91
        0
 40
0.0
 10
0.0
 20
0.0
 30
0.0
332
7DA
 74
     2
 92
        0
 75
     0
  0
DIMASSOC
  5
87D
102
{ACAD_REACTORS
330
873
102
}
330
873
100
AcDbDimAssoc
330
866
 90
        3
 70
     0
 71
     0
  1
AcDbOsnapPointRef
 72
    13
331
7E9
 73
     2
 91
        0
 40
0.0
 10
0.0
 20
0.0
 30
2.000000000000000E+50
 75
     0
  1
AcDbOsnapPointRef
 72
    13
331
7D3
 73
     2
 91
        0
 40
0.0
 10
0.0
 20
0.0
 30
2.000000000000000E+50
 75
     0
  0
DIMASSOC
  5
895
102
{ACAD_REACTORS
330
88B
102
}
330
88B
100
AcDbDimAssoc
330
87E
 90
        3
 70
     0
 71
     0
  1
AcDbOsnapPointRef
 72
    13
331
7E9
 73
     2
 91
        0
 40
0.0
 10
0.0
 20
0.0
 30
2.000000000000000E+50
 75
     0
  1
AcDbOsnapPointRef
 72
    13
331
7E7
 73
     2
 91
        0
 40
0.0
 10
0.0
 20
0.0
 30
2.000000000000000E+50
 75
     0
  0
LAYOUT
  5
1F
102
{ACAD_REACTORS
330
19
102
}
330
19
100
AcDbPlotSettings
  1

  2
RICOH Aficio 2027 PCL 6
  4

  6

 40
0.0
 41
0.0
 42
0.0
 43
0.0
 44
0.0
 45
0.0
 46
0.0
 47
0.0
 48
0.0
 49
0.0
140
0.0
141
0.0
142
1.0
143
1.0
 70
   688
 72
     0
 73
     0
 74
     5
  7
monochrome1.ctb
 75
    16
147
1.0
 76
     0
 77
     2
 78
   300
148
0.0
149
0.0
100
AcDbLayout
  1
Layout1
 70
     0
 71
     1
 10
0.0
 20
0.0
 11
12.0
 21
9.0
 12
94.77699787264981
 22
50.00000000000001
 32
160.541677480246
 14
1.000000000000000E+20
 24
1.000000000000000E+20
 34
1.000000000000000E+20
 15
-1.000000000000000E+20
 25
-1.000000000000000E+20
 35
-1.000000000000000E+20
146
0.0
 13
0.0
 23
0.0
 33
0.0
 16
1.0
 26
0.0
 36
0.0
 17
0.0
 27
1.0
 37
0.0
 76
     0
330
1C
  0
LAYOUT
  5
23
102
{ACAD_REACTORS
330
19
102
}
330
19
100
AcDbPlotSettings
  1

  2
RICOH Aficio 2027 PCL 6
  4
A4
  6

 40
5.027083396911621
 41
5.027085304260253
 42
5.027084350585937
 43
5.027069091796875
 44
209.9733276367187
 45
296.9259948730469
 46
0.0
 47
0.0
 48
0.0
 49
0.0
140
0.0
141
0.0
142
1.0
143
1.0
 70
 11952
 72
     0
 73
     1
 74
     0
  7
monochrome1.ctb
 75
     0
147
1.0
 76
     0
 77
     2
 78
   300
148
1149.94759482167
149
45.04758967657628
100
AcDbLayout
  1
Model
 70
     1
 71
     0
 10
0.0
 20
0.0
 11
12.0
 21
9.0
 12
0.0
 22
0.0
 32
0.0
 14
0.0
 24
0.0
 34
0.0
 15
0.0
 25
0.0
 35
0.0
146
0.0
 13
0.0
 23
0.0
 33
0.0
 16
1.0
 26
0.0
 36
0.0
 17
0.0
 27
1.0
 37
0.0
 76
     0
330
20
  0
MLINESTYLE
  5
17
102
{ACAD_REACTORS
330
16
102
}
330
16
100
AcDbMlineStyle
  2
STANDARD
 70
     0
  3

 62
   256
 51
90.0
 52
90.0
 71
     2
 49
0.5
 62
   256
  6
BYLAYER
 49
-0.5
 62
   256
  6
BYLAYER
  0
ACDBPLACEHOLDER
  5
F
102
{ACAD_REACTORS
330
E
102
}
330
E
  0
DICTIONARYVAR
  5
260
102
{ACAD_REACTORS
330
25E
102
}
330
25E
100
DictionaryVariables
280
     0
  1
2
  0
DICTIONARYVAR
  5
25F
102
{ACAD_REACTORS
330
25E
102
}
330
25E
100
DictionaryVariables
280
     0
  1
1
  0
DICTIONARYVAR
  5
261
102
{ACAD_REACTORS
330
25E
102
}
330
25E
100
DictionaryVariables
280
     0
  1

  0
ENDSEC
  0
EOF
