  0
SECTION
  2
HEADER
  9
$ACADVER
  1
AC1018
  9
$ACADMAINTVER
 70
     2
  9
$DWGCODEPAGE
  3
ANSI_1252
  9
$INSBASE
 10
0.0
 20
0.0
 30
0.0
  9
$EXTMIN
 10
-0.0063978361731643
 20
-0.0090483683025013
 30
-0.0000000000000053
  9
$EXTMAX
 10
420.0064129945077
 20
594.0090698065175
 30
0.0000000000000099
  9
$LIMMIN
 10
0.0
 20
0.0
  9
$LIMMAX
 10
419.9999999999999
 20
594.0
  9
$ORTHOMODE
 70
     1
  9
$REGENMODE
 70
     1
  9
$FILLMODE
 70
     1
  9
$QTEXTMODE
 70
     0
  9
$MIRRTEXT
 70
     1
  9
$LTSCALE
 40
20.0
  9
$ATTMODE
 70
     1
  9
$TEXTSIZE
 40
3.5
  9
$TRACEWID
 40
0.5
  9
$TEXTSTYLE
  7
STANDARD
  9
$CLAYER
  8
HILF
  9
$CELTYPE
  6
ByLayer
  9
$CECOLOR
 62
   256
  9
$CELTSCALE
 40
1.0
  9
$DISPSILH
 70
     0
  9
$DIMSCALE
 40
2.0
  9
$DIMASZ
 40
3.5
  9
$DIMEXO
 40
1.0
  9
$DIMDLI
 40
7.0
  9
$DIMRND
 40
0.0
  9
$DIMDLE
 40
0.0
  9
$DIMEXE
 40
1.0
  9
$DIMTP
 40
0.0
  9
$DIMTM
 40
0.0
  9
$DIMTXT
 40
3.5
  9
$DIMCEN
 40
1.5
  9
$DIMTSZ
 40
0.0
  9
$DIMTOL
 70
     0
  9
$DIMLIM
 70
     0
  9
$DIMTIH
 70
     0
  9
$DIMTOH
 70
     0
  9
$DIMSE1
 70
     0
  9
$DIMSE2
 70
     0
  9
$DIMTAD
 70
     1
  9
$DIMZIN
 70
     8
  9
$DIMBLK
  1

  9
$DIMASO
 70
     1
  9
$DIMSHO
 70
     0
  9
$DIMPOST
  1

  9
$DIMAPOST
  1

  9
$DIMALT
 70
     0
  9
$DIMALTD
 70
     2
  9
$DIMALTF
 40
25.4
  9
$DIMLFAC
 40
1.0
  9
$DIMTOFL
 70
     1
  9
$DIMTVP
 40
0.0
  9
$DIMTIX
 70
     0
  9
$DIMSOXD
 70
     0
  9
$DIMSAH
 70
     0
  9
$DIMBLK1
  1

  9
$DIMBLK2
  1

  9
$DIMSTYLE
  2
Standard
  9
$DIMCLRD
 70
     0
  9
$DIMCLRE
 70
     0
  9
$DIMCLRT
 70
     1
  9
$DIMTFAC
 40
0.5
  9
$DIMGAP
 40
1.5
  9
$DIMJUST
 70
     0
  9
$DIMSD1
 70
     0
  9
$DIMSD2
 70
     0
  9
$DIMTOLJ
 70
     1
  9
$DIMTZIN
 70
     8
  9
$DIMALTZ
 70
     8
  9
$DIMALTTZ
 70
     8
  9
$DIMUPT
 70
     0
  9
$DIMDEC
 70
     2
  9
$DIMTDEC
 70
     2
  9
$DIMALTU
 70
     2
  9
$DIMALTTD
 70
     2
  9
$DIMTXSTY
  7
STANDARD
  9
$DIMAUNIT
 70
     0
  9
$DIMADEC
 70
     2
  9
$DIMALTRND
 40
0.0
  9
$DIMAZIN
 70
     2
  9
$DIMDSEP
 70
    46
  9
$DIMATFIT
 70
     3
  9
$DIMFRAC
 70
     0
  9
$DIMLDRBLK
  1

  9
$DIMLUNIT
 70
     2
  9
$DIMLWD
 70
    -2
  9
$DIMLWE
 70
    -2
  9
$DIMTMOVE
 70
     0
  9
$LUNITS
 70
     2
  9
$LUPREC
 70
     2
  9
$SKETCHINC
 40
1.0
  9
$FILLETRAD
 40
1.0
  9
$AUNITS
 70
     0
  9
$AUPREC
 70
     0
  9
$MENU
  1
ACAD
  9
$ELEVATION
 40
0.0
  9
$PELEVATION
 40
0.0
  9
$THICKNESS
 40
0.0
  9
$LIMCHECK
 70
     0
  9
$CHAMFERA
 40
0.0
  9
$CHAMFERB
 40
0.0
  9
$CHAMFERC
 40
0.0
  9
$CHAMFERD
 40
0.0
  9
$SKPOLY
 70
     0
  9
$TDCREATE
 40
2455397.864709028
  9
$TDUCREATE
 40
2455397.781375695
  9
$TDUPDATE
 40
2455455.598308831
  9
$TDUUPDATE
 40
2455455.514975497
  9
$TDINDWG
 40
0.2391041782
  9
$TDUSRTIMER
 40
0.2391041782
  9
$USRTIMER
 70
     1
  9
$ANGBASE
 50
0.0
  9
$ANGDIR
 70
     0
  9
$PDMODE
 70
     0
  9
$PDSIZE
 40
0.0
  9
$PLINEWID
 40
0.0
  9
$SPLFRAME
 70
     0
  9
$SPLINETYPE
 70
     6
  9
$SPLINESEGS
 70
     8
  9
$HANDSEED
  5
1951
  9
$SURFTAB1
 70
     6
  9
$SURFTAB2
 70
     6
  9
$SURFTYPE
 70
     6
  9
$SURFU
 70
     6
  9
$SURFV
 70
     6
  9
$UCSBASE
  2

  9
$UCSNAME
  2

  9
$UCSORG
 10
0.0
 20
0.0
 30
0.0
  9
$UCSXDIR
 10
1.0
 20
0.0
 30
0.0
  9
$UCSYDIR
 10
0.0
 20
1.0
 30
0.0
  9
$UCSORTHOREF
  2

  9
$UCSORTHOVIEW
 70
     0
  9
$UCSORGTOP
 10
0.0
 20
0.0
 30
0.0
  9
$UCSORGBOTTOM
 10
0.0
 20
0.0
 30
0.0
  9
$UCSORGLEFT
 10
0.0
 20
0.0
 30
0.0
  9
$UCSORGRIGHT
 10
0.0
 20
0.0
 30
0.0
  9
$UCSORGFRONT
 10
0.0
 20
0.0
 30
0.0
  9
$UCSORGBACK
 10
0.0
 20
0.0
 30
0.0
  9
$PUCSBASE
  2

  9
$PUCSNAME
  2

  9
$PUCSORG
 10
0.0
 20
0.0
 30
0.0
  9
$PUCSXDIR
 10
1.0
 20
0.0
 30
0.0
  9
$PUCSYDIR
 10
0.0
 20
1.0
 30
0.0
  9
$PUCSORTHOREF
  2

  9
$PUCSORTHOVIEW
 70
     0
  9
$PUCSORGTOP
 10
0.0
 20
0.0
 30
0.0
  9
$PUCSORGBOTTOM
 10
0.0
 20
0.0
 30
0.0
  9
$PUCSORGLEFT
 10
0.0
 20
0.0
 30
0.0
  9
$PUCSORGRIGHT
 10
0.0
 20
0.0
 30
0.0
  9
$PUCSORGFRONT
 10
0.0
 20
0.0
 30
0.0
  9
$PUCSORGBACK
 10
0.0
 20
0.0
 30
0.0
  9
$USERI1
 70
     0
  9
$USERI2
 70
     0
  9
$USERI3
 70
     0
  9
$USERI4
 70
     0
  9
$USERI5
 70
     0
  9
$USERR1
 40
0.0
  9
$USERR2
 40
0.0
  9
$USERR3
 40
0.0
  9
$USERR4
 40
0.0
  9
$USERR5
 40
0.0
  9
$WORLDVIEW
 70
     1
  9
$SHADEDGE
 70
     3
  9
$SHADEDIF
 70
    70
  9
$TILEMODE
 70
     1
  9
$MAXACTVP
 70
    16
  9
$PINSBASE
 10
0.0
 20
0.0
 30
0.0
  9
$PLIMCHECK
 70
     0
  9
$PEXTMIN
 10
1.000000000000000E+20
 20
1.000000000000000E+20
 30
1.000000000000000E+20
  9
$PEXTMAX
 10
-1.000000000000000E+20
 20
-1.000000000000000E+20
 30
-1.000000000000000E+20
  9
$PLIMMIN
 10
0.0
 20
0.0
  9
$PLIMMAX
 10
12.0
 20
9.0
  9
$UNITMODE
 70
     0
  9
$VISRETAIN
 70
     0
  9
$PLINEGEN
 70
     0
  9
$PSLTSCALE
 70
     0
  9
$TREEDEPTH
 70
  3020
  9
$CMLSTYLE
  2
Standard
  9
$CMLJUST
 70
     0
  9
$CMLSCALE
 40
1.0
  9
$PROXYGRAPHICS
 70
     1
  9
$MEASUREMENT
 70
     0
  9
$CELWEIGHT
370
    -1
  9
$ENDCAPS
280
     0
  9
$JOINSTYLE
280
     0
  9
$LWDISPLAY
290
     0
  9
$INSUNITS
 70
     0
  9
$HYPERLINKBASE
  1

  9
$STYLESHEET
  1
monochrome 1.ctb
  9
$XEDIT
290
     1
  9
$CEPSNTYPE
380
     0
  9
$PSTYLEMODE
290
     1
  9
$FINGERPRINTGUID
  2
{D68B0D02-A558-11D7-B632-000102183313}
  9
$VERSIONGUID
  2
{833A7C58-9D4C-407A-87A8-540E43A4286C}
  9
$EXTNAMES
290
     1
  9
$PSVPSCALE
 40
0.0
  9
$OLESTARTUP
290
     0
  9
$SORTENTS
280
   127
  9
$INDEXCTL
280
     0
  9
$HIDETEXT
280
     0
  9
$XCLIPFRAME
290
     0
  9
$HALOGAP
280
     0
  9
$OBSCOLOR
 70
   257
  9
$OBSLTYPE
280
     0
  9
$INTERSECTIONDISPLAY
280
     0
  9
$INTERSECTIONCOLOR
 70
   257
  9
$DIMASSOC
280
     1
  9
$PROJECTNAME
  1

  0
ENDSEC
  0
SECTION
  2
CLASSES
  0
CLASS
  1
ACDBDICTIONARYWDFLT
  2
AcDbDictionaryWithDefault
  3
ObjectDBX Classes
 90
        0
 91
        1
280
     0
281
     0
  0
CLASS
  1
DICTIONARYVAR
  2
AcDbDictionaryVar
  3
ObjectDBX Classes
 90
        0
 91
        2
280
     0
281
     0
  0
CLASS
  1
DIMASSOC
  2
AcDbDimAssoc
  3
"AcDbDimAssoc|Product Desc:     AcDim ARX App For Dimension|Company:          Autodesk, Inc.|WEB Address:      www.autodesk.com"
 90
        0
 91
        0
280
     0
281
     0
  0
ENDSEC
  0
SECTION
  2
TABLES
  0
TABLE
  2
VPORT
  5
8
330
0
100
AcDbSymbolTable
 70
     3
  0
VPORT
  5
1950
330
8
100
AcDbSymbolTableRecord
100
AcDbViewportTableRecord
  2
*Active
 70
     0
 10
0.0
 20
0.0
 11
1.0
 21
1.0
 12
210.0000075791673
 22
297.0000107191075
 13
0.0
 23
0.0
 14
1.0
 24
1.0
 15
10.0
 25
10.0
 16
0.0
 26
0.0
 36
1.0
 17
0.0
 27
0.0
 37
0.0
 40
598.8150343377392
 41
1.336927223719676
 42
50.0
 43
0.0
 44
0.0
 50
0.0
 51
0.0
 71
     0
 72
  1500
 73
     1
 74
     0
 75
     0
 76
     0
 77
     0
 78
     0
281
     0
 65
     1
110
0.0
120
0.0
130
0.0
111
1.0
121
0.0
131
0.0
112
0.0
122
1.0
132
0.0
 79
     0
146
0.0
  0
ENDTAB
  0
TABLE
  2
LTYPE
  5
5
330
0
100
AcDbSymbolTable
 70
     2
  0
LTYPE
  5
13
330
5
100
AcDbSymbolTableRecord
100
AcDbLinetypeTableRecord
  2
ByBlock
 70
     0
  3

 72
    65
 73
     0
 40
0.0
  0
LTYPE
  5
14
330
5
100
AcDbSymbolTableRecord
100
AcDbLinetypeTableRecord
  2
ByLayer
 70
     0
  3

 72
    65
 73
     0
 40
0.0
  0
LTYPE
  5
15
330
5
100
AcDbSymbolTableRecord
100
AcDbLinetypeTableRecord
  2
Continuous
 70
     0
  3
Solid line
 72
    65
 73
     0
 40
0.0
  0
LTYPE
  5
25
330
5
100
AcDbSymbolTableRecord
100
AcDbLinetypeTableRecord
  2
STRICHPUNKT
 70
     0
  3
__ . __ . __ . __ . __ . __ . __ . __ . __ . __
 72
    65
 73
     4
 40
1.0
 49
0.5
 74
     0
 49
-0.25
 74
     0
 49
0.0
 74
     0
 49
-0.25
 74
     0
  0
ENDTAB
  0
TABLE
  2
LAYER
  5
2
330
0
100
AcDbSymbolTable
 70
     8
  0
LAYER
  5
10
330
2
100
AcDbSymbolTableRecord
100
AcDbLayerTableRecord
  2
0
 70
     0
 62
     7
  6
Continuous
370
    -3
390
F
  0
LAYER
  5
2A
330
2
100
AcDbSymbolTableRecord
100
AcDbLayerTableRecord
  2
VOLL
 70
     0
 62
     1
  6
Continuous
370
    -3
390
F
  0
LAYER
  5
2B
330
2
100
AcDbSymbolTableRecord
100
AcDbLayerTableRecord
  2
HILF
 70
     0
 62
     2
  6
Continuous
370
    -3
390
F
  0
LAYER
  5
2C
330
2
100
AcDbSymbolTableRecord
100
AcDbLayerTableRecord
  2
MITTEL
 70
     0
 62
     2
  6
STRICHPUNKT
370
    -3
390
F
  0
LAYER
  5
2F
330
2
100
AcDbSymbolTableRecord
100
AcDbLayerTableRecord
  2
BEM
 70
     0
 62
     7
  6
Continuous
370
    -3
390
F
  0
LAYER
  5
30
330
2
100
AcDbSymbolTableRecord
100
AcDbLayerTableRecord
  2
STEMPEL
 70
     0
 62
     3
  6
Continuous
370
    -3
390
F
  0
LAYER
  5
31
330
2
100
AcDbSymbolTableRecord
100
AcDbLayerTableRecord
  2
TEXT
 70
     0
 62
     7
  6
Continuous
370
    -3
390
F
  0
LAYER
  5
390
330
2
100
AcDbSymbolTableRecord
100
AcDbLayerTableRecord
  2
DEFPOINTS
 70
     0
 62
     7
  6
Continuous
290
     0
370
    -3
390
F
  0
ENDTAB
  0
TABLE
  2
STYLE
  5
3
330
0
100
AcDbSymbolTable
 70
     2
  0
STYLE
  5
11
330
3
100
AcDbSymbolTableRecord
100
AcDbTextStyleTableRecord
  2
STANDARD
 70
     0
 40
0.0
 41
0.8
 50
0.0
 71
     0
 42
3.5
  3
simplex.shx
  4

  0
STYLE
  5
24
330
3
100
AcDbSymbolTableRecord
100
AcDbTextStyleTableRecord
  2
GREEKS
 70
     0
 40
0.0
 41
0.8
 50
0.0
 71
     0
 42
2.5
  3
SIMPLEX.shx
  4

  0
ENDTAB
  0
TABLE
  2
VIEW
  5
6
330
0
100
AcDbSymbolTable
 70
     0
  0
ENDTAB
  0
TABLE
  2
UCS
  5
7
330
0
100
AcDbSymbolTable
 70
     0
  0
ENDTAB
  0
TABLE
  2
APPID
  5
9
330
0
100
AcDbSymbolTable
 70
     1
  0
APPID
  5
12
330
9
100
AcDbSymbolTableRecord
100
AcDbRegAppTableRecord
  2
ACAD
 70
     0
  0
ENDTAB
  0
TABLE
  2
DIMSTYLE
  5
A
330
0
100
AcDbSymbolTable
 70
     1
100
AcDbDimStyleTable
 71
     1
340
9D
  0
DIMSTYLE
105
9D
102
{ACAD_REACTORS
330
18CF
330
18DC
330
190D
330
191A
102
}
330
A
100
AcDbSymbolTableRecord
100
AcDbDimStyleTableRecord
  2
Standard
 70
     0
340
11
  0
ENDTAB
  0
TABLE
  2
BLOCK_RECORD
  5
1
330
0
100
AcDbSymbolTable
 70
     5
  0
BLOCK_RECORD
  5
1E
102
{ACAD_XDICTIONARY
360
A0
102
}
330
1
100
AcDbSymbolTableRecord
100
AcDbBlockTableRecord
  2
*Model_Space
340
21
  0
BLOCK_RECORD
  5
1A
102
{ACAD_XDICTIONARY
360
A2
102
}
330
1
100
AcDbSymbolTableRecord
100
AcDbBlockTableRecord
  2
*Paper_Space
340
1D
  0
BLOCK_RECORD
  5
22
330
1
100
AcDbSymbolTableRecord
100
AcDbBlockTableRecord
  2
LOGO
340
0
102
{BLKREFS
331
9B
102
}
  0
BLOCK_RECORD
  5
18D0
330
1
100
AcDbSymbolTableRecord
100
AcDbBlockTableRecord
  2
*D1
340
0
  0
BLOCK_RECORD
  5
18DD
330
1
100
AcDbSymbolTableRecord
100
AcDbBlockTableRecord
  2
*D2
340
0
  0
BLOCK_RECORD
  5
190E
330
1
100
AcDbSymbolTableRecord
100
AcDbBlockTableRecord
  2
*D3
340
0
  0
BLOCK_RECORD
  5
191B
330
1
100
AcDbSymbolTableRecord
100
AcDbBlockTableRecord
  2
*D4
340
0
  0
ENDTAB
  0
ENDSEC
  0
SECTION
  2
BLOCKS
  0
BLOCK
  5
35
330
1E
100
AcDbEntity
  8
0
100
AcDbBlockBegin
  2
*Model_Space
 70
     0
 10
0.0
 20
0.0
 30
0.0
  3
*Model_Space
  1

  0
ENDBLK
  5
36
330
1E
100
AcDbEntity
  8
0
100
AcDbBlockEnd
  0
BLOCK
  5
33
330
1A
100
AcDbEntity
 67
     1
  8
0
100
AcDbBlockBegin
  2
*Paper_Space
 70
     0
 10
0.0
 20
0.0
 30
0.0
  3
*Paper_Space
  1

  0
ENDBLK
  5
34
330
1A
100
AcDbEntity
 67
     1
  8
0
100
AcDbBlockEnd
  0
BLOCK
  5
37
330
22
100
AcDbEntity
  8
0
100
AcDbBlockBegin
  2
LOGO
 70
     0
 10
0.0
 20
0.0
 30
0.0
  3
LOGO
  1

  0
ARC
  5
38
330
22
100
AcDbEntity
  8
0
100
AcDbCircle
 10
11.59973089678112
 20
-9.271599258481501
 30
0.0
 40
4.5
100
AcDbArc
 50
270.0
 51
231.0575587310159
  0
LINE
  5
39
330
22
100
AcDbEntity
  8
0
100
AcDbLine
 10
3.599730896781125
 20
-4.771599258481529
 30
0.0
 11
3.599730896781153
 21
-11.77159925848133
 31
0.0
  0
LINE
  5
3A
330
22
100
AcDbEntity
  8
0
100
AcDbLine
 10
2.599730896781125
 20
-4.771599258481529
 30
0.0
 11
2.599730896781153
 21
-11.77159925848133
 31
0.0
  0
CIRCLE
  5
3B
330
22
100
AcDbEntity
  8
0
100
AcDbCircle
 10
11.59973089678112
 20
-9.271599258481501
 30
0.0
 40
3.5
  0
ARC
  5
3C
330
22
100
AcDbEntity
  8
0
100
AcDbCircle
 10
31.59973089678115
 20
-9.271599258481472
 30
0.0
 40
4.5
100
AcDbArc
 50
270.0
 51
231.0575587310182
  0
LINE
  5
3D
330
22
100
AcDbEntity
  8
0
100
AcDbLine
 10
17.59973089678112
 20
-4.771599258481472
 30
0.0
 11
17.59973089678115
 21
-13.77159925848147
 31
0.0
  0
ARC
  5
3E
330
22
100
AcDbEntity
  8
0
100
AcDbCircle
 10
22.59973089678116
 20
-7.271599258481472
 30
0.0
 40
2.5
100
AcDbArc
 50
293.1161887722295
 51
90.0
  0
CIRCLE
  5
3F
330
22
100
AcDbEntity
  8
0
100
AcDbCircle
 10
31.59973089678115
 20
-9.271599258481472
 30
0.0
 40
3.5
  0
ARC
  5
40
330
22
100
AcDbEntity
  8
0
100
AcDbCircle
 10
4.599730896781153
 20
-11.77159925848133
 30
0.0
 40
1.0
100
AcDbArc
 50
180.0
 51
270.0
  0
ARC
  5
41
330
22
100
AcDbEntity
  8
0
100
AcDbCircle
 10
4.599730896781153
 20
-11.77159925848133
 30
0.0
 40
2.0
100
AcDbArc
 50
179.9999999999992
 51
270.0
  0
LINE
  5
42
330
22
100
AcDbEntity
  8
0
100
AcDbLine
 10
11.59973089678115
 20
-13.77159925848144
 30
0.0
 11
4.599730896781153
 21
-13.77159925848147
 31
0.0
  0
LINE
  5
43
330
22
100
AcDbEntity
  8
0
100
AcDbLine
 10
8.771303772034769
 20
-12.77159925848136
 30
0.0
 11
4.599730896781153
 21
-12.77159925848133
 31
0.0
  0
LINE
  5
44
330
22
100
AcDbEntity
  8
0
100
AcDbLine
 10
31.59973089678115
 20
-13.77159925848147
 30
0.0
 11
23.6715276665056
 21
-13.77159925848144
 31
0.0
  0
LINE
  5
45
330
22
100
AcDbEntity
  8
0
100
AcDbLine
 10
23.56565672307022
 20
-9.51278021337896
 30
0.0
 11
24.4388546544846
 21
-12.77159925848144
 31
0.0
  0
LINE
  5
46
330
22
100
AcDbEntity
  8
0
100
AcDbLine
 10
22.59973089678116
 20
-9.771599258481472
 30
0.0
 11
18.59973089678112
 21
-9.771599258481472
 31
0.0
  0
LINE
  5
47
330
22
100
AcDbEntity
  8
0
100
AcDbLine
 10
18.59973089678115
 20
-13.77159925848144
 30
0.0
 11
17.59973089678115
 21
-13.77159925848144
 31
0.0
  0
LINE
  5
48
330
22
100
AcDbEntity
  8
0
100
AcDbLine
 10
18.59973089678115
 20
-9.771599258481472
 30
0.0
 11
18.59973089678115
 21
-13.77159925848144
 31
0.0
  0
LINE
  5
49
330
22
100
AcDbEntity
  8
0
100
AcDbLine
 10
22.59973089678116
 20
-9.771599258481472
 30
0.0
 11
23.67152766650562
 21
-13.77159925848147
 31
0.0
  0
ARC
  5
4A
330
22
100
AcDbEntity
  8
0
100
AcDbCircle
 10
22.59973089678116
 20
-7.271599258481472
 30
0.0
 40
2.5
100
AcDbArc
 50
270.0
 51
270.0000000000007
  0
LINE
  5
4B
330
22
100
AcDbEntity
  8
0
100
AcDbLine
 10
28.77130377203494
 20
-12.77159925848147
 30
0.0
 11
24.43885465448463
 21
-12.77159925848144
 31
0.0
  0
LINE
  5
4C
330
22
100
AcDbEntity
  8
0
100
AcDbLine
 10
3.599730896781125
 20
-4.771599258481472
 30
0.0
 11
2.599730896781125
 21
-4.771599258481472
 31
0.0
  0
LINE
  5
4D
330
22
100
AcDbEntity
  8
0
100
AcDbLine
 10
22.59973089678116
 20
-8.771599258481472
 30
0.0
 11
18.59973089678115
 21
-8.771599258481472
 31
0.0
  0
LINE
  5
4E
330
22
100
AcDbEntity
  8
0
100
AcDbLine
 10
22.59973089678116
 20
-5.771599258481472
 30
0.0
 11
18.59973089678115
 21
-5.771599258481472
 31
0.0
  0
LINE
  5
4F
330
22
100
AcDbEntity
  8
0
100
AcDbLine
 10
22.59973089678116
 20
-4.771599258481472
 30
0.0
 11
17.59973089678115
 21
-4.771599258481472
 31
0.0
  0
LINE
  5
50
330
22
100
AcDbEntity
  8
0
100
AcDbLine
 10
18.59973089678115
 20
-5.771599258481472
 30
0.0
 11
18.59973089678115
 21
-8.771599258481472
 31
0.0
  0
ARC
  5
51
330
22
100
AcDbEntity
  8
0
100
AcDbCircle
 10
22.59973089678116
 20
-7.271599258481472
 30
0.0
 40
1.5
100
AcDbArc
 50
270.0
 51
90.0
  0
ENDBLK
  5
52
330
22
100
AcDbEntity
  8
0
100
AcDbBlockEnd
  0
BLOCK
  5
18DA
330
18D0
100
AcDbEntity
  8
0
100
AcDbBlockBegin
  2
*D1
 70
     1
 10
0.0
 20
0.0
 30
0.0
  3
*D1
  1

  0
LINE
  5
1904
330
18D0
100
AcDbEntity
  8
BEM
 62
     0
370
    -2
100
AcDbLine
 10
53.67502800275793
 20
376.7385716408935
 30
0.0
 11
53.67502800275793
 21
353.8978388350849
 31
0.0
  0
LINE
  5
1905
330
18D0
100
AcDbEntity
  8
BEM
 62
     0
370
    -2
100
AcDbLine
 10
243.6750280027606
 20
376.7385716408935
 30
0.0
 11
243.6750280027606
 21
353.8978388350849
 31
0.0
  0
LINE
  5
1906
330
18D0
100
AcDbEntity
  8
BEM
 62
     0
370
    -2
100
AcDbLine
 10
60.67502800275793
 20
355.8978388350849
 30
0.0
 11
236.6750280027607
 21
355.8978388350849
 31
0.0
  0
SOLID
  5
1907
330
18D0
100
AcDbEntity
  8
BEM
 62
     0
100
AcDbTrace
 10
60.67502800275793
 20
357.0645055017516
 30
0.0
 11
60.67502800275793
 21
354.7311721684183
 31
0.0
 12
53.67502800275793
 22
355.8978388350849
 32
0.0
 13
53.67502800275793
 23
355.8978388350849
 33
0.0
  0
SOLID
  5
1908
330
18D0
100
AcDbEntity
  8
BEM
 62
     0
100
AcDbTrace
 10
236.6750280027607
 20
357.0645055017516
 30
0.0
 11
236.6750280027607
 21
354.7311721684183
 31
0.0
 12
243.6750280027606
 22
355.8978388350849
 32
0.0
 13
243.6750280027606
 23
355.8978388350849
 33
0.0
  0
MTEXT
  5
1909
330
18D0
100
AcDbEntity
  8
BEM
 62
     1
100
AcDbMText
 10
148.6750280027593
 20
362.3978388350849
 30
0.0
 40
7.0
 41
0.0
 71
     5
 72
     1
  1
\A1;190
 73
     1
 44
1.0
  0
POINT
  5
190A
330
18D0
100
AcDbEntity
  8
DEFPOINTS
 62
     0
100
AcDbPoint
 10
53.67502800275793
 20
378.7385716408935
 30
0.0
  0
POINT
  5
190B
330
18D0
100
AcDbEntity
  8
DEFPOINTS
 62
     0
100
AcDbPoint
 10
243.6750280027606
 20
378.7385716408935
 30
0.0
  0
POINT
  5
190C
330
18D0
100
AcDbEntity
  8
DEFPOINTS
 62
     0
100
AcDbPoint
 10
243.6750280027606
 20
355.8978388350849
 30
0.0
  0
ENDBLK
  5
18DB
330
18D0
100
AcDbEntity
  8
0
100
AcDbBlockEnd
  0
BLOCK
  5
18E7
330
18DD
100
AcDbEntity
  8
0
100
AcDbBlockBegin
  2
*D2
 70
     1
 10
0.0
 20
0.0
 30
0.0
  3
*D2
  1

  0
LINE
  5
18FB
330
18DD
100
AcDbEntity
  8
BEM
 62
     0
370
    -2
100
AcDbLine
 10
240.6750280027607
 20
373.7385716408935
 30
0.0
 11
259.3340684382539
 21
373.7385716408935
 31
0.0
  0
LINE
  5
18FC
330
18DD
100
AcDbEntity
  8
BEM
 62
     0
370
    -2
100
AcDbLine
 10
240.6750280027579
 20
462.7385716408935
 30
0.0
 11
259.334068438254
 21
462.7385716408935
 31
0.0
  0
LINE
  5
18FD
330
18DD
100
AcDbEntity
  8
BEM
 62
     0
370
    -2
100
AcDbLine
 10
257.3340684382539
 20
380.7385716408935
 30
0.0
 11
257.334068438254
 21
455.7385716408934
 31
0.0
  0
SOLID
  5
18FE
330
18DD
100
AcDbEntity
  8
BEM
 62
     0
100
AcDbTrace
 10
256.1674017715873
 20
380.7385716408935
 30
0.0
 11
258.5007351049206
 21
380.7385716408935
 31
0.0
 12
257.3340684382539
 22
373.7385716408935
 32
0.0
 13
257.3340684382539
 23
373.7385716408935
 33
0.0
  0
SOLID
  5
18FF
330
18DD
100
AcDbEntity
  8
BEM
 62
     0
100
AcDbTrace
 10
256.1674017715873
 20
455.7385716408934
 30
0.0
 11
258.5007351049207
 21
455.7385716408934
 31
0.0
 12
257.334068438254
 22
462.7385716408935
 32
0.0
 13
257.334068438254
 23
462.7385716408935
 33
0.0
  0
MTEXT
  5
1900
330
18DD
100
AcDbEntity
  8
BEM
 62
     1
100
AcDbMText
 10
250.8340684382539
 20
418.2385716408935
 30
0.0
 40
7.0
 41
0.0
 71
     5
 72
     1
  1
\A1;89
 11
0.0000000000000001
 21
1.0
 31
0.0
 73
     1
 44
1.0
  0
POINT
  5
1901
330
18DD
100
AcDbEntity
  8
DEFPOINTS
 62
     0
100
AcDbPoint
 10
238.6750280027607
 20
373.7385716408935
 30
0.0
  0
POINT
  5
1902
330
18DD
100
AcDbEntity
  8
DEFPOINTS
 62
     0
100
AcDbPoint
 10
238.6750280027579
 20
462.7385716408935
 30
0.0
  0
POINT
  5
1903
330
18DD
100
AcDbEntity
  8
DEFPOINTS
 62
     0
100
AcDbPoint
 10
257.334068438254
 20
462.7385716408935
 30
0.0
  0
ENDBLK
  5
18E8
330
18DD
100
AcDbEntity
  8
0
100
AcDbBlockEnd
  0
BLOCK
  5
1918
330
190E
100
AcDbEntity
  8
0
100
AcDbBlockBegin
  2
*D3
 70
     1
 10
0.0
 20
0.0
 30
0.0
  3
*D3
  1

  0
LINE
  5
1939
330
190E
100
AcDbEntity
  8
BEM
 62
     0
370
    -2
100
AcDbLine
 10
271.1978076581661
 20
464.7385716408867
 30
0.0
 11
271.1978076581661
 21
478.7373270581199
 31
0.0
  0
LINE
  5
193A
330
190E
100
AcDbEntity
  8
BEM
 62
     0
370
    -2
100
AcDbLine
 10
402.1978076581665
 20
464.7385716408864
 30
0.0
 11
402.1978076581665
 21
478.7373270581199
 31
0.0
  0
LINE
  5
193B
330
190E
100
AcDbEntity
  8
BEM
 62
     0
370
    -2
100
AcDbLine
 10
278.1978076581661
 20
476.7373270581199
 30
0.0
 11
395.1978076581665
 21
476.7373270581199
 31
0.0
  0
SOLID
  5
193C
330
190E
100
AcDbEntity
  8
BEM
 62
     0
100
AcDbTrace
 10
278.1978076581661
 20
477.9039937247866
 30
0.0
 11
278.1978076581661
 21
475.5706603914532
 31
0.0
 12
271.1978076581661
 22
476.7373270581199
 32
0.0
 13
271.1978076581661
 23
476.7373270581199
 33
0.0
  0
SOLID
  5
193D
330
190E
100
AcDbEntity
  8
BEM
 62
     0
100
AcDbTrace
 10
395.1978076581665
 20
477.9039937247866
 30
0.0
 11
395.1978076581665
 21
475.5706603914532
 31
0.0
 12
402.1978076581665
 22
476.7373270581199
 32
0.0
 13
402.1978076581665
 23
476.7373270581199
 33
0.0
  0
MTEXT
  5
193E
330
190E
100
AcDbEntity
  8
BEM
 62
     1
100
AcDbMText
 10
336.6978076581663
 20
483.2373270581199
 30
0.0
 40
7.0
 41
0.0
 71
     5
 72
     1
  1
\A1;%%c131
 73
     1
 44
1.0
  0
POINT
  5
193F
330
190E
100
AcDbEntity
  8
DEFPOINTS
 62
     0
100
AcDbPoint
 10
271.1978076581661
 20
462.7385716408867
 30
0.0
  0
POINT
  5
1940
330
190E
100
AcDbEntity
  8
DEFPOINTS
 62
     0
100
AcDbPoint
 10
402.1978076581665
 20
462.7385716408864
 30
0.0
  0
POINT
  5
1941
330
190E
100
AcDbEntity
  8
DEFPOINTS
 62
     0
100
AcDbPoint
 10
402.1978076581665
 20
476.7373270581199
 30
0.0
  0
ENDBLK
  5
1919
330
190E
100
AcDbEntity
  8
0
100
AcDbBlockEnd
  0
BLOCK
  5
1925
330
191B
100
AcDbEntity
  8
0
100
AcDbBlockBegin
  2
*D4
 70
     1
 10
0.0
 20
0.0
 30
0.0
  3
*D4
  1

  0
LINE
  5
1942
330
191B
100
AcDbEntity
  8
BEM
 62
     0
370
    -2
100
AcDbLine
 10
277.5978076581658
 20
371.7385716408872
 30
0.0
 11
277.5978076581658
 21
352.6904777353386
 31
0.0
  0
LINE
  5
1943
330
191B
100
AcDbEntity
  8
BEM
 62
     0
370
    -2
100
AcDbLine
 10
395.7978076581662
 20
371.7385716408869
 30
0.0
 11
395.7978076581662
 21
352.6904777353386
 31
0.0
  0
LINE
  5
1944
330
191B
100
AcDbEntity
  8
BEM
 62
     0
370
    -2
100
AcDbLine
 10
284.5978076581658
 20
354.6904777353386
 30
0.0
 11
388.7978076581662
 21
354.6904777353386
 31
0.0
  0
SOLID
  5
1945
330
191B
100
AcDbEntity
  8
BEM
 62
     0
100
AcDbTrace
 10
284.5978076581658
 20
355.8571444020053
 30
0.0
 11
284.5978076581658
 21
353.5238110686719
 31
0.0
 12
277.5978076581658
 22
354.6904777353386
 32
0.0
 13
277.5978076581658
 23
354.6904777353386
 33
0.0
  0
SOLID
  5
1946
330
191B
100
AcDbEntity
  8
BEM
 62
     0
100
AcDbTrace
 10
388.7978076581662
 20
355.8571444020053
 30
0.0
 11
388.7978076581662
 21
353.5238110686719
 31
0.0
 12
395.7978076581662
 22
354.6904777353386
 32
0.0
 13
395.7978076581662
 23
354.6904777353386
 33
0.0
  0
MTEXT
  5
1947
330
191B
100
AcDbEntity
  8
BEM
 62
     1
100
AcDbMText
 10
336.697807658166
 20
361.1904777353386
 30
0.0
 40
7.0
 41
0.0
 71
     5
 72
     1
  1
\A1;%%c118.2
 73
     1
 44
1.0
  0
POINT
  5
1948
330
191B
100
AcDbEntity
  8
DEFPOINTS
 62
     0
100
AcDbPoint
 10
277.5978076581658
 20
373.7385716408872
 30
0.0
  0
POINT
  5
1949
330
191B
100
AcDbEntity
  8
DEFPOINTS
 62
     0
100
AcDbPoint
 10
395.7978076581662
 20
373.7385716408869
 30
0.0
  0
POINT
  5
194A
330
191B
100
AcDbEntity
  8
DEFPOINTS
 62
     0
100
AcDbPoint
 10
395.7978076581662
 20
354.6904777353386
 30
0.0
  0
ENDBLK
  5
1926
330
191B
100
AcDbEntity
  8
0
100
AcDbBlockEnd
  0
ENDSEC
  0
SECTION
  2
ENTITIES
  0
LINE
  5
57
330
1E
100
AcDbEntity
  8
STEMPEL
100
AcDbLine
 10
410.0
 20
110.0
 30
0.0
 11
39.99999999999997
 21
110.0
 31
0.0
  0
LINE
  5
58
330
1E
100
AcDbEntity
  8
STEMPEL
100
AcDbLine
 10
136.0000000000001
 20
109.9999999999999
 30
0.0
 11
136.0
 21
9.999999999999971
 31
0.0
  0
LINE
  5
59
330
1E
100
AcDbEntity
  8
STEMPEL
100
AcDbLine
 10
220.0
 20
110.0
 30
0.0
 11
220.0
 21
9.999999999999971
 31
0.0
  0
LINE
  5
5A
330
1E
100
AcDbEntity
  8
STEMPEL
100
AcDbLine
 10
332.0
 20
109.9999999999997
 30
0.0
 11
332.0
 21
40.0
 31
0.0
  0
LINE
  5
5B
330
1E
100
AcDbEntity
  8
STEMPEL
100
AcDbLine
 10
135.9999999999999
 20
29.99999999999997
 30
0.0
 11
39.99999999999997
 21
29.99999999999997
 31
0.0
  0
LINE
  5
5C
330
1E
100
AcDbEntity
  8
STEMPEL
100
AcDbLine
 10
410.0
 20
40.0
 30
0.0
 11
136.0000000000001
 21
39.99999999999997
 31
0.0
  0
LINE
  5
5D
330
1E
100
AcDbEntity
  8
STEMPEL
100
AcDbLine
 10
410.0
 20
80.0
 30
0.0
 11
136.0000000000001
 21
79.99999999999994
 31
0.0
  0
LINE
  5
5E
330
1E
100
AcDbEntity
  8
VOLL
100
AcDbLine
 10
54.00000000000009
 20
110.0
 30
0.0
 11
53.99999999999997
 21
9.999999999999971
 31
0.0
  0
LINE
  5
5F
330
1E
100
AcDbEntity
  8
VOLL
100
AcDbLine
 10
94.00000000000011
 20
109.9999999999999
 30
0.0
 11
94.0
 21
9.999999999999971
 31
0.0
  0
LINE
  5
60
330
1E
100
AcDbEntity
  8
VOLL
100
AcDbLine
 10
114.0000000000001
 20
109.9999999999999
 30
0.0
 11
114.0
 21
9.999999999999971
 31
0.0
  0
LINE
  5
61
330
1E
100
AcDbEntity
  8
VOLL
100
AcDbLine
 10
154.0000000000001
 20
79.99999999999994
 30
0.0
 11
154.0000000000001
 21
39.99999999999997
 31
0.0
  0
LINE
  5
62
330
1E
100
AcDbEntity
  8
VOLL
100
AcDbLine
 10
180.0000000000001
 20
109.9999999999998
 30
0.0
 11
180.0
 21
39.99999999999997
 31
0.0
  0
LINE
  5
63
330
1E
100
AcDbEntity
  8
HILF
100
AcDbLine
 10
40.00000000000008
 20
100.0
 30
0.0
 11
136.0000000000001
 21
100.0
 31
0.0
  0
LINE
  5
64
330
1E
100
AcDbEntity
  8
HILF
100
AcDbLine
 10
40.00000000000008
 20
90.00000000000005
 30
0.0
 11
136.0000000000001
 21
90.00000000000005
 31
0.0
  0
LINE
  5
65
330
1E
100
AcDbEntity
  8
HILF
100
AcDbLine
 10
40.00000000000008
 20
79.99999999999994
 30
0.0
 11
136.0000000000001
 21
79.99999999999994
 31
0.0
  0
LINE
  5
66
330
1E
100
AcDbEntity
  8
HILF
100
AcDbLine
 10
40.00000000000008
 20
69.99999999999994
 30
0.0
 11
136.0000000000001
 21
69.99999999999994
 31
0.0
  0
LINE
  5
67
330
1E
100
AcDbEntity
  8
HILF
100
AcDbLine
 10
40.00000000000008
 20
59.99999999999997
 30
0.0
 11
136.0000000000001
 21
59.99999999999997
 31
0.0
  0
LINE
  5
68
330
1E
100
AcDbEntity
  8
HILF
100
AcDbLine
 10
40.00000000000008
 20
49.99999999999997
 30
0.0
 11
136.0000000000001
 21
49.99999999999997
 31
0.0
  0
LINE
  5
69
330
1E
100
AcDbEntity
  8
HILF
100
AcDbLine
 10
40.00000000000008
 20
39.99999999999997
 30
0.0
 11
136.0000000000001
 21
39.99999999999997
 31
0.0
  0
LINE
  5
6A
330
1E
100
AcDbEntity
  8
HILF
100
AcDbLine
 10
136.0000000000001
 20
69.99999999999994
 30
0.0
 11
220.0
 21
69.99999999999994
 31
0.0
  0
LINE
  5
6B
330
1E
100
AcDbEntity
  8
HILF
100
AcDbLine
 10
136.0000000000001
 20
59.99999999999997
 30
0.0
 11
220.0
 21
59.99999999999997
 31
0.0
  0
LINE
  5
6C
330
1E
100
AcDbEntity
  8
HILF
100
AcDbLine
 10
136.0000000000001
 20
49.99999999999997
 30
0.0
 11
220.0
 21
49.99999999999997
 31
0.0
  0
LINE
  5
6D
330
1E
100
AcDbEntity
  8
HILF
100
AcDbLine
 10
224.7736801096948
 20
84.03758247564139
 30
0.0
 11
324.8353916556311
 21
84.03758247564139
 31
0.0
  0
LINE
  5
6E
330
1E
100
AcDbEntity
  8
HILF
100
AcDbLine
 10
224.7736801096948
 20
69.99999999999994
 30
0.0
 11
324.835391655631
 21
69.99999999999994
 31
0.0
  0
LINE
  5
6F
330
1E
100
AcDbEntity
  8
HILF
100
AcDbLine
 10
224.7736801096948
 20
59.99999999999997
 30
0.0
 11
324.835391655631
 21
59.99999999999997
 31
0.0
  0
LINE
  5
70
330
1E
100
AcDbEntity
  8
HILF
100
AcDbLine
 10
224.7736801096948
 20
49.99999999999997
 30
0.0
 11
324.835391655631
 21
49.99999999999997
 31
0.0
  0
LINE
  5
71
330
1E
100
AcDbEntity
  8
VOLL
100
AcDbLine
 10
332.0
 20
60.0
 30
0.0
 11
410.0
 21
60.0
 31
0.0
  0
LINE
  5
72
330
1E
100
AcDbEntity
  8
HILF
100
AcDbLine
 10
336.7238616296993
 20
83.77983636955827
 30
0.0
 11
404.8588839326728
 21
83.77983636955827
 31
0.0
  0
LINE
  5
73
330
1E
100
AcDbEntity
  8
HILF
100
AcDbLine
 10
223.4909699289885
 20
14.89398258028314
 30
0.0
 11
404.8588839326728
 21
14.89398258028314
 31
0.0
  0
TEXT
  5
74
330
1E
100
AcDbEntity
  8
TEXT
100
AcDbText
 10
63.86165979631819
 20
18.67381894984132
 30
0.0
 40
4.0
  1
Änderung
 41
0.8
  7
GREEKS
 72
     1
 11
74.60451693917534
 21
18.67381894984132
 31
0.0
100
AcDbText
  0
TEXT
  5
75
330
1E
100
AcDbEntity
  8
TEXT
100
AcDbText
 10
143.5163572150377
 20
102.4620895087088
 30
0.0
 40
5.0
  1
Maßstab
 41
0.8
  7
GREEKS
100
AcDbText
  0
TEXT
  5
76
330
1E
100
AcDbEntity
  8
TEXT
100
AcDbText
 10
184.2858954734051
 20
102.4184168434819
 30
0.0
 40
5.0
  1
Zul. Abw.
 41
0.8
  7
GREEKS
100
AcDbText
  0
TEXT
  5
77
330
1E
100
AcDbEntity
  8
TEXT
100
AcDbText
 10
224.877940380901
 20
102.5489328011779
 30
0.0
 40
5.0
  1
Benennung
 41
0.8
  7
GREEKS
100
AcDbText
  0
TEXT
  5
78
330
1E
100
AcDbEntity
  8
TEXT
100
AcDbText
 10
336.178754957634
 20
102.3132034537136
 30
0.0
 40
5.0
  1
Zeichnungs Nr.
 41
0.8
  7
GREEKS
100
AcDbText
  0
TEXT
  5
79
330
1E
100
AcDbEntity
  8
TEXT
100
AcDbText
 10
224.742238391136
 20
30.84560570193057
 30
0.0
 40
5.0
  1
Bauvorhaben
 41
0.8
  7
GREEKS
100
AcDbText
  0
TEXT
  5
7A
330
1E
100
AcDbEntity
  8
TEXT
100
AcDbText
 10
336.7238616296993
 20
73.1811823709997
 30
0.0
 40
5.0
  1
Ersatz für:
 41
0.8
  7
GREEKS
100
AcDbText
  0
TEXT
  5
7B
330
1E
100
AcDbEntity
  8
TEXT
100
AcDbText
 10
48.26641107045756
 20
13.65465846027192
 30
0.0
 40
4.0
  1
Index
 50
90.0
 41
0.8
  7
GREEKS
100
AcDbText
  0
TEXT
  5
7C
330
1E
100
AcDbEntity
  8
TEXT
100
AcDbText
 10
100.0934676075481
 20
18.6715626933981
 30
0.0
 40
4.0
  1
Tag
 41
0.8
  7
GREEKS
 72
     1
 11
103.8268009408814
 21
18.6715626933981
 31
0.0
100
AcDbText
  0
TEXT
  5
7D
330
1E
100
AcDbEntity
  8
TEXT
100
AcDbText
 10
119.0122744386592
 20
18.59324216966408
 30
0.0
 40
4.0
  1
Name
 41
0.8
  7
GREEKS
 72
     1
 11
125.3360839624688
 21
18.59324216966408
 31
0.0
100
AcDbText
  0
TEXT
  5
7E
330
1E
100
AcDbEntity
  8
TEXT
100
AcDbText
 10
162.3311673153651
 20
73.31880501229926
 30
0.0
 40
4.0
  1
Tag
 41
0.8
  7
GREEKS
100
AcDbText
  0
TEXT
  5
7F
330
1E
100
AcDbEntity
  8
TEXT
100
AcDbText
 10
192.4626584226295
 20
73.30961091915225
 30
0.0
 40
4.0
  1
Name
 41
0.8
  7
GREEKS
100
AcDbText
  0
TEXT
  5
80
330
1E
100
AcDbEntity
  8
TEXT
100
AcDbText
 10
137.5836127167615
 20
63.62990369617964
 30
0.0
 40
4.0
  1
Gez.
 41
0.8
  7
GREEKS
100
AcDbText
  0
TEXT
  5
81
330
1E
100
AcDbEntity
  8
TEXT
100
AcDbText
 10
137.5515086571672
 20
53.68926291428377
 30
0.0
 40
4.0
  1
Gepr.
 41
0.8
  7
GREEKS
100
AcDbText
  0
TEXT
  5
82
330
1E
100
AcDbEntity
  8
TEXT
100
AcDbText
 10
137.6006777387304
 20
43.52946389649807
 30
0.0
 40
4.0
  1
Norm.
 41
0.8
  7
GREEKS
100
AcDbText
  0
LINE
  5
83
330
1E
100
AcDbEntity
  8
STEMPEL
100
AcDbLine
 10
49.99999999999989
 20
10.0
 30
0.0
 11
410.0
 21
10.0
 31
0.0
  0
TEXT
  5
84
330
1E
100
AcDbEntity
  8
TEXT
100
AcDbText
 10
337.2400861497006
 20
52.07416177878602
 30
0.0
 40
5.0
  1
ersetzt durch:
 41
0.8
  7
GREEKS
100
AcDbText
  0
LINE
  5
85
330
1E
100
AcDbEntity
  8
STEMPEL
100
AcDbLine
 10
410.0
 20
10.0
 30
0.0
 11
39.99999999999989
 21
10.0
 31
0.0
  0
LINE
  5
86
330
1E
100
AcDbEntity
  8
STEMPEL
100
AcDbLine
 10
410.0
 20
10.0
 30
0.0
 11
410.0
 21
584.0
 31
0.0
  0
LINE
  5
87
330
1E
100
AcDbEntity
  8
STEMPEL
100
AcDbLine
 10
40.0
 20
10.0
 30
0.0
 11
39.99999999999989
 21
584.0
 31
0.0
  0
LINE
  5
88
330
1E
100
AcDbEntity
  8
STEMPEL
100
AcDbLine
 10
410.0
 20
584.0
 30
0.0
 11
39.99999999999989
 21
584.0
 31
0.0
  0
LINE
  5
89
330
1E
100
AcDbEntity
  8
HILF
100
AcDbLine
 10
0.0
 20
0.0
 30
0.0
 11
-0.0000000000001137
 21
594.0
 31
0.0
  0
LINE
  5
8A
330
1E
100
AcDbEntity
  8
HILF
100
AcDbLine
 10
419.9999999999999
 20
594.0000000000002
 30
0.0
 11
0.0
 21
594.0
 31
0.0
  0
LINE
  5
8B
330
1E
100
AcDbEntity
  8
HILF
100
AcDbLine
 10
420.0
 20
0.0
 30
0.0
 11
0.0
 21
0.0
 31
0.0
  0
LINE
  5
8C
330
1E
100
AcDbEntity
  8
HILF
100
AcDbLine
 10
31.08767135713856
 20
297.0
 30
0.0
 11
0.0000000000001137
 21
297.0
 31
0.0
  0
TEXT
  5
8D
330
1E
100
AcDbEntity
  8
TEXT
100
AcDbText
 10
138.622109822104
 20
73.14025471151666
 30
0.0
 40
4.0
  1
2008
 41
0.8
  7
GREEKS
100
AcDbText
  0
LINE
  5
8E
330
1E
100
AcDbEntity
  8
HILF
100
AcDbLine
 10
420.0
 20
-0.0000000000001137
 30
0.0
 11
419.9999999999999
 21
594.0
 31
0.0
  0
TEXT
  5
8F
330
1E
100
AcDbEntity
  8
VOLL
100
AcDbText
 10
78.07675471698113
 20
31.02594776470585
 30
0.0
 40
1.8
  1

  7
GREEKS
100
AcDbText
  0
TEXT
  5
90
330
1E
100
AcDbEntity
  8
TEXT
100
AcDbText
 10
41.85509950977674
 20
111.6719999999999
 30
0.0
 40
5.0
  1
Erstellt mit AUTOCAD 2004
 41
0.8
  7
GREEKS
100
AcDbText
  0
TEXT
  5
91
330
1E
100
AcDbEntity
  8
TEXT
100
AcDbText
 10
194.4216048581257
 20
63.0896391972351
 30
0.0
 40
4.0
  1
Koeh
 41
0.8
  7
GREEKS
 72
     1
 11
199.6787477152685
 21
63.0896391972351
 31
0.0
100
AcDbText
  0
TEXT
  5
92
330
1E
100
AcDbEntity
  8
TEXT
 62
     1
100
AcDbText
 10
347.4518908391807
 20
88.76048719879964
 30
0.0
 40
7.0
  1
08070100W
 41
0.8
  7
GREEKS
 72
     1
 11
370.9185575058474
 21
88.76048719879964
 31
0.0
100
AcDbText
  0
TEXT
  5
93
330
1E
100
AcDbEntity
  8
TEXT
 62
     1
100
AcDbText
 10
150.5006306481887
 20
88.14901428913959
 30
0.0
 40
7.0
  1
1:2
 41
0.8
  7
GREEKS
100
AcDbText
  0
TEXT
  5
94
330
1E
100
AcDbEntity
  8
TEXT
100
AcDbText
 10
161.0085209177598
 20
63.10765040825732
 30
0.0
 40
4.0
  1
15.12.
 41
0.8
  7
GREEKS
 72
     1
 11
167.4085209177598
 21
63.10765040825732
 31
0.0
100
AcDbText
  0
TEXT
  5
95
330
1E
100
AcDbEntity
  8
TEXT
 62
     1
100
AcDbText
 10
226.8935731057402
 20
87.41748789253779
 30
0.0
 40
7.0
  1
Druckrohrschelle DN10
 41
0.8
  7
GREEKS
100
AcDbText
  0
TEXT
  5
98
330
1E
100
AcDbEntity
  8
TEXT
100
AcDbText
 10
225.1296391125315
 20
51.64011943042158
 30
0.0
 40
5.0
  1
EDV-Art.Nr. 08070.100X
 41
0.8
  7
GREEKS
100
AcDbText
  0
TEXT
  5
99
330
1E
100
AcDbEntity
  8
TEXT
100
AcDbText
 10
224.9837501577827
 20
42.62974153022632
 30
0.0
 40
4.0
  1
08070100W.DWG
 41
0.8
  7
GREEKS
100
AcDbText
  0
TEXT
  5
9A
330
1E
100
AcDbEntity
  8
TEXT
100
AcDbText
 10
180.0356560176078
 20
90.76363841023022
 30
0.0
 40
4.0
  1
DIN ISO 2768-c
 41
0.8
  7
GREEKS
 72
     1
 11
199.6166083985602
 21
90.76363841023022
 31
0.0
100
AcDbText
  0
INSERT
  5
9B
330
1E
100
AcDbEntity
  8
STEMPEL
100
AcDbBlockReference
  2
LOGO
 10
140.9955485457794
 20
45.02105276448322
 30
0.0
 41
2.0
 42
2.0
 43
2.0
  0
TEXT
  5
118
330
1E
100
AcDbEntity
  8
BEM
100
AcDbText
 10
417.3022923857165
 20
10.16790107998849
 30
0.0
 40
4.0
  1
Diese Zeichnung ist urheberrechtlich geschützt und bleibt unser Eigentum. Sie darf weder ganz noch teilweise verfielfältigt und nicht an Dritte weitergegeben werden.
 50
90.0
 41
0.8
  7
GREEKS
100
AcDbText
  0
ARC
  5
1712
330
1E
100
AcDbEntity
  8
STEMPEL
100
AcDbCircle
 10
211.6750280027579
 20
462.7385716408935
 30
0.0
 40
4.0
100
AcDbArc
 50
0.0
 51
90.0
  0
ARC
  5
1713
330
1E
100
AcDbEntity
  8
STEMPEL
100
AcDbCircle
 10
85.67502800275883
 20
462.7385716408936
 30
0.0
 40
4.0
100
AcDbArc
 50
90.0
 51
180.0
  0
LINE
  5
1714
330
1E
100
AcDbEntity
  8
STEMPEL
100
AcDbLine
 10
85.67502800275883
 20
466.7385716408936
 30
0.0
 11
211.6750280027579
 21
466.7385716408935
 31
0.0
  0
LINE
  5
1715
330
1E
100
AcDbEntity
  8
STEMPEL
100
AcDbLine
 10
73.67502800275883
 20
257.6574747165459
 30
0.0
 11
73.67502800275883
 21
253.6634966701144
 31
0.0
  0
LINE
  5
1716
330
1E
100
AcDbEntity
  8
STEMPEL
100
AcDbLine
 10
63.67502800275883
 20
257.6574747165459
 30
0.0
 11
63.67502800275895
 21
253.6634966701144
 31
0.0
  0
LINE
  5
1717
330
1E
100
AcDbEntity
  8
STEMPEL
100
AcDbLine
 10
63.67502800275883
 20
253.6634966701145
 30
0.0
 11
64.67502800275894
 21
252.6634966701144
 31
0.0
  0
LINE
  5
1718
330
1E
100
AcDbEntity
  8
STEMPEL
100
AcDbLine
 10
64.67502800275894
 20
252.6634966701144
 30
0.0
 11
72.6750280027461
 21
252.6634966701144
 31
0.0
  0
LINE
  5
1719
330
1E
100
AcDbEntity
  8
STEMPEL
100
AcDbLine
 10
79.82502800275256
 20
266.1763045628121
 30
0.0
 11
79.82502800275256
 21
267.6634966701122
 31
0.0
  0
LINE
  5
171A
330
1E
100
AcDbEntity
  8
STEMPEL
100
AcDbLine
 10
57.52502800275255
 20
266.176304562812
 30
0.0
 11
57.52502800275255
 21
267.6634966701122
 31
0.0
  0
ARC
  5
171B
330
1E
100
AcDbEntity
  8
STEMPEL
100
AcDbCircle
 10
61.58607987395209
 20
261.505864881642
 30
0.0
 40
3.848390227184345
100
AcDbArc
 50
238.5308054759296
 51
307.8806357171734
  0
LINE
  5
171C
330
1E
100
AcDbEntity
  8
STEMPEL
100
AcDbLine
 10
75.7632848411647
 20
257.6574747165459
 30
0.0
 11
61.58677116435303
 21
257.6574747165459
 31
0.0
  0
LINE
  5
171D
330
1E
100
AcDbEntity
  8
STEMPEL
100
AcDbLine
 10
63.94906258355217
 20
258.9359862697538
 30
0.0
 11
63.94906258355331
 21
266.1763045628108
 31
0.0
  0
LINE
  5
171E
330
1E
100
AcDbEntity
  8
STEMPEL
100
AcDbLine
 10
73.40099342195276
 20
258.9359862697538
 30
0.0
 11
73.40099342195276
 21
266.1763045628106
 31
0.0
  0
LINE
  5
171F
330
1E
100
AcDbEntity
  8
STEMPEL
100
AcDbLine
 10
78.12695884115306
 20
258.9359862697538
 30
0.0
 11
78.12695884115306
 21
265.5369441322649
 31
0.0
  0
ARC
  5
1720
330
1E
100
AcDbEntity
  8
STEMPEL
100
AcDbCircle
 10
68.67502800275246
 20
271.8347047165461
 30
0.0
 40
14.17723
100
AcDbArc
 50
250.5278273813729
 51
289.4721726186271
  0
ARC
  5
1721
330
1E
100
AcDbEntity
  8
STEMPEL
100
AcDbCircle
 10
75.763976131552
 20
261.505864881642
 30
0.0
 40
3.848390227184345
100
AcDbArc
 50
232.1193642828266
 51
301.4691945240703
  0
LINE
  5
1722
330
1E
100
AcDbEntity
  8
STEMPEL
100
AcDbLine
 10
78.12695884115306
 20
258.4278561759401
 30
0.0
 11
77.6020873485329
 21
258.1248214783863
 31
0.0
  0
LINE
  5
1723
330
1E
100
AcDbEntity
  8
STEMPEL
100
AcDbLine
 10
78.12695884115306
 20
258.9359862697538
 30
0.0
 11
78.12695884115306
 21
258.4278561759401
 31
0.0
  0
LINE
  5
1724
330
1E
100
AcDbEntity
  8
STEMPEL
100
AcDbLine
 10
73.40099342195276
 20
258.9359862697538
 30
0.0
 11
73.40099342195276
 21
258.4683626092446
 31
0.0
  0
LINE
  5
1725
330
1E
100
AcDbEntity
  8
STEMPEL
100
AcDbLine
 10
63.94906258355217
 20
258.9359862697538
 30
0.0
 11
63.94906258355217
 21
258.4683626092446
 31
0.0
  0
LINE
  5
1726
330
1E
100
AcDbEntity
  8
STEMPEL
100
AcDbLine
 10
59.22309716435285
 20
258.9359862697538
 30
0.0
 11
59.22309716435285
 21
265.5369441322647
 31
0.0
  0
LINE
  5
1727
330
1E
100
AcDbEntity
  8
STEMPEL
100
AcDbLine
 10
59.22309716435285
 20
258.4278561759401
 30
0.0
 11
59.74796865697209
 21
258.1248214783863
 31
0.0
  0
LINE
  5
1728
330
1E
100
AcDbEntity
  8
STEMPEL
100
AcDbLine
 10
61.59285804705615
 20
257.6574747165459
 30
0.0
 11
61.58677116436667
 21
257.6574747165459
 31
0.0
  0
LINE
  5
1729
330
1E
100
AcDbEntity
  8
STEMPEL
100
AcDbLine
 10
59.22309716435285
 20
258.9359862697538
 30
0.0
 11
59.22309716435285
 21
258.5914559720049
 31
0.0
  0
LINE
  5
172A
330
1E
100
AcDbEntity
  8
STEMPEL
100
AcDbLine
 10
59.22309716435285
 20
258.5914559720049
 30
0.0
 11
59.22309716435285
 21
258.4683626092446
 31
0.0
  0
LINE
  5
172B
330
1E
100
AcDbEntity
  8
STEMPEL
100
AcDbLine
 10
59.22309716435285
 20
258.4683626092446
 30
0.0
 11
59.22309716435285
 21
258.4278561759401
 31
0.0
  0
LINE
  5
172C
330
1E
100
AcDbEntity
  8
STEMPEL
100
AcDbLine
 10
57.52502800275255
 20
267.6634966701144
 30
0.0
 11
79.82502800275256
 21
267.6634966701152
 31
0.0
  0
ARC
  5
172D
330
1E
100
AcDbEntity
  8
STEMPEL
100
AcDbCircle
 10
76.61301071235141
 20
272.1324397981966
 30
0.0
 40
6.76702312808409
100
AcDbArc
 50
241.6629572917918
 51
298.33704270823
  0
ARC
  5
172E
330
1E
100
AcDbEntity
  8
STEMPEL
100
AcDbCircle
 10
68.67502800275246
 20
279.5426466701127
 30
0.0
 40
14.17723
100
AcDbArc
 50
250.5278273813729
 51
289.4721726186271
  0
ARC
  5
172F
330
1E
100
AcDbEntity
  8
STEMPEL
100
AcDbCircle
 10
60.73704529315313
 20
272.1324397981943
 30
0.0
 40
6.767023128081929
100
AcDbArc
 50
241.6629572917663
 51
298.3370427082154
  0
LINE
  5
1730
330
1E
100
AcDbEntity
  8
STEMPEL
100
AcDbLine
 10
63.67502800275895
 20
253.6634966701144
 30
0.0
 11
73.67502800275883
 21
253.6634966701144
 31
0.0
  0
LINE
  5
1731
330
1E
100
AcDbEntity
  8
STEMPEL
100
AcDbLine
 10
73.67502800274611
 20
253.6634966701145
 30
0.0
 11
72.6750280027461
 21
252.6634966701144
 31
0.0
  0
LINE
  5
1732
330
1E
100
AcDbEntity
  8
HILF
100
AcDbLine
 10
72.6750280027461
 20
252.6634966701144
 30
0.0
 11
72.6750280027461
 21
257.6574747165458
 31
0.0
  0
LINE
  5
1733
330
1E
100
AcDbEntity
  8
HILF
100
AcDbLine
 10
64.67502800275894
 20
252.6634966701144
 30
0.0
 11
64.67502800275894
 21
257.6574747165459
 31
0.0
  0
LINE
  5
1736
330
1E
100
AcDbEntity
  8
STEMPEL
100
AcDbLine
 10
78.12695884115851
 20
286.0526087774157
 30
0.0
 11
78.12695884115851
 21
286.0931152107202
 31
0.0
  0
LINE
  5
1737
330
1E
100
AcDbEntity
  8
STEMPEL
100
AcDbLine
 10
78.12695884115851
 20
285.9295154146554
 30
0.0
 11
78.12695884115851
 21
286.0526087774157
 31
0.0
  0
LINE
  5
1738
330
1E
100
AcDbEntity
  8
STEMPEL
100
AcDbLine
 10
78.12695884115851
 20
285.5849851169065
 30
0.0
 11
78.12695884115851
 21
285.9295154146554
 31
0.0
  0
LINE
  5
1739
330
1E
100
AcDbEntity
  8
STEMPEL
100
AcDbLine
 10
75.75719795845521
 20
286.8634966701144
 30
0.0
 11
75.76328484114469
 21
286.8634966701144
 31
0.0
  0
LINE
  5
173A
330
1E
100
AcDbEntity
  8
STEMPEL
100
AcDbLine
 10
78.12695884115851
 20
286.0931152107202
 30
0.0
 11
77.60208734853927
 21
286.396149908274
 31
0.0
  0
LINE
  5
173B
330
1E
100
AcDbEntity
  8
STEMPEL
100
AcDbLine
 10
78.12695884115851
 20
285.5849851169065
 30
0.0
 11
78.12695884115851
 21
279.7900492079627
 31
0.0
  0
LINE
  5
173C
330
1E
100
AcDbEntity
  8
STEMPEL
100
AcDbLine
 10
73.40099342195912
 20
285.5849851169065
 30
0.0
 11
73.40099342195912
 21
286.0526087774157
 31
0.0
  0
LINE
  5
173D
330
1E
100
AcDbEntity
  8
STEMPEL
100
AcDbLine
 10
63.94906258355854
 20
285.5849851169065
 30
0.0
 11
63.94906258355854
 21
286.0526087774157
 31
0.0
  0
LINE
  5
173E
330
1E
100
AcDbEntity
  8
STEMPEL
100
AcDbLine
 10
59.22309716435825
 20
285.5849851169065
 30
0.0
 11
59.22309716435825
 21
286.0931152107202
 31
0.0
  0
LINE
  5
173F
330
1E
100
AcDbEntity
  8
STEMPEL
100
AcDbLine
 10
59.22309716435825
 20
286.0931152107202
 30
0.0
 11
59.7479686569784
 21
286.396149908274
 31
0.0
  0
ARC
  5
1740
330
1E
100
AcDbEntity
  8
STEMPEL
100
AcDbCircle
 10
61.58607987395931
 20
283.0151065050182
 30
0.0
 40
3.848390227184345
100
AcDbArc
 50
52.11936428282661
 51
121.4691945240704
  0
ARC
  5
1741
330
1E
100
AcDbEntity
  8
STEMPEL
100
AcDbCircle
 10
68.67502800275883
 20
272.6862666701141
 30
0.0
 40
14.17723
100
AcDbArc
 50
70.52782738137288
 51
109.4721726186271
  0
LINE
  5
1742
330
1E
100
AcDbEntity
  8
STEMPEL
100
AcDbLine
 10
59.22309716435825
 20
285.5849851169065
 30
0.0
 11
59.22309716435825
 21
279.7900492079655
 31
0.0
  0
LINE
  5
1743
330
1E
100
AcDbEntity
  8
STEMPEL
100
AcDbLine
 10
63.94906258355854
 20
285.5849851169065
 30
0.0
 11
63.94906258355854
 21
279.1506887774144
 31
0.0
  0
LINE
  5
1744
330
1E
100
AcDbEntity
  8
STEMPEL
100
AcDbLine
 10
73.40099342195912
 20
285.5849851169065
 30
0.0
 11
73.4009934219581
 21
279.1506887774158
 31
0.0
  0
LINE
  5
1745
330
1E
100
AcDbEntity
  8
STEMPEL
100
AcDbLine
 10
61.5867711643466
 20
286.8634966701144
 30
0.0
 11
75.76328484115833
 21
286.8634966701144
 31
0.0
  0
ARC
  5
1746
330
1E
100
AcDbEntity
  8
STEMPEL
100
AcDbCircle
 10
75.76397613155927
 20
283.0151065050182
 30
0.0
 40
3.848390227184345
100
AcDbArc
 50
58.5308054759296
 51
127.8806357171734
  0
LINE
  5
1748
330
1E
100
AcDbEntity
  8
HILF
100
AcDbLine
 10
224.6750280027716
 20
271.6634966701144
 30
0.0
 11
224.6750280027716
 21
273.6634966701144
 31
0.0
  0
LINE
  5
1749
330
1E
100
AcDbEntity
  8
HILF
100
AcDbLine
 10
232.6750280027587
 20
271.6634966701144
 30
0.0
 11
232.6750280027588
 21
273.6634966701144
 31
0.0
  0
LINE
  5
174A
330
1E
100
AcDbEntity
  8
HILF
100
AcDbLine
 10
232.6750280027587
 20
252.6634966701144
 30
0.0
 11
232.6750280027587
 21
257.6574747165459
 31
0.0
  0
LINE
  5
174B
330
1E
100
AcDbEntity
  8
HILF
100
AcDbLine
 10
224.6750280027716
 20
252.6634966701144
 30
0.0
 11
224.6750280027716
 21
257.6574747165458
 31
0.0
  0
LINE
  5
174C
330
1E
100
AcDbEntity
  8
STEMPEL
100
AcDbLine
 10
223.6750280027716
 20
253.6634966701145
 30
0.0
 11
224.6750280027716
 21
252.6634966701144
 31
0.0
  0
LINE
  5
174D
330
1E
100
AcDbEntity
  8
STEMPEL
100
AcDbLine
 10
233.6750280027587
 20
253.6634966701144
 30
0.0
 11
223.6750280027588
 21
253.6634966701144
 31
0.0
  0
LINE
  5
174E
330
1E
100
AcDbEntity
  8
STEMPEL
100
AcDbLine
 10
223.6750280027587
 20
273.6634966701144
 30
0.0
 11
223.6750280027588
 21
271.6634966701144
 31
0.0
  0
LINE
  5
174F
330
1E
100
AcDbEntity
  8
STEMPEL
100
AcDbLine
 10
233.6750280027588
 20
273.6634966701144
 30
0.0
 11
233.6750280027588
 21
271.6634966701144
 31
0.0
  0
ARC
  5
1750
330
1E
100
AcDbEntity
  8
STEMPEL
100
AcDbCircle
 10
236.6130107123645
 20
272.1324397981943
 30
0.0
 40
6.767023128081929
100
AcDbArc
 50
241.6629572917845
 51
298.3370427082337
  0
ARC
  5
1751
330
1E
100
AcDbEntity
  8
STEMPEL
100
AcDbCircle
 10
228.6750280027652
 20
279.5426466701127
 30
0.0
 40
14.17723
100
AcDbArc
 50
250.5278273813729
 51
289.4721726186271
  0
ARC
  5
1752
330
1E
100
AcDbEntity
  8
STEMPEL
100
AcDbCircle
 10
220.7370452931662
 20
272.1324397981966
 30
0.0
 40
6.76702312808409
100
AcDbArc
 50
241.6629572917699
 51
298.3370427082082
  0
LINE
  5
1753
330
1E
100
AcDbEntity
  8
STEMPEL
100
AcDbLine
 10
239.8250280027651
 20
267.6634966701144
 30
0.0
 11
217.5250280027651
 21
267.6634966701152
 31
0.0
  0
LINE
  5
1754
330
1E
100
AcDbEntity
  8
STEMPEL
100
AcDbLine
 10
238.1269588411649
 20
258.4683626092446
 30
0.0
 11
238.1269588411649
 21
258.4278561759401
 31
0.0
  0
LINE
  5
1755
330
1E
100
AcDbEntity
  8
STEMPEL
100
AcDbLine
 10
238.1269588411649
 20
258.5914559720049
 30
0.0
 11
238.1269588411649
 21
258.4683626092446
 31
0.0
  0
LINE
  5
1756
330
1E
100
AcDbEntity
  8
STEMPEL
100
AcDbLine
 10
238.1269588411649
 20
258.9359862697538
 30
0.0
 11
238.1269588411649
 21
258.5914559720049
 31
0.0
  0
LINE
  5
1757
330
1E
100
AcDbEntity
  8
STEMPEL
100
AcDbLine
 10
235.7571979584616
 20
257.6574747165459
 30
0.0
 11
235.763284841151
 21
257.6574747165459
 31
0.0
  0
LINE
  5
1758
330
1E
100
AcDbEntity
  8
STEMPEL
100
AcDbLine
 10
238.1269588411649
 20
258.4278561759401
 30
0.0
 11
237.6020873485456
 21
258.1248214783863
 31
0.0
  0
LINE
  5
1759
330
1E
100
AcDbEntity
  8
STEMPEL
100
AcDbLine
 10
238.1269588411649
 20
258.9359862697538
 30
0.0
 11
238.1269588411649
 21
265.5369441322647
 31
0.0
  0
LINE
  5
175A
330
1E
100
AcDbEntity
  8
STEMPEL
100
AcDbLine
 10
233.4009934219655
 20
258.9359862697538
 30
0.0
 11
233.4009934219655
 21
258.4683626092446
 31
0.0
  0
LINE
  5
175B
330
1E
100
AcDbEntity
  8
STEMPEL
100
AcDbLine
 10
223.9490625835649
 20
258.9359862697538
 30
0.0
 11
223.9490625835649
 21
258.4683626092446
 31
0.0
  0
LINE
  5
175C
330
1E
100
AcDbEntity
  8
STEMPEL
100
AcDbLine
 10
219.2230971643646
 20
258.9359862697538
 30
0.0
 11
219.2230971643646
 21
258.4278561759401
 31
0.0
  0
LINE
  5
175D
330
1E
100
AcDbEntity
  8
STEMPEL
100
AcDbLine
 10
219.2230971643646
 20
258.4278561759401
 30
0.0
 11
219.7479686569848
 21
258.1248214783863
 31
0.0
  0
ARC
  5
175E
330
1E
100
AcDbEntity
  8
STEMPEL
100
AcDbCircle
 10
221.5860798739657
 20
261.505864881642
 30
0.0
 40
3.848390227184345
100
AcDbArc
 50
238.5308054759296
 51
307.8806357171734
  0
ARC
  5
175F
330
1E
100
AcDbEntity
  8
STEMPEL
100
AcDbCircle
 10
228.6750280027652
 20
271.8347047165461
 30
0.0
 40
14.17723
100
AcDbArc
 50
250.5278273813729
 51
289.4721726186271
  0
LINE
  5
1760
330
1E
100
AcDbEntity
  8
STEMPEL
100
AcDbLine
 10
219.2230971643646
 20
258.9359862697538
 30
0.0
 11
219.2230971643646
 21
265.5369441322649
 31
0.0
  0
LINE
  5
1761
330
1E
100
AcDbEntity
  8
STEMPEL
100
AcDbLine
 10
223.9490625835649
 20
258.9359862697538
 30
0.0
 11
223.9490625835649
 21
266.1763045628106
 31
0.0
  0
LINE
  5
1762
330
1E
100
AcDbEntity
  8
STEMPEL
100
AcDbLine
 10
233.4009934219655
 20
258.9359862697538
 30
0.0
 11
233.4009934219643
 21
266.1763045628108
 31
0.0
  0
LINE
  5
1763
330
1E
100
AcDbEntity
  8
STEMPEL
100
AcDbLine
 10
221.586771164353
 20
257.6574747165459
 30
0.0
 11
235.7632848411647
 21
257.6574747165459
 31
0.0
  0
ARC
  5
1764
330
1E
100
AcDbEntity
  8
STEMPEL
100
AcDbCircle
 10
235.7639761315657
 20
261.505864881642
 30
0.0
 40
3.848390227184345
100
AcDbArc
 50
232.1193642828266
 51
301.4691945240703
  0
LINE
  5
1765
330
1E
100
AcDbEntity
  8
STEMPEL
100
AcDbLine
 10
239.8250280027651
 20
266.176304562812
 30
0.0
 11
239.8250280027651
 21
267.6634966701122
 31
0.0
  0
LINE
  5
1766
330
1E
100
AcDbEntity
  8
STEMPEL
100
AcDbLine
 10
217.5250280027651
 20
266.1763045628121
 30
0.0
 11
217.5250280027651
 21
267.6634966701122
 31
0.0
  0
LINE
  5
176A
330
1E
100
AcDbEntity
  8
STEMPEL
100
AcDbLine
 10
215.6750280027579
 20
462.7385716408935
 30
0.0
 11
238.6750280027579
 21
462.7385716408935
 31
0.0
  0
LINE
  5
176B
330
1E
100
AcDbEntity
  8
STEMPEL
100
AcDbLine
 10
58.67502800275793
 20
462.7385716408935
 30
0.0
 11
81.67502800275883
 21
462.7385716408935
 31
0.0
  0
LINE
  5
1776
330
1E
100
AcDbEntity
  8
STEMPEL
100
AcDbLine
 10
53.67502800275793
 20
457.7385716408935
 30
0.0
 11
58.67502800275793
 21
462.7385716408935
 31
0.0
  0
LINE
  5
1777
330
1E
100
AcDbEntity
  8
STEMPEL
100
AcDbLine
 10
58.67502800275793
 20
373.7385716408935
 30
0.0
 11
53.67502800275793
 21
378.7385716408935
 31
0.0
  0
LINE
  5
1778
330
1E
100
AcDbEntity
  8
STEMPEL
100
AcDbLine
 10
243.6750280027581
 20
457.7385716408934
 30
0.0
 11
238.6750280027579
 21
462.7385716408935
 31
0.0
  0
LINE
  5
1779
330
1E
100
AcDbEntity
  8
STEMPEL
100
AcDbLine
 10
243.6750280027606
 20
378.7385716408935
 30
0.0
 11
238.6750280027607
 21
373.7385716408935
 31
0.0
  0
ARC
  5
177A
330
1E
100
AcDbEntity
  8
STEMPEL
100
AcDbCircle
 10
216.2601595037038
 20
265.1634966701144
 30
0.0
 40
2.5
100
AcDbArc
 50
90.0
 51
173.6677295654823
  0
ARC
  5
177B
330
1E
100
AcDbEntity
  8
STEMPEL
100
AcDbCircle
 10
216.2601595037038
 20
280.1634966701144
 30
0.0
 40
2.5
100
AcDbArc
 50
186.3322704345176
 51
270.0
  0
ARC
  5
177C
330
1E
100
AcDbEntity
  8
STEMPEL
100
AcDbCircle
 10
81.08989650181388
 20
280.1634966701144
 30
0.0
 40
2.5
100
AcDbArc
 50
270.0
 51
353.6677295654823
  0
ARC
  5
177D
330
1E
100
AcDbEntity
  8
STEMPEL
100
AcDbCircle
 10
81.08989650181388
 20
265.1634966701144
 30
0.0
 40
2.5
100
AcDbArc
 50
6.33227043451769
 51
90.0
  0
ARC
  5
177E
330
1E
100
AcDbEntity
  8
STEMPEL
100
AcDbCircle
 10
87.53330738581349
 20
265.1634966701144
 30
0.0
 40
6.5
100
AcDbArc
 50
6.993298245711898
 51
90.0
  0
ARC
  5
177F
330
1E
100
AcDbEntity
  8
STEMPEL
100
AcDbCircle
 10
148.6750280027588
 20
272.6634966701145
 30
0.0
 40
55.1
100
AcDbArc
 50
186.9932982457119
 51
188.1366615986827
  0
ARC
  5
1780
330
1E
100
AcDbEntity
  8
STEMPEL
100
AcDbCircle
 10
148.6750280027588
 20
272.6634966701145
 30
0.0
 40
55.1
100
AcDbArc
 50
351.8633384013172
 51
353.0067017542882
  0
ARC
  5
1781
330
1E
100
AcDbEntity
  8
STEMPEL
100
AcDbCircle
 10
209.8167486197033
 20
265.1634966701144
 30
0.0
 40
6.5
100
AcDbArc
 50
90.0
 51
173.0067017542881
  0
ARC
  5
1782
330
1E
100
AcDbEntity
  8
STEMPEL
100
AcDbCircle
 10
148.6750280027588
 20
272.6634966701145
 30
0.0
 40
54.50000000000023
100
AcDbArc
 50
188.2268567905475
 51
351.7731432094524
  0
ARC
  5
1783
330
1E
100
AcDbEntity
  8
STEMPEL
100
AcDbCircle
 10
148.6750280027588
 20
272.6634966701145
 30
0.0
 40
55.1
100
AcDbArc
 50
171.8633384013172
 51
173.0067017542881
  0
ARC
  5
1784
330
1E
100
AcDbEntity
  8
STEMPEL
100
AcDbCircle
 10
148.6750280027588
 20
272.6634966701145
 30
0.0
 40
54.50000000000023
100
AcDbArc
 50
8.226856790547543
 51
171.7731432094524
  0
ARC
  5
1785
330
1E
100
AcDbEntity
  8
STEMPEL
100
AcDbCircle
 10
148.6750280027588
 20
272.6634966701145
 30
0.0
 40
65.50000000000022
100
AcDbArc
 50
6.33227043451769
 51
173.6677295654823
  0
ARC
  5
1786
330
1E
100
AcDbEntity
  8
STEMPEL
100
AcDbCircle
 10
148.6750280027588
 20
272.6634966701145
 30
0.0
 40
65.50000000000022
100
AcDbArc
 50
186.3322704345176
 51
353.6677295654823
  0
ARC
  5
1789
330
1E
100
AcDbEntity
  8
STEMPEL
100
AcDbCircle
 10
148.6750280027588
 20
272.6634966701145
 30
0.0
 40
59.1
100
AcDbArc
 50
352.4174008771948
 51
353.435060205959
  0
ARC
  5
178A
330
1E
100
AcDbEntity
  8
STEMPEL
100
AcDbCircle
 10
148.6750280027588
 20
272.6634966701145
 30
0.0
 40
59.1
100
AcDbArc
 50
172.4174008771948
 51
173.435060205959
  0
ARC
  5
178B
330
1E
100
AcDbEntity
  8
STEMPEL
100
AcDbCircle
 10
213.8448829972219
 20
265.1634966701144
 30
0.0
 40
6.5
100
AcDbArc
 50
90.0
 51
173.435060205959
  0
ARC
  5
178C
330
1E
100
AcDbEntity
  8
STEMPEL
100
AcDbCircle
 10
209.8167486197033
 20
280.1634966701144
 30
0.0
 40
6.5
100
AcDbArc
 50
186.9932982457119
 51
270.0
  0
ARC
  5
178D
330
1E
100
AcDbEntity
  8
STEMPEL
100
AcDbCircle
 10
213.8448829972219
 20
280.1634966701144
 30
0.0
 40
6.5
100
AcDbArc
 50
186.564939794041
 51
270.0
  0
ARC
  5
178E
330
1E
100
AcDbEntity
  8
STEMPEL
100
AcDbCircle
 10
83.50517300829483
 20
265.1634966701144
 30
0.0
 40
6.5
100
AcDbArc
 50
6.56493979404098
 51
90.0
  0
ARC
  5
178F
330
1E
100
AcDbEntity
  8
STEMPEL
100
AcDbCircle
 10
87.53330738581349
 20
280.1634966701144
 30
0.0
 40
6.5
100
AcDbArc
 50
270.0
 51
353.0067017542882
  0
ARC
  5
1790
330
1E
100
AcDbEntity
  8
STEMPEL
100
AcDbCircle
 10
83.50517300829483
 20
280.1634966701144
 30
0.0
 40
6.5
100
AcDbArc
 50
270.0
 51
353.435060205959
  0
ARC
  5
1791
330
1E
100
AcDbEntity
  8
STEMPEL
100
AcDbCircle
 10
148.6750280027588
 20
272.6634966701145
 30
0.0
 40
59.1
100
AcDbArc
 50
6.56493979404098
 51
7.582599122805196
  0
ARC
  5
1792
330
1E
100
AcDbEntity
  8
STEMPEL
100
AcDbCircle
 10
148.6750280027588
 20
272.6634966701145
 30
0.0
 40
59.1
100
AcDbArc
 50
186.564939794041
 51
187.5825991228052
  0
ARC
  5
1793
330
1E
100
AcDbEntity
  8
STEMPEL
100
AcDbCircle
 10
148.6750280027588
 20
272.6634966701145
 30
0.0
 40
55.1
100
AcDbArc
 50
6.993298245711898
 51
8.136661598682762
  0
ARC
  5
1794
330
1E
100
AcDbEntity
  8
STEMPEL
100
AcDbCircle
 10
221.5860798739584
 20
283.0151065050182
 30
0.0
 40
3.848390227184345
100
AcDbArc
 50
52.11936428282661
 51
121.4691945240704
  0
LINE
  5
1795
330
1E
100
AcDbEntity
  8
STEMPEL
100
AcDbLine
 10
235.7632848411711
 20
286.8634966701144
 30
0.0
 11
221.5867711643593
 21
286.8634966701144
 31
0.0
  0
LINE
  5
1796
330
1E
100
AcDbEntity
  8
STEMPEL
100
AcDbLine
 10
223.9490625835586
 20
285.5849851169065
 30
0.0
 11
223.9490625835597
 21
279.1506887774211
 31
0.0
  0
LINE
  5
1797
330
1E
100
AcDbEntity
  8
STEMPEL
100
AcDbLine
 10
233.4009934219591
 20
285.5849851169065
 30
0.0
 11
233.4009934219591
 21
279.15068877742
 31
0.0
  0
LINE
  5
1798
330
1E
100
AcDbEntity
  8
STEMPEL
100
AcDbLine
 10
238.1269588411594
 20
285.5849851169065
 30
0.0
 11
238.1269588411594
 21
279.7900492079655
 31
0.0
  0
ARC
  5
1799
330
1E
100
AcDbEntity
  8
STEMPEL
100
AcDbCircle
 10
228.6750280027588
 20
272.6862666701141
 30
0.0
 40
14.17723
100
AcDbArc
 50
70.52782738137288
 51
109.4721726186271
  0
ARC
  5
179A
330
1E
100
AcDbEntity
  8
STEMPEL
100
AcDbCircle
 10
235.7639761315584
 20
283.0151065050182
 30
0.0
 40
3.848390227184345
100
AcDbArc
 50
58.5308054759296
 51
127.8806357171734
  0
LINE
  5
179B
330
1E
100
AcDbEntity
  8
STEMPEL
100
AcDbLine
 10
238.1269588411594
 20
286.0931152107202
 30
0.0
 11
237.6020873485393
 21
286.396149908274
 31
0.0
  0
LINE
  5
179C
330
1E
100
AcDbEntity
  8
STEMPEL
100
AcDbLine
 10
238.1269588411594
 20
285.5849851169065
 30
0.0
 11
238.1269588411594
 21
286.0931152107202
 31
0.0
  0
LINE
  5
179D
330
1E
100
AcDbEntity
  8
STEMPEL
100
AcDbLine
 10
233.4009934219591
 20
285.5849851169065
 30
0.0
 11
233.4009934219591
 21
286.0526087774157
 31
0.0
  0
LINE
  5
179E
330
1E
100
AcDbEntity
  8
STEMPEL
100
AcDbLine
 10
223.9490625835586
 20
285.5849851169065
 30
0.0
 11
223.9490625835586
 21
286.0526087774157
 31
0.0
  0
LINE
  5
179F
330
1E
100
AcDbEntity
  8
STEMPEL
100
AcDbLine
 10
219.2230971643592
 20
285.5849851169065
 30
0.0
 11
219.2230971643592
 21
279.7900492079627
 31
0.0
  0
LINE
  5
17A0
330
1E
100
AcDbEntity
  8
STEMPEL
100
AcDbLine
 10
219.2230971643592
 20
286.0931152107202
 30
0.0
 11
219.7479686569784
 21
286.396149908274
 31
0.0
  0
LINE
  5
17A1
330
1E
100
AcDbEntity
  8
STEMPEL
100
AcDbLine
 10
221.5928580470625
 20
286.8634966701144
 30
0.0
 11
221.586771164373
 21
286.8634966701144
 31
0.0
  0
LINE
  5
17A2
330
1E
100
AcDbEntity
  8
STEMPEL
100
AcDbLine
 10
219.2230971643592
 20
285.5849851169065
 30
0.0
 11
219.2230971643592
 21
285.9295154146554
 31
0.0
  0
LINE
  5
17A3
330
1E
100
AcDbEntity
  8
STEMPEL
100
AcDbLine
 10
219.2230971643592
 20
285.9295154146554
 30
0.0
 11
219.2230971643592
 21
286.0526087774157
 31
0.0
  0
LINE
  5
17A4
330
1E
100
AcDbEntity
  8
STEMPEL
100
AcDbLine
 10
219.2230971643592
 20
286.0526087774157
 30
0.0
 11
219.2230971643592
 21
286.0931152107202
 31
0.0
  0
LINE
  5
17A5
330
1E
100
AcDbEntity
  8
MITTEL
100
AcDbLine
 10
228.6750280027588
 20
291.8634966701144
 30
0.0
 11
228.6750280027588
 21
247.6634966701144
 31
0.0
  0
LINE
  5
17A6
330
1E
100
AcDbEntity
  8
STEMPEL
100
AcDbLine
 10
232.6750280027587
 20
252.6634966701144
 30
0.0
 11
224.6750280027716
 21
252.6634966701144
 31
0.0
  0
LINE
  5
17A7
330
1E
100
AcDbEntity
  8
STEMPEL
100
AcDbLine
 10
233.6750280027588
 20
253.6634966701145
 30
0.0
 11
232.6750280027587
 21
252.6634966701144
 31
0.0
  0
LINE
  5
17A8
330
1E
100
AcDbEntity
  8
STEMPEL
100
AcDbLine
 10
233.6750280027588
 20
257.6574747165459
 30
0.0
 11
233.6750280027587
 21
253.6634966701144
 31
0.0
  0
LINE
  5
17A9
330
1E
100
AcDbEntity
  8
STEMPEL
100
AcDbLine
 10
223.6750280027588
 20
257.6574747165459
 30
0.0
 11
223.6750280027588
 21
253.6634966701144
 31
0.0
  0
LINE
  5
17AA
330
1E
100
AcDbEntity
  8
MITTEL
100
AcDbLine
 10
68.67502800275883
 20
291.8634966701144
 30
0.0
 11
68.67502800275883
 21
247.6634966701145
 31
0.0
  0
LINE
  5
17AB
330
1E
100
AcDbEntity
  8
STEMPEL
100
AcDbLine
 10
56.17502800275793
 20
273.6634966701144
 30
0.0
 11
56.17502800275883
 21
277.6634966701144
 31
0.0
  0
LINE
  5
17AC
330
1E
100
AcDbEntity
  8
STEMPEL
100
AcDbLine
 10
56.17502800275793
 20
273.6634966701144
 30
0.0
 11
87.53330738581439
 21
273.6634966701144
 31
0.0
  0
LINE
  5
17AD
330
1E
100
AcDbEntity
  8
STEMPEL
100
AcDbLine
 10
56.17502800275883
 20
277.6634966701144
 30
0.0
 11
81.08989650181388
 21
277.6634966701144
 31
0.0
  0
ARC
  5
17AE
330
1E
100
AcDbEntity
  8
STEMPEL
100
AcDbCircle
 10
148.6750280027588
 20
272.6634966701145
 30
0.0
 40
63.00000000000022
100
AcDbArc
 50
172.8893062280431
 51
173.8049383444908
  0
ARC
  5
17AF
330
1E
100
AcDbEntity
  8
STEMPEL
100
AcDbCircle
 10
79.58088932225996
 20
280.1634966701144
 30
0.0
 40
6.5
100
AcDbArc
 50
270.0
 51
353.8049383444908
  0
LINE
  5
17B0
330
1E
100
AcDbEntity
  8
STEMPEL
100
AcDbLine
 10
86.15957036248506
 20
280.4620578211939
 30
0.0
 11
94.73587298552661
 21
280.4620578211939
 31
0.0
  0
LINE
  5
17B1
330
1E
100
AcDbEntity
  8
STEMPEL
100
AcDbLine
 10
211.1904856430335
 20
280.4620578211939
 30
0.0
 11
202.6141830199902
 21
280.4620578211939
 31
0.0
  0
ARC
  5
17B2
330
1E
100
AcDbEntity
  8
STEMPEL
100
AcDbCircle
 10
148.6750280027588
 20
272.6634966701145
 30
0.0
 40
63.00000000000022
100
AcDbArc
 50
6.19506165550917
 51
7.110693771956888
  0
ARC
  5
17B3
330
1E
100
AcDbEntity
  8
STEMPEL
100
AcDbCircle
 10
217.7691666832577
 20
280.1634966701144
 30
0.0
 40
6.5
100
AcDbArc
 50
186.1950616555091
 51
270.0
  0
LINE
  5
17B4
330
1E
100
AcDbEntity
  8
STEMPEL
100
AcDbLine
 10
241.1750280027606
 20
273.6634966701144
 30
0.0
 11
241.1750280027588
 21
277.6634966701144
 31
0.0
  0
LINE
  5
17B5
330
1E
100
AcDbEntity
  8
STEMPEL
100
AcDbLine
 10
241.1750280027606
 20
273.6634966701144
 30
0.0
 11
209.8167486197042
 21
273.6634966701144
 31
0.0
  0
LINE
  5
17B6
330
1E
100
AcDbEntity
  8
STEMPEL
100
AcDbLine
 10
241.1750280027588
 20
277.6634966701144
 30
0.0
 11
216.2601595037038
 21
277.6634966701144
 31
0.0
  0
ARC
  5
17B7
330
1E
100
AcDbEntity
  8
STEMPEL
100
AcDbCircle
 10
148.6750280027588
 20
272.6634966701145
 30
0.0
 40
63.00000000000022
100
AcDbArc
 50
352.8893062280431
 51
353.8049383444908
  0
LINE
  5
17B8
330
1E
100
AcDbEntity
  8
STEMPEL
100
AcDbLine
 10
211.1904856430335
 20
264.864935519035
 30
0.0
 11
202.6141830199902
 21
264.864935519035
 31
0.0
  0
LINE
  5
17B9
330
1E
100
AcDbEntity
  8
STEMPEL
100
AcDbLine
 10
86.15957036248506
 20
264.864935519035
 30
0.0
 11
94.73587298552661
 21
264.864935519035
 31
0.0
  0
LINE
  5
17BA
330
1E
100
AcDbEntity
  8
STEMPEL
100
AcDbLine
 10
56.17502800275793
 20
271.6634966701144
 30
0.0
 11
87.53330738581439
 21
271.6634966701144
 31
0.0
  0
LINE
  5
17BB
330
1E
100
AcDbEntity
  8
MITTEL
100
AcDbLine
 10
148.6750280027588
 20
343.1634966701147
 30
0.0
 11
148.6750280027588
 21
202.1634966701142
 31
0.0
  0
LINE
  5
17BC
330
1E
100
AcDbEntity
  8
STEMPEL
100
AcDbLine
 10
241.1750280027588
 20
267.6634966701144
 30
0.0
 11
216.2601595037038
 21
267.6634966701144
 31
0.0
  0
ARC
  5
17BD
330
1E
100
AcDbEntity
  8
STEMPEL
100
AcDbCircle
 10
148.6750280027588
 20
272.6634966701145
 30
0.0
 40
63.00000000000022
100
AcDbArc
 50
186.1950616555091
 51
187.1106937719568
  0
LINE
  5
17BE
330
1E
100
AcDbEntity
  8
STEMPEL
100
AcDbLine
 10
241.1750280027606
 20
271.6634966701144
 30
0.0
 11
209.8167486197042
 21
271.6634966701144
 31
0.0
  0
LINE
  5
17BF
330
1E
100
AcDbEntity
  8
STEMPEL
100
AcDbLine
 10
241.1750280027606
 20
271.6634966701144
 30
0.0
 11
241.1750280027588
 21
267.6634966701144
 31
0.0
  0
ARC
  5
17C0
330
1E
100
AcDbEntity
  8
STEMPEL
100
AcDbCircle
 10
217.7691666832577
 20
265.1634966701144
 30
0.0
 40
6.5
100
AcDbArc
 50
90.0
 51
173.8049383444908
  0
LINE
  5
17C1
330
1E
100
AcDbEntity
  8
STEMPEL
100
AcDbLine
 10
56.17502800275793
 20
271.6634966701144
 30
0.0
 11
56.17502800275883
 21
267.6634966701144
 31
0.0
  0
ARC
  5
17C2
330
1E
100
AcDbEntity
  8
STEMPEL
100
AcDbCircle
 10
79.58088932225996
 20
265.1634966701144
 30
0.0
 40
6.5
100
AcDbArc
 50
6.19506165550917
 51
90.0
  0
LINE
  5
17C3
330
1E
100
AcDbEntity
  8
STEMPEL
100
AcDbLine
 10
56.17502800275883
 20
267.6634966701144
 30
0.0
 11
81.08989650181388
 21
267.6634966701144
 31
0.0
  0
LINE
  5
17C4
330
1E
100
AcDbEntity
  8
MITTEL
100
AcDbLine
 10
51.1750280027577
 20
272.6634966701145
 30
0.0
 11
246.1750280027611
 21
272.6634966701145
 31
0.0
  0
LINE
  5
17C8
330
1E
100
AcDbEntity
  8
HILF
100
AcDbLine
 10
83.17502800275883
 20
450.2385716408926
 30
0.0
 11
214.1750280027579
 21
450.2385716408934
 31
0.0
  0
LINE
  5
17C9
330
1E
100
AcDbEntity
  8
HILF
100
AcDbLine
 10
83.17502800275883
 20
462.7385716408925
 30
0.0
 11
214.1750280027578
 21
462.7385716408934
 31
0.0
  0
ARC
  5
17CA
330
1E
100
AcDbEntity
  8
HILF
100
AcDbCircle
 10
213.7750280027583
 20
444.5228039759158
 30
0.0
 40
2.0
100
AcDbArc
 50
119.9999999999743
 51
180.0
  0
ARC
  5
17CB
330
1E
100
AcDbEntity
  8
HILF
100
AcDbCircle
 10
83.57502800275938
 20
444.5228039759149
 30
0.0
 40
2.0
100
AcDbArc
 50
0.0
 51
60.00000000002572
  0
LINE
  5
17CC
330
1E
100
AcDbEntity
  8
STEMPEL
100
AcDbLine
 10
243.6750280027581
 20
457.7385716408934
 30
0.0
 11
243.6750280027606
 21
378.7385716408935
 31
0.0
  0
LINE
  5
17CD
330
1E
100
AcDbEntity
  8
STEMPEL
100
AcDbLine
 10
53.67502800275793
 20
457.7385716408935
 30
0.0
 11
53.67502800275793
 21
378.7385716408935
 31
0.0
  0
LINE
  5
17CE
330
1E
100
AcDbEntity
  8
HILF
100
AcDbLine
 10
207.7750280027592
 20
373.7385716408935
 30
0.0
 11
207.7750280027582
 21
396.2385716408931
 31
0.0
  0
ARC
  5
17CF
330
1E
100
AcDbEntity
  8
HILF
100
AcDbCircle
 10
215.7750280027592
 20
396.2385716408935
 30
0.0
 40
8.0
100
AcDbArc
 50
153.1122293409925
 51
180.0000000000016
  0
ARC
  5
17D0
330
1E
100
AcDbEntity
  8
HILF
100
AcDbCircle
 10
182.7750280027592
 20
412.9715716408936
 30
0.0
 40
29.0
100
AcDbArc
 50
333.1122293409925
 51
0.0
  0
LINE
  5
17D1
330
1E
100
AcDbEntity
  8
HILF
100
AcDbLine
 10
215.6750280027579
 20
462.7385716408935
 30
0.0
 11
215.6750280027579
 21
450.2385716408935
 31
0.0
  0
LINE
  5
17D2
330
1E
100
AcDbEntity
  8
HILF
100
AcDbLine
 10
211.7750280027583
 20
444.5228039759158
 30
0.0
 11
211.7750280027583
 21
412.9715716408936
 31
0.0
  0
LINE
  5
17D3
330
1E
100
AcDbEntity
  8
HILF
100
AcDbLine
 10
213.6750280027579
 20
446.7744700257553
 30
0.0
 11
212.7750280027583
 21
446.2548547834849
 31
0.0
  0
ARC
  5
17D4
330
1E
100
AcDbEntity
  8
HILF
100
AcDbCircle
 10
211.6750280027588
 20
450.2385716408935
 30
0.0
 40
4.0
100
AcDbArc
 50
299.9999999999969
 51
0.0
  0
LINE
  5
17D5
330
1E
100
AcDbEntity
  8
MITTEL
100
AcDbLine
 10
148.6750280027588
 20
471.7385716408935
 30
0.0
 11
148.6750280027588
 21
368.7385716408936
 31
0.0
  0
ARC
  5
17D6
330
1E
100
AcDbEntity
  8
HILF
100
AcDbCircle
 10
85.67502800275883
 20
450.2385716408926
 30
0.0
 40
4.0
100
AcDbArc
 50
180.0
 51
240.0000000000039
  0
LINE
  5
17D7
330
1E
100
AcDbEntity
  8
STEMPEL
100
AcDbLine
 10
58.67502800275793
 20
373.7385716408935
 30
0.0
 11
238.6750280027607
 21
373.7385716408935
 31
0.0
  0
LINE
  5
17D8
330
1E
100
AcDbEntity
  8
HILF
100
AcDbLine
 10
83.67502800275884
 20
446.7744700257544
 30
0.0
 11
84.57502800275847
 21
446.2548547834849
 31
0.0
  0
LINE
  5
17D9
330
1E
100
AcDbEntity
  8
HILF
100
AcDbLine
 10
85.57502800275939
 20
444.5228039759149
 30
0.0
 11
85.57502800275846
 21
412.9715716408927
 31
0.0
  0
LINE
  5
17DA
330
1E
100
AcDbEntity
  8
HILF
100
AcDbLine
 10
81.67502800275883
 20
462.7385716408936
 30
0.0
 11
81.67502800275883
 21
450.2385716408926
 31
0.0
  0
ARC
  5
17DB
330
1E
100
AcDbEntity
  8
HILF
100
AcDbCircle
 10
114.5750280027594
 20
412.9715716408927
 30
0.0
 40
29.0
100
AcDbArc
 50
180.0
 51
206.8877706590074
  0
ARC
  5
17DC
330
1E
100
AcDbEntity
  8
HILF
100
AcDbCircle
 10
81.57502800275938
 20
396.2385716408926
 30
0.0
 40
8.0
100
AcDbArc
 50
0.0000000000032569
 51
26.88777065900746
  0
LINE
  5
17DD
330
1E
100
AcDbEntity
  8
HILF
100
AcDbLine
 10
89.57502800275937
 20
373.7385716408935
 30
0.0
 11
89.57502800275836
 21
396.2385716408929
 31
0.0
  0
LINE
  5
1802
330
1E
100
AcDbEntity
  8
STEMPEL
100
AcDbLine
 10
402.197807658166
 20
448.3725462371018
 30
0.0
 11
402.1978076581665
 21
462.7385716408864
 31
0.0
  0
LINE
  5
1803
330
1E
100
AcDbEntity
  8
MITTEL
100
AcDbLine
 10
336.6978076581663
 20
471.7385716408864
 30
0.0
 11
336.6978076581661
 21
368.7385716408936
 31
0.0
  0
LINE
  5
1804
330
1E
100
AcDbEntity
  8
STEMPEL
100
AcDbLine
 10
337.6978076581663
 20
373.7385716408935
 30
0.0
 11
337.6978076581663
 21
466.7385716408865
 31
0.0
  0
LINE
  5
1805
330
1E
100
AcDbEntity
  8
STEMPEL
100
AcDbLine
 10
395.7978076581665
 20
373.7385716408869
 30
0.0
 11
395.7978076581665
 21
395.2385716408865
 31
0.0
  0
ARC
  5
1806
330
1E
100
AcDbEntity
  8
STEMPEL
100
AcDbCircle
 10
403.7978076581662
 20
395.2385716408864
 30
0.0
 40
8.0
100
AcDbArc
 50
153.1122293409867
 51
180.0
  0
ARC
  5
1807
330
1E
100
AcDbEntity
  8
STEMPEL
100
AcDbCircle
 10
370.7978076581662
 20
411.9715716408865
 30
0.0
 40
29.0
100
AcDbArc
 50
333.1122293409838
 51
0.0
  0
LINE
  5
1808
330
1E
100
AcDbEntity
  8
STEMPEL
100
AcDbLine
 10
399.7978076581664
 20
444.6775045142888
 30
0.0
 11
399.7978076581664
 21
411.9715716408866
 31
0.0
  0
LINE
  5
1809
330
1E
100
AcDbEntity
  8
STEMPEL
100
AcDbLine
 10
400.1978076581667
 20
444.9084446219647
 30
0.0
 11
399.7978076581664
 21
444.6775045142888
 31
0.0
  0
LINE
  5
180F
330
1E
100
AcDbEntity
  8
STEMPEL
100
AcDbLine
 10
398.1978076581668
 20
466.7385716408865
 30
0.0
 11
337.6978076581663
 21
466.7385716408865
 31
0.0
  0
ARC
  5
1812
330
1E
100
AcDbEntity
  8
STEMPEL
100
AcDbCircle
 10
398.1978076581666
 20
462.7385716408864
 30
0.0
 40
4.0
100
AcDbArc
 50
0.0
 51
90.0
  0
ARC
  5
1813
330
1E
100
AcDbEntity
  8
STEMPEL
100
AcDbCircle
 10
398.1978076581661
 20
448.3725462371018
 30
0.0
 40
4.0
100
AcDbArc
 50
300.0000000000078
 51
0.0
  0
LINE
  5
1814
330
1E
100
AcDbEntity
  8
STEMPEL
100
AcDbLine
 10
395.7978076581662
 20
373.7385716408869
 30
0.0
 11
337.6978076581663
 21
373.7385716408935
 31
0.0
  0
ARC
  5
1817
330
1E
100
AcDbEntity
  8
STEMPEL
100
AcDbCircle
 10
60.73704529315313
 20
273.1945535420345
 30
0.0
 40
6.767023128081929
100
AcDbArc
 50
61.66295729178455
 51
118.3370427082337
  0
ARC
  5
1818
330
1E
100
AcDbEntity
  8
STEMPEL
100
AcDbCircle
 10
68.67502800275246
 20
265.7843466701162
 30
0.0
 40
14.17723
100
AcDbArc
 50
70.52782738137292
 51
109.4721726186271
  0
ARC
  5
1819
330
1E
100
AcDbEntity
  8
STEMPEL
100
AcDbCircle
 10
76.61301071235141
 20
273.1945535420323
 30
0.0
 40
6.76702312808409
100
AcDbArc
 50
61.66295729176995
 51
118.3370427082082
  0
LINE
  5
181A
330
1E
100
AcDbEntity
  8
STEMPEL
100
AcDbLine
 10
57.52502800275255
 20
277.6634966701144
 30
0.0
 11
79.82502800275256
 21
277.6634966701136
 31
0.0
  0
LINE
  5
181B
330
1E
100
AcDbEntity
  8
STEMPEL
100
AcDbLine
 10
57.52502800275255
 20
279.1506887774169
 30
0.0
 11
57.52502800275255
 21
277.6634966701167
 31
0.0
  0
LINE
  5
181C
330
1E
100
AcDbEntity
  8
STEMPEL
100
AcDbLine
 10
79.82502800275256
 20
279.1506887774168
 30
0.0
 11
79.82502800275256
 21
277.6634966701167
 31
0.0
  0
LINE
  5
181D
330
1E
100
AcDbEntity
  8
STEMPEL
100
AcDbLine
 10
217.5250280027651
 20
279.1506887774168
 30
0.0
 11
217.5250280027651
 21
277.6634966701167
 31
0.0
  0
LINE
  5
181E
330
1E
100
AcDbEntity
  8
STEMPEL
100
AcDbLine
 10
239.8250280027651
 20
279.1506887774169
 30
0.0
 11
239.8250280027651
 21
277.6634966701167
 31
0.0
  0
LINE
  5
181F
330
1E
100
AcDbEntity
  8
STEMPEL
100
AcDbLine
 10
239.8250280027651
 20
277.6634966701144
 30
0.0
 11
217.5250280027651
 21
277.6634966701136
 31
0.0
  0
ARC
  5
1820
330
1E
100
AcDbEntity
  8
STEMPEL
100
AcDbCircle
 10
220.7370452931662
 20
273.1945535420323
 30
0.0
 40
6.76702312808409
100
AcDbArc
 50
61.66295729179182
 51
118.33704270823
  0
ARC
  5
1821
330
1E
100
AcDbEntity
  8
STEMPEL
100
AcDbCircle
 10
228.6750280027652
 20
265.7843466701162
 30
0.0
 40
14.17723
100
AcDbArc
 50
70.52782738137292
 51
109.4721726186271
  0
ARC
  5
1822
330
1E
100
AcDbEntity
  8
STEMPEL
100
AcDbCircle
 10
236.6130107123645
 20
273.1945535420345
 30
0.0
 40
6.767023128081929
100
AcDbArc
 50
61.66295729176633
 51
118.3370427082155
  0
LINE
  5
1823
330
1E
100
AcDbEntity
  8
STEMPEL
100
AcDbLine
 10
233.5825052908707
 20
458.7385716408935
 30
0.0
 11
223.7675507146471
 21
458.7385716408935
 31
0.0
  0
LINE
  5
1824
330
1E
100
AcDbEntity
  8
STEMPEL
100
AcDbLine
 10
238.4899825789824
 20
450.2385716408935
 30
0.0
 11
233.5825052908707
 21
458.7385716408935
 31
0.0
  0
CIRCLE
  5
1825
330
1E
100
AcDbEntity
  8
STEMPEL
100
AcDbCircle
 10
228.6750280027588
 20
450.2385716408935
 30
0.0
 40
8.5
  0
CIRCLE
  5
1826
330
1E
100
AcDbEntity
  8
STEMPEL
100
AcDbCircle
 10
228.6750280027588
 20
450.2385716408935
 30
0.0
 40
11.0
  0
LINE
  5
1827
330
1E
100
AcDbEntity
  8
STEMPEL
100
AcDbLine
 10
223.7675507146471
 20
458.7385716408935
 30
0.0
 11
218.8600734265352
 21
450.2385716408935
 31
0.0
  0
CIRCLE
  5
1828
330
1E
100
AcDbEntity
  8
STEMPEL
100
AcDbCircle
 10
228.6750280027588
 20
450.2385716408935
 30
0.0
 40
5.0
  0
ARC
  5
1829
330
1E
100
AcDbEntity
  8
HILF
100
AcDbCircle
 10
228.6750280027588
 20
450.2385716408935
 30
0.0
 40
4.0
100
AcDbArc
 50
195.0000000000993
 51
105.0000000000663
  0
LINE
  5
182A
330
1E
100
AcDbEntity
  8
STEMPEL
100
AcDbLine
 10
233.5825052908706
 20
441.7385716408935
 30
0.0
 11
238.4899825789824
 21
450.2385716408935
 31
0.0
  0
LINE
  5
182B
330
1E
100
AcDbEntity
  8
STEMPEL
100
AcDbLine
 10
223.767550714647
 20
441.7385716408935
 30
0.0
 11
233.5825052908706
 21
441.7385716408935
 31
0.0
  0
LINE
  5
182C
330
1E
100
AcDbEntity
  8
STEMPEL
100
AcDbLine
 10
218.8600734265352
 20
450.2385716408935
 30
0.0
 11
223.767550714647
 21
441.7385716408935
 31
0.0
  0
LINE
  5
182D
330
1E
100
AcDbEntity
  8
MITTEL
100
AcDbLine
 10
244.8250280027588
 20
450.2385716409172
 30
0.0
 11
212.5250280027588
 21
450.238571640868
 31
0.0
  0
LINE
  5
182E
330
1E
100
AcDbEntity
  8
MITTEL
100
AcDbLine
 10
228.6750280027399
 20
466.3885716408934
 30
0.0
 11
228.6750280027778
 21
434.0885716408934
 31
0.0
  0
LINE
  5
182F
330
1E
100
AcDbEntity
  8
MITTEL
100
AcDbLine
 10
239.1750280027588
 20
450.2385716408926
 30
0.0
 11
218.1750280027588
 21
450.238571640894
 31
0.0
  0
LINE
  5
1830
330
1E
100
AcDbEntity
  8
MITTEL
100
AcDbLine
 10
228.6750280027588
 20
439.7385716408934
 30
0.0
 11
228.6750280027598
 21
460.7385716408934
 31
0.0
  0
LINE
  5
1831
330
1E
100
AcDbEntity
  8
STEMPEL
100
AcDbLine
 10
226.5825052908707
 20
394.7385716408935
 30
0.0
 11
216.7675507146471
 21
394.7385716408935
 31
0.0
  0
LINE
  5
1832
330
1E
100
AcDbEntity
  8
STEMPEL
100
AcDbLine
 10
231.4899825789825
 20
386.2385716408935
 30
0.0
 11
226.5825052908707
 21
394.7385716408935
 31
0.0
  0
CIRCLE
  5
1833
330
1E
100
AcDbEntity
  8
STEMPEL
100
AcDbCircle
 10
221.6750280027588
 20
386.2385716408935
 30
0.0
 40
8.5
  0
CIRCLE
  5
1834
330
1E
100
AcDbEntity
  8
STEMPEL
100
AcDbCircle
 10
221.6750280027588
 20
386.2385716408935
 30
0.0
 40
11.0
  0
LINE
  5
1835
330
1E
100
AcDbEntity
  8
STEMPEL
100
AcDbLine
 10
216.7675507146471
 20
394.7385716408935
 30
0.0
 11
211.8600734265352
 21
386.2385716408935
 31
0.0
  0
CIRCLE
  5
1836
330
1E
100
AcDbEntity
  8
STEMPEL
100
AcDbCircle
 10
221.6750280027588
 20
386.2385716408935
 30
0.0
 40
5.0
  0
ARC
  5
1837
330
1E
100
AcDbEntity
  8
HILF
100
AcDbCircle
 10
221.6750280027588
 20
386.2385716408935
 30
0.0
 40
4.0
100
AcDbArc
 50
195.0000000000993
 51
105.0000000000663
  0
LINE
  5
1838
330
1E
100
AcDbEntity
  8
STEMPEL
100
AcDbLine
 10
226.5825052908706
 20
377.7385716408935
 30
0.0
 11
231.4899825789825
 21
386.2385716408935
 31
0.0
  0
LINE
  5
1839
330
1E
100
AcDbEntity
  8
STEMPEL
100
AcDbLine
 10
216.767550714647
 20
377.7385716408935
 30
0.0
 11
226.5825052908706
 21
377.7385716408935
 31
0.0
  0
LINE
  5
183A
330
1E
100
AcDbEntity
  8
STEMPEL
100
AcDbLine
 10
211.8600734265352
 20
386.2385716408935
 30
0.0
 11
216.767550714647
 21
377.7385716408935
 31
0.0
  0
LINE
  5
183B
330
1E
100
AcDbEntity
  8
MITTEL
100
AcDbLine
 10
237.8250280027588
 20
386.2385716409173
 30
0.0
 11
205.5250280027589
 21
386.2385716408681
 31
0.0
  0
LINE
  5
183C
330
1E
100
AcDbEntity
  8
MITTEL
100
AcDbLine
 10
221.67502800274
 20
402.3885716408935
 30
0.0
 11
221.6750280027778
 21
370.0885716408936
 31
0.0
  0
LINE
  5
183D
330
1E
100
AcDbEntity
  8
MITTEL
100
AcDbLine
 10
232.1750280027588
 20
386.2385716408927
 30
0.0
 11
211.1750280027588
 21
386.2385716408941
 31
0.0
  0
LINE
  5
183E
330
1E
100
AcDbEntity
  8
MITTEL
100
AcDbLine
 10
221.6750280027588
 20
375.7385716408935
 30
0.0
 11
221.6750280027597
 21
396.7385716408935
 31
0.0
  0
LINE
  5
183F
330
1E
100
AcDbEntity
  8
STEMPEL
100
AcDbLine
 10
73.5825052908707
 20
458.7385716408935
 30
0.0
 11
63.76755071464708
 21
458.7385716408935
 31
0.0
  0
LINE
  5
1840
330
1E
100
AcDbEntity
  8
STEMPEL
100
AcDbLine
 10
78.48998257898244
 20
450.2385716408935
 30
0.0
 11
73.5825052908707
 21
458.7385716408935
 31
0.0
  0
CIRCLE
  5
1841
330
1E
100
AcDbEntity
  8
STEMPEL
100
AcDbCircle
 10
68.67502800275883
 20
450.2385716408935
 30
0.0
 40
8.5
  0
CIRCLE
  5
1842
330
1E
100
AcDbEntity
  8
STEMPEL
100
AcDbCircle
 10
68.67502800275883
 20
450.2385716408935
 30
0.0
 40
11.0
  0
LINE
  5
1843
330
1E
100
AcDbEntity
  8
STEMPEL
100
AcDbLine
 10
63.76755071464708
 20
458.7385716408935
 30
0.0
 11
58.86007342653522
 21
450.2385716408935
 31
0.0
  0
CIRCLE
  5
1844
330
1E
100
AcDbEntity
  8
STEMPEL
100
AcDbCircle
 10
68.67502800275883
 20
450.2385716408935
 30
0.0
 40
5.0
  0
ARC
  5
1845
330
1E
100
AcDbEntity
  8
HILF
100
AcDbCircle
 10
68.67502800275883
 20
450.2385716408935
 30
0.0
 40
4.0
100
AcDbArc
 50
195.0000000000993
 51
105.0000000000663
  0
LINE
  5
1846
330
1E
100
AcDbEntity
  8
STEMPEL
100
AcDbLine
 10
73.58250529087058
 20
441.7385716408935
 30
0.0
 11
78.48998257898244
 21
450.2385716408935
 31
0.0
  0
LINE
  5
1847
330
1E
100
AcDbEntity
  8
STEMPEL
100
AcDbLine
 10
63.76755071464697
 20
441.7385716408935
 30
0.0
 11
73.58250529087058
 21
441.7385716408935
 31
0.0
  0
LINE
  5
1848
330
1E
100
AcDbEntity
  8
STEMPEL
100
AcDbLine
 10
58.86007342653522
 20
450.2385716408935
 30
0.0
 11
63.76755071464697
 21
441.7385716408935
 31
0.0
  0
LINE
  5
1849
330
1E
100
AcDbEntity
  8
MITTEL
100
AcDbLine
 10
84.82502800275881
 20
450.2385716409172
 30
0.0
 11
52.52502800275886
 21
450.238571640868
 31
0.0
  0
LINE
  5
184A
330
1E
100
AcDbEntity
  8
MITTEL
100
AcDbLine
 10
68.67502800273996
 20
466.3885716408934
 30
0.0
 11
68.67502800277782
 21
434.0885716408934
 31
0.0
  0
LINE
  5
184B
330
1E
100
AcDbEntity
  8
MITTEL
100
AcDbLine
 10
79.17502800275883
 20
450.2385716408926
 30
0.0
 11
58.17502800275883
 21
450.238571640894
 31
0.0
  0
LINE
  5
184C
330
1E
100
AcDbEntity
  8
MITTEL
100
AcDbLine
 10
68.67502800275883
 20
439.7385716408934
 30
0.0
 11
68.67502800275975
 21
460.7385716408934
 31
0.0
  0
LINE
  5
184D
330
1E
100
AcDbEntity
  8
STEMPEL
100
AcDbLine
 10
80.5825052908707
 20
394.7385716408935
 30
0.0
 11
70.76755071464709
 21
394.7385716408935
 31
0.0
  0
LINE
  5
184E
330
1E
100
AcDbEntity
  8
STEMPEL
100
AcDbLine
 10
85.48998257898245
 20
386.2385716408935
 30
0.0
 11
80.5825052908707
 21
394.7385716408935
 31
0.0
  0
CIRCLE
  5
184F
330
1E
100
AcDbEntity
  8
STEMPEL
100
AcDbCircle
 10
75.67502800275883
 20
386.2385716408935
 30
0.0
 40
8.5
  0
CIRCLE
  5
1850
330
1E
100
AcDbEntity
  8
STEMPEL
100
AcDbCircle
 10
75.67502800275883
 20
386.2385716408935
 30
0.0
 40
11.0
  0
LINE
  5
1851
330
1E
100
AcDbEntity
  8
STEMPEL
100
AcDbLine
 10
70.76755071464709
 20
394.7385716408935
 30
0.0
 11
65.86007342653522
 21
386.2385716408935
 31
0.0
  0
CIRCLE
  5
1852
330
1E
100
AcDbEntity
  8
STEMPEL
100
AcDbCircle
 10
75.67502800275883
 20
386.2385716408935
 30
0.0
 40
5.0
  0
ARC
  5
1853
330
1E
100
AcDbEntity
  8
HILF
100
AcDbCircle
 10
75.67502800275883
 20
386.2385716408935
 30
0.0
 40
4.0
100
AcDbArc
 50
195.0000000000993
 51
105.0000000000663
  0
LINE
  5
1854
330
1E
100
AcDbEntity
  8
STEMPEL
100
AcDbLine
 10
80.58250529087059
 20
377.7385716408935
 30
0.0
 11
85.48998257898245
 21
386.2385716408935
 31
0.0
  0
LINE
  5
1855
330
1E
100
AcDbEntity
  8
STEMPEL
100
AcDbLine
 10
70.76755071464697
 20
377.7385716408935
 30
0.0
 11
80.58250529087059
 21
377.7385716408935
 31
0.0
  0
LINE
  5
1856
330
1E
100
AcDbEntity
  8
STEMPEL
100
AcDbLine
 10
65.86007342653522
 20
386.2385716408935
 30
0.0
 11
70.76755071464697
 21
377.7385716408935
 31
0.0
  0
LINE
  5
1857
330
1E
100
AcDbEntity
  8
MITTEL
100
AcDbLine
 10
91.82502800275882
 20
386.2385716409173
 30
0.0
 11
59.52502800275886
 21
386.2385716408681
 31
0.0
  0
LINE
  5
1858
330
1E
100
AcDbEntity
  8
MITTEL
100
AcDbLine
 10
75.67502800273996
 20
402.3885716408935
 30
0.0
 11
75.67502800277782
 21
370.0885716408936
 31
0.0
  0
LINE
  5
1859
330
1E
100
AcDbEntity
  8
MITTEL
100
AcDbLine
 10
86.17502800275884
 20
386.2385716408927
 30
0.0
 11
65.17502800275884
 21
386.2385716408941
 31
0.0
  0
LINE
  5
185A
330
1E
100
AcDbEntity
  8
MITTEL
100
AcDbLine
 10
75.67502800275883
 20
375.7385716408935
 30
0.0
 11
75.67502800275974
 21
396.7385716408935
 31
0.0
  0
LINE
  5
185E
330
1E
100
AcDbEntity
  8
STEMPEL
100
AcDbLine
 10
277.5978076581661
 20
373.7385716408872
 30
0.0
 11
335.697807658166
 21
373.7385716408935
 31
0.0
  0
ARC
  5
185F
330
1E
100
AcDbEntity
  8
STEMPEL
100
AcDbCircle
 10
275.1978076581664
 20
448.3725462371021
 30
0.0
 40
4.0
100
AcDbArc
 50
179.9999999999997
 51
239.999999999992
  0
ARC
  5
1860
330
1E
100
AcDbEntity
  8
STEMPEL
100
AcDbCircle
 10
275.1978076581661
 20
462.7385716408867
 30
0.0
 40
4.0
100
AcDbArc
 50
89.99999999999976
 51
179.9999999999997
  0
LINE
  5
1861
330
1E
100
AcDbEntity
  8
STEMPEL
100
AcDbLine
 10
275.1978076581659
 20
466.7385716408867
 30
0.0
 11
335.6978076581662
 21
466.7385716408865
 31
0.0
  0
LINE
  5
1862
330
1E
100
AcDbEntity
  8
STEMPEL
100
AcDbLine
 10
273.1978076581658
 20
444.9084446219649
 30
0.0
 11
273.5978076581661
 21
444.677504514289
 31
0.0
  0
LINE
  5
1863
330
1E
100
AcDbEntity
  8
STEMPEL
100
AcDbLine
 10
273.5978076581661
 20
444.677504514289
 30
0.0
 11
273.5978076581659
 21
411.9715716408869
 31
0.0
  0
ARC
  5
1864
330
1E
100
AcDbEntity
  8
STEMPEL
100
AcDbCircle
 10
302.5978076581662
 20
411.9715716408867
 30
0.0
 40
29.0
100
AcDbArc
 50
179.9999999999997
 51
206.887770659016
  0
ARC
  5
1865
330
1E
100
AcDbEntity
  8
STEMPEL
100
AcDbCircle
 10
269.5978076581661
 20
395.2385716408867
 30
0.0
 40
8.0
100
AcDbArc
 50
359.9999999999997
 51
26.88777065901302
  0
LINE
  5
1866
330
1E
100
AcDbEntity
  8
STEMPEL
100
AcDbLine
 10
277.5978076581658
 20
373.7385716408872
 30
0.0
 11
277.5978076581658
 21
395.2385716408867
 31
0.0
  0
LINE
  5
1867
330
1E
100
AcDbEntity
  8
STEMPEL
100
AcDbLine
 10
335.697807658166
 20
373.7385716408935
 30
0.0
 11
335.6978076581662
 21
466.7385716408865
 31
0.0
  0
LINE
  5
1868
330
1E
100
AcDbEntity
  8
STEMPEL
100
AcDbLine
 10
271.1978076581664
 20
448.3725462371021
 30
0.0
 11
271.1978076581661
 21
462.7385716408867
 31
0.0
  0
LINE
  5
1869
330
1E
100
AcDbEntity
  8
STEMPEL
100
AcDbLine
 10
341.6978076581663
 20
373.7385716408935
 30
0.0
 11
341.6978076581663
 21
466.7385716408865
 31
0.0
  0
LINE
  5
186A
330
1E
100
AcDbEntity
  8
STEMPEL
100
AcDbLine
 10
331.697807658166
 20
373.7385716408935
 30
0.0
 11
331.6978076581662
 21
466.7385716408865
 31
0.0
  0
ARC
  5
186D
330
1E
100
AcDbEntity
  8
STEMPEL
100
AcDbCircle
 10
334.040734456781
 20
381.9885716409054
 30
0.0
 40
11.54292679861526
100
AcDbArc
 50
158.3959146485019
 51
201.6040853514982
  0
ARC
  5
186E
330
1E
100
AcDbEntity
  8
STEMPEL
100
AcDbCircle
 10
334.0407344566571
 20
390.4885716409054
 30
0.0
 40
11.54292679849139
100
AcDbArc
 50
158.3959146483848
 51
201.6040853516153
  0
ARC
  5
186F
330
1E
100
AcDbEntity
  8
STEMPEL
100
AcDbCircle
 10
360.1517264439427
 20
381.9885716409111
 30
0.0
 40
31.25199878577668
100
AcDbArc
 50
172.1840540327338
 51
187.8159459672874
  0
ARC
  5
1870
330
1E
100
AcDbEntity
  8
STEMPEL
100
AcDbCircle
 10
360.1517264437731
 20
390.4885716409116
 30
0.0
 40
31.25199878560711
100
AcDbArc
 50
172.1840540327356
 51
187.8159459672872
  0
ARC
  5
1871
330
1E
100
AcDbEntity
  8
STEMPEL
100
AcDbCircle
 10
453.4722276581657
 20
386.2385716409172
 30
0.0
 40
124.5724999999997
100
AcDbArc
 50
183.9125234367685
 51
185.1351946583749
  0
LINE
  5
1872
330
1E
100
AcDbEntity
  8
STEMPEL
100
AcDbLine
 10
323.3086955508653
 20
386.2385716409172
 30
0.0
 11
329.1900577533482
 21
386.2385716409172
 31
0.0
  0
LINE
  5
1873
330
1E
100
AcDbEntity
  8
STEMPEL
100
AcDbLine
 10
322.4978076581657
 20
377.7385716408935
 30
0.0
 11
329.1900577533498
 21
377.7385716408935
 31
0.0
  0
LINE
  5
1874
330
1E
100
AcDbEntity
  8
STEMPEL
100
AcDbLine
 10
322.4978076581657
 20
394.7385716408935
 30
0.0
 11
329.1900577533464
 21
394.7385716408935
 31
0.0
  0
LINE
  5
1875
330
1E
100
AcDbEntity
  8
STEMPEL
100
AcDbLine
 10
322.4978076581657
 20
377.7385716408935
 30
0.0
 11
322.4978076581657
 21
394.7385716408935
 31
0.0
  0
LINE
  5
1876
330
1E
100
AcDbEntity
  8
STEMPEL
100
AcDbLine
 10
329.3997276581659
 20
375.0885716409172
 30
0.0
 11
331.6978076581658
 21
375.0885716409172
 31
0.0
  0
LINE
  5
1877
330
1E
100
AcDbEntity
  8
STEMPEL
100
AcDbLine
 10
329.3997276581659
 20
397.3885716409172
 30
0.0
 11
331.6978076581658
 21
397.3885716409172
 31
0.0
  0
ARC
  5
1878
330
1E
100
AcDbEntity
  8
STEMPEL
100
AcDbCircle
 10
453.4722276581657
 20
386.2385716409172
 30
0.0
 40
124.5724999999997
100
AcDbArc
 50
174.8648053416251
 51
176.0874765632533
  0
LINE
  5
1879
330
1E
100
AcDbEntity
  8
MITTEL
100
AcDbLine
 10
317.4978076581655
 20
386.2385716409173
 30
0.0
 11
366.697807658166
 21
386.2385716409172
 31
0.0
  0
LINE
  5
187A
330
1E
100
AcDbEntity
  8
HILF
100
AcDbLine
 10
335.6978076581661
 20
389.738571640911
 30
0.0
 11
337.6978076581663
 21
389.7385716409109
 31
0.0
  0
LINE
  5
187B
330
1E
100
AcDbEntity
  8
STEMPEL
100
AcDbLine
 10
335.697807658166
 20
391.2385716409109
 30
0.0
 11
337.6978076581664
 21
391.2385716409109
 31
0.0
  0
LINE
  5
187C
330
1E
100
AcDbEntity
  8
HILF
100
AcDbLine
 10
335.6978076581659
 20
382.738571640911
 30
0.0
 11
337.6978076581663
 21
382.738571640911
 31
0.0
  0
LINE
  5
187D
330
1E
100
AcDbEntity
  8
STEMPEL
100
AcDbLine
 10
335.697807658166
 20
381.2385716409109
 30
0.0
 11
337.6978076581664
 21
381.238571640911
 31
0.0
  0
LINE
  5
187E
330
1E
100
AcDbEntity
  8
STEMPEL
100
AcDbLine
 10
361.6978076581661
 20
382.7385716409109
 30
0.0
 11
360.1978076581661
 21
381.238571640911
 31
0.0
  0
LINE
  5
187F
330
1E
100
AcDbEntity
  8
STEMPEL
100
AcDbLine
 10
360.1978076581661
 20
391.2385716409109
 30
0.0
 11
360.1978076581661
 21
381.238571640911
 31
0.0
  0
LINE
  5
1880
330
1E
100
AcDbEntity
  8
STEMPEL
100
AcDbLine
 10
360.1978076581661
 20
391.2385716409109
 30
0.0
 11
361.6978076581661
 21
389.738571640911
 31
0.0
  0
LINE
  5
1881
330
1E
100
AcDbEntity
  8
STEMPEL
100
AcDbLine
 10
361.6978076581661
 20
389.738571640911
 30
0.0
 11
361.6978076581661
 21
382.7385716409109
 31
0.0
  0
ARC
  5
1882
330
1E
100
AcDbEntity
  8
STEMPEL
100
AcDbCircle
 10
219.9233876581666
 20
386.2385716409204
 30
0.0
 40
124.5724999999997
100
AcDbArc
 50
3.912523436745187
 51
5.13519465837339
  0
LINE
  5
1883
330
1E
100
AcDbEntity
  8
STEMPEL
100
AcDbLine
 10
343.9958876581663
 20
397.3885716409171
 30
0.0
 11
341.6978076581667
 21
397.3885716409171
 31
0.0
  0
LINE
  5
1884
330
1E
100
AcDbEntity
  8
STEMPEL
100
AcDbLine
 10
343.9958876581659
 20
375.088571640917
 30
0.0
 11
341.6978076581661
 21
375.0885716409171
 31
0.0
  0
LINE
  5
1885
330
1E
100
AcDbEntity
  8
STEMPEL
100
AcDbLine
 10
351.7038296116375
 20
377.7385716408932
 30
0.0
 11
351.703829611638
 21
394.7385716408931
 31
0.0
  0
LINE
  5
1886
330
1E
100
AcDbEntity
  8
STEMPEL
100
AcDbLine
 10
351.703829611638
 20
394.7385716408931
 30
0.0
 11
344.2055575629859
 21
394.7385716408934
 31
0.0
  0
LINE
  5
1887
330
1E
100
AcDbEntity
  8
STEMPEL
100
AcDbLine
 10
351.7038296116375
 20
377.7385716408932
 30
0.0
 11
344.2055575629822
 21
377.7385716408935
 31
0.0
  0
LINE
  5
1888
330
1E
100
AcDbEntity
  8
STEMPEL
100
AcDbLine
 10
350.8929417189384
 20
386.2385716409169
 30
0.0
 11
344.205557562984
 21
386.2385716409171
 31
0.0
  0
ARC
  5
1889
330
1E
100
AcDbEntity
  8
STEMPEL
100
AcDbCircle
 10
219.9233876581666
 20
386.2385716409204
 30
0.0
 40
124.5724999999997
100
AcDbArc
 50
354.8648053416235
 51
356.08747656323
  0
ARC
  5
188A
330
1E
100
AcDbEntity
  8
STEMPEL
100
AcDbCircle
 10
313.2438888725592
 20
390.4885716409123
 30
0.0
 40
31.25199878560711
100
AcDbArc
 50
352.1840540327113
 51
7.815945967262834
  0
ARC
  5
188B
330
1E
100
AcDbEntity
  8
STEMPEL
100
AcDbCircle
 10
313.2438888723893
 20
381.9885716409118
 30
0.0
 40
31.25199878577668
100
AcDbArc
 50
352.1840540327111
 51
7.81594596726464
  0
ARC
  5
188C
330
1E
100
AcDbEntity
  8
STEMPEL
100
AcDbCircle
 10
340.1609028131466
 20
390.4885716409054
 30
0.0
 40
11.54292679849139
100
AcDbArc
 50
338.3959146483832
 51
21.60408535161371
  0
ARC
  5
188D
330
1E
100
AcDbEntity
  8
STEMPEL
100
AcDbCircle
 10
340.1609028130224
 20
381.9885716409054
 30
0.0
 40
11.54292679861526
100
AcDbArc
 50
338.3959146485003
 51
21.60408535149652
  0
ARC
  5
188F
330
1E
100
AcDbEntity
  8
STEMPEL
100
AcDbCircle
 10
340.1609028130224
 20
445.9885716409053
 30
0.0
 40
11.54292679861526
100
AcDbArc
 50
338.3959146485003
 51
21.60408535149652
  0
ARC
  5
1890
330
1E
100
AcDbEntity
  8
STEMPEL
100
AcDbCircle
 10
340.1609028131466
 20
454.4885716409053
 30
0.0
 40
11.54292679849139
100
AcDbArc
 50
338.3959146483832
 51
21.60408535161371
  0
ARC
  5
1891
330
1E
100
AcDbEntity
  8
STEMPEL
100
AcDbCircle
 10
313.2438888723893
 20
445.9885716409117
 30
0.0
 40
31.25199878577668
100
AcDbArc
 50
352.1840540327111
 51
7.81594596726464
  0
ARC
  5
1892
330
1E
100
AcDbEntity
  8
STEMPEL
100
AcDbCircle
 10
313.2438888725592
 20
454.4885716409122
 30
0.0
 40
31.25199878560711
100
AcDbArc
 50
352.1840540327113
 51
7.815945967262834
  0
ARC
  5
1893
330
1E
100
AcDbEntity
  8
STEMPEL
100
AcDbCircle
 10
219.9233876581666
 20
450.2385716409203
 30
0.0
 40
124.5724999999997
100
AcDbArc
 50
354.8648053416235
 51
356.08747656323
  0
LINE
  5
1894
330
1E
100
AcDbEntity
  8
STEMPEL
100
AcDbLine
 10
350.8929417189384
 20
450.2385716409168
 30
0.0
 11
344.205557562984
 21
450.238571640917
 31
0.0
  0
LINE
  5
1895
330
1E
100
AcDbEntity
  8
STEMPEL
100
AcDbLine
 10
351.7038296116375
 20
441.7385716408931
 30
0.0
 11
344.2055575629822
 21
441.7385716408934
 31
0.0
  0
LINE
  5
1896
330
1E
100
AcDbEntity
  8
STEMPEL
100
AcDbLine
 10
351.703829611638
 20
458.738571640893
 30
0.0
 11
344.2055575629859
 21
458.7385716408934
 31
0.0
  0
LINE
  5
1897
330
1E
100
AcDbEntity
  8
STEMPEL
100
AcDbLine
 10
351.7038296116375
 20
441.7385716408931
 30
0.0
 11
351.703829611638
 21
458.738571640893
 31
0.0
  0
LINE
  5
1898
330
1E
100
AcDbEntity
  8
STEMPEL
100
AcDbLine
 10
343.9958876581659
 20
439.088571640917
 30
0.0
 11
341.6978076581661
 21
439.0885716409171
 31
0.0
  0
LINE
  5
1899
330
1E
100
AcDbEntity
  8
STEMPEL
100
AcDbLine
 10
343.9958876581663
 20
461.388571640917
 30
0.0
 11
341.6978076581667
 21
461.388571640917
 31
0.0
  0
ARC
  5
189A
330
1E
100
AcDbEntity
  8
STEMPEL
100
AcDbCircle
 10
219.9233876581666
 20
450.2385716409203
 30
0.0
 40
124.5724999999997
100
AcDbArc
 50
3.912523436745187
 51
5.13519465837339
  0
LINE
  5
189B
330
1E
100
AcDbEntity
  8
STEMPEL
100
AcDbLine
 10
361.6978076581661
 20
453.7385716409109
 30
0.0
 11
361.6978076581661
 21
446.7385716409109
 31
0.0
  0
LINE
  5
189C
330
1E
100
AcDbEntity
  8
STEMPEL
100
AcDbLine
 10
360.1978076581661
 20
455.2385716409109
 30
0.0
 11
361.6978076581661
 21
453.7385716409109
 31
0.0
  0
LINE
  5
189D
330
1E
100
AcDbEntity
  8
STEMPEL
100
AcDbLine
 10
360.1978076581661
 20
455.2385716409109
 30
0.0
 11
360.1978076581661
 21
445.2385716409109
 31
0.0
  0
LINE
  5
189E
330
1E
100
AcDbEntity
  8
STEMPEL
100
AcDbLine
 10
361.6978076581661
 20
446.7385716409109
 30
0.0
 11
360.1978076581661
 21
445.2385716409109
 31
0.0
  0
LINE
  5
189F
330
1E
100
AcDbEntity
  8
STEMPEL
100
AcDbLine
 10
335.6978076581661
 20
445.2385716409108
 30
0.0
 11
337.6978076581663
 21
445.2385716409109
 31
0.0
  0
LINE
  5
18A0
330
1E
100
AcDbEntity
  8
HILF
100
AcDbLine
 10
335.6978076581662
 20
446.7385716409109
 30
0.0
 11
337.6978076581662
 21
446.7385716409108
 31
0.0
  0
LINE
  5
18A1
330
1E
100
AcDbEntity
  8
STEMPEL
100
AcDbLine
 10
335.6978076581662
 20
455.2385716409108
 30
0.0
 11
337.6978076581663
 21
455.2385716409108
 31
0.0
  0
LINE
  5
18A2
330
1E
100
AcDbEntity
  8
HILF
100
AcDbLine
 10
335.6978076581662
 20
453.7385716409109
 30
0.0
 11
337.6978076581662
 21
453.7385716409108
 31
0.0
  0
LINE
  5
18A3
330
1E
100
AcDbEntity
  8
MITTEL
100
AcDbLine
 10
317.4978076581655
 20
450.2385716409172
 30
0.0
 11
366.697807658166
 21
450.2385716409171
 31
0.0
  0
ARC
  5
18A4
330
1E
100
AcDbEntity
  8
STEMPEL
100
AcDbCircle
 10
453.4722276581657
 20
450.2385716409171
 30
0.0
 40
124.5724999999997
100
AcDbArc
 50
174.8648053416251
 51
176.0874765632533
  0
LINE
  5
18A5
330
1E
100
AcDbEntity
  8
STEMPEL
100
AcDbLine
 10
329.3997276581659
 20
461.3885716409171
 30
0.0
 11
331.6978076581658
 21
461.388571640917
 31
0.0
  0
LINE
  5
18A6
330
1E
100
AcDbEntity
  8
STEMPEL
100
AcDbLine
 10
329.3997276581659
 20
439.0885716409171
 30
0.0
 11
331.6978076581658
 21
439.0885716409171
 31
0.0
  0
LINE
  5
18A7
330
1E
100
AcDbEntity
  8
STEMPEL
100
AcDbLine
 10
322.4978076581657
 20
441.7385716408935
 30
0.0
 11
322.4978076581657
 21
458.7385716408934
 31
0.0
  0
LINE
  5
18A8
330
1E
100
AcDbEntity
  8
STEMPEL
100
AcDbLine
 10
322.4978076581657
 20
458.7385716408934
 30
0.0
 11
329.1900577533464
 21
458.7385716408935
 31
0.0
  0
LINE
  5
18A9
330
1E
100
AcDbEntity
  8
STEMPEL
100
AcDbLine
 10
322.4978076581657
 20
441.7385716408935
 30
0.0
 11
329.1900577533498
 21
441.7385716408935
 31
0.0
  0
LINE
  5
18AA
330
1E
100
AcDbEntity
  8
STEMPEL
100
AcDbLine
 10
323.3086955508653
 20
450.2385716409171
 30
0.0
 11
329.1900577533482
 21
450.2385716409171
 31
0.0
  0
ARC
  5
18AB
330
1E
100
AcDbEntity
  8
STEMPEL
100
AcDbCircle
 10
453.4722276581657
 20
450.2385716409171
 30
0.0
 40
124.5724999999997
100
AcDbArc
 50
183.9125234367685
 51
185.1351946583749
  0
ARC
  5
18AC
330
1E
100
AcDbEntity
  8
STEMPEL
100
AcDbCircle
 10
360.1517264437731
 20
454.4885716409114
 30
0.0
 40
31.25199878560711
100
AcDbArc
 50
172.1840540327356
 51
187.8159459672872
  0
ARC
  5
18AD
330
1E
100
AcDbEntity
  8
STEMPEL
100
AcDbCircle
 10
360.1517264439427
 20
445.988571640911
 30
0.0
 40
31.25199878577668
100
AcDbArc
 50
172.1840540327338
 51
187.8159459672874
  0
ARC
  5
18AE
330
1E
100
AcDbEntity
  8
STEMPEL
100
AcDbCircle
 10
334.0407344566571
 20
454.4885716409053
 30
0.0
 40
11.54292679849139
100
AcDbArc
 50
158.3959146483848
 51
201.6040853516153
  0
ARC
  5
18AF
330
1E
100
AcDbEntity
  8
STEMPEL
100
AcDbCircle
 10
334.040734456781
 20
445.9885716409053
 30
0.0
 40
11.54292679861526
100
AcDbArc
 50
158.3959146485019
 51
201.6040853514982
  0
LINE
  5
18B0
330
1E
100
AcDbEntity
  8
HILF
100
AcDbLine
 10
351.7038296116378
 20
453.7385716409109
 30
0.0
 11
361.6978076581661
 21
453.7385716409109
 31
0.0
  0
LINE
  5
18B1
330
1E
100
AcDbEntity
  8
STEMPEL
100
AcDbLine
 10
351.7038296116378
 20
455.2385716409108
 30
0.0
 11
360.1978076581661
 21
455.2385716409109
 31
0.0
  0
LINE
  5
18B2
330
1E
100
AcDbEntity
  8
HILF
100
AcDbLine
 10
351.7038296116377
 20
446.7385716409109
 30
0.0
 11
361.6978076581661
 21
446.7385716409109
 31
0.0
  0
LINE
  5
18B3
330
1E
100
AcDbEntity
  8
STEMPEL
100
AcDbLine
 10
351.7038296116376
 20
445.2385716409109
 30
0.0
 11
360.1978076581661
 21
445.2385716409109
 31
0.0
  0
LINE
  5
18B4
330
1E
100
AcDbEntity
  8
STEMPEL
100
AcDbLine
 10
351.7038296116381
 20
391.2385716409111
 30
0.0
 11
360.1978076581661
 21
391.2385716409109
 31
0.0
  0
LINE
  5
18B5
330
1E
100
AcDbEntity
  8
HILF
100
AcDbLine
 10
351.7038296116378
 20
389.7385716409109
 30
0.0
 11
361.6978076581661
 21
389.738571640911
 31
0.0
  0
LINE
  5
18B6
330
1E
100
AcDbEntity
  8
HILF
100
AcDbLine
 10
351.7038296116377
 20
382.7385716409109
 30
0.0
 11
361.6978076581661
 21
382.7385716409109
 31
0.0
  0
LINE
  5
18B7
330
1E
100
AcDbEntity
  8
STEMPEL
100
AcDbLine
 10
351.7038296116377
 20
381.238571640911
 30
0.0
 11
360.1978076581661
 21
381.238571640911
 31
0.0
  0
LINE
  5
18B8
330
1E
100
AcDbEntity
  8
STEMPEL
100
AcDbLine
 10
399.7978076581664
 20
444.6775045142888
 30
0.0
 11
351.7038296116375
 21
444.7652361767583
 31
0.0
  0
LINE
  5
18BA
330
1E
100
AcDbEntity
  8
STEMPEL
100
AcDbLine
 10
322.4978076581656
 20
444.8185129686597
 30
0.0
 11
273.1978076581658
 21
444.9084446219649
 31
0.0
  0
LINE
  5
18BD
330
1E
100
AcDbEntity
  8
HILF
100
AcDbLine
 10
210.2963384086561
 20
444.9084446219649
 30
0.0
 11
87.05371759686148
 21
444.908444621965
 31
0.0
  0
LINE
  5
18C4
330
1E
100
AcDbEntity
  8
HILF
100
AcDbLine
 10
400.6978076581665
 20
462.7385716408864
 30
0.0
 11
341.6978076581664
 21
462.7385716408866
 31
0.0
  0
LINE
  5
18C5
330
1E
100
AcDbEntity
  8
HILF
100
AcDbLine
 10
400.6978076581661
 20
448.3725462371018
 30
0.0
 11
361.6978076581661
 21
448.3725462371019
 31
0.0
  0
LINE
  5
18C7
330
1E
100
AcDbEntity
  8
HILF
100
AcDbLine
 10
331.6978076581663
 20
462.7385716408866
 30
0.0
 11
272.6978076581661
 21
462.7385716408867
 31
0.0
  0
LINE
  5
18C8
330
1E
100
AcDbEntity
  8
HILF
100
AcDbLine
 10
322.4978076581657
 20
448.3725462371019
 30
0.0
 11
272.6978076581664
 21
448.3725462371021
 31
0.0
  0
LINE
  5
18C9
330
1E
100
AcDbEntity
  8
HILF
100
AcDbLine
 10
394.5170229615336
 20
397.0985150552534
 30
0.0
 11
278.9139554937982
 21
397.0985150552534
 31
0.0
  0
LINE
  5
18CA
330
1E
100
AcDbEntity
  8
HILF
100
AcDbLine
 10
397.5031521834594
 20
405.2292767638055
 30
0.0
 11
275.9371351274425
 21
405.2292767638056
 31
0.0
  0
LINE
  5
18CD
330
1E
100
AcDbEntity
  8
HILF
100
AcDbLine
 10
209.4803725280522
 20
405.2292767638055
 30
0.0
 11
87.91435547203525
 21
405.2292767638055
 31
0.0
  0
LINE
  5
18CE
330
1E
100
AcDbEntity
  8
HILF
100
AcDbLine
 10
206.4942433061264
 20
397.0985150552533
 30
0.0
 11
90.89117583839096
 21
397.0985150552533
 31
0.0
  0
DIMENSION
  5
18CF
330
1E
100
AcDbEntity
  8
BEM
100
AcDbDimension
  2
*D1
 10
243.6750280027606
 20
355.8978388350849
 30
0.0
 11
148.6750280027593
 21
362.3978388350849
 31
0.0
 70
    32
 71
     5
 42
190.0000000000027
  3
Standard
100
AcDbAlignedDimension
 13
53.67502800275793
 23
378.7385716408935
 33
0.0
 14
243.6750280027606
 24
378.7385716408935
 34
0.0
100
AcDbRotatedDimension
1001
ACAD
1000
DSTYLE
1002
{
1070
    40
1040
2.0
1070
    41
1040
3.5
1070
    42
1040
1.0
1070
    43
1040
7.0
1070
    44
1040
1.0
1070
    73
1070
     0
1070
    74
1070
     0
1070
    77
1070
     1
1070
    78
1070
     8
1070
    79
1070
     2
1070
   140
1040
3.5
1070
   141
1040
1.5
1070
   146
1040
0.5
1070
   147
1040
1.5
1070
   172
1070
     1
1070
   178
1070
     1
1070
   179
1070
     2
1070
   271
1070
     2
1070
   272
1070
     2
1070
   284
1070
     8
1070
   285
1070
     8
1070
   286
1070
     8
1002
}
  0
DIMENSION
  5
18DC
330
1E
100
AcDbEntity
  8
BEM
100
AcDbDimension
  2
*D2
 10
257.334068438254
 20
462.7385716408935
 30
0.0
 11
250.8340684382539
 21
418.2385716408935
 31
0.0
 70
    32
 71
     5
 42
89.0
  3
Standard
100
AcDbAlignedDimension
 13
238.6750280027607
 23
373.7385716408935
 33
0.0
 14
238.6750280027579
 24
462.7385716408935
 34
0.0
 50
90.0
100
AcDbRotatedDimension
1001
ACAD
1000
DSTYLE
1002
{
1070
    40
1040
2.0
1070
    41
1040
3.5
1070
    42
1040
1.0
1070
    43
1040
7.0
1070
    44
1040
1.0
1070
    73
1070
     0
1070
    74
1070
     0
1070
    77
1070
     1
1070
    78
1070
     8
1070
    79
1070
     2
1070
   140
1040
3.5
1070
   141
1040
1.5
1070
   146
1040
0.5
1070
   147
1040
1.5
1070
   172
1070
     1
1070
   178
1070
     1
1070
   179
1070
     2
1070
   271
1070
     2
1070
   272
1070
     2
1070
   284
1070
     8
1070
   285
1070
     8
1070
   286
1070
     8
1002
}
  0
DIMENSION
  5
190D
330
1E
100
AcDbEntity
  8
BEM
100
AcDbDimension
  2
*D3
 10
402.1978076581665
 20
476.7373270581199
 30
0.0
 11
336.6978076581663
 21
483.2373270581199
 31
0.0
 70
    32
  1
%%c<>
 71
     5
 42
131.0000000000004
  3
Standard
100
AcDbAlignedDimension
 13
271.1978076581661
 23
462.7385716408867
 33
0.0
 14
402.1978076581665
 24
462.7385716408864
 34
0.0
100
AcDbRotatedDimension
1001
ACAD
1000
DSTYLE
1002
{
1070
    40
1040
2.0
1070
    41
1040
3.5
1070
    42
1040
1.0
1070
    43
1040
7.0
1070
    44
1040
1.0
1070
    73
1070
     0
1070
    74
1070
     0
1070
    77
1070
     1
1070
    78
1070
     8
1070
    79
1070
     2
1070
   140
1040
3.5
1070
   141
1040
1.5
1070
   146
1040
0.5
1070
   147
1040
1.5
1070
   172
1070
     1
1070
   178
1070
     1
1070
   179
1070
     2
1070
   271
1070
     2
1070
   272
1070
     2
1070
   284
1070
     8
1070
   285
1070
     8
1070
   286
1070
     8
1002
}
  0
DIMENSION
  5
191A
330
1E
100
AcDbEntity
  8
BEM
100
AcDbDimension
  2
*D4
 10
395.7978076581662
 20
354.6904777353386
 30
0.0
 11
336.697807658166
 21
361.1904777353386
 31
0.0
 70
    32
  1
%%c<>
 71
     5
 42
118.2000000000004
  3
Standard
100
AcDbAlignedDimension
 13
277.5978076581658
 23
373.7385716408872
 33
0.0
 14
395.7978076581662
 24
373.7385716408869
 34
0.0
100
AcDbRotatedDimension
1001
ACAD
1000
DSTYLE
1002
{
1070
    40
1040
2.0
1070
    41
1040
3.5
1070
    42
1040
1.0
1070
    43
1040
7.0
1070
    44
1040
1.0
1070
    73
1070
     0
1070
    74
1070
     0
1070
    77
1070
     1
1070
    78
1070
     8
1070
    79
1070
     2
1070
   140
1040
3.5
1070
   141
1040
1.5
1070
   146
1040
0.5
1070
   147
1040
1.5
1070
   172
1070
     1
1070
   178
1070
     1
1070
   179
1070
     2
1070
   271
1070
     2
1070
   272
1070
     2
1070
   284
1070
     8
1070
   285
1070
     8
1070
   286
1070
     8
1002
}
  0
ENDSEC
  0
SECTION
  2
OBJECTS
  0
DICTIONARY
  5
C
330
0
100
AcDbDictionary
281
     1
  3
ACAD_COLOR
350
DF
  3
ACAD_GROUP
350
D
  3
ACAD_LAYOUT
350
19
  3
ACAD_MATERIAL
350
DE
  3
ACAD_MLINESTYLE
350
16
  3
ACAD_PLOTSETTINGS
350
18
  3
ACAD_PLOTSTYLENAME
350
E
  3
AcDbVariableDictionary
350
EA
  0
DICTIONARY
  5
A0
330
1E
100
AcDbDictionary
280
     1
281
     1
  3
ACAD_LAYOUTSELFREF
360
D4
  0
DICTIONARY
  5
A2
330
1A
100
AcDbDictionary
280
     1
281
     1
  3
ACAD_LAYOUTSELFREF
360
D3
  0
DICTIONARY
  5
DF
102
{ACAD_REACTORS
330
C
102
}
330
C
100
AcDbDictionary
281
     1
  0
DICTIONARY
  5
D
102
{ACAD_REACTORS
330
C
102
}
330
C
100
AcDbDictionary
281
     1
  0
DICTIONARY
  5
19
102
{ACAD_REACTORS
330
C
102
}
330
C
100
AcDbDictionary
281
     1
  3
Layout1
350
1D
  3
Model
350
21
  0
DICTIONARY
  5
DE
102
{ACAD_REACTORS
330
C
102
}
330
C
100
AcDbDictionary
281
     1
  0
DICTIONARY
  5
16
102
{ACAD_REACTORS
330
C
102
}
330
C
100
AcDbDictionary
281
     1
  3
Standard
350
17
  0
DICTIONARY
  5
18
102
{ACAD_REACTORS
330
C
102
}
330
C
100
AcDbDictionary
281
     1
  0
ACDBDICTIONARYWDFLT
  5
E
102
{ACAD_REACTORS
330
C
102
}
330
C
100
AcDbDictionary
281
     1
  3
Normal
350
F
100
AcDbDictionaryWithDefault
340
F
  0
DICTIONARY
  5
EA
102
{ACAD_REACTORS
330
C
102
}
330
C
100
AcDbDictionary
281
     1
  3
DIMASSOC
350
EB
  3
PROJECTNAME
350
EC
  0
XRECORD
  5
D4
102
{ACAD_REACTORS
330
A0
102
}
330
A0
100
AcDbXrecord
280
     1
340
1E
  0
XRECORD
  5
D3
102
{ACAD_REACTORS
330
A2
102
}
330
A2
100
AcDbXrecord
280
     1
340
1A
  0
LAYOUT
  5
1D
102
{ACAD_REACTORS
330
19
102
}
330
19
100
AcDbPlotSettings
  1

  2
\\NT_WORK01\HP LaserJet 5000 PCL 6
  4

  6

 40
0.0
 41
0.0
 42
0.0
 43
0.0
 44
0.0
 45
0.0
 46
0.0
 47
0.0
 48
0.0
 49
0.0
140
0.0
141
0.0
142
1.0
143
1.0
 70
   688
 72
     0
 73
     0
 74
     5
  7

 75
    16
147
1.0
 76
     0
 77
     2
 78
   300
148
0.0
149
0.0
100
AcDbLayout
  1
Layout1
 70
     0
 71
     1
 10
0.0
 20
0.0
 11
12.0
 21
9.0
 12
0.0
 22
0.0
 32
0.0
 14
1.000000000000000E+20
 24
1.000000000000000E+20
 34
1.000000000000000E+20
 15
-1.000000000000000E+20
 25
-1.000000000000000E+20
 35
-1.000000000000000E+20
146
0.0
 13
0.0
 23
0.0
 33
0.0
 16
1.0
 26
0.0
 36
0.0
 17
0.0
 27
1.0
 37
0.0
 76
     0
330
1A
  0
LAYOUT
  5
21
102
{ACAD_REACTORS
330
19
102
}
330
19
100
AcDbPlotSettings
  1

  2
none_device
  4
Letter_(8.50_x_11.00_Inches)
  6

 40
6.349999904632568
 41
6.349999904632568
 42
6.350006103515625
 43
6.350006103515625
 44
215.8999938964844
 45
279.3999938964844
 46
0.0
 47
0.0
 48
0.0
 49
0.0
140
0.0
141
0.0
142
1.0
143
1.0
 70
 11952
 72
     0
 73
     1
 74
     0
  7

 75
     0
147
1.0
 76
     0
 77
     2
 78
   300
148
2270.950743578438
149
61.15066382395687
100
AcDbLayout
  1
Model
 70
     1
 71
     0
 10
0.0
 20
0.0
 11
12.0
 21
9.0
 12
0.0
 22
0.0
 32
0.0
 14
0.0
 24
0.0
 34
0.0
 15
0.0
 25
0.0
 35
0.0
146
0.0
 13
0.0
 23
0.0
 33
0.0
 16
1.0
 26
0.0
 36
0.0
 17
0.0
 27
1.0
 37
0.0
 76
     0
330
1E
  0
MLINESTYLE
  5
17
102
{ACAD_REACTORS
330
16
102
}
330
16
100
AcDbMlineStyle
  2
STANDARD
 70
     0
  3

 62
   256
 51
90.0
 52
90.0
 71
     2
 49
0.5
 62
   256
  6
BYLAYER
 49
-0.5
 62
   256
  6
BYLAYER
  0
ACDBPLACEHOLDER
  5
F
102
{ACAD_REACTORS
330
E
102
}
330
E
  0
DICTIONARYVAR
  5
EB
102
{ACAD_REACTORS
330
EA
102
}
330
EA
100
DictionaryVariables
280
     0
  1
1
  0
DICTIONARYVAR
  5
EC
102
{ACAD_REACTORS
330
EA
102
}
330
EA
100
DictionaryVariables
280
     0
  1

  0
ENDSEC
  0
EOF
