  0
SECTION
  2
HEADER
  9
$ACADVER
  1
AC1018
  9
$ACADMAINTVER
 70
     2
  9
$DWGCODEPAGE
  3
ANSI_1252
  9
$INSBASE
 10
0.0
 20
0.0
 30
0.0
  9
$EXTMIN
 10
-0.0192146320376878
 20
-0.0271749795965661
 30
-0.000000000000013
  9
$EXTMAX
 10
420.0192317462092
 20
594.027199183924
 30
0.0000000000000023
  9
$LIMMIN
 10
0.0
 20
0.0
  9
$LIMMAX
 10
419.9999999999999
 20
594.0
  9
$ORTHOMODE
 70
     1
  9
$REGENMODE
 70
     1
  9
$FILLMODE
 70
     1
  9
$QTEXTMODE
 70
     0
  9
$MIRRTEXT
 70
     1
  9
$LTSCALE
 40
20.0
  9
$ATTMODE
 70
     1
  9
$TEXTSIZE
 40
3.5
  9
$TRACEWID
 40
0.5
  9
$TEXTSTYLE
  7
STANDARD
  9
$CLAYER
  8
HILF
  9
$CELTYPE
  6
ByLayer
  9
$CECOLOR
 62
   256
  9
$CELTSCALE
 40
1.0
  9
$DISPSILH
 70
     0
  9
$DIMSCALE
 40
2.0
  9
$DIMASZ
 40
3.5
  9
$DIMEXO
 40
1.0
  9
$DIMDLI
 40
7.0
  9
$DIMRND
 40
0.0
  9
$DIMDLE
 40
0.0
  9
$DIMEXE
 40
1.0
  9
$DIMTP
 40
0.0
  9
$DIMTM
 40
0.0
  9
$DIMTXT
 40
3.5
  9
$DIMCEN
 40
1.5
  9
$DIMTSZ
 40
0.0
  9
$DIMTOL
 70
     0
  9
$DIMLIM
 70
     0
  9
$DIMTIH
 70
     0
  9
$DIMTOH
 70
     0
  9
$DIMSE1
 70
     0
  9
$DIMSE2
 70
     0
  9
$DIMTAD
 70
     1
  9
$DIMZIN
 70
     8
  9
$DIMBLK
  1

  9
$DIMASO
 70
     1
  9
$DIMSHO
 70
     0
  9
$DIMPOST
  1

  9
$DIMAPOST
  1

  9
$DIMALT
 70
     0
  9
$DIMALTD
 70
     2
  9
$DIMALTF
 40
25.4
  9
$DIMLFAC
 40
1.0
  9
$DIMTOFL
 70
     1
  9
$DIMTVP
 40
0.0
  9
$DIMTIX
 70
     0
  9
$DIMSOXD
 70
     0
  9
$DIMSAH
 70
     0
  9
$DIMBLK1
  1

  9
$DIMBLK2
  1

  9
$DIMSTYLE
  2
Standard
  9
$DIMCLRD
 70
     0
  9
$DIMCLRE
 70
     0
  9
$DIMCLRT
 70
     1
  9
$DIMTFAC
 40
0.5
  9
$DIMGAP
 40
1.5
  9
$DIMJUST
 70
     0
  9
$DIMSD1
 70
     0
  9
$DIMSD2
 70
     0
  9
$DIMTOLJ
 70
     1
  9
$DIMTZIN
 70
     8
  9
$DIMALTZ
 70
     8
  9
$DIMALTTZ
 70
     8
  9
$DIMUPT
 70
     0
  9
$DIMDEC
 70
     2
  9
$DIMTDEC
 70
     2
  9
$DIMALTU
 70
     2
  9
$DIMALTTD
 70
     2
  9
$DIMTXSTY
  7
STANDARD
  9
$DIMAUNIT
 70
     0
  9
$DIMADEC
 70
     2
  9
$DIMALTRND
 40
0.0
  9
$DIMAZIN
 70
     2
  9
$DIMDSEP
 70
    46
  9
$DIMATFIT
 70
     3
  9
$DIMFRAC
 70
     0
  9
$DIMLDRBLK
  1

  9
$DIMLUNIT
 70
     2
  9
$DIMLWD
 70
    -2
  9
$DIMLWE
 70
    -2
  9
$DIMTMOVE
 70
     0
  9
$LUNITS
 70
     2
  9
$LUPREC
 70
     2
  9
$SKETCHINC
 40
1.0
  9
$FILLETRAD
 40
1.0
  9
$AUNITS
 70
     0
  9
$AUPREC
 70
     0
  9
$MENU
  1
ACAD
  9
$ELEVATION
 40
0.0
  9
$PELEVATION
 40
0.0
  9
$THICKNESS
 40
0.0
  9
$LIMCHECK
 70
     0
  9
$CHAMFERA
 40
0.0
  9
$CHAMFERB
 40
0.0
  9
$CHAMFERC
 40
0.0
  9
$CHAMFERD
 40
0.0
  9
$SKPOLY
 70
     0
  9
$TDCREATE
 40
2455397.864709028
  9
$TDUCREATE
 40
2455397.781375695
  9
$TDUPDATE
 40
2455455.598050996
  9
$TDUUPDATE
 40
2455455.514717662
  9
$TDINDWG
 40
0.1718897685
  9
$TDUSRTIMER
 40
0.1718897685
  9
$USRTIMER
 70
     1
  9
$ANGBASE
 50
0.0
  9
$ANGDIR
 70
     0
  9
$PDMODE
 70
     0
  9
$PDSIZE
 40
0.0
  9
$PLINEWID
 40
0.0
  9
$SPLFRAME
 70
     0
  9
$SPLINETYPE
 70
     6
  9
$SPLINESEGS
 70
     8
  9
$HANDSEED
  5
165A
  9
$SURFTAB1
 70
     6
  9
$SURFTAB2
 70
     6
  9
$SURFTYPE
 70
     6
  9
$SURFU
 70
     6
  9
$SURFV
 70
     6
  9
$UCSBASE
  2

  9
$UCSNAME
  2

  9
$UCSORG
 10
0.0
 20
0.0
 30
0.0
  9
$UCSXDIR
 10
1.0
 20
0.0
 30
0.0
  9
$UCSYDIR
 10
0.0
 20
1.0
 30
0.0
  9
$UCSORTHOREF
  2

  9
$UCSORTHOVIEW
 70
     0
  9
$UCSORGTOP
 10
0.0
 20
0.0
 30
0.0
  9
$UCSORGBOTTOM
 10
0.0
 20
0.0
 30
0.0
  9
$UCSORGLEFT
 10
0.0
 20
0.0
 30
0.0
  9
$UCSORGRIGHT
 10
0.0
 20
0.0
 30
0.0
  9
$UCSORGFRONT
 10
0.0
 20
0.0
 30
0.0
  9
$UCSORGBACK
 10
0.0
 20
0.0
 30
0.0
  9
$PUCSBASE
  2

  9
$PUCSNAME
  2

  9
$PUCSORG
 10
0.0
 20
0.0
 30
0.0
  9
$PUCSXDIR
 10
1.0
 20
0.0
 30
0.0
  9
$PUCSYDIR
 10
0.0
 20
1.0
 30
0.0
  9
$PUCSORTHOREF
  2

  9
$PUCSORTHOVIEW
 70
     0
  9
$PUCSORGTOP
 10
0.0
 20
0.0
 30
0.0
  9
$PUCSORGBOTTOM
 10
0.0
 20
0.0
 30
0.0
  9
$PUCSORGLEFT
 10
0.0
 20
0.0
 30
0.0
  9
$PUCSORGRIGHT
 10
0.0
 20
0.0
 30
0.0
  9
$PUCSORGFRONT
 10
0.0
 20
0.0
 30
0.0
  9
$PUCSORGBACK
 10
0.0
 20
0.0
 30
0.0
  9
$USERI1
 70
     0
  9
$USERI2
 70
     0
  9
$USERI3
 70
     0
  9
$USERI4
 70
     0
  9
$USERI5
 70
     0
  9
$USERR1
 40
0.0
  9
$USERR2
 40
0.0
  9
$USERR3
 40
0.0
  9
$USERR4
 40
0.0
  9
$USERR5
 40
0.0
  9
$WORLDVIEW
 70
     1
  9
$SHADEDGE
 70
     3
  9
$SHADEDIF
 70
    70
  9
$TILEMODE
 70
     1
  9
$MAXACTVP
 70
    16
  9
$PINSBASE
 10
0.0
 20
0.0
 30
0.0
  9
$PLIMCHECK
 70
     0
  9
$PEXTMIN
 10
1.000000000000000E+20
 20
1.000000000000000E+20
 30
1.000000000000000E+20
  9
$PEXTMAX
 10
-1.000000000000000E+20
 20
-1.000000000000000E+20
 30
-1.000000000000000E+20
  9
$PLIMMIN
 10
0.0
 20
0.0
  9
$PLIMMAX
 10
12.0
 20
9.0
  9
$UNITMODE
 70
     0
  9
$VISRETAIN
 70
     0
  9
$PLINEGEN
 70
     0
  9
$PSLTSCALE
 70
     0
  9
$TREEDEPTH
 70
  3020
  9
$CMLSTYLE
  2
Standard
  9
$CMLJUST
 70
     0
  9
$CMLSCALE
 40
1.0
  9
$PROXYGRAPHICS
 70
     1
  9
$MEASUREMENT
 70
     0
  9
$CELWEIGHT
370
    -1
  9
$ENDCAPS
280
     0
  9
$JOINSTYLE
280
     0
  9
$LWDISPLAY
290
     0
  9
$INSUNITS
 70
     0
  9
$HYPERLINKBASE
  1

  9
$STYLESHEET
  1
monochrome 1.ctb
  9
$XEDIT
290
     1
  9
$CEPSNTYPE
380
     0
  9
$PSTYLEMODE
290
     1
  9
$FINGERPRINTGUID
  2
{D68B0D02-A558-11D7-B632-000102183313}
  9
$VERSIONGUID
  2
{6A0025DD-42AF-48EF-8128-A7C7EF5D77D5}
  9
$EXTNAMES
290
     1
  9
$PSVPSCALE
 40
0.0
  9
$OLESTARTUP
290
     0
  9
$SORTENTS
280
   127
  9
$INDEXCTL
280
     0
  9
$HIDETEXT
280
     0
  9
$XCLIPFRAME
290
     0
  9
$HALOGAP
280
     0
  9
$OBSCOLOR
 70
   257
  9
$OBSLTYPE
280
     0
  9
$INTERSECTIONDISPLAY
280
     0
  9
$INTERSECTIONCOLOR
 70
   257
  9
$DIMASSOC
280
     1
  9
$PROJECTNAME
  1

  0
ENDSEC
  0
SECTION
  2
CLASSES
  0
CLASS
  1
ACDBDICTIONARYWDFLT
  2
AcDbDictionaryWithDefault
  3
ObjectDBX Classes
 90
        0
 91
        1
280
     0
281
     0
  0
CLASS
  1
DICTIONARYVAR
  2
AcDbDictionaryVar
  3
ObjectDBX Classes
 90
        0
 91
        2
280
     0
281
     0
  0
CLASS
  1
DIMASSOC
  2
AcDbDimAssoc
  3
"AcDbDimAssoc|Product Desc:     AcDim ARX App For Dimension|Company:          Autodesk, Inc.|WEB Address:      www.autodesk.com"
 90
        0
 91
        0
280
     0
281
     0
  0
ENDSEC
  0
SECTION
  2
TABLES
  0
TABLE
  2
VPORT
  5
8
330
0
100
AcDbSymbolTable
 70
     3
  0
VPORT
  5
1659
330
8
100
AcDbSymbolTableRecord
100
AcDbViewportTableRecord
  2
*Active
 70
     0
 10
0.0
 20
0.0
 11
1.0
 21
1.0
 12
210.0000085570858
 22
297.0000121021637
 13
0.0
 23
0.0
 14
1.0
 24
1.0
 15
10.0
 25
10.0
 16
0.0
 26
0.0
 36
1.0
 17
0.0
 27
0.0
 37
0.0
 40
598.8515831069676
 41
1.336927223719676
 42
50.0
 43
0.0
 44
0.0
 50
0.0
 51
0.0
 71
     0
 72
  1500
 73
     1
 74
     0
 75
     0
 76
     0
 77
     0
 78
     0
281
     0
 65
     1
110
0.0
120
0.0
130
0.0
111
1.0
121
0.0
131
0.0
112
0.0
122
1.0
132
0.0
 79
     0
146
0.0
  0
ENDTAB
  0
TABLE
  2
LTYPE
  5
5
330
0
100
AcDbSymbolTable
 70
     2
  0
LTYPE
  5
13
330
5
100
AcDbSymbolTableRecord
100
AcDbLinetypeTableRecord
  2
ByBlock
 70
     0
  3

 72
    65
 73
     0
 40
0.0
  0
LTYPE
  5
14
330
5
100
AcDbSymbolTableRecord
100
AcDbLinetypeTableRecord
  2
ByLayer
 70
     0
  3

 72
    65
 73
     0
 40
0.0
  0
LTYPE
  5
15
330
5
100
AcDbSymbolTableRecord
100
AcDbLinetypeTableRecord
  2
Continuous
 70
     0
  3
Solid line
 72
    65
 73
     0
 40
0.0
  0
LTYPE
  5
25
330
5
100
AcDbSymbolTableRecord
100
AcDbLinetypeTableRecord
  2
STRICHPUNKT
 70
     0
  3
__ . __ . __ . __ . __ . __ . __ . __ . __ . __
 72
    65
 73
     4
 40
1.0
 49
0.5
 74
     0
 49
-0.25
 74
     0
 49
0.0
 74
     0
 49
-0.25
 74
     0
  0
ENDTAB
  0
TABLE
  2
LAYER
  5
2
330
0
100
AcDbSymbolTable
 70
     8
  0
LAYER
  5
10
330
2
100
AcDbSymbolTableRecord
100
AcDbLayerTableRecord
  2
0
 70
     0
 62
     7
  6
Continuous
370
    -3
390
F
  0
LAYER
  5
2A
330
2
100
AcDbSymbolTableRecord
100
AcDbLayerTableRecord
  2
VOLL
 70
     0
 62
     1
  6
Continuous
370
    -3
390
F
  0
LAYER
  5
2B
330
2
100
AcDbSymbolTableRecord
100
AcDbLayerTableRecord
  2
HILF
 70
     0
 62
     2
  6
Continuous
370
    -3
390
F
  0
LAYER
  5
2C
330
2
100
AcDbSymbolTableRecord
100
AcDbLayerTableRecord
  2
MITTEL
 70
     0
 62
     2
  6
STRICHPUNKT
370
    -3
390
F
  0
LAYER
  5
2F
330
2
100
AcDbSymbolTableRecord
100
AcDbLayerTableRecord
  2
BEM
 70
     0
 62
     7
  6
Continuous
370
    -3
390
F
  0
LAYER
  5
30
330
2
100
AcDbSymbolTableRecord
100
AcDbLayerTableRecord
  2
STEMPEL
 70
     0
 62
     3
  6
Continuous
370
    -3
390
F
  0
LAYER
  5
31
330
2
100
AcDbSymbolTableRecord
100
AcDbLayerTableRecord
  2
TEXT
 70
     0
 62
     7
  6
Continuous
370
    -3
390
F
  0
LAYER
  5
390
330
2
100
AcDbSymbolTableRecord
100
AcDbLayerTableRecord
  2
DEFPOINTS
 70
     0
 62
     7
  6
Continuous
290
     0
370
    -3
390
F
  0
ENDTAB
  0
TABLE
  2
STYLE
  5
3
330
0
100
AcDbSymbolTable
 70
     2
  0
STYLE
  5
11
330
3
100
AcDbSymbolTableRecord
100
AcDbTextStyleTableRecord
  2
STANDARD
 70
     0
 40
0.0
 41
0.8
 50
0.0
 71
     0
 42
3.5
  3
simplex.shx
  4

  0
STYLE
  5
24
330
3
100
AcDbSymbolTableRecord
100
AcDbTextStyleTableRecord
  2
GREEKS
 70
     0
 40
0.0
 41
0.8
 50
0.0
 71
     0
 42
2.5
  3
SIMPLEX.shx
  4

  0
ENDTAB
  0
TABLE
  2
VIEW
  5
6
330
0
100
AcDbSymbolTable
 70
     0
  0
ENDTAB
  0
TABLE
  2
UCS
  5
7
330
0
100
AcDbSymbolTable
 70
     0
  0
ENDTAB
  0
TABLE
  2
APPID
  5
9
330
0
100
AcDbSymbolTable
 70
     1
  0
APPID
  5
12
330
9
100
AcDbSymbolTableRecord
100
AcDbRegAppTableRecord
  2
ACAD
 70
     0
  0
ENDTAB
  0
TABLE
  2
DIMSTYLE
  5
A
330
0
100
AcDbSymbolTable
 70
     1
100
AcDbDimStyleTable
 71
     1
340
9D
  0
DIMSTYLE
105
9D
102
{ACAD_REACTORS
330
152C
330
1546
330
15B8
330
15C5
102
}
330
A
100
AcDbSymbolTableRecord
100
AcDbDimStyleTableRecord
  2
Standard
 70
     0
340
11
  0
ENDTAB
  0
TABLE
  2
BLOCK_RECORD
  5
1
330
0
100
AcDbSymbolTable
 70
     5
  0
BLOCK_RECORD
  5
1E
102
{ACAD_XDICTIONARY
360
A0
102
}
330
1
100
AcDbSymbolTableRecord
100
AcDbBlockTableRecord
  2
*Model_Space
340
21
  0
BLOCK_RECORD
  5
1A
102
{ACAD_XDICTIONARY
360
A2
102
}
330
1
100
AcDbSymbolTableRecord
100
AcDbBlockTableRecord
  2
*Paper_Space
340
1D
  0
BLOCK_RECORD
  5
22
330
1
100
AcDbSymbolTableRecord
100
AcDbBlockTableRecord
  2
LOGO
340
0
102
{BLKREFS
331
9B
102
}
  0
BLOCK_RECORD
  5
152D
330
1
100
AcDbSymbolTableRecord
100
AcDbBlockTableRecord
  2
*D1
340
0
  0
BLOCK_RECORD
  5
1547
330
1
100
AcDbSymbolTableRecord
100
AcDbBlockTableRecord
  2
*D2
340
0
  0
BLOCK_RECORD
  5
15B9
330
1
100
AcDbSymbolTableRecord
100
AcDbBlockTableRecord
  2
*D3
340
0
  0
BLOCK_RECORD
  5
15C6
330
1
100
AcDbSymbolTableRecord
100
AcDbBlockTableRecord
  2
*D4
340
0
  0
ENDTAB
  0
ENDSEC
  0
SECTION
  2
BLOCKS
  0
BLOCK
  5
35
330
1E
100
AcDbEntity
  8
0
100
AcDbBlockBegin
  2
*Model_Space
 70
     0
 10
0.0
 20
0.0
 30
0.0
  3
*Model_Space
  1

  0
ENDBLK
  5
36
330
1E
100
AcDbEntity
  8
0
100
AcDbBlockEnd
  0
BLOCK
  5
33
330
1A
100
AcDbEntity
 67
     1
  8
0
100
AcDbBlockBegin
  2
*Paper_Space
 70
     0
 10
0.0
 20
0.0
 30
0.0
  3
*Paper_Space
  1

  0
ENDBLK
  5
34
330
1A
100
AcDbEntity
 67
     1
  8
0
100
AcDbBlockEnd
  0
BLOCK
  5
37
330
22
100
AcDbEntity
  8
0
100
AcDbBlockBegin
  2
LOGO
 70
     0
 10
0.0
 20
0.0
 30
0.0
  3
LOGO
  1

  0
ARC
  5
38
330
22
100
AcDbEntity
  8
0
100
AcDbCircle
 10
11.59973089678112
 20
-9.271599258481501
 30
0.0
 40
4.5
100
AcDbArc
 50
270.0
 51
231.0575587310159
  0
LINE
  5
39
330
22
100
AcDbEntity
  8
0
100
AcDbLine
 10
3.599730896781125
 20
-4.771599258481529
 30
0.0
 11
3.599730896781153
 21
-11.77159925848133
 31
0.0
  0
LINE
  5
3A
330
22
100
AcDbEntity
  8
0
100
AcDbLine
 10
2.599730896781125
 20
-4.771599258481529
 30
0.0
 11
2.599730896781153
 21
-11.77159925848133
 31
0.0
  0
CIRCLE
  5
3B
330
22
100
AcDbEntity
  8
0
100
AcDbCircle
 10
11.59973089678112
 20
-9.271599258481501
 30
0.0
 40
3.5
  0
ARC
  5
3C
330
22
100
AcDbEntity
  8
0
100
AcDbCircle
 10
31.59973089678115
 20
-9.271599258481472
 30
0.0
 40
4.5
100
AcDbArc
 50
270.0
 51
231.0575587310182
  0
LINE
  5
3D
330
22
100
AcDbEntity
  8
0
100
AcDbLine
 10
17.59973089678112
 20
-4.771599258481472
 30
0.0
 11
17.59973089678115
 21
-13.77159925848147
 31
0.0
  0
ARC
  5
3E
330
22
100
AcDbEntity
  8
0
100
AcDbCircle
 10
22.59973089678116
 20
-7.271599258481472
 30
0.0
 40
2.5
100
AcDbArc
 50
293.1161887722295
 51
90.0
  0
CIRCLE
  5
3F
330
22
100
AcDbEntity
  8
0
100
AcDbCircle
 10
31.59973089678115
 20
-9.271599258481472
 30
0.0
 40
3.5
  0
ARC
  5
40
330
22
100
AcDbEntity
  8
0
100
AcDbCircle
 10
4.599730896781153
 20
-11.77159925848133
 30
0.0
 40
1.0
100
AcDbArc
 50
180.0
 51
270.0
  0
ARC
  5
41
330
22
100
AcDbEntity
  8
0
100
AcDbCircle
 10
4.599730896781153
 20
-11.77159925848133
 30
0.0
 40
2.0
100
AcDbArc
 50
179.9999999999992
 51
270.0
  0
LINE
  5
42
330
22
100
AcDbEntity
  8
0
100
AcDbLine
 10
11.59973089678115
 20
-13.77159925848144
 30
0.0
 11
4.599730896781153
 21
-13.77159925848147
 31
0.0
  0
LINE
  5
43
330
22
100
AcDbEntity
  8
0
100
AcDbLine
 10
8.771303772034769
 20
-12.77159925848136
 30
0.0
 11
4.599730896781153
 21
-12.77159925848133
 31
0.0
  0
LINE
  5
44
330
22
100
AcDbEntity
  8
0
100
AcDbLine
 10
31.59973089678115
 20
-13.77159925848147
 30
0.0
 11
23.6715276665056
 21
-13.77159925848144
 31
0.0
  0
LINE
  5
45
330
22
100
AcDbEntity
  8
0
100
AcDbLine
 10
23.56565672307022
 20
-9.51278021337896
 30
0.0
 11
24.4388546544846
 21
-12.77159925848144
 31
0.0
  0
LINE
  5
46
330
22
100
AcDbEntity
  8
0
100
AcDbLine
 10
22.59973089678116
 20
-9.771599258481472
 30
0.0
 11
18.59973089678112
 21
-9.771599258481472
 31
0.0
  0
LINE
  5
47
330
22
100
AcDbEntity
  8
0
100
AcDbLine
 10
18.59973089678115
 20
-13.77159925848144
 30
0.0
 11
17.59973089678115
 21
-13.77159925848144
 31
0.0
  0
LINE
  5
48
330
22
100
AcDbEntity
  8
0
100
AcDbLine
 10
18.59973089678115
 20
-9.771599258481472
 30
0.0
 11
18.59973089678115
 21
-13.77159925848144
 31
0.0
  0
LINE
  5
49
330
22
100
AcDbEntity
  8
0
100
AcDbLine
 10
22.59973089678116
 20
-9.771599258481472
 30
0.0
 11
23.67152766650562
 21
-13.77159925848147
 31
0.0
  0
ARC
  5
4A
330
22
100
AcDbEntity
  8
0
100
AcDbCircle
 10
22.59973089678116
 20
-7.271599258481472
 30
0.0
 40
2.5
100
AcDbArc
 50
270.0
 51
270.0000000000007
  0
LINE
  5
4B
330
22
100
AcDbEntity
  8
0
100
AcDbLine
 10
28.77130377203494
 20
-12.77159925848147
 30
0.0
 11
24.43885465448463
 21
-12.77159925848144
 31
0.0
  0
LINE
  5
4C
330
22
100
AcDbEntity
  8
0
100
AcDbLine
 10
3.599730896781125
 20
-4.771599258481472
 30
0.0
 11
2.599730896781125
 21
-4.771599258481472
 31
0.0
  0
LINE
  5
4D
330
22
100
AcDbEntity
  8
0
100
AcDbLine
 10
22.59973089678116
 20
-8.771599258481472
 30
0.0
 11
18.59973089678115
 21
-8.771599258481472
 31
0.0
  0
LINE
  5
4E
330
22
100
AcDbEntity
  8
0
100
AcDbLine
 10
22.59973089678116
 20
-5.771599258481472
 30
0.0
 11
18.59973089678115
 21
-5.771599258481472
 31
0.0
  0
LINE
  5
4F
330
22
100
AcDbEntity
  8
0
100
AcDbLine
 10
22.59973089678116
 20
-4.771599258481472
 30
0.0
 11
17.59973089678115
 21
-4.771599258481472
 31
0.0
  0
LINE
  5
50
330
22
100
AcDbEntity
  8
0
100
AcDbLine
 10
18.59973089678115
 20
-5.771599258481472
 30
0.0
 11
18.59973089678115
 21
-8.771599258481472
 31
0.0
  0
ARC
  5
51
330
22
100
AcDbEntity
  8
0
100
AcDbCircle
 10
22.59973089678116
 20
-7.271599258481472
 30
0.0
 40
1.5
100
AcDbArc
 50
270.0
 51
90.0
  0
ENDBLK
  5
52
330
22
100
AcDbEntity
  8
0
100
AcDbBlockEnd
  0
BLOCK
  5
1537
330
152D
100
AcDbEntity
  8
0
100
AcDbBlockBegin
  2
*D1
 70
     1
 10
0.0
 20
0.0
 30
0.0
  3
*D1
  1

  0
LINE
  5
1622
330
152D
100
AcDbEntity
  8
BEM
 62
     0
370
    -2
100
AcDbLine
 10
64.41915094598357
 20
386.7938882311934
 30
0.0
 11
64.41915094598357
 21
362.369826190399
 31
0.0
  0
LINE
  5
1623
330
152D
100
AcDbEntity
  8
BEM
 62
     0
370
    -2
100
AcDbLine
 10
234.4191509459836
 20
386.7938882311897
 30
0.0
 11
234.4191509459836
 21
362.369826190399
 31
0.0
  0
LINE
  5
1624
330
152D
100
AcDbEntity
  8
BEM
 62
     0
370
    -2
100
AcDbLine
 10
71.41915094598357
 20
364.369826190399
 30
0.0
 11
227.4191509459836
 21
364.369826190399
 31
0.0
  0
SOLID
  5
1625
330
152D
100
AcDbEntity
  8
BEM
 62
     0
100
AcDbTrace
 10
71.41915094598357
 20
365.5364928570656
 30
0.0
 11
71.41915094598357
 21
363.2031595237322
 31
0.0
 12
64.41915094598357
 22
364.369826190399
 32
0.0
 13
64.41915094598357
 23
364.369826190399
 33
0.0
  0
SOLID
  5
1626
330
152D
100
AcDbEntity
  8
BEM
 62
     0
100
AcDbTrace
 10
227.4191509459836
 20
365.5364928570656
 30
0.0
 11
227.4191509459836
 21
363.2031595237322
 31
0.0
 12
234.4191509459836
 22
364.369826190399
 32
0.0
 13
234.4191509459836
 23
364.369826190399
 33
0.0
  0
MTEXT
  5
1627
330
152D
100
AcDbEntity
  8
BEM
 62
     1
100
AcDbMText
 10
149.4191509459835
 20
370.869826190399
 30
0.0
 40
7.0
 41
0.0
 71
     5
 72
     1
  1
\A1;170
 73
     1
 44
1.0
  0
POINT
  5
1628
330
152D
100
AcDbEntity
  8
DEFPOINTS
 62
     0
100
AcDbPoint
 10
64.41915094598357
 20
388.7938882311934
 30
0.0
  0
POINT
  5
1629
330
152D
100
AcDbEntity
  8
DEFPOINTS
 62
     0
100
AcDbPoint
 10
234.4191509459836
 20
388.7938882311897
 30
0.0
  0
POINT
  5
162A
330
152D
100
AcDbEntity
  8
DEFPOINTS
 62
     0
100
AcDbPoint
 10
234.4191509459836
 20
364.369826190399
 30
0.0
  0
ENDBLK
  5
1538
330
152D
100
AcDbEntity
  8
0
100
AcDbBlockEnd
  0
BLOCK
  5
1551
330
1547
100
AcDbEntity
  8
0
100
AcDbBlockBegin
  2
*D2
 70
     1
 10
0.0
 20
0.0
 30
0.0
  3
*D2
  1

  0
LINE
  5
1619
330
1547
100
AcDbEntity
  8
BEM
 62
     0
370
    -2
100
AcDbLine
 10
231.4191509459836
 20
383.7938882311893
 30
0.0
 11
254.323246123497
 21
383.7938882311893
 31
0.0
  0
LINE
  5
161A
330
1547
100
AcDbEntity
  8
BEM
 62
     0
370
    -2
100
AcDbLine
 10
231.4191509459854
 20
458.7938882311902
 30
0.0
 11
254.323246123497
 21
458.7938882311902
 31
0.0
  0
LINE
  5
161B
330
1547
100
AcDbEntity
  8
BEM
 62
     0
370
    -2
100
AcDbLine
 10
252.323246123497
 20
390.7938882311893
 30
0.0
 11
252.323246123497
 21
451.7938882311902
 31
0.0
  0
SOLID
  5
161C
330
1547
100
AcDbEntity
  8
BEM
 62
     0
100
AcDbTrace
 10
251.1565794568304
 20
390.7938882311893
 30
0.0
 11
253.4899127901637
 21
390.7938882311893
 31
0.0
 12
252.323246123497
 22
383.7938882311893
 32
0.0
 13
252.323246123497
 23
383.7938882311893
 33
0.0
  0
SOLID
  5
161D
330
1547
100
AcDbEntity
  8
BEM
 62
     0
100
AcDbTrace
 10
251.1565794568304
 20
451.7938882311902
 30
0.0
 11
253.4899127901637
 21
451.7938882311902
 31
0.0
 12
252.323246123497
 22
458.7938882311902
 32
0.0
 13
252.323246123497
 23
458.7938882311902
 33
0.0
  0
MTEXT
  5
161E
330
1547
100
AcDbEntity
  8
BEM
 62
     1
100
AcDbMText
 10
245.8232461234969
 20
421.2938882311898
 30
0.0
 40
7.0
 41
0.0
 71
     5
 72
     1
  1
\A1;75
 11
0.0000000000000001
 21
1.0
 31
0.0
 73
     1
 44
1.0
  0
POINT
  5
161F
330
1547
100
AcDbEntity
  8
DEFPOINTS
 62
     0
100
AcDbPoint
 10
229.4191509459836
 20
383.7938882311893
 30
0.0
  0
POINT
  5
1620
330
1547
100
AcDbEntity
  8
DEFPOINTS
 62
     0
100
AcDbPoint
 10
229.4191509459854
 20
458.7938882311902
 30
0.0
  0
POINT
  5
1621
330
1547
100
AcDbEntity
  8
DEFPOINTS
 62
     0
100
AcDbPoint
 10
252.323246123497
 20
458.7938882311902
 30
0.0
  0
ENDBLK
  5
1552
330
1547
100
AcDbEntity
  8
0
100
AcDbBlockEnd
  0
BLOCK
  5
15C3
330
15B9
100
AcDbEntity
  8
0
100
AcDbBlockBegin
  2
*D3
 70
     1
 10
0.0
 20
0.0
 30
0.0
  3
*D3
  1

  0
LINE
  5
15FE
330
15B9
100
AcDbEntity
  8
BEM
 62
     0
370
    -2
100
AcDbLine
 10
385.2196785080156
 20
381.8938882311817
 30
0.0
 11
385.2196785080156
 21
361.9265152383714
 31
0.0
  0
LINE
  5
15FF
330
15B9
100
AcDbEntity
  8
BEM
 62
     0
370
    -2
100
AcDbLine
 10
282.0196785080116
 20
381.8938882311836
 30
0.0
 11
282.0196785080116
 21
361.9265152383714
 31
0.0
  0
LINE
  5
1600
330
15B9
100
AcDbEntity
  8
BEM
 62
     0
370
    -2
100
AcDbLine
 10
378.2196785080156
 20
363.9265152383714
 30
0.0
 11
289.0196785080116
 21
363.9265152383714
 31
0.0
  0
SOLID
  5
1601
330
15B9
100
AcDbEntity
  8
BEM
 62
     0
100
AcDbTrace
 10
378.2196785080156
 20
365.0931819050381
 30
0.0
 11
378.2196785080156
 21
362.7598485717047
 31
0.0
 12
385.2196785080156
 22
363.9265152383714
 32
0.0
 13
385.2196785080156
 23
363.9265152383714
 33
0.0
  0
SOLID
  5
1602
330
15B9
100
AcDbEntity
  8
BEM
 62
     0
100
AcDbTrace
 10
289.0196785080116
 20
365.0931819050381
 30
0.0
 11
289.0196785080116
 21
362.7598485717047
 31
0.0
 12
282.0196785080116
 22
363.9265152383714
 32
0.0
 13
282.0196785080116
 23
363.9265152383714
 33
0.0
  0
MTEXT
  5
1603
330
15B9
100
AcDbEntity
  8
BEM
 62
     1
100
AcDbMText
 10
333.6196785080136
 20
370.4265152383714
 30
0.0
 40
7.0
 41
0.0
 71
     5
 72
     1
  1
\A1;%%c103.2
 73
     1
 44
1.0
  0
POINT
  5
1604
330
15B9
100
AcDbEntity
  8
DEFPOINTS
 62
     0
100
AcDbPoint
 10
385.2196785080156
 20
383.8938882311818
 30
0.0
  0
POINT
  5
1605
330
15B9
100
AcDbEntity
  8
DEFPOINTS
 62
     0
100
AcDbPoint
 10
282.0196785080116
 20
383.8938882311836
 30
0.0
  0
POINT
  5
1606
330
15B9
100
AcDbEntity
  8
DEFPOINTS
 62
     0
100
AcDbPoint
 10
282.0196785080116
 20
363.9265152383714
 30
0.0
  0
ENDBLK
  5
15C4
330
15B9
100
AcDbEntity
  8
0
100
AcDbBlockEnd
  0
BLOCK
  5
15D0
330
15C6
100
AcDbEntity
  8
0
100
AcDbBlockBegin
  2
*D4
 70
     1
 10
0.0
 20
0.0
 30
0.0
  3
*D4
  1

  0
LINE
  5
15F5
330
15C6
100
AcDbEntity
  8
BEM
 62
     0
370
    -2
100
AcDbLine
 10
274.6196785080149
 20
460.8938882311857
 30
0.0
 11
274.6196785080149
 21
476.6695017711506
 31
0.0
  0
LINE
  5
15F6
330
15C6
100
AcDbEntity
  8
BEM
 62
     0
370
    -2
100
AcDbLine
 10
392.6196785080152
 20
460.8938882311837
 30
0.0
 11
392.6196785080152
 21
476.6695017711506
 31
0.0
  0
LINE
  5
15F7
330
15C6
100
AcDbEntity
  8
BEM
 62
     0
370
    -2
100
AcDbLine
 10
281.6196785080149
 20
474.6695017711506
 30
0.0
 11
385.6196785080152
 21
474.6695017711506
 31
0.0
  0
SOLID
  5
15F8
330
15C6
100
AcDbEntity
  8
BEM
 62
     0
100
AcDbTrace
 10
281.6196785080149
 20
475.8361684378173
 30
0.0
 11
281.6196785080149
 21
473.5028351044839
 31
0.0
 12
274.6196785080149
 22
474.6695017711506
 32
0.0
 13
274.6196785080149
 23
474.6695017711506
 33
0.0
  0
SOLID
  5
15F9
330
15C6
100
AcDbEntity
  8
BEM
 62
     0
100
AcDbTrace
 10
385.6196785080152
 20
475.8361684378173
 30
0.0
 11
385.6196785080152
 21
473.5028351044839
 31
0.0
 12
392.6196785080152
 22
474.6695017711506
 32
0.0
 13
392.6196785080152
 23
474.6695017711506
 33
0.0
  0
MTEXT
  5
15FA
330
15C6
100
AcDbEntity
  8
BEM
 62
     1
100
AcDbMText
 10
333.6196785080151
 20
481.1695017711506
 30
0.0
 40
7.0
 41
0.0
 71
     5
 72
     1
  1
\A1;%%c118
 73
     1
 44
1.0
  0
POINT
  5
15FB
330
15C6
100
AcDbEntity
  8
DEFPOINTS
 62
     0
100
AcDbPoint
 10
274.6196785080149
 20
458.8938882311857
 30
0.0
  0
POINT
  5
15FC
330
15C6
100
AcDbEntity
  8
DEFPOINTS
 62
     0
100
AcDbPoint
 10
392.6196785080152
 20
458.8938882311837
 30
0.0
  0
POINT
  5
15FD
330
15C6
100
AcDbEntity
  8
DEFPOINTS
 62
     0
100
AcDbPoint
 10
392.6196785080152
 20
474.6695017711506
 30
0.0
  0
ENDBLK
  5
15D1
330
15C6
100
AcDbEntity
  8
0
100
AcDbBlockEnd
  0
ENDSEC
  0
SECTION
  2
ENTITIES
  0
LINE
  5
57
330
1E
100
AcDbEntity
  8
STEMPEL
100
AcDbLine
 10
410.0
 20
110.0
 30
0.0
 11
39.99999999999997
 21
110.0
 31
0.0
  0
LINE
  5
58
330
1E
100
AcDbEntity
  8
STEMPEL
100
AcDbLine
 10
136.0000000000001
 20
109.9999999999999
 30
0.0
 11
136.0
 21
9.999999999999971
 31
0.0
  0
LINE
  5
59
330
1E
100
AcDbEntity
  8
STEMPEL
100
AcDbLine
 10
220.0
 20
110.0
 30
0.0
 11
220.0
 21
9.999999999999971
 31
0.0
  0
LINE
  5
5A
330
1E
100
AcDbEntity
  8
STEMPEL
100
AcDbLine
 10
332.0
 20
109.9999999999997
 30
0.0
 11
332.0
 21
40.0
 31
0.0
  0
LINE
  5
5B
330
1E
100
AcDbEntity
  8
STEMPEL
100
AcDbLine
 10
135.9999999999999
 20
29.99999999999997
 30
0.0
 11
39.99999999999997
 21
29.99999999999997
 31
0.0
  0
LINE
  5
5C
330
1E
100
AcDbEntity
  8
STEMPEL
100
AcDbLine
 10
410.0
 20
40.0
 30
0.0
 11
136.0000000000001
 21
39.99999999999997
 31
0.0
  0
LINE
  5
5D
330
1E
100
AcDbEntity
  8
STEMPEL
100
AcDbLine
 10
410.0
 20
80.0
 30
0.0
 11
136.0000000000001
 21
79.99999999999994
 31
0.0
  0
LINE
  5
5E
330
1E
100
AcDbEntity
  8
VOLL
100
AcDbLine
 10
54.00000000000009
 20
110.0
 30
0.0
 11
53.99999999999997
 21
9.999999999999971
 31
0.0
  0
LINE
  5
5F
330
1E
100
AcDbEntity
  8
VOLL
100
AcDbLine
 10
94.00000000000011
 20
109.9999999999999
 30
0.0
 11
94.0
 21
9.999999999999971
 31
0.0
  0
LINE
  5
60
330
1E
100
AcDbEntity
  8
VOLL
100
AcDbLine
 10
114.0000000000001
 20
109.9999999999999
 30
0.0
 11
114.0
 21
9.999999999999971
 31
0.0
  0
LINE
  5
61
330
1E
100
AcDbEntity
  8
VOLL
100
AcDbLine
 10
154.0000000000001
 20
79.99999999999994
 30
0.0
 11
154.0000000000001
 21
39.99999999999997
 31
0.0
  0
LINE
  5
62
330
1E
100
AcDbEntity
  8
VOLL
100
AcDbLine
 10
180.0000000000001
 20
109.9999999999998
 30
0.0
 11
180.0
 21
39.99999999999997
 31
0.0
  0
LINE
  5
63
330
1E
100
AcDbEntity
  8
HILF
100
AcDbLine
 10
40.00000000000008
 20
100.0
 30
0.0
 11
136.0000000000001
 21
100.0
 31
0.0
  0
LINE
  5
64
330
1E
100
AcDbEntity
  8
HILF
100
AcDbLine
 10
40.00000000000008
 20
90.00000000000005
 30
0.0
 11
136.0000000000001
 21
90.00000000000005
 31
0.0
  0
LINE
  5
65
330
1E
100
AcDbEntity
  8
HILF
100
AcDbLine
 10
40.00000000000008
 20
79.99999999999994
 30
0.0
 11
136.0000000000001
 21
79.99999999999994
 31
0.0
  0
LINE
  5
66
330
1E
100
AcDbEntity
  8
HILF
100
AcDbLine
 10
40.00000000000008
 20
69.99999999999994
 30
0.0
 11
136.0000000000001
 21
69.99999999999994
 31
0.0
  0
LINE
  5
67
330
1E
100
AcDbEntity
  8
HILF
100
AcDbLine
 10
40.00000000000008
 20
59.99999999999997
 30
0.0
 11
136.0000000000001
 21
59.99999999999997
 31
0.0
  0
LINE
  5
68
330
1E
100
AcDbEntity
  8
HILF
100
AcDbLine
 10
40.00000000000008
 20
49.99999999999997
 30
0.0
 11
136.0000000000001
 21
49.99999999999997
 31
0.0
  0
LINE
  5
69
330
1E
100
AcDbEntity
  8
HILF
100
AcDbLine
 10
40.00000000000008
 20
39.99999999999997
 30
0.0
 11
136.0000000000001
 21
39.99999999999997
 31
0.0
  0
LINE
  5
6A
330
1E
100
AcDbEntity
  8
HILF
100
AcDbLine
 10
136.0000000000001
 20
69.99999999999994
 30
0.0
 11
220.0
 21
69.99999999999994
 31
0.0
  0
LINE
  5
6B
330
1E
100
AcDbEntity
  8
HILF
100
AcDbLine
 10
136.0000000000001
 20
59.99999999999997
 30
0.0
 11
220.0
 21
59.99999999999997
 31
0.0
  0
LINE
  5
6C
330
1E
100
AcDbEntity
  8
HILF
100
AcDbLine
 10
136.0000000000001
 20
49.99999999999997
 30
0.0
 11
220.0
 21
49.99999999999997
 31
0.0
  0
LINE
  5
6D
330
1E
100
AcDbEntity
  8
HILF
100
AcDbLine
 10
224.7736801096948
 20
84.03758247564139
 30
0.0
 11
324.8353916556311
 21
84.03758247564139
 31
0.0
  0
LINE
  5
6E
330
1E
100
AcDbEntity
  8
HILF
100
AcDbLine
 10
224.7736801096948
 20
69.99999999999994
 30
0.0
 11
324.835391655631
 21
69.99999999999994
 31
0.0
  0
LINE
  5
6F
330
1E
100
AcDbEntity
  8
HILF
100
AcDbLine
 10
224.7736801096948
 20
59.99999999999997
 30
0.0
 11
324.835391655631
 21
59.99999999999997
 31
0.0
  0
LINE
  5
70
330
1E
100
AcDbEntity
  8
HILF
100
AcDbLine
 10
224.7736801096948
 20
49.99999999999997
 30
0.0
 11
324.835391655631
 21
49.99999999999997
 31
0.0
  0
LINE
  5
71
330
1E
100
AcDbEntity
  8
VOLL
100
AcDbLine
 10
332.0
 20
60.0
 30
0.0
 11
410.0
 21
60.0
 31
0.0
  0
LINE
  5
72
330
1E
100
AcDbEntity
  8
HILF
100
AcDbLine
 10
336.7238616296993
 20
83.77983636955827
 30
0.0
 11
404.8588839326728
 21
83.77983636955827
 31
0.0
  0
LINE
  5
73
330
1E
100
AcDbEntity
  8
HILF
100
AcDbLine
 10
223.4909699289885
 20
14.89398258028314
 30
0.0
 11
404.8588839326728
 21
14.89398258028314
 31
0.0
  0
TEXT
  5
74
330
1E
100
AcDbEntity
  8
TEXT
100
AcDbText
 10
63.86165979631819
 20
18.67381894984132
 30
0.0
 40
4.0
  1
Änderung
 41
0.8
  7
GREEKS
 72
     1
 11
74.60451693917534
 21
18.67381894984132
 31
0.0
100
AcDbText
  0
TEXT
  5
75
330
1E
100
AcDbEntity
  8
TEXT
100
AcDbText
 10
143.5163572150377
 20
102.4620895087088
 30
0.0
 40
5.0
  1
Maßstab
 41
0.8
  7
GREEKS
100
AcDbText
  0
TEXT
  5
76
330
1E
100
AcDbEntity
  8
TEXT
100
AcDbText
 10
184.2858954734051
 20
102.4184168434819
 30
0.0
 40
5.0
  1
Zul. Abw.
 41
0.8
  7
GREEKS
100
AcDbText
  0
TEXT
  5
77
330
1E
100
AcDbEntity
  8
TEXT
100
AcDbText
 10
224.877940380901
 20
102.5489328011779
 30
0.0
 40
5.0
  1
Benennung
 41
0.8
  7
GREEKS
100
AcDbText
  0
TEXT
  5
78
330
1E
100
AcDbEntity
  8
TEXT
100
AcDbText
 10
336.178754957634
 20
102.3132034537136
 30
0.0
 40
5.0
  1
Zeichnungs Nr.
 41
0.8
  7
GREEKS
100
AcDbText
  0
TEXT
  5
79
330
1E
100
AcDbEntity
  8
TEXT
100
AcDbText
 10
224.742238391136
 20
30.84560570193057
 30
0.0
 40
5.0
  1
Bauvorhaben
 41
0.8
  7
GREEKS
100
AcDbText
  0
TEXT
  5
7A
330
1E
100
AcDbEntity
  8
TEXT
100
AcDbText
 10
336.7238616296993
 20
73.1811823709997
 30
0.0
 40
5.0
  1
Ersatz für:
 41
0.8
  7
GREEKS
100
AcDbText
  0
TEXT
  5
7B
330
1E
100
AcDbEntity
  8
TEXT
100
AcDbText
 10
48.26641107045756
 20
13.65465846027192
 30
0.0
 40
4.0
  1
Index
 50
90.0
 41
0.8
  7
GREEKS
100
AcDbText
  0
TEXT
  5
7C
330
1E
100
AcDbEntity
  8
TEXT
100
AcDbText
 10
100.0934676075481
 20
18.6715626933981
 30
0.0
 40
4.0
  1
Tag
 41
0.8
  7
GREEKS
 72
     1
 11
103.8268009408814
 21
18.6715626933981
 31
0.0
100
AcDbText
  0
TEXT
  5
7D
330
1E
100
AcDbEntity
  8
TEXT
100
AcDbText
 10
119.0122744386592
 20
18.59324216966408
 30
0.0
 40
4.0
  1
Name
 41
0.8
  7
GREEKS
 72
     1
 11
125.3360839624688
 21
18.59324216966408
 31
0.0
100
AcDbText
  0
TEXT
  5
7E
330
1E
100
AcDbEntity
  8
TEXT
100
AcDbText
 10
162.3311673153651
 20
73.31880501229926
 30
0.0
 40
4.0
  1
Tag
 41
0.8
  7
GREEKS
100
AcDbText
  0
TEXT
  5
7F
330
1E
100
AcDbEntity
  8
TEXT
100
AcDbText
 10
192.4626584226295
 20
73.30961091915225
 30
0.0
 40
4.0
  1
Name
 41
0.8
  7
GREEKS
100
AcDbText
  0
TEXT
  5
80
330
1E
100
AcDbEntity
  8
TEXT
100
AcDbText
 10
137.5836127167615
 20
63.62990369617964
 30
0.0
 40
4.0
  1
Gez.
 41
0.8
  7
GREEKS
100
AcDbText
  0
TEXT
  5
81
330
1E
100
AcDbEntity
  8
TEXT
100
AcDbText
 10
137.5515086571672
 20
53.68926291428377
 30
0.0
 40
4.0
  1
Gepr.
 41
0.8
  7
GREEKS
100
AcDbText
  0
TEXT
  5
82
330
1E
100
AcDbEntity
  8
TEXT
100
AcDbText
 10
137.6006777387304
 20
43.52946389649807
 30
0.0
 40
4.0
  1
Norm.
 41
0.8
  7
GREEKS
100
AcDbText
  0
LINE
  5
83
330
1E
100
AcDbEntity
  8
STEMPEL
100
AcDbLine
 10
49.99999999999989
 20
10.0
 30
0.0
 11
410.0
 21
10.0
 31
0.0
  0
TEXT
  5
84
330
1E
100
AcDbEntity
  8
TEXT
100
AcDbText
 10
337.2400861497006
 20
52.07416177878602
 30
0.0
 40
5.0
  1
ersetzt durch:
 41
0.8
  7
GREEKS
100
AcDbText
  0
LINE
  5
85
330
1E
100
AcDbEntity
  8
STEMPEL
100
AcDbLine
 10
410.0
 20
10.0
 30
0.0
 11
39.99999999999989
 21
10.0
 31
0.0
  0
LINE
  5
86
330
1E
100
AcDbEntity
  8
STEMPEL
100
AcDbLine
 10
410.0
 20
10.0
 30
0.0
 11
410.0
 21
584.0
 31
0.0
  0
LINE
  5
87
330
1E
100
AcDbEntity
  8
STEMPEL
100
AcDbLine
 10
40.0
 20
10.0
 30
0.0
 11
39.99999999999989
 21
584.0
 31
0.0
  0
LINE
  5
88
330
1E
100
AcDbEntity
  8
STEMPEL
100
AcDbLine
 10
410.0
 20
584.0
 30
0.0
 11
39.99999999999989
 21
584.0
 31
0.0
  0
LINE
  5
89
330
1E
100
AcDbEntity
  8
HILF
100
AcDbLine
 10
0.0
 20
0.0
 30
0.0
 11
-0.0000000000001137
 21
594.0
 31
0.0
  0
LINE
  5
8A
330
1E
100
AcDbEntity
  8
HILF
100
AcDbLine
 10
419.9999999999999
 20
594.0000000000002
 30
0.0
 11
0.0
 21
594.0
 31
0.0
  0
LINE
  5
8B
330
1E
100
AcDbEntity
  8
HILF
100
AcDbLine
 10
420.0
 20
0.0
 30
0.0
 11
0.0
 21
0.0
 31
0.0
  0
LINE
  5
8C
330
1E
100
AcDbEntity
  8
HILF
100
AcDbLine
 10
31.08767135713856
 20
297.0
 30
0.0
 11
0.0000000000001137
 21
297.0
 31
0.0
  0
TEXT
  5
8D
330
1E
100
AcDbEntity
  8
TEXT
100
AcDbText
 10
138.622109822104
 20
73.14025471151666
 30
0.0
 40
4.0
  1
2008
 41
0.8
  7
GREEKS
100
AcDbText
  0
LINE
  5
8E
330
1E
100
AcDbEntity
  8
HILF
100
AcDbLine
 10
420.0
 20
-0.0000000000001137
 30
0.0
 11
419.9999999999999
 21
594.0
 31
0.0
  0
TEXT
  5
8F
330
1E
100
AcDbEntity
  8
VOLL
100
AcDbText
 10
78.07675471698113
 20
31.02594776470585
 30
0.0
 40
1.8
  1

  7
GREEKS
100
AcDbText
  0
TEXT
  5
90
330
1E
100
AcDbEntity
  8
TEXT
100
AcDbText
 10
41.85509950977674
 20
111.6719999999999
 30
0.0
 40
5.0
  1
Erstellt mit AUTOCAD 2004
 41
0.8
  7
GREEKS
100
AcDbText
  0
TEXT
  5
91
330
1E
100
AcDbEntity
  8
TEXT
100
AcDbText
 10
194.4216048581257
 20
63.0896391972351
 30
0.0
 40
4.0
  1
Koeh
 41
0.8
  7
GREEKS
 72
     1
 11
199.6787477152685
 21
63.0896391972351
 31
0.0
100
AcDbText
  0
TEXT
  5
92
330
1E
100
AcDbEntity
  8
TEXT
 62
     1
100
AcDbText
 10
346.9185575058474
 20
88.76048719879964
 30
0.0
 40
7.0
  1
08070080W
 41
0.8
  7
GREEKS
 72
     1
 11
370.9185575058474
 21
88.76048719879964
 31
0.0
100
AcDbText
  0
TEXT
  5
93
330
1E
100
AcDbEntity
  8
TEXT
 62
     1
100
AcDbText
 10
150.5006306481887
 20
88.14901428913959
 30
0.0
 40
7.0
  1
1:2
 41
0.8
  7
GREEKS
100
AcDbText
  0
TEXT
  5
94
330
1E
100
AcDbEntity
  8
TEXT
100
AcDbText
 10
161.0085209177598
 20
63.10765040825732
 30
0.0
 40
4.0
  1
15.12.
 41
0.8
  7
GREEKS
 72
     1
 11
167.4085209177598
 21
63.10765040825732
 31
0.0
100
AcDbText
  0
TEXT
  5
95
330
1E
100
AcDbEntity
  8
TEXT
 62
     1
100
AcDbText
 10
226.8935731057402
 20
87.41748789253779
 30
0.0
 40
7.0
  1
Druckrohrschelle DN80
 41
0.8
  7
GREEKS
100
AcDbText
  0
TEXT
  5
98
330
1E
100
AcDbEntity
  8
TEXT
100
AcDbText
 10
225.1296391125315
 20
51.64011943042158
 30
0.0
 40
5.0
  1
EDV-Art.Nr. 08070.080X
 41
0.8
  7
GREEKS
100
AcDbText
  0
TEXT
  5
99
330
1E
100
AcDbEntity
  8
TEXT
100
AcDbText
 10
224.9837501577827
 20
42.62974153022632
 30
0.0
 40
4.0
  1
08070080W.DWG
 41
0.8
  7
GREEKS
100
AcDbText
  0
TEXT
  5
9A
330
1E
100
AcDbEntity
  8
TEXT
100
AcDbText
 10
180.0356560176078
 20
90.76363841023022
 30
0.0
 40
4.0
  1
DIN ISO 2768-c
 41
0.8
  7
GREEKS
 72
     1
 11
199.6166083985602
 21
90.76363841023022
 31
0.0
100
AcDbText
  0
INSERT
  5
9B
330
1E
100
AcDbEntity
  8
STEMPEL
100
AcDbBlockReference
  2
LOGO
 10
140.9955485457794
 20
45.02105276448322
 30
0.0
 41
2.0
 42
2.0
 43
2.0
  0
TEXT
  5
118
330
1E
100
AcDbEntity
  8
BEM
100
AcDbText
 10
417.3022923857165
 20
10.16790107998849
 30
0.0
 40
4.0
  1
Diese Zeichnung ist urheberrechtlich geschützt und bleibt unser Eigentum. Sie darf weder ganz noch teilweise verfielfältigt und nicht an Dritte weitergegeben werden.
 50
90.0
 41
0.8
  7
GREEKS
100
AcDbText
  0
ARC
  5
13F9
330
1E
100
AcDbEntity
  8
STEMPEL
100
AcDbCircle
 10
83.46712922665693
 20
276.0021392689089
 30
0.0
 40
3.848390227184345
100
AcDbArc
 50
58.5308054759296
 51
127.8806357171734
  0
LINE
  5
13FA
330
1E
100
AcDbEntity
  8
STEMPEL
100
AcDbLine
 10
69.28992425944426
 20
279.850529434005
 30
0.0
 11
83.46643793625601
 21
279.850529434005
 31
0.0
  0
LINE
  5
13FB
330
1E
100
AcDbEntity
  8
STEMPEL
100
AcDbLine
 10
81.1041465170568
 20
278.5720178807971
 30
0.0
 11
81.10414651705559
 21
272.1377215413116
 31
0.0
  0
LINE
  5
13FC
330
1E
100
AcDbEntity
  8
STEMPEL
100
AcDbLine
 10
71.65221567865621
 20
278.5720178807971
 30
0.0
 11
71.65221567865628
 21
272.1377215413049
 31
0.0
  0
LINE
  5
13FD
330
1E
100
AcDbEntity
  8
STEMPEL
100
AcDbLine
 10
66.92625025945591
 20
278.5720178807971
 30
0.0
 11
66.92625025945591
 21
272.7770819718561
 31
0.0
  0
ARC
  5
13FE
330
1E
100
AcDbEntity
  8
STEMPEL
100
AcDbCircle
 10
76.3781810978565
 20
265.6732994340048
 30
0.0
 40
14.17723
100
AcDbArc
 50
70.52782738137596
 51
109.472172618624
  0
ARC
  5
13FF
330
1E
100
AcDbEntity
  8
STEMPEL
100
AcDbCircle
 10
69.28923296905697
 20
276.0021392689089
 30
0.0
 40
3.848390227184345
100
AcDbArc
 50
52.11936428282661
 51
121.4691945240704
  0
LINE
  5
1400
330
1E
100
AcDbEntity
  8
STEMPEL
100
AcDbLine
 10
66.92625025945591
 20
279.0801479746108
 30
0.0
 11
67.45112175207606
 21
279.3831826721646
 31
0.0
  0
LINE
  5
1401
330
1E
100
AcDbEntity
  8
STEMPEL
100
AcDbLine
 10
66.92625025945591
 20
278.5720178807971
 30
0.0
 11
66.92625025945591
 21
279.0801479746108
 31
0.0
  0
LINE
  5
1402
330
1E
100
AcDbEntity
  8
STEMPEL
100
AcDbLine
 10
71.65221567865621
 20
278.5720178807971
 30
0.0
 11
71.65221567865621
 21
279.0396415413063
 31
0.0
  0
LINE
  5
1403
330
1E
100
AcDbEntity
  8
STEMPEL
100
AcDbLine
 10
81.1041465170568
 20
278.5720178807971
 30
0.0
 11
81.1041465170568
 21
279.0396415413063
 31
0.0
  0
LINE
  5
1404
330
1E
100
AcDbEntity
  8
STEMPEL
100
AcDbLine
 10
85.83011193625617
 20
278.5720178807971
 30
0.0
 11
85.83011193625617
 21
272.7770819718533
 31
0.0
  0
LINE
  5
1405
330
1E
100
AcDbEntity
  8
STEMPEL
100
AcDbLine
 10
85.83011193625617
 20
279.0801479746108
 30
0.0
 11
85.30524044363692
 21
279.3831826721646
 31
0.0
  0
LINE
  5
1406
330
1E
100
AcDbEntity
  8
STEMPEL
100
AcDbLine
 10
83.46035105355287
 20
279.850529434005
 30
0.0
 11
83.46643793624236
 21
279.850529434005
 31
0.0
  0
LINE
  5
1407
330
1E
100
AcDbEntity
  8
STEMPEL
100
AcDbLine
 10
85.83011193625617
 20
278.5720178807971
 30
0.0
 11
85.83011193625617
 21
278.916548178546
 31
0.0
  0
LINE
  5
1408
330
1E
100
AcDbEntity
  8
STEMPEL
100
AcDbLine
 10
85.83011193625617
 20
278.916548178546
 30
0.0
 11
85.83011193625617
 21
279.0396415413063
 31
0.0
  0
LINE
  5
1409
330
1E
100
AcDbEntity
  8
STEMPEL
100
AcDbLine
 10
85.83011193625617
 20
279.0396415413063
 30
0.0
 11
85.83011193625617
 21
279.0801479746108
 31
0.0
  0
ARC
  5
140A
330
1E
100
AcDbEntity
  8
STEMPEL
100
AcDbCircle
 10
68.44019838825079
 20
265.1194725620873
 30
0.0
 40
6.767023128081929
100
AcDbArc
 50
241.6629572917663
 51
298.3370427082154
  0
ARC
  5
140B
330
1E
100
AcDbEntity
  8
STEMPEL
100
AcDbCircle
 10
76.37818109785019
 20
272.5296794340057
 30
0.0
 40
14.17723
100
AcDbArc
 50
250.527827381376
 51
289.472172618624
  0
ARC
  5
140C
330
1E
100
AcDbEntity
  8
STEMPEL
100
AcDbCircle
 10
84.31616380744902
 20
265.1194725620895
 30
0.0
 40
6.76702312808409
100
AcDbArc
 50
241.6629572917918
 51
298.33704270823
  0
LINE
  5
140D
330
1E
100
AcDbEntity
  8
STEMPEL
100
AcDbLine
 10
65.22818109785021
 20
260.6505294340073
 30
0.0
 11
87.52818109785016
 21
260.6505294340081
 31
0.0
  0
LINE
  5
140E
330
1E
100
AcDbEntity
  8
STEMPEL
100
AcDbLine
 10
66.92625025945051
 20
251.4553953731375
 30
0.0
 11
66.92625025945051
 21
251.4148889398331
 31
0.0
  0
LINE
  5
140F
330
1E
100
AcDbEntity
  8
STEMPEL
100
AcDbLine
 10
66.92625025945051
 20
251.5784887358979
 30
0.0
 11
66.92625025945051
 21
251.4553953731375
 31
0.0
  0
LINE
  5
1410
330
1E
100
AcDbEntity
  8
STEMPEL
100
AcDbLine
 10
66.92625025945051
 20
251.9230190336467
 30
0.0
 11
66.92625025945051
 21
251.5784887358979
 31
0.0
  0
LINE
  5
1411
330
1E
100
AcDbEntity
  8
STEMPEL
100
AcDbLine
 10
69.29601114215381
 20
250.6445074804389
 30
0.0
 11
69.28992425946432
 21
250.6445074804389
 31
0.0
  0
LINE
  5
1412
330
1E
100
AcDbEntity
  8
STEMPEL
100
AcDbLine
 10
66.92625025945051
 20
251.4148889398331
 30
0.0
 11
67.45112175206975
 21
251.1118542422793
 31
0.0
  0
LINE
  5
1413
330
1E
100
AcDbEntity
  8
STEMPEL
100
AcDbLine
 10
66.92625025945051
 20
251.9230190336467
 30
0.0
 11
66.92625025945051
 21
258.5239768961576
 31
0.0
  0
LINE
  5
1414
330
1E
100
AcDbEntity
  8
STEMPEL
100
AcDbLine
 10
71.65221567864989
 20
251.9230190336467
 30
0.0
 11
71.65221567864989
 21
251.4553953731375
 31
0.0
  0
LINE
  5
1415
330
1E
100
AcDbEntity
  8
STEMPEL
100
AcDbLine
 10
81.10414651705047
 20
251.9230190336467
 30
0.0
 11
81.10414651705047
 21
251.4553953731375
 31
0.0
  0
LINE
  5
1416
330
1E
100
AcDbEntity
  8
STEMPEL
100
AcDbLine
 10
85.83011193625072
 20
251.9230190336467
 30
0.0
 11
85.83011193625072
 21
251.4148889398331
 31
0.0
  0
LINE
  5
1417
330
1E
100
AcDbEntity
  8
STEMPEL
100
AcDbLine
 10
85.83011193625072
 20
251.4148889398331
 30
0.0
 11
85.30524044363057
 21
251.1118542422793
 31
0.0
  0
ARC
  5
1418
330
1E
100
AcDbEntity
  8
STEMPEL
100
AcDbCircle
 10
83.46712922664966
 20
254.492897645535
 30
0.0
 40
3.848390227184345
100
AcDbArc
 50
232.1193642828266
 51
301.4691945240703
  0
ARC
  5
1419
330
1E
100
AcDbEntity
  8
STEMPEL
100
AcDbCircle
 10
76.37818109785019
 20
264.8217374804391
 30
0.0
 40
14.17723
100
AcDbArc
 50
250.527827381376
 51
289.472172618624
  0
LINE
  5
141A
330
1E
100
AcDbEntity
  8
STEMPEL
100
AcDbLine
 10
85.83011193625072
 20
251.9230190336467
 30
0.0
 11
85.83011193625067
 21
258.5239768961579
 31
0.0
  0
LINE
  5
141B
330
1E
100
AcDbEntity
  8
STEMPEL
100
AcDbLine
 10
81.10414651705047
 20
251.9230190336467
 30
0.0
 11
81.10414651705047
 21
259.1633373267036
 31
0.0
  0
LINE
  5
141C
330
1E
100
AcDbEntity
  8
STEMPEL
100
AcDbLine
 10
71.65221567864989
 20
251.9230190336467
 30
0.0
 11
71.65221567865103
 21
259.1633373267037
 31
0.0
  0
LINE
  5
141D
330
1E
100
AcDbEntity
  8
STEMPEL
100
AcDbLine
 10
83.46643793626236
 20
250.6445074804389
 30
0.0
 11
69.28992425945068
 21
250.6445074804389
 31
0.0
  0
ARC
  5
141E
330
1E
100
AcDbEntity
  8
STEMPEL
100
AcDbCircle
 10
69.28923296904975
 20
254.492897645535
 30
0.0
 40
3.848390227184345
100
AcDbArc
 50
238.5308054759296
 51
307.8806357171734
  0
LINE
  5
141F
330
1E
100
AcDbEntity
  8
STEMPEL
100
AcDbLine
 10
65.22818109785021
 20
259.1633373267049
 30
0.0
 11
65.22818109785021
 21
260.6505294340051
 31
0.0
  0
LINE
  5
1420
330
1E
100
AcDbEntity
  8
STEMPEL
100
AcDbLine
 10
87.52818109785023
 20
259.163337326705
 30
0.0
 11
87.52818109785016
 21
260.6505294340051
 31
0.0
  0
LINE
  5
1421
330
1E
100
AcDbEntity
  8
STEMPEL
100
AcDbLine
 10
211.310120794117
 20
259.163337326705
 30
0.0
 11
211.310120794117
 21
260.6505294340051
 31
0.0
  0
LINE
  5
1422
330
1E
100
AcDbEntity
  8
STEMPEL
100
AcDbLine
 10
233.6101207941169
 20
259.1633373267049
 30
0.0
 11
233.6101207941169
 21
260.6505294340051
 31
0.0
  0
ARC
  5
1423
330
1E
100
AcDbEntity
  8
STEMPEL
100
AcDbCircle
 10
229.5490689229174
 20
254.492897645535
 30
0.0
 40
3.848390227184345
100
AcDbArc
 50
232.1193642828266
 51
301.4691945240703
  0
LINE
  5
1424
330
1E
100
AcDbEntity
  8
STEMPEL
100
AcDbLine
 10
215.3718639557048
 20
250.6445074804389
 30
0.0
 11
229.5483776325164
 21
250.6445074804389
 31
0.0
  0
LINE
  5
1425
330
1E
100
AcDbEntity
  8
STEMPEL
100
AcDbLine
 10
227.1860862133173
 20
251.9230190336467
 30
0.0
 11
227.1860862133161
 21
259.1633373267037
 31
0.0
  0
LINE
  5
1426
330
1E
100
AcDbEntity
  8
STEMPEL
100
AcDbLine
 10
217.7341553749167
 20
251.9230190336467
 30
0.0
 11
217.7341553749167
 21
259.1633373267036
 31
0.0
  0
LINE
  5
1427
330
1E
100
AcDbEntity
  8
STEMPEL
100
AcDbLine
 10
213.0081899557165
 20
251.9230190336467
 30
0.0
 11
213.0081899557165
 21
258.5239768961579
 31
0.0
  0
ARC
  5
1428
330
1E
100
AcDbEntity
  8
STEMPEL
100
AcDbCircle
 10
222.4601207941169
 20
264.8217374804391
 30
0.0
 40
14.17723
100
AcDbArc
 50
250.527827381376
 51
289.472172618624
  0
ARC
  5
1429
330
1E
100
AcDbEntity
  8
STEMPEL
100
AcDbCircle
 10
215.3711726653175
 20
254.492897645535
 30
0.0
 40
3.848390227184345
100
AcDbArc
 50
238.5308054759296
 51
307.8806357171734
  0
LINE
  5
142A
330
1E
100
AcDbEntity
  8
STEMPEL
100
AcDbLine
 10
213.0081899557165
 20
251.4148889398331
 30
0.0
 11
213.5330614483367
 21
251.1118542422793
 31
0.0
  0
LINE
  5
142B
330
1E
100
AcDbEntity
  8
STEMPEL
100
AcDbLine
 10
213.0081899557165
 20
251.9230190336467
 30
0.0
 11
213.0081899557165
 21
251.4148889398331
 31
0.0
  0
LINE
  5
142C
330
1E
100
AcDbEntity
  8
STEMPEL
100
AcDbLine
 10
217.7341553749167
 20
251.9230190336467
 30
0.0
 11
217.7341553749167
 21
251.4553953731375
 31
0.0
  0
LINE
  5
142D
330
1E
100
AcDbEntity
  8
STEMPEL
100
AcDbLine
 10
227.1860862133173
 20
251.9230190336467
 30
0.0
 11
227.1860862133173
 21
251.4553953731375
 31
0.0
  0
LINE
  5
142E
330
1E
100
AcDbEntity
  8
STEMPEL
100
AcDbLine
 10
231.9120516325166
 20
251.9230190336467
 30
0.0
 11
231.9120516325166
 21
258.5239768961576
 31
0.0
  0
LINE
  5
142F
330
1E
100
AcDbEntity
  8
STEMPEL
100
AcDbLine
 10
231.9120516325166
 20
251.4148889398331
 30
0.0
 11
231.3871801398974
 21
251.1118542422793
 31
0.0
  0
LINE
  5
1430
330
1E
100
AcDbEntity
  8
STEMPEL
100
AcDbLine
 10
229.5422907498133
 20
250.6445074804389
 30
0.0
 11
229.5483776325028
 21
250.6445074804389
 31
0.0
  0
LINE
  5
1431
330
1E
100
AcDbEntity
  8
STEMPEL
100
AcDbLine
 10
231.9120516325166
 20
251.9230190336467
 30
0.0
 11
231.9120516325166
 21
251.5784887358979
 31
0.0
  0
LINE
  5
1432
330
1E
100
AcDbEntity
  8
STEMPEL
100
AcDbLine
 10
231.9120516325166
 20
251.5784887358979
 30
0.0
 11
231.9120516325166
 21
251.4553953731375
 31
0.0
  0
LINE
  5
1433
330
1E
100
AcDbEntity
  8
STEMPEL
100
AcDbLine
 10
231.9120516325166
 20
251.4553953731375
 30
0.0
 11
231.9120516325166
 21
251.4148889398331
 31
0.0
  0
LINE
  5
1434
330
1E
100
AcDbEntity
  8
STEMPEL
100
AcDbLine
 10
233.6101207941169
 20
260.6505294340073
 30
0.0
 11
211.310120794117
 21
260.6505294340081
 31
0.0
  0
ARC
  5
1435
330
1E
100
AcDbEntity
  8
STEMPEL
100
AcDbCircle
 10
214.5221380845181
 20
265.1194725620895
 30
0.0
 40
6.76702312808409
100
AcDbArc
 50
241.6629572917699
 51
298.3370427082082
  0
ARC
  5
1436
330
1E
100
AcDbEntity
  8
STEMPEL
100
AcDbCircle
 10
222.4601207941169
 20
272.5296794340057
 30
0.0
 40
14.17723
100
AcDbArc
 50
250.527827381376
 51
289.472172618624
  0
ARC
  5
1437
330
1E
100
AcDbEntity
  8
STEMPEL
100
AcDbCircle
 10
230.3981035037164
 20
265.1194725620873
 30
0.0
 40
6.767023128081929
100
AcDbArc
 50
241.6629572917845
 51
298.3370427082337
  0
LINE
  5
1438
330
1E
100
AcDbEntity
  8
STEMPEL
100
AcDbLine
 10
213.008189955711
 20
279.0396415413063
 30
0.0
 11
213.008189955711
 21
279.0801479746108
 31
0.0
  0
LINE
  5
1439
330
1E
100
AcDbEntity
  8
STEMPEL
100
AcDbLine
 10
213.008189955711
 20
278.916548178546
 30
0.0
 11
213.008189955711
 21
279.0396415413063
 31
0.0
  0
LINE
  5
143A
330
1E
100
AcDbEntity
  8
STEMPEL
100
AcDbLine
 10
213.008189955711
 20
278.5720178807971
 30
0.0
 11
213.008189955711
 21
278.916548178546
 31
0.0
  0
LINE
  5
143B
330
1E
100
AcDbEntity
  8
STEMPEL
100
AcDbLine
 10
215.3779508384143
 20
279.850529434005
 30
0.0
 11
215.3718639557248
 21
279.850529434005
 31
0.0
  0
LINE
  5
143C
330
1E
100
AcDbEntity
  8
STEMPEL
100
AcDbLine
 10
213.008189955711
 20
279.0801479746108
 30
0.0
 11
213.5330614483303
 21
279.3831826721646
 31
0.0
  0
LINE
  5
143D
330
1E
100
AcDbEntity
  8
STEMPEL
100
AcDbLine
 10
213.008189955711
 20
278.5720178807971
 30
0.0
 11
213.008189955711
 21
272.7770819718533
 31
0.0
  0
LINE
  5
143E
330
1E
100
AcDbEntity
  8
STEMPEL
100
AcDbLine
 10
217.7341553749104
 20
278.5720178807971
 30
0.0
 11
217.7341553749104
 21
279.0396415413063
 31
0.0
  0
LINE
  5
143F
330
1E
100
AcDbEntity
  8
STEMPEL
100
AcDbLine
 10
227.186086213311
 20
278.5720178807971
 30
0.0
 11
227.186086213311
 21
279.0396415413063
 31
0.0
  0
LINE
  5
1440
330
1E
100
AcDbEntity
  8
STEMPEL
100
AcDbLine
 10
231.9120516325113
 20
278.5720178807971
 30
0.0
 11
231.9120516325113
 21
279.0801479746108
 31
0.0
  0
LINE
  5
1441
330
1E
100
AcDbEntity
  8
STEMPEL
100
AcDbLine
 10
231.9120516325113
 20
279.0801479746108
 30
0.0
 11
231.3871801398911
 21
279.3831826721646
 31
0.0
  0
ARC
  5
1442
330
1E
100
AcDbEntity
  8
STEMPEL
100
AcDbCircle
 10
229.5490689229102
 20
276.0021392689089
 30
0.0
 40
3.848390227184345
100
AcDbArc
 50
58.5308054759296
 51
127.8806357171734
  0
ARC
  5
1443
330
1E
100
AcDbEntity
  8
STEMPEL
100
AcDbCircle
 10
222.4601207941107
 20
265.6732994340048
 30
0.0
 40
14.17723
100
AcDbArc
 50
70.52782738137596
 51
109.472172618624
  0
LINE
  5
1444
330
1E
100
AcDbEntity
  8
STEMPEL
100
AcDbLine
 10
231.9120516325113
 20
278.5720178807971
 30
0.0
 11
231.9120516325113
 21
272.7770819718561
 31
0.0
  0
LINE
  5
1445
330
1E
100
AcDbEntity
  8
STEMPEL
100
AcDbLine
 10
227.186086213311
 20
278.5720178807971
 30
0.0
 11
227.1860862133109
 21
272.1377215413049
 31
0.0
  0
LINE
  5
1446
330
1E
100
AcDbEntity
  8
STEMPEL
100
AcDbLine
 10
217.7341553749104
 20
278.5720178807971
 30
0.0
 11
217.7341553749115
 21
272.1377215413117
 31
0.0
  0
LINE
  5
1447
330
1E
100
AcDbEntity
  8
STEMPEL
100
AcDbLine
 10
229.5483776325229
 20
279.850529434005
 30
0.0
 11
215.3718639557112
 21
279.850529434005
 31
0.0
  0
ARC
  5
1448
330
1E
100
AcDbEntity
  8
STEMPEL
100
AcDbCircle
 10
215.3711726653103
 20
276.0021392689089
 30
0.0
 40
3.848390227184345
100
AcDbArc
 50
52.11936428282661
 51
121.4691945240704
  0
LINE
  5
144C
330
1E
100
AcDbEntity
  8
STEMPEL
100
AcDbLine
 10
204.4191509459854
 20
462.8938882311824
 30
0.0
 11
94.4191509459854
 21
462.8938882311847
 31
0.0
  0
LINE
  5
144D
330
1E
100
AcDbEntity
  8
STEMPEL
100
AcDbLine
 10
229.4191509459854
 20
458.7938882311902
 30
0.0
 11
208.4191509459849
 21
458.7938882311893
 31
0.0
  0
LINE
  5
144E
330
1E
100
AcDbEntity
  8
MITTEL
100
AcDbLine
 10
149.4191509459854
 20
467.8938882311835
 30
0.0
 11
149.4191509459834
 21
378.7938882311852
 31
0.0
  0
LINE
  5
144F
330
1E
100
AcDbEntity
  8
STEMPEL
100
AcDbLine
 10
208.4191509459854
 20
458.8938882311824
 30
0.0
 11
208.4191509459854
 21
458.7938882311897
 31
0.0
  0
LINE
  5
1450
330
1E
100
AcDbEntity
  8
STEMPEL
100
AcDbLine
 10
69.41915094599494
 20
383.7938882311811
 30
0.0
 11
229.4191509459836
 21
383.7938882311893
 31
0.0
  0
LINE
  5
1451
330
1E
100
AcDbEntity
  8
STEMPEL
100
AcDbLine
 10
234.4191509459854
 20
453.7938882311906
 30
0.0
 11
234.4191509459836
 21
388.7938882311897
 31
0.0
  0
ARC
  5
1452
330
1E
100
AcDbEntity
  8
STEMPEL
100
AcDbCircle
 10
204.4191509459854
 20
458.8938882311823
 30
0.0
 40
4.0
100
AcDbArc
 50
0.0
 51
90.0
  0
LINE
  5
1453
330
1E
100
AcDbEntity
  8
STEMPEL
100
AcDbLine
 10
229.4191509459854
 20
458.7938882311902
 30
0.0
 11
234.4191509459854
 21
453.7938882311906
 31
0.0
  0
LINE
  5
1454
330
1E
100
AcDbEntity
  8
STEMPEL
100
AcDbLine
 10
234.4191509459836
 20
388.7938882311902
 30
0.0
 11
229.4191509459836
 21
383.7938882311893
 31
0.0
  0
LINE
  5
1455
330
1E
100
AcDbEntity
  8
HILF
100
AcDbLine
 10
210.9191509459854
 20
458.7938882311897
 30
0.0
 11
210.9191509459845
 21
445.7938882311834
 31
0.0
  0
ARC
  5
1456
330
1E
100
AcDbEntity
  8
HILF
100
AcDbCircle
 10
204.4191509459845
 20
445.7938882311833
 30
0.0
 40
6.5
100
AcDbArc
 50
293.5781784782077
 51
0.0
  0
LINE
  5
1457
330
1E
100
AcDbEntity
  8
HILF
100
AcDbLine
 10
207.0191509459848
 20
439.8365398277412
 30
0.0
 11
207.0191509459848
 21
411.5507677315305
 31
0.0
  0
ARC
  5
1458
330
1E
100
AcDbEntity
  8
HILF
100
AcDbCircle
 10
185.5191509459848
 20
411.5507677315305
 30
0.0
 40
21.5
100
AcDbArc
 50
329.3165828910234
 51
0.0
  0
LINE
  5
1459
330
1E
100
AcDbEntity
  8
HILF
100
AcDbLine
 10
203.5191509459849
 20
398.7934169093579
 30
0.0
 11
203.5191509459853
 21
384.7938882311888
 31
0.0
  0
ARC
  5
145A
330
1E
100
AcDbEntity
  8
HILF
100
AcDbCircle
 10
207.0191509459853
 20
398.7934169093584
 30
0.0
 40
3.5
100
AcDbArc
 50
149.3165828910234
 51
180.0
  0
ARC
  5
145B
330
1E
100
AcDbEntity
  8
HILF
100
AcDbCircle
 10
91.81915094598229
 20
398.7934169093611
 30
0.0
 40
3.5
100
AcDbArc
 50
0.0
 51
30.68341710897659
  0
LINE
  5
145C
330
1E
100
AcDbEntity
  8
HILF
100
AcDbLine
 10
95.31915094598321
 20
398.7934169093602
 30
0.0
 11
95.31915094598184
 21
384.7938882311911
 31
0.0
  0
ARC
  5
145D
330
1E
100
AcDbEntity
  8
HILF
100
AcDbCircle
 10
113.3191509459836
 20
411.5507677315319
 30
0.0
 40
21.5
100
AcDbArc
 50
180.0
 51
210.6834171089766
  0
LINE
  5
145E
330
1E
100
AcDbEntity
  8
HILF
100
AcDbLine
 10
91.81915094598503
 20
439.8365398277439
 30
0.0
 11
91.81915094598366
 21
411.5507677315332
 31
0.0
  0
ARC
  5
145F
330
1E
100
AcDbEntity
  8
HILF
100
AcDbCircle
 10
94.4191509459854
 20
445.7938882311856
 30
0.0
 40
6.5
100
AcDbArc
 50
180.0
 51
246.4218215217922
  0
LINE
  5
1460
330
1E
100
AcDbEntity
  8
HILF
100
AcDbLine
 10
87.9191509459854
 20
458.7938882311925
 30
0.0
 11
87.9191509459854
 21
445.7938882311861
 31
0.0
  0
LINE
  5
1461
330
1E
100
AcDbEntity
  8
STEMPEL
100
AcDbLine
 10
64.41915094598357
 20
388.7938882311939
 30
0.0
 11
69.41915094599494
 21
383.7938882311811
 31
0.0
  0
LINE
  5
1462
330
1E
100
AcDbEntity
  8
STEMPEL
100
AcDbLine
 10
69.4191509459863
 20
458.7938882311938
 30
0.0
 11
64.41915094598494
 21
453.7938882311943
 31
0.0
  0
ARC
  5
1463
330
1E
100
AcDbEntity
  8
STEMPEL
100
AcDbCircle
 10
94.4191509459854
 20
458.8938882311847
 30
0.0
 40
4.0
100
AcDbArc
 50
90.0
 51
180.0
  0
LINE
  5
1464
330
1E
100
AcDbEntity
  8
STEMPEL
100
AcDbLine
 10
64.41915094598494
 20
453.7938882311943
 30
0.0
 11
64.41915094598357
 21
388.7938882311934
 31
0.0
  0
LINE
  5
1465
330
1E
100
AcDbEntity
  8
STEMPEL
100
AcDbLine
 10
90.4191509459854
 20
458.8938882311851
 30
0.0
 11
90.4191509459854
 21
458.7938882311925
 31
0.0
  0
LINE
  5
1466
330
1E
100
AcDbEntity
  8
STEMPEL
100
AcDbLine
 10
69.4191509459863
 20
458.7938882311938
 30
0.0
 11
90.4191509459854
 21
458.793888231192
 31
0.0
  0
LINE
  5
1467
330
1E
100
AcDbEntity
  8
STEMPEL
100
AcDbLine
 10
207.0191509459848
 20
439.8365398277412
 30
0.0
 11
91.81915094598503
 21
439.8365398277435
 31
0.0
  0
LINE
  5
146A
330
1E
100
AcDbEntity
  8
HILF
100
AcDbLine
 10
209.7110850698357
 20
445.7938882311829
 30
0.0
 11
89.14163375186239
 21
445.7938882311856
 31
0.0
  0
LINE
  5
146B
330
1E
100
AcDbEntity
  8
HILF
100
AcDbLine
 10
208.4191509459854
 20
458.8938882311824
 30
0.0
 11
90.4191509459854
 21
458.8938882311847
 31
0.0
  0
LINE
  5
146C
330
1E
100
AcDbEntity
  8
MITTEL
100
AcDbLine
 10
65.91915094598494
 20
446.7938882311933
 30
0.0
 11
86.91915094598494
 21
446.7938882311933
 31
0.0
  0
LINE
  5
146D
330
1E
100
AcDbEntity
  8
MITTEL
100
AcDbLine
 10
76.41915094598494
 20
435.7938882311934
 30
0.0
 11
76.41915094598494
 21
457.2938882311934
 31
0.0
  0
LINE
  5
146E
330
1E
100
AcDbEntity
  8
MITTEL
100
AcDbLine
 10
72.91915094598357
 20
396.793888231182
 30
0.0
 11
93.91915094598358
 21
396.793888231182
 31
0.0
  0
LINE
  5
146F
330
1E
100
AcDbEntity
  8
MITTEL
100
AcDbLine
 10
83.41915094598357
 20
386.293888231182
 30
0.0
 11
83.41915094598357
 21
407.2938882311819
 31
0.0
  0
LINE
  5
1470
330
1E
100
AcDbEntity
  8
MITTEL
100
AcDbLine
 10
222.4191509459845
 20
436.2938882311906
 30
0.0
 11
222.4191509459854
 21
457.2938882311906
 31
0.0
  0
LINE
  5
1471
330
1E
100
AcDbEntity
  8
MITTEL
100
AcDbLine
 10
232.9191509459845
 20
446.7938882311897
 30
0.0
 11
211.9191509459845
 21
446.7938882311911
 31
0.0
  0
LINE
  5
1472
330
1E
100
AcDbEntity
  8
MITTEL
100
AcDbLine
 10
215.4191509459831
 20
386.2938882311793
 30
0.0
 11
215.419150945984
 21
407.2938882311793
 31
0.0
  0
LINE
  5
1473
330
1E
100
AcDbEntity
  8
MITTEL
100
AcDbLine
 10
225.9191509459836
 20
396.7938882311788
 30
0.0
 11
204.9191509459836
 21
396.7938882311797
 31
0.0
  0
ARC
  5
1478
330
1E
100
AcDbEntity
  8
STEMPEL
100
AcDbCircle
 10
210.4601207941112
 20
258.1505294340062
 30
0.0
 40
2.5
100
AcDbArc
 50
90.0
 51
172.995273590917
  0
ARC
  5
1479
330
1E
100
AcDbEntity
  8
STEMPEL
100
AcDbCircle
 10
88.37818109785644
 20
258.1505294340071
 30
0.0
 40
2.5
100
AcDbArc
 50
7.004726409082929
 51
90.0
  0
ARC
  5
147A
330
1E
100
AcDbEntity
  8
STEMPEL
100
AcDbCircle
 10
149.4191509459835
 20
265.6505294340062
 30
0.0
 40
58.99999999999909
100
AcDbArc
 50
187.00472640907
 51
352.99527359093
  0
LINE
  5
147B
330
1E
100
AcDbEntity
  8
STEMPEL
100
AcDbLine
 10
64.41915094598312
 20
260.6505294340062
 30
0.0
 11
88.37818109785644
 21
260.6505294340062
 31
0.0
  0
LINE
  5
147C
330
1E
100
AcDbEntity
  8
STEMPEL
100
AcDbLine
 10
64.41915094598312
 20
264.6505294340067
 30
0.0
 11
64.41915094598312
 21
260.6505294340067
 31
0.0
  0
LINE
  5
147D
330
1E
100
AcDbEntity
  8
STEMPEL
100
AcDbLine
 10
64.41915094598312
 20
264.6505294340062
 30
0.0
 11
91.80526373118595
 21
264.6505294340062
 31
0.0
  0
ARC
  5
147E
330
1E
100
AcDbEntity
  8
STEMPEL
100
AcDbCircle
 10
149.4191509459835
 20
265.6505294340062
 30
0.0
 40
47.99999999999909
100
AcDbArc
 50
187.7827143853952
 51
352.2172856146048
  0
LINE
  5
147F
330
1E
100
AcDbEntity
  8
STEMPEL
100
AcDbLine
 10
234.419150945984
 20
264.650529434008
 30
0.0
 11
207.0330381607812
 21
264.6505294340076
 31
0.0
  0
LINE
  5
1480
330
1E
100
AcDbEntity
  8
STEMPEL
100
AcDbLine
 10
234.419150945984
 20
264.650529434008
 30
0.0
 11
234.419150945984
 21
260.6505294340081
 31
0.0
  0
LINE
  5
1481
330
1E
100
AcDbEntity
  8
STEMPEL
100
AcDbLine
 10
234.419150945984
 20
260.6505294340081
 30
0.0
 11
210.4601207941112
 21
260.6505294340076
 31
0.0
  0
ARC
  5
1482
330
1E
100
AcDbEntity
  8
STEMPEL
100
AcDbCircle
 10
88.27743032903867
 20
258.1505294340062
 30
0.0
 40
6.5
100
AcDbArc
 50
8.849883098430879
 51
90.0
  0
ARC
  5
1483
330
1E
100
AcDbEntity
  8
STEMPEL
100
AcDbCircle
 10
210.5608715629285
 20
258.1505294340076
 30
0.0
 40
6.5
100
AcDbArc
 50
90.0
 51
171.1501169015675
  0
ARC
  5
1484
330
1E
100
AcDbEntity
  8
STEMPEL
100
AcDbCircle
 10
91.80526373118595
 20
258.1505294340062
 30
0.0
 40
6.5
100
AcDbArc
 50
8.849883098430879
 51
90.0
  0
ARC
  5
1485
330
1E
100
AcDbEntity
  8
STEMPEL
100
AcDbCircle
 10
207.0330381607812
 20
258.150529434008
 30
0.0
 40
6.5
100
AcDbArc
 50
90.0
 51
171.1501169015804
  0
ARC
  5
1486
330
1E
100
AcDbEntity
  8
STEMPEL
100
AcDbCircle
 10
207.0330381607812
 20
273.1505294340053
 30
0.0
 40
6.5
100
AcDbArc
 50
188.8498830984308
 51
270.0
  0
ARC
  5
1487
330
1E
100
AcDbEntity
  8
STEMPEL
100
AcDbCircle
 10
91.80526373118595
 20
273.1505294340062
 30
0.0
 40
6.5
100
AcDbArc
 50
270.0
 51
351.1501169015675
  0
ARC
  5
1488
330
1E
100
AcDbEntity
  8
STEMPEL
100
AcDbCircle
 10
210.5608715629285
 20
273.1505294340053
 30
0.0
 40
6.5
100
AcDbArc
 50
188.8498830984308
 51
270.0
  0
ARC
  5
1489
330
1E
100
AcDbEntity
  8
STEMPEL
100
AcDbCircle
 10
88.27743032903867
 20
273.1505294340062
 30
0.0
 40
6.5
100
AcDbArc
 50
270.0
 51
351.1501169015675
  0
LINE
  5
148A
330
1E
100
AcDbEntity
  8
STEMPEL
100
AcDbLine
 10
234.419150945984
 20
270.6505294340049
 30
0.0
 11
210.4601207941112
 21
270.6505294340053
 31
0.0
  0
LINE
  5
148B
330
1E
100
AcDbEntity
  8
STEMPEL
100
AcDbLine
 10
234.419150945984
 20
266.6505294340044
 30
0.0
 11
234.419150945984
 21
270.6505294340044
 31
0.0
  0
LINE
  5
148C
330
1E
100
AcDbEntity
  8
STEMPEL
100
AcDbLine
 10
234.419150945984
 20
266.6505294340049
 30
0.0
 11
207.0330381607812
 21
266.6505294340053
 31
0.0
  0
ARC
  5
148D
330
1E
100
AcDbEntity
  8
STEMPEL
100
AcDbCircle
 10
149.4191509459835
 20
265.6505294340062
 30
0.0
 40
47.99999999999909
100
AcDbArc
 50
7.782714385395259
 51
172.2172856146047
  0
LINE
  5
148E
330
1E
100
AcDbEntity
  8
STEMPEL
100
AcDbLine
 10
64.41915094598312
 20
266.6505294340062
 30
0.0
 11
91.80526373118595
 21
266.6505294340062
 31
0.0
  0
LINE
  5
148F
330
1E
100
AcDbEntity
  8
STEMPEL
100
AcDbLine
 10
64.41915094598312
 20
266.6505294340062
 30
0.0
 11
64.41915094598312
 21
270.6505294340062
 31
0.0
  0
LINE
  5
1490
330
1E
100
AcDbEntity
  8
STEMPEL
100
AcDbLine
 10
64.41915094598312
 20
270.6505294340062
 30
0.0
 11
88.37818109785644
 21
270.6505294340062
 31
0.0
  0
ARC
  5
1491
330
1E
100
AcDbEntity
  8
STEMPEL
100
AcDbCircle
 10
149.4191509459835
 20
265.6505294340062
 30
0.0
 40
58.99999999999909
100
AcDbArc
 50
7.004726409069999
 51
172.99527359093
  0
ARC
  5
1492
330
1E
100
AcDbEntity
  8
STEMPEL
100
AcDbCircle
 10
88.37818109785644
 20
273.1505294340062
 30
0.0
 40
2.5
100
AcDbArc
 50
270.0
 51
352.9952735909171
  0
ARC
  5
1493
330
1E
100
AcDbEntity
  8
STEMPEL
100
AcDbCircle
 10
210.4601207941112
 20
273.1505294340062
 30
0.0
 40
2.5
100
AcDbArc
 50
187.0047264090829
 51
270.0
  0
LINE
  5
1494
330
1E
100
AcDbEntity
  8
MITTEL
100
AcDbLine
 10
76.37818109785644
 20
284.0524494340065
 30
0.0
 11
76.37818109785644
 21
234.6505294340066
 31
0.0
  0
LINE
  5
1495
330
1E
100
AcDbEntity
  8
HILF
100
AcDbLine
 10
79.87818109785644
 20
250.6505294340062
 30
0.0
 11
79.87818109785644
 21
239.6505294340066
 31
0.0
  0
LINE
  5
1496
330
1E
100
AcDbEntity
  8
STEMPEL
100
AcDbLine
 10
79.87818109785644
 20
239.6505294340066
 30
0.0
 11
81.37818109785644
 21
241.1505294340066
 31
0.0
  0
LINE
  5
1497
330
1E
100
AcDbEntity
  8
STEMPEL
100
AcDbLine
 10
71.37818109785644
 20
241.1505294340066
 30
0.0
 11
81.37818109785644
 21
241.1505294340066
 31
0.0
  0
LINE
  5
1498
330
1E
100
AcDbEntity
  8
STEMPEL
100
AcDbLine
 10
72.87818109785644
 20
239.6505294340066
 30
0.0
 11
79.87818109785644
 21
239.6505294340066
 31
0.0
  0
LINE
  5
1499
330
1E
100
AcDbEntity
  8
STEMPEL
100
AcDbLine
 10
81.37818109785644
 20
250.6505294340067
 30
0.0
 11
81.37818109785644
 21
241.1505294340066
 31
0.0
  0
LINE
  5
149A
330
1E
100
AcDbEntity
  8
HILF
100
AcDbLine
 10
72.87818109785644
 20
250.6505294340062
 30
0.0
 11
72.87818109785644
 21
239.6505294340066
 31
0.0
  0
LINE
  5
149B
330
1E
100
AcDbEntity
  8
STEMPEL
100
AcDbLine
 10
71.37818109785644
 20
241.1505294340066
 30
0.0
 11
72.87818109785644
 21
239.6505294340066
 31
0.0
  0
LINE
  5
149C
330
1E
100
AcDbEntity
  8
STEMPEL
100
AcDbLine
 10
71.37818109785644
 20
250.6505294340067
 30
0.0
 11
71.37818109785644
 21
241.1505294340066
 31
0.0
  0
LINE
  5
149D
330
1E
100
AcDbEntity
  8
STEMPEL
100
AcDbLine
 10
227.4601207941107
 20
250.6505294340067
 30
0.0
 11
227.4601207941107
 21
241.1505294340066
 31
0.0
  0
LINE
  5
149E
330
1E
100
AcDbEntity
  8
STEMPEL
100
AcDbLine
 10
227.4601207941107
 20
241.1505294340066
 30
0.0
 11
225.9601207941107
 21
239.6505294340066
 31
0.0
  0
LINE
  5
149F
330
1E
100
AcDbEntity
  8
HILF
100
AcDbLine
 10
225.9601207941107
 20
250.6505294340062
 30
0.0
 11
225.9601207941107
 21
239.6505294340066
 31
0.0
  0
LINE
  5
14A0
330
1E
100
AcDbEntity
  8
STEMPEL
100
AcDbLine
 10
217.4601207941107
 20
250.6505294340067
 30
0.0
 11
217.4601207941107
 21
241.1505294340066
 31
0.0
  0
LINE
  5
14A1
330
1E
100
AcDbEntity
  8
STEMPEL
100
AcDbLine
 10
225.9601207941107
 20
239.6505294340066
 30
0.0
 11
218.9601207941107
 21
239.6505294340066
 31
0.0
  0
LINE
  5
14A2
330
1E
100
AcDbEntity
  8
STEMPEL
100
AcDbLine
 10
227.4601207941107
 20
241.1505294340066
 30
0.0
 11
217.4601207941107
 21
241.1505294340066
 31
0.0
  0
LINE
  5
14A3
330
1E
100
AcDbEntity
  8
STEMPEL
100
AcDbLine
 10
218.9601207941107
 20
239.6505294340066
 30
0.0
 11
217.4601207941107
 21
241.1505294340066
 31
0.0
  0
LINE
  5
14A4
330
1E
100
AcDbEntity
  8
HILF
100
AcDbLine
 10
218.9601207941107
 20
250.6505294340062
 30
0.0
 11
218.9601207941107
 21
239.6505294340066
 31
0.0
  0
LINE
  5
14A5
330
1E
100
AcDbEntity
  8
MITTEL
100
AcDbLine
 10
222.4601207941107
 20
284.0524494340065
 30
0.0
 11
222.4601207941107
 21
234.6505294340066
 31
0.0
  0
LINE
  5
14A6
330
1E
100
AcDbEntity
  8
STEMPEL
100
AcDbLine
 10
90.66946894533407
 20
272.1505294340062
 30
0.0
 11
101.8612914483158
 21
272.1505294340062
 31
0.0
  0
LINE
  5
14A7
330
1E
100
AcDbEntity
  8
STEMPEL
100
AcDbLine
 10
90.66946894533453
 20
259.1505294340067
 30
0.0
 11
101.8612914483158
 21
259.1505294340062
 31
0.0
  0
LINE
  5
14A8
330
1E
100
AcDbEntity
  8
STEMPEL
100
AcDbLine
 10
208.1688329466335
 20
272.1505294340053
 30
0.0
 11
196.9770104436513
 21
272.1505294340053
 31
0.0
  0
LINE
  5
14A9
330
1E
100
AcDbEntity
  8
STEMPEL
100
AcDbLine
 10
208.168832946634
 20
259.150529434008
 30
0.0
 11
196.9770104436513
 21
259.1505294340071
 31
0.0
  0
LINE
  5
14AA
330
1E
100
AcDbEntity
  8
MITTEL
100
AcDbLine
 10
149.4191509459835
 20
201.6505294340071
 30
0.0
 11
149.4191509459835
 21
329.6505294340053
 31
0.0
  0
LINE
  5
14AB
330
1E
100
AcDbEntity
  8
MITTEL
100
AcDbLine
 10
59.41915094598312
 20
265.6505294340062
 30
0.0
 11
239.419150945984
 21
265.6505294340062
 31
0.0
  0
LINE
  5
14D4
330
1E
100
AcDbEntity
  8
STEMPEL
100
AcDbLine
 10
334.6196785080153
 20
462.8938882311834
 30
0.0
 11
334.6196785080138
 21
383.8938882311864
 31
0.0
  0
LINE
  5
14D5
330
1E
100
AcDbEntity
  8
MITTEL
100
AcDbLine
 10
333.6196785080152
 20
467.8938882311835
 30
0.0
 11
333.6196785080137
 21
378.8938882311865
 31
0.0
  0
LINE
  5
14D6
330
1E
100
AcDbEntity
  8
STEMPEL
100
AcDbLine
 10
385.2196785080156
 20
383.8938882311818
 30
0.0
 11
334.6196785080139
 21
383.8938882311864
 31
0.0
  0
ARC
  5
14D7
330
1E
100
AcDbEntity
  8
STEMPEL
100
AcDbCircle
 10
388.6196785080148
 20
445.8938882311839
 30
0.0
 40
4.0
100
AcDbArc
 50
300.000000000015
 51
359.9999999999968
  0
LINE
  5
14D8
330
1E
100
AcDbEntity
  8
STEMPEL
100
AcDbLine
 10
390.6196785080155
 20
442.4297866160467
 30
0.0
 11
388.7196785080154
 21
441.3328211045858
 31
0.0
  0
LINE
  5
14D9
330
1E
100
AcDbEntity
  8
STEMPEL
100
AcDbLine
 10
388.7196785080151
 20
441.3328211045855
 30
0.0
 11
388.7196785080154
 21
411.6507677315312
 31
0.0
  0
ARC
  5
14DA
330
1E
100
AcDbEntity
  8
STEMPEL
100
AcDbCircle
 10
369.7196785080154
 20
411.650767731531
 30
0.0
 40
19.0
100
AcDbArc
 50
329.3165828910304
 51
359.9999999999968
  0
ARC
  5
14DB
330
1E
100
AcDbEntity
  8
STEMPEL
100
AcDbCircle
 10
391.2196785080158
 20
398.8934169093586
 30
0.0
 40
6.0
100
AcDbArc
 50
149.3165828910304
 51
179.9999999999967
  0
LINE
  5
14DC
330
1E
100
AcDbEntity
  8
STEMPEL
100
AcDbLine
 10
385.2196785080153
 20
398.8934169093584
 30
0.0
 11
385.2196785080158
 21
383.8938882311818
 31
0.0
  0
LINE
  5
14E3
330
1E
100
AcDbEntity
  8
STEMPEL
100
AcDbLine
 10
392.6196785080152
 20
458.8938882311837
 30
0.0
 11
392.6196785080148
 21
445.8938882311835
 31
0.0
  0
ARC
  5
14E6
330
1E
100
AcDbEntity
  8
STEMPEL
100
AcDbCircle
 10
388.6196785080152
 20
458.8938882311839
 30
0.0
 40
4.0
100
AcDbArc
 50
359.9999999999968
 51
90.0
  0
LINE
  5
14EA
330
1E
100
AcDbEntity
  8
STEMPEL
100
AcDbLine
 10
334.619678508015
 20
462.8938882311834
 30
0.0
 11
388.6196785080153
 21
462.8938882311817
 31
0.0
  0
LINE
  5
14EB
330
1E
100
AcDbEntity
  8
MITTEL
100
AcDbLine
 10
222.4191509459656
 20
462.9438882311906
 30
0.0
 11
222.4191509460035
 21
430.6438882311907
 31
0.0
  0
LINE
  5
14EC
330
1E
100
AcDbEntity
  8
MITTEL
100
AcDbLine
 10
238.5691509459844
 20
446.7938882312143
 30
0.0
 11
206.2691509459845
 21
446.7938882311651
 31
0.0
  0
LINE
  5
14ED
330
1E
100
AcDbEntity
  8
STEMPEL
100
AcDbLine
 10
212.6041963697609
 20
446.7938882311906
 30
0.0
 11
217.5116736578726
 21
438.2938882311906
 31
0.0
  0
LINE
  5
14EE
330
1E
100
AcDbEntity
  8
STEMPEL
100
AcDbLine
 10
217.5116736578726
 20
438.2938882311906
 30
0.0
 11
227.3266282340962
 21
438.2938882311906
 31
0.0
  0
LINE
  5
14EF
330
1E
100
AcDbEntity
  8
STEMPEL
100
AcDbLine
 10
227.3266282340962
 20
438.2938882311906
 30
0.0
 11
232.2341055222081
 21
446.7938882311906
 31
0.0
  0
ARC
  5
14F0
330
1E
100
AcDbEntity
  8
HILF
100
AcDbCircle
 10
222.4191509459845
 20
446.7938882311906
 30
0.0
 40
4.0
100
AcDbArc
 50
195.0000000000993
 51
105.0000000000663
  0
CIRCLE
  5
14F1
330
1E
100
AcDbEntity
  8
STEMPEL
100
AcDbCircle
 10
222.4191509459845
 20
446.7938882311906
 30
0.0
 40
5.0
  0
LINE
  5
14F2
330
1E
100
AcDbEntity
  8
STEMPEL
100
AcDbLine
 10
217.5116736578727
 20
455.2938882311906
 30
0.0
 11
212.6041963697609
 21
446.7938882311906
 31
0.0
  0
CIRCLE
  5
14F3
330
1E
100
AcDbEntity
  8
STEMPEL
100
AcDbCircle
 10
222.4191509459845
 20
446.7938882311906
 30
0.0
 40
11.0
  0
CIRCLE
  5
14F4
330
1E
100
AcDbEntity
  8
STEMPEL
100
AcDbCircle
 10
222.4191509459845
 20
446.7938882311906
 30
0.0
 40
8.5
  0
LINE
  5
14F5
330
1E
100
AcDbEntity
  8
STEMPEL
100
AcDbLine
 10
232.2341055222081
 20
446.7938882311906
 30
0.0
 11
227.3266282340963
 21
455.2938882311906
 31
0.0
  0
LINE
  5
14F6
330
1E
100
AcDbEntity
  8
STEMPEL
100
AcDbLine
 10
227.3266282340963
 20
455.2938882311906
 30
0.0
 11
217.5116736578727
 21
455.2938882311906
 31
0.0
  0
LINE
  5
14F7
330
1E
100
AcDbEntity
  8
MITTEL
100
AcDbLine
 10
215.4191509459647
 20
412.9438882311792
 30
0.0
 11
215.4191509460026
 21
380.6438882311793
 31
0.0
  0
LINE
  5
14F8
330
1E
100
AcDbEntity
  8
MITTEL
100
AcDbLine
 10
231.5691509459835
 20
396.793888231203
 30
0.0
 11
199.2691509459836
 21
396.7938882311538
 31
0.0
  0
LINE
  5
14F9
330
1E
100
AcDbEntity
  8
STEMPEL
100
AcDbLine
 10
205.6041963697599
 20
396.7938882311793
 30
0.0
 11
210.5116736578717
 21
388.2938882311793
 31
0.0
  0
LINE
  5
14FA
330
1E
100
AcDbEntity
  8
STEMPEL
100
AcDbLine
 10
210.5116736578717
 20
388.2938882311793
 30
0.0
 11
220.3266282340953
 21
388.2938882311793
 31
0.0
  0
LINE
  5
14FB
330
1E
100
AcDbEntity
  8
STEMPEL
100
AcDbLine
 10
220.3266282340953
 20
388.2938882311793
 30
0.0
 11
225.2341055222072
 21
396.7938882311793
 31
0.0
  0
ARC
  5
14FC
330
1E
100
AcDbEntity
  8
HILF
100
AcDbCircle
 10
215.4191509459836
 20
396.7938882311793
 30
0.0
 40
4.0
100
AcDbArc
 50
195.0000000000993
 51
105.0000000000663
  0
CIRCLE
  5
14FD
330
1E
100
AcDbEntity
  8
STEMPEL
100
AcDbCircle
 10
215.4191509459836
 20
396.7938882311793
 30
0.0
 40
5.0
  0
LINE
  5
14FE
330
1E
100
AcDbEntity
  8
STEMPEL
100
AcDbLine
 10
210.5116736578718
 20
405.2938882311792
 30
0.0
 11
205.6041963697599
 21
396.7938882311793
 31
0.0
  0
CIRCLE
  5
14FF
330
1E
100
AcDbEntity
  8
STEMPEL
100
AcDbCircle
 10
215.4191509459836
 20
396.7938882311793
 30
0.0
 40
11.0
  0
CIRCLE
  5
1500
330
1E
100
AcDbEntity
  8
STEMPEL
100
AcDbCircle
 10
215.4191509459836
 20
396.7938882311793
 30
0.0
 40
8.5
  0
LINE
  5
1501
330
1E
100
AcDbEntity
  8
STEMPEL
100
AcDbLine
 10
225.2341055222072
 20
396.7938882311793
 30
0.0
 11
220.3266282340954
 21
405.2938882311792
 31
0.0
  0
LINE
  5
1502
330
1E
100
AcDbEntity
  8
STEMPEL
100
AcDbLine
 10
220.3266282340954
 20
405.2938882311792
 30
0.0
 11
210.5116736578718
 21
405.2938882311792
 31
0.0
  0
LINE
  5
1503
330
1E
100
AcDbEntity
  8
MITTEL
100
AcDbLine
 10
76.41915094596607
 20
462.9438882311934
 30
0.0
 11
76.41915094600392
 21
430.6438882311934
 31
0.0
  0
LINE
  5
1504
330
1E
100
AcDbEntity
  8
MITTEL
100
AcDbLine
 10
92.56915094598491
 20
446.7938882312171
 30
0.0
 11
60.26915094598496
 21
446.7938882311679
 31
0.0
  0
LINE
  5
1505
330
1E
100
AcDbEntity
  8
STEMPEL
100
AcDbLine
 10
66.60419636976133
 20
446.7938882311933
 30
0.0
 11
71.51167365787308
 21
438.2938882311933
 31
0.0
  0
LINE
  5
1506
330
1E
100
AcDbEntity
  8
STEMPEL
100
AcDbLine
 10
71.51167365787308
 20
438.2938882311933
 30
0.0
 11
81.32662823409669
 21
438.2938882311933
 31
0.0
  0
LINE
  5
1507
330
1E
100
AcDbEntity
  8
STEMPEL
100
AcDbLine
 10
81.32662823409669
 20
438.2938882311933
 30
0.0
 11
86.23410552220855
 21
446.7938882311933
 31
0.0
  0
ARC
  5
1508
330
1E
100
AcDbEntity
  8
HILF
100
AcDbCircle
 10
76.41915094598494
 20
446.7938882311933
 30
0.0
 40
4.0
100
AcDbArc
 50
195.0000000000993
 51
105.0000000000663
  0
CIRCLE
  5
1509
330
1E
100
AcDbEntity
  8
STEMPEL
100
AcDbCircle
 10
76.41915094598494
 20
446.7938882311933
 30
0.0
 40
5.0
  0
LINE
  5
150A
330
1E
100
AcDbEntity
  8
STEMPEL
100
AcDbLine
 10
71.51167365787319
 20
455.2938882311933
 30
0.0
 11
66.60419636976133
 21
446.7938882311933
 31
0.0
  0
CIRCLE
  5
150B
330
1E
100
AcDbEntity
  8
STEMPEL
100
AcDbCircle
 10
76.41915094598494
 20
446.7938882311933
 30
0.0
 40
11.0
  0
CIRCLE
  5
150C
330
1E
100
AcDbEntity
  8
STEMPEL
100
AcDbCircle
 10
76.41915094598494
 20
446.7938882311933
 30
0.0
 40
8.5
  0
LINE
  5
150D
330
1E
100
AcDbEntity
  8
STEMPEL
100
AcDbLine
 10
86.23410552220855
 20
446.7938882311933
 30
0.0
 11
81.32662823409679
 21
455.2938882311933
 31
0.0
  0
LINE
  5
150E
330
1E
100
AcDbEntity
  8
STEMPEL
100
AcDbLine
 10
81.32662823409679
 20
455.2938882311933
 30
0.0
 11
71.51167365787319
 21
455.2938882311933
 31
0.0
  0
LINE
  5
150F
330
1E
100
AcDbEntity
  8
MITTEL
100
AcDbLine
 10
83.41915094596471
 20
412.9438882311819
 30
0.0
 11
83.41915094600256
 21
380.643888231182
 31
0.0
  0
LINE
  5
1510
330
1E
100
AcDbEntity
  8
MITTEL
100
AcDbLine
 10
99.56915094598356
 20
396.7938882312057
 30
0.0
 11
67.2691509459836
 21
396.7938882311565
 31
0.0
  0
LINE
  5
1511
330
1E
100
AcDbEntity
  8
STEMPEL
100
AcDbLine
 10
73.60419636975996
 20
396.793888231182
 30
0.0
 11
78.51167365787171
 21
388.293888231182
 31
0.0
  0
LINE
  5
1512
330
1E
100
AcDbEntity
  8
STEMPEL
100
AcDbLine
 10
78.51167365787171
 20
388.293888231182
 30
0.0
 11
88.32662823409533
 21
388.293888231182
 31
0.0
  0
LINE
  5
1513
330
1E
100
AcDbEntity
  8
STEMPEL
100
AcDbLine
 10
88.32662823409533
 20
388.293888231182
 30
0.0
 11
93.23410552220719
 21
396.793888231182
 31
0.0
  0
ARC
  5
1514
330
1E
100
AcDbEntity
  8
HILF
100
AcDbCircle
 10
83.41915094598357
 20
396.793888231182
 30
0.0
 40
4.0
100
AcDbArc
 50
195.0000000000993
 51
105.0000000000663
  0
CIRCLE
  5
1515
330
1E
100
AcDbEntity
  8
STEMPEL
100
AcDbCircle
 10
83.41915094598357
 20
396.793888231182
 30
0.0
 40
5.0
  0
LINE
  5
1516
330
1E
100
AcDbEntity
  8
STEMPEL
100
AcDbLine
 10
78.51167365787182
 20
405.293888231182
 30
0.0
 11
73.60419636975996
 21
396.793888231182
 31
0.0
  0
CIRCLE
  5
1517
330
1E
100
AcDbEntity
  8
STEMPEL
100
AcDbCircle
 10
83.41915094598357
 20
396.793888231182
 30
0.0
 40
11.0
  0
CIRCLE
  5
1518
330
1E
100
AcDbEntity
  8
STEMPEL
100
AcDbCircle
 10
83.41915094598357
 20
396.793888231182
 30
0.0
 40
8.5
  0
LINE
  5
1519
330
1E
100
AcDbEntity
  8
STEMPEL
100
AcDbLine
 10
93.23410552220719
 20
396.793888231182
 30
0.0
 11
88.32662823409544
 21
405.293888231182
 31
0.0
  0
LINE
  5
151A
330
1E
100
AcDbEntity
  8
STEMPEL
100
AcDbLine
 10
88.32662823409544
 20
405.293888231182
 30
0.0
 11
78.51167365787182
 21
405.293888231182
 31
0.0
  0
LINE
  5
151E
330
1E
100
AcDbEntity
  8
STEMPEL
100
AcDbLine
 10
338.6196785080153
 20
462.8938882311833
 30
0.0
 11
338.6196785080138
 21
383.8938882311863
 31
0.0
  0
LINE
  5
151F
330
1E
100
AcDbEntity
  8
STEMPEL
100
AcDbLine
 10
328.619678508015
 20
462.8938882311835
 30
0.0
 11
328.6196785080136
 21
383.8938882311865
 31
0.0
  0
LINE
  5
1520
330
1E
100
AcDbEntity
  8
STEMPEL
100
AcDbLine
 10
332.6196785080152
 20
462.8938882311835
 30
0.0
 11
278.6196785080149
 21
462.8938882311835
 31
0.0
  0
ARC
  5
1521
330
1E
100
AcDbEntity
  8
STEMPEL
100
AcDbCircle
 10
278.6196785080149
 20
458.8938882311858
 30
0.0
 40
4.0
100
AcDbArc
 50
89.99999999999795
 51
180.0000000000012
  0
LINE
  5
1522
330
1E
100
AcDbEntity
  8
STEMPEL
100
AcDbLine
 10
274.6196785080149
 20
458.8938882311858
 30
0.0
 11
274.6196785080149
 21
445.8938882311856
 31
0.0
  0
LINE
  5
1523
330
1E
100
AcDbEntity
  8
STEMPEL
100
AcDbLine
 10
282.0196785080126
 20
398.8934169093602
 30
0.0
 11
282.0196785080116
 21
383.8938882311836
 31
0.0
  0
ARC
  5
1524
330
1E
100
AcDbEntity
  8
STEMPEL
100
AcDbCircle
 10
276.0196785080121
 20
398.8934169093607
 30
0.0
 40
6.0
100
AcDbArc
 50
0.0000000000012146
 51
30.68341710896757
  0
ARC
  5
1525
330
1E
100
AcDbEntity
  8
STEMPEL
100
AcDbCircle
 10
297.5196785080131
 20
411.6507677315324
 30
0.0
 40
19.0
100
AcDbArc
 50
180.0000000000012
 51
210.6834171089676
  0
LINE
  5
1526
330
1E
100
AcDbEntity
  8
STEMPEL
100
AcDbLine
 10
278.5196785080143
 20
441.3328211045875
 30
0.0
 11
278.5196785080131
 21
411.6507677315333
 31
0.0
  0
LINE
  5
1527
330
1E
100
AcDbEntity
  8
STEMPEL
100
AcDbLine
 10
276.619678508014
 20
442.4297866160487
 30
0.0
 11
278.5196785080141
 21
441.3328211045877
 31
0.0
  0
ARC
  5
1528
330
1E
100
AcDbEntity
  8
STEMPEL
100
AcDbCircle
 10
278.6196785080149
 20
445.8938882311858
 30
0.0
 40
4.0
100
AcDbArc
 50
180.0000000000012
 51
239.9999999999829
  0
LINE
  5
1529
330
1E
100
AcDbEntity
  8
STEMPEL
100
AcDbLine
 10
282.0196785080118
 20
383.8938882311836
 30
0.0
 11
332.6196785080135
 21
383.8938882311865
 31
0.0
  0
LINE
  5
152A
330
1E
100
AcDbEntity
  8
STEMPEL
100
AcDbLine
 10
332.619678508015
 20
462.8938882311835
 30
0.0
 11
332.6196785080136
 21
383.8938882311865
 31
0.0
  0
DIMENSION
  5
152C
330
1E
100
AcDbEntity
  8
BEM
100
AcDbDimension
  2
*D1
 10
234.4191509459836
 20
364.369826190399
 30
0.0
 11
149.4191509459835
 21
370.869826190399
 31
0.0
 70
    32
 71
     5
 42
170.0
  3
Standard
100
AcDbAlignedDimension
 13
64.41915094598357
 23
388.7938882311934
 33
0.0
 14
234.4191509459836
 24
388.7938882311897
 34
0.0
100
AcDbRotatedDimension
1001
ACAD
1000
DSTYLE
1002
{
1070
    40
1040
2.0
1070
    41
1040
3.5
1070
    42
1040
1.0
1070
    43
1040
7.0
1070
    44
1040
1.0
1070
    73
1070
     0
1070
    74
1070
     0
1070
    77
1070
     1
1070
    78
1070
     8
1070
    79
1070
     2
1070
   140
1040
3.5
1070
   141
1040
1.5
1070
   146
1040
0.5
1070
   147
1040
1.5
1070
   172
1070
     1
1070
   178
1070
     1
1070
   179
1070
     2
1070
   271
1070
     2
1070
   272
1070
     2
1070
   284
1070
     8
1070
   285
1070
     8
1070
   286
1070
     8
1002
}
  0
DIMENSION
  5
1546
330
1E
100
AcDbEntity
  8
BEM
100
AcDbDimension
  2
*D2
 10
252.323246123497
 20
458.7938882311902
 30
0.0
 11
245.8232461234969
 21
421.2938882311898
 31
0.0
 70
    32
 71
     5
 42
75.00000000000096
  3
Standard
100
AcDbAlignedDimension
 13
229.4191509459836
 23
383.7938882311893
 33
0.0
 14
229.4191509459854
 24
458.7938882311902
 34
0.0
 50
90.0
100
AcDbRotatedDimension
1001
ACAD
1000
DSTYLE
1002
{
1070
    40
1040
2.0
1070
    41
1040
3.5
1070
    42
1040
1.0
1070
    43
1040
7.0
1070
    44
1040
1.0
1070
    73
1070
     0
1070
    74
1070
     0
1070
    77
1070
     1
1070
    78
1070
     8
1070
    79
1070
     2
1070
   140
1040
3.5
1070
   141
1040
1.5
1070
   146
1040
0.5
1070
   147
1040
1.5
1070
   172
1070
     1
1070
   178
1070
     1
1070
   179
1070
     2
1070
   271
1070
     2
1070
   272
1070
     2
1070
   284
1070
     8
1070
   285
1070
     8
1070
   286
1070
     8
1002
}
  0
ARC
  5
1573
330
1E
100
AcDbEntity
  8
STEMPEL
100
AcDbCircle
 10
330.9626053066297
 20
442.5438882312024
 30
0.0
 40
11.54292679861526
100
AcDbArc
 50
158.3959146485019
 51
201.6040853514982
  0
ARC
  5
1574
330
1E
100
AcDbEntity
  8
STEMPEL
100
AcDbCircle
 10
330.9626053065058
 20
451.0438882312024
 30
0.0
 40
11.54292679849139
100
AcDbArc
 50
158.3959146483848
 51
201.6040853516153
  0
ARC
  5
1575
330
1E
100
AcDbEntity
  8
STEMPEL
100
AcDbCircle
 10
357.0735972937914
 20
442.5438882312081
 30
0.0
 40
31.25199878577668
100
AcDbArc
 50
172.1840540327338
 51
187.8159459672874
  0
ARC
  5
1576
330
1E
100
AcDbEntity
  8
STEMPEL
100
AcDbCircle
 10
357.0735972936218
 20
451.0438882312086
 30
0.0
 40
31.25199878560711
100
AcDbArc
 50
172.1840540327356
 51
187.8159459672872
  0
ARC
  5
1577
330
1E
100
AcDbEntity
  8
STEMPEL
100
AcDbCircle
 10
450.3940985080143
 20
446.7938882312142
 30
0.0
 40
124.5724999999997
100
AcDbArc
 50
183.9125234367685
 51
185.1351946583749
  0
LINE
  5
1578
330
1E
100
AcDbEntity
  8
STEMPEL
100
AcDbLine
 10
320.230566400714
 20
446.7938882312142
 30
0.0
 11
326.1119286031969
 21
446.7938882312142
 31
0.0
  0
LINE
  5
1579
330
1E
100
AcDbEntity
  8
STEMPEL
100
AcDbLine
 10
319.4196785080144
 20
438.2938882311906
 30
0.0
 11
326.1119286031985
 21
438.2938882311906
 31
0.0
  0
LINE
  5
157A
330
1E
100
AcDbEntity
  8
STEMPEL
100
AcDbLine
 10
319.4196785080144
 20
455.2938882311905
 30
0.0
 11
326.1119286031951
 21
455.2938882311906
 31
0.0
  0
LINE
  5
157B
330
1E
100
AcDbEntity
  8
STEMPEL
100
AcDbLine
 10
319.4196785080144
 20
438.2938882311906
 30
0.0
 11
319.4196785080144
 21
455.2938882311905
 31
0.0
  0
LINE
  5
157C
330
1E
100
AcDbEntity
  8
STEMPEL
100
AcDbLine
 10
326.3215985080146
 20
435.6438882312142
 30
0.0
 11
328.6196785080144
 21
435.6438882312142
 31
0.0
  0
LINE
  5
157D
330
1E
100
AcDbEntity
  8
STEMPEL
100
AcDbLine
 10
326.3215985080146
 20
457.9438882312143
 30
0.0
 11
328.6196785080144
 21
457.9438882312143
 31
0.0
  0
ARC
  5
157E
330
1E
100
AcDbEntity
  8
STEMPEL
100
AcDbCircle
 10
450.3940985080143
 20
446.7938882312142
 30
0.0
 40
124.5724999999997
100
AcDbArc
 50
174.8648053416251
 51
176.0874765632533
  0
ARC
  5
157F
330
1E
100
AcDbEntity
  8
STEMPEL
100
AcDbCircle
 10
450.3940985080135
 20
396.7938882312029
 30
0.0
 40
124.5724999999997
100
AcDbArc
 50
174.8648053416251
 51
176.0874765632533
  0
LINE
  5
1580
330
1E
100
AcDbEntity
  8
STEMPEL
100
AcDbLine
 10
326.3215985080138
 20
407.9438882312029
 30
0.0
 11
328.6196785080136
 21
407.9438882312029
 31
0.0
  0
LINE
  5
1581
330
1E
100
AcDbEntity
  8
STEMPEL
100
AcDbLine
 10
326.3215985080138
 20
385.6438882312029
 30
0.0
 11
328.6196785080136
 21
385.6438882312029
 31
0.0
  0
LINE
  5
1582
330
1E
100
AcDbEntity
  8
STEMPEL
100
AcDbLine
 10
319.4196785080136
 20
388.2938882311793
 30
0.0
 11
319.4196785080136
 21
405.2938882311791
 31
0.0
  0
LINE
  5
1583
330
1E
100
AcDbEntity
  8
STEMPEL
100
AcDbLine
 10
319.4196785080136
 20
405.2938882311791
 30
0.0
 11
326.1119286031943
 21
405.2938882311792
 31
0.0
  0
LINE
  5
1584
330
1E
100
AcDbEntity
  8
STEMPEL
100
AcDbLine
 10
319.4196785080136
 20
388.2938882311793
 30
0.0
 11
326.1119286031977
 21
388.2938882311793
 31
0.0
  0
LINE
  5
1585
330
1E
100
AcDbEntity
  8
STEMPEL
100
AcDbLine
 10
320.2305664007132
 20
396.7938882312029
 30
0.0
 11
326.1119286031961
 21
396.7938882312029
 31
0.0
  0
ARC
  5
1586
330
1E
100
AcDbEntity
  8
STEMPEL
100
AcDbCircle
 10
450.3940985080135
 20
396.7938882312029
 30
0.0
 40
124.5724999999997
100
AcDbArc
 50
183.9125234367685
 51
185.1351946583749
  0
ARC
  5
1587
330
1E
100
AcDbEntity
  8
STEMPEL
100
AcDbCircle
 10
357.073597293621
 20
401.0438882311972
 30
0.0
 40
31.25199878560711
100
AcDbArc
 50
172.1840540327356
 51
187.8159459672872
  0
ARC
  5
1588
330
1E
100
AcDbEntity
  8
STEMPEL
100
AcDbCircle
 10
357.0735972937906
 20
392.5438882311969
 30
0.0
 40
31.25199878577668
100
AcDbArc
 50
172.1840540327338
 51
187.8159459672874
  0
ARC
  5
1589
330
1E
100
AcDbEntity
  8
STEMPEL
100
AcDbCircle
 10
330.962605306505
 20
401.0438882311911
 30
0.0
 40
11.54292679849139
100
AcDbArc
 50
158.3959146483848
 51
201.6040853516153
  0
ARC
  5
158A
330
1E
100
AcDbEntity
  8
STEMPEL
100
AcDbCircle
 10
330.9626053066289
 20
392.5438882311912
 30
0.0
 40
11.54292679861526
100
AcDbArc
 50
158.3959146485019
 51
201.6040853514982
  0
LINE
  5
158B
330
1E
100
AcDbEntity
  8
HILF
100
AcDbLine
 10
332.6196785080148
 20
450.293888231208
 30
0.0
 11
334.6196785080151
 21
450.293888231208
 31
0.0
  0
LINE
  5
158C
330
1E
100
AcDbEntity
  8
STEMPEL
100
AcDbLine
 10
332.6196785080148
 20
451.793888231208
 30
0.0
 11
334.6196785080151
 21
451.793888231208
 31
0.0
  0
LINE
  5
158D
330
1E
100
AcDbEntity
  8
HILF
100
AcDbLine
 10
332.6196785080147
 20
443.293888231208
 30
0.0
 11
334.6196785080149
 21
443.2938882312079
 31
0.0
  0
LINE
  5
158E
330
1E
100
AcDbEntity
  8
STEMPEL
100
AcDbLine
 10
332.6196785080146
 20
441.793888231208
 30
0.0
 11
334.6196785080149
 21
441.793888231208
 31
0.0
  0
LINE
  5
158F
330
1E
100
AcDbEntity
  8
STEMPEL
100
AcDbLine
 10
358.6196785080148
 20
443.293888231208
 30
0.0
 11
357.1196785080148
 21
441.793888231208
 31
0.0
  0
LINE
  5
1590
330
1E
100
AcDbEntity
  8
STEMPEL
100
AcDbLine
 10
357.1196785080148
 20
451.793888231208
 30
0.0
 11
357.1196785080148
 21
441.793888231208
 31
0.0
  0
LINE
  5
1591
330
1E
100
AcDbEntity
  8
STEMPEL
100
AcDbLine
 10
357.1196785080148
 20
451.793888231208
 30
0.0
 11
358.6196785080148
 21
450.293888231208
 31
0.0
  0
LINE
  5
1592
330
1E
100
AcDbEntity
  8
STEMPEL
100
AcDbLine
 10
358.6196785080148
 20
450.293888231208
 30
0.0
 11
358.6196785080148
 21
443.293888231208
 31
0.0
  0
ARC
  5
1593
330
1E
100
AcDbEntity
  8
STEMPEL
100
AcDbCircle
 10
216.8452585080152
 20
446.7938882312174
 30
0.0
 40
124.5724999999997
100
AcDbArc
 50
3.912523436745187
 51
5.13519465837339
  0
LINE
  5
1594
330
1E
100
AcDbEntity
  8
STEMPEL
100
AcDbLine
 10
340.9177585080149
 20
457.9438882312142
 30
0.0
 11
338.6196785080153
 21
457.9438882312142
 31
0.0
  0
LINE
  5
1595
330
1E
100
AcDbEntity
  8
STEMPEL
100
AcDbLine
 10
340.9177585080144
 20
435.6438882312141
 30
0.0
 11
338.6196785080147
 21
435.6438882312142
 31
0.0
  0
LINE
  5
1596
330
1E
100
AcDbEntity
  8
STEMPEL
100
AcDbLine
 10
348.6257004614861
 20
438.2938882311902
 30
0.0
 11
348.6257004614865
 21
455.2938882311902
 31
0.0
  0
LINE
  5
1597
330
1E
100
AcDbEntity
  8
STEMPEL
100
AcDbLine
 10
348.6257004614865
 20
455.2938882311902
 30
0.0
 11
341.1274284128344
 21
455.2938882311905
 31
0.0
  0
LINE
  5
1598
330
1E
100
AcDbEntity
  8
STEMPEL
100
AcDbLine
 10
348.6257004614861
 20
438.2938882311902
 30
0.0
 11
341.1274284128308
 21
438.2938882311905
 31
0.0
  0
LINE
  5
1599
330
1E
100
AcDbEntity
  8
STEMPEL
100
AcDbLine
 10
347.8148125687869
 20
446.7938882312139
 30
0.0
 11
341.1274284128326
 21
446.7938882312141
 31
0.0
  0
ARC
  5
159A
330
1E
100
AcDbEntity
  8
STEMPEL
100
AcDbCircle
 10
216.8452585080152
 20
446.7938882312174
 30
0.0
 40
124.5724999999997
100
AcDbArc
 50
354.8648053416235
 51
356.08747656323
  0
ARC
  5
159B
330
1E
100
AcDbEntity
  8
STEMPEL
100
AcDbCircle
 10
310.1657597224078
 20
451.0438882312093
 30
0.0
 40
31.25199878560711
100
AcDbArc
 50
352.1840540327113
 51
7.815945967262834
  0
ARC
  5
159C
330
1E
100
AcDbEntity
  8
STEMPEL
100
AcDbCircle
 10
310.1657597222379
 20
442.5438882312088
 30
0.0
 40
31.25199878577668
100
AcDbArc
 50
352.1840540327111
 51
7.81594596726464
  0
ARC
  5
159D
330
1E
100
AcDbEntity
  8
STEMPEL
100
AcDbCircle
 10
337.0827736629951
 20
451.0438882312024
 30
0.0
 40
11.54292679849139
100
AcDbArc
 50
338.3959146483832
 51
21.60408535161371
  0
ARC
  5
159E
330
1E
100
AcDbEntity
  8
STEMPEL
100
AcDbCircle
 10
337.082773662871
 20
442.5438882312024
 30
0.0
 40
11.54292679861526
100
AcDbArc
 50
338.3959146485003
 51
21.60408535149652
  0
LINE
  5
159F
330
1E
100
AcDbEntity
  8
MITTEL
100
AcDbLine
 10
314.4196785080143
 20
446.7938882312143
 30
0.0
 11
363.6196785080148
 21
446.7938882312142
 31
0.0
  0
ARC
  5
15A1
330
1E
100
AcDbEntity
  8
STEMPEL
100
AcDbCircle
 10
337.0827736628701
 20
392.5438882311912
 30
0.0
 40
11.54292679861526
100
AcDbArc
 50
338.3959146485003
 51
21.60408535149652
  0
ARC
  5
15A2
330
1E
100
AcDbEntity
  8
STEMPEL
100
AcDbCircle
 10
337.0827736629942
 20
401.0438882311911
 30
0.0
 40
11.54292679849139
100
AcDbArc
 50
338.3959146483832
 51
21.60408535161371
  0
ARC
  5
15A3
330
1E
100
AcDbEntity
  8
STEMPEL
100
AcDbCircle
 10
310.165759722237
 20
392.5438882311975
 30
0.0
 40
31.25199878577668
100
AcDbArc
 50
352.1840540327111
 51
7.81594596726464
  0
ARC
  5
15A4
330
1E
100
AcDbEntity
  8
STEMPEL
100
AcDbCircle
 10
310.1657597224069
 20
401.0438882311979
 30
0.0
 40
31.25199878560711
100
AcDbArc
 50
352.1840540327113
 51
7.815945967262834
  0
ARC
  5
15A5
330
1E
100
AcDbEntity
  8
STEMPEL
100
AcDbCircle
 10
216.8452585080142
 20
396.7938882312061
 30
0.0
 40
124.5724999999997
100
AcDbArc
 50
354.8648053416235
 51
356.08747656323
  0
LINE
  5
15A6
330
1E
100
AcDbEntity
  8
STEMPEL
100
AcDbLine
 10
347.814812568786
 20
396.7938882312026
 30
0.0
 11
341.1274284128317
 21
396.7938882312028
 31
0.0
  0
LINE
  5
15A7
330
1E
100
AcDbEntity
  8
STEMPEL
100
AcDbLine
 10
348.6257004614852
 20
388.2938882311789
 30
0.0
 11
341.1274284128299
 21
388.2938882311791
 31
0.0
  0
LINE
  5
15A8
330
1E
100
AcDbEntity
  8
STEMPEL
100
AcDbLine
 10
348.6257004614856
 20
405.2938882311789
 30
0.0
 11
341.1274284128335
 21
405.2938882311791
 31
0.0
  0
LINE
  5
15A9
330
1E
100
AcDbEntity
  8
STEMPEL
100
AcDbLine
 10
348.6257004614852
 20
388.2938882311789
 30
0.0
 11
348.6257004614856
 21
405.2938882311789
 31
0.0
  0
LINE
  5
15AA
330
1E
100
AcDbEntity
  8
STEMPEL
100
AcDbLine
 10
340.9177585080136
 20
385.6438882312028
 30
0.0
 11
338.6196785080138
 21
385.6438882312028
 31
0.0
  0
LINE
  5
15AB
330
1E
100
AcDbEntity
  8
STEMPEL
100
AcDbLine
 10
340.917758508014
 20
407.9438882312028
 30
0.0
 11
338.6196785080144
 21
407.9438882312028
 31
0.0
  0
ARC
  5
15AC
330
1E
100
AcDbEntity
  8
STEMPEL
100
AcDbCircle
 10
216.8452585080142
 20
396.7938882312061
 30
0.0
 40
124.5724999999997
100
AcDbArc
 50
3.912523436745187
 51
5.13519465837339
  0
LINE
  5
15AD
330
1E
100
AcDbEntity
  8
STEMPEL
100
AcDbLine
 10
358.6196785080139
 20
400.2938882311966
 30
0.0
 11
358.6196785080139
 21
393.2938882311967
 31
0.0
  0
LINE
  5
15AE
330
1E
100
AcDbEntity
  8
STEMPEL
100
AcDbLine
 10
357.1196785080139
 20
401.7938882311966
 30
0.0
 11
358.6196785080139
 21
400.2938882311966
 31
0.0
  0
LINE
  5
15AF
330
1E
100
AcDbEntity
  8
STEMPEL
100
AcDbLine
 10
357.1196785080139
 20
401.7938882311966
 30
0.0
 11
357.1196785080139
 21
391.7938882311966
 31
0.0
  0
LINE
  5
15B0
330
1E
100
AcDbEntity
  8
STEMPEL
100
AcDbLine
 10
358.6196785080139
 20
393.2938882311967
 30
0.0
 11
357.1196785080139
 21
391.7938882311966
 31
0.0
  0
LINE
  5
15B1
330
1E
100
AcDbEntity
  8
STEMPEL
100
AcDbLine
 10
332.6196785080138
 20
391.7938882311966
 30
0.0
 11
334.6196785080139
 21
391.7938882311966
 31
0.0
  0
LINE
  5
15B2
330
1E
100
AcDbEntity
  8
HILF
100
AcDbLine
 10
332.6196785080138
 20
393.2938882311967
 30
0.0
 11
334.619678508014
 21
393.2938882311967
 31
0.0
  0
LINE
  5
15B3
330
1E
100
AcDbEntity
  8
STEMPEL
100
AcDbLine
 10
332.6196785080139
 20
401.7938882311966
 30
0.0
 11
334.6196785080142
 21
401.7938882311966
 31
0.0
  0
LINE
  5
15B4
330
1E
100
AcDbEntity
  8
HILF
100
AcDbLine
 10
332.6196785080139
 20
400.2938882311966
 30
0.0
 11
334.6196785080141
 21
400.2938882311966
 31
0.0
  0
LINE
  5
15B5
330
1E
100
AcDbEntity
  8
MITTEL
100
AcDbLine
 10
314.4196785080134
 20
396.793888231203
 30
0.0
 11
363.6196785080139
 21
396.7938882312029
 31
0.0
  0
DIMENSION
  5
15B8
330
1E
100
AcDbEntity
  8
BEM
100
AcDbDimension
  2
*D3
 10
282.0196785080116
 20
363.9265152383714
 30
0.0
 11
333.6196785080136
 21
370.4265152383714
 31
0.0
 70
    32
  1
%%c<>
 71
     5
 42
103.200000000004
  3
Standard
100
AcDbAlignedDimension
 13
385.2196785080156
 23
383.8938882311818
 33
0.0
 14
282.0196785080116
 24
383.8938882311836
 34
0.0
100
AcDbRotatedDimension
1001
ACAD
1000
DSTYLE
1002
{
1070
    40
1040
2.0
1070
    41
1040
3.5
1070
    42
1040
1.0
1070
    43
1040
7.0
1070
    44
1040
1.0
1070
    73
1070
     0
1070
    74
1070
     0
1070
    77
1070
     1
1070
    78
1070
     8
1070
    79
1070
     2
1070
   140
1040
3.5
1070
   141
1040
1.5
1070
   146
1040
0.5
1070
   147
1040
1.5
1070
   172
1070
     1
1070
   178
1070
     1
1070
   179
1070
     2
1070
   271
1070
     2
1070
   272
1070
     2
1070
   284
1070
     8
1070
   285
1070
     8
1070
   286
1070
     8
1002
}
  0
DIMENSION
  5
15C5
330
1E
100
AcDbEntity
  8
BEM
100
AcDbDimension
  2
*D4
 10
392.6196785080152
 20
474.6695017711506
 30
0.0
 11
333.6196785080151
 21
481.1695017711506
 31
0.0
 70
    32
  1
%%c<>
 71
     5
 42
118.0000000000003
  3
Standard
100
AcDbAlignedDimension
 13
274.6196785080149
 23
458.8938882311857
 33
0.0
 14
392.6196785080152
 24
458.8938882311837
 34
0.0
100
AcDbRotatedDimension
1001
ACAD
1000
DSTYLE
1002
{
1070
    40
1040
2.0
1070
    41
1040
3.5
1070
    42
1040
1.0
1070
    43
1040
7.0
1070
    44
1040
1.0
1070
    73
1070
     0
1070
    74
1070
     0
1070
    77
1070
     1
1070
    78
1070
     8
1070
    79
1070
     2
1070
   140
1040
3.5
1070
   141
1040
1.5
1070
   146
1040
0.5
1070
   147
1040
1.5
1070
   172
1070
     1
1070
   178
1070
     1
1070
   179
1070
     2
1070
   271
1070
     2
1070
   272
1070
     2
1070
   284
1070
     8
1070
   285
1070
     8
1070
   286
1070
     8
1002
}
  0
LINE
  5
15E5
330
1E
100
AcDbEntity
  8
HILF
100
AcDbLine
 10
391.6196785080151
 20
458.8938882311836
 30
0.0
 11
275.619678508015
 21
458.8938882311857
 31
0.0
  0
LINE
  5
15E6
330
1E
100
AcDbEntity
  8
STEMPEL
100
AcDbLine
 10
388.7196785080153
 20
441.3328211045856
 30
0.0
 11
348.6257004614862
 21
441.3328211045863
 31
0.0
  0
LINE
  5
15E7
330
1E
100
AcDbEntity
  8
HILF
100
AcDbLine
 10
384.4020542883921
 20
400.4808676959973
 30
0.0
 11
358.4326990432129
 21
400.4808676959976
 31
0.0
  0
LINE
  5
15E8
330
1E
100
AcDbEntity
  8
HILF
100
AcDbLine
 10
387.0034859589217
 20
406.6238402405089
 30
0.0
 11
341.029314649472
 21
406.6238402405088
 31
0.0
  0
LINE
  5
15E9
330
1E
100
AcDbEntity
  8
HILF
100
AcDbLine
 10
319.4196785080136
 20
400.4808676959983
 30
0.0
 11
282.8373027276359
 21
400.480867695999
 31
0.0
  0
LINE
  5
15EA
330
1E
100
AcDbEntity
  8
HILF
100
AcDbLine
 10
326.2100423665561
 20
406.6238402405089
 30
0.0
 11
280.2358710571072
 21
406.6238402405087
 31
0.0
  0
LINE
  5
15EB
330
1E
100
AcDbEntity
  8
STEMPEL
100
AcDbLine
 10
319.4196785080144
 20
441.3328211045867
 30
0.0
 11
278.5196785080143
 21
441.3328211045875
 31
0.0
  0
LINE
  5
15EE
330
1E
100
AcDbEntity
  8
HILF
100
AcDbLine
 10
392.6196785080148
 20
445.8938882311836
 30
0.0
 11
358.6196785080149
 21
445.8938882311836
 31
0.0
  0
LINE
  5
15F0
330
1E
100
AcDbEntity
  8
HILF
100
AcDbLine
 10
319.4196785080145
 20
445.8938882311836
 30
0.0
 11
275.6196785080147
 21
445.8938882311835
 31
0.0
  0
LINE
  5
162F
330
1E
100
AcDbEntity
  8
STEMPEL
100
AcDbLine
 10
234.419150945984
 20
270.6505294340044
 30
0.0
 11
210.4601207941112
 21
270.6505294340049
 31
0.0
  0
ARC
  5
1630
330
1E
100
AcDbEntity
  8
STEMPEL
100
AcDbCircle
 10
230.3981035037164
 20
266.1815863059251
 30
0.0
 40
6.767023128081929
100
AcDbArc
 50
61.66295729176633
 51
118.3370427082155
  0
ARC
  5
1631
330
1E
100
AcDbEntity
  8
STEMPEL
100
AcDbCircle
 10
222.4601207941169
 20
258.7713794340068
 30
0.0
 40
14.17723
100
AcDbArc
 50
70.52782738137597
 51
109.472172618624
  0
ARC
  5
1632
330
1E
100
AcDbEntity
  8
STEMPEL
100
AcDbCircle
 10
214.5221380845181
 20
266.1815863059229
 30
0.0
 40
6.76702312808409
100
AcDbArc
 50
61.66295729179182
 51
118.33704270823
  0
LINE
  5
1633
330
1E
100
AcDbEntity
  8
STEMPEL
100
AcDbLine
 10
233.6101207941169
 20
270.6505294340051
 30
0.0
 11
211.310120794117
 21
270.6505294340043
 31
0.0
  0
LINE
  5
1634
330
1E
100
AcDbEntity
  8
STEMPEL
100
AcDbLine
 10
233.6101207941169
 20
272.1377215413075
 30
0.0
 11
233.6101207941169
 21
270.6505294340073
 31
0.0
  0
LINE
  5
1635
330
1E
100
AcDbEntity
  8
STEMPEL
100
AcDbLine
 10
211.310120794117
 20
272.1377215413074
 30
0.0
 11
211.310120794117
 21
270.6505294340073
 31
0.0
  0
LINE
  5
1636
330
1E
100
AcDbEntity
  8
STEMPEL
100
AcDbLine
 10
87.52818109785023
 20
272.1377215413074
 30
0.0
 11
87.52818109785016
 21
270.6505294340073
 31
0.0
  0
LINE
  5
1637
330
1E
100
AcDbEntity
  8
STEMPEL
100
AcDbLine
 10
65.22818109785021
 20
272.1377215413075
 30
0.0
 11
65.22818109785021
 21
270.6505294340073
 31
0.0
  0
LINE
  5
1638
330
1E
100
AcDbEntity
  8
STEMPEL
100
AcDbLine
 10
65.22818109785021
 20
270.6505294340051
 30
0.0
 11
87.52818109785016
 21
270.6505294340043
 31
0.0
  0
ARC
  5
1639
330
1E
100
AcDbEntity
  8
STEMPEL
100
AcDbCircle
 10
84.31616380744902
 20
266.1815863059229
 30
0.0
 40
6.76702312808409
100
AcDbArc
 50
61.66295729176995
 51
118.3370427082082
  0
ARC
  5
163A
330
1E
100
AcDbEntity
  8
STEMPEL
100
AcDbCircle
 10
76.37818109785019
 20
258.7713794340068
 30
0.0
 40
14.17723
100
AcDbArc
 50
70.52782738137598
 51
109.472172618624
  0
ARC
  5
163B
330
1E
100
AcDbEntity
  8
STEMPEL
100
AcDbCircle
 10
68.44019838825079
 20
266.1815863059251
 30
0.0
 40
6.767023128081929
100
AcDbArc
 50
61.66295729178457
 51
118.3370427082337
  0
LINE
  5
1640
330
1E
100
AcDbEntity
  8
STEMPEL
100
AcDbLine
 10
348.6013091200453
 20
451.793888231208
 30
0.0
 11
357.1196785080148
 21
451.793888231208
 31
0.0
  0
LINE
  5
1641
330
1E
100
AcDbEntity
  8
HILF
100
AcDbLine
 10
348.601309120046
 20
450.2938882312079
 30
0.0
 11
358.6196785080148
 21
450.293888231208
 31
0.0
  0
LINE
  5
1642
330
1E
100
AcDbEntity
  8
HILF
100
AcDbLine
 10
348.6257004614862
 20
443.2938882312079
 30
0.0
 11
358.6196785080148
 21
443.293888231208
 31
0.0
  0
LINE
  5
1643
330
1E
100
AcDbEntity
  8
STEMPEL
100
AcDbLine
 10
348.6257004614862
 20
441.793888231208
 30
0.0
 11
357.1196785080148
 21
441.793888231208
 31
0.0
  0
LINE
  5
1644
330
1E
100
AcDbEntity
  8
STEMPEL
100
AcDbLine
 10
348.6257004614855
 20
401.7938882311965
 30
0.0
 11
357.1196785080139
 21
401.7938882311966
 31
0.0
  0
LINE
  5
1645
330
1E
100
AcDbEntity
  8
HILF
100
AcDbLine
 10
348.6257004614854
 20
400.2938882311966
 30
0.0
 11
358.6196785080139
 21
400.2938882311966
 31
0.0
  0
LINE
  5
1646
330
1E
100
AcDbEntity
  8
HILF
100
AcDbLine
 10
348.6257004614854
 20
393.2938882311967
 30
0.0
 11
358.6196785080139
 21
393.2938882311967
 31
0.0
  0
LINE
  5
1647
330
1E
100
AcDbEntity
  8
STEMPEL
100
AcDbLine
 10
348.6257004614853
 20
391.7938882311967
 30
0.0
 11
357.1196785080139
 21
391.7938882311966
 31
0.0
  0
LINE
  5
164C
330
1E
100
AcDbEntity
  8
HILF
100
AcDbLine
 10
142.0095148045259
 20
406.5238402405075
 30
0.0
 11
93.44504719260696
 21
406.5238402405074
 31
0.0
  0
LINE
  5
164D
330
1E
100
AcDbEntity
  8
HILF
100
AcDbLine
 10
135.2191509459834
 20
400.380867695997
 30
0.0
 11
96.02985160026852
 21
400.3808676959978
 31
0.0
  0
LINE
  5
164E
330
1E
100
AcDbEntity
  8
HILF
100
AcDbLine
 10
205.3932546993619
 20
406.5238402405076
 30
0.0
 11
156.8287870874418
 21
406.5238402405074
 31
0.0
  0
LINE
  5
164F
330
1E
100
AcDbEntity
  8
HILF
100
AcDbLine
 10
202.8084502916994
 20
400.380867695996
 30
0.0
 11
174.2321714811827
 21
400.3808676959963
 31
0.0
  0
ENDSEC
  0
SECTION
  2
OBJECTS
  0
DICTIONARY
  5
C
330
0
100
AcDbDictionary
281
     1
  3
ACAD_COLOR
350
DF
  3
ACAD_GROUP
350
D
  3
ACAD_LAYOUT
350
19
  3
ACAD_MATERIAL
350
DE
  3
ACAD_MLINESTYLE
350
16
  3
ACAD_PLOTSETTINGS
350
18
  3
ACAD_PLOTSTYLENAME
350
E
  3
AcDbVariableDictionary
350
EA
  0
DICTIONARY
  5
A0
330
1E
100
AcDbDictionary
280
     1
281
     1
  3
ACAD_LAYOUTSELFREF
360
D4
  0
DICTIONARY
  5
A2
330
1A
100
AcDbDictionary
280
     1
281
     1
  3
ACAD_LAYOUTSELFREF
360
D3
  0
DICTIONARY
  5
DF
102
{ACAD_REACTORS
330
C
102
}
330
C
100
AcDbDictionary
281
     1
  0
DICTIONARY
  5
D
102
{ACAD_REACTORS
330
C
102
}
330
C
100
AcDbDictionary
281
     1
  0
DICTIONARY
  5
19
102
{ACAD_REACTORS
330
C
102
}
330
C
100
AcDbDictionary
281
     1
  3
Layout1
350
1D
  3
Model
350
21
  0
DICTIONARY
  5
DE
102
{ACAD_REACTORS
330
C
102
}
330
C
100
AcDbDictionary
281
     1
  0
DICTIONARY
  5
16
102
{ACAD_REACTORS
330
C
102
}
330
C
100
AcDbDictionary
281
     1
  3
Standard
350
17
  0
DICTIONARY
  5
18
102
{ACAD_REACTORS
330
C
102
}
330
C
100
AcDbDictionary
281
     1
  0
ACDBDICTIONARYWDFLT
  5
E
102
{ACAD_REACTORS
330
C
102
}
330
C
100
AcDbDictionary
281
     1
  3
Normal
350
F
100
AcDbDictionaryWithDefault
340
F
  0
DICTIONARY
  5
EA
102
{ACAD_REACTORS
330
C
102
}
330
C
100
AcDbDictionary
281
     1
  3
DIMASSOC
350
EB
  3
PROJECTNAME
350
EC
  0
XRECORD
  5
D4
102
{ACAD_REACTORS
330
A0
102
}
330
A0
100
AcDbXrecord
280
     1
340
1E
  0
XRECORD
  5
D3
102
{ACAD_REACTORS
330
A2
102
}
330
A2
100
AcDbXrecord
280
     1
340
1A
  0
LAYOUT
  5
1D
102
{ACAD_REACTORS
330
19
102
}
330
19
100
AcDbPlotSettings
  1

  2
\\NT_WORK01\HP LaserJet 5000 PCL 6
  4

  6

 40
0.0
 41
0.0
 42
0.0
 43
0.0
 44
0.0
 45
0.0
 46
0.0
 47
0.0
 48
0.0
 49
0.0
140
0.0
141
0.0
142
1.0
143
1.0
 70
   688
 72
     0
 73
     0
 74
     5
  7

 75
    16
147
1.0
 76
     0
 77
     2
 78
   300
148
0.0
149
0.0
100
AcDbLayout
  1
Layout1
 70
     0
 71
     1
 10
0.0
 20
0.0
 11
12.0
 21
9.0
 12
0.0
 22
0.0
 32
0.0
 14
1.000000000000000E+20
 24
1.000000000000000E+20
 34
1.000000000000000E+20
 15
-1.000000000000000E+20
 25
-1.000000000000000E+20
 35
-1.000000000000000E+20
146
0.0
 13
0.0
 23
0.0
 33
0.0
 16
1.0
 26
0.0
 36
0.0
 17
0.0
 27
1.0
 37
0.0
 76
     0
330
1A
  0
LAYOUT
  5
21
102
{ACAD_REACTORS
330
19
102
}
330
19
100
AcDbPlotSettings
  1

  2
none_device
  4
Letter_(8.50_x_11.00_Inches)
  6

 40
6.349999904632568
 41
6.349999904632568
 42
6.350006103515625
 43
6.350006103515625
 44
215.8999938964844
 45
279.3999938964844
 46
0.0
 47
0.0
 48
0.0
 49
0.0
140
0.0
141
0.0
142
1.0
143
1.0
 70
 11952
 72
     0
 73
     1
 74
     0
  7

 75
     0
147
1.0
 76
     0
 77
     2
 78
   300
148
2271.41488810851
149
61.61479806352971
100
AcDbLayout
  1
Model
 70
     1
 71
     0
 10
0.0
 20
0.0
 11
12.0
 21
9.0
 12
0.0
 22
0.0
 32
0.0
 14
0.0
 24
0.0
 34
0.0
 15
0.0
 25
0.0
 35
0.0
146
0.0
 13
0.0
 23
0.0
 33
0.0
 16
1.0
 26
0.0
 36
0.0
 17
0.0
 27
1.0
 37
0.0
 76
     0
330
1E
  0
MLINESTYLE
  5
17
102
{ACAD_REACTORS
330
16
102
}
330
16
100
AcDbMlineStyle
  2
STANDARD
 70
     0
  3

 62
   256
 51
90.0
 52
90.0
 71
     2
 49
0.5
 62
   256
  6
BYLAYER
 49
-0.5
 62
   256
  6
BYLAYER
  0
ACDBPLACEHOLDER
  5
F
102
{ACAD_REACTORS
330
E
102
}
330
E
  0
DICTIONARYVAR
  5
EB
102
{ACAD_REACTORS
330
EA
102
}
330
EA
100
DictionaryVariables
280
     0
  1
1
  0
DICTIONARYVAR
  5
EC
102
{ACAD_REACTORS
330
EA
102
}
330
EA
100
DictionaryVariables
280
     0
  1

  0
ENDSEC
  0
EOF
