  0
SECTION
  2
HEADER
  9
$ACADVER
  1
AC1027
  9
$ACADMAINTVER
 70
   125
  9
$DWGCODEPAGE
  3
ANSI_1252
  9
$LASTSAVEDBY
  1
w.koehlhoff
  9
$REQUIREDVERSIONS
160
                 0
  9
$INSBASE
 10
0.0
 20
0.0
 30
0.0
  9
$EXTMIN
 10
-0.0192146320376878
 20
-0.0271749795965661
 30
-0.000000000000013
  9
$EXTMAX
 10
420.0192317462092
 20
594.027199183924
 30
0.0000000000000023
  9
$LIMMIN
 10
0.0
 20
0.0
  9
$LIMMAX
 10
419.9999999999999
 20
594.0
  9
$ORTHOMODE
 70
     0
  9
$REGENMODE
 70
     1
  9
$FILLMODE
 70
     1
  9
$QTEXTMODE
 70
     0
  9
$MIRRTEXT
 70
     1
  9
$LTSCALE
 40
20.0
  9
$ATTMODE
 70
     1
  9
$TEXTSIZE
 40
3.5
  9
$TRACEWID
 40
0.5
  9
$TEXTSTYLE
  7
STANDARD
  9
$CLAYER
  8
BEM
  9
$CELTYPE
  6
ByLayer
  9
$CECOLOR
 62
   256
  9
$CELTSCALE
 40
1.0
  9
$DISPSILH
 70
     0
  9
$DIMSCALE
 40
2.0
  9
$DIMASZ
 40
3.5
  9
$DIMEXO
 40
1.0
  9
$DIMDLI
 40
7.0
  9
$DIMRND
 40
0.0
  9
$DIMDLE
 40
0.0
  9
$DIMEXE
 40
1.0
  9
$DIMTP
 40
0.0
  9
$DIMTM
 40
0.0
  9
$DIMTXT
 40
3.5
  9
$DIMCEN
 40
1.5
  9
$DIMTSZ
 40
0.0
  9
$DIMTOL
 70
     0
  9
$DIMLIM
 70
     0
  9
$DIMTIH
 70
     0
  9
$DIMTOH
 70
     0
  9
$DIMSE1
 70
     0
  9
$DIMSE2
 70
     0
  9
$DIMTAD
 70
     1
  9
$DIMZIN
 70
     8
  9
$DIMBLK
  1

  9
$DIMASO
 70
     1
  9
$DIMSHO
 70
     0
  9
$DIMPOST
  1

  9
$DIMAPOST
  1

  9
$DIMALT
 70
     0
  9
$DIMALTD
 70
     2
  9
$DIMALTF
 40
25.4
  9
$DIMLFAC
 40
1.0
  9
$DIMTOFL
 70
     1
  9
$DIMTVP
 40
0.0
  9
$DIMTIX
 70
     0
  9
$DIMSOXD
 70
     0
  9
$DIMSAH
 70
     0
  9
$DIMBLK1
  1

  9
$DIMBLK2
  1

  9
$DIMSTYLE
  2
Standard
  9
$DIMCLRD
 70
     0
  9
$DIMCLRE
 70
     0
  9
$DIMCLRT
 70
     1
  9
$DIMTFAC
 40
0.5142857142857144
  9
$DIMGAP
 40
1.0
  9
$DIMJUST
 70
     0
  9
$DIMSD1
 70
     0
  9
$DIMSD2
 70
     0
  9
$DIMTOLJ
 70
     1
  9
$DIMTZIN
 70
     8
  9
$DIMALTZ
 70
     8
  9
$DIMALTTZ
 70
     8
  9
$DIMUPT
 70
     0
  9
$DIMDEC
 70
     1
  9
$DIMTDEC
 70
     1
  9
$DIMALTU
 70
     2
  9
$DIMALTTD
 70
     2
  9
$DIMTXSTY
  7
STANDARD
  9
$DIMAUNIT
 70
     0
  9
$DIMADEC
 70
     0
  9
$DIMALTRND
 40
0.0
  9
$DIMAZIN
 70
     0
  9
$DIMDSEP
 70
    46
  9
$DIMATFIT
 70
     3
  9
$DIMFRAC
 70
     0
  9
$DIMLDRBLK
  1

  9
$DIMLUNIT
 70
     2
  9
$DIMLWD
 70
    -2
  9
$DIMLWE
 70
    -2
  9
$DIMTMOVE
 70
     0
  9
$DIMFXL
 40
1.0
  9
$DIMFXLON
 70
     0
  9
$DIMJOGANG
 40
0.7853981633974483
  9
$DIMTFILL
 70
     0
  9
$DIMTFILLCLR
 70
     0
  9
$DIMARCSYM
 70
     0
  9
$DIMLTYPE
  6

  9
$DIMLTEX1
  6

  9
$DIMLTEX2
  6

  9
$DIMTXTDIRECTION
 70
     0
  9
$LUNITS
 70
     2
  9
$LUPREC
 70
     2
  9
$SKETCHINC
 40
1.0
  9
$FILLETRAD
 40
10.0
  9
$AUNITS
 70
     0
  9
$AUPREC
 70
     0
  9
$MENU
  1
ACAD
  9
$ELEVATION
 40
0.0
  9
$PELEVATION
 40
0.0
  9
$THICKNESS
 40
0.0
  9
$LIMCHECK
 70
     0
  9
$CHAMFERA
 40
20.0
  9
$CHAMFERB
 40
20.0
  9
$CHAMFERC
 40
0.0
  9
$CHAMFERD
 40
0.0
  9
$SKPOLY
 70
     0
  9
$TDCREATE
 40
2452618.335555556
  9
$TDUCREATE
 40
2452618.293896297
  9
$TDUPDATE
 40
2458039.402407407
  9
$TDUUPDATE
 40
2458039.319074075
  9
$TDINDWG
 40
0.1194682060
  9
$TDUSRTIMER
 40
0.1194682060
  9
$USRTIMER
 70
     1
  9
$ANGBASE
 50
0.0
  9
$ANGDIR
 70
     0
  9
$PDMODE
 70
     0
  9
$PDSIZE
 40
0.0
  9
$PLINEWID
 40
0.0
  9
$SPLFRAME
 70
     0
  9
$SPLINETYPE
 70
     6
  9
$SPLINESEGS
 70
     8
  9
$HANDSEED
  5
4A7
  9
$SURFTAB1
 70
     6
  9
$SURFTAB2
 70
     6
  9
$SURFTYPE
 70
     6
  9
$SURFU
 70
     6
  9
$SURFV
 70
     6
  9
$UCSBASE
  2

  9
$UCSNAME
  2

  9
$UCSORG
 10
0.0
 20
0.0
 30
0.0
  9
$UCSXDIR
 10
1.0
 20
0.0
 30
0.0
  9
$UCSYDIR
 10
0.0
 20
1.0
 30
0.0
  9
$UCSORTHOREF
  2

  9
$UCSORTHOVIEW
 70
     0
  9
$UCSORGTOP
 10
0.0
 20
0.0
 30
0.0
  9
$UCSORGBOTTOM
 10
0.0
 20
0.0
 30
0.0
  9
$UCSORGLEFT
 10
0.0
 20
0.0
 30
0.0
  9
$UCSORGRIGHT
 10
0.0
 20
0.0
 30
0.0
  9
$UCSORGFRONT
 10
0.0
 20
0.0
 30
0.0
  9
$UCSORGBACK
 10
0.0
 20
0.0
 30
0.0
  9
$PUCSBASE
  2

  9
$PUCSNAME
  2

  9
$PUCSORG
 10
0.0
 20
0.0
 30
0.0
  9
$PUCSXDIR
 10
1.0
 20
0.0
 30
0.0
  9
$PUCSYDIR
 10
0.0
 20
1.0
 30
0.0
  9
$PUCSORTHOREF
  2

  9
$PUCSORTHOVIEW
 70
     0
  9
$PUCSORGTOP
 10
0.0
 20
0.0
 30
0.0
  9
$PUCSORGBOTTOM
 10
0.0
 20
0.0
 30
0.0
  9
$PUCSORGLEFT
 10
0.0
 20
0.0
 30
0.0
  9
$PUCSORGRIGHT
 10
0.0
 20
0.0
 30
0.0
  9
$PUCSORGFRONT
 10
0.0
 20
0.0
 30
0.0
  9
$PUCSORGBACK
 10
0.0
 20
0.0
 30
0.0
  9
$USERI1
 70
     0
  9
$USERI2
 70
     0
  9
$USERI3
 70
     0
  9
$USERI4
 70
     0
  9
$USERI5
 70
     0
  9
$USERR1
 40
0.0
  9
$USERR2
 40
0.0
  9
$USERR3
 40
0.0
  9
$USERR4
 40
0.0
  9
$USERR5
 40
0.0
  9
$WORLDVIEW
 70
     1
  9
$SHADEDGE
 70
     3
  9
$SHADEDIF
 70
    70
  9
$TILEMODE
 70
     1
  9
$MAXACTVP
 70
    16
  9
$PINSBASE
 10
0.0
 20
0.0
 30
0.0
  9
$PLIMCHECK
 70
     0
  9
$PEXTMIN
 10
1.000000000000000E+20
 20
1.000000000000000E+20
 30
1.000000000000000E+20
  9
$PEXTMAX
 10
-1.000000000000000E+20
 20
-1.000000000000000E+20
 30
-1.000000000000000E+20
  9
$PLIMMIN
 10
0.0
 20
0.0
  9
$PLIMMAX
 10
12.0
 20
9.0
  9
$UNITMODE
 70
     0
  9
$VISRETAIN
 70
     0
  9
$PLINEGEN
 70
     0
  9
$PSLTSCALE
 70
     0
  9
$TREEDEPTH
 70
  3020
  9
$CMLSTYLE
  2
Standard
  9
$CMLJUST
 70
     0
  9
$CMLSCALE
 40
1.0
  9
$PROXYGRAPHICS
 70
     1
  9
$MEASUREMENT
 70
     0
  9
$CELWEIGHT
370
    -1
  9
$ENDCAPS
280
     0
  9
$JOINSTYLE
280
     0
  9
$LWDISPLAY
290
     0
  9
$INSUNITS
 70
     0
  9
$HYPERLINKBASE
  1

  9
$STYLESHEET
  1
monochrome1.ctb
  9
$XEDIT
290
     1
  9
$CEPSNTYPE
380
     0
  9
$PSTYLEMODE
290
     1
  9
$FINGERPRINTGUID
  2
{B0112688-A9B3-4099-9E6C-D512C3B8B8BD}
  9
$VERSIONGUID
  2
{CAB1221D-C590-CA4F-A5CD-2F843EB48E3B}
  9
$EXTNAMES
290
     1
  9
$PSVPSCALE
 40
0.0
  9
$OLESTARTUP
290
     0
  9
$SORTENTS
280
   127
  9
$INDEXCTL
280
     0
  9
$HIDETEXT
280
     1
  9
$XCLIPFRAME
280
     0
  9
$HALOGAP
280
     0
  9
$OBSCOLOR
 70
   257
  9
$OBSLTYPE
280
     0
  9
$INTERSECTIONDISPLAY
280
     0
  9
$INTERSECTIONCOLOR
 70
   257
  9
$DIMASSOC
280
     2
  9
$PROJECTNAME
  1

  9
$CAMERADISPLAY
290
     0
  9
$LENSLENGTH
 40
50.0
  9
$CAMERAHEIGHT
 40
0.0
  9
$STEPSPERSEC
 40
2.0
  9
$STEPSIZE
 40
6.0
  9
$3DDWFPREC
 40
2.0
  9
$PSOLWIDTH
 40
0.25
  9
$PSOLHEIGHT
 40
4.0
  9
$LOFTANG1
 40
1.570796326794896
  9
$LOFTANG2
 40
1.570796326794896
  9
$LOFTMAG1
 40
0.0
  9
$LOFTMAG2
 40
0.0
  9
$LOFTPARAM
 70
     7
  9
$LOFTNORMALS
280
     1
  9
$LATITUDE
 40
37.795
  9
$LONGITUDE
 40
-122.394
  9
$NORTHDIRECTION
 40
0.0
  9
$TIMEZONE
 70
 -8000
  9
$LIGHTGLYPHDISPLAY
280
     1
  9
$TILEMODELIGHTSYNCH
280
     1
  9
$CMATERIAL
347
3D6
  9
$SOLIDHIST
280
     0
  9
$SHOWHIST
280
     1
  9
$DWFFRAME
280
     2
  9
$DGNFRAME
280
     0
  9
$REALWORLDSCALE
290
     1
  9
$INTERFERECOLOR
 62
     1
  9
$INTERFEREOBJVS
345
3F8
  9
$INTERFEREVPVS
346
3F5
  9
$CSHADOW
280
     0
  9
$SHADOWPLANELOCATION
 40
0.0
  0
ENDSEC
  0
SECTION
  2
CLASSES
  0
CLASS
  1
ACDBDICTIONARYWDFLT
  2
AcDbDictionaryWithDefault
  3
ObjectDBX Classes
 90
        0
 91
        1
280
     0
281
     0
  0
CLASS
  1
DICTIONARYVAR
  2
AcDbDictionaryVar
  3
ObjectDBX Classes
 90
        0
 91
       12
280
     0
281
     0
  0
CLASS
  1
DIMASSOC
  2
AcDbDimAssoc
  3
"AcDbDimAssoc|Product Desc:     AcDim ARX App For Dimension|Company:          Autodesk, Inc.|WEB Address:      www.autodesk.com"
 90
        0
 91
        1
280
     0
281
     0
  0
CLASS
  1
MATERIAL
  2
AcDbMaterial
  3
ObjectDBX Classes
 90
     1153
 91
        3
280
     0
281
     0
  0
CLASS
  1
VISUALSTYLE
  2
AcDbVisualStyle
  3
ObjectDBX Classes
 90
     4095
 91
       24
280
     0
281
     0
  0
CLASS
  1
TABLESTYLE
  2
AcDbTableStyle
  3
ObjectDBX Classes
 90
     4095
 91
        1
280
     0
281
     0
  0
CLASS
  1
SCALE
  2
AcDbScale
  3
ObjectDBX Classes
 90
     1153
 91
       17
280
     0
281
     0
  0
CLASS
  1
MLEADERSTYLE
  2
AcDbMLeaderStyle
  3
ACDB_MLEADERSTYLE_CLASS
 90
     4095
 91
        1
280
     0
281
     0
  0
CLASS
  1
ACDBSECTIONVIEWSTYLE
  2
AcDbSectionViewStyle
  3
ObjectDBX Classes
 90
     1025
 91
        1
280
     0
281
     0
  0
CLASS
  1
ACDBDETAILVIEWSTYLE
  2
AcDbDetailViewStyle
  3
ObjectDBX Classes
 90
     1025
 91
        1
280
     0
281
     0
  0
CLASS
  1
RAPIDRTRENDERSETTINGS
  2
AcDbRapidRTRenderSettings
  3
ObjectDBX Classes
 90
     1024
 91
        7
280
     0
281
     0
  0
CLASS
  1
FIELD
  2
AcDbField
  3
ObjectDBX Classes
 90
     1152
 91
        2
280
     0
281
     0
  0
CLASS
  1
FIELDLIST
  2
AcDbFieldList
  3
ObjectDBX Classes
 90
     1152
 91
        1
280
     0
281
     0
  0
CLASS
  1
SORTENTSTABLE
  2
AcDbSortentsTable
  3
ObjectDBX Classes
 90
        0
 91
        0
280
     0
281
     0
  0
CLASS
  1
CELLSTYLEMAP
  2
AcDbCellStyleMap
  3
ObjectDBX Classes
 90
     1152
 91
        2
280
     0
281
     0
  0
ENDSEC
  0
SECTION
  2
TABLES
  0
TABLE
  2
VPORT
  5
8
330
0
100
AcDbSymbolTable
 70
     1
1001
ACAD
1000
DbSaveVer
1071
        5
  0
VPORT
  5
3D4
330
8
100
AcDbSymbolTableRecord
100
AcDbViewportTableRecord
  2
*Active
 70
     0
 10
0.0
 20
0.0
 11
1.0
 21
1.0
 12
210.0000085570857
 22
297.0000121021637
 13
0.0
 23
0.0
 14
1.0
 24
1.0
 15
20.0
 25
20.0
 16
0.0
 26
0.0
 36
1.0
 17
0.0
 27
0.0
 37
0.0
 40
598.6148101934672
 41
1.920918367346938
 42
50.0
 43
0.0
 44
0.0
 50
0.0
 51
0.0
 71
     0
 72
  1500
 73
     1
 74
     0
 75
     0
 76
     0
 77
     0
 78
     0
281
     0
 65
     1
110
0.0
120
0.0
130
0.0
111
1.0
121
0.0
131
0.0
112
0.0
122
1.0
132
0.0
 79
     0
146
0.0
348
3F4
 60
     3
 61
     5
292
     1
282
     1
141
0.0
142
0.0
 63
   250
421
  3355443
1001
ACAD_NAV_VCDISPLAY
1070
     3
  0
ENDTAB
  0
TABLE
  2
LTYPE
  5
5
330
0
100
AcDbSymbolTable
 70
     3
  0
LTYPE
  5
13
330
5
100
AcDbSymbolTableRecord
100
AcDbLinetypeTableRecord
  2
ByBlock
 70
     0
  3

 72
    65
 73
     0
 40
0.0
  0
LTYPE
  5
14
330
5
100
AcDbSymbolTableRecord
100
AcDbLinetypeTableRecord
  2
ByLayer
 70
     0
  3

 72
    65
 73
     0
 40
0.0
  0
LTYPE
  5
15
330
5
100
AcDbSymbolTableRecord
100
AcDbLinetypeTableRecord
  2
Continuous
 70
     0
  3
Solid line
 72
    65
 73
     0
 40
0.0
  0
LTYPE
  5
34
330
5
100
AcDbSymbolTableRecord
100
AcDbLinetypeTableRecord
  2
STRICHPUNKT
 70
     0
  3
__ . __ . __ . __ . __ . __ . __ . __ . __ . __
 72
    65
 73
     4
 40
1.0
 49
0.5
 74
     0
 49
-0.25
 74
     0
 49
0.0
 74
     0
 49
-0.25
 74
     0
  0
ENDTAB
  0
TABLE
  2
LAYER
  5
2
102
{ACAD_XDICTIONARY
360
435
102
}
330
0
100
AcDbSymbolTable
 70
     8
  0
LAYER
  5
10
102
{ACAD_XDICTIONARY
360
44E
102
}
330
2
100
AcDbSymbolTableRecord
100
AcDbLayerTableRecord
  2
0
 70
     0
 62
     7
  6
Continuous
370
    -3
390
F
347
3E6
348
0
  0
LAYER
  5
39
102
{ACAD_XDICTIONARY
360
450
102
}
330
2
100
AcDbSymbolTableRecord
100
AcDbLayerTableRecord
  2
VOLL
 70
     0
 62
     1
  6
Continuous
370
    -3
390
F
347
3E6
348
0
  0
LAYER
  5
3A
102
{ACAD_XDICTIONARY
360
452
102
}
330
2
100
AcDbSymbolTableRecord
100
AcDbLayerTableRecord
  2
HILF
 70
     0
 62
     2
  6
Continuous
370
    -3
390
F
347
3E6
348
0
  0
LAYER
  5
3B
102
{ACAD_XDICTIONARY
360
454
102
}
330
2
100
AcDbSymbolTableRecord
100
AcDbLayerTableRecord
  2
MITTEL
 70
     0
 62
     2
  6
STRICHPUNKT
370
    -3
390
F
347
3E6
348
0
  0
LAYER
  5
3D
102
{ACAD_XDICTIONARY
360
456
102
}
330
2
100
AcDbSymbolTableRecord
100
AcDbLayerTableRecord
  2
BEM
 70
     0
 62
     7
  6
Continuous
370
    -3
390
F
347
3E6
348
0
  0
LAYER
  5
3E
102
{ACAD_XDICTIONARY
360
458
102
}
330
2
100
AcDbSymbolTableRecord
100
AcDbLayerTableRecord
  2
STEMPEL
 70
     0
 62
     3
  6
Continuous
370
    -3
390
F
347
3E6
348
0
  0
LAYER
  5
3F
102
{ACAD_XDICTIONARY
360
45A
102
}
330
2
100
AcDbSymbolTableRecord
100
AcDbLayerTableRecord
  2
TEXT
 70
     0
 62
     7
  6
Continuous
370
    -3
390
F
347
3E6
348
0
  0
LAYER
  5
40
330
2
100
AcDbSymbolTableRecord
100
AcDbLayerTableRecord
  2
DEFPOINTS
 70
     0
 62
     7
  6
Continuous
290
     0
370
    -3
390
F
347
3E6
348
0
  0
ENDTAB
  0
TABLE
  2
STYLE
  5
3
330
0
100
AcDbSymbolTable
 70
     3
  0
STYLE
  5
11
330
3
100
AcDbSymbolTableRecord
100
AcDbTextStyleTableRecord
  2
STANDARD
 70
     0
 40
0.0
 41
0.8
 50
0.0
 71
     0
 42
3.5
  3
simplex.shx
  4

  0
STYLE
  5
33
330
3
100
AcDbSymbolTableRecord
100
AcDbTextStyleTableRecord
  2
GREEKS
 70
     0
 40
0.0
 41
0.8
 50
0.0
 71
     0
 42
2.5
  3
SIMPLEX.shx
  4

  0
ENDTAB
  0
TABLE
  2
VIEW
  5
6
330
0
100
AcDbSymbolTable
 70
     1
  0
ENDTAB
  0
TABLE
  2
UCS
  5
7
330
0
100
AcDbSymbolTable
 70
     0
  0
ENDTAB
  0
TABLE
  2
APPID
  5
9
330
0
100
AcDbSymbolTable
 70
     4
  0
APPID
  5
12
330
9
100
AcDbSymbolTableRecord
100
AcDbRegAppTableRecord
  2
ACAD
 70
     0
  0
APPID
  5
42C
330
9
100
AcDbSymbolTableRecord
100
AcDbRegAppTableRecord
  2
ACAD_EXEMPT_FROM_CAD_STANDARDS
 70
     0
  0
APPID
  5
434
330
9
100
AcDbSymbolTableRecord
100
AcDbRegAppTableRecord
  2
ACAD_NAV_VCDISPLAY
 70
     0
  0
APPID
  5
46D
330
9
100
AcDbSymbolTableRecord
100
AcDbRegAppTableRecord
  2
ACAD_PSEXT
 70
     0
  0
ENDTAB
  0
TABLE
  2
DIMSTYLE
  5
A
330
0
100
AcDbSymbolTable
 70
     2
100
AcDbDimStyleTable
 71
     1
340
1CC
  0
DIMSTYLE
105
1CC
102
{ACAD_REACTORS
330
1E3
330
173
330
172
330
171
330
170
330
16F
330
16E
330
16D
330
16C
330
16B
330
16A
330
169
330
168
330
167
102
}
330
A
100
AcDbSymbolTableRecord
100
AcDbDimStyleTableRecord
  2
Standard
 70
     0
340
11
  0
ENDTAB
  0
TABLE
  2
BLOCK_RECORD
  5
1
330
0
100
AcDbSymbolTable
 70
    15
  0
BLOCK_RECORD
  5
20
330
1
100
AcDbSymbolTableRecord
100
AcDbBlockTableRecord
  2
*Model_Space
340
23
 70
     0
280
     1
281
     0
  0
BLOCK_RECORD
  5
1C
330
1
100
AcDbSymbolTableRecord
100
AcDbBlockTableRecord
  2
*Paper_Space
340
1F
 70
     0
280
     1
281
     0
  0
BLOCK_RECORD
  5
1E4
330
1
100
AcDbSymbolTableRecord
100
AcDbBlockTableRecord
  2
*D0
340
0
 70
     0
280
     1
281
     0
  0
BLOCK_RECORD
  5
227
330
1
100
AcDbSymbolTableRecord
100
AcDbBlockTableRecord
  2
*D1
340
0
 70
     0
280
     1
281
     0
  0
BLOCK_RECORD
  5
235
330
1
100
AcDbSymbolTableRecord
100
AcDbBlockTableRecord
  2
*D2
340
0
 70
     0
280
     1
281
     0
  0
BLOCK_RECORD
  5
243
330
1
100
AcDbSymbolTableRecord
100
AcDbBlockTableRecord
  2
*D3
340
0
 70
     0
280
     1
281
     0
  0
BLOCK_RECORD
  5
251
330
1
100
AcDbSymbolTableRecord
100
AcDbBlockTableRecord
  2
*D4
340
0
 70
     0
280
     1
281
     0
  0
BLOCK_RECORD
  5
25F
330
1
100
AcDbSymbolTableRecord
100
AcDbBlockTableRecord
  2
*D5
340
0
 70
     0
280
     1
281
     0
  0
BLOCK_RECORD
  5
26D
330
1
100
AcDbSymbolTableRecord
100
AcDbBlockTableRecord
  2
*D6
340
0
 70
     0
280
     1
281
     0
  0
BLOCK_RECORD
  5
279
330
1
100
AcDbSymbolTableRecord
100
AcDbBlockTableRecord
  2
*D7
340
0
 70
     0
280
     1
281
     0
  0
BLOCK_RECORD
  5
287
330
1
100
AcDbSymbolTableRecord
100
AcDbBlockTableRecord
  2
*D8
340
0
 70
     0
280
     1
281
     0
  0
BLOCK_RECORD
  5
293
330
1
100
AcDbSymbolTableRecord
100
AcDbBlockTableRecord
  2
*D9
340
0
 70
     0
280
     1
281
     0
  0
BLOCK_RECORD
  5
29F
330
1
100
AcDbSymbolTableRecord
100
AcDbBlockTableRecord
  2
*D10
340
0
 70
     0
280
     1
281
     0
  0
BLOCK_RECORD
  5
2AB
330
1
100
AcDbSymbolTableRecord
100
AcDbBlockTableRecord
  2
*D11
340
0
 70
     0
280
     1
281
     0
  0
BLOCK_RECORD
  5
2B7
330
1
100
AcDbSymbolTableRecord
100
AcDbBlockTableRecord
  2
*D12
340
0
 70
     0
280
     1
281
     0
  0
BLOCK_RECORD
  5
2C3
330
1
100
AcDbSymbolTableRecord
100
AcDbBlockTableRecord
  2
*D13
340
0
 70
     0
280
     1
281
     0
  0
ENDTAB
  0
ENDSEC
  0
SECTION
  2
BLOCKS
  0
BLOCK
  5
44
330
20
100
AcDbEntity
  8
0
100
AcDbBlockBegin
  2
*Model_Space
 70
     0
 10
0.0
 20
0.0
 30
0.0
  3
*Model_Space
  1

  0
ENDBLK
  5
45
330
20
100
AcDbEntity
  8
0
100
AcDbBlockEnd
  0
BLOCK
  5
42
330
1C
100
AcDbEntity
 67
     1
  8
0
100
AcDbBlockBegin
  2
*Paper_Space
 70
     0
 10
0.0
 20
0.0
 30
0.0
  3
*Paper_Space
  1

  0
ENDBLK
  5
43
330
1C
100
AcDbEntity
 67
     1
  8
0
100
AcDbBlockEnd
  0
BLOCK
  5
1F0
330
1E4
100
AcDbEntity
  8
0
100
AcDbBlockBegin
  2
*D0
 70
     1
 10
0.0
 20
0.0
 30
0.0
  3
*D0
  1

  0
LINE
  5
21C
330
1E4
100
AcDbEntity
  8
BEM
 62
     0
440
 16777216
370
    -2
100
AcDbLine
 10
62.08370066466702
 20
423.5647028218365
 30
0.0
 11
62.08370066466696
 21
380.7344441523552
 31
0.0
  0
LINE
  5
21D
330
1E4
100
AcDbEntity
  8
BEM
 62
     0
440
 16777216
370
    -2
100
AcDbLine
 10
80.56898203890559
 20
407.079421447598
 30
0.0
 11
93.78348057220435
 21
393.8649229142994
 31
0.0
  0
ARC
  5
21E
330
1E4
100
AcDbEntity
  8
BEM
 62
     0
440
 16777216
370
    -2
100
AcDbCircle
 10
62.08370066466702
 20
425.5647028218366
 30
0.0
 40
42.83025866948142
100
AcDbArc
 50
279.3746382854232
 51
305.6253617145769
  0
SOLID
  5
21F
330
1E4
100
AcDbEntity
  8
BEM
 62
     0
440
 16777216
100
AcDbTrace
 10
69.15562672832135
 20
382.1437049025025
 30
0.0
 11
68.96495156267066
 21
384.4692343961122
 31
0.0
 12
62.08370066466696
 22
382.7344441523552
 32
0.0
 13
62.08370066466696
 23
382.7344441523552
 33
0.0
  0
SOLID
  5
220
330
1E4
100
AcDbEntity
  8
BEM
 62
     0
440
 16777216
100
AcDbTrace
 10
86.27680589151003
 20
391.6400392489448
 30
0.0
 11
87.78637586365523
 21
389.8608138715287
 31
0.0
 12
92.36926700983127
 22
395.2791364766724
 32
0.0
 13
92.36926700983127
 23
395.2791364766724
 33
0.0
  0
MTEXT
  5
221
330
1E4
100
AcDbEntity
  8
BEM
 62
     1
440
 16777216
100
AcDbMText
 10
76.36937218338083
 20
391.0760408937507
 30
0.0
 40
7.0
 41
0.0
 46
0.0
 71
     5
 72
     1
  1
\A1;45°
 11
0.9238795325112866
 21
0.3826834323650901
 31
0.0
 73
     1
 44
1.0
  0
POINT
  5
222
330
1E4
100
AcDbEntity
  8
DEFPOINTS
 62
     0
440
 16777216
100
AcDbPoint
 10
73.16898731499616
 20
384.1938498263433
 30
0.0
  0
POINT
  5
223
330
1E4
100
AcDbEntity
  8
DEFPOINTS
 62
     0
440
 16777216
100
AcDbPoint
 10
62.08370066466702
 20
446.4225671981057
 30
0.0
  0
POINT
  5
224
330
1E4
100
AcDbEntity
  8
DEFPOINTS
 62
     0
440
 16777216
100
AcDbPoint
 10
65.01263285280154
 20
422.6357706337021
 30
0.0
  0
POINT
  5
225
330
1E4
100
AcDbEntity
  8
DEFPOINTS
 62
     0
440
 16777216
100
AcDbPoint
 10
79.15476847653252
 20
408.493635009971
 30
0.0
  0
POINT
  5
226
330
1E4
100
AcDbEntity
  8
DEFPOINTS
 62
     0
440
 16777216
100
AcDbPoint
 10
62.08370066466705
 20
429.7068384455676
 30
0.0
  0
ENDBLK
  5
1F1
330
1E4
100
AcDbEntity
  8
0
100
AcDbBlockEnd
  0
BLOCK
  5
233
330
227
100
AcDbEntity
  8
0
100
AcDbBlockBegin
  2
*D1
 70
     1
 10
0.0
 20
0.0
 30
0.0
  3
*D1
  1

  0
LINE
  5
228
330
227
100
AcDbEntity
  8
BEM
 62
     0
440
 16777216
370
    -2
100
AcDbLine
 10
384.083700664667
 20
448.4225671981056
 30
0.0
 11
384.083700664667
 21
520.7591886749638
 31
0.0
  0
LINE
  5
229
330
227
100
AcDbEntity
  8
BEM
 62
     0
440
 16777216
370
    -2
100
AcDbLine
 10
374.0837006646671
 20
448.5647028218365
 30
0.0
 11
374.0837006646671
 21
520.7591886749638
 31
0.0
  0
LINE
  5
22A
330
227
100
AcDbEntity
  8
BEM
 62
     0
440
 16777216
370
    -2
100
AcDbLine
 10
391.0837006646671
 20
518.7591886749637
 30
0.0
 11
398.083700664667
 21
518.7591886749637
 31
0.0
  0
LINE
  5
22B
330
227
100
AcDbEntity
  8
BEM
 62
     0
440
 16777216
370
    -2
100
AcDbLine
 10
367.083700664667
 20
518.7591886749637
 30
0.0
 11
348.083700664667
 21
518.7591886749637
 31
0.0
  0
LINE
  5
22C
330
227
100
AcDbEntity
  8
BEM
 62
     0
440
 16777216
370
    -2
100
AcDbLine
 10
384.083700664667
 20
518.7591886749637
 30
0.0
 11
374.0837006646671
 21
518.7591886749637
 31
0.0
  0
SOLID
  5
22D
330
227
100
AcDbEntity
  8
BEM
 62
     0
440
 16777216
100
AcDbTrace
 10
391.0837006646671
 20
519.9258553416304
 30
0.0
 11
391.0837006646671
 21
517.5925220082971
 31
0.0
 12
384.083700664667
 22
518.7591886749637
 32
0.0
 13
384.083700664667
 23
518.7591886749637
 33
0.0
  0
SOLID
  5
22E
330
227
100
AcDbEntity
  8
BEM
 62
     0
440
 16777216
100
AcDbTrace
 10
367.083700664667
 20
519.9258553416304
 30
0.0
 11
367.083700664667
 21
517.5925220082971
 31
0.0
 12
374.0837006646671
 22
518.7591886749637
 32
0.0
 13
374.0837006646671
 23
518.7591886749637
 33
0.0
  0
MTEXT
  5
22F
330
227
100
AcDbEntity
  8
BEM
 62
     1
440
 16777216
100
AcDbMText
 10
354.0837006646671
 20
524.2591886749637
 30
0.0
 40
7.0
 41
0.0
 46
0.0
 71
     5
 72
     1
  1
\A1;10
 73
     1
 44
1.0
  0
POINT
  5
230
330
227
100
AcDbEntity
  8
DEFPOINTS
 62
     0
440
 16777216
100
AcDbPoint
 10
384.083700664667
 20
446.4225671981057
 30
0.0
  0
POINT
  5
231
330
227
100
AcDbEntity
  8
DEFPOINTS
 62
     0
440
 16777216
100
AcDbPoint
 10
374.0837006646671
 20
446.5647028218365
 30
0.0
  0
POINT
  5
232
330
227
100
AcDbEntity
  8
DEFPOINTS
 62
     0
440
 16777216
100
AcDbPoint
 10
374.0837006646671
 20
518.7591886749637
 30
0.0
  0
ENDBLK
  5
234
330
227
100
AcDbEntity
  8
0
100
AcDbBlockEnd
  0
BLOCK
  5
241
330
235
100
AcDbEntity
  8
0
100
AcDbBlockBegin
  2
*D2
 70
     1
 10
0.0
 20
0.0
 30
0.0
  3
*D2
  1

  0
LINE
  5
236
330
235
100
AcDbEntity
  8
BEM
 62
     0
440
 16777216
370
    -2
100
AcDbLine
 10
62.08370066466705
 20
448.4225671981056
 30
0.0
 11
62.08370066466706
 21
520.7344700663011
 31
0.0
  0
LINE
  5
237
330
235
100
AcDbEntity
  8
BEM
 62
     0
440
 16777216
370
    -2
100
AcDbLine
 10
72.08370066466705
 20
448.5647028218365
 30
0.0
 11
72.08370066466705
 21
520.7344700663011
 31
0.0
  0
LINE
  5
238
330
235
100
AcDbEntity
  8
BEM
 62
     0
440
 16777216
370
    -2
100
AcDbLine
 10
55.08370066466706
 20
518.7344700663011
 30
0.0
 11
48.08370066466705
 21
518.7344700663011
 31
0.0
  0
LINE
  5
239
330
235
100
AcDbEntity
  8
BEM
 62
     0
440
 16777216
370
    -2
100
AcDbLine
 10
79.08370066466705
 20
518.7344700663011
 30
0.0
 11
98.08370066466705
 21
518.7344700663011
 31
0.0
  0
LINE
  5
23A
330
235
100
AcDbEntity
  8
BEM
 62
     0
440
 16777216
370
    -2
100
AcDbLine
 10
62.08370066466706
 20
518.7344700663011
 30
0.0
 11
72.08370066466705
 21
518.7344700663011
 31
0.0
  0
SOLID
  5
23B
330
235
100
AcDbEntity
  8
BEM
 62
     0
440
 16777216
100
AcDbTrace
 10
55.08370066466706
 20
519.9011367329677
 30
0.0
 11
55.08370066466706
 21
517.5678033996344
 31
0.0
 12
62.08370066466706
 22
518.7344700663011
 32
0.0
 13
62.08370066466706
 23
518.7344700663011
 33
0.0
  0
SOLID
  5
23C
330
235
100
AcDbEntity
  8
BEM
 62
     0
440
 16777216
100
AcDbTrace
 10
79.08370066466705
 20
519.9011367329677
 30
0.0
 11
79.08370066466705
 21
517.5678033996344
 31
0.0
 12
72.08370066466705
 22
518.7344700663011
 32
0.0
 13
72.08370066466705
 23
518.7344700663011
 33
0.0
  0
MTEXT
  5
23D
330
235
100
AcDbEntity
  8
BEM
 62
     1
440
 16777216
100
AcDbMText
 10
92.08370066466704
 20
524.2344700663011
 30
0.0
 40
7.0
 41
0.0
 46
0.0
 71
     5
 72
     1
  1
\A1;10
 73
     1
 44
1.0
  0
POINT
  5
23E
330
235
100
AcDbEntity
  8
DEFPOINTS
 62
     0
440
 16777216
100
AcDbPoint
 10
62.08370066466705
 20
446.4225671981057
 30
0.0
  0
POINT
  5
23F
330
235
100
AcDbEntity
  8
DEFPOINTS
 62
     0
440
 16777216
100
AcDbPoint
 10
72.08370066466705
 20
446.5647028218365
 30
0.0
  0
POINT
  5
240
330
235
100
AcDbEntity
  8
DEFPOINTS
 62
     0
440
 16777216
100
AcDbPoint
 10
72.08370066466705
 20
518.7344700663011
 30
0.0
  0
ENDBLK
  5
242
330
235
100
AcDbEntity
  8
0
100
AcDbBlockEnd
  0
BLOCK
  5
24F
330
243
100
AcDbEntity
  8
0
100
AcDbBlockBegin
  2
*D3
 70
     1
 10
0.0
 20
0.0
 30
0.0
  3
*D3
  1

  0
LINE
  5
244
330
243
100
AcDbEntity
  8
BEM
 62
     0
440
 16777216
370
    -2
100
AcDbLine
 10
225.583700664667
 20
418.5647028218365
 30
0.0
 11
225.583700664667
 21
385.8222024716775
 31
0.0
  0
LINE
  5
245
330
243
100
AcDbEntity
  8
BEM
 62
     0
440
 16777216
370
    -2
100
AcDbLine
 10
220.5837006646671
 20
418.5647028218365
 30
0.0
 11
220.5837006646671
 21
385.8222024716775
 31
0.0
  0
LINE
  5
246
330
243
100
AcDbEntity
  8
BEM
 62
     0
440
 16777216
370
    -2
100
AcDbLine
 10
232.5837006646671
 20
387.8222024716775
 30
0.0
 11
239.583700664667
 21
387.8222024716775
 31
0.0
  0
LINE
  5
247
330
243
100
AcDbEntity
  8
BEM
 62
     0
440
 16777216
370
    -2
100
AcDbLine
 10
213.5837006646671
 20
387.8222024716775
 30
0.0
 11
198.8503673313337
 21
387.8222024716775
 31
0.0
  0
LINE
  5
248
330
243
100
AcDbEntity
  8
BEM
 62
     0
440
 16777216
370
    -2
100
AcDbLine
 10
225.583700664667
 20
387.8222024716775
 30
0.0
 11
220.5837006646671
 21
387.8222024716775
 31
0.0
  0
SOLID
  5
249
330
243
100
AcDbEntity
  8
BEM
 62
     0
440
 16777216
100
AcDbTrace
 10
232.5837006646671
 20
388.9888691383442
 30
0.0
 11
232.5837006646671
 21
386.6555358050108
 31
0.0
 12
225.583700664667
 22
387.8222024716775
 32
0.0
 13
225.583700664667
 23
387.8222024716775
 33
0.0
  0
SOLID
  5
24A
330
243
100
AcDbEntity
  8
BEM
 62
     0
440
 16777216
100
AcDbTrace
 10
213.5837006646671
 20
388.9888691383442
 30
0.0
 11
213.5837006646671
 21
386.6555358050108
 31
0.0
 12
220.5837006646671
 22
387.8222024716775
 32
0.0
 13
220.5837006646671
 23
387.8222024716775
 33
0.0
  0
MTEXT
  5
24B
330
243
100
AcDbEntity
  8
BEM
 62
     1
440
 16777216
100
AcDbMText
 10
202.7170339980004
 20
393.3222024716775
 30
0.0
 40
7.0
 41
0.0
 46
0.0
 71
     5
 72
     1
  1
\A1;5
 73
     1
 44
1.0
  0
POINT
  5
24C
330
243
100
AcDbEntity
  8
DEFPOINTS
 62
     0
440
 16777216
100
AcDbPoint
 10
225.583700664667
 20
420.5647028218365
 30
0.0
  0
POINT
  5
24D
330
243
100
AcDbEntity
  8
DEFPOINTS
 62
     0
440
 16777216
100
AcDbPoint
 10
220.5837006646671
 20
420.5647028218365
 30
0.0
  0
POINT
  5
24E
330
243
100
AcDbEntity
  8
DEFPOINTS
 62
     0
440
 16777216
100
AcDbPoint
 10
220.5837006646671
 20
387.8222024716775
 30
0.0
  0
ENDBLK
  5
250
330
243
100
AcDbEntity
  8
0
100
AcDbBlockEnd
  0
BLOCK
  5
25D
330
251
100
AcDbEntity
  8
0
100
AcDbBlockBegin
  2
*D4
 70
     1
 10
0.0
 20
0.0
 30
0.0
  3
*D4
  1

  0
LINE
  5
367
330
251
100
AcDbEntity
  8
BEM
 62
     0
440
 16777216
370
    -2
100
AcDbLine
 10
70.08370066466699
 20
434.5647028218365
 30
0.0
 11
51.15670996998415
 21
434.5647028218365
 31
0.0
  0
LINE
  5
368
330
251
100
AcDbEntity
  8
BEM
 62
     0
440
 16777216
370
    -2
100
AcDbLine
 10
70.08370066466705
 20
441.5647028218365
 30
0.0
 11
51.15670996998415
 21
441.5647028218365
 31
0.0
  0
LINE
  5
369
330
251
100
AcDbEntity
  8
BEM
 62
     0
440
 16777216
370
    -2
100
AcDbLine
 10
53.15670996998414
 20
427.5647028218365
 30
0.0
 11
53.15670996998414
 21
420.5647028218365
 31
0.0
  0
LINE
  5
36A
330
251
100
AcDbEntity
  8
BEM
 62
     0
440
 16777216
370
    -2
100
AcDbLine
 10
53.15670996998415
 20
448.5647028218365
 30
0.0
 11
53.15670996998415
 21
463.2980361551698
 31
0.0
  0
LINE
  5
36B
330
251
100
AcDbEntity
  8
BEM
 62
     0
440
 16777216
370
    -2
100
AcDbLine
 10
53.15670996998415
 20
434.5647028218365
 30
0.0
 11
53.15670996998415
 21
441.5647028218365
 31
0.0
  0
SOLID
  5
36C
330
251
100
AcDbEntity
  8
BEM
 62
     0
440
 16777216
100
AcDbTrace
 10
51.99004330331748
 20
427.5647028218365
 30
0.0
 11
54.3233766366508
 21
427.5647028218365
 31
0.0
 12
53.15670996998415
 22
434.5647028218365
 32
0.0
 13
53.15670996998415
 23
434.5647028218365
 33
0.0
  0
SOLID
  5
36D
330
251
100
AcDbEntity
  8
BEM
 62
     0
440
 16777216
100
AcDbTrace
 10
51.99004330331749
 20
448.5647028218365
 30
0.0
 11
54.32337663665081
 21
448.5647028218365
 31
0.0
 12
53.15670996998415
 22
441.5647028218365
 32
0.0
 13
53.15670996998415
 23
441.5647028218365
 33
0.0
  0
MTEXT
  5
36E
330
251
100
AcDbEntity
  8
BEM
 62
     1
440
 16777216
100
AcDbMText
 10
47.65670996998408
 20
459.4313694885031
 30
0.0
 40
7.0
 41
0.0
 46
0.0
 71
     5
 72
     1
  1
\A1;7
 11
0.0000000000000001
 21
1.0
 31
0.0
 73
     1
 44
1.0
  0
POINT
  5
36F
330
251
100
AcDbEntity
  8
DEFPOINTS
 62
     0
440
 16777216
100
AcDbPoint
 10
72.08370066466699
 20
434.5647028218365
 30
0.0
  0
POINT
  5
370
330
251
100
AcDbEntity
  8
DEFPOINTS
 62
     0
440
 16777216
100
AcDbPoint
 10
72.08370066466705
 20
441.5647028218365
 30
0.0
  0
POINT
  5
371
330
251
100
AcDbEntity
  8
DEFPOINTS
 62
     0
440
 16777216
100
AcDbPoint
 10
53.15670996998415
 20
441.5647028218365
 30
0.0
  0
ENDBLK
  5
25E
330
251
100
AcDbEntity
  8
0
100
AcDbBlockEnd
  0
BLOCK
  5
26B
330
25F
100
AcDbEntity
  8
0
100
AcDbBlockBegin
  2
*D5
 70
     1
 10
0.0
 20
0.0
 30
0.0
  3
*D5
  1

  0
LINE
  5
348
330
25F
100
AcDbEntity
  8
BEM
 62
     0
440
 16777216
370
    -2
100
AcDbLine
 10
324.0837006646672
 20
455.5647028218365
 30
0.0
 11
405.4799247924489
 21
455.5647028218364
 31
0.0
  0
LINE
  5
349
330
25F
100
AcDbEntity
  8
BEM
 62
     0
440
 16777216
370
    -2
100
AcDbLine
 10
361.9415650409361
 20
470.5647028218365
 30
0.0
 11
405.4799247924489
 21
470.5647028218364
 31
0.0
  0
LINE
  5
34A
330
25F
100
AcDbEntity
  8
BEM
 62
     0
440
 16777216
370
    -2
100
AcDbLine
 10
403.4799247924489
 20
448.5647028218364
 30
0.0
 11
403.4799247924489
 21
441.5647028218365
 31
0.0
  0
LINE
  5
34B
330
25F
100
AcDbEntity
  8
BEM
 62
     0
440
 16777216
370
    -2
100
AcDbLine
 10
403.4799247924489
 20
477.5647028218364
 30
0.0
 11
403.4799247924489
 21
484.5647028218365
 31
0.0
  0
LINE
  5
34C
330
25F
100
AcDbEntity
  8
BEM
 62
     0
440
 16777216
370
    -2
100
AcDbLine
 10
403.4799247924489
 20
455.5647028218364
 30
0.0
 11
403.4799247924489
 21
470.5647028218364
 31
0.0
  0
SOLID
  5
34D
330
25F
100
AcDbEntity
  8
BEM
 62
     0
440
 16777216
100
AcDbTrace
 10
402.3132581257822
 20
448.5647028218364
 30
0.0
 11
404.6465914591157
 21
448.5647028218364
 31
0.0
 12
403.4799247924489
 22
455.5647028218364
 32
0.0
 13
403.4799247924489
 23
455.5647028218364
 33
0.0
  0
SOLID
  5
34E
330
25F
100
AcDbEntity
  8
BEM
 62
     0
440
 16777216
100
AcDbTrace
 10
402.3132581257822
 20
477.5647028218364
 30
0.0
 11
404.6465914591157
 21
477.5647028218364
 31
0.0
 12
403.4799247924489
 22
470.5647028218364
 32
0.0
 13
403.4799247924489
 23
470.5647028218364
 33
0.0
  0
MTEXT
  5
34F
330
25F
100
AcDbEntity
  8
BEM
 62
     1
440
 16777216
100
AcDbMText
 10
397.9799247924489
 20
463.0647028218366
 30
0.0
 40
7.0
 41
0.0
 46
0.0
 71
     5
 72
     1
  1
\A1;15
 11
0.0000000000000001
 21
1.0
 31
0.0
 73
     1
 44
1.0
  0
POINT
  5
350
330
25F
100
AcDbEntity
  8
DEFPOINTS
 62
     0
440
 16777216
100
AcDbPoint
 10
322.0837006646672
 20
455.5647028218365
 30
0.0
  0
POINT
  5
351
330
25F
100
AcDbEntity
  8
DEFPOINTS
 62
     0
440
 16777216
100
AcDbPoint
 10
359.9415650409361
 20
470.5647028218365
 30
0.0
  0
POINT
  5
352
330
25F
100
AcDbEntity
  8
DEFPOINTS
 62
     0
440
 16777216
100
AcDbPoint
 10
403.4799247924489
 20
470.5647028218364
 30
0.0
  0
ENDBLK
  5
26C
330
25F
100
AcDbEntity
  8
0
100
AcDbBlockEnd
  0
BLOCK
  5
277
330
26D
100
AcDbEntity
  8
0
100
AcDbBlockBegin
  2
*D6
 70
     1
 10
0.0
 20
0.0
 30
0.0
  3
*D6
  1

  0
LINE
  5
35E
330
26D
100
AcDbEntity
  8
BEM
 62
     0
440
 16777216
370
    -2
100
AcDbLine
 10
324.0837006646671
 20
420.5647028218365
 30
0.0
 11
405.4799247924489
 21
420.5647028218364
 31
0.0
  0
LINE
  5
35F
330
26D
100
AcDbEntity
  8
BEM
 62
     0
440
 16777216
370
    -2
100
AcDbLine
 10
324.0837006646672
 20
455.5647028218365
 30
0.0
 11
405.4799247924489
 21
455.5647028218364
 31
0.0
  0
LINE
  5
360
330
26D
100
AcDbEntity
  8
BEM
 62
     0
440
 16777216
370
    -2
100
AcDbLine
 10
403.4799247924489
 20
427.5647028218364
 30
0.0
 11
403.4799247924489
 21
448.5647028218364
 31
0.0
  0
SOLID
  5
361
330
26D
100
AcDbEntity
  8
BEM
 62
     0
440
 16777216
100
AcDbTrace
 10
402.3132581257822
 20
427.5647028218364
 30
0.0
 11
404.6465914591157
 21
427.5647028218364
 31
0.0
 12
403.4799247924489
 22
420.5647028218364
 32
0.0
 13
403.4799247924489
 23
420.5647028218364
 33
0.0
  0
SOLID
  5
362
330
26D
100
AcDbEntity
  8
BEM
 62
     0
440
 16777216
100
AcDbTrace
 10
402.3132581257822
 20
448.5647028218364
 30
0.0
 11
404.6465914591157
 21
448.5647028218364
 31
0.0
 12
403.4799247924489
 22
455.5647028218364
 32
0.0
 13
403.4799247924489
 23
455.5647028218364
 33
0.0
  0
MTEXT
  5
363
330
26D
100
AcDbEntity
  8
BEM
 62
     1
440
 16777216
100
AcDbMText
 10
397.9799247924489
 20
438.0647028218366
 30
0.0
 40
7.0
 41
0.0
 46
0.0
 71
     5
 72
     1
  1
\A1;35
 11
0.0000000000000001
 21
1.0
 31
0.0
 73
     1
 44
1.0
  0
POINT
  5
364
330
26D
100
AcDbEntity
  8
DEFPOINTS
 62
     0
440
 16777216
100
AcDbPoint
 10
322.0837006646671
 20
420.5647028218365
 30
0.0
  0
POINT
  5
365
330
26D
100
AcDbEntity
  8
DEFPOINTS
 62
     0
440
 16777216
100
AcDbPoint
 10
322.0837006646672
 20
455.5647028218365
 30
0.0
  0
POINT
  5
366
330
26D
100
AcDbEntity
  8
DEFPOINTS
 62
     0
440
 16777216
100
AcDbPoint
 10
403.4799247924489
 20
455.5647028218364
 30
0.0
  0
ENDBLK
  5
278
330
26D
100
AcDbEntity
  8
0
100
AcDbBlockEnd
  0
BLOCK
  5
285
330
279
100
AcDbEntity
  8
0
100
AcDbBlockBegin
  2
*D7
 70
     1
 10
0.0
 20
0.0
 30
0.0
  3
*D7
  1

  0
LINE
  5
353
330
279
100
AcDbEntity
  8
BEM
 62
     0
440
 16777216
370
    -2
100
AcDbLine
 10
361.9415650409361
 20
405.5647028218364
 30
0.0
 11
405.4799247924489
 21
405.5647028218364
 31
0.0
  0
LINE
  5
354
330
279
100
AcDbEntity
  8
BEM
 62
     0
440
 16777216
370
    -2
100
AcDbLine
 10
324.0837006646671
 20
420.5647028218365
 30
0.0
 11
405.4799247924489
 21
420.5647028218364
 31
0.0
  0
LINE
  5
355
330
279
100
AcDbEntity
  8
BEM
 62
     0
440
 16777216
370
    -2
100
AcDbLine
 10
403.4799247924489
 20
398.5647028218365
 30
0.0
 11
403.4799247924489
 21
391.5647028218365
 31
0.0
  0
LINE
  5
356
330
279
100
AcDbEntity
  8
BEM
 62
     0
440
 16777216
370
    -2
100
AcDbLine
 10
403.4799247924489
 20
427.5647028218364
 30
0.0
 11
403.4799247924489
 21
434.5647028218365
 31
0.0
  0
LINE
  5
357
330
279
100
AcDbEntity
  8
BEM
 62
     0
440
 16777216
370
    -2
100
AcDbLine
 10
403.4799247924489
 20
405.5647028218364
 30
0.0
 11
403.4799247924489
 21
420.5647028218364
 31
0.0
  0
SOLID
  5
358
330
279
100
AcDbEntity
  8
BEM
 62
     0
440
 16777216
100
AcDbTrace
 10
402.3132581257822
 20
398.5647028218365
 30
0.0
 11
404.6465914591157
 21
398.5647028218365
 31
0.0
 12
403.4799247924489
 22
405.5647028218364
 32
0.0
 13
403.4799247924489
 23
405.5647028218364
 33
0.0
  0
SOLID
  5
359
330
279
100
AcDbEntity
  8
BEM
 62
     0
440
 16777216
100
AcDbTrace
 10
402.3132581257822
 20
427.5647028218364
 30
0.0
 11
404.6465914591157
 21
427.5647028218364
 31
0.0
 12
403.4799247924489
 22
420.5647028218364
 32
0.0
 13
403.4799247924489
 23
420.5647028218364
 33
0.0
  0
MTEXT
  5
35A
330
279
100
AcDbEntity
  8
BEM
 62
     1
440
 16777216
100
AcDbMText
 10
397.9799247924489
 20
413.0647028218366
 30
0.0
 40
7.0
 41
0.0
 46
0.0
 71
     5
 72
     1
  1
\A1;15
 11
0.0000000000000001
 21
1.0
 31
0.0
 73
     1
 44
1.0
  0
POINT
  5
35B
330
279
100
AcDbEntity
  8
DEFPOINTS
 62
     0
440
 16777216
100
AcDbPoint
 10
359.9415650409361
 20
405.5647028218364
 30
0.0
  0
POINT
  5
35C
330
279
100
AcDbEntity
  8
DEFPOINTS
 62
     0
440
 16777216
100
AcDbPoint
 10
322.0837006646671
 20
420.5647028218365
 30
0.0
  0
POINT
  5
35D
330
279
100
AcDbEntity
  8
DEFPOINTS
 62
     0
440
 16777216
100
AcDbPoint
 10
403.4799247924489
 20
420.5647028218364
 30
0.0
  0
ENDBLK
  5
286
330
279
100
AcDbEntity
  8
0
100
AcDbBlockEnd
  0
BLOCK
  5
291
330
287
100
AcDbEntity
  8
0
100
AcDbBlockBegin
  2
*D8
 70
     1
 10
0.0
 20
0.0
 30
0.0
  3
*D8
  1

  0
LINE
  5
288
330
287
100
AcDbEntity
  8
BEM
 62
     0
440
 16777216
370
    -2
100
AcDbLine
 10
62.08370066466705
 20
448.4225671981056
 30
0.0
 11
62.08370066466706
 21
535.4419366653228
 31
0.0
  0
LINE
  5
289
330
287
100
AcDbEntity
  8
BEM
 62
     0
440
 16777216
370
    -2
100
AcDbLine
 10
384.083700664667
 20
448.4225671981056
 30
0.0
 11
384.083700664667
 21
535.4419366653228
 31
0.0
  0
LINE
  5
28A
330
287
100
AcDbEntity
  8
BEM
 62
     0
440
 16777216
370
    -2
100
AcDbLine
 10
69.08370066466705
 20
533.4419366653228
 30
0.0
 11
377.083700664667
 21
533.4419366653228
 31
0.0
  0
SOLID
  5
28B
330
287
100
AcDbEntity
  8
BEM
 62
     0
440
 16777216
100
AcDbTrace
 10
69.08370066466705
 20
534.6086033319894
 30
0.0
 11
69.08370066466705
 21
532.2752699986562
 31
0.0
 12
62.08370066466706
 22
533.4419366653228
 32
0.0
 13
62.08370066466706
 23
533.4419366653228
 33
0.0
  0
SOLID
  5
28C
330
287
100
AcDbEntity
  8
BEM
 62
     0
440
 16777216
100
AcDbTrace
 10
377.083700664667
 20
534.6086033319894
 30
0.0
 11
377.083700664667
 21
532.2752699986562
 31
0.0
 12
384.083700664667
 22
533.4419366653228
 32
0.0
 13
384.083700664667
 23
533.4419366653228
 33
0.0
  0
MTEXT
  5
28D
330
287
100
AcDbEntity
  8
BEM
 62
     1
440
 16777216
100
AcDbMText
 10
223.083700664667
 20
538.9419366653227
 30
0.0
 40
7.0
 41
0.0
 46
0.0
 71
     5
 72
     1
  1
\A1;D
 73
     1
 44
1.0
  0
POINT
  5
28E
330
287
100
AcDbEntity
  8
DEFPOINTS
 62
     0
440
 16777216
100
AcDbPoint
 10
62.08370066466705
 20
446.4225671981057
 30
0.0
  0
POINT
  5
28F
330
287
100
AcDbEntity
  8
DEFPOINTS
 62
     0
440
 16777216
100
AcDbPoint
 10
384.083700664667
 20
446.4225671981057
 30
0.0
  0
POINT
  5
290
330
287
100
AcDbEntity
  8
DEFPOINTS
 62
     0
440
 16777216
100
AcDbPoint
 10
384.083700664667
 20
533.4419366653228
 30
0.0
  0
ENDBLK
  5
292
330
287
100
AcDbEntity
  8
0
100
AcDbBlockEnd
  0
BLOCK
  5
29D
330
293
100
AcDbEntity
  8
0
100
AcDbBlockBegin
  2
*D9
 70
     1
 10
0.0
 20
0.0
 30
0.0
  3
*D9
  1

  0
LINE
  5
294
330
293
100
AcDbEntity
  8
BEM
 62
     0
440
 16777216
370
    -2
100
AcDbLine
 10
364.0837006646671
 20
471.666500033081
 30
0.0
 11
364.0837006646671
 21
506.007864824799
 31
0.0
  0
LINE
  5
295
330
293
100
AcDbEntity
  8
BEM
 62
     0
440
 16777216
370
    -2
100
AcDbLine
 10
82.08370066466711
 20
471.6665000330811
 30
0.0
 11
82.08370066466711
 21
506.007864824799
 31
0.0
  0
LINE
  5
296
330
293
100
AcDbEntity
  8
BEM
 62
     0
440
 16777216
370
    -2
100
AcDbLine
 10
357.0837006646672
 20
504.007864824799
 30
0.0
 11
89.0837006646671
 21
504.007864824799
 31
0.0
  0
SOLID
  5
297
330
293
100
AcDbEntity
  8
BEM
 62
     0
440
 16777216
100
AcDbTrace
 10
357.0837006646672
 20
505.1745314914657
 30
0.0
 11
357.0837006646672
 21
502.8411981581323
 31
0.0
 12
364.0837006646671
 22
504.007864824799
 32
0.0
 13
364.0837006646671
 23
504.007864824799
 33
0.0
  0
SOLID
  5
298
330
293
100
AcDbEntity
  8
BEM
 62
     0
440
 16777216
100
AcDbTrace
 10
89.0837006646671
 20
505.1745314914657
 30
0.0
 11
89.0837006646671
 21
502.8411981581323
 31
0.0
 12
82.08370066466711
 22
504.007864824799
 32
0.0
 13
82.08370066466711
 23
504.007864824799
 33
0.0
  0
MTEXT
  5
299
330
293
100
AcDbEntity
  8
BEM
 62
     1
440
 16777216
100
AcDbMText
 10
223.0837006646671
 20
509.507864824799
 30
0.0
 40
7.0
 41
0.0
 46
0.0
 71
     5
 72
     1
  1
\A1;A
 73
     1
 44
1.0
  0
POINT
  5
29A
330
293
100
AcDbEntity
  8
DEFPOINTS
 62
     0
440
 16777216
100
AcDbPoint
 10
364.0837006646671
 20
469.666500033081
 30
0.0
  0
POINT
  5
29B
330
293
100
AcDbEntity
  8
DEFPOINTS
 62
     0
440
 16777216
100
AcDbPoint
 10
82.08370066466711
 20
469.6665000330811
 30
0.0
  0
POINT
  5
29C
330
293
100
AcDbEntity
  8
DEFPOINTS
 62
     0
440
 16777216
100
AcDbPoint
 10
82.08370066466711
 20
504.007864824799
 30
0.0
  0
ENDBLK
  5
29E
330
293
100
AcDbEntity
  8
0
100
AcDbBlockEnd
  0
BLOCK
  5
2A9
330
29F
100
AcDbEntity
  8
0
100
AcDbBlockBegin
  2
*D10
 70
     1
 10
0.0
 20
0.0
 30
0.0
  3
*D10
  1

  0
LINE
  5
2A0
330
29F
100
AcDbEntity
  8
BEM
 62
     0
440
 16777216
370
    -2
100
AcDbLine
 10
129.0837006646671
 20
462.5647028218365
 30
0.0
 11
129.0837006646671
 21
489.8191253125107
 31
0.0
  0
LINE
  5
2A1
330
29F
100
AcDbEntity
  8
BEM
 62
     0
440
 16777216
370
    -2
100
AcDbLine
 10
82.08370066466711
 20
471.6665000330811
 30
0.0
 11
82.08370066466711
 21
489.8191253125107
 31
0.0
  0
LINE
  5
2A2
330
29F
100
AcDbEntity
  8
BEM
 62
     0
440
 16777216
370
    -2
100
AcDbLine
 10
122.0837006646671
 20
487.8191253125107
 30
0.0
 11
89.0837006646671
 21
487.8191253125107
 31
0.0
  0
SOLID
  5
2A3
330
29F
100
AcDbEntity
  8
BEM
 62
     0
440
 16777216
100
AcDbTrace
 10
122.0837006646671
 20
488.9857919791774
 30
0.0
 11
122.0837006646671
 21
486.652458645844
 31
0.0
 12
129.0837006646671
 22
487.8191253125107
 32
0.0
 13
129.0837006646671
 23
487.8191253125107
 33
0.0
  0
SOLID
  5
2A4
330
29F
100
AcDbEntity
  8
BEM
 62
     0
440
 16777216
100
AcDbTrace
 10
89.0837006646671
 20
488.9857919791774
 30
0.0
 11
89.0837006646671
 21
486.652458645844
 31
0.0
 12
82.08370066466711
 22
487.8191253125107
 32
0.0
 13
82.08370066466711
 23
487.8191253125107
 33
0.0
  0
MTEXT
  5
2A5
330
29F
100
AcDbEntity
  8
BEM
 62
     1
440
 16777216
100
AcDbMText
 10
105.5837006646671
 20
493.3191253125107
 30
0.0
 40
7.0
 41
0.0
 46
0.0
 71
     5
 72
     1
  1
\A1;C
 73
     1
 44
1.0
  0
POINT
  5
2A6
330
29F
100
AcDbEntity
  8
DEFPOINTS
 62
     0
440
 16777216
100
AcDbPoint
 10
129.0837006646671
 20
460.5647028218365
 30
0.0
  0
POINT
  5
2A7
330
29F
100
AcDbEntity
  8
DEFPOINTS
 62
     0
440
 16777216
100
AcDbPoint
 10
82.08370066466711
 20
469.6665000330811
 30
0.0
  0
POINT
  5
2A8
330
29F
100
AcDbEntity
  8
DEFPOINTS
 62
     0
440
 16777216
100
AcDbPoint
 10
82.08370066466711
 20
487.8191253125107
 30
0.0
  0
ENDBLK
  5
2AA
330
29F
100
AcDbEntity
  8
0
100
AcDbBlockEnd
  0
BLOCK
  5
2B5
330
2AB
100
AcDbEntity
  8
0
100
AcDbBlockBegin
  2
*D11
 70
     1
 10
0.0
 20
0.0
 30
0.0
  3
*D11
  1

  0
LINE
  5
2AC
330
2AB
100
AcDbEntity
  8
BEM
 62
     0
440
 16777216
370
    -2
100
AcDbLine
 10
223.0837006646672
 20
477.5647028218365
 30
0.0
 11
223.0837006646672
 21
489.8191253125107
 31
0.0
  0
LINE
  5
2AD
330
2AB
100
AcDbEntity
  8
BEM
 62
     0
440
 16777216
370
    -2
100
AcDbLine
 10
129.0837006646671
 20
462.5647028218365
 30
0.0
 11
129.0837006646671
 21
489.8191253125107
 31
0.0
  0
LINE
  5
2AE
330
2AB
100
AcDbEntity
  8
BEM
 62
     0
440
 16777216
370
    -2
100
AcDbLine
 10
216.0837006646671
 20
487.8191253125107
 30
0.0
 11
136.0837006646671
 21
487.8191253125107
 31
0.0
  0
SOLID
  5
2AF
330
2AB
100
AcDbEntity
  8
BEM
 62
     0
440
 16777216
100
AcDbTrace
 10
216.0837006646671
 20
488.9857919791774
 30
0.0
 11
216.0837006646671
 21
486.652458645844
 31
0.0
 12
223.0837006646672
 22
487.8191253125107
 32
0.0
 13
223.0837006646672
 23
487.8191253125107
 33
0.0
  0
SOLID
  5
2B0
330
2AB
100
AcDbEntity
  8
BEM
 62
     0
440
 16777216
100
AcDbTrace
 10
136.0837006646671
 20
488.9857919791774
 30
0.0
 11
136.0837006646671
 21
486.652458645844
 31
0.0
 12
129.0837006646671
 22
487.8191253125107
 32
0.0
 13
129.0837006646671
 23
487.8191253125107
 33
0.0
  0
MTEXT
  5
2B1
330
2AB
100
AcDbEntity
  8
BEM
 62
     1
440
 16777216
100
AcDbMText
 10
176.0837006646671
 20
493.3191253125107
 30
0.0
 40
7.0
 41
0.0
 46
0.0
 71
     5
 72
     1
  1
\A1;B
 73
     1
 44
1.0
  0
POINT
  5
2B2
330
2AB
100
AcDbEntity
  8
DEFPOINTS
 62
     0
440
 16777216
100
AcDbPoint
 10
223.0837006646672
 20
475.5647028218365
 30
0.0
  0
POINT
  5
2B3
330
2AB
100
AcDbEntity
  8
DEFPOINTS
 62
     0
440
 16777216
100
AcDbPoint
 10
129.0837006646671
 20
460.5647028218365
 30
0.0
  0
POINT
  5
2B4
330
2AB
100
AcDbEntity
  8
DEFPOINTS
 62
     0
440
 16777216
100
AcDbPoint
 10
129.0837006646671
 20
487.8191253125107
 30
0.0
  0
ENDBLK
  5
2B6
330
2AB
100
AcDbEntity
  8
0
100
AcDbBlockEnd
  0
BLOCK
  5
2C1
330
2B7
100
AcDbEntity
  8
0
100
AcDbBlockBegin
  2
*D12
 70
     1
 10
0.0
 20
0.0
 30
0.0
  3
*D12
  1

  0
LINE
  5
2B8
330
2B7
100
AcDbEntity
  8
BEM
 62
     0
440
 16777216
370
    -2
100
AcDbLine
 10
317.0837006646672
 20
462.5647028218365
 30
0.0
 11
317.0837006646672
 21
489.8191253125107
 31
0.0
  0
LINE
  5
2B9
330
2B7
100
AcDbEntity
  8
BEM
 62
     0
440
 16777216
370
    -2
100
AcDbLine
 10
223.0837006646672
 20
477.5647028218365
 30
0.0
 11
223.0837006646672
 21
489.8191253125107
 31
0.0
  0
LINE
  5
2BA
330
2B7
100
AcDbEntity
  8
BEM
 62
     0
440
 16777216
370
    -2
100
AcDbLine
 10
310.0837006646671
 20
487.8191253125107
 30
0.0
 11
230.0837006646672
 21
487.8191253125107
 31
0.0
  0
SOLID
  5
2BB
330
2B7
100
AcDbEntity
  8
BEM
 62
     0
440
 16777216
100
AcDbTrace
 10
310.0837006646671
 20
488.9857919791774
 30
0.0
 11
310.0837006646671
 21
486.652458645844
 31
0.0
 12
317.0837006646672
 22
487.8191253125107
 32
0.0
 13
317.0837006646672
 23
487.8191253125107
 33
0.0
  0
SOLID
  5
2BC
330
2B7
100
AcDbEntity
  8
BEM
 62
     0
440
 16777216
100
AcDbTrace
 10
230.0837006646672
 20
488.9857919791774
 30
0.0
 11
230.0837006646672
 21
486.652458645844
 31
0.0
 12
223.0837006646672
 22
487.8191253125107
 32
0.0
 13
223.0837006646672
 23
487.8191253125107
 33
0.0
  0
MTEXT
  5
2BD
330
2B7
100
AcDbEntity
  8
BEM
 62
     1
440
 16777216
100
AcDbMText
 10
270.0837006646672
 20
493.3191253125107
 30
0.0
 40
7.0
 41
0.0
 46
0.0
 71
     5
 72
     1
  1
\A1;B
 73
     1
 44
1.0
  0
POINT
  5
2BE
330
2B7
100
AcDbEntity
  8
DEFPOINTS
 62
     0
440
 16777216
100
AcDbPoint
 10
317.0837006646672
 20
460.5647028218365
 30
0.0
  0
POINT
  5
2BF
330
2B7
100
AcDbEntity
  8
DEFPOINTS
 62
     0
440
 16777216
100
AcDbPoint
 10
223.0837006646672
 20
475.5647028218365
 30
0.0
  0
POINT
  5
2C0
330
2B7
100
AcDbEntity
  8
DEFPOINTS
 62
     0
440
 16777216
100
AcDbPoint
 10
223.0837006646672
 20
487.8191253125107
 30
0.0
  0
ENDBLK
  5
2C2
330
2B7
100
AcDbEntity
  8
0
100
AcDbBlockEnd
  0
BLOCK
  5
2CD
330
2C3
100
AcDbEntity
  8
0
100
AcDbBlockBegin
  2
*D13
 70
     1
 10
0.0
 20
0.0
 30
0.0
  3
*D13
  1

  0
LINE
  5
2C4
330
2C3
100
AcDbEntity
  8
BEM
 62
     0
440
 16777216
370
    -2
100
AcDbLine
 10
364.0837006646671
 20
471.666500033081
 30
0.0
 11
364.0837006646671
 21
489.8191253125107
 31
0.0
  0
LINE
  5
2C5
330
2C3
100
AcDbEntity
  8
BEM
 62
     0
440
 16777216
370
    -2
100
AcDbLine
 10
317.0837006646672
 20
462.5647028218365
 30
0.0
 11
317.0837006646672
 21
489.8191253125107
 31
0.0
  0
LINE
  5
2C6
330
2C3
100
AcDbEntity
  8
BEM
 62
     0
440
 16777216
370
    -2
100
AcDbLine
 10
357.0837006646672
 20
487.8191253125107
 30
0.0
 11
324.0837006646672
 21
487.8191253125107
 31
0.0
  0
SOLID
  5
2C7
330
2C3
100
AcDbEntity
  8
BEM
 62
     0
440
 16777216
100
AcDbTrace
 10
357.0837006646672
 20
488.9857919791774
 30
0.0
 11
357.0837006646672
 21
486.652458645844
 31
0.0
 12
364.0837006646671
 22
487.8191253125107
 32
0.0
 13
364.0837006646671
 23
487.8191253125107
 33
0.0
  0
SOLID
  5
2C8
330
2C3
100
AcDbEntity
  8
BEM
 62
     0
440
 16777216
100
AcDbTrace
 10
324.0837006646672
 20
488.9857919791774
 30
0.0
 11
324.0837006646672
 21
486.652458645844
 31
0.0
 12
317.0837006646672
 22
487.8191253125107
 32
0.0
 13
317.0837006646672
 23
487.8191253125107
 33
0.0
  0
MTEXT
  5
2C9
330
2C3
100
AcDbEntity
  8
BEM
 62
     1
440
 16777216
100
AcDbMText
 10
340.5837006646672
 20
493.3191253125107
 30
0.0
 40
7.0
 41
0.0
 46
0.0
 71
     5
 72
     1
  1
\A1;C
 73
     1
 44
1.0
  0
POINT
  5
2CA
330
2C3
100
AcDbEntity
  8
DEFPOINTS
 62
     0
440
 16777216
100
AcDbPoint
 10
364.0837006646671
 20
469.666500033081
 30
0.0
  0
POINT
  5
2CB
330
2C3
100
AcDbEntity
  8
DEFPOINTS
 62
     0
440
 16777216
100
AcDbPoint
 10
317.0837006646672
 20
460.5647028218365
 30
0.0
  0
POINT
  5
2CC
330
2C3
100
AcDbEntity
  8
DEFPOINTS
 62
     0
440
 16777216
100
AcDbPoint
 10
317.0837006646672
 20
487.8191253125107
 30
0.0
  0
ENDBLK
  5
2CE
330
2C3
100
AcDbEntity
  8
0
100
AcDbBlockEnd
  0
ENDSEC
  0
SECTION
  2
ENTITIES
  0
LINE
  5
101
330
20
100
AcDbEntity
  8
STEMPEL
100
AcDbLine
 10
410.0
 20
110.0
 30
0.0
 11
39.99999999999997
 21
110.0
 31
0.0
  0
LINE
  5
102
330
20
100
AcDbEntity
  8
STEMPEL
100
AcDbLine
 10
146.0000000000001
 20
109.9999999999999
 30
0.0
 11
146.0
 21
9.999999999999971
 31
0.0
  0
LINE
  5
103
330
20
100
AcDbEntity
  8
STEMPEL
100
AcDbLine
 10
230.0
 20
110.0
 30
0.0
 11
230.0
 21
9.999999999999971
 31
0.0
  0
LINE
  5
104
330
20
100
AcDbEntity
  8
STEMPEL
100
AcDbLine
 10
332.0
 20
109.9999999999997
 30
0.0
 11
332.0
 21
40.0
 31
0.0
  0
LINE
  5
105
330
20
100
AcDbEntity
  8
STEMPEL
100
AcDbLine
 10
145.9999999999999
 20
29.99999999999997
 30
0.0
 11
39.99999999999997
 21
29.99999999999997
 31
0.0
  0
LINE
  5
106
330
20
100
AcDbEntity
  8
STEMPEL
100
AcDbLine
 10
410.0
 20
40.0
 30
0.0
 11
146.0000000000001
 21
39.99999999999997
 31
0.0
  0
LINE
  5
107
330
20
100
AcDbEntity
  8
STEMPEL
100
AcDbLine
 10
410.0
 20
80.0
 30
0.0
 11
146.0000000000001
 21
79.99999999999994
 31
0.0
  0
LINE
  5
108
330
20
100
AcDbEntity
  8
VOLL
100
AcDbLine
 10
54.00000000000009
 20
110.0
 30
0.0
 11
53.99999999999997
 21
9.999999999999971
 31
0.0
  0
LINE
  5
109
330
20
100
AcDbEntity
  8
VOLL
100
AcDbLine
 10
104.0000000000001
 20
109.9999999999999
 30
0.0
 11
104.0
 21
9.999999999999971
 31
0.0
  0
LINE
  5
10A
330
20
100
AcDbEntity
  8
VOLL
100
AcDbLine
 10
124.0000000000001
 20
109.9999999999999
 30
0.0
 11
124.0
 21
9.999999999999971
 31
0.0
  0
LINE
  5
10B
330
20
100
AcDbEntity
  8
VOLL
100
AcDbLine
 10
164.0000000000001
 20
79.99999999999994
 30
0.0
 11
164.0000000000001
 21
39.99999999999997
 31
0.0
  0
LINE
  5
10C
330
20
100
AcDbEntity
  8
VOLL
100
AcDbLine
 10
190.0000000000001
 20
109.9999999999998
 30
0.0
 11
190.0
 21
39.99999999999997
 31
0.0
  0
LINE
  5
10D
330
20
100
AcDbEntity
  8
HILF
100
AcDbLine
 10
40.00000000000008
 20
100.0
 30
0.0
 11
146.0000000000001
 21
100.0
 31
0.0
  0
LINE
  5
10E
330
20
100
AcDbEntity
  8
HILF
100
AcDbLine
 10
40.00000000000008
 20
90.00000000000005
 30
0.0
 11
146.0000000000001
 21
90.00000000000005
 31
0.0
  0
LINE
  5
10F
330
20
100
AcDbEntity
  8
HILF
100
AcDbLine
 10
40.00000000000008
 20
79.99999999999994
 30
0.0
 11
146.0000000000001
 21
79.99999999999994
 31
0.0
  0
LINE
  5
110
330
20
100
AcDbEntity
  8
HILF
100
AcDbLine
 10
40.00000000000008
 20
69.99999999999994
 30
0.0
 11
146.0000000000001
 21
69.99999999999994
 31
0.0
  0
LINE
  5
111
330
20
100
AcDbEntity
  8
HILF
100
AcDbLine
 10
40.00000000000008
 20
59.99999999999997
 30
0.0
 11
146.0000000000001
 21
59.99999999999997
 31
0.0
  0
LINE
  5
112
330
20
100
AcDbEntity
  8
HILF
100
AcDbLine
 10
40.00000000000008
 20
49.99999999999997
 30
0.0
 11
146.0000000000001
 21
49.99999999999997
 31
0.0
  0
LINE
  5
113
330
20
100
AcDbEntity
  8
HILF
100
AcDbLine
 10
40.00000000000008
 20
39.99999999999997
 30
0.0
 11
146.0000000000001
 21
39.99999999999997
 31
0.0
  0
LINE
  5
114
330
20
100
AcDbEntity
  8
HILF
100
AcDbLine
 10
146.0000000000001
 20
69.99999999999994
 30
0.0
 11
230.0
 21
69.99999999999994
 31
0.0
  0
LINE
  5
115
330
20
100
AcDbEntity
  8
HILF
100
AcDbLine
 10
146.0000000000001
 20
59.99999999999997
 30
0.0
 11
230.0
 21
59.99999999999997
 31
0.0
  0
LINE
  5
116
330
20
100
AcDbEntity
  8
HILF
100
AcDbLine
 10
146.0000000000001
 20
49.99999999999997
 30
0.0
 11
230.0
 21
49.99999999999997
 31
0.0
  0
LINE
  5
117
330
20
100
AcDbEntity
  8
HILF
100
AcDbLine
 10
234.7736801096947
 20
84.03758247564139
 30
0.0
 11
324.8353916556311
 21
84.03758247564139
 31
0.0
  0
LINE
  5
118
330
20
100
AcDbEntity
  8
HILF
100
AcDbLine
 10
234.7736801096947
 20
69.99999999999994
 30
0.0
 11
324.835391655631
 21
69.99999999999994
 31
0.0
  0
LINE
  5
119
330
20
100
AcDbEntity
  8
HILF
100
AcDbLine
 10
234.7736801096947
 20
59.99999999999997
 30
0.0
 11
324.835391655631
 21
59.99999999999997
 31
0.0
  0
LINE
  5
11A
330
20
100
AcDbEntity
  8
HILF
100
AcDbLine
 10
234.7736801096947
 20
49.99999999999997
 30
0.0
 11
324.835391655631
 21
49.99999999999997
 31
0.0
  0
LINE
  5
11B
330
20
100
AcDbEntity
  8
VOLL
100
AcDbLine
 10
332.0
 20
60.0
 30
0.0
 11
410.0
 21
60.0
 31
0.0
  0
LINE
  5
11C
330
20
100
AcDbEntity
  8
HILF
100
AcDbLine
 10
336.7238616296993
 20
83.77983636955827
 30
0.0
 11
404.8588839326728
 21
83.77983636955827
 31
0.0
  0
LINE
  5
11D
330
20
100
AcDbEntity
  8
HILF
100
AcDbLine
 10
233.4909699289885
 20
14.89398258028314
 30
0.0
 11
404.8588839326728
 21
14.89398258028314
 31
0.0
  0
TEXT
  5
11E
330
20
100
AcDbEntity
  8
TEXT
100
AcDbText
 10
67.79509897490102
 20
18.67381894984132
 30
0.0
 40
4.0
  1
Änderung
 41
0.8
  7
GREEKS
 72
     1
 11
78.53795611775817
 21
18.67381894984132
 31
0.0
100
AcDbText
  0
TEXT
  5
11F
330
20
100
AcDbEntity
  8
TEXT
100
AcDbText
 10
154.9641842784749
 20
102.4620895087088
 30
0.0
 40
5.0
  1
Maßstab
 41
0.8
  7
GREEKS
100
AcDbText
  0
TEXT
  5
120
330
20
100
AcDbEntity
  8
TEXT
100
AcDbText
 10
196.9747143010176
 20
102.4184168434819
 30
0.0
 40
5.0
  1
Zul. Abw.
 41
0.8
  7
GREEKS
100
AcDbText
  0
TEXT
  5
121
330
20
100
AcDbEntity
  8
TEXT
100
AcDbText
 10
234.877940380901
 20
102.5489328011779
 30
0.0
 40
5.0
  1
Benennung
 41
0.8
  7
GREEKS
100
AcDbText
  0
TEXT
  5
122
330
20
100
AcDbEntity
  8
TEXT
100
AcDbText
 10
336.178754957634
 20
102.3132034537136
 30
0.0
 40
5.0
  1
Zeichnungs Nr.
 41
0.8
  7
GREEKS
100
AcDbText
  0
TEXT
  5
123
330
20
100
AcDbEntity
  8
TEXT
100
AcDbText
 10
234.742238391136
 20
30.84560570193057
 30
0.0
 40
5.0
  1
Bauvorhaben
 41
0.8
  7
GREEKS
100
AcDbText
  0
TEXT
  5
124
330
20
100
AcDbEntity
  8
TEXT
100
AcDbText
 10
336.7238616296993
 20
73.1811823709997
 30
0.0
 40
5.0
  1
Ersatz für:
 41
0.8
  7
GREEKS
100
AcDbText
  0
TEXT
  5
125
330
20
100
AcDbEntity
  8
TEXT
100
AcDbText
 10
48.26641107045756
 20
13.65465846027192
 30
0.0
 40
4.0
  1
Index
 50
90.0
 41
0.8
  7
GREEKS
100
AcDbText
  0
TEXT
  5
126
330
20
100
AcDbEntity
  8
TEXT
100
AcDbText
 10
110.6986119235389
 20
18.6715626933981
 30
0.0
 40
4.0
  1
Tag
 41
0.8
  7
GREEKS
 72
     1
 11
114.4319452568723
 21
18.6715626933981
 31
0.0
100
AcDbText
  0
TEXT
  5
127
330
20
100
AcDbEntity
  8
TEXT
100
AcDbText
 10
129.0122744386592
 20
18.59324216966408
 30
0.0
 40
4.0
  1
Name
 41
0.8
  7
GREEKS
 72
     1
 11
135.3360839624688
 21
18.59324216966408
 31
0.0
100
AcDbText
  0
TEXT
  5
128
330
20
100
AcDbEntity
  8
TEXT
100
AcDbText
 10
172.331167315365
 20
73.31880501229926
 30
0.0
 40
4.0
  1
Tag
 41
0.8
  7
GREEKS
100
AcDbText
  0
TEXT
  5
129
330
20
100
AcDbEntity
  8
TEXT
100
AcDbText
 10
202.4626584226295
 20
73.30961091915225
 30
0.0
 40
4.0
  1
Name
 41
0.8
  7
GREEKS
100
AcDbText
  0
TEXT
  5
12A
330
20
100
AcDbEntity
  8
TEXT
100
AcDbText
 10
147.5836127167615
 20
63.62990369617964
 30
0.0
 40
4.0
  1
Gez.
 41
0.8
  7
GREEKS
100
AcDbText
  0
TEXT
  5
12B
330
20
100
AcDbEntity
  8
TEXT
100
AcDbText
 10
147.5515086571672
 20
53.68926291428377
 30
0.0
 40
4.0
  1
Gepr.
 41
0.8
  7
GREEKS
100
AcDbText
  0
TEXT
  5
12C
330
20
100
AcDbEntity
  8
TEXT
100
AcDbText
 10
147.6006777387303
 20
43.52946389649807
 30
0.0
 40
4.0
  1
Norm.
 41
0.8
  7
GREEKS
100
AcDbText
  0
LINE
  5
12D
330
20
100
AcDbEntity
  8
STEMPEL
100
AcDbLine
 10
49.99999999999989
 20
10.0
 30
0.0
 11
410.0
 21
10.0
 31
0.0
  0
TEXT
  5
12E
330
20
100
AcDbEntity
  8
TEXT
100
AcDbText
 10
337.2400861497006
 20
52.07416177878602
 30
0.0
 40
5.0
  1
ersetzt durch:
 41
0.8
  7
GREEKS
100
AcDbText
  0
LINE
  5
12F
330
20
100
AcDbEntity
  8
STEMPEL
100
AcDbLine
 10
410.0
 20
10.0
 30
0.0
 11
39.99999999999989
 21
10.0
 31
0.0
  0
LINE
  5
130
330
20
100
AcDbEntity
  8
STEMPEL
100
AcDbLine
 10
410.0
 20
10.0
 30
0.0
 11
410.0
 21
584.0
 31
0.0
  0
LINE
  5
131
330
20
100
AcDbEntity
  8
STEMPEL
100
AcDbLine
 10
40.0
 20
10.0
 30
0.0
 11
39.99999999999989
 21
584.0
 31
0.0
  0
LINE
  5
132
330
20
100
AcDbEntity
  8
STEMPEL
100
AcDbLine
 10
410.0
 20
584.0
 30
0.0
 11
39.99999999999989
 21
584.0
 31
0.0
  0
LINE
  5
133
330
20
100
AcDbEntity
  8
HILF
100
AcDbLine
 10
0.0
 20
0.0
 30
0.0
 11
-0.0000000000001137
 21
594.0
 31
0.0
  0
LINE
  5
134
330
20
100
AcDbEntity
  8
HILF
100
AcDbLine
 10
419.9999999999999
 20
594.0000000000002
 30
0.0
 11
0.0
 21
594.0
 31
0.0
  0
LINE
  5
135
330
20
100
AcDbEntity
  8
HILF
100
AcDbLine
 10
420.0
 20
0.0
 30
0.0
 11
0.0
 21
0.0
 31
0.0
  0
LINE
  5
136
330
20
100
AcDbEntity
  8
HILF
100
AcDbLine
 10
31.08767135713856
 20
297.0
 30
0.0
 11
0.0000000000001137
 21
297.0
 31
0.0
  0
TEXT
  5
137
330
20
100
AcDbEntity
  8
TEXT
100
AcDbText
 10
148.622109822104
 20
73.14025471151666
 30
0.0
 40
4.0
  1
2017
 41
0.8
  7
GREEKS
100
AcDbText
  0
LINE
  5
138
330
20
100
AcDbEntity
  8
HILF
100
AcDbLine
 10
420.0
 20
-0.0000000000001137
 30
0.0
 11
419.9999999999999
 21
594.0
 31
0.0
  0
TEXT
  5
139
330
20
100
AcDbEntity
  8
VOLL
100
AcDbText
 10
78.07675471698113
 20
31.02594776470585
 30
0.0
 40
1.8
  1

  7
GREEKS
100
AcDbText
  0
TEXT
  5
13A
330
20
100
AcDbEntity
  8
TEXT
100
AcDbText
 10
41.85509950977674
 20
111.6719999999999
 30
0.0
 40
5.0
  1
Erstellt mit AUTOCAD 2004
 41
0.8
  7
GREEKS
100
AcDbText
  0
TEXT
  5
13B
330
20
100
AcDbEntity
  8
TEXT
100
AcDbText
 10
204.4216048581257
 20
63.0896391972351
 30
0.0
 40
4.0
  1
Koeh
 41
0.8
  7
GREEKS
 72
     1
 11
209.6787477152686
 21
63.0896391972351
 31
0.0
100
AcDbText
  0
TEXT
  5
13C
330
20
100
AcDbEntity
  8
TEXT
 62
     1
100
AcDbText
 10
348.4292324135794
 20
88.14901428913959
 30
0.0
 40
7.0
  1
08065000X
 41
0.8
  7
GREEKS
 72
     1
 11
371.6292324135794
 21
88.14901428913959
 31
0.0
100
AcDbText
  0
TEXT
  5
13D
330
20
100
AcDbEntity
  8
TEXT
 62
     1
100
AcDbText
 10
160.5006306481887
 20
88.14901428913959
 30
0.0
 40
7.0
  1
1:2
 41
0.8
  7
GREEKS
100
AcDbText
  0
TEXT
  5
13E
330
20
100
AcDbEntity
  8
TEXT
100
AcDbText
 10
171.0085209177598
 20
63.10765040825732
 30
0.0
 40
4.0
  1
12.10.
 41
0.8
  7
GREEKS
 72
     1
 11
177.4085209177598
 21
63.10765040825732
 31
0.0
100
AcDbText
  0
TEXT
  5
13F
330
20
100
AcDbEntity
  8
TEXT
 62
     1
100
AcDbText
 10
236.8935731057402
 20
87.41748789253779
 30
0.0
 40
7.0
  1
Breitbandschelle
 41
0.8
  7
GREEKS
100
AcDbText
  0
TEXT
  5
140
330
20
100
AcDbEntity
  8
TEXT
100
AcDbText
 10
235.1296391125315
 20
71.50334417585288
 30
0.0
 40
5.0
  1
für Verbundrohr
 41
0.8
  7
GREEKS
100
AcDbText
  0
TEXT
  5
141
330
20
100
AcDbEntity
  8
TEXT
100
AcDbText
 10
235.1296391125315
 20
51.64011943042158
 30
0.0
 40
5.0
  1
EDV-Art.Nr. 08065.040X - 200X
 41
0.7
  7
GREEKS
100
AcDbText
  0
TEXT
  5
142
102
{ACAD_XDICTIONARY
360
42F
102
}
330
20
100
AcDbEntity
  8
TEXT
100
AcDbText
 10
234.9837501577827
 20
42.62974153022632
 30
0.0
 40
4.0
  1
08065.032X.DXF
 41
0.8
  7
GREEKS
100
AcDbText
  0
LINE
  5
145
330
20
100
AcDbEntity
  8
MITTEL
100
AcDbLine
 10
57.08370066466705
 20
438.0647028218365
 30
0.0
 11
389.0837006646671
 21
438.0647028218365
 31
0.0
  0
LINE
  5
146
330
20
100
AcDbEntity
  8
STEMPEL
100
AcDbLine
 10
86.225836288398
 20
405.5647028218364
 30
0.0
 11
359.9415650409361
 21
405.5647028218364
 31
0.0
  0
LINE
  5
147
330
20
100
AcDbEntity
  8
STEMPEL
100
AcDbLine
 10
86.225836288398
 20
470.5647028218365
 30
0.0
 11
359.9415650409361
 21
470.5647028218365
 31
0.0
  0
LINE
  5
148
102
{ACAD_REACTORS
330
1FE
102
}
330
20
100
AcDbEntity
  8
STEMPEL
100
AcDbLine
 10
62.08370066466705
 20
446.4225671981057
 30
0.0
 11
62.08370066466705
 21
429.7068384455676
 31
0.0
  0
LINE
  5
149
330
20
100
AcDbEntity
  8
MITTEL
100
AcDbLine
 10
223.0837006646672
 20
475.5647028218365
 30
0.0
 11
223.083700664667
 21
400.5647028218365
 31
0.0
  0
LINE
  5
14A
330
20
100
AcDbEntity
  8
STEMPEL
100
AcDbLine
 10
384.083700664667
 20
446.4225671981057
 30
0.0
 11
384.083700664667
 21
429.7068384455676
 31
0.0
  0
LINE
  5
14B
330
20
100
AcDbEntity
  8
MITTEL
100
AcDbLine
 10
124.083700664667
 20
420.5647028218365
 30
0.0
 11
322.0837006646671
 21
420.5647028218365
 31
0.0
  0
LINE
  5
14C
330
20
100
AcDbEntity
  8
MITTEL
100
AcDbLine
 10
124.0837006646671
 20
455.5647028218365
 30
0.0
 11
322.0837006646672
 21
455.5647028218365
 31
0.0
  0
LINE
  5
14D
330
20
100
AcDbEntity
  8
MITTEL
100
AcDbLine
 10
129.0837006646671
 20
460.5647028218365
 30
0.0
 11
129.0837006646671
 21
415.5647028218365
 31
0.0
  0
LINE
  5
14E
330
20
100
AcDbEntity
  8
MITTEL
100
AcDbLine
 10
317.0837006646672
 20
460.5647028218365
 30
0.0
 11
317.083700664667
 21
415.5647028218365
 31
0.0
  0
LINE
  5
14F
330
20
100
AcDbEntity
  8
HILF
100
AcDbLine
 10
82.08370066466711
 20
469.6665000330811
 30
0.0
 11
82.08370066466699
 21
406.4629056105919
 31
0.0
  0
LINE
  5
150
330
20
100
AcDbEntity
  8
HILF
100
AcDbLine
 10
364.0837006646671
 20
469.666500033081
 30
0.0
 11
364.0837006646671
 21
406.4629056105919
 31
0.0
  0
CIRCLE
  5
151
330
20
100
AcDbEntity
  8
STEMPEL
100
AcDbCircle
 10
72.08370066466705
 20
438.0647028218365
 30
0.0
 40
3.5
  0
CIRCLE
  5
152
330
20
100
AcDbEntity
  8
STEMPEL
100
AcDbCircle
 10
129.0837006646671
 20
455.5647028218365
 30
0.0
 40
2.5
  0
CIRCLE
  5
153
330
20
100
AcDbEntity
  8
STEMPEL
100
AcDbCircle
 10
129.083700664667
 20
420.5647028218365
 30
0.0
 40
2.5
  0
CIRCLE
  5
154
330
20
100
AcDbEntity
  8
STEMPEL
100
AcDbCircle
 10
223.083700664667
 20
420.5647028218365
 30
0.0
 40
2.5
  0
CIRCLE
  5
155
330
20
100
AcDbEntity
  8
STEMPEL
100
AcDbCircle
 10
223.0837006646672
 20
455.5647028218365
 30
0.0
 40
2.5
  0
CIRCLE
  5
156
330
20
100
AcDbEntity
  8
STEMPEL
100
AcDbCircle
 10
317.083700664667
 20
420.5647028218365
 30
0.0
 40
2.5
  0
CIRCLE
  5
157
330
20
100
AcDbEntity
  8
STEMPEL
100
AcDbCircle
 10
317.0837006646672
 20
455.5647028218365
 30
0.0
 40
2.5
  0
CIRCLE
  5
158
330
20
100
AcDbEntity
  8
STEMPEL
100
AcDbCircle
 10
374.0837006646671
 20
438.0647028218365
 30
0.0
 40
3.5
  0
LINE
  5
159
330
20
100
AcDbEntity
  8
MITTEL
100
AcDbLine
 10
374.0837006646671
 20
446.5647028218365
 30
0.0
 11
374.0837006646671
 21
429.5647028218365
 31
0.0
  0
LINE
  5
15A
330
20
100
AcDbEntity
  8
MITTEL
100
AcDbLine
 10
72.08370066466705
 20
446.5647028218365
 30
0.0
 11
72.08370066466699
 21
429.5647028218365
 31
0.0
  0
LINE
  5
15B
330
20
100
AcDbEntity
  8
STEMPEL
100
AcDbLine
 10
79.15476847653252
 20
467.6357706337021
 30
0.0
 11
65.01263285280152
 21
453.4936350099711
 31
0.0
  0
LINE
  5
15C
102
{ACAD_REACTORS
330
1FE
102
}
330
20
100
AcDbEntity
  8
STEMPEL
100
AcDbLine
 10
65.01263285280152
 20
422.6357706337021
 30
0.0
 11
79.15476847653252
 21
408.493635009971
 31
0.0
  0
LINE
  5
15D
330
20
100
AcDbEntity
  8
STEMPEL
100
AcDbLine
 10
367.0126328528017
 20
467.6357706337021
 30
0.0
 11
381.1547684765325
 21
453.4936350099711
 31
0.0
  0
LINE
  5
15E
330
20
100
AcDbEntity
  8
STEMPEL
100
AcDbLine
 10
367.0126328528015
 20
408.493635009971
 30
0.0
 11
381.1547684765326
 21
422.6357706337021
 31
0.0
  0
ARC
  5
15F
330
20
100
AcDbEntity
  8
STEMPEL
100
AcDbCircle
 10
86.225836288398
 20
460.5647028218365
 30
0.0
 40
10.0
100
AcDbArc
 50
90.0
 51
135.0
  0
ARC
  5
160
330
20
100
AcDbEntity
  8
STEMPEL
100
AcDbCircle
 10
86.225836288398
 20
415.5647028218365
 30
0.0
 40
10.0
100
AcDbArc
 50
225.0
 51
270.0
  0
ARC
  5
161
330
20
100
AcDbEntity
  8
STEMPEL
100
AcDbCircle
 10
359.9415650409361
 20
460.5647028218365
 30
0.0
 40
10.0
100
AcDbArc
 50
45.0
 51
90.0
  0
ARC
  5
162
330
20
100
AcDbEntity
  8
STEMPEL
100
AcDbCircle
 10
359.9415650409361
 20
415.5647028218365
 30
0.0
 40
10.0
100
AcDbArc
 50
270.0
 51
315.0
  0
ARC
  5
163
330
20
100
AcDbEntity
  8
STEMPEL
100
AcDbCircle
 10
374.0837006646671
 20
429.7068384455676
 30
0.0
 40
10.0
100
AcDbArc
 50
314.9999999999999
 51
0.0
  0
ARC
  5
164
330
20
100
AcDbEntity
  8
STEMPEL
100
AcDbCircle
 10
374.0837006646671
 20
446.4225671981057
 30
0.0
 40
10.0
100
AcDbArc
 50
0.0000000000000799
 51
45.0
  0
ARC
  5
165
330
20
100
AcDbEntity
  8
STEMPEL
100
AcDbCircle
 10
72.08370066466705
 20
446.4225671981057
 30
0.0
 40
10.0
100
AcDbArc
 50
135.0
 51
180.0
  0
ARC
  5
166
330
20
100
AcDbEntity
  8
STEMPEL
100
AcDbCircle
 10
72.08370066466705
 20
429.7068384455676
 30
0.0
 40
10.0
100
AcDbArc
 50
180.0
 51
225.0
  0
DIMENSION
  5
167
330
20
100
AcDbEntity
  8
BEM
100
AcDbDimension
280
     0
  2
*D13
 10
317.0837006646672
 20
487.8191253125107
 30
0.0
 11
340.5837006646672
 21
493.3191253125107
 31
0.0
 70
    32
  1
C
 71
     5
 42
47.0
 73
     0
 74
     0
 75
     0
  3
Standard
100
AcDbAlignedDimension
 13
364.0837006646671
 23
469.666500033081
 33
0.0
 14
317.0837006646672
 24
460.5647028218365
 34
0.0
 50
180.0
100
AcDbRotatedDimension
1001
ACAD
1000
DSTYLE
1002
{
1070
    40
1040
2.0
1070
    41
1040
3.5
1070
    42
1040
1.0
1070
    43
1040
7.0
1070
    44
1040
1.0
1070
    73
1070
     0
1070
    74
1070
     0
1070
    77
1070
     1
1070
    78
1070
     8
1070
   140
1040
3.5
1070
   141
1040
1.5
1070
   146
1040
0.5142857142857144
1070
   147
1040
1.0
1070
   172
1070
     1
1070
   178
1070
     1
1070
   271
1070
     1
1070
   272
1070
     1
1070
   284
1070
     8
1070
   285
1070
     8
1070
   286
1070
     8
1002
}
  0
DIMENSION
  5
168
330
20
100
AcDbEntity
  8
BEM
100
AcDbDimension
280
     0
  2
*D12
 10
223.0837006646672
 20
487.8191253125107
 30
0.0
 11
270.0837006646672
 21
493.3191253125107
 31
0.0
 70
    32
  1
B
 71
     5
 42
94.0
 73
     0
 74
     0
 75
     0
  3
Standard
100
AcDbAlignedDimension
 13
317.0837006646672
 23
460.5647028218365
 33
0.0
 14
223.0837006646672
 24
475.5647028218365
 34
0.0
 50
180.0
100
AcDbRotatedDimension
1001
ACAD
1000
DSTYLE
1002
{
1070
    40
1040
2.0
1070
    41
1040
3.5
1070
    42
1040
1.0
1070
    43
1040
7.0
1070
    44
1040
1.0
1070
    73
1070
     0
1070
    74
1070
     0
1070
    77
1070
     1
1070
    78
1070
     8
1070
   140
1040
3.5
1070
   141
1040
1.5
1070
   146
1040
0.5142857142857144
1070
   147
1040
1.0
1070
   172
1070
     1
1070
   178
1070
     1
1070
   271
1070
     1
1070
   272
1070
     1
1070
   284
1070
     8
1070
   285
1070
     8
1070
   286
1070
     8
1002
}
  0
DIMENSION
  5
169
330
20
100
AcDbEntity
  8
BEM
100
AcDbDimension
280
     0
  2
*D11
 10
129.0837006646671
 20
487.8191253125107
 30
0.0
 11
176.0837006646671
 21
493.3191253125107
 31
0.0
 70
    32
  1
B
 71
     5
 42
94.0
 73
     0
 74
     0
 75
     0
  3
Standard
100
AcDbAlignedDimension
 13
223.0837006646672
 23
475.5647028218365
 33
0.0
 14
129.0837006646671
 24
460.5647028218365
 34
0.0
 50
180.0
100
AcDbRotatedDimension
1001
ACAD
1000
DSTYLE
1002
{
1070
    40
1040
2.0
1070
    41
1040
3.5
1070
    42
1040
1.0
1070
    43
1040
7.0
1070
    44
1040
1.0
1070
    73
1070
     0
1070
    74
1070
     0
1070
    77
1070
     1
1070
    78
1070
     8
1070
   140
1040
3.5
1070
   141
1040
1.5
1070
   146
1040
0.5142857142857144
1070
   147
1040
1.0
1070
   172
1070
     1
1070
   178
1070
     1
1070
   271
1070
     1
1070
   272
1070
     1
1070
   284
1070
     8
1070
   285
1070
     8
1070
   286
1070
     8
1002
}
  0
DIMENSION
  5
16A
330
20
100
AcDbEntity
  8
BEM
100
AcDbDimension
280
     0
  2
*D10
 10
82.08370066466711
 20
487.8191253125107
 30
0.0
 11
105.5837006646671
 21
493.3191253125107
 31
0.0
 70
    32
  1
C
 71
     5
 42
47.00000000000005
 73
     0
 74
     0
 75
     0
  3
Standard
100
AcDbAlignedDimension
 13
129.0837006646671
 23
460.5647028218365
 33
0.0
 14
82.08370066466711
 24
469.6665000330811
 34
0.0
 50
180.0
100
AcDbRotatedDimension
1001
ACAD
1000
DSTYLE
1002
{
1070
    40
1040
2.0
1070
    41
1040
3.5
1070
    42
1040
1.0
1070
    43
1040
7.0
1070
    44
1040
1.0
1070
    73
1070
     0
1070
    74
1070
     0
1070
    77
1070
     1
1070
    78
1070
     8
1070
   140
1040
3.5
1070
   141
1040
1.5
1070
   146
1040
0.5142857142857144
1070
   147
1040
1.0
1070
   172
1070
     1
1070
   178
1070
     1
1070
   271
1070
     1
1070
   272
1070
     1
1070
   284
1070
     8
1070
   285
1070
     8
1070
   286
1070
     8
1002
}
  0
DIMENSION
  5
16B
330
20
100
AcDbEntity
  8
BEM
100
AcDbDimension
280
     0
  2
*D9
 10
82.08370066466711
 20
504.007864824799
 30
0.0
 11
223.0837006646671
 21
509.507864824799
 31
0.0
 70
    32
  1
A
 71
     5
 42
282.0000000000001
 73
     0
 74
     0
 75
     0
  3
Standard
100
AcDbAlignedDimension
 13
364.0837006646671
 23
469.666500033081
 33
0.0
 14
82.08370066466711
 24
469.6665000330811
 34
0.0
 50
180.0
100
AcDbRotatedDimension
1001
ACAD
1000
DSTYLE
1002
{
1070
    40
1040
2.0
1070
    41
1040
3.5
1070
    42
1040
1.0
1070
    43
1040
7.0
1070
    44
1040
1.0
1070
    73
1070
     0
1070
    74
1070
     0
1070
    77
1070
     1
1070
    78
1070
     8
1070
   140
1040
3.5
1070
   141
1040
1.5
1070
   146
1040
0.5142857142857144
1070
   147
1040
1.0
1070
   172
1070
     1
1070
   178
1070
     1
1070
   271
1070
     1
1070
   272
1070
     1
1070
   284
1070
     8
1070
   285
1070
     8
1070
   286
1070
     8
1002
}
  0
DIMENSION
  5
16C
330
20
100
AcDbEntity
  8
BEM
100
AcDbDimension
280
     0
  2
*D8
 10
384.083700664667
 20
533.4419366653228
 30
0.0
 11
223.083700664667
 21
538.9419366653227
 31
0.0
 70
    32
  1
D
 71
     5
 42
322.0
 73
     0
 74
     0
 75
     0
  3
Standard
100
AcDbAlignedDimension
 13
62.08370066466705
 23
446.4225671981057
 33
0.0
 14
384.083700664667
 24
446.4225671981057
 34
0.0
 50
180.0
100
AcDbRotatedDimension
1001
ACAD
1000
DSTYLE
1002
{
1070
    40
1040
2.0
1070
    41
1040
3.5
1070
    42
1040
1.0
1070
    43
1040
7.0
1070
    44
1040
1.0
1070
    73
1070
     0
1070
    74
1070
     0
1070
    77
1070
     1
1070
    78
1070
     8
1070
   140
1040
3.5
1070
   141
1040
1.5
1070
   146
1040
0.5142857142857144
1070
   147
1040
1.0
1070
   172
1070
     1
1070
   178
1070
     1
1070
   271
1070
     1
1070
   272
1070
     1
1070
   284
1070
     8
1070
   285
1070
     8
1070
   286
1070
     8
1002
}
  0
DIMENSION
  5
16D
330
20
100
AcDbEntity
  8
BEM
100
AcDbDimension
280
     0
  2
*D7
 10
403.4799247924489
 20
420.5647028218364
 30
0.0
 11
403.4799247924488
 21
413.0647028218366
 31
0.0
 70
   160
 71
     5
 42
15.0
 73
     0
 74
     0
 75
     0
  3
Standard
100
AcDbAlignedDimension
 13
359.9415650409361
 23
405.5647028218364
 33
0.0
 14
322.0837006646671
 24
420.5647028218365
 34
0.0
 50
90.0
100
AcDbRotatedDimension
1001
ACAD
1000
DSTYLE
1002
{
1070
    40
1040
2.0
1070
    41
1040
3.5
1070
    42
1040
1.0
1070
    43
1040
7.0
1070
    44
1040
1.0
1070
    73
1070
     0
1070
    74
1070
     0
1070
    77
1070
     1
1070
    78
1070
     8
1070
   140
1040
3.5
1070
   141
1040
1.5
1070
   146
1040
0.5142857142857144
1070
   147
1040
1.0
1070
   172
1070
     1
1070
   178
1070
     1
1070
   271
1070
     1
1070
   272
1070
     1
1070
   284
1070
     8
1070
   285
1070
     8
1070
   286
1070
     8
1002
}
  0
DIMENSION
  5
16E
330
20
100
AcDbEntity
  8
BEM
100
AcDbDimension
280
     0
  2
*D6
 10
403.4799247924489
 20
455.5647028218364
 30
0.0
 11
397.9799247924489
 21
438.0647028218366
 31
0.0
 70
    32
 71
     5
 42
35.0
 73
     0
 74
     0
 75
     0
  3
Standard
100
AcDbAlignedDimension
 13
322.0837006646671
 23
420.5647028218365
 33
0.0
 14
322.0837006646672
 24
455.5647028218365
 34
0.0
 50
90.0
100
AcDbRotatedDimension
1001
ACAD
1000
DSTYLE
1002
{
1070
    40
1040
2.0
1070
    41
1040
3.5
1070
    42
1040
1.0
1070
    43
1040
7.0
1070
    44
1040
1.0
1070
    73
1070
     0
1070
    74
1070
     0
1070
    77
1070
     1
1070
    78
1070
     8
1070
   140
1040
3.5
1070
   141
1040
1.5
1070
   146
1040
0.5142857142857144
1070
   147
1040
1.0
1070
   172
1070
     1
1070
   178
1070
     1
1070
   271
1070
     1
1070
   272
1070
     1
1070
   284
1070
     8
1070
   285
1070
     8
1070
   286
1070
     8
1002
}
  0
DIMENSION
  5
16F
330
20
100
AcDbEntity
  8
BEM
100
AcDbDimension
280
     0
  2
*D5
 10
403.4799247924489
 20
470.5647028218364
 30
0.0
 11
403.4799247924488
 21
463.0647028218366
 31
0.0
 70
   160
 71
     5
 42
15.0
 73
     0
 74
     0
 75
     0
  3
Standard
100
AcDbAlignedDimension
 13
322.0837006646672
 23
455.5647028218365
 33
0.0
 14
359.9415650409361
 24
470.5647028218365
 34
0.0
 50
90.0
100
AcDbRotatedDimension
1001
ACAD
1000
DSTYLE
1002
{
1070
    40
1040
2.0
1070
    41
1040
3.5
1070
    42
1040
1.0
1070
    43
1040
7.0
1070
    44
1040
1.0
1070
    73
1070
     0
1070
    74
1070
     0
1070
    77
1070
     1
1070
    78
1070
     8
1070
   140
1040
3.5
1070
   141
1040
1.5
1070
   146
1040
0.5142857142857144
1070
   147
1040
1.0
1070
   172
1070
     1
1070
   178
1070
     1
1070
   271
1070
     1
1070
   272
1070
     1
1070
   284
1070
     8
1070
   285
1070
     8
1070
   286
1070
     8
1002
}
  0
DIMENSION
  5
170
330
20
100
AcDbEntity
  8
BEM
100
AcDbDimension
280
     0
  2
*D4
 10
53.15670996998415
 20
441.5647028218365
 30
0.0
 11
47.65670996998408
 21
459.4313694885031
 31
0.0
 70
    32
 71
     5
 42
7.0
 73
     0
 74
     0
 75
     0
  3
Standard
100
AcDbAlignedDimension
 13
72.08370066466699
 23
434.5647028218365
 33
0.0
 14
72.08370066466705
 24
441.5647028218365
 34
0.0
 50
90.0
100
AcDbRotatedDimension
1001
ACAD
1000
DSTYLE
1002
{
1070
    40
1040
2.0
1070
    41
1040
3.5
1070
    42
1040
1.0
1070
    43
1040
7.0
1070
    44
1040
1.0
1070
    73
1070
     0
1070
    74
1070
     0
1070
    77
1070
     1
1070
    78
1070
     8
1070
   140
1040
3.5
1070
   141
1040
1.5
1070
   146
1040
0.5142857142857144
1070
   147
1040
1.0
1070
   172
1070
     1
1070
   178
1070
     1
1070
   271
1070
     1
1070
   272
1070
     1
1070
   284
1070
     8
1070
   285
1070
     8
1070
   286
1070
     8
1002
}
  0
DIMENSION
  5
171
330
20
100
AcDbEntity
  8
BEM
100
AcDbDimension
280
     0
  2
*D3
 10
220.5837006646671
 20
387.8222024716775
 30
0.0
 11
202.7170339980004
 21
393.3222024716775
 31
0.0
 70
    32
 71
     5
 42
5.0
 73
     0
 74
     0
 75
     0
  3
Standard
100
AcDbAlignedDimension
 13
225.583700664667
 23
420.5647028218365
 33
0.0
 14
220.5837006646671
 24
420.5647028218365
 34
0.0
 50
180.0
100
AcDbRotatedDimension
1001
ACAD
1000
DSTYLE
1002
{
1070
    40
1040
2.0
1070
    41
1040
3.5
1070
    42
1040
1.0
1070
    43
1040
7.0
1070
    44
1040
1.0
1070
    73
1070
     0
1070
    74
1070
     0
1070
    77
1070
     1
1070
    78
1070
     8
1070
   140
1040
3.5
1070
   141
1040
1.5
1070
   146
1040
0.5142857142857144
1070
   147
1040
1.0
1070
   172
1070
     1
1070
   178
1070
     1
1070
   271
1070
     1
1070
   272
1070
     1
1070
   284
1070
     8
1070
   285
1070
     8
1070
   286
1070
     8
1002
}
  0
DIMENSION
  5
172
330
20
100
AcDbEntity
  8
BEM
100
AcDbDimension
280
     0
  2
*D2
 10
72.08370066466705
 20
518.7344700663011
 30
0.0
 11
92.08370066466704
 21
524.2344700663011
 31
0.0
 70
    32
 71
     5
 42
10.0
 73
     0
 74
     0
 75
     0
  3
Standard
100
AcDbAlignedDimension
 13
62.08370066466705
 23
446.4225671981057
 33
0.0
 14
72.08370066466705
 24
446.5647028218365
 34
0.0
100
AcDbRotatedDimension
1001
ACAD
1000
DSTYLE
1002
{
1070
    40
1040
2.0
1070
    41
1040
3.5
1070
    42
1040
1.0
1070
    43
1040
7.0
1070
    44
1040
1.0
1070
    73
1070
     0
1070
    74
1070
     0
1070
    77
1070
     1
1070
    78
1070
     8
1070
   140
1040
3.5
1070
   141
1040
1.5
1070
   146
1040
0.5142857142857144
1070
   147
1040
1.0
1070
   172
1070
     1
1070
   178
1070
     1
1070
   271
1070
     1
1070
   272
1070
     1
1070
   284
1070
     8
1070
   285
1070
     8
1070
   286
1070
     8
1002
}
  0
DIMENSION
  5
173
330
20
100
AcDbEntity
  8
BEM
100
AcDbDimension
280
     0
  2
*D1
 10
374.0837006646671
 20
518.7591886749637
 30
0.0
 11
354.0837006646671
 21
524.2591886749637
 31
0.0
 70
    32
 71
     5
 42
10.0
 73
     0
 74
     0
 75
     0
  3
Standard
100
AcDbAlignedDimension
 13
384.083700664667
 23
446.4225671981057
 33
0.0
 14
374.0837006646671
 24
446.5647028218365
 34
0.0
100
AcDbRotatedDimension
1001
ACAD
1000
DSTYLE
1002
{
1070
    40
1040
2.0
1070
    41
1040
3.5
1070
    42
1040
1.0
1070
    43
1040
7.0
1070
    44
1040
1.0
1070
    73
1070
     0
1070
    74
1070
     0
1070
    77
1070
     1
1070
    78
1070
     8
1070
   140
1040
3.5
1070
   141
1040
1.5
1070
   146
1040
0.5142857142857144
1070
   147
1040
1.0
1070
   172
1070
     1
1070
   178
1070
     1
1070
   271
1070
     1
1070
   272
1070
     1
1070
   284
1070
     8
1070
   285
1070
     8
1070
   286
1070
     8
1002
}
  0
LINE
  5
174
330
20
100
AcDbEntity
  8
STEMPEL
100
AcDbLine
 10
87.49999999999985
 20
337.0917926327774
 30
0.0
 11
362.5
 21
337.0917926327773
 31
0.0
  0
TEXT
  5
175
330
20
100
AcDbEntity
  8
TEXT
 62
     1
100
AcDbText
 10
100.3164912394863
 20
326.6853072000211
 30
0.0
 40
7.0
  1
DN
 41
0.8
  7
GREEKS
 72
     1
 11
104.983157906153
 21
326.6853072000211
 31
0.0
100
AcDbText
  0
LINE
  5
176
330
20
100
AcDbEntity
  8
VOLL
100
AcDbLine
 10
87.49999999999985
 20
323.0917926327773
 30
0.0
 11
362.5
 21
323.0917926327773
 31
0.0
  0
LINE
  5
177
330
20
100
AcDbEntity
  8
VOLL
100
AcDbLine
 10
122.4999999999998
 20
211.091792632777
 30
0.0
 11
122.4999999999998
 21
337.0917926327774
 31
0.0
  0
LINE
  5
178
330
20
100
AcDbEntity
  8
HILF
100
AcDbLine
 10
87.49999999999989
 20
295.0917926327773
 30
0.0
 11
362.5
 21
295.0917926327774
 31
0.0
  0
TEXT
  5
179
330
20
100
AcDbEntity
  8
TEXT
 62
     1
100
AcDbText
 10
100.4498245728196
 20
298.6853072000211
 30
0.0
 40
7.0
  1
50
 41
0.8
  7
GREEKS
 72
     1
 11
104.983157906153
 21
298.6853072000211
 31
0.0
100
AcDbText
  0
LINE
  5
17A
330
20
100
AcDbEntity
  8
HILF
100
AcDbLine
 10
87.49999999999989
 20
267.0917926327772
 30
0.0
 11
362.5
 21
267.0917926327772
 31
0.0
  0
LINE
  5
17B
330
20
100
AcDbEntity
  8
HILF
100
AcDbLine
 10
87.49999999999989
 20
281.0917926327773
 30
0.0
 11
362.5
 21
281.0917926327773
 31
0.0
  0
TEXT
  5
17C
330
20
100
AcDbEntity
  8
TEXT
 62
     1
100
AcDbText
 10
100.4498245728196
 20
270.6853072000209
 30
0.0
 40
7.0
  1
80
 41
0.8
  7
GREEKS
 72
     1
 11
104.983157906153
 21
270.6853072000209
 31
0.0
100
AcDbText
  0
TEXT
  5
17D
330
20
100
AcDbEntity
  8
TEXT
 62
     1
100
AcDbText
 10
100.4498245728196
 20
284.6853072000209
 30
0.0
 40
7.0
  1
70
 41
0.8
  7
GREEKS
 72
     1
 11
104.983157906153
 21
284.6853072000209
 31
0.0
100
AcDbText
  0
LINE
  5
17E
330
20
100
AcDbEntity
  8
HILF
100
AcDbLine
 10
87.49999999999989
 20
225.091792632777
 30
0.0
 11
362.5
 21
225.091792632777
 31
0.0
  0
LINE
  5
17F
330
20
100
AcDbEntity
  8
STEMPEL
100
AcDbLine
 10
87.49999999999989
 20
211.091792632777
 30
0.0
 11
362.5
 21
211.091792632777
 31
0.0
  0
LINE
  5
180
330
20
100
AcDbEntity
  8
HILF
100
AcDbLine
 10
87.49999999999989
 20
239.0917926327771
 30
0.0
 11
362.5
 21
239.0917926327771
 31
0.0
  0
TEXT
  5
181
330
20
100
AcDbEntity
  8
TEXT
 62
     1
100
AcDbText
 10
97.78315790615302
 20
214.6853072000207
 30
0.0
 40
7.0
  1
200
 41
0.8
  7
GREEKS
 72
     1
 11
104.983157906153
 21
214.6853072000207
 31
0.0
100
AcDbText
  0
TEXT
  5
182
330
20
100
AcDbEntity
  8
TEXT
 62
     1
100
AcDbText
 10
98.31649123948633
 20
228.6853072000207
 30
0.0
 40
7.0
  1
150
 41
0.8
  7
GREEKS
 72
     1
 11
104.983157906153
 21
228.6853072000207
 31
0.0
100
AcDbText
  0
TEXT
  5
183
330
20
100
AcDbEntity
  8
TEXT
 62
     1
100
AcDbText
 10
98.31649123948633
 20
242.6853072000208
 30
0.0
 40
7.0
  1
125
 41
0.8
  7
GREEKS
 72
     1
 11
104.983157906153
 21
242.6853072000208
 31
0.0
100
AcDbText
  0
LINE
  5
184
330
20
100
AcDbEntity
  8
HILF
100
AcDbLine
 10
87.49999999999989
 20
253.0917926327771
 30
0.0
 11
362.5
 21
253.0917926327771
 31
0.0
  0
TEXT
  5
185
330
20
100
AcDbEntity
  8
TEXT
 62
     1
100
AcDbText
 10
98.31649123948633
 20
256.6853072000208
 30
0.0
 40
7.0
  1
100
 41
0.8
  7
GREEKS
 72
     1
 11
104.983157906153
 21
256.6853072000208
 31
0.0
100
AcDbText
  0
LINE
  5
186
330
20
100
AcDbEntity
  8
HILF
100
AcDbLine
 10
157.4999999999998
 20
211.091792632777
 30
0.0
 11
157.4999999999998
 21
337.0917926327773
 31
0.0
  0
TEXT
  5
187
330
20
100
AcDbEntity
  8
TEXT
 62
     1
100
AcDbText
 10
133.4498245728197
 20
228.6853072000207
 30
0.0
 40
7.0
  1
219
 41
0.8
  7
GREEKS
 72
     1
 11
139.983157906153
 21
228.6853072000207
 31
0.0
100
AcDbText
  0
TEXT
  5
188
330
20
100
AcDbEntity
  8
TEXT
 62
     1
100
AcDbText
 10
132.783157906153
 20
214.6853072000206
 30
0.0
 40
7.0
  1
273
 41
0.8
  7
GREEKS
 72
     1
 11
139.983157906153
 21
214.6853072000206
 31
0.0
100
AcDbText
  0
TEXT
  5
189
330
20
100
AcDbEntity
  8
TEXT
 62
     1
100
AcDbText
 10
133.3164912394863
 20
270.6853072000209
 30
0.0
 40
7.0
  1
133
 41
0.8
  7
GREEKS
 72
     1
 11
139.983157906153
 21
270.6853072000209
 31
0.0
100
AcDbText
  0
TEXT
  5
18A
330
20
100
AcDbEntity
  8
TEXT
 62
     1
100
AcDbText
 10
133.3164912394863
 20
256.6853072000208
 30
0.0
 40
7.0
  1
133
 41
0.8
  7
GREEKS
 72
     1
 11
139.983157906153
 21
256.6853072000208
 31
0.0
100
AcDbText
  0
TEXT
  5
18B
330
20
100
AcDbEntity
  8
TEXT
 62
     1
100
AcDbText
 10
133.3164912394863
 20
242.6853072000207
 30
0.0
 40
7.0
  1
168
 41
0.8
  7
GREEKS
 72
     1
 11
139.983157906153
 21
242.6853072000207
 31
0.0
100
AcDbText
  0
TEXT
  5
18C
330
20
100
AcDbEntity
  8
TEXT
 62
     1
100
AcDbText
 10
135.3164912394863
 20
326.685307200021
 30
0.0
 40
7.0
  1
A%%c
 41
0.8
  7
GREEKS
 72
     1
 11
139.9831579061529
 21
326.685307200021
 31
0.0
100
AcDbText
  0
TEXT
  5
18D
330
20
100
AcDbEntity
  8
TEXT
 62
     1
100
AcDbText
 10
135.5831579061529
 20
298.685307200021
 30
0.0
 40
7.0
  1
89
 41
0.8
  7
GREEKS
 72
     1
 11
139.9831579061529
 21
298.685307200021
 31
0.0
100
AcDbText
  0
TEXT
  5
18E
330
20
100
AcDbEntity
  8
TEXT
 62
     1
100
AcDbText
 10
133.3164912394863
 20
284.6853072000209
 30
0.0
 40
7.0
  1
102
 41
0.8
  7
GREEKS
 72
     1
 11
139.9831579061529
 21
284.6853072000209
 31
0.0
100
AcDbText
  0
LINE
  5
18F
330
20
100
AcDbEntity
  8
HILF
100
AcDbLine
 10
192.4999999999999
 20
211.091792632777
 30
0.0
 11
192.4999999999999
 21
337.0917926327773
 31
0.0
  0
TEXT
  5
190
330
20
100
AcDbEntity
  8
TEXT
 62
     1
100
AcDbText
 10
167.783157906153
 20
214.6853072000206
 30
0.0
 40
7.0
  1
860
 41
0.8
  7
GREEKS
 72
     1
 11
174.983157906153
 21
214.6853072000206
 31
0.0
100
AcDbText
  0
TEXT
  5
191
330
20
100
AcDbEntity
  8
TEXT
 62
     1
100
AcDbText
 10
167.783157906153
 20
228.6853072000207
 30
0.0
 40
7.0
  1
690
 41
0.8
  7
GREEKS
 72
     1
 11
174.983157906153
 21
228.6853072000207
 31
0.0
100
AcDbText
  0
TEXT
  5
192
330
20
100
AcDbEntity
  8
TEXT
 62
     1
100
AcDbText
 10
167.783157906153
 20
242.6853072000207
 30
0.0
 40
7.0
  1
530
 41
0.8
  7
GREEKS
 72
     1
 11
174.983157906153
 21
242.6853072000207
 31
0.0
100
AcDbText
  0
TEXT
  5
193
330
20
100
AcDbEntity
  8
TEXT
 62
     1
100
AcDbText
 10
167.783157906153
 20
256.6853072000208
 30
0.0
 40
7.0
  1
420
 41
0.8
  7
GREEKS
 72
     1
 11
174.983157906153
 21
256.6853072000208
 31
0.0
100
AcDbText
  0
TEXT
  5
194
330
20
100
AcDbEntity
  8
TEXT
 62
     1
100
AcDbText
 10
167.783157906153
 20
270.6853072000209
 30
0.0
 40
7.0
  1
420
 41
0.8
  7
GREEKS
 72
     1
 11
174.983157906153
 21
270.6853072000209
 31
0.0
100
AcDbText
  0
TEXT
  5
195
330
20
100
AcDbEntity
  8
TEXT
 62
     1
100
AcDbText
 10
167.783157906153
 20
284.6853072000209
 30
0.0
 40
7.0
  1
323
 41
0.8
  7
GREEKS
 72
     1
 11
174.983157906153
 21
284.6853072000209
 31
0.0
100
AcDbText
  0
TEXT
  5
196
330
20
100
AcDbEntity
  8
TEXT
 62
     1
100
AcDbText
 10
167.783157906153
 20
298.685307200021
 30
0.0
 40
7.0
  1
282
 41
0.8
  7
GREEKS
 72
     1
 11
174.983157906153
 21
298.685307200021
 31
0.0
100
AcDbText
  0
TEXT
  5
197
330
20
100
AcDbEntity
  8
TEXT
 62
     1
100
AcDbText
 10
172.8498245728196
 20
326.685307200021
 30
0.0
 40
7.0
  1
A
 41
0.8
  7
GREEKS
 72
     1
 11
174.983157906153
 21
326.685307200021
 31
0.0
100
AcDbText
  0
LINE
  5
198
330
20
100
AcDbEntity
  8
HILF
100
AcDbLine
 10
227.4999999999999
 20
211.091792632777
 30
0.0
 11
227.4999999999999
 21
337.0917926327773
 31
0.0
  0
TEXT
  5
199
330
20
100
AcDbEntity
  8
TEXT
 62
     1
100
AcDbText
 10
202.7831579061531
 20
228.6853072000207
 30
0.0
 40
7.0
  1
230
 41
0.8
  7
GREEKS
 72
     1
 11
209.9831579061531
 21
228.6853072000207
 31
0.0
100
AcDbText
  0
TEXT
  5
19A
330
20
100
AcDbEntity
  8
TEXT
 62
     1
100
AcDbText
 10
202.9164912394864
 20
214.6853072000206
 30
0.0
 40
7.0
  1
286
 41
0.8
  7
GREEKS
 72
     1
 11
209.9831579061531
 21
214.6853072000206
 31
0.0
100
AcDbText
  0
TEXT
  5
19B
330
20
100
AcDbEntity
  8
TEXT
 62
     1
100
AcDbText
 10
203.4498245728197
 20
242.6853072000207
 30
0.0
 40
7.0
  1
176
 41
0.8
  7
GREEKS
 72
     1
 11
209.9831579061531
 21
242.6853072000207
 31
0.0
100
AcDbText
  0
TEXT
  5
19C
330
20
100
AcDbEntity
  8
TEXT
 62
     1
100
AcDbText
 10
203.3164912394864
 20
256.6853072000208
 30
0.0
 40
7.0
  1
140
 41
0.8
  7
GREEKS
 72
     1
 11
209.983157906153
 21
256.6853072000208
 31
0.0
100
AcDbText
  0
TEXT
  5
19D
330
20
100
AcDbEntity
  8
TEXT
 62
     1
100
AcDbText
 10
203.3164912394864
 20
270.6853072000209
 30
0.0
 40
7.0
  1
140
 41
0.8
  7
GREEKS
 72
     1
 11
209.983157906153
 21
270.6853072000209
 31
0.0
100
AcDbText
  0
TEXT
  5
19E
330
20
100
AcDbEntity
  8
TEXT
 62
     1
100
AcDbText
 10
205.3164912394864
 20
298.685307200021
 30
0.0
 40
7.0
  1
94
 41
0.8
  7
GREEKS
 72
     1
 11
209.983157906153
 21
298.685307200021
 31
0.0
100
AcDbText
  0
TEXT
  5
19F
330
20
100
AcDbEntity
  8
TEXT
 62
     1
100
AcDbText
 10
203.3164912394864
 20
284.6853072000209
 30
0.0
 40
7.0
  1
107
 41
0.8
  7
GREEKS
 72
     1
 11
209.983157906153
 21
284.6853072000209
 31
0.0
100
AcDbText
  0
TEXT
  5
1A0
330
20
100
AcDbEntity
  8
TEXT
 62
     1
100
AcDbText
 10
208.1164912394863
 20
326.685307200021
 30
0.0
 40
7.0
  1
B
 41
0.8
  7
GREEKS
 72
     1
 11
209.983157906153
 21
326.685307200021
 31
0.0
100
AcDbText
  0
LINE
  5
1A1
330
20
100
AcDbEntity
  8
HILF
100
AcDbLine
 10
262.5
 20
211.091792632777
 30
0.0
 11
262.5
 21
337.0917926327773
 31
0.0
  0
TEXT
  5
1A2
330
20
100
AcDbEntity
  8
TEXT
 62
     1
100
AcDbText
 10
238.8498245728198
 20
228.6853072000207
 30
0.0
 40
7.0
  1
115
 41
0.8
  7
GREEKS
 72
     1
 11
244.9831579061531
 21
228.6853072000207
 31
0.0
100
AcDbText
  0
TEXT
  5
1A3
330
20
100
AcDbEntity
  8
TEXT
 62
     1
100
AcDbText
 10
238.3164912394864
 20
214.6853072000206
 30
0.0
 40
7.0
  1
143
 41
0.8
  7
GREEKS
 72
     1
 11
244.9831579061531
 21
214.6853072000206
 31
0.0
100
AcDbText
  0
TEXT
  5
1A4
330
20
100
AcDbEntity
  8
TEXT
 62
     1
100
AcDbText
 10
240.4498245728198
 20
242.6853072000207
 30
0.0
 40
7.0
  1
88
 41
0.8
  7
GREEKS
 72
     1
 11
244.9831579061531
 21
242.6853072000207
 31
0.0
100
AcDbText
  0
TEXT
  5
1A5
330
20
100
AcDbEntity
  8
TEXT
 62
     1
100
AcDbText
 10
240.4498245728198
 20
256.6853072000208
 30
0.0
 40
7.0
  1
70
 41
0.8
  7
GREEKS
 72
     1
 11
244.9831579061531
 21
256.6853072000208
 31
0.0
100
AcDbText
  0
TEXT
  5
1A6
330
20
100
AcDbEntity
  8
TEXT
 62
     1
100
AcDbText
 10
240.4498245728198
 20
270.6853072000209
 30
0.0
 40
7.0
  1
70
 41
0.8
  7
GREEKS
 72
     1
 11
244.9831579061531
 21
270.6853072000209
 31
0.0
100
AcDbText
  0
TEXT
  5
1A7
330
20
100
AcDbEntity
  8
TEXT
 62
     1
100
AcDbText
 10
240.4498245728197
 20
298.685307200021
 30
0.0
 40
7.0
  1
47
 41
0.8
  7
GREEKS
 72
     1
 11
244.983157906153
 21
298.685307200021
 31
0.0
100
AcDbText
  0
TEXT
  5
1A8
330
20
100
AcDbEntity
  8
TEXT
 62
     1
100
AcDbText
 10
240.3164912394863
 20
284.6853072000209
 30
0.0
 40
7.0
  1
54
 41
0.8
  7
GREEKS
 72
     1
 11
244.983157906153
 21
284.6853072000209
 31
0.0
100
AcDbText
  0
TEXT
  5
1A9
330
20
100
AcDbEntity
  8
TEXT
 62
     1
100
AcDbText
 10
242.983157906153
 20
326.685307200021
 30
0.0
 40
7.0
  1
C
 41
0.8
  7
GREEKS
 72
     1
 11
244.983157906153
 21
326.685307200021
 31
0.0
100
AcDbText
  0
LINE
  5
1AA
330
20
100
AcDbEntity
  8
HILF
100
AcDbLine
 10
297.5
 20
211.091792632777
 30
0.0
 11
297.5
 21
337.0917926327773
 31
0.0
  0
TEXT
  5
1AB
330
20
100
AcDbEntity
  8
TEXT
 62
     1
100
AcDbText
 10
272.7831579061531
 20
228.6853072000207
 30
0.0
 40
7.0
  1
730
 41
0.8
  7
GREEKS
 72
     1
 11
279.9831579061531
 21
228.6853072000207
 31
0.0
100
AcDbText
  0
TEXT
  5
1AC
330
20
100
AcDbEntity
  8
TEXT
 62
     1
100
AcDbText
 10
272.7831579061531
 20
214.6853072000206
 30
0.0
 40
7.0
  1
900
 41
0.8
  7
GREEKS
 72
     1
 11
279.9831579061531
 21
214.6853072000206
 31
0.0
100
AcDbText
  0
TEXT
  5
1AD
330
20
100
AcDbEntity
  8
TEXT
 62
     1
100
AcDbText
 10
272.7831579061531
 20
242.6853072000207
 30
0.0
 40
7.0
  1
570
 41
0.8
  7
GREEKS
 72
     1
 11
279.9831579061531
 21
242.6853072000207
 31
0.0
100
AcDbText
  0
TEXT
  5
1AE
330
20
100
AcDbEntity
  8
TEXT
 62
     1
100
AcDbText
 10
272.7831579061531
 20
256.6853072000208
 30
0.0
 40
7.0
  1
460
 41
0.8
  7
GREEKS
 72
     1
 11
279.9831579061531
 21
256.6853072000208
 31
0.0
100
AcDbText
  0
TEXT
  5
1AF
330
20
100
AcDbEntity
  8
TEXT
 62
     1
100
AcDbText
 10
272.7831579061531
 20
270.6853072000209
 30
0.0
 40
7.0
  1
460
 41
0.8
  7
GREEKS
 72
     1
 11
279.9831579061531
 21
270.6853072000209
 31
0.0
100
AcDbText
  0
TEXT
  5
1B0
330
20
100
AcDbEntity
  8
TEXT
 62
     1
100
AcDbText
 10
272.7831579061531
 20
298.685307200021
 30
0.0
 40
7.0
  1
322
 41
0.8
  7
GREEKS
 72
     1
 11
279.9831579061531
 21
298.685307200021
 31
0.0
100
AcDbText
  0
TEXT
  5
1B1
330
20
100
AcDbEntity
  8
TEXT
 62
     1
100
AcDbText
 10
272.7831579061531
 20
284.6853072000209
 30
0.0
 40
7.0
  1
363
 41
0.8
  7
GREEKS
 72
     1
 11
279.9831579061531
 21
284.6853072000209
 31
0.0
100
AcDbText
  0
TEXT
  5
1B2
330
20
100
AcDbEntity
  8
TEXT
 62
     1
100
AcDbText
 10
278.1164912394864
 20
326.685307200021
 30
0.0
 40
7.0
  1
D
 41
0.8
  7
GREEKS
 72
     1
 11
279.9831579061531
 21
326.685307200021
 31
0.0
100
AcDbText
  0
TEXT
  5
1B3
330
20
100
AcDbEntity
  8
TEXT
 62
     1
100
AcDbText
 10
100.4498245728196
 20
312.685307200021
 30
0.0
 40
7.0
  1
40
 41
0.8
  7
GREEKS
 72
     1
 11
104.983157906153
 21
312.685307200021
 31
0.0
100
AcDbText
  0
TEXT
  5
1B4
330
20
100
AcDbEntity
  8
TEXT
 62
     1
100
AcDbText
 10
135.5831579061529
 20
312.685307200021
 30
0.0
 40
7.0
  1
89
 41
0.8
  7
GREEKS
 72
     1
 11
139.9831579061529
 21
312.685307200021
 31
0.0
100
AcDbText
  0
TEXT
  5
1B5
330
20
100
AcDbEntity
  8
TEXT
 62
     1
100
AcDbText
 10
167.783157906153
 20
312.685307200021
 30
0.0
 40
7.0
  1
282
 41
0.8
  7
GREEKS
 72
     1
 11
174.983157906153
 21
312.685307200021
 31
0.0
100
AcDbText
  0
TEXT
  5
1B6
330
20
100
AcDbEntity
  8
TEXT
 62
     1
100
AcDbText
 10
205.3164912394864
 20
312.685307200021
 30
0.0
 40
7.0
  1
94
 41
0.8
  7
GREEKS
 72
     1
 11
209.983157906153
 21
312.685307200021
 31
0.0
100
AcDbText
  0
TEXT
  5
1B7
330
20
100
AcDbEntity
  8
TEXT
 62
     1
100
AcDbText
 10
240.4498245728197
 20
312.685307200021
 30
0.0
 40
7.0
  1
47
 41
0.8
  7
GREEKS
 72
     1
 11
244.983157906153
 21
312.685307200021
 31
0.0
100
AcDbText
  0
TEXT
  5
1B8
330
20
100
AcDbEntity
  8
TEXT
 62
     1
100
AcDbText
 10
272.7831579061531
 20
312.685307200021
 30
0.0
 40
7.0
  1
322
 41
0.8
  7
GREEKS
 72
     1
 11
279.9831579061531
 21
312.685307200021
 31
0.0
100
AcDbText
  0
LINE
  5
1B9
330
20
100
AcDbEntity
  8
HILF
100
AcDbLine
 10
87.49999999999989
 20
309.0917926327774
 30
0.0
 11
362.5
 21
309.0917926327774
 31
0.0
  0
LINE
  5
1BA
330
20
100
AcDbEntity
  8
STEMPEL
100
AcDbLine
 10
362.5
 20
211.0917926327769
 30
0.0
 11
362.5
 21
337.0917926327773
 31
0.0
  0
TEXT
  5
1BB
330
20
100
AcDbEntity
  8
TEXT
 62
     1
100
AcDbText
 10
305.4498245728198
 20
312.685307200021
 30
0.0
 40
7.0
  1
08065.040X
 41
0.8
  7
GREEKS
 72
     1
 11
329.9831579061531
 21
312.685307200021
 31
0.0
100
AcDbText
  0
TEXT
  5
1BC
330
20
100
AcDbEntity
  8
TEXT
 62
     1
100
AcDbText
 10
305.4498245728197
 20
298.6853072000209
 30
0.0
 40
7.0
  1
08065.050X
 41
0.8
  7
GREEKS
 72
     1
 11
329.9831579061531
 21
298.6853072000209
 31
0.0
100
AcDbText
  0
TEXT
  5
1BD
330
20
100
AcDbEntity
  8
TEXT
 62
     1
100
AcDbText
 10
305.7164912394865
 20
326.685307200021
 30
0.0
 40
7.0
  1
EDV-Art.Nr.
 41
0.8
  7
GREEKS
 72
     1
 11
329.9831579061531
 21
326.685307200021
 31
0.0
100
AcDbText
  0
TEXT
  5
1BE
330
20
100
AcDbEntity
  8
TEXT
 62
     1
100
AcDbText
 10
305.4498245728197
 20
284.6853072000209
 30
0.0
 40
7.0
  1
08065.070X
 41
0.8
  7
GREEKS
 72
     1
 11
329.9831579061531
 21
284.6853072000209
 31
0.0
100
AcDbText
  0
TEXT
  5
1BF
330
20
100
AcDbEntity
  8
TEXT
 62
     1
100
AcDbText
 10
305.4498245728197
 20
270.6853072000208
 30
0.0
 40
7.0
  1
08065.080X
 41
0.8
  7
GREEKS
 72
     1
 11
329.9831579061531
 21
270.6853072000208
 31
0.0
100
AcDbText
  0
TEXT
  5
1C0
330
20
100
AcDbEntity
  8
TEXT
 62
     1
100
AcDbText
 10
305.9831579061531
 20
256.6853072000208
 30
0.0
 40
7.0
  1
08065.100X
 41
0.8
  7
GREEKS
 72
     1
 11
329.9831579061531
 21
256.6853072000208
 31
0.0
100
AcDbText
  0
TEXT
  5
1C1
330
20
100
AcDbEntity
  8
TEXT
 62
     1
100
AcDbText
 10
305.9831579061531
 20
242.6853072000207
 30
0.0
 40
7.0
  1
08065.125X
 41
0.8
  7
GREEKS
 72
     1
 11
329.9831579061531
 21
242.6853072000207
 31
0.0
100
AcDbText
  0
TEXT
  5
1C2
330
20
100
AcDbEntity
  8
TEXT
 62
     1
100
AcDbText
 10
305.9831579061531
 20
228.6853072000207
 30
0.0
 40
7.0
  1
08065.150X
 41
0.8
  7
GREEKS
 72
     1
 11
329.9831579061531
 21
228.6853072000207
 31
0.0
100
AcDbText
  0
TEXT
  5
1C3
330
20
100
AcDbEntity
  8
TEXT
 62
     1
100
AcDbText
 10
305.4498245728198
 20
214.6853072000206
 30
0.0
 40
7.0
  1
08065.200X
 41
0.8
  7
GREEKS
 72
     1
 11
329.9831579061531
 21
214.6853072000206
 31
0.0
100
AcDbText
  0
LINE
  5
1C4
330
20
100
AcDbEntity
  8
STEMPEL
100
AcDbLine
 10
87.49999999999984
 20
211.091792632777
 30
0.0
 11
87.49999999999984
 21
337.0917926327773
 31
0.0
  0
TEXT
  5
1C5
330
20
100
AcDbEntity
  8
TEXT
 62
     1
100
AcDbText
 10
236.8935731057402
 20
118.2079846345108
 30
0.0
 40
7.0
  1
Werkstoff: 1.4301
 41
0.8
  7
GREEKS
100
AcDbText
  0
TEXT
  5
1C6
330
20
100
AcDbEntity
  8
TEXT
 62
     1
100
AcDbText
 10
72.23634487097871
 20
190.6939457145722
 30
0.0
 40
7.0
  1
Zubehör:
 41
0.8
  7
GREEKS
100
AcDbText
  0
TEXT
  5
1C7
330
20
100
AcDbEntity
  8
TEXT
 62
     1
100
AcDbText
 10
72.23634487097871
 20
180.6939457145722
 30
0.0
 40
7.0
  1
6x Bohrschrauben DIN 7504 Form N-H 3.5x9.5 galv.verz., Mat. Nr.305354
 41
0.8
  7
GREEKS
100
AcDbText
  0
TEXT
  5
1C8
330
20
100
AcDbEntity
  8
TEXT
 62
     1
100
AcDbText
 10
73.31502667928754
 20
168.6939457145722
 30
0.0
 40
7.0
  1
1x Sechskantschraube DIN 933-M6x16, 1.4301, Mat. Nr.039400
 41
0.8
  7
GREEKS
100
AcDbText
  0
TEXT
  5
1C9
330
20
100
AcDbEntity
  8
TEXT
 62
     1
100
AcDbText
 10
73.37170662904537
 20
156.6939457145722
 30
0.0
 40
7.0
  1
1x Sechskantmutter DIN 934-M6-1.4404, Mat. Nr.038690
 41
0.8
  7
GREEKS
100
AcDbText
  0
TEXT
  5
1CA
330
20
100
AcDbEntity
  8
TEXT
 62
     1
100
AcDbText
 10
73.37170662904537
 20
145.2797321521991
 30
0.0
 40
7.0
  1
1x Scheibe DIN 9021-6.4-1.457., Mat. Nr.306453
 41
0.8
  7
GREEKS
100
AcDbText
  0
TEXT
  5
1CE
330
20
100
AcDbEntity
  8
BEM
100
AcDbText
 10
416.5811541437437
 20
12.14804815338303
 30
0.0
 40
4.0
  1
Diese Zeichnung ist urheberrechtlich geschützt und bleibt unser Eigentum. Sie darf weder ganz noch teilweise vervielfältigt und nicht an Dritte weitergegeben werden.
 50
90.0
 41
0.8
  7
GREEKS
100
AcDbText
  0
DIMENSION
  5
1E3
102
{ACAD_XDICTIONARY
360
1F2
102
}
102
{ACAD_REACTORS
330
1FE
102
}
330
20
100
AcDbEntity
  8
BEM
100
AcDbDimension
280
     0
  2
*D0
 10
62.08370066466705
 20
429.7068384455676
 30
0.0
 11
76.36937218338086
 21
391.0760408937507
 31
0.0
 70
    34
 71
     5
 42
0.785398163397451
 73
     0
 74
     0
 75
     0
  3
Standard
100
AcDb2LineAngularDimension
 13
65.01263285280152
 23
422.6357706337021
 33
0.0
 14
79.15476847653252
 24
408.493635009971
 34
0.0
 15
62.08370066466705
 25
446.4225671981057
 35
0.0
 16
73.16898731499616
 26
384.1938498263433
 36
0.0
1001
ACAD
1000
DSTYLE
1002
{
1070
    40
1040
2.0
1070
    41
1040
3.5
1070
    42
1040
1.0
1070
    43
1040
7.0
1070
    44
1040
1.0
1070
    73
1070
     0
1070
    74
1070
     0
1070
    77
1070
     1
1070
    78
1070
     8
1070
   140
1040
3.5
1070
   141
1040
1.5
1070
   146
1040
0.5142857142857144
1070
   147
1040
1.0
1070
   172
1070
     1
1070
   178
1070
     1
1070
   271
1070
     1
1070
   272
1070
     1
1070
   284
1070
     8
1070
   285
1070
     8
1070
   286
1070
     8
1002
}
  0
TEXT
  5
218
330
20
100
AcDbEntity
  8
TEXT
 62
     1
100
AcDbText
 10
177.5598622497803
 20
364.062645611659
 30
0.0
 40
7.0
  1
45° nach hinten biegen
 41
0.8
  7
GREEKS
 72
     1
 11
226.8931955831137
 21
364.062645611659
 31
0.0
100
AcDbText
  0
LINE
  5
219
330
20
100
AcDbEntity
  8
HILF
100
AcDbLine
 10
177.0488819342338
 20
360.4611841439839
 30
0.0
 11
279.381061339159
 21
360.4611841439839
 31
0.0
  0
LINE
  5
21A
330
20
100
AcDbEntity
  8
HILF
100
AcDbLine
 10
82.08370066466704
 20
418.7184094472031
 30
0.0
 11
177.0488819342338
 21
360.4611841439839
 31
0.0
  0
LINE
  5
21B
330
20
100
AcDbEntity
  8
HILF
100
AcDbLine
 10
279.381061339159
 20
360.4611841439839
 30
0.0
 11
364.0837006646671
 21
416.2333227179327
 31
0.0
  0
TEXT
  5
2DB
330
20
100
AcDbEntity
  8
TEXT
 62
     1
100
AcDbText
 10
261.904629032824
 20
426.9554573225057
 30
0.0
 40
7.0
  1
t=0.6mm
 41
0.8
  7
GREEKS
 72
     1
 11
280.8379623661574
 21
426.9554573225057
 31
0.0
100
AcDbText
  0
TEXT
  5
38A
330
20
100
AcDbEntity
  8
TEXT
100
AcDbText
 10
193.2517345570704
 20
88.98342030055591
 30
0.0
 40
4.0
  1
DIN ISO 2768-c
 41
0.7
  7
GREEKS
100
AcDbText
  0
CIRCLE
  5
443
330
20
100
AcDbEntity
  8
TEXT
 62
     3
370
   106
100
AcDbCircle
 10
172.382706840789
 20
25.10341225901517
 30
0.0
 40
5.599999999999999
  0
CIRCLE
  5
444
330
20
100
AcDbEntity
  8
TEXT
 62
     3
370
   106
100
AcDbCircle
 10
208.3616983990005
 20
25.10341225901523
 30
0.0
 40
5.599999999999999
  0
CIRCLE
  5
445
330
20
100
AcDbEntity
  8
TEXT
 62
     3
370
    20
100
AcDbCircle
 10
220.3321209074247
 20
31.31136795727987
 30
0.0
 40
2.5
  0
MTEXT
  5
446
330
20
100
AcDbEntity
  8
TEXT
 62
     3
370
    20
100
AcDbMText
 10
219.7809552148064
 20
32.68099582169505
 30
0.0
 40
2.799999999999999
 41
3.280585395855268
 46
0.0
 71
     1
 72
     5
  1
R
 73
     1
 44
1.0
1001
ACAD
1000
ACAD_MTEXT_COLUMN_INFO_BEGIN
1070
    75
1070
     2
1070
    79
1070
     0
1070
    76
1070
     1
1070
    78
1070
     0
1070
    48
1040
3.280585395855268
1070
    49
1040
10.0
1070
    50
1070
     1
1040
0.0
1000
ACAD_MTEXT_COLUMN_INFO_END
  0
LWPOLYLINE
  5
447
330
20
100
AcDbEntity
  8
TEXT
 62
     3
370
   106
100
AcDbPolyline
 90
        4
 70
     1
 43
0.0
 10
191.5344919699082
 20
27.50341225901524
 42
0.9999999999999998
 10
191.5344919699082
 20
30.70341225901522
 10
184.9344919699083
 20
30.70341225901522
 10
184.9344919699083
 20
27.50341225901524
  0
LWPOLYLINE
  5
448
330
20
100
AcDbEntity
  8
TEXT
 62
     3
370
   106
100
AcDbPolyline
 90
        8
 70
     1
 43
0.0
 10
157.7827068407891
 20
22.10341225901524
 10
157.7827068407891
 20
34.10341225901523
 10
154.3827068407891
 20
34.10341225901523
 10
154.3827068407891
 20
22.10341225901524
 42
0.4142135623730961
 10
160.382706840789
 20
16.10341225901524
 10
172.382706840789
 20
16.10341225901528
 42
4.37312025522518
 10
165.3371408592652
 20
19.50341225901557
 10
160.382706840789
 20
19.5034122590155
 42
-0.4142135623730961
  0
LWPOLYLINE
  5
449
330
20
100
AcDbEntity
  8
TEXT
 62
     3
370
   106
100
AcDbPolyline
 90
       14
 70
     1
 43
0.0
 10
181.5344919699082
 20
16.10341225901523
 10
181.5344919699082
 20
34.10341225901523
 10
191.5344919699082
 20
34.10341225901523
 42
-0.7007983443495949
 10
194.7423539028764
 20
25.26809977904515
 10
195.7706402888793
 20
21.43048274174866
 42
0.3394542588633795
 10
198.282047437231
 20
19.50341225901528
 10
201.3161324174771
 20
19.50341225901525
 42
-4.373120255225453
 10
208.3616983990005
 20
16.10341225901523
 10
198.282047437231
 20
16.10341225901527
 42
-0.3394542588633795
 10
192.4864924794965
 20
20.5504979884002
 10
191.5344919699082
 20
24.10341225901523
 10
191.5344919699082
 20
24.10341225901523
 10
184.9344919699083
 20
24.10341225901523
 10
184.9344919699083
 20
16.10341225901528
  0
ENDSEC
  0
SECTION
  2
OBJECTS
  0
DICTIONARY
  5
C
330
0
100
AcDbDictionary
281
     1
  3
ACAD_CIP_PREVIOUS_PRODUCT_INFO
350
423
  3
ACAD_COLOR
350
1B
  3
ACAD_DETAILVIEWSTYLE
350
41F
  3
ACAD_FIELDLIST
350
433
  3
ACAD_GROUP
350
D
  3
ACAD_LAYOUT
350
19
  3
ACAD_MATERIAL
350
1A
  3
ACAD_MLEADERSTYLE
350
41B
  3
ACAD_MLINESTYLE
350
16
  3
ACAD_PLOTSETTINGS
350
18
  3
ACAD_PLOTSTYLENAME
350
E
  3
ACAD_RENDER_ACTIVE_RAPIDRT_SETTINGS
350
42B
  3
ACAD_RENDER_RAPIDRT_SETTINGS
350
424
  3
ACAD_SCALELIST
350
409
  3
ACAD_SECTIONVIEWSTYLE
350
41D
  3
ACAD_TABLESTYLE
350
407
  3
ACAD_VISUALSTYLE
350
3EE
  3
ACDB_RECOMPOSE_DATA
350
4A6
  3
AcDbVariableDictionary
350
3AC
  0
DICTIONARY
  5
435
330
2
100
AcDbDictionary
280
     1
281
     1
  3
ACAD_LAYERSTATES
360
436
  0
DICTIONARY
  5
44E
330
10
100
AcDbDictionary
280
     1
281
     1
  3
ADSK_XREC_LAYER_RECONCILED
360
44F
  0
DICTIONARY
  5
450
330
39
100
AcDbDictionary
280
     1
281
     1
  3
ADSK_XREC_LAYER_RECONCILED
360
451
  0
DICTIONARY
  5
452
330
3A
100
AcDbDictionary
280
     1
281
     1
  3
ADSK_XREC_LAYER_RECONCILED
360
453
  0
DICTIONARY
  5
454
330
3B
100
AcDbDictionary
280
     1
281
     1
  3
ADSK_XREC_LAYER_RECONCILED
360
455
  0
DICTIONARY
  5
456
330
3D
100
AcDbDictionary
280
     1
281
     1
  3
ADSK_XREC_LAYER_RECONCILED
360
457
  0
DICTIONARY
  5
458
330
3E
100
AcDbDictionary
280
     1
281
     1
  3
ADSK_XREC_LAYER_RECONCILED
360
459
  0
DICTIONARY
  5
45A
330
3F
100
AcDbDictionary
280
     1
281
     1
  3
ADSK_XREC_LAYER_RECONCILED
360
45B
  0
DICTIONARY
  5
42F
330
142
100
AcDbDictionary
280
     1
281
     1
  3
ACAD_FIELD
360
430
  0
DICTIONARY
  5
1F2
330
1E3
100
AcDbDictionary
280
     1
281
     1
  3
ACAD_DIMASSOC
360
1FE
  0
XRECORD
  5
423
102
{ACAD_REACTORS
330
C
102
}
330
C
100
AcDbXrecord
280
     1
300
ACD
300
2017
300
ACD_F_S
  0
DICTIONARY
  5
1B
102
{ACAD_REACTORS
330
C
102
}
330
C
100
AcDbDictionary
281
     1
  0
DICTIONARY
  5
41F
102
{ACAD_REACTORS
330
C
102
}
330
C
100
AcDbDictionary
281
     1
  3
Imperial24
350
420
  0
FIELDLIST
  5
433
102
{ACAD_REACTORS
330
C
102
}
330
C
100
AcDbIdSet
 90
        2
330
431
330
432
100
AcDbFieldList
  0
DICTIONARY
  5
D
102
{ACAD_REACTORS
330
C
102
}
330
C
100
AcDbDictionary
281
     1
  0
DICTIONARY
  5
19
102
{ACAD_REACTORS
330
C
102
}
330
C
100
AcDbDictionary
281
     1
  3
Layout1
350
1F
  3
Model
350
23
  0
DICTIONARY
  5
1A
102
{ACAD_REACTORS
330
C
102
}
330
C
100
AcDbDictionary
281
     1
  3
ByBlock
350
3DE
  3
ByLayer
350
3D6
  3
Global
350
3E6
  0
DICTIONARY
  5
41B
102
{ACAD_REACTORS
330
C
102
}
330
C
100
AcDbDictionary
281
     1
  3
Standard
350
41C
  0
DICTIONARY
  5
16
102
{ACAD_REACTORS
330
C
102
}
330
C
100
AcDbDictionary
281
     1
  3
Standard
350
17
  0
DICTIONARY
  5
18
102
{ACAD_REACTORS
330
C
102
}
330
C
100
AcDbDictionary
281
     1
  0
ACDBDICTIONARYWDFLT
  5
E
102
{ACAD_REACTORS
330
C
102
}
330
C
100
AcDbDictionary
281
     1
  3
Normal
350
F
100
AcDbDictionaryWithDefault
340
F
  0
RAPIDRTRENDERSETTINGS
  5
42B
102
{ACAD_REACTORS
330
C
102
}
330
C
100
AcDbRenderSettings
 90
        2
  1
Mittel
290
     1
290
     0
290
     1
290
     1
  1

  1
Wendet 5 Render-Ebenen an
 90
        0
100
AcDbRapidRTRenderSettings
 90
        3
 70
     0
 90
        5
 90
        1
 70
     1
 70
     2
 40
3.0
 40
3.0
290
     1
  0
DICTIONARY
  5
424
102
{ACAD_REACTORS
330
C
102
}
330
C
100
AcDbDictionary
281
     1
  3
Hoch
350
427
  3
Mittagsqualität
350
429
  3
Mittel
350
426
  3
Morgenqualität
350
428
  3
Nachtqualität
350
42A
  3
Niedrig
350
425
  0
DICTIONARY
  5
409
102
{ACAD_REACTORS
330
C
102
}
330
C
100
AcDbDictionary
281
     1
  3
A0
350
40A
  3
A1
350
40B
  3
A2
350
40C
  3
A3
350
40D
  3
A4
350
40E
  3
A5
350
40F
  3
A6
350
410
  3
A7
350
411
  3
A8
350
412
  3
A9
350
413
  3
B0
350
414
  3
B1
350
415
  3
B2
350
416
  3
B3
350
417
  3
B4
350
418
  3
B5
350
419
  3
B6
350
41A
  0
DICTIONARY
  5
41D
102
{ACAD_REACTORS
330
C
102
}
330
C
100
AcDbDictionary
281
     1
  3
Imperial24
350
41E
  0
DICTIONARY
  5
407
102
{ACAD_REACTORS
330
C
102
}
330
C
100
AcDbDictionary
281
     1
  3
Standard
350
408
  0
DICTIONARY
  5
3EE
102
{ACAD_REACTORS
330
C
102
}
330
C
100
AcDbDictionary
281
     1
  3
2dWireframe
350
3F4
  3
Basic
350
3F3
  3
Brighten
350
3FA
  3
ColorChange
350
3FE
  3
Conceptual
350
3F7
  3
Dim
350
3F9
  3
EdgeColorOff
350
406
  3
Facepattern
350
3FD
  3
Flat
350
3EF
  3
FlatWithEdges
350
3F0
  3
Gouraud
350
3F1
  3
GouraudWithEdges
350
3F2
  3
Hidden
350
3F6
  3
JitterOff
350
404
  3
Linepattern
350
3FC
  3
OverhangOff
350
405
  3
Realistic
350
3F8
  3
Shaded
350
403
  3
Shaded with edges
350
402
  3
Shades of Gray
350
3FF
  3
Sketchy
350
400
  3
Thicken
350
3FB
  3
Wireframe
350
3F5
  3
X-Ray
350
401
  0
XRECORD
  5
4A6
102
{ACAD_REACTORS
330
C
102
}
330
C
100
AcDbXrecord
280
     1
 90
        1
330
408
330
41E
330
420
330
446
  0
DICTIONARY
  5
3AC
102
{ACAD_REACTORS
330
C
102
}
330
C
100
AcDbDictionary
281
     1
  3
CANNOSCALE
350
466
  3
CMLEADERSTYLE
350
462
  3
CTABLESTYLE
350
461
  3
CVIEWDETAILSTYLE
350
463
  3
CVIEWSECTIONSTYLE
350
464
  3
DIMASSOC
350
3AE
  3
HIDETEXT
350
3AD
  3
LAYEREVAL
350
468
  3
LAYERNOTIFY
350
469
  3
LIGHTINGUNITS
350
467
  3
MSLTSCALE
350
465
  3
PROJECTNAME
350
3AF
  0
DICTIONARY
  5
436
102
{ACAD_REACTORS
330
435
102
}
330
435
100
AcDbDictionary
281
     1
  0
XRECORD
  5
44F
102
{ACAD_REACTORS
330
44E
102
}
330
44E
100
AcDbXrecord
280
     1
290
     1
  0
XRECORD
  5
451
102
{ACAD_REACTORS
330
450
102
}
330
450
100
AcDbXrecord
280
     1
290
     1
  0
XRECORD
  5
453
102
{ACAD_REACTORS
330
452
102
}
330
452
100
AcDbXrecord
280
     1
290
     1
  0
XRECORD
  5
455
102
{ACAD_REACTORS
330
454
102
}
330
454
100
AcDbXrecord
280
     1
290
     1
  0
XRECORD
  5
457
102
{ACAD_REACTORS
330
456
102
}
330
456
100
AcDbXrecord
280
     1
290
     1
  0
XRECORD
  5
459
102
{ACAD_REACTORS
330
458
102
}
330
458
100
AcDbXrecord
280
     1
290
     1
  0
XRECORD
  5
45B
102
{ACAD_REACTORS
330
45A
102
}
330
45A
100
AcDbXrecord
280
     1
290
     1
  0
DICTIONARY
  5
430
102
{ACAD_REACTORS
330
42F
102
}
330
42F
100
AcDbDictionary
280
     1
281
     1
  3
TEXT
360
431
  0
DIMASSOC
  5
1FE
102
{ACAD_REACTORS
330
1F2
102
}
330
1F2
100
AcDbDimAssoc
330
1E3
 90
       15
 70
     0
 71
     0
  1
AcDbOsnapPointRef
 72
    13
331
15C
 73
     2
 91
        0
 40
0.0
 10
0.0
 20
0.0
 30
2.000000000000000E+50
 75
     0
  1
AcDbOsnapPointRef
 72
     1
331
15C
 73
     2
 91
        0
 40
0.9999999999999998
 10
0.0
 20
0.0
 30
2.000000000000000E+50
 75
     0
  1
AcDbOsnapPointRef
 72
    13
331
148
 73
     2
 91
        0
 40
0.0
 10
0.0
 20
0.0
 30
2.000000000000000E+50
 75
     0
  1
AcDbOsnapPointRef
 72
     1
331
148
 73
     2
 91
        0
 40
1.0
 10
0.0
 20
0.0
 30
2.000000000000000E+50
 75
     0
  0
ACDBDETAILVIEWSTYLE
  5
420
102
{ACAD_XDICTIONARY
360
45E
102
}
102
{ACAD_REACTORS
330
41F
102
}
330
41F
100
AcDbModelDocViewStyle
 70
     0
  3
Imperial24
290
     0
100
AcDbDetailViewStyle
 70
     0
 71
     0
 90
        3
 71
     1
340
11
 62
   256
 40
0.24
340
0
 62
   256
 40
0.24
300

 40
0.36
280
     3
 71
     2
340
15
 90
       25
 62
   256
 71
     3
340
11
 62
   256
 40
0.24
 90
        1
 40
0.75
 90
        1
300
%<\AcVar ViewType \f "%tc1">% %<\AcVar ViewDetailId>%\PVARIA %<\AcVar ViewScale \f "%sn">%
 71
     4
340
15
 90
       25
 62
   256
340
15
 90
       25
 62
   256
280
     0
  0
LAYOUT
  5
1F
102
{ACAD_REACTORS
330
19
102
}
330
19
100
AcDbPlotSettings
  1

  2
RICOH Aficio 2027 PCL 6
  4

  6

 40
0.0
 41
0.0
 42
0.0
 43
0.0
 44
0.0
 45
0.0
 46
0.0
 47
0.0
 48
0.0
 49
0.0
140
0.0
141
0.0
142
1.0
143
1.0
 70
   688
 72
     0
 73
     0
 74
     5
  7
monochrome1.ctb
 75
    16
147
1.0
 76
     0
 77
     2
 78
   300
148
0.0
149
0.0
100
AcDbLayout
  1
Layout1
 70
     0
 71
     1
 10
0.0
 20
0.0
 11
12.0
 21
9.0
 12
0.0
 22
0.0
 32
0.0
 14
1.000000000000000E+20
 24
1.000000000000000E+20
 34
1.000000000000000E+20
 15
-1.000000000000000E+20
 25
-1.000000000000000E+20
 35
-1.000000000000000E+20
146
0.0
 13
0.0
 23
0.0
 33
0.0
 16
1.0
 26
0.0
 36
0.0
 17
0.0
 27
1.0
 37
0.0
 76
     0
330
1C
  0
LAYOUT
  5
23
102
{ACAD_REACTORS
330
19
102
}
330
19
100
AcDbPlotSettings
  1

  2
RICOH Aficio MP 2510 RPCS
  4
A4
  6

 40
5.027083
 41
5.027084999999999
 42
5.027084
 43
5.027069
 44
209.973328
 45
296.925995
 46
0.0
 47
2.06
 48
-184747.955701
 49
-102615.132394
140
-122183.546355
141
-12202.808094
142
1.0
143
2.100849152723284
 70
 11956
 72
     1
 73
     0
 74
     2
  7
monochrome 1.ctb
 75
     0
147
0.4759980023809526
 76
     1
 77
     2
 78
   300
148
0.0
149
0.0
100
AcDbLayout
  1
Model
 70
     1
 71
     0
 10
0.0
 20
0.0
 11
12.0
 21
9.0
 12
0.0
 22
0.0
 32
0.0
 14
0.0
 24
0.0
 34
0.0
 15
0.0
 25
0.0
 35
0.0
146
0.0
 13
0.0
 23
0.0
 33
0.0
 16
1.0
 26
0.0
 36
0.0
 17
0.0
 27
1.0
 37
0.0
 76
     0
330
20
331
3D4
  0
MATERIAL
  5
3DE
102
{ACAD_XDICTIONARY
360
3DF
102
}
102
{ACAD_REACTORS
330
1A
102
}
330
1A
100
AcDbMaterial
  1
ByBlock
 72
     0
 43
0.0208333333333333
 43
0.0
 43
0.0
 43
0.0
 43
0.0
 43
0.0208333333333333
 43
0.0
 43
0.0
 43
0.0
 43
0.0
 43
1.0
 43
0.0
 43
0.0
 43
0.0
 43
0.0
 43
1.0
 77
     0
 47
0.0208333333333333
 47
0.0
 47
0.0
 47
0.0
 47
0.0
 47
0.0208333333333333
 47
0.0
 47
0.0
 47
0.0
 47
0.0
 47
1.0
 47
0.0
 47
0.0
 47
0.0
 47
0.0
 47
1.0
171
     0
 49
0.0208333333333333
 49
0.0
 49
0.0
 49
0.0
 49
0.0
 49
0.0208333333333333
 49
0.0
 49
0.0
 49
0.0
 49
0.0
 49
1.0
 49
0.0
 49
0.0
 49
0.0
 49
0.0
 49
1.0
175
     0
142
0.0208333333333333
142
0.0
142
0.0
142
0.0
142
0.0
142
0.0208333333333333
142
0.0
142
0.0
142
0.0
142
0.0
142
1.0
142
0.0
142
0.0
142
0.0
142
0.0
142
1.0
179
     0
144
0.0208333333333333
144
0.0
144
0.0
144
0.0
144
0.0
144
0.0208333333333333
144
0.0
144
0.0
144
0.0
144
0.0
144
1.0
144
0.0
144
0.0
144
0.0
144
0.0
144
1.0
147
0.0208333333333333
147
0.0
147
0.0
147
0.0
147
0.0
147
0.0208333333333333
147
0.0
147
0.0
147
0.0
147
0.0
147
1.0
147
0.0
147
0.0
147
0.0
147
0.0
147
1.0
  0
MATERIAL
  5
3D6
102
{ACAD_XDICTIONARY
360
3D7
102
}
102
{ACAD_REACTORS
330
1A
102
}
330
1A
100
AcDbMaterial
  1
ByLayer
 72
     0
 43
0.0208333333333333
 43
0.0
 43
0.0
 43
0.0
 43
0.0
 43
0.0208333333333333
 43
0.0
 43
0.0
 43
0.0
 43
0.0
 43
1.0
 43
0.0
 43
0.0
 43
0.0
 43
0.0
 43
1.0
 77
     0
 47
0.0208333333333333
 47
0.0
 47
0.0
 47
0.0
 47
0.0
 47
0.0208333333333333
 47
0.0
 47
0.0
 47
0.0
 47
0.0
 47
1.0
 47
0.0
 47
0.0
 47
0.0
 47
0.0
 47
1.0
171
     0
 49
0.0208333333333333
 49
0.0
 49
0.0
 49
0.0
 49
0.0
 49
0.0208333333333333
 49
0.0
 49
0.0
 49
0.0
 49
0.0
 49
1.0
 49
0.0
 49
0.0
 49
0.0
 49
0.0
 49
1.0
175
     0
142
0.0208333333333333
142
0.0
142
0.0
142
0.0
142
0.0
142
0.0208333333333333
142
0.0
142
0.0
142
0.0
142
0.0
142
1.0
142
0.0
142
0.0
142
0.0
142
0.0
142
1.0
179
     0
144
0.0208333333333333
144
0.0
144
0.0
144
0.0
144
0.0
144
0.0208333333333333
144
0.0
144
0.0
144
0.0
144
0.0
144
1.0
144
0.0
144
0.0
144
0.0
144
0.0
144
1.0
147
0.0208333333333333
147
0.0
147
0.0
147
0.0
147
0.0
147
0.0208333333333333
147
0.0
147
0.0
147
0.0
147
0.0
147
1.0
147
0.0
147
0.0
147
0.0
147
0.0
147
1.0
  0
MATERIAL
  5
3E6
102
{ACAD_XDICTIONARY
360
3E7
102
}
102
{ACAD_REACTORS
330
1A
102
}
330
1A
100
AcDbMaterial
  1
Global
 72
     0
 43
0.0208333333333333
 43
0.0
 43
0.0
 43
0.0
 43
0.0
 43
0.0208333333333333
 43
0.0
 43
0.0
 43
0.0
 43
0.0
 43
1.0
 43
0.0
 43
0.0
 43
0.0
 43
0.0
 43
1.0
 77
     0
 47
0.0208333333333333
 47
0.0
 47
0.0
 47
0.0
 47
0.0
 47
0.0208333333333333
 47
0.0
 47
0.0
 47
0.0
 47
0.0
 47
1.0
 47
0.0
 47
0.0
 47
0.0
 47
0.0
 47
1.0
171
     0
 49
0.0208333333333333
 49
0.0
 49
0.0
 49
0.0
 49
0.0
 49
0.0208333333333333
 49
0.0
 49
0.0
 49
0.0
 49
0.0
 49
1.0
 49
0.0
 49
0.0
 49
0.0
 49
0.0
 49
1.0
175
     0
142
0.0208333333333333
142
0.0
142
0.0
142
0.0
142
0.0
142
0.0208333333333333
142
0.0
142
0.0
142
0.0
142
0.0
142
1.0
142
0.0
142
0.0
142
0.0
142
0.0
142
1.0
179
     0
144
0.0208333333333333
144
0.0
144
0.0
144
0.0
144
0.0
144
0.0208333333333333
144
0.0
144
0.0
144
0.0
144
0.0
144
1.0
144
0.0
144
0.0
144
0.0
144
0.0
144
1.0
147
0.0208333333333333
147
0.0
147
0.0
147
0.0
147
0.0
147
0.0208333333333333
147
0.0
147
0.0
147
0.0
147
0.0
147
1.0
147
0.0
147
0.0
147
0.0
147
0.0
147
1.0
  0
MLEADERSTYLE
  5
41C
102
{ACAD_REACTORS
330
41B
102
}
330
41B
100
AcDbMLeaderStyle
179
     2
170
     2
171
     1
172
     0
 90
        2
 40
0.0
 41
0.0
173
     1
 91
-1056964608
340
13
 92
       -2
290
     1
 42
0.09
291
     1
 43
0.36
  3
Standard
 44
0.18
300

342
11
174
     1
178
     6
175
     1
176
     0
 93
-1056964608
 45
0.18
292
     0
297
     0
 46
0.18
 94
-1056964608
 47
1.0
 49
1.0
140
1.0
293
     1
141
0.0
294
     1
177
     0
142
1.0
295
     1
296
     0
143
0.125
271
     0
272
     9
273
     9
298
     1
  0
MLINESTYLE
  5
17
102
{ACAD_REACTORS
330
16
102
}
330
16
100
AcDbMlineStyle
  2
STANDARD
 70
     0
  3

 62
   256
 51
90.0
 52
90.0
 71
     2
 49
0.5
 62
   256
  6
BYLAYER
 49
-0.5
 62
   256
  6
BYLAYER
  0
ACDBPLACEHOLDER
  5
F
102
{ACAD_REACTORS
330
E
102
}
330
E
  0
RAPIDRTRENDERSETTINGS
  5
427
102
{ACAD_REACTORS
330
424
102
}
330
424
100
AcDbRenderSettings
 90
        2
  1
Hoch
290
     1
290
     0
290
     1
290
     1
  1

  1
Wendet 10 Render-Ebenen an
 90
        2
100
AcDbRapidRTRenderSettings
 90
        3
 70
     0
 90
       10
 90
        1
 70
     2
 70
     2
 40
3.0
 40
3.0
290
     1
  0
RAPIDRTRENDERSETTINGS
  5
429
102
{ACAD_REACTORS
330
424
102
}
330
424
100
AcDbRenderSettings
 90
        2
  1
Mittagsqualität
290
     1
290
     0
290
     1
290
     1
  1

  1
Rendert für 60 Minuten
 90
        4
100
AcDbRapidRTRenderSettings
 90
        3
 70
     1
 90
        1
 90
       60
 70
     2
 70
     2
 40
3.0
 40
3.0
290
     1
  0
RAPIDRTRENDERSETTINGS
  5
426
102
{ACAD_REACTORS
330
424
102
}
330
424
100
AcDbRenderSettings
 90
        2
  1
Mittel
290
     1
290
     0
290
     1
290
     1
  1

  1
Wendet 5 Render-Ebenen an
 90
        1
100
AcDbRapidRTRenderSettings
 90
        3
 70
     0
 90
        5
 90
        1
 70
     1
 70
     2
 40
3.0
 40
3.0
290
     1
  0
RAPIDRTRENDERSETTINGS
  5
428
102
{ACAD_REACTORS
330
424
102
}
330
424
100
AcDbRenderSettings
 90
        2
  1
Morgenqualität
290
     1
290
     0
290
     1
290
     1
  1

  1
Rendert für 10 Minuten
 90
        3
100
AcDbRapidRTRenderSettings
 90
        3
 70
     1
 90
        1
 90
       10
 70
     1
 70
     2
 40
3.0
 40
3.0
290
     1
  0
RAPIDRTRENDERSETTINGS
  5
42A
102
{ACAD_REACTORS
330
424
102
}
330
424
100
AcDbRenderSettings
 90
        2
  1
Nachtqualität
290
     1
290
     0
290
     1
290
     1
  1

  1
Rendert für 12 Stunden
 90
        5
100
AcDbRapidRTRenderSettings
 90
        3
 70
     1
 90
        1
 90
      720
 70
     2
 70
     2
 40
3.0
 40
3.0
290
     1
  0
RAPIDRTRENDERSETTINGS
  5
425
102
{ACAD_REACTORS
330
424
102
}
330
424
100
AcDbRenderSettings
 90
        2
  1
Niedrig
290
     1
290
     0
290
     1
290
     1
  1

  1
Wendet 1 Render-Ebene an
 90
        0
100
AcDbRapidRTRenderSettings
 90
        3
 70
     0
 90
        1
 90
        1
 70
     0
 70
     2
 40
3.0
 40
3.0
290
     1
  0
SCALE
  5
40A
102
{ACAD_REACTORS
330
409
102
}
330
409
100
AcDbScale
 70
     0
300
1:1
140
1.0
141
1.0
290
     1
  0
SCALE
  5
40B
102
{ACAD_REACTORS
330
409
102
}
330
409
100
AcDbScale
 70
     0
300
1/128" = 1'-0"
140
0.0078125
141
12.0
290
     0
  0
SCALE
  5
40C
102
{ACAD_REACTORS
330
409
102
}
330
409
100
AcDbScale
 70
     0
300
1/64" = 1'-0"
140
0.015625
141
12.0
290
     0
  0
SCALE
  5
40D
102
{ACAD_REACTORS
330
409
102
}
330
409
100
AcDbScale
 70
     0
300
1/32" = 1'-0"
140
0.03125
141
12.0
290
     0
  0
SCALE
  5
40E
102
{ACAD_REACTORS
330
409
102
}
330
409
100
AcDbScale
 70
     0
300
1/16" = 1'-0"
140
0.0625
141
12.0
290
     0
  0
SCALE
  5
40F
102
{ACAD_REACTORS
330
409
102
}
330
409
100
AcDbScale
 70
     0
300
3/32" = 1'-0"
140
0.09375
141
12.0
290
     0
  0
SCALE
  5
410
102
{ACAD_REACTORS
330
409
102
}
330
409
100
AcDbScale
 70
     0
300
1/8" = 1'-0"
140
0.125
141
12.0
290
     0
  0
SCALE
  5
411
102
{ACAD_REACTORS
330
409
102
}
330
409
100
AcDbScale
 70
     0
300
3/16" = 1'-0"
140
0.1875
141
12.0
290
     0
  0
SCALE
  5
412
102
{ACAD_REACTORS
330
409
102
}
330
409
100
AcDbScale
 70
     0
300
1/4" = 1'-0"
140
0.25
141
12.0
290
     0
  0
SCALE
  5
413
102
{ACAD_REACTORS
330
409
102
}
330
409
100
AcDbScale
 70
     0
300
3/8" = 1'-0"
140
0.375
141
12.0
290
     0
  0
SCALE
  5
414
102
{ACAD_REACTORS
330
409
102
}
330
409
100
AcDbScale
 70
     0
300
1/2" = 1'-0"
140
0.5
141
12.0
290
     0
  0
SCALE
  5
415
102
{ACAD_REACTORS
330
409
102
}
330
409
100
AcDbScale
 70
     0
300
3/4" = 1'-0"
140
0.75
141
12.0
290
     0
  0
SCALE
  5
416
102
{ACAD_REACTORS
330
409
102
}
330
409
100
AcDbScale
 70
     0
300
1" = 1'-0"
140
1.0
141
12.0
290
     0
  0
SCALE
  5
417
102
{ACAD_REACTORS
330
409
102
}
330
409
100
AcDbScale
 70
     0
300
1-1/2" = 1'-0"
140
1.5
141
12.0
290
     0
  0
SCALE
  5
418
102
{ACAD_REACTORS
330
409
102
}
330
409
100
AcDbScale
 70
     0
300
3" = 1'-0"
140
3.0
141
12.0
290
     0
  0
SCALE
  5
419
102
{ACAD_REACTORS
330
409
102
}
330
409
100
AcDbScale
 70
     0
300
6" = 1'-0"
140
6.0
141
12.0
290
     0
  0
SCALE
  5
41A
102
{ACAD_REACTORS
330
409
102
}
330
409
100
AcDbScale
 70
     0
300
1'-0" = 1'-0"
140
12.0
141
12.0
290
     0
  0
ACDBSECTIONVIEWSTYLE
  5
41E
102
{ACAD_XDICTIONARY
360
45C
102
}
102
{ACAD_REACTORS
330
41D
102
}
330
41D
100
AcDbModelDocViewStyle
 70
     0
  3
Imperial24
290
     0
100
AcDbSectionViewStyle
 70
     0
 71
     0
 90
       78
 71
     1
340
11
 62
   256
 40
0.24
340
0
340
0
 62
   256
 40
0.24
300
I, O, Q, S, X, Z
 40
0.48
 90
        3
 40
0.18
 90
        1
 71
     2
340
15
 90
       25
 62
   256
340
15
 90
       50
 62
   256
 40
0.24
 40
0.0
 40
0.24
 71
     3
340
11
 62
   256
 40
0.24
 90
        1
 40
0.75
 90
        1
300
%<\AcVar ViewType \f "%tc1">% %<\AcVar ViewSectionStartId>%-%<\AcVar ViewSectionEndId>%\PVARIA %<\AcVar ViewScale \f "%sn">%
 71
     4
 62
   256
 62
   257
300
ANSI31
 40
1.0
 90
        0
290
     0
290
     0
 90
        6
 40
0.0
 40
1.570796326794896
 40
0.2617993877991494
 40
1.308996938995747
 40
-0.2617993877991494
 40
1.832595714594046
  0
TABLESTYLE
  5
408
102
{ACAD_XDICTIONARY
360
4A2
102
}
102
{ACAD_REACTORS
330
407
102
}
330
407
100
AcDbTableStyle
280
     0
  3
Standard
 70
     0
 71
     0
 40
0.06
 41
0.06
280
     0
281
     0
  7
STANDARD
140
0.18
170
     2
 62
     0
 63
     7
283
     0
 90
      512
 91
        0
  1

274
    -2
284
     1
 64
     0
275
    -2
285
     1
 65
     0
276
    -2
286
     1
 66
     0
277
    -2
287
     1
 67
     0
278
    -2
288
     1
 68
     0
279
    -2
289
     1
 69
     0
  7
STANDARD
140
0.25
170
     5
 62
     0
 63
     7
283
     0
 90
      512
 91
        0
  1

274
    -2
284
     1
 64
     0
275
    -2
285
     1
 65
     0
276
    -2
286
     1
 66
     0
277
    -2
287
     1
 67
     0
278
    -2
288
     1
 68
     0
279
    -2
289
     1
 69
     0
  7
STANDARD
140
0.18
170
     5
 62
     0
 63
     7
283
     0
 90
      512
 91
        0
  1

274
    -2
284
     1
 64
     0
275
    -2
285
     1
 65
     0
276
    -2
286
     1
 66
     0
277
    -2
287
     1
 67
     0
278
    -2
288
     1
 68
     0
279
    -2
289
     1
 69
     0
  0
VISUALSTYLE
  5
3F4
102
{ACAD_REACTORS
330
3EE
102
}
330
3EE
100
AcDbVisualStyle
  2
2dWireframe
 70
     4
177
     3
291
     0
 70
    58
 90
        0
176
     1
 90
        2
176
     1
 90
        0
176
     1
 90
        0
176
     1
 40
0.6
176
     1
 40
30.0
176
     1
 62
     7
420
 16777215
176
     1
 90
        1
176
     1
 90
        4
176
     1
 62
     7
176
     1
 62
   257
176
     1
 90
        1
176
     1
 90
        1
176
     1
 40
1.0
176
     1
 90
        0
176
     1
 62
   257
176
     1
 40
1.0
176
     1
 90
        1
176
     1
 90
        6
176
     1
 90
        2
176
     1
 62
     7
176
     1
 90
        5
176
     1
 90
        0
176
     1
 90
        0
176
     1
290
     0
176
     1
 90
        1
176
     1
 40
0.0
176
     1
 90
        0
176
     1
290
     1
176
     1
290
     1
176
     1
290
     0
176
     1
290
     0
176
     1
290
     0
176
     1
290
     0
176
     1
290
     0
176
     1
290
     0
176
     1
290
     0
176
     1
 90
       50
176
     1
 40
0.0
176
     1
 40
1.0
176
     1
 90
        0
176
     1
 62
    18
420
        0
176
     1
 90
       50
176
     1
 90
        3
176
     1
 62
     5
420
      255
176
     1
290
     0
176
     1
 90
       50
176
     1
 90
       50
176
     1
 90
       50
176
     1
290
     0
176
     1
 90
       50
176
     1
 62
   256
176
     0
 40
1.0
176
     0
 90
        2
176
     1
  1
strokes_ogs.tif
176
     1
290
     0
176
     1
 40
1.0
176
     1
 40
1.0
176
     1
  0
VISUALSTYLE
  5
3F3
102
{ACAD_REACTORS
330
3EE
102
}
330
3EE
100
AcDbVisualStyle
  2
Basic
 70
     7
177
     3
291
     1
 70
    58
 90
        1
176
     1
 90
        0
176
     1
 90
        1
176
     1
 90
        0
176
     1
 40
0.6
176
     1
 40
30.0
176
     1
 62
     7
420
 16777215
176
     1
 90
        0
176
     1
 90
        4
176
     1
 62
     7
176
     1
 62
   257
176
     1
 90
        1
176
     1
 90
        1
176
     1
 40
1.0
176
     1
 90
        8
176
     1
 62
     7
176
     1
 40
1.0
176
     1
 90
        1
176
     1
 90
        6
176
     1
 90
        2
176
     1
 62
     7
176
     1
 90
        5
176
     1
 90
        0
176
     1
 90
        0
176
     1
290
     0
176
     1
 90
        1
176
     1
 40
0.0
176
     1
 90
        0
176
     1
290
     0
176
     1
290
     1
176
     1
290
     1
176
     1
290
     0
176
     1
290
     0
176
     1
290
     0
176
     1
290
     0
176
     1
290
     0
176
     1
290
     0
176
     1
 90
       50
176
     1
 40
0.0
176
     1
 40
1.0
176
     1
 90
        0
176
     1
 62
    18
420
        0
176
     1
 90
       50
176
     1
 90
        3
176
     1
 62
     5
420
      255
176
     1
290
     0
176
     1
 90
       50
176
     1
 90
       50
176
     1
 90
       50
176
     1
290
     0
176
     1
 90
       50
176
     1
 62
   256
176
     0
 40
1.0
176
     0
 90
        2
176
     1
  1
strokes_ogs.tif
176
     1
290
     0
176
     1
 40
1.0
176
     1
 40
1.0
176
     1
  0
VISUALSTYLE
  5
3FA
102
{ACAD_REACTORS
330
3EE
102
}
330
3EE
100
AcDbVisualStyle
  2
Brighten
 70
    12
177
     3
291
     1
 70
    58
 90
        2
176
     1
 90
        2
176
     1
 90
        0
176
     1
 90
        0
176
     1
 40
0.6
176
     1
 40
30.0
176
     1
 62
     7
420
 16777215
176
     1
 90
        1
176
     1
 90
        4
176
     1
 62
     7
176
     1
 62
   257
176
     1
 90
        1
176
     1
 90
        1
176
     1
 40
1.0
176
     1
 90
        8
176
     1
 62
     7
176
     1
 40
1.0
176
     1
 90
        1
176
     1
 90
        6
176
     1
 90
        2
176
     1
 62
     7
176
     1
 90
        5
176
     1
 90
        0
176
     1
 90
        0
176
     1
290
     0
176
     1
 90
        1
176
     1
 40
50.0
176
     1
 90
        0
176
     1
290
     0
176
     1
290
     1
176
     1
290
     1
176
     1
290
     0
176
     1
290
     0
176
     1
290
     0
176
     1
290
     0
176
     1
290
     0
176
     1
290
     0
176
     1
 90
       50
176
     1
 40
0.0
176
     1
 40
1.0
176
     1
 90
        0
176
     1
 62
    18
420
        0
176
     1
 90
       50
176
     1
 90
        3
176
     1
 62
     5
420
      255
176
     1
290
     0
176
     1
 90
       50
176
     1
 90
       50
176
     1
 90
       50
176
     1
290
     0
176
     1
 90
       50
176
     1
 62
   256
176
     0
 40
1.0
176
     0
 90
        2
176
     1
  1
strokes_ogs.tif
176
     1
290
     0
176
     1
 40
1.0
176
     1
 40
1.0
176
     1
  0
VISUALSTYLE
  5
3FE
102
{ACAD_REACTORS
330
3EE
102
}
330
3EE
100
AcDbVisualStyle
  2
ColorChange
 70
    16
177
     3
291
     1
 70
    58
 90
        2
176
     1
 90
        2
176
     1
 90
        3
176
     1
 90
        0
176
     1
 40
0.6
176
     1
 40
30.0
176
     1
 62
     8
420
  8421504
176
     1
 90
        1
176
     1
 90
        4
176
     1
 62
     7
176
     1
 62
   257
176
     1
 90
        1
176
     1
 90
        1
176
     1
 40
1.0
176
     1
 90
        8
176
     1
 62
     8
420
  8421504
176
     1
 40
1.0
176
     1
 90
        1
176
     1
 90
        6
176
     1
 90
        2
176
     1
 62
     7
176
     1
 90
        5
176
     1
 90
        0
176
     1
 90
        0
176
     1
290
     0
176
     1
 90
        1
176
     1
 40
0.0
176
     1
 90
        0
176
     1
290
     0
176
     1
290
     1
176
     1
290
     1
176
     1
290
     0
176
     1
290
     0
176
     1
290
     0
176
     1
290
     0
176
     1
290
     0
176
     1
290
     0
176
     1
 90
       50
176
     1
 40
0.0
176
     1
 40
1.0
176
     1
 90
        0
176
     1
 62
    18
420
        0
176
     1
 90
       50
176
     1
 90
        3
176
     1
 62
     5
420
      255
176
     1
290
     0
176
     1
 90
       50
176
     1
 90
       50
176
     1
 90
       50
176
     1
290
     0
176
     1
 90
       50
176
     1
 62
   256
176
     0
 40
1.0
176
     0
 90
        2
176
     1
  1
strokes_ogs.tif
176
     1
290
     0
176
     1
 40
1.0
176
     1
 40
1.0
176
     1
  0
VISUALSTYLE
  5
3F7
102
{ACAD_REACTORS
330
3EE
102
}
330
3EE
100
AcDbVisualStyle
  2
Conceptual
 70
     9
177
     3
291
     0
 70
    58
 90
        3
176
     1
 90
        2
176
     1
 90
        0
176
     1
 90
        0
176
     1
 40
0.6
176
     1
 40
30.0
176
     1
 62
     7
420
 16777215
176
     1
 90
        2
176
     1
 90
        2
176
     1
 62
     7
176
     1
 62
   257
176
     1
 90
        1
176
     1
 90
        1
176
     1
 40
179.0
176
     1
 90
        8
176
     1
 62
     7
176
     1
 40
1.0
176
     1
 90
        1
176
     1
 90
        6
176
     1
 90
        2
176
     1
 62
     7
176
     1
 90
        3
176
     1
 90
        0
176
     1
 90
        0
176
     1
290
     0
176
     1
 90
        1
176
     1
 40
0.0
176
     1
 90
        0
176
     1
290
     0
176
     1
290
     1
176
     1
290
     1
176
     1
290
     0
176
     1
290
     0
176
     1
290
     0
176
     1
290
     0
176
     1
290
     0
176
     1
290
     0
176
     1
 90
       50
176
     1
 40
0.0
176
     1
 40
1.0
176
     1
 90
        0
176
     1
 62
    18
420
        0
176
     1
 90
       50
176
     1
 90
        3
176
     1
 62
     5
420
      255
176
     1
290
     0
176
     1
 90
       50
176
     1
 90
       50
176
     1
 90
       50
176
     1
290
     0
176
     1
 90
       50
176
     1
 62
   256
176
     0
 40
1.0
176
     0
 90
        2
176
     1
  1
strokes_ogs.tif
176
     1
290
     0
176
     1
 40
1.0
176
     1
 40
1.0
176
     1
  0
VISUALSTYLE
  5
3F9
102
{ACAD_REACTORS
330
3EE
102
}
330
3EE
100
AcDbVisualStyle
  2
Dim
 70
    11
177
     3
291
     1
 70
    58
 90
        2
176
     1
 90
        2
176
     1
 90
        0
176
     1
 90
        0
176
     1
 40
0.6
176
     1
 40
30.0
176
     1
 62
     7
420
 16777215
176
     1
 90
        1
176
     1
 90
        4
176
     1
 62
     7
176
     1
 62
   257
176
     1
 90
        1
176
     1
 90
        1
176
     1
 40
1.0
176
     1
 90
        8
176
     1
 62
     7
176
     1
 40
1.0
176
     1
 90
        1
176
     1
 90
        6
176
     1
 90
        2
176
     1
 62
     7
176
     1
 90
        5
176
     1
 90
        0
176
     1
 90
        0
176
     1
290
     0
176
     1
 90
        1
176
     1
 40
-50.0
176
     1
 90
        0
176
     1
290
     0
176
     1
290
     1
176
     1
290
     1
176
     1
290
     0
176
     1
290
     0
176
     1
290
     0
176
     1
290
     0
176
     1
290
     0
176
     1
290
     0
176
     1
 90
       50
176
     1
 40
0.0
176
     1
 40
1.0
176
     1
 90
        0
176
     1
 62
    18
420
        0
176
     1
 90
       50
176
     1
 90
        3
176
     1
 62
     5
420
      255
176
     1
290
     0
176
     1
 90
       50
176
     1
 90
       50
176
     1
 90
       50
176
     1
290
     0
176
     1
 90
       50
176
     1
 62
   256
176
     0
 40
1.0
176
     0
 90
        2
176
     1
  1
strokes_ogs.tif
176
     1
290
     0
176
     1
 40
1.0
176
     1
 40
1.0
176
     1
  0
VISUALSTYLE
  5
406
102
{ACAD_REACTORS
330
3EE
102
}
330
3EE
100
AcDbVisualStyle
  2
EdgeColorOff
 70
    22
177
     3
291
     1
 70
    58
 90
        2
176
     0
 90
        2
176
     0
 90
        0
176
     0
 90
        0
176
     0
 40
0.6
176
     0
 40
30.0
176
     0
 62
     7
420
 16777215
176
     0
 90
        1
176
     0
 90
        4
176
     0
 62
     7
176
     0
 62
   257
176
     0
 90
        1
176
     0
 90
        1
176
     0
 40
1.0
176
     0
 90
        8
176
     2
 62
     7
176
     0
 40
1.0
176
     0
 90
        1
176
     0
 90
        6
176
     0
 90
        2
176
     0
 62
     7
176
     0
 90
        5
176
     0
 90
        0
176
     0
 90
        0
176
     0
290
     0
176
     0
 90
        1
176
     0
 40
0.0
176
     0
 90
        0
176
     0
290
     0
176
     0
290
     1
176
     0
290
     1
176
     0
290
     0
176
     0
290
     0
176
     0
290
     0
176
     0
290
     0
176
     0
290
     0
176
     0
290
     0
176
     0
 90
       50
176
     0
 40
0.0
176
     0
 40
1.0
176
     0
 90
        0
176
     0
 62
    18
420
        0
176
     0
 90
       50
176
     0
 90
        3
176
     0
 62
     5
420
      255
176
     0
290
     0
176
     0
 90
       50
176
     0
 90
       50
176
     0
 90
       50
176
     0
290
     0
176
     0
 90
       50
176
     0
 62
   256
176
     0
 40
1.0
176
     0
 90
        2
176
     0
  1
strokes_ogs.tif
176
     0
290
     0
176
     0
 40
1.0
176
     0
 40
1.0
176
     0
  0
VISUALSTYLE
  5
3FD
102
{ACAD_REACTORS
330
3EE
102
}
330
3EE
100
AcDbVisualStyle
  2
Facepattern
 70
    15
177
     3
291
     1
 70
    58
 90
        2
176
     1
 90
        2
176
     1
 90
        0
176
     1
 90
        0
176
     1
 40
0.6
176
     1
 40
30.0
176
     1
 62
     7
420
 16777215
176
     1
 90
        1
176
     1
 90
        4
176
     1
 62
     7
176
     1
 62
   257
176
     1
 90
        1
176
     1
 90
        1
176
     1
 40
1.0
176
     1
 90
        8
176
     1
 62
     7
176
     1
 40
1.0
176
     1
 90
        1
176
     1
 90
        6
176
     1
 90
        2
176
     1
 62
     7
176
     1
 90
        5
176
     1
 90
        0
176
     1
 90
        0
176
     1
290
     0
176
     1
 90
        1
176
     1
 40
0.0
176
     1
 90
        0
176
     1
290
     0
176
     1
290
     1
176
     1
290
     1
176
     1
290
     0
176
     1
290
     0
176
     1
290
     0
176
     1
290
     0
176
     1
290
     0
176
     1
290
     0
176
     1
 90
       50
176
     1
 40
0.0
176
     1
 40
1.0
176
     1
 90
        0
176
     1
 62
    18
420
        0
176
     1
 90
       50
176
     1
 90
        3
176
     1
 62
     5
420
      255
176
     1
290
     0
176
     1
 90
       50
176
     1
 90
       50
176
     1
 90
       50
176
     1
290
     0
176
     1
 90
       50
176
     1
 62
   256
176
     0
 40
1.0
176
     0
 90
        2
176
     1
  1
strokes_ogs.tif
176
     1
290
     0
176
     1
 40
1.0
176
     1
 40
1.0
176
     1
  0
VISUALSTYLE
  5
3EF
102
{ACAD_REACTORS
330
3EE
102
}
330
3EE
100
AcDbVisualStyle
  2
Flat
 70
     0
177
     3
291
     1
 70
    58
 90
        2
176
     1
 90
        1
176
     1
 90
        1
176
     1
 90
        2
176
     1
 40
0.6
176
     1
 40
30.0
176
     1
 62
     7
420
 16777215
176
     1
 90
        0
176
     1
 90
        0
176
     1
 62
     7
176
     1
 62
   257
176
     1
 90
        1
176
     1
 90
        1
176
     1
 40
1.0
176
     1
 90
        8
176
     1
 62
     7
176
     1
 40
1.0
176
     1
 90
        1
176
     1
 90
        6
176
     1
 90
        2
176
     1
 62
     7
176
     1
 90
        5
176
     1
 90
        0
176
     1
 90
        0
176
     1
290
     0
176
     1
 90
       13
176
     1
 40
0.0
176
     1
 90
        0
176
     1
290
     0
176
     1
290
     1
176
     1
290
     1
176
     1
290
     0
176
     1
290
     0
176
     1
290
     0
176
     1
290
     0
176
     1
290
     0
176
     1
290
     0
176
     1
 90
       50
176
     1
 40
0.0
176
     1
 40
1.0
176
     1
 90
        0
176
     1
 62
    18
420
        0
176
     1
 90
       50
176
     1
 90
        3
176
     1
 62
     5
420
      255
176
     1
290
     0
176
     1
 90
       50
176
     1
 90
       50
176
     1
 90
       50
176
     1
290
     0
176
     1
 90
       50
176
     1
 62
   256
176
     0
 40
1.0
176
     0
 90
        2
176
     1
  1
strokes_ogs.tif
176
     1
290
     0
176
     1
 40
1.0
176
     1
 40
1.0
176
     1
  0
VISUALSTYLE
  5
3F0
102
{ACAD_REACTORS
330
3EE
102
}
330
3EE
100
AcDbVisualStyle
  2
FlatWithEdges
 70
     1
177
     3
291
     1
 70
    58
 90
        2
176
     1
 90
        1
176
     1
 90
        1
176
     1
 90
        2
176
     1
 40
0.6
176
     1
 40
30.0
176
     1
 62
     7
420
 16777215
176
     1
 90
        1
176
     1
 90
        0
176
     1
 62
     7
176
     1
 62
   257
176
     1
 90
        1
176
     1
 90
        1
176
     1
 40
1.0
176
     1
 90
        0
176
     1
 62
   257
176
     1
 40
1.0
176
     1
 90
        1
176
     1
 90
        6
176
     1
 90
        2
176
     1
 62
     7
176
     1
 90
        5
176
     1
 90
        0
176
     1
 90
        0
176
     1
290
     0
176
     1
 90
       13
176
     1
 40
0.0
176
     1
 90
        0
176
     1
290
     0
176
     1
290
     1
176
     1
290
     1
176
     1
290
     0
176
     1
290
     0
176
     1
290
     0
176
     1
290
     0
176
     1
290
     0
176
     1
290
     0
176
     1
 90
       50
176
     1
 40
0.0
176
     1
 40
1.0
176
     1
 90
        0
176
     1
 62
    18
420
        0
176
     1
 90
       50
176
     1
 90
        3
176
     1
 62
     5
420
      255
176
     1
290
     0
176
     1
 90
       50
176
     1
 90
       50
176
     1
 90
       50
176
     1
290
     0
176
     1
 90
       50
176
     1
 62
   256
176
     0
 40
1.0
176
     0
 90
        2
176
     1
  1
strokes_ogs.tif
176
     1
290
     0
176
     1
 40
1.0
176
     1
 40
1.0
176
     1
  0
VISUALSTYLE
  5
3F1
102
{ACAD_REACTORS
330
3EE
102
}
330
3EE
100
AcDbVisualStyle
  2
Gouraud
 70
     2
177
     3
291
     1
 70
    58
 90
        2
176
     1
 90
        2
176
     1
 90
        1
176
     1
 90
        2
176
     1
 40
0.6
176
     1
 40
30.0
176
     1
 62
     7
420
 16777215
176
     1
 90
        0
176
     1
 90
        0
176
     1
 62
     7
176
     1
 62
   257
176
     1
 90
        1
176
     1
 90
        1
176
     1
 40
1.0
176
     1
 90
        0
176
     1
 62
     7
176
     1
 40
1.0
176
     1
 90
        1
176
     1
 90
        6
176
     1
 90
        2
176
     1
 62
     7
176
     1
 90
        5
176
     1
 90
        0
176
     1
 90
        0
176
     1
290
     0
176
     1
 90
       13
176
     1
 40
0.0
176
     1
 90
        0
176
     1
290
     0
176
     1
290
     1
176
     1
290
     1
176
     1
290
     0
176
     1
290
     0
176
     1
290
     0
176
     1
290
     0
176
     1
290
     0
176
     1
290
     0
176
     1
 90
       50
176
     1
 40
0.0
176
     1
 40
1.0
176
     1
 90
        0
176
     1
 62
    18
420
        0
176
     1
 90
       50
176
     1
 90
        3
176
     1
 62
     5
420
      255
176
     1
290
     0
176
     1
 90
       50
176
     1
 90
       50
176
     1
 90
       50
176
     1
290
     0
176
     1
 90
       50
176
     1
 62
   256
176
     0
 40
1.0
176
     0
 90
        2
176
     1
  1
strokes_ogs.tif
176
     1
290
     0
176
     1
 40
1.0
176
     1
 40
1.0
176
     1
  0
VISUALSTYLE
  5
3F2
102
{ACAD_REACTORS
330
3EE
102
}
330
3EE
100
AcDbVisualStyle
  2
GouraudWithEdges
 70
     3
177
     3
291
     1
 70
    58
 90
        2
176
     1
 90
        2
176
     1
 90
        1
176
     1
 90
        2
176
     1
 40
0.6
176
     1
 40
30.0
176
     1
 62
     7
420
 16777215
176
     1
 90
        1
176
     1
 90
        0
176
     1
 62
     7
176
     1
 62
   257
176
     1
 90
        1
176
     1
 90
        1
176
     1
 40
1.0
176
     1
 90
        0
176
     1
 62
   257
176
     1
 40
1.0
176
     1
 90
        1
176
     1
 90
        6
176
     1
 90
        2
176
     1
 62
     7
176
     1
 90
        5
176
     1
 90
        0
176
     1
 90
        0
176
     1
290
     0
176
     1
 90
       13
176
     1
 40
0.0
176
     1
 90
        0
176
     1
290
     0
176
     1
290
     1
176
     1
290
     1
176
     1
290
     0
176
     1
290
     0
176
     1
290
     0
176
     1
290
     0
176
     1
290
     0
176
     1
290
     0
176
     1
 90
       50
176
     1
 40
0.0
176
     1
 40
1.0
176
     1
 90
        0
176
     1
 62
    18
420
        0
176
     1
 90
       50
176
     1
 90
        3
176
     1
 62
     5
420
      255
176
     1
290
     0
176
     1
 90
       50
176
     1
 90
       50
176
     1
 90
       50
176
     1
290
     0
176
     1
 90
       50
176
     1
 62
   256
176
     0
 40
1.0
176
     0
 90
        2
176
     1
  1
strokes_ogs.tif
176
     1
290
     0
176
     1
 40
1.0
176
     1
 40
1.0
176
     1
  0
VISUALSTYLE
  5
3F6
102
{ACAD_REACTORS
330
3EE
102
}
330
3EE
100
AcDbVisualStyle
  2
Hidden
 70
     6
177
     3
291
     0
 70
    58
 90
        1
176
     1
 90
        2
176
     1
 90
        2
176
     1
 90
        0
176
     1
 40
0.6
176
     1
 40
30.0
176
     1
 62
     7
420
 16777215
176
     1
 90
        2
176
     1
 90
        2
176
     1
 62
     7
176
     1
 62
   257
176
     1
 90
        2
176
     1
 90
        1
176
     1
 40
40.0
176
     1
 90
        0
176
     1
 62
   257
176
     1
 40
1.0
176
     1
 90
        1
176
     1
 90
        6
176
     1
 90
        2
176
     1
 62
     7
176
     1
 90
        3
176
     1
 90
        0
176
     1
 90
        0
176
     1
290
     0
176
     1
 90
        1
176
     1
 40
0.0
176
     1
 90
        0
176
     1
290
     0
176
     1
290
     1
176
     1
290
     1
176
     1
290
     0
176
     1
290
     0
176
     1
290
     0
176
     1
290
     0
176
     1
290
     0
176
     1
290
     0
176
     1
 90
       50
176
     1
 40
0.0
176
     1
 40
1.0
176
     1
 90
        0
176
     1
 62
    18
420
        0
176
     1
 90
       50
176
     1
 90
        3
176
     1
 62
     5
420
      255
176
     1
290
     0
176
     1
 90
       50
176
     1
 90
       50
176
     1
 90
       50
176
     1
290
     0
176
     1
 90
       50
176
     1
 62
   256
176
     0
 40
1.0
176
     0
 90
        2
176
     1
  1
strokes_ogs.tif
176
     1
290
     0
176
     1
 40
1.0
176
     1
 40
1.0
176
     1
  0
VISUALSTYLE
  5
404
102
{ACAD_REACTORS
330
3EE
102
}
330
3EE
100
AcDbVisualStyle
  2
JitterOff
 70
    20
177
     3
291
     1
 70
    58
 90
        2
176
     0
 90
        2
176
     0
 90
        0
176
     0
 90
        0
176
     0
 40
0.6
176
     0
 40
30.0
176
     0
 62
     7
420
 16777215
176
     0
 90
        1
176
     0
 90
        4
176
     0
 62
     7
176
     0
 62
   257
176
     0
 90
        1
176
     0
 90
        1
176
     0
 40
1.0
176
     0
 90
       10
176
     2
 62
     7
176
     0
 40
1.0
176
     0
 90
        1
176
     0
 90
        6
176
     0
 90
        2
176
     0
 62
     7
176
     0
 90
        5
176
     0
 90
        0
176
     0
 90
        0
176
     0
290
     0
176
     0
 90
        1
176
     0
 40
0.0
176
     0
 90
        0
176
     0
290
     0
176
     0
290
     1
176
     0
290
     1
176
     0
290
     0
176
     0
290
     0
176
     0
290
     0
176
     0
290
     0
176
     0
290
     0
176
     0
290
     0
176
     0
 90
       50
176
     0
 40
0.0
176
     0
 40
1.0
176
     0
 90
        0
176
     0
 62
    18
420
        0
176
     0
 90
       50
176
     0
 90
        3
176
     0
 62
     5
420
      255
176
     0
290
     0
176
     0
 90
       50
176
     0
 90
       50
176
     0
 90
       50
176
     0
290
     0
176
     0
 90
       50
176
     0
 62
   256
176
     0
 40
1.0
176
     0
 90
        2
176
     0
  1
strokes_ogs.tif
176
     0
290
     0
176
     0
 40
1.0
176
     0
 40
1.0
176
     0
  0
VISUALSTYLE
  5
3FC
102
{ACAD_REACTORS
330
3EE
102
}
330
3EE
100
AcDbVisualStyle
  2
Linepattern
 70
    14
177
     3
291
     1
 70
    58
 90
        2
176
     1
 90
        2
176
     1
 90
        0
176
     1
 90
        0
176
     1
 40
0.6
176
     1
 40
30.0
176
     1
 62
     7
420
 16777215
176
     1
 90
        1
176
     1
 90
        4
176
     1
 62
     7
176
     1
 62
   257
176
     1
 90
        7
176
     1
 90
        7
176
     1
 40
1.0
176
     1
 90
        8
176
     1
 62
     7
176
     1
 40
1.0
176
     1
 90
        1
176
     1
 90
        6
176
     1
 90
        2
176
     1
 62
     7
176
     1
 90
        5
176
     1
 90
        0
176
     1
 90
        0
176
     1
290
     0
176
     1
 90
        1
176
     1
 40
0.0
176
     1
 90
        0
176
     1
290
     0
176
     1
290
     1
176
     1
290
     1
176
     1
290
     0
176
     1
290
     0
176
     1
290
     0
176
     1
290
     0
176
     1
290
     0
176
     1
290
     0
176
     1
 90
       50
176
     1
 40
0.0
176
     1
 40
1.0
176
     1
 90
        0
176
     1
 62
    18
420
        0
176
     1
 90
       50
176
     1
 90
        3
176
     1
 62
     5
420
      255
176
     1
290
     0
176
     1
 90
       50
176
     1
 90
       50
176
     1
 90
       50
176
     1
290
     0
176
     1
 90
       50
176
     1
 62
   256
176
     0
 40
1.0
176
     0
 90
        2
176
     1
  1
strokes_ogs.tif
176
     1
290
     0
176
     1
 40
1.0
176
     1
 40
1.0
176
     1
  0
VISUALSTYLE
  5
405
102
{ACAD_REACTORS
330
3EE
102
}
330
3EE
100
AcDbVisualStyle
  2
OverhangOff
 70
    21
177
     3
291
     1
 70
    58
 90
        2
176
     0
 90
        2
176
     0
 90
        0
176
     0
 90
        0
176
     0
 40
0.6
176
     0
 40
30.0
176
     0
 62
     7
420
 16777215
176
     0
 90
        1
176
     0
 90
        4
176
     0
 62
     7
176
     0
 62
   257
176
     0
 90
        1
176
     0
 90
        1
176
     0
 40
1.0
176
     0
 90
        9
176
     2
 62
     7
176
     0
 40
1.0
176
     0
 90
        1
176
     0
 90
        6
176
     0
 90
        2
176
     0
 62
     7
176
     0
 90
        5
176
     0
 90
        0
176
     0
 90
        0
176
     0
290
     0
176
     0
 90
        1
176
     0
 40
0.0
176
     0
 90
        0
176
     0
290
     0
176
     0
290
     1
176
     0
290
     1
176
     0
290
     0
176
     0
290
     0
176
     0
290
     0
176
     0
290
     0
176
     0
290
     0
176
     0
290
     0
176
     0
 90
       50
176
     0
 40
0.0
176
     0
 40
1.0
176
     0
 90
        0
176
     0
 62
    18
420
        0
176
     0
 90
       50
176
     0
 90
        3
176
     0
 62
     5
420
      255
176
     0
290
     0
176
     0
 90
       50
176
     0
 90
       50
176
     0
 90
       50
176
     0
290
     0
176
     0
 90
       50
176
     0
 62
   256
176
     0
 40
1.0
176
     0
 90
        2
176
     0
  1
strokes_ogs.tif
176
     0
290
     0
176
     0
 40
1.0
176
     0
 40
1.0
176
     0
  0
VISUALSTYLE
  5
3F8
102
{ACAD_REACTORS
330
3EE
102
}
330
3EE
100
AcDbVisualStyle
  2
Realistic
 70
     8
177
     3
291
     0
 70
    58
 90
        2
176
     1
 90
        3
176
     1
 90
        0
176
     1
 90
        2
176
     1
 40
0.6
176
     1
 40
30.0
176
     1
 62
     7
420
 16777215
176
     1
 90
        0
176
     1
 90
        0
176
     1
 62
     7
176
     1
 62
   257
176
     1
 90
        1
176
     1
 90
        1
176
     1
 40
1.0
176
     1
 90
        8
176
     1
 62
   257
176
     1
 40
1.0
176
     1
 90
        1
176
     1
 90
        6
176
     1
 90
        2
176
     1
 62
     7
176
     1
 90
        3
176
     1
 90
        0
176
     1
 90
        0
176
     1
290
     0
176
     1
 90
       13
176
     1
 40
0.0
176
     1
 90
        0
176
     1
290
     0
176
     1
290
     1
176
     1
290
     1
176
     1
290
     0
176
     1
290
     0
176
     1
290
     0
176
     1
290
     0
176
     1
290
     0
176
     1
290
     0
176
     1
 90
       50
176
     1
 40
0.0
176
     1
 40
1.0
176
     1
 90
        0
176
     1
 62
    18
420
        0
176
     1
 90
       50
176
     1
 90
        3
176
     1
 62
     5
420
      255
176
     1
290
     0
176
     1
 90
       50
176
     1
 90
       50
176
     1
 90
       50
176
     1
290
     0
176
     1
 90
       50
176
     1
 62
   256
176
     0
 40
1.0
176
     0
 90
        2
176
     1
  1
strokes_ogs.tif
176
     1
290
     0
176
     1
 40
1.0
176
     1
 40
1.0
176
     1
  0
VISUALSTYLE
  5
403
102
{ACAD_REACTORS
330
3EE
102
}
330
3EE
100
AcDbVisualStyle
  2
Shaded
 70
    27
177
     3
291
     0
 70
    58
 90
        2
176
     1
 90
        2
176
     1
 90
        1
176
     1
 90
        2
176
     1
 40
0.6
176
     1
 40
30.0
176
     1
 62
     7
420
 16777215
176
     1
 90
        0
176
     1
 90
        4
176
     1
 62
     7
176
     1
 62
   257
176
     1
 90
        1
176
     1
 90
        1
176
     1
 40
1.0
176
     1
 90
        8
176
     1
 62
   257
176
     1
 40
1.0
176
     1
 90
        1
176
     1
 90
        6
176
     1
 90
        2
176
     1
 62
     8
420
  7895160
176
     1
 90
        3
176
     1
 90
        0
176
     1
 90
        0
176
     1
290
     0
176
     1
 90
        5
176
     1
 40
0.0
176
     1
 90
        0
176
     1
290
     0
176
     1
290
     1
176
     1
290
     1
176
     1
290
     0
176
     1
290
     0
176
     1
290
     0
176
     1
290
     0
176
     1
290
     0
176
     1
290
     0
176
     1
 90
       50
176
     1
 40
0.0
176
     1
 40
1.0
176
     1
 90
        0
176
     1
 62
    18
420
        0
176
     1
 90
       50
176
     1
 90
        3
176
     1
 62
     5
420
      255
176
     1
290
     0
176
     1
 90
       50
176
     1
 90
       50
176
     1
 90
       50
176
     1
290
     0
176
     1
 90
       50
176
     1
 62
   256
176
     0
 40
1.0
176
     0
 90
        2
176
     1
  1
strokes_ogs.tif
176
     1
290
     0
176
     1
 40
1.0
176
     1
 40
1.0
176
     1
  0
VISUALSTYLE
  5
402
102
{ACAD_REACTORS
330
3EE
102
}
330
3EE
100
AcDbVisualStyle
  2
Shaded with edges
 70
    26
177
     3
291
     0
 70
    58
 90
        2
176
     1
 90
        2
176
     1
 90
        1
176
     1
 90
        2
176
     1
 40
0.6
176
     1
 40
30.0
176
     1
 62
     7
420
 16777215
176
     1
 90
        1
176
     1
 90
        2
176
     1
 62
     7
176
     1
 62
   257
176
     1
 90
        2
176
     1
 90
        1
176
     1
 40
1.0
176
     1
 90
        8
176
     1
 62
   257
176
     1
 40
1.0
176
     1
 90
        1
176
     1
 90
        6
176
     1
 90
        2
176
     1
 62
     7
176
     1
 90
        3
176
     1
 90
        0
176
     1
 90
        0
176
     1
290
     0
176
     1
 90
        5
176
     1
 40
0.0
176
     1
 90
        0
176
     1
290
     0
176
     1
290
     1
176
     1
290
     1
176
     1
290
     0
176
     1
290
     0
176
     1
290
     0
176
     1
290
     0
176
     1
290
     0
176
     1
290
     0
176
     1
 90
       50
176
     1
 40
0.0
176
     1
 40
1.0
176
     1
 90
        0
176
     1
 62
    18
420
        0
176
     1
 90
       50
176
     1
 90
        3
176
     1
 62
     5
420
      255
176
     1
290
     0
176
     1
 90
       50
176
     1
 90
       50
176
     1
 90
       50
176
     1
290
     0
176
     1
 90
       50
176
     1
 62
   256
176
     0
 40
1.0
176
     0
 90
        2
176
     1
  1
strokes_ogs.tif
176
     1
290
     0
176
     1
 40
1.0
176
     1
 40
1.0
176
     1
  0
VISUALSTYLE
  5
3FF
102
{ACAD_REACTORS
330
3EE
102
}
330
3EE
100
AcDbVisualStyle
  2
Shades of Gray
 70
    23
177
     3
291
     0
 70
    58
 90
        2
176
     1
 90
        2
176
     1
 90
        3
176
     1
 90
        0
176
     1
 40
0.6
176
     1
 40
30.0
176
     1
 62
     7
420
 16777215
176
     1
 90
        2
176
     1
 90
        2
176
     1
 62
     7
176
     1
 62
     7
176
     1
 90
        1
176
     1
 90
        1
176
     1
 40
40.0
176
     1
 90
        8
176
     1
 62
     7
176
     1
 40
1.0
176
     1
 90
        1
176
     1
 90
        6
176
     1
 90
        2
176
     1
 62
     7
176
     1
 90
        3
176
     1
 90
        0
176
     1
 90
        0
176
     1
290
     0
176
     1
 90
        1
176
     1
 40
0.0
176
     1
 90
        0
176
     1
290
     0
176
     1
290
     1
176
     1
290
     1
176
     1
290
     0
176
     1
290
     0
176
     1
290
     0
176
     1
290
     0
176
     1
290
     0
176
     1
290
     0
176
     1
 90
       50
176
     1
 40
0.0
176
     1
 40
1.0
176
     1
 90
        0
176
     1
 62
    18
420
        0
176
     1
 90
       50
176
     1
 90
        3
176
     1
 62
     5
420
      255
176
     1
290
     0
176
     1
 90
       50
176
     1
 90
       50
176
     1
 90
       50
176
     1
290
     0
176
     1
 90
       50
176
     1
 62
   256
176
     0
 40
1.0
176
     0
 90
        2
176
     1
  1
strokes_ogs.tif
176
     1
290
     0
176
     1
 40
1.0
176
     1
 40
1.0
176
     1
  0
VISUALSTYLE
  5
400
102
{ACAD_REACTORS
330
3EE
102
}
330
3EE
100
AcDbVisualStyle
  2
Sketchy
 70
    24
177
     3
291
     0
 70
    58
 90
        1
176
     1
 90
        2
176
     1
 90
        2
176
     1
 90
        0
176
     1
 40
0.6
176
     1
 40
30.0
176
     1
 62
     7
420
 16777215
176
     1
 90
        2
176
     1
 90
        2
176
     1
 62
     7
176
     1
 62
     7
176
     1
 90
        1
176
     1
 90
        1
176
     1
 40
40.0
176
     1
 90
       11
176
     1
 62
     7
176
     1
 40
1.0
176
     1
 90
        1
176
     1
 90
        6
176
     1
 90
        2
176
     1
 62
     7
176
     1
 90
        6
176
     1
 90
        0
176
     1
 90
        0
176
     1
290
     0
176
     1
 90
        1
176
     1
 40
0.0
176
     1
 90
        0
176
     1
290
     0
176
     1
290
     1
176
     1
290
     1
176
     1
290
     0
176
     1
290
     0
176
     1
290
     0
176
     1
290
     0
176
     1
290
     0
176
     1
290
     0
176
     1
 90
       50
176
     1
 40
0.0
176
     1
 40
1.0
176
     1
 90
        0
176
     1
 62
    18
420
        0
176
     1
 90
       50
176
     1
 90
        3
176
     1
 62
     5
420
      255
176
     1
290
     0
176
     1
 90
       50
176
     1
 90
       50
176
     1
 90
       50
176
     1
290
     0
176
     1
 90
       50
176
     1
 62
   256
176
     0
 40
1.0
176
     0
 90
        2
176
     1
  1
strokes_ogs.tif
176
     1
290
     0
176
     1
 40
1.0
176
     1
 40
1.0
176
     1
  0
VISUALSTYLE
  5
3FB
102
{ACAD_REACTORS
330
3EE
102
}
330
3EE
100
AcDbVisualStyle
  2
Thicken
 70
    13
177
     3
291
     1
 70
    58
 90
        2
176
     1
 90
        2
176
     1
 90
        0
176
     1
 90
        0
176
     1
 40
0.6
176
     1
 40
30.0
176
     1
 62
     7
420
 16777215
176
     1
 90
        1
176
     1
 90
        4
176
     1
 62
     7
176
     1
 62
   257
176
     1
 90
        1
176
     1
 90
        1
176
     1
 40
1.0
176
     1
 90
       12
176
     1
 62
     7
176
     1
 40
1.0
176
     1
 90
        1
176
     1
 90
        6
176
     1
 90
        2
176
     1
 62
     7
176
     1
 90
        5
176
     1
 90
        0
176
     1
 90
        0
176
     1
290
     0
176
     1
 90
        1
176
     1
 40
0.0
176
     1
 90
        0
176
     1
290
     0
176
     1
290
     1
176
     1
290
     1
176
     1
290
     0
176
     1
290
     0
176
     1
290
     0
176
     1
290
     0
176
     1
290
     0
176
     1
290
     0
176
     1
 90
       50
176
     1
 40
0.0
176
     1
 40
1.0
176
     1
 90
        0
176
     1
 62
    18
420
        0
176
     1
 90
       50
176
     1
 90
        3
176
     1
 62
     5
420
      255
176
     1
290
     0
176
     1
 90
       50
176
     1
 90
       50
176
     1
 90
       50
176
     1
290
     0
176
     1
 90
       50
176
     1
 62
   256
176
     0
 40
1.0
176
     0
 90
        2
176
     1
  1
strokes_ogs.tif
176
     1
290
     0
176
     1
 40
1.0
176
     1
 40
1.0
176
     1
  0
VISUALSTYLE
  5
3F5
102
{ACAD_REACTORS
330
3EE
102
}
330
3EE
100
AcDbVisualStyle
  2
Wireframe
 70
     5
177
     3
291
     0
 70
    58
 90
        0
176
     1
 90
        2
176
     1
 90
        0
176
     1
 90
        0
176
     1
 40
0.6
176
     1
 40
30.0
176
     1
 62
     7
420
 16777215
176
     1
 90
        1
176
     1
 90
        4
176
     1
 62
     7
176
     1
 62
   257
176
     1
 90
        1
176
     1
 90
        1
176
     1
 40
1.0
176
     1
 90
        0
176
     1
 62
   257
176
     1
 40
1.0
176
     1
 90
        1
176
     1
 90
        6
176
     1
 90
        2
176
     1
 62
     7
176
     1
 90
        3
176
     1
 90
        0
176
     1
 90
        0
176
     1
290
     0
176
     1
 90
        1
176
     1
 40
0.0
176
     1
 90
        0
176
     1
290
     0
176
     1
290
     1
176
     1
290
     1
176
     1
290
     0
176
     1
290
     0
176
     1
290
     0
176
     1
290
     0
176
     1
290
     0
176
     1
290
     0
176
     1
 90
       50
176
     1
 40
0.0
176
     1
 40
1.0
176
     1
 90
        0
176
     1
 62
    18
420
        0
176
     1
 90
       50
176
     1
 90
        3
176
     1
 62
     5
420
      255
176
     1
290
     0
176
     1
 90
       50
176
     1
 90
       50
176
     1
 90
       50
176
     1
290
     0
176
     1
 90
       50
176
     1
 62
   256
176
     0
 40
1.0
176
     0
 90
        2
176
     1
  1
strokes_ogs.tif
176
     1
290
     0
176
     1
 40
1.0
176
     1
 40
1.0
176
     1
  0
VISUALSTYLE
  5
401
102
{ACAD_REACTORS
330
3EE
102
}
330
3EE
100
AcDbVisualStyle
  2
X-Ray
 70
    25
177
     3
291
     0
 70
    58
 90
        2
176
     1
 90
        2
176
     1
 90
        1
176
     1
 90
        1
176
     1
 40
0.5
176
     1
 40
30.0
176
     1
 62
     7
420
 16777215
176
     1
 90
        1
176
     1
 90
        0
176
     1
 62
     7
176
     1
 62
   257
176
     1
 90
        1
176
     1
 90
        1
176
     1
 40
1.0
176
     1
 90
        8
176
     1
 62
     7
176
     1
 40
1.0
176
     1
 90
        1
176
     1
 90
        6
176
     1
 90
        2
176
     1
 62
     7
176
     1
 90
        3
176
     1
 90
        0
176
     1
 90
        0
176
     1
290
     0
176
     1
 90
       13
176
     1
 40
0.0
176
     1
 90
        0
176
     1
290
     0
176
     1
290
     1
176
     1
290
     1
176
     1
290
     0
176
     1
290
     0
176
     1
290
     0
176
     1
290
     0
176
     1
290
     0
176
     1
290
     0
176
     1
 90
       50
176
     1
 40
0.0
176
     1
 40
1.0
176
     1
 90
        0
176
     1
 62
    18
420
        0
176
     1
 90
       50
176
     1
 90
        3
176
     1
 62
     5
420
      255
176
     1
290
     0
176
     1
 90
       50
176
     1
 90
       50
176
     1
 90
       50
176
     1
290
     0
176
     1
 90
       50
176
     1
 62
   256
176
     0
 40
1.0
176
     0
 90
        2
176
     1
  1
strokes_ogs.tif
176
     1
290
     0
176
     1
 40
1.0
176
     1
 40
1.0
176
     1
  0
DICTIONARYVAR
  5
466
102
{ACAD_REACTORS
330
3AC
102
}
330
3AC
100
DictionaryVariables
280
     0
  1
1:1
  0
DICTIONARYVAR
  5
462
102
{ACAD_REACTORS
330
3AC
102
}
330
3AC
100
DictionaryVariables
280
     0
  1
STANDARD
  0
DICTIONARYVAR
  5
461
102
{ACAD_REACTORS
330
3AC
102
}
330
3AC
100
DictionaryVariables
280
     0
  1
STANDARD
  0
DICTIONARYVAR
  5
463
102
{ACAD_REACTORS
330
3AC
102
}
330
3AC
100
DictionaryVariables
280
     0
  1
Imperial24
  0
DICTIONARYVAR
  5
464
102
{ACAD_REACTORS
330
3AC
102
}
330
3AC
100
DictionaryVariables
280
     0
  1
Imperial24
  0
DICTIONARYVAR
  5
3AE
102
{ACAD_REACTORS
330
3AC
102
}
330
3AC
100
DictionaryVariables
280
     0
  1
2
  0
DICTIONARYVAR
  5
3AD
102
{ACAD_REACTORS
330
3AC
102
}
330
3AC
100
DictionaryVariables
280
     0
  1
1
  0
DICTIONARYVAR
  5
468
102
{ACAD_REACTORS
330
3AC
102
}
330
3AC
100
DictionaryVariables
280
     0
  1
1
  0
DICTIONARYVAR
  5
469
102
{ACAD_REACTORS
330
3AC
102
}
330
3AC
100
DictionaryVariables
280
     0
  1
15
  0
DICTIONARYVAR
  5
467
102
{ACAD_REACTORS
330
3AC
102
}
330
3AC
100
DictionaryVariables
280
     0
  1
0
  0
DICTIONARYVAR
  5
465
102
{ACAD_REACTORS
330
3AC
102
}
330
3AC
100
DictionaryVariables
280
     0
  1
0
  0
DICTIONARYVAR
  5
3AF
102
{ACAD_REACTORS
330
3AC
102
}
330
3AC
100
DictionaryVariables
280
     0
  1

  0
FIELD
  5
431
102
{ACAD_REACTORS
330
430
102
}
330
430
100
AcDbField
  1
_text
  2
%<\_FldIdx 0>%
 90
        1
360
432
 97
        0
 91
       63
 92
        0
 94
        9
 95
        2
 96
        0
300

 93
        1
  6
ACFD_FIELDTEXT_CHECKSUM
 93
        2
 90
        2
140
6581.0
 94
        0
300

302

304
ACVALUE_END
  7
ACFD_FIELD_VALUE
 93
        3
 90
        0
 94
        0
300

302

304
ACVALUE_END
301

 98
        0
  0
DICTIONARY
  5
45E
330
420
100
AcDbDictionary
280
     1
281
     1
  3
ACAD_XREC_ROUNDTRIP
360
4A5
  0
DICTIONARY
  5
3DF
330
3DE
100
AcDbDictionary
280
     1
281
     1
  3
BUMPTILE
360
3E1
  3
DIFFUSETILE
360
3E0
  3
OPACITYTILE
360
3E4
  3
REFLECTIONTILE
360
3E3
  3
REFRACTIONTILE
360
3E5
  3
SPECULARTILE
360
3E2
  0
DICTIONARY
  5
3D7
330
3D6
100
AcDbDictionary
280
     1
281
     1
  3
BUMPTILE
360
3D9
  3
DIFFUSETILE
360
3D8
  3
OPACITYTILE
360
3DC
  3
REFLECTIONTILE
360
3DB
  3
REFRACTIONTILE
360
3DD
  3
SPECULARTILE
360
3DA
  0
DICTIONARY
  5
3E7
330
3E6
100
AcDbDictionary
280
     1
281
     1
  3
BUMPTILE
360
3E9
  3
DIFFUSETILE
360
3E8
  3
OPACITYTILE
360
3EC
  3
REFLECTIONTILE
360
3EB
  3
REFRACTIONTILE
360
3ED
  3
SPECULARTILE
360
3EA
  0
DICTIONARY
  5
45C
330
41E
100
AcDbDictionary
280
     1
281
     1
  3
ACAD_XREC_ROUNDTRIP
360
4A4
  0
DICTIONARY
  5
4A2
330
408
100
AcDbDictionary
280
     1
281
     1
  3
ACAD_ROUNDTRIP_2008_TABLESTYLE_CELLSTYLEMAP
360
4A3
  0
FIELD
  5
432
330
431
100
AcDbField
  1
AcVar
  2
\AcVar Filename \f "%tc1%fn6"
 90
        0
 97
        0
 91
       63
 92
        0
 94
       59
 95
        2
 96
        0
300

 93
        1
  6
Variable
 93
        2
 90
        4
  1
Filename
 94
        0
300

302

304
ACVALUE_END
  7
ACFD_FIELD_VALUE
 93
        4
 90
        4
  1
C:\Users\w.koehlhoff.LOROWERK\Arbeit Koeh\AUTOCAD\Arbeit\WERBUNG\08065.032X.dxf
 94
        0
300
%tc1%fn6
302
08065.032X.DXF
304
ACVALUE_END
301
08065.032X.DXF
 98
       14
  0
XRECORD
  5
4A5
102
{ACAD_REACTORS
330
45E
102
}
330
45E
100
AcDbXrecord
280
     1
102
DISPLAYNAME
  1
Imperial24
102
FLAGS
 90
        0
  0
XRECORD
  5
3E1
102
{ACAD_REACTORS
330
3DF
102
}
330
3DF
100
AcDbXrecord
280
     1
270
     1
271
     1
  0
XRECORD
  5
3E0
102
{ACAD_REACTORS
330
3DF
102
}
330
3DF
100
AcDbXrecord
280
     1
270
     1
271
     1
  0
XRECORD
  5
3E4
102
{ACAD_REACTORS
330
3DF
102
}
330
3DF
100
AcDbXrecord
280
     1
270
     1
271
     1
  0
XRECORD
  5
3E3
102
{ACAD_REACTORS
330
3DF
102
}
330
3DF
100
AcDbXrecord
280
     1
270
     1
271
     1
  0
XRECORD
  5
3E5
102
{ACAD_REACTORS
330
3DF
102
}
330
3DF
100
AcDbXrecord
280
     1
270
     1
271
     1
  0
XRECORD
  5
3E2
102
{ACAD_REACTORS
330
3DF
102
}
330
3DF
100
AcDbXrecord
280
     1
270
     1
271
     1
  0
XRECORD
  5
3D9
102
{ACAD_REACTORS
330
3D7
102
}
330
3D7
100
AcDbXrecord
280
     1
270
     1
271
     1
  0
XRECORD
  5
3D8
102
{ACAD_REACTORS
330
3D7
102
}
330
3D7
100
AcDbXrecord
280
     1
270
     1
271
     1
  0
XRECORD
  5
3DC
102
{ACAD_REACTORS
330
3D7
102
}
330
3D7
100
AcDbXrecord
280
     1
270
     1
271
     1
  0
XRECORD
  5
3DB
102
{ACAD_REACTORS
330
3D7
102
}
330
3D7
100
AcDbXrecord
280
     1
270
     1
271
     1
  0
XRECORD
  5
3DD
102
{ACAD_REACTORS
330
3D7
102
}
330
3D7
100
AcDbXrecord
280
     1
270
     1
271
     1
  0
XRECORD
  5
3DA
102
{ACAD_REACTORS
330
3D7
102
}
330
3D7
100
AcDbXrecord
280
     1
270
     1
271
     1
  0
XRECORD
  5
3E9
102
{ACAD_REACTORS
330
3E7
102
}
330
3E7
100
AcDbXrecord
280
     1
270
     1
271
     1
  0
XRECORD
  5
3E8
102
{ACAD_REACTORS
330
3E7
102
}
330
3E7
100
AcDbXrecord
280
     1
270
     1
271
     1
  0
XRECORD
  5
3EC
102
{ACAD_REACTORS
330
3E7
102
}
330
3E7
100
AcDbXrecord
280
     1
270
     1
271
     1
  0
XRECORD
  5
3EB
102
{ACAD_REACTORS
330
3E7
102
}
330
3E7
100
AcDbXrecord
280
     1
270
     1
271
     1
  0
XRECORD
  5
3ED
102
{ACAD_REACTORS
330
3E7
102
}
330
3E7
100
AcDbXrecord
280
     1
270
     1
271
     1
  0
XRECORD
  5
3EA
102
{ACAD_REACTORS
330
3E7
102
}
330
3E7
100
AcDbXrecord
280
     1
270
     1
271
     1
  0
XRECORD
  5
4A4
102
{ACAD_REACTORS
330
45C
102
}
330
45C
100
AcDbXrecord
280
     1
102
DISPLAYNAME
  1
Imperial24
102
FLAGS
 90
        0
  0
CELLSTYLEMAP
  5
4A3
102
{ACAD_REACTORS
330
4A2
102
}
330
4A2
100
AcDbCellStyleMap
 90
        3
300
CELLSTYLE
  1
TABLEFORMAT_BEGIN
 90
        5
170
     1
 91
        0
 92
    32768
 62
   257
 93
        1
300
CONTENTFORMAT
  1
CONTENTFORMAT_BEGIN
 90
        0
 91
        0
 92
      512
 93
        0
300

 40
0.0
140
1.0
 94
        5
 62
     0
340
11
144
0.25
309
CONTENTFORMAT_END
171
     0
 94
        0
309
TABLEFORMAT_END
  1
CELLSTYLE_BEGIN
 90
        1
 91
        1
300
_TITLE
309
CELLSTYLE_END
300
CELLSTYLE
  1
TABLEFORMAT_BEGIN
 90
        5
170
     1
 91
        0
 92
        0
 62
   257
 93
        1
300
CONTENTFORMAT
  1
CONTENTFORMAT_BEGIN
 90
        0
 91
        0
 92
      512
 93
        0
300

 40
0.0
140
1.0
 94
        5
 62
     0
340
11
144
0.18
309
CONTENTFORMAT_END
171
     0
 94
        0
309
TABLEFORMAT_END
  1
CELLSTYLE_BEGIN
 90
        2
 91
        1
300
_HEADER
309
CELLSTYLE_END
300
CELLSTYLE
  1
TABLEFORMAT_BEGIN
 90
        5
170
     1
 91
        0
 92
        0
 62
   257
 93
        1
300
CONTENTFORMAT
  1
CONTENTFORMAT_BEGIN
 90
        0
 91
        0
 92
      512
 93
        0
300

 40
0.0
140
1.0
 94
        2
 62
     0
340
11
144
0.18
309
CONTENTFORMAT_END
171
     0
 94
        0
309
TABLEFORMAT_END
  1
CELLSTYLE_BEGIN
 90
        3
 91
        2
300
_DATA
309
CELLSTYLE_END
  0
ENDSEC
  0
SECTION
  2
ACDSDATA
 70
     2
 71
     8
  0
ACDSSCHEMA
 90
        0
  1
AcDb_Thumbnail_Schema
  2
AcDbDs::ID
280
    10
 91
        8
  2
Thumbnail_Data
280
    15
 91
        0
101
ACDSRECORD
 95
        0
 90
        1
  2
AcDbDs::TreatedAsObjectData
280
     1
291
     1
101
ACDSRECORD
 95
        0
 90
        2
  2
AcDbDs::Legacy
280
     1
291
     1
101
ACDSRECORD
  1
AcDbDs::ID
 90
        3
  2
AcDs:Indexable
280
     1
291
     1
101
ACDSRECORD
  1
AcDbDs::ID
 90
        4
  2
AcDbDs::HandleAttribute
280
     7
282
     1
  0
ACDSSCHEMA
 90
        1
  1
AcDbDs::TreatedAsObjectDataSchema
  2
AcDbDs::TreatedAsObjectData
280
     1
 91
        0
  0
ACDSSCHEMA
 90
        2
  1
AcDbDs::LegacySchema
  2
AcDbDs::Legacy
280
     1
 91
        0
  0
ACDSSCHEMA
 90
        3
  1
AcDbDs::IndexedPropertySchema
  2
AcDs:Indexable
280
     1
 91
        0
  0
ACDSSCHEMA
 90
        4
  1
AcDbDs::HandleAttributeSchema
  2
AcDbDs::HandleAttribute
280
     7
 91
        1
284
     1
  0
ACDSRECORD
 90
        0
  2
AcDbDs::ID
280
    10
320
23
  2
Thumbnail_Data
280
    15
 94
     2056
310
89504E470D0A1A0A0000000D494844520000010000000085080300000083A6D68B00000300504C5445000000000000C8C8C80000000000000000000000000000000000000000000000000000330000660000990000CC0000FF0033000033330033660033990033CC0033FF0066000066330066660066990066CC0066FF0099
310
000099330099660099990099CC0099FF00CC0000CC3300CC6600CC9900CCCC00CCFF00FF0000FF3300FF6600FF9900FFCC00FFFF3300003300333300663300993300CC3300FF3333003333333333663333993333CC3333FF3366003366333366663366993366CC3366FF3399003399333399663399993399CC3399FF33CC00
310
33CC3333CC6633CC9933CCCC33CCFF33FF0033FF3333FF6633FF9933FFCC33FFFF6600006600336600666600996600CC6600FF6633006633336633666633996633CC6633FF6666006666336666666666996666CC6666FF6699006699336699666699996699CC6699FF66CC0066CC3366CC6666CC9966CCCC66CCFF66FF0066
310
FF3366FF6666FF9966FFCC66FFFF9900009900339900669900999900CC9900FF9933009933339933669933999933CC9933FF9966009966339966669966999966CC9966FF9999009999339999669999999999CC9999FF99CC0099CC3399CC6699CC9999CCCC99CCFF99FF0099FF3399FF6699FF9999FFCC99FFFFCC0000CC00
310
33CC0066CC0099CC00CCCC00FFCC3300CC3333CC3366CC3399CC33CCCC33FFCC6600CC6633CC6666CC6699CC66CCCC66FFCC9900CC9933CC9966CC9999CC99CCCC99FFCCCC00CCCC33CCCC66CCCC99CCCCCCCCCCFFCCFF00CCFF33CCFF66CCFF99CCFFCCCCFFFFFF0000FF0033FF0066FF0099FF00CCFF00FFFF3300FF3333
310
FF3366FF3399FF33CCFF33FFFF6600FF6633FF6666FF6699FF66CCFF66FFFF9900FF9933FF9966FF9999FF99CCFF99FFFFCC00FFCC33FFCC66FFCC99FFCCCCFFCCFFFFFF00FFFF33FFFF66FFFF99FFFFCCFFFFFF0000000D0D0D1A1A1A2828283535354343435050505D5D5D6B6B6B787878868686939393A1A1A1AEAEAEBB
310
BBBBC9C9C9D6D6D6E4E4E4F1F1F1FFFFFF00000000000000000000000000000000000000000000000000000000000008F1915C000004A94944415478DAED9D5972C3200C86751CEE7F009D846BE8BDC12C66115BE23E488699D68DEB30F1C72F09012600A73C5CECBF160900C456FEF46734CF1761001EAFFA0038000E8003
310
E00038000E006D00103503A06700905C000F15D90AC0759577E4211C00BC15401230227D57997BE76D05321530BDF5B93A48B409D0A2CA15039838F84CE59D08201E00D0F7D5E515C805C0081D178CC1BF5605801800C4012055007EED05AA5040DDDAE373E57B7C15F47A007400C80460E89ED92066B6C3725320F785A9BB
310
2011806F3C3B6E6D3B518035AE1297514A03E052A04FFBCF00981900100BA056C047ECD93C6FFC233F998AE1E2A17C13305C6BCF4E5AB94E901A1F60577D80051D002EE1FE0AE0538101E750049A80337093D9BB9D2C2061FFED02A595E8048302964D0063A94DE05200880470798047005C3E80244601F83D0AF8574E4D02
310
011898F5033EB7B5DA0F2089B980816C751B770344B32810EC03640200F7A9470BFC68386268FDFD4B0600D4CDF942BA37581857D8825400FE575704030514EF91E804AF7B470CB91DF3E97104A042E614400201E035F101AC087004C03619B25C00DD46C562FE7FD0FCBE4612B9406221F5591D26220D4B645696BC77AE91
310
A880E5D65D41A40580BFC394F99487111F2235CBE4AC4DF75C0118F71915AD13FCE699185500BE29E6007839003A00840288B92D56D3A1967D5967CE1A0084D5B2188E36E481D6A74316B2E3753A8F8B4A01E01400B600C43A418365B1E5D1F2A74351012034F1AD00BC8F85027C67103A0048E07840DF046E1096E3923205
310
1500769F11EF2A408D13C4DC196E98807D8109E0C804440088695D6102CEB90771478D87D7363F86F30AA340500032DE2E53C0C4047486C10D1310AD0018F603BA615089136C7C40F20536F984DA45BCCB0780A628B0150661C7090A3701DC3501FF263D0AC06F4C40493A9C00EC9B800E00459A93F704EB1EE1D8048C4213
310
80494748AB092CF7042B006F190F28560CBE4501385700A907F08228F07613C835BE6602A8AF27F846009D472577E706CFF4F801201140FE20CC8FC51C00320180EF03DD3FD912C174458629A2F2A348E99FE24DA028C0FE595C01F575D24DA00590564AC2E492A4005203009B95B2D069763D51606406B7A18F0008358138
310
2D86D105DECDEC1D5DD5F8D08D1A469902A636AF1640AD8055002A7C40943BACF93DA50036A5AF3B19DAE8229F6CF03C2F7014A01440EE11A1EF08152BA0490D3428A0BB45F85B4C80DD05242FB8FD3D43E24C00CB708FFE7454035EFBECD0F5583C27904639D266877B8F46E600C2D618AB007428A0E90376DCA5911F067B
310
00C2E067F20CED7860ACA038270D40FFE9E097005837011E9469B79752A100B743ECB57910F2BBCC165BCB52B1CD900E053800E0A300846F8EE0FB4A4D7050E203982DD43E2FE2CDE626A0340A4405D0AD80C530681429203476D9E695136C06CF3429A08C0244E526FC5E19A6760CA4260A707A683347233D17D85200930D
310
303E400B00FA16800A13482301DBE3015ABAC2C6C48573107E2F8E18490350B431A697CDB241B5007C57277EE19CEFFB7A05141A581F3E3522018496759DBFAB03782B00E24A50D500BC742FFBA7980E971E607D35B93C1FF0701106405CE54F7DC67F2D70CAC3E50FE3AB9A04401A9A890000000049454E44AE4260826B81
310
5D5E2E7F4289D86B58B779A40000000049454E44AE426082
  0
ENDSEC
  0
EOF
