  0
SECTION
  2
HEADER
  9
$ACADVER
  1
AC1018
  9
$ACADMAINTVER
 70
     2
  9
$DWGCODEPAGE
  3
ANSI_1252
  9
$INSBASE
 10
0.0
 20
0.0
 30
0.0
  9
$EXTMIN
 10
-0.0128036914306904
 20
-0.018108077881152
 30
-0.000000000000013
  9
$EXTMAX
 10
420.0128242284961
 20
594.0181371231585
 30
0.0000000000000023
  9
$LIMMIN
 10
0.0
 20
0.0
  9
$LIMMAX
 10
419.9999999999999
 20
594.0
  9
$ORTHOMODE
 70
     0
  9
$REGENMODE
 70
     1
  9
$FILLMODE
 70
     1
  9
$QTEXTMODE
 70
     0
  9
$MIRRTEXT
 70
     1
  9
$LTSCALE
 40
20.0
  9
$ATTMODE
 70
     1
  9
$TEXTSIZE
 40
3.5
  9
$TRACEWID
 40
0.5
  9
$TEXTSTYLE
  7
STANDARD
  9
$CLAYER
  8
SCHRAFF
  9
$CELTYPE
  6
ByLayer
  9
$CECOLOR
 62
   256
  9
$CELTSCALE
 40
1.0
  9
$DISPSILH
 70
     0
  9
$DIMSCALE
 40
2.0
  9
$DIMASZ
 40
3.5
  9
$DIMEXO
 40
1.0
  9
$DIMDLI
 40
7.0
  9
$DIMRND
 40
0.0
  9
$DIMDLE
 40
0.0
  9
$DIMEXE
 40
1.0
  9
$DIMTP
 40
2.0
  9
$DIMTM
 40
0.0
  9
$DIMTXT
 40
3.5
  9
$DIMCEN
 40
1.5
  9
$DIMTSZ
 40
0.0
  9
$DIMTOL
 70
     0
  9
$DIMLIM
 70
     0
  9
$DIMTIH
 70
     0
  9
$DIMTOH
 70
     0
  9
$DIMSE1
 70
     0
  9
$DIMSE2
 70
     0
  9
$DIMTAD
 70
     1
  9
$DIMZIN
 70
     8
  9
$DIMBLK
  1

  9
$DIMASO
 70
     1
  9
$DIMSHO
 70
     0
  9
$DIMPOST
  1

  9
$DIMAPOST
  1

  9
$DIMALT
 70
     0
  9
$DIMALTD
 70
     2
  9
$DIMALTF
 40
25.4
  9
$DIMLFAC
 40
1.0
  9
$DIMTOFL
 70
     1
  9
$DIMTVP
 40
0.0
  9
$DIMTIX
 70
     0
  9
$DIMSOXD
 70
     0
  9
$DIMSAH
 70
     0
  9
$DIMBLK1
  1

  9
$DIMBLK2
  1

  9
$DIMSTYLE
  2
STANDARD
  9
$DIMCLRD
 70
     0
  9
$DIMCLRE
 70
     0
  9
$DIMCLRT
 70
     1
  9
$DIMTFAC
 40
0.5
  9
$DIMGAP
 40
1.5
  9
$DIMJUST
 70
     0
  9
$DIMSD1
 70
     0
  9
$DIMSD2
 70
     0
  9
$DIMTOLJ
 70
     1
  9
$DIMTZIN
 70
     8
  9
$DIMALTZ
 70
     8
  9
$DIMALTTZ
 70
     8
  9
$DIMUPT
 70
     0
  9
$DIMDEC
 70
     2
  9
$DIMTDEC
 70
     2
  9
$DIMALTU
 70
     2
  9
$DIMALTTD
 70
     2
  9
$DIMTXSTY
  7
STANDARD
  9
$DIMAUNIT
 70
     0
  9
$DIMADEC
 70
     2
  9
$DIMALTRND
 40
0.0
  9
$DIMAZIN
 70
     2
  9
$DIMDSEP
 70
    46
  9
$DIMATFIT
 70
     3
  9
$DIMFRAC
 70
     0
  9
$DIMLDRBLK
  1

  9
$DIMLUNIT
 70
     2
  9
$DIMLWD
 70
    -2
  9
$DIMLWE
 70
    -2
  9
$DIMTMOVE
 70
     0
  9
$LUNITS
 70
     2
  9
$LUPREC
 70
     2
  9
$SKETCHINC
 40
1.0
  9
$FILLETRAD
 40
10.0
  9
$AUNITS
 70
     0
  9
$AUPREC
 70
     0
  9
$MENU
  1
ACAD
  9
$ELEVATION
 40
0.0
  9
$PELEVATION
 40
0.0
  9
$THICKNESS
 40
0.0
  9
$LIMCHECK
 70
     0
  9
$CHAMFERA
 40
0.0
  9
$CHAMFERB
 40
0.0
  9
$CHAMFERC
 40
0.0
  9
$CHAMFERD
 40
0.0
  9
$SKPOLY
 70
     0
  9
$TDCREATE
 40
2452032.675317037
  9
$TDUCREATE
 40
2452032.591983704
  9
$TDUPDATE
 40
2455455.440393958
  9
$TDUUPDATE
 40
2455455.357060625
  9
$TDINDWG
 40
0.1270115162
  9
$TDUSRTIMER
 40
0.1270115162
  9
$USRTIMER
 70
     1
  9
$ANGBASE
 50
0.0
  9
$ANGDIR
 70
     0
  9
$PDMODE
 70
     0
  9
$PDSIZE
 40
0.0
  9
$PLINEWID
 40
0.0
  9
$SPLFRAME
 70
     0
  9
$SPLINETYPE
 70
     6
  9
$SPLINESEGS
 70
     8
  9
$HANDSEED
  5
9C2
  9
$SURFTAB1
 70
     6
  9
$SURFTAB2
 70
     6
  9
$SURFTYPE
 70
     6
  9
$SURFU
 70
     6
  9
$SURFV
 70
     6
  9
$UCSBASE
  2

  9
$UCSNAME
  2

  9
$UCSORG
 10
0.0
 20
0.0
 30
0.0
  9
$UCSXDIR
 10
1.0
 20
0.0
 30
0.0
  9
$UCSYDIR
 10
0.0
 20
1.0
 30
0.0
  9
$UCSORTHOREF
  2

  9
$UCSORTHOVIEW
 70
     0
  9
$UCSORGTOP
 10
0.0
 20
0.0
 30
0.0
  9
$UCSORGBOTTOM
 10
0.0
 20
0.0
 30
0.0
  9
$UCSORGLEFT
 10
0.0
 20
0.0
 30
0.0
  9
$UCSORGRIGHT
 10
0.0
 20
0.0
 30
0.0
  9
$UCSORGFRONT
 10
0.0
 20
0.0
 30
0.0
  9
$UCSORGBACK
 10
0.0
 20
0.0
 30
0.0
  9
$PUCSBASE
  2

  9
$PUCSNAME
  2

  9
$PUCSORG
 10
0.0
 20
0.0
 30
0.0
  9
$PUCSXDIR
 10
1.0
 20
0.0
 30
0.0
  9
$PUCSYDIR
 10
0.0
 20
1.0
 30
0.0
  9
$PUCSORTHOREF
  2

  9
$PUCSORTHOVIEW
 70
     0
  9
$PUCSORGTOP
 10
0.0
 20
0.0
 30
0.0
  9
$PUCSORGBOTTOM
 10
0.0
 20
0.0
 30
0.0
  9
$PUCSORGLEFT
 10
0.0
 20
0.0
 30
0.0
  9
$PUCSORGRIGHT
 10
0.0
 20
0.0
 30
0.0
  9
$PUCSORGFRONT
 10
0.0
 20
0.0
 30
0.0
  9
$PUCSORGBACK
 10
0.0
 20
0.0
 30
0.0
  9
$USERI1
 70
     0
  9
$USERI2
 70
     0
  9
$USERI3
 70
     0
  9
$USERI4
 70
     0
  9
$USERI5
 70
     0
  9
$USERR1
 40
0.0
  9
$USERR2
 40
0.0
  9
$USERR3
 40
0.0
  9
$USERR4
 40
0.0
  9
$USERR5
 40
0.0
  9
$WORLDVIEW
 70
     1
  9
$SHADEDGE
 70
     3
  9
$SHADEDIF
 70
    70
  9
$TILEMODE
 70
     1
  9
$MAXACTVP
 70
    16
  9
$PINSBASE
 10
2.245139065676091
 20
50.00000000000001
 30
-1.032423782695658
  9
$PLIMCHECK
 70
     0
  9
$PEXTMIN
 10
1.000000000000000E+20
 20
1.000000000000000E+20
 30
1.000000000000000E+20
  9
$PEXTMAX
 10
-1.000000000000000E+20
 20
-1.000000000000000E+20
 30
-1.000000000000000E+20
  9
$PLIMMIN
 10
0.0
 20
0.0
  9
$PLIMMAX
 10
12.0
 20
9.0
  9
$UNITMODE
 70
     0
  9
$VISRETAIN
 70
     0
  9
$PLINEGEN
 70
     0
  9
$PSLTSCALE
 70
     0
  9
$TREEDEPTH
 70
  3020
  9
$CMLSTYLE
  2
Standard
  9
$CMLJUST
 70
     0
  9
$CMLSCALE
 40
1.0
  9
$PROXYGRAPHICS
 70
     1
  9
$MEASUREMENT
 70
     0
  9
$CELWEIGHT
370
    -1
  9
$ENDCAPS
280
     0
  9
$JOINSTYLE
280
     0
  9
$LWDISPLAY
290
     0
  9
$INSUNITS
 70
     0
  9
$HYPERLINKBASE
  1

  9
$STYLESHEET
  1
monochrome 1.ctb
  9
$XEDIT
290
     1
  9
$CEPSNTYPE
380
     0
  9
$PSTYLEMODE
290
     1
  9
$FINGERPRINTGUID
  2
{43D0DCFC-09E2-4FF7-9E48-4E8C649E1822}
  9
$VERSIONGUID
  2
{B3D1BE03-49F1-46E1-BF58-89B223A10175}
  9
$EXTNAMES
290
     1
  9
$PSVPSCALE
 40
0.0
  9
$OLESTARTUP
290
     0
  9
$SORTENTS
280
   127
  9
$INDEXCTL
280
     0
  9
$HIDETEXT
280
     1
  9
$XCLIPFRAME
290
     0
  9
$HALOGAP
280
     0
  9
$OBSCOLOR
 70
   257
  9
$OBSLTYPE
280
     0
  9
$INTERSECTIONDISPLAY
280
     0
  9
$INTERSECTIONCOLOR
 70
   257
  9
$DIMASSOC
280
     2
  9
$PROJECTNAME
  1

  0
ENDSEC
  0
SECTION
  2
CLASSES
  0
CLASS
  1
ACDBDICTIONARYWDFLT
  2
AcDbDictionaryWithDefault
  3
ObjectDBX Classes
 90
        0
 91
        1
280
     0
281
     0
  0
CLASS
  1
DIMASSOC
  2
AcDbDimAssoc
  3
"AcDbDimAssoc|Product Desc:     AcDim ARX App For Dimension|Company:          Autodesk, Inc.|WEB Address:      www.autodesk.com"
 90
        0
 91
        5
280
     0
281
     0
  0
CLASS
  1
DICTIONARYVAR
  2
AcDbDictionaryVar
  3
ObjectDBX Classes
 90
        0
 91
        3
280
     0
281
     0
  0
ENDSEC
  0
SECTION
  2
TABLES
  0
TABLE
  2
VPORT
  5
4B6
330
0
100
AcDbSymbolTable
 70
     2
  0
VPORT
  5
9C1
330
4B6
100
AcDbSymbolTableRecord
100
AcDbViewportTableRecord
  2
*Active
 70
     0
 10
0.0
 20
0.0
 11
1.0
 21
1.0
 12
210.0000102685327
 22
297.0000145226387
 13
0.0
 23
0.0
 14
1.0
 24
1.0
 15
10.0
 25
10.0
 16
0.0
 26
0.0
 36
1.0
 17
0.0
 27
0.0
 37
0.0
 40
598.8333077464046
 41
1.336927223719676
 42
50.0
 43
0.0
 44
0.0
 50
0.0
 51
0.0
 71
     0
 72
  1500
 73
     1
 74
     0
 75
     0
 76
     0
 77
     0
 78
     0
281
     0
 65
     1
110
0.0
120
0.0
130
0.0
111
1.0
121
0.0
131
0.0
112
0.0
122
1.0
132
0.0
 79
     0
146
0.0
  0
ENDTAB
  0
TABLE
  2
LTYPE
  5
4B3
330
0
100
AcDbSymbolTable
 70
     3
  0
LTYPE
  5
4C1
330
4B3
100
AcDbSymbolTableRecord
100
AcDbLinetypeTableRecord
  2
ByBlock
 70
     0
  3

 72
    65
 73
     0
 40
0.0
  0
LTYPE
  5
4C2
330
4B3
100
AcDbSymbolTableRecord
100
AcDbLinetypeTableRecord
  2
ByLayer
 70
     0
  3

 72
    65
 73
     0
 40
0.0
  0
LTYPE
  5
4C3
330
4B3
100
AcDbSymbolTableRecord
100
AcDbLinetypeTableRecord
  2
AUSGEZOGEN
 70
     0
  3
Ausgezogene Linie
 72
    65
 73
     0
 40
0.0
  0
LTYPE
  5
4E1
330
4B3
100
AcDbSymbolTableRecord
100
AcDbLinetypeTableRecord
  2
STRICHPUNKT
 70
     0
  3
__ . __ . __ . __ . __ . __ . __ . __ . __ . __
 72
    65
 73
     4
 40
1.0
 49
0.5
 74
     0
 49
-0.25
 74
     0
 49
0.0
 74
     0
 49
-0.25
 74
     0
  0
LTYPE
  5
4E2
330
4B3
100
AcDbSymbolTableRecord
100
AcDbLinetypeTableRecord
  2
CONTINUOUS
 70
     0
  3
Solid line
 72
    65
 73
     0
 40
0.0
  0
ENDTAB
  0
TABLE
  2
LAYER
  5
4B0
330
0
100
AcDbSymbolTable
 70
     9
  0
LAYER
  5
4BE
330
4B0
100
AcDbSymbolTableRecord
100
AcDbLayerTableRecord
  2
0
 70
     0
 62
     7
  6
AUSGEZOGEN
370
    -3
390
4BD
  0
LAYER
  5
4E5
330
4B0
100
AcDbSymbolTableRecord
100
AcDbLayerTableRecord
  2
VOLL
 70
     0
 62
     1
  6
AUSGEZOGEN
370
    -3
390
4BD
  0
LAYER
  5
4E6
330
4B0
100
AcDbSymbolTableRecord
100
AcDbLayerTableRecord
  2
HILF
 70
     0
 62
     2
  6
AUSGEZOGEN
370
    -3
390
4BD
  0
LAYER
  5
4E7
330
4B0
100
AcDbSymbolTableRecord
100
AcDbLayerTableRecord
  2
MITTEL
 70
     0
 62
     2
  6
STRICHPUNKT
370
    -3
390
4BD
  0
LAYER
  5
4E8
330
4B0
100
AcDbSymbolTableRecord
100
AcDbLayerTableRecord
  2
BEM
 70
     0
 62
     7
  6
AUSGEZOGEN
370
    -3
390
4BD
  0
LAYER
  5
4E9
330
4B0
100
AcDbSymbolTableRecord
100
AcDbLayerTableRecord
  2
STEMPEL
 70
     0
 62
     3
  6
AUSGEZOGEN
370
    -3
390
4BD
  0
LAYER
  5
4EA
330
4B0
100
AcDbSymbolTableRecord
100
AcDbLayerTableRecord
  2
TEXT
 70
     0
 62
     7
  6
AUSGEZOGEN
370
    -3
390
4BD
  0
LAYER
  5
4EB
330
4B0
100
AcDbSymbolTableRecord
100
AcDbLayerTableRecord
  2
DEFPOINTS
 70
     0
 62
     7
  6
AUSGEZOGEN
290
     0
370
    -3
390
4BD
  0
LAYER
  5
4EC
330
4B0
100
AcDbSymbolTableRecord
100
AcDbLayerTableRecord
  2
SCHRAFF
 70
     0
 62
     7
  6
AUSGEZOGEN
370
    -3
390
4BD
  0
ENDTAB
  0
TABLE
  2
STYLE
  5
4B1
330
0
100
AcDbSymbolTable
 70
     2
  0
STYLE
  5
4BF
330
4B1
100
AcDbSymbolTableRecord
100
AcDbTextStyleTableRecord
  2
STANDARD
 70
     0
 40
0.0
 41
0.8
 50
0.0
 71
     0
 42
3.5
  3
simplex.shx
  4

  0
STYLE
  5
4E0
330
4B1
100
AcDbSymbolTableRecord
100
AcDbTextStyleTableRecord
  2
GREEKS
 70
     0
 40
0.0
 41
0.8
 50
0.0
 71
     0
 42
2.5
  3
SIMPLEX.shx
  4

  0
ENDTAB
  0
TABLE
  2
VIEW
  5
4B4
330
0
100
AcDbSymbolTable
 70
     0
  0
ENDTAB
  0
TABLE
  2
UCS
  5
4B5
330
0
100
AcDbSymbolTable
 70
     0
  0
ENDTAB
  0
TABLE
  2
APPID
  5
4B7
330
0
100
AcDbSymbolTable
 70
     1
  0
APPID
  5
4C0
330
4B7
100
AcDbSymbolTableRecord
100
AcDbRegAppTableRecord
  2
ACAD
 70
     0
  0
ENDTAB
  0
TABLE
  2
DIMSTYLE
  5
4B8
330
0
100
AcDbSymbolTable
 70
     1
100
AcDbDimStyleTable
 71
     1
340
4E4
  0
DIMSTYLE
105
4E4
102
{ACAD_REACTORS
330
13E
330
152
330
607
330
6BD
330
7EF
330
80B
330
82C
102
}
330
4B8
100
AcDbSymbolTableRecord
100
AcDbDimStyleTableRecord
  2
STANDARD
 70
     0
271
     2
272
     2
279
     2
284
     8
285
     8
286
     8
340
4BF
  0
ENDTAB
  0
TABLE
  2
BLOCK_RECORD
  5
4AF
330
0
100
AcDbSymbolTable
 70
     9
  0
BLOCK_RECORD
  5
4CE
330
4AF
100
AcDbSymbolTableRecord
100
AcDbBlockTableRecord
  2
*Model_Space
340
4D1
  0
BLOCK_RECORD
  5
4CA
330
4AF
100
AcDbSymbolTableRecord
100
AcDbBlockTableRecord
  2
*Paper_Space
340
4CD
  0
BLOCK_RECORD
  5
4D2
330
4AF
100
AcDbSymbolTableRecord
100
AcDbBlockTableRecord
  2
LOGO
340
0
102
{BLKREFS
331
16B
102
}
  0
BLOCK_RECORD
  5
4D3
330
4AF
100
AcDbSymbolTableRecord
100
AcDbBlockTableRecord
  2
INDEX
340
0
102
{BLKREFS
331
1A8
102
}
  0
BLOCK_RECORD
  5
50A
330
4AF
100
AcDbSymbolTableRecord
100
AcDbBlockTableRecord
  2
*D2
340
0
  0
BLOCK_RECORD
  5
53C
330
4AF
100
AcDbSymbolTableRecord
100
AcDbBlockTableRecord
  2
*D3
340
0
  0
BLOCK_RECORD
  5
608
330
4AF
100
AcDbSymbolTableRecord
100
AcDbBlockTableRecord
  2
*D4
340
0
  0
BLOCK_RECORD
  5
6BE
330
4AF
100
AcDbSymbolTableRecord
100
AcDbBlockTableRecord
  2
*D5
340
0
  0
BLOCK_RECORD
  5
7F0
330
4AF
100
AcDbSymbolTableRecord
100
AcDbBlockTableRecord
  2
*D6
340
0
  0
BLOCK_RECORD
  5
80C
330
4AF
100
AcDbSymbolTableRecord
100
AcDbBlockTableRecord
  2
*D7
340
0
  0
BLOCK_RECORD
  5
82D
330
4AF
100
AcDbSymbolTableRecord
100
AcDbBlockTableRecord
  2
*D8
340
0
  0
ENDTAB
  0
ENDSEC
  0
SECTION
  2
BLOCKS
  0
BLOCK
  5
4EF
330
4CE
100
AcDbEntity
  8
0
100
AcDbBlockBegin
  2
*Model_Space
 70
     0
 10
0.0
 20
0.0
 30
0.0
  3
*Model_Space
  1

  0
ENDBLK
  5
4F0
330
4CE
100
AcDbEntity
  8
0
100
AcDbBlockEnd
  0
BLOCK
  5
4ED
330
4CA
100
AcDbEntity
 67
     1
  8
0
100
AcDbBlockBegin
  2
*Paper_Space
 70
     0
 10
0.0
 20
0.0
 30
0.0
  3
*Paper_Space
  1

  0
ENDBLK
  5
4EE
330
4CA
100
AcDbEntity
 67
     1
  8
0
100
AcDbBlockEnd
  0
BLOCK
  5
3D
330
4D2
100
AcDbEntity
  8
0
100
AcDbBlockBegin
  2
LOGO
 70
     0
 10
0.0
 20
0.0
 30
0.0
  3
LOGO
  1

  0
ARC
  5
3E
330
4D2
100
AcDbEntity
  8
0
100
AcDbCircle
 10
11.59973089678112
 20
-9.271599258481501
 30
0.0
 40
4.5
100
AcDbArc
 50
270.0
 51
231.0575587310159
  0
LINE
  5
3F
330
4D2
100
AcDbEntity
  8
0
100
AcDbLine
 10
3.599730896781125
 20
-4.771599258481529
 30
0.0
 11
3.599730896781153
 21
-11.77159925848133
 31
0.0
  0
LINE
  5
40
330
4D2
100
AcDbEntity
  8
0
100
AcDbLine
 10
2.599730896781125
 20
-4.771599258481529
 30
0.0
 11
2.599730896781153
 21
-11.77159925848133
 31
0.0
  0
CIRCLE
  5
41
330
4D2
100
AcDbEntity
  8
0
100
AcDbCircle
 10
11.59973089678112
 20
-9.271599258481501
 30
0.0
 40
3.5
  0
ARC
  5
42
330
4D2
100
AcDbEntity
  8
0
100
AcDbCircle
 10
31.59973089678115
 20
-9.271599258481472
 30
0.0
 40
4.5
100
AcDbArc
 50
270.0
 51
231.0575587310182
  0
LINE
  5
43
330
4D2
100
AcDbEntity
  8
0
100
AcDbLine
 10
17.59973089678112
 20
-4.771599258481472
 30
0.0
 11
17.59973089678115
 21
-13.77159925848147
 31
0.0
  0
ARC
  5
44
330
4D2
100
AcDbEntity
  8
0
100
AcDbCircle
 10
22.59973089678116
 20
-7.271599258481472
 30
0.0
 40
2.5
100
AcDbArc
 50
293.1161887722295
 51
90.0
  0
CIRCLE
  5
45
330
4D2
100
AcDbEntity
  8
0
100
AcDbCircle
 10
31.59973089678115
 20
-9.271599258481472
 30
0.0
 40
3.5
  0
ARC
  5
46
330
4D2
100
AcDbEntity
  8
0
100
AcDbCircle
 10
4.599730896781153
 20
-11.77159925848133
 30
0.0
 40
1.0
100
AcDbArc
 50
180.0
 51
270.0
  0
ARC
  5
47
330
4D2
100
AcDbEntity
  8
0
100
AcDbCircle
 10
4.599730896781153
 20
-11.77159925848133
 30
0.0
 40
2.0
100
AcDbArc
 50
179.9999999999992
 51
270.0
  0
LINE
  5
48
330
4D2
100
AcDbEntity
  8
0
100
AcDbLine
 10
11.59973089678115
 20
-13.77159925848144
 30
0.0
 11
4.599730896781153
 21
-13.77159925848147
 31
0.0
  0
LINE
  5
49
330
4D2
100
AcDbEntity
  8
0
100
AcDbLine
 10
8.771303772034769
 20
-12.77159925848136
 30
0.0
 11
4.599730896781153
 21
-12.77159925848133
 31
0.0
  0
LINE
  5
4A
330
4D2
100
AcDbEntity
  8
0
100
AcDbLine
 10
31.59973089678115
 20
-13.77159925848147
 30
0.0
 11
23.6715276665056
 21
-13.77159925848144
 31
0.0
  0
LINE
  5
4B
330
4D2
100
AcDbEntity
  8
0
100
AcDbLine
 10
23.56565672307022
 20
-9.51278021337896
 30
0.0
 11
24.4388546544846
 21
-12.77159925848144
 31
0.0
  0
LINE
  5
4C
330
4D2
100
AcDbEntity
  8
0
100
AcDbLine
 10
22.59973089678116
 20
-9.771599258481472
 30
0.0
 11
18.59973089678112
 21
-9.771599258481472
 31
0.0
  0
LINE
  5
4D
330
4D2
100
AcDbEntity
  8
0
100
AcDbLine
 10
18.59973089678115
 20
-13.77159925848144
 30
0.0
 11
17.59973089678115
 21
-13.77159925848144
 31
0.0
  0
LINE
  5
4E
330
4D2
100
AcDbEntity
  8
0
100
AcDbLine
 10
18.59973089678115
 20
-9.771599258481472
 30
0.0
 11
18.59973089678115
 21
-13.77159925848144
 31
0.0
  0
LINE
  5
4F
330
4D2
100
AcDbEntity
  8
0
100
AcDbLine
 10
22.59973089678116
 20
-9.771599258481472
 30
0.0
 11
23.67152766650562
 21
-13.77159925848147
 31
0.0
  0
ARC
  5
50
330
4D2
100
AcDbEntity
  8
0
100
AcDbCircle
 10
22.59973089678116
 20
-7.271599258481472
 30
0.0
 40
2.5
100
AcDbArc
 50
270.0
 51
270.0000000000007
  0
LINE
  5
51
330
4D2
100
AcDbEntity
  8
0
100
AcDbLine
 10
28.77130377203494
 20
-12.77159925848147
 30
0.0
 11
24.43885465448463
 21
-12.77159925848144
 31
0.0
  0
LINE
  5
52
330
4D2
100
AcDbEntity
  8
0
100
AcDbLine
 10
3.599730896781125
 20
-4.771599258481472
 30
0.0
 11
2.599730896781125
 21
-4.771599258481472
 31
0.0
  0
LINE
  5
53
330
4D2
100
AcDbEntity
  8
0
100
AcDbLine
 10
22.59973089678116
 20
-8.771599258481472
 30
0.0
 11
18.59973089678115
 21
-8.771599258481472
 31
0.0
  0
LINE
  5
54
330
4D2
100
AcDbEntity
  8
0
100
AcDbLine
 10
22.59973089678116
 20
-5.771599258481472
 30
0.0
 11
18.59973089678115
 21
-5.771599258481472
 31
0.0
  0
LINE
  5
55
330
4D2
100
AcDbEntity
  8
0
100
AcDbLine
 10
22.59973089678116
 20
-4.771599258481472
 30
0.0
 11
17.59973089678115
 21
-4.771599258481472
 31
0.0
  0
LINE
  5
56
330
4D2
100
AcDbEntity
  8
0
100
AcDbLine
 10
18.59973089678115
 20
-5.771599258481472
 30
0.0
 11
18.59973089678115
 21
-8.771599258481472
 31
0.0
  0
ARC
  5
57
330
4D2
100
AcDbEntity
  8
0
100
AcDbCircle
 10
22.59973089678116
 20
-7.271599258481472
 30
0.0
 40
1.5
100
AcDbArc
 50
270.0
 51
90.0
  0
ENDBLK
  5
58
330
4D2
100
AcDbEntity
  8
0
100
AcDbBlockEnd
  0
BLOCK
  5
59
330
4D3
100
AcDbEntity
  8
0
100
AcDbBlockBegin
  2
INDEX
 70
     0
 10
0.0
 20
0.0
 30
0.0
  3
INDEX
  1

  0
TEXT
  5
5A
330
4D3
100
AcDbEntity
  8
BEM
100
AcDbText
 10
-1.709422928128134
 20
6.074024076691515
 30
0.0
 40
2.0
  1
Diese Zeichnung ist urheberrechtlich geschtzt und bleibt unser Eigentum. Sie darf weder ganz noch teilweise vervielfltigt und nicht an Dritte weitergegeben werden.
 50
90.0
 41
0.8
  7
GREEKS
100
AcDbText
  0
ENDBLK
  5
5C
330
4D3
100
AcDbEntity
  8
0
100
AcDbBlockEnd
  0
BLOCK
  5
514
330
50A
100
AcDbEntity
  8
0
100
AcDbBlockBegin
  2
*D2
 70
     1
 10
0.0
 20
0.0
 30
0.0
  3
*D2
  1

  0
LINE
  5
9AE
330
50A
100
AcDbEntity
  8
BEM
 62
     0
370
    -2
100
AcDbLine
 10
109.9151980631267
 20
533.3803409484212
 30
0.0
 11
74.21062603575137
 21
533.3803409484212
 31
0.0
  0
LINE
  5
9AF
330
50A
100
AcDbEntity
  8
BEM
 62
     0
370
    -2
100
AcDbLine
 10
137.7790071695102
 20
248.3803409484214
 30
0.0
 11
74.21062603575132
 21
248.3803409484214
 31
0.0
  0
LINE
  5
9B0
330
50A
100
AcDbEntity
  8
BEM
 62
     0
370
    -2
100
AcDbLine
 10
76.21062603575137
 20
526.3803409484212
 30
0.0
 11
76.21062603575132
 21
255.3803409484213
 31
0.0
  0
SOLID
  5
9B1
330
50A
100
AcDbEntity
  8
BEM
 62
     0
100
AcDbTrace
 10
75.0439593690847
 20
526.3803409484212
 30
0.0
 11
77.37729270241804
 21
526.3803409484212
 31
0.0
 12
76.21062603575137
 22
533.3803409484212
 32
0.0
 13
76.21062603575137
 23
533.3803409484212
 33
0.0
  0
SOLID
  5
9B2
330
50A
100
AcDbEntity
  8
BEM
 62
     0
100
AcDbTrace
 10
75.04395936908465
 20
255.3803409484213
 30
0.0
 11
77.37729270241799
 21
255.3803409484213
 31
0.0
 12
76.21062603575132
 22
248.3803409484214
 32
0.0
 13
76.21062603575132
 23
248.3803409484214
 33
0.0
  0
MTEXT
  5
9B3
330
50A
100
AcDbEntity
  8
BEM
 62
     1
100
AcDbMText
 10
69.71062603575129
 20
390.8803409484213
 30
0.0
 40
7.0
 41
0.0
 71
     5
 72
     1
  1
\A1;285
 11
0.0000000000000001
 21
1.0
 31
0.0
 73
     1
 44
1.0
  0
POINT
  5
9B4
330
50A
100
AcDbEntity
  8
DEFPOINTS
 62
     0
100
AcDbPoint
 10
111.9151980631267
 20
533.3803409484212
 30
0.0
  0
POINT
  5
9B5
330
50A
100
AcDbEntity
  8
DEFPOINTS
 62
     0
100
AcDbPoint
 10
139.7790071695101
 20
248.3803409484214
 30
0.0
  0
POINT
  5
9B6
330
50A
100
AcDbEntity
  8
DEFPOINTS
 62
     0
100
AcDbPoint
 10
76.21062603575132
 20
248.3803409484214
 30
0.0
  0
ENDBLK
  5
515
330
50A
100
AcDbEntity
  8
0
100
AcDbBlockEnd
  0
BLOCK
  5
546
330
53C
100
AcDbEntity
  8
0
100
AcDbBlockBegin
  2
*D3
 70
     1
 10
0.0
 20
0.0
 30
0.0
  3
*D3
  1

  0
LINE
  5
8CA
330
53C
100
AcDbEntity
  8
BEM
 62
     0
370
    -2
100
AcDbLine
 10
364.9151980631269
 20
341.5359302456736
 30
0.0
 11
371.9151980631269
 21
341.5359302456736
 31
0.0
  0
LINE
  5
8CB
330
53C
100
AcDbEntity
  8
BEM
 62
     0
370
    -2
100
AcDbLine
 10
348.0151980631269
 20
341.5359302456736
 30
0.0
 11
323.5485313964602
 21
341.5359302456736
 31
0.0
  0
LINE
  5
8CC
330
53C
100
AcDbEntity
  8
BEM
 62
     0
370
    -2
100
AcDbLine
 10
357.9151980631269
 20
341.5359302456736
 30
0.0
 11
355.0151980631269
 21
341.5359302456736
 31
0.0
  0
SOLID
  5
8CD
330
53C
100
AcDbEntity
  8
BEM
 62
     0
100
AcDbTrace
 10
364.9151980631269
 20
342.7025969123402
 30
0.0
 11
364.9151980631269
 21
340.3692635790069
 31
0.0
 12
357.9151980631269
 22
341.5359302456736
 32
0.0
 13
357.9151980631269
 23
341.5359302456736
 33
0.0
  0
SOLID
  5
8CE
330
53C
100
AcDbEntity
  8
BEM
 62
     0
100
AcDbTrace
 10
348.0151980631269
 20
342.7025969123402
 30
0.0
 11
348.0151980631269
 21
340.3692635790069
 31
0.0
 12
355.0151980631269
 22
341.5359302456736
 32
0.0
 13
355.0151980631269
 23
341.5359302456736
 33
0.0
  0
MTEXT
  5
8CF
330
53C
100
AcDbEntity
  8
BEM
 62
     1
100
AcDbMText
 10
332.2818647297935
 20
348.0359302456736
 30
0.0
 40
7.0
 41
0.0
 71
     5
 72
     1
  1
\A1;2.9
 73
     1
 44
1.0
  0
POINT
  5
8D0
330
53C
100
AcDbEntity
  8
DEFPOINTS
 62
     0
100
AcDbPoint
 10
357.9151980631269
 20
341.5359302456736
 30
0.0
  0
POINT
  5
8D1
330
53C
100
AcDbEntity
  8
DEFPOINTS
 62
     0
100
AcDbPoint
 10
355.0151980631269
 20
341.5359302456736
 30
0.0
  0
POINT
  5
8D2
330
53C
100
AcDbEntity
  8
DEFPOINTS
 62
     0
100
AcDbPoint
 10
355.0151980631269
 20
341.5359302456736
 30
0.0
  0
ENDBLK
  5
547
330
53C
100
AcDbEntity
  8
0
100
AcDbBlockEnd
  0
BLOCK
  5
612
330
608
100
AcDbEntity
  8
0
100
AcDbBlockBegin
  2
*D4
 70
     1
 10
0.0
 20
0.0
 30
0.0
  3
*D4
  1

  0
LINE
  5
8DC
330
608
100
AcDbEntity
  8
BEM
 62
     0
370
    -2
100
AcDbLine
 10
138.9151980631271
 20
256.2537242139805
 30
0.0
 11
138.9151980631271
 21
224.1226242017667
 31
0.0
  0
LINE
  5
8DD
330
608
100
AcDbEntity
  8
BEM
 62
     0
370
    -2
100
AcDbLine
 10
357.9151980631265
 20
256.2771464588429
 30
0.0
 11
357.9151980631265
 21
224.1226242017667
 31
0.0
  0
LINE
  5
8DE
330
608
100
AcDbEntity
  8
BEM
 62
     0
370
    -2
100
AcDbLine
 10
145.9151980631271
 20
226.1226242017667
 30
0.0
 11
350.9151980631265
 21
226.1226242017667
 31
0.0
  0
SOLID
  5
8DF
330
608
100
AcDbEntity
  8
BEM
 62
     0
100
AcDbTrace
 10
145.9151980631271
 20
227.2892908684334
 30
0.0
 11
145.9151980631271
 21
224.9559575351001
 31
0.0
 12
138.9151980631271
 22
226.1226242017667
 32
0.0
 13
138.9151980631271
 23
226.1226242017667
 33
0.0
  0
SOLID
  5
8E0
330
608
100
AcDbEntity
  8
BEM
 62
     0
100
AcDbTrace
 10
350.9151980631265
 20
227.2892908684334
 30
0.0
 11
350.9151980631265
 21
224.9559575351001
 31
0.0
 12
357.9151980631265
 22
226.1226242017667
 32
0.0
 13
357.9151980631265
 23
226.1226242017667
 33
0.0
  0
MTEXT
  5
8E1
330
608
100
AcDbEntity
  8
BEM
 62
     1
100
AcDbMText
 10
248.4151980631268
 20
232.6226242017667
 30
0.0
 40
7.0
 41
0.0
 71
     5
 72
     1
  1
\A1;%%c219
 73
     1
 44
1.0
  0
POINT
  5
8E2
330
608
100
AcDbEntity
  8
DEFPOINTS
 62
     0
100
AcDbPoint
 10
138.9151980631271
 20
258.2537242139805
 30
0.0
  0
POINT
  5
8E3
330
608
100
AcDbEntity
  8
DEFPOINTS
 62
     0
100
AcDbPoint
 10
357.9151980631265
 20
258.2771464588429
 30
0.0
  0
POINT
  5
8E4
330
608
100
AcDbEntity
  8
DEFPOINTS
 62
     0
100
AcDbPoint
 10
357.9151980631265
 20
226.1226242017667
 30
0.0
  0
ENDBLK
  5
613
330
608
100
AcDbEntity
  8
0
100
AcDbBlockEnd
  0
BLOCK
  5
6C8
330
6BE
100
AcDbEntity
  8
0
100
AcDbBlockBegin
  2
*D5
 70
     1
 10
0.0
 20
0.0
 30
0.0
  3
*D5
  1

  0
LINE
  5
8D3
330
6BE
100
AcDbEntity
  8
BEM
 62
     0
370
    -2
100
AcDbLine
 10
137.7790071695102
 20
248.3803409484214
 30
0.0
 11
93.61482579281936
 21
248.3803409484214
 31
0.0
  0
LINE
  5
8D4
330
6BE
100
AcDbEntity
  8
BEM
 62
     0
370
    -2
100
AcDbLine
 10
136.5009273106258
 20
408.381787012479
 30
0.0
 11
93.61482579281938
 21
408.381787012479
 31
0.0
  0
LINE
  5
8D5
330
6BE
100
AcDbEntity
  8
BEM
 62
     0
370
    -2
100
AcDbLine
 10
95.61482579281936
 20
255.3803409484213
 30
0.0
 11
95.61482579281939
 21
401.3817870124791
 31
0.0
  0
SOLID
  5
8D6
330
6BE
100
AcDbEntity
  8
BEM
 62
     0
100
AcDbTrace
 10
94.44815912615268
 20
255.3803409484213
 30
0.0
 11
96.78149245948603
 21
255.3803409484213
 31
0.0
 12
95.61482579281936
 22
248.3803409484214
 32
0.0
 13
95.61482579281936
 23
248.3803409484214
 33
0.0
  0
SOLID
  5
8D7
330
6BE
100
AcDbEntity
  8
BEM
 62
     0
100
AcDbTrace
 10
94.44815912615272
 20
401.3817870124791
 30
0.0
 11
96.78149245948606
 21
401.3817870124791
 31
0.0
 12
95.61482579281939
 22
408.381787012479
 32
0.0
 13
95.61482579281939
 23
408.381787012479
 33
0.0
  0
MTEXT
  5
8D8
330
6BE
100
AcDbEntity
  8
BEM
 62
     1
100
AcDbMText
 10
89.11482579281932
 20
328.3810639804502
 30
0.0
 40
7.0
 41
0.0
 71
     5
 72
     1
  1
\A1;160
 11
0.0000000000000001
 21
1.0
 31
0.0
 73
     1
 44
1.0
  0
POINT
  5
8D9
330
6BE
100
AcDbEntity
  8
DEFPOINTS
 62
     0
100
AcDbPoint
 10
139.7790071695101
 20
248.3803409484214
 30
0.0
  0
POINT
  5
8DA
330
6BE
100
AcDbEntity
  8
DEFPOINTS
 62
     0
100
AcDbPoint
 10
138.5009273106258
 20
408.381787012479
 30
0.0
  0
POINT
  5
8DB
330
6BE
100
AcDbEntity
  8
DEFPOINTS
 62
     0
100
AcDbPoint
 10
95.61482579281939
 20
408.381787012479
 30
0.0
  0
ENDBLK
  5
6C9
330
6BE
100
AcDbEntity
  8
0
100
AcDbBlockEnd
  0
BLOCK
  5
7FC
330
7F0
100
AcDbEntity
  8
0
100
AcDbBlockBegin
  2
*D6
 70
     1
 10
0.0
 20
0.0
 30
0.0
  3
*D6
  1

  0
LINE
  5
889
330
7F0
100
AcDbEntity
  8
BEM
 62
     0
370
    -2
100
AcDbLine
 10
384.9151980631273
 20
535.3803409484211
 30
0.0
 11
384.9151980631273
 21
550.5725779396096
 31
0.0
  0
LINE
  5
88A
330
7F0
100
AcDbEntity
  8
BEM
 62
     0
370
    -2
100
AcDbLine
 10
380.9151980631274
 20
535.3803409484211
 30
0.0
 11
380.9151980631274
 21
550.5725779396096
 31
0.0
  0
LINE
  5
88B
330
7F0
100
AcDbEntity
  8
BEM
 62
     0
370
    -2
100
AcDbLine
 10
391.9151980631273
 20
548.5725779396095
 30
0.0
 11
398.9151980631273
 21
548.5725779396095
 31
0.0
  0
LINE
  5
88C
330
7F0
100
AcDbEntity
  8
BEM
 62
     0
370
    -2
100
AcDbLine
 10
373.9151980631274
 20
548.5725779396095
 30
0.0
 11
356.9151980631274
 21
548.5725779396095
 31
0.0
  0
LINE
  5
88D
330
7F0
100
AcDbEntity
  8
BEM
 62
     0
370
    -2
100
AcDbLine
 10
384.9151980631273
 20
548.5725779396095
 30
0.0
 11
380.9151980631274
 21
548.5725779396095
 31
0.0
  0
SOLID
  5
88E
330
7F0
100
AcDbEntity
  8
BEM
 62
     0
100
AcDbTrace
 10
391.9151980631273
 20
549.7392446062762
 30
0.0
 11
391.9151980631273
 21
547.4059112729429
 31
0.0
 12
384.9151980631273
 22
548.5725779396095
 32
0.0
 13
384.9151980631273
 23
548.5725779396095
 33
0.0
  0
SOLID
  5
88F
330
7F0
100
AcDbEntity
  8
BEM
 62
     0
100
AcDbTrace
 10
373.9151980631274
 20
549.7392446062762
 30
0.0
 11
373.9151980631274
 21
547.4059112729429
 31
0.0
 12
380.9151980631274
 22
548.5725779396095
 32
0.0
 13
380.9151980631274
 23
548.5725779396095
 33
0.0
  0
MTEXT
  5
890
330
7F0
100
AcDbEntity
  8
BEM
 62
     1
100
AcDbMText
 10
361.9151980631274
 20
555.0725779396096
 30
0.0
 40
7.0
 41
0.0
 71
     5
 72
     1
  1
\A1;4
 73
     1
 44
1.0
  0
POINT
  5
891
330
7F0
100
AcDbEntity
  8
DEFPOINTS
 62
     0
100
AcDbPoint
 10
384.9151980631273
 20
533.3803409484211
 30
0.0
  0
POINT
  5
892
330
7F0
100
AcDbEntity
  8
DEFPOINTS
 62
     0
100
AcDbPoint
 10
380.9151980631274
 20
533.3803409484211
 30
0.0
  0
POINT
  5
893
330
7F0
100
AcDbEntity
  8
DEFPOINTS
 62
     0
100
AcDbPoint
 10
380.9151980631274
 20
548.5725779396095
 30
0.0
  0
ENDBLK
  5
7FD
330
7F0
100
AcDbEntity
  8
0
100
AcDbBlockEnd
  0
BLOCK
  5
816
330
80C
100
AcDbEntity
  8
0
100
AcDbBlockBegin
  2
*D7
 70
     1
 10
0.0
 20
0.0
 30
0.0
  3
*D7
  1

  0
LINE
  5
880
330
80C
100
AcDbEntity
  8
BEM
 62
     0
370
    -2
100
AcDbLine
 10
384.9151980631273
 20
535.3803409484211
 30
0.0
 11
384.9151980631273
 21
564.5725779396095
 31
0.0
  0
LINE
  5
881
330
80C
100
AcDbEntity
  8
BEM
 62
     0
370
    -2
100
AcDbLine
 10
111.9151980631267
 20
535.3803409484212
 30
0.0
 11
111.9151980631267
 21
564.5725779396095
 31
0.0
  0
LINE
  5
882
330
80C
100
AcDbEntity
  8
BEM
 62
     0
370
    -2
100
AcDbLine
 10
377.9151980631273
 20
562.5725779396096
 30
0.0
 11
118.9151980631268
 21
562.5725779396096
 31
0.0
  0
SOLID
  5
883
330
80C
100
AcDbEntity
  8
BEM
 62
     0
100
AcDbTrace
 10
377.9151980631273
 20
563.7392446062762
 30
0.0
 11
377.9151980631273
 21
561.4059112729429
 31
0.0
 12
384.9151980631273
 22
562.5725779396096
 32
0.0
 13
384.9151980631273
 23
562.5725779396096
 33
0.0
  0
SOLID
  5
884
330
80C
100
AcDbEntity
  8
BEM
 62
     0
100
AcDbTrace
 10
118.9151980631268
 20
563.7392446062762
 30
0.0
 11
118.9151980631268
 21
561.4059112729429
 31
0.0
 12
111.9151980631267
 22
562.5725779396096
 32
0.0
 13
111.9151980631267
 23
562.5725779396096
 33
0.0
  0
MTEXT
  5
885
330
80C
100
AcDbEntity
  8
BEM
 62
     1
100
AcDbMText
 10
248.4151980631271
 20
569.0725779396095
 30
0.0
 40
7.0
 41
0.0
 71
     5
 72
     1
  1
\A1;%%c273
 73
     1
 44
1.0
  0
POINT
  5
886
330
80C
100
AcDbEntity
  8
DEFPOINTS
 62
     0
100
AcDbPoint
 10
384.9151980631273
 20
533.3803409484211
 30
0.0
  0
POINT
  5
887
330
80C
100
AcDbEntity
  8
DEFPOINTS
 62
     0
100
AcDbPoint
 10
111.9151980631267
 20
533.3803409484212
 30
0.0
  0
POINT
  5
888
330
80C
100
AcDbEntity
  8
DEFPOINTS
 62
     0
100
AcDbPoint
 10
111.9151980631267
 20
562.5725779396096
 30
0.0
  0
ENDBLK
  5
817
330
80C
100
AcDbEntity
  8
0
100
AcDbBlockEnd
  0
BLOCK
  5
837
330
82D
100
AcDbEntity
  8
0
100
AcDbBlockBegin
  2
*D8
 70
     1
 10
0.0
 20
0.0
 30
0.0
  3
*D8
  1

  0
LINE
  5
877
330
82D
100
AcDbEntity
  8
BEM
 62
     0
370
    -2
100
AcDbLine
 10
109.9151980631267
 20
533.3803409484212
 30
0.0
 11
91.5531994394246
 21
533.3803409484212
 31
0.0
  0
LINE
  5
878
330
82D
100
AcDbEntity
  8
BEM
 62
     0
370
    -2
100
AcDbLine
 10
110.0748194751553
 20
463.3803409484213
 30
0.0
 11
91.55319943942458
 21
463.3803409484213
 31
0.0
  0
LINE
  5
879
330
82D
100
AcDbEntity
  8
BEM
 62
     0
370
    -2
100
AcDbLine
 10
93.55319943942459
 20
526.3803409484212
 30
0.0
 11
93.55319943942459
 21
470.3803409484213
 31
0.0
  0
SOLID
  5
87A
330
82D
100
AcDbEntity
  8
BEM
 62
     0
100
AcDbTrace
 10
92.38653277275792
 20
526.3803409484212
 30
0.0
 11
94.71986610609127
 21
526.3803409484212
 31
0.0
 12
93.55319943942459
 22
533.3803409484212
 32
0.0
 13
93.55319943942459
 23
533.3803409484212
 33
0.0
  0
SOLID
  5
87B
330
82D
100
AcDbEntity
  8
BEM
 62
     0
100
AcDbTrace
 10
92.38653277275792
 20
470.3803409484213
 30
0.0
 11
94.71986610609127
 21
470.3803409484213
 31
0.0
 12
93.55319943942459
 22
463.3803409484213
 32
0.0
 13
93.55319943942459
 23
463.3803409484213
 33
0.0
  0
MTEXT
  5
87C
330
82D
100
AcDbEntity
  8
BEM
 62
     1
100
AcDbMText
 10
87.05319943942452
 20
498.3803409484212
 30
0.0
 40
7.0
 41
0.0
 71
     5
 72
     1
  1
\A1;min.70
 11
0.0000000000000001
 21
1.0
 31
0.0
 73
     1
 44
1.0
  0
POINT
  5
87D
330
82D
100
AcDbEntity
  8
DEFPOINTS
 62
     0
100
AcDbPoint
 10
111.9151980631267
 20
533.3803409484212
 30
0.0
  0
POINT
  5
87E
330
82D
100
AcDbEntity
  8
DEFPOINTS
 62
     0
100
AcDbPoint
 10
112.0748194751553
 20
463.3803409484213
 30
0.0
  0
POINT
  5
87F
330
82D
100
AcDbEntity
  8
DEFPOINTS
 62
     0
100
AcDbPoint
 10
93.55319943942459
 20
463.3803409484213
 30
0.0
  0
ENDBLK
  5
838
330
82D
100
AcDbEntity
  8
0
100
AcDbBlockEnd
  0
ENDSEC
  0
SECTION
  2
ENTITIES
  0
LINE
  5
13A
102
{ACAD_REACTORS
330
987
330
99B
102
}
330
4CE
100
AcDbEntity
  8
STEMPEL
  6
Continuous
100
AcDbLine
 10
125.4151980631269
 20
433.381787012479
 30
0.0
 11
371.4151980631271
 21
433.3817870124788
 31
0.0
  0
LINE
  5
13B
102
{ACAD_REACTORS
330
6D4
330
987
102
}
330
4CE
100
AcDbEntity
  8
STEMPEL
  6
Continuous
100
AcDbLine
 10
139.7790071695101
 20
248.3803409484214
 30
0.0
 11
357.0513889567434
 21
248.3803409484211
 31
0.0
  0
DIMENSION
  5
13E
330
4CE
100
AcDbEntity
  8
BEM
100
AcDbDimension
  2
*D3
 10
355.0151980631269
 20
341.5359302456736
 30
0.0
 11
332.2818647297935
 21
348.0359302456736
 31
0.0
 70
    32
 71
     5
 42
2.900000000000034
  3
STANDARD
100
AcDbAlignedDimension
 13
357.9151980631269
 23
341.5359302456736
 33
0.0
 14
355.0151980631269
 24
341.5359302456736
 34
0.0
100
AcDbRotatedDimension
1001
ACAD
1000
DSTYLE
1002
{
1070
    40
1040
2.0
1070
    41
1040
3.5
1070
    42
1040
1.0
1070
    43
1040
7.0
1070
    44
1040
1.0
1070
    47
1040
2.0
1070
    73
1070
     0
1070
    74
1070
     0
1070
    77
1070
     1
1070
    78
1070
     8
1070
    79
1070
     2
1070
   140
1040
3.5
1070
   141
1040
1.5
1070
   146
1040
0.5
1070
   147
1040
1.5
1070
   172
1070
     1
1070
   178
1070
     1
1070
   179
1070
     2
1070
   279
1070
     0
1002
}
  0
LINE
  5
140
330
4CE
100
AcDbEntity
  8
HILF
100
AcDbLine
 10
141.4967800465802
 20
408.381787012479
 30
0.0
 11
352.374084679384
 21
408.3817870124788
 31
0.0
  0
LINE
  5
146
330
4CE
100
AcDbEntity
  8
HILF
100
AcDbLine
 10
419.9999999999999
 20
594.0000000000002
 30
0.0
 11
0.0
 21
594.0
 31
0.0
  0
LINE
  5
147
330
4CE
100
AcDbEntity
  8
STEMPEL
100
AcDbLine
 10
410.0
 20
584.0
 30
0.0
 11
39.99999999999989
 21
584.0
 31
0.0
  0
LINE
  5
14A
330
4CE
100
AcDbEntity
  8
HILF
100
AcDbLine
 10
233.4909699289885
 20
14.89398258028314
 30
0.0
 11
404.8588839326728
 21
14.89398258028314
 31
0.0
  0
LINE
  5
14B
330
4CE
100
AcDbEntity
  8
STEMPEL
100
AcDbLine
 10
410.0
 20
80.0
 30
0.0
 11
146.0000000000001
 21
79.99999999999994
 31
0.0
  0
LINE
  5
14C
330
4CE
100
AcDbEntity
  8
STEMPEL
100
AcDbLine
 10
410.0
 20
40.0
 30
0.0
 11
146.0000000000001
 21
39.99999999999997
 31
0.0
  0
LINE
  5
14D
330
4CE
100
AcDbEntity
  8
HILF
100
AcDbLine
 10
420.0
 20
0.0
 30
0.0
 11
0.0
 21
0.0
 31
0.0
  0
LINE
  5
14E
330
4CE
100
AcDbEntity
  8
STEMPEL
100
AcDbLine
 10
410.0
 20
10.0
 30
0.0
 11
39.99999999999989
 21
10.0
 31
0.0
  0
LINE
  5
14F
330
4CE
100
AcDbEntity
  8
STEMPEL
100
AcDbLine
 10
49.99999999999989
 20
10.0
 30
0.0
 11
410.0
 21
10.0
 31
0.0
  0
LINE
  5
150
330
4CE
100
AcDbEntity
  8
STEMPEL
100
AcDbLine
 10
410.0
 20
110.0
 30
0.0
 11
39.99999999999997
 21
110.0
 31
0.0
  0
LINE
  5
151
330
4CE
100
AcDbEntity
  8
MITTEL
100
AcDbLine
 10
248.4151980631268
 20
243.3803409484212
 30
0.0
 11
248.415198063127
 21
447.4247780619627
 31
0.0
  0
DIMENSION
  5
152
330
4CE
100
AcDbEntity
  8
BEM
100
AcDbDimension
  2
*D2
 10
76.21062603575132
 20
248.3803409484214
 30
0.0
 11
69.71062603575129
 21
390.8803409484213
 31
0.0
 70
    32
 71
     5
 42
284.9999999999999
  3
STANDARD
100
AcDbAlignedDimension
 13
111.9151980631267
 23
533.3803409484212
 33
0.0
 14
139.7790071695101
 24
248.3803409484214
 34
0.0
 50
269.9999999999999
100
AcDbRotatedDimension
1001
ACAD
1000
DSTYLE
1002
{
1070
    40
1040
2.0
1070
    41
1040
3.5
1070
    42
1040
1.0
1070
    43
1040
7.0
1070
    44
1040
1.0
1070
    47
1040
2.0
1070
    73
1070
     0
1070
    74
1070
     0
1070
    77
1070
     1
1070
    78
1070
     8
1070
    79
1070
     2
1070
   140
1040
3.5
1070
   141
1040
1.5
1070
   146
1040
0.5
1070
   147
1040
1.5
1070
   172
1070
     1
1070
   178
1070
     1
1070
   179
1070
     2
1070
   279
1070
     0
1002
}
  0
LINE
  5
156
330
4CE
100
AcDbEntity
  8
HILF
100
AcDbLine
 10
0.0
 20
0.0
 30
0.0
 11
-0.0000000000001137
 21
594.0
 31
0.0
  0
LINE
  5
157
330
4CE
100
AcDbEntity
  8
STEMPEL
100
AcDbLine
 10
40.0
 20
10.0
 30
0.0
 11
39.99999999999989
 21
584.0
 31
0.0
  0
TEXT
  5
158
330
4CE
100
AcDbEntity
  8
TEXT
100
AcDbText
 10
41.85509950977674
 20
111.6719999999999
 30
0.0
 40
5.0
  1
Erstellt mit AUTOCAD 2004
 41
0.8
  7
GREEKS
100
AcDbText
  0
LINE
  5
159
330
4CE
100
AcDbEntity
  8
HILF
100
AcDbLine
 10
40.00000000000008
 20
39.99999999999997
 30
0.0
 11
146.0000000000001
 21
39.99999999999997
 31
0.0
  0
LINE
  5
15A
330
4CE
100
AcDbEntity
  8
HILF
100
AcDbLine
 10
40.00000000000008
 20
49.99999999999997
 30
0.0
 11
146.0000000000001
 21
49.99999999999997
 31
0.0
  0
LINE
  5
15B
330
4CE
100
AcDbEntity
  8
HILF
100
AcDbLine
 10
40.00000000000008
 20
59.99999999999998
 30
0.0
 11
146.0000000000001
 21
59.99999999999998
 31
0.0
  0
LINE
  5
15C
330
4CE
100
AcDbEntity
  8
HILF
100
AcDbLine
 10
40.00000000000008
 20
69.99999999999994
 30
0.0
 11
146.0000000000001
 21
69.99999999999994
 31
0.0
  0
LINE
  5
15D
330
4CE
100
AcDbEntity
  8
HILF
100
AcDbLine
 10
40.00000000000008
 20
79.99999999999994
 30
0.0
 11
146.0000000000001
 21
79.99999999999994
 31
0.0
  0
LINE
  5
15E
330
4CE
100
AcDbEntity
  8
HILF
100
AcDbLine
 10
40.00000000000008
 20
90.00000000000005
 30
0.0
 11
146.0000000000001
 21
90.00000000000005
 31
0.0
  0
LINE
  5
15F
330
4CE
100
AcDbEntity
  8
HILF
100
AcDbLine
 10
40.00000000000008
 20
100.0
 30
0.0
 11
146.0000000000001
 21
100.0
 31
0.0
  0
LINE
  5
160
330
4CE
100
AcDbEntity
  8
STEMPEL
100
AcDbLine
 10
145.9999999999999
 20
29.99999999999997
 30
0.0
 11
39.99999999999997
 21
29.99999999999997
 31
0.0
  0
LINE
  5
161
330
4CE
100
AcDbEntity
  8
VOLL
100
AcDbLine
 10
54.00000000000009
 20
110.0
 30
0.0
 11
53.99999999999998
 21
9.999999999999971
 31
0.0
  0
TEXT
  5
162
330
4CE
100
AcDbEntity
  8
TEXT
100
AcDbText
 10
48.26641107045756
 20
13.65465846027192
 30
0.0
 40
4.0
  1
Index
 50
90.0
 41
0.8
  7
GREEKS
100
AcDbText
  0
TEXT
  5
163
330
4CE
100
AcDbEntity
  8
TEXT
100
AcDbText
 10
234.9837501577827
 20
42.62974153022633
 30
0.0
 40
4.0
  1
06007HG0W.DWG
 41
0.8
  7
GREEKS
100
AcDbText
  0
LINE
  5
164
330
4CE
100
AcDbEntity
  8
VOLL
100
AcDbLine
 10
164.0000000000001
 20
79.99999999999994
 30
0.0
 11
164.0000000000001
 21
39.99999999999997
 31
0.0
  0
TEXT
  5
165
330
4CE
100
AcDbEntity
  8
TEXT
100
AcDbText
 10
147.6006777387303
 20
43.52946389649807
 30
0.0
 40
4.0
  1
Norm.
 41
0.8
  7
GREEKS
100
AcDbText
  0
LINE
  5
166
330
4CE
100
AcDbEntity
  8
VOLL
100
AcDbLine
 10
124.0000000000001
 20
109.9999999999999
 30
0.0
 11
124.0
 21
9.999999999999971
 31
0.0
  0
LINE
  5
167
330
4CE
100
AcDbEntity
  8
VOLL
100
AcDbLine
 10
104.0000000000001
 20
109.9999999999999
 30
0.0
 11
104.0
 21
9.999999999999971
 31
0.0
  0
LINE
  5
168
330
4CE
100
AcDbEntity
  8
STEMPEL
100
AcDbLine
 10
146.0000000000001
 20
109.9999999999999
 30
0.0
 11
146.0
 21
9.999999999999971
 31
0.0
  0
LINE
  5
169
330
4CE
100
AcDbEntity
  8
VOLL
100
AcDbLine
 10
190.0000000000001
 20
109.9999999999998
 30
0.0
 11
190.0
 21
39.99999999999997
 31
0.0
  0
LINE
  5
16A
330
4CE
100
AcDbEntity
  8
STEMPEL
100
AcDbLine
 10
230.0
 20
110.0
 30
0.0
 11
230.0
 21
9.999999999999971
 31
0.0
  0
INSERT
  5
16B
330
4CE
100
AcDbEntity
  8
STEMPEL
100
AcDbBlockReference
  2
LOGO
 10
150.9955485457794
 20
45.02105276448322
 30
0.0
 41
2.0
 42
2.0
 43
2.0
  0
TEXT
  5
16C
330
4CE
100
AcDbEntity
  8
TEXT
100
AcDbText
 10
67.99242976101119
 20
18.67381894984132
 30
0.0
 40
4.0
  1
Änderung
 41
0.8
 72
     1
 11
78.73528690386834
 21
18.67381894984132
 31
0.0
100
AcDbText
  0
TEXT
  5
16D
330
4CE
100
AcDbEntity
  8
TEXT
100
AcDbText
 10
110.5664638663472
 20
18.6715626933981
 30
0.0
 40
4.0
  1
Tag
 41
0.8
 72
     1
 11
114.2997971996806
 21
18.6715626933981
 31
0.0
100
AcDbText
  0
TEXT
  5
16E
330
4CE
100
AcDbEntity
  8
TEXT
100
AcDbText
 10
128.6986456479587
 20
18.59324216966408
 30
0.0
 40
4.0
  1
Name
 41
0.8
 72
     1
 11
135.0224551717682
 21
18.59324216966408
 31
0.0
100
AcDbText
  0
TEXT
  5
16F
330
4CE
100
AcDbEntity
  8
TEXT
100
AcDbText
 10
234.742238391136
 20
30.84560570193057
 30
0.0
 40
5.0
  1
Bauvorhaben
 41
0.8
  7
GREEKS
100
AcDbText
  0
LINE
  5
171
330
4CE
100
AcDbEntity
  8
HILF
100
AcDbLine
 10
146.0000000000001
 20
49.99999999999997
 30
0.0
 11
230.0
 21
49.99999999999997
 31
0.0
  0
LINE
  5
172
330
4CE
100
AcDbEntity
  8
HILF
100
AcDbLine
 10
146.0000000000001
 20
59.99999999999998
 30
0.0
 11
230.0
 21
59.99999999999998
 31
0.0
  0
LINE
  5
173
330
4CE
100
AcDbEntity
  8
HILF
100
AcDbLine
 10
146.0000000000001
 20
69.99999999999994
 30
0.0
 11
230.0
 21
69.99999999999994
 31
0.0
  0
TEXT
  5
174
330
4CE
100
AcDbEntity
  8
TEXT
100
AcDbText
 10
153.5163572150377
 20
102.4620895087088
 30
0.0
 40
5.0
  1
Maßstab
 41
0.8
  7
GREEKS
100
AcDbText
  0
TEXT
  5
175
330
4CE
100
AcDbEntity
  8
TEXT
100
AcDbText
 10
147.5515086571672
 20
53.68926291428377
 30
0.0
 40
4.0
  1
Gepr.
 41
0.8
  7
GREEKS
100
AcDbText
  0
TEXT
  5
176
330
4CE
100
AcDbEntity
  8
TEXT
100
AcDbText
 10
148.622109822104
 20
73.14025471151666
 30
0.0
 40
4.0
  1
2008
 41
0.8
  7
GREEKS
100
AcDbText
  0
TEXT
  5
177
330
4CE
100
AcDbEntity
  8
TEXT
100
AcDbText
 10
147.5836127167615
 20
63.62990369617964
 30
0.0
 40
4.0
  1
Gez.
 41
0.8
  7
GREEKS
100
AcDbText
  0
TEXT
  5
178
330
4CE
100
AcDbEntity
  8
TEXT
100
AcDbText
 10
172.331167315365
 20
73.31880501229926
 30
0.0
 40
4.0
  1
Tag
 41
0.8
  7
GREEKS
100
AcDbText
  0
TEXT
  5
179
330
4CE
100
AcDbEntity
  8
TEXT
100
AcDbText
 10
170.398997108236
 20
63.10765040825732
 30
0.0
 40
4.0
  1
23.06.
 41
0.8
  7
GREEKS
 72
     1
 11
177.4085209177599
 21
63.10765040825732
 31
0.0
100
AcDbText
  0
TEXT
  5
17A
330
4CE
100
AcDbEntity
  8
TEXT
 62
     1
100
AcDbText
 10
160.5006306481887
 20
88.14901428913959
 30
0.0
 40
7.0
  1
1:2
 41
0.8
  7
GREEKS
100
AcDbText
  0
TEXT
  5
17B
330
4CE
100
AcDbEntity
  8
TEXT
 62
     1
100
AcDbText
 10
69.64115036283404
 20
175.2986938158537
 30
0.0
 40
7.0
  1
Rohrenden leicht eingezogen
 41
0.8
  7
GREEKS
100
AcDbText
  0
TEXT
  5
17C
330
4CE
100
AcDbEntity
  8
TEXT
100
AcDbText
 10
235.1296391125315
 20
71.50334417585288
 30
0.0
 40
5.0
  1
DN250 Muffenlos
 41
0.8
  7
GREEKS
100
AcDbText
  0
TEXT
  5
17D
330
4CE
100
AcDbEntity
  8
TEXT
 62
     1
100
AcDbText
 10
234.8532061785107
 20
87.41748789253779
 30
0.0
 40
7.0
  1
Abgleichstück
 41
0.8
  7
GREEKS
100
AcDbText
  0
TEXT
  5
17E
330
4CE
100
AcDbEntity
  8
TEXT
100
AcDbText
 10
234.877940380901
 20
102.5489328011779
 30
0.0
 40
5.0
  1
Benennung
 41
0.8
  7
GREEKS
100
AcDbText
  0
TEXT
  5
17F
330
4CE
100
AcDbEntity
  8
TEXT
100
AcDbText
 10
235.1296391125315
 20
51.64011943042159
 30
0.0
 40
5.0
  1
EDV-Art.Nr. 06007.HG0X
 41
0.8
  7
GREEKS
100
AcDbText
  0
LINE
  5
180
330
4CE
100
AcDbEntity
  8
HILF
100
AcDbLine
 10
234.7736801096948
 20
49.99999999999997
 30
0.0
 11
324.835391655631
 21
49.99999999999997
 31
0.0
  0
LINE
  5
181
330
4CE
100
AcDbEntity
  8
HILF
100
AcDbLine
 10
234.7736801096948
 20
59.99999999999998
 30
0.0
 11
324.835391655631
 21
59.99999999999998
 31
0.0
  0
LINE
  5
182
330
4CE
100
AcDbEntity
  8
HILF
100
AcDbLine
 10
234.7736801096948
 20
69.99999999999994
 30
0.0
 11
324.835391655631
 21
69.99999999999994
 31
0.0
  0
LINE
  5
183
330
4CE
100
AcDbEntity
  8
HILF
100
AcDbLine
 10
234.7736801096948
 20
84.03758247564139
 30
0.0
 11
324.8353916556311
 21
84.03758247564139
 31
0.0
  0
TEXT
  5
184
330
4CE
100
AcDbEntity
  8
TEXT
100
AcDbText
 10
194.2858954734051
 20
102.4184168434819
 30
0.0
 40
5.0
  1
Zul. Abw.
 41
0.8
  7
GREEKS
100
AcDbText
  0
TEXT
  5
185
330
4CE
100
AcDbEntity
  8
TEXT
100
AcDbText
 10
202.4626584226295
 20
73.30961091915225
 30
0.0
 40
4.0
  1
Name
 41
0.8
  7
GREEKS
100
AcDbText
  0
TEXT
  5
186
330
4CE
100
AcDbEntity
  8
TEXT
100
AcDbText
 10
204.4216048581257
 20
63.0896391972351
 30
0.0
 40
4.0
  1
Koeh
 41
0.8
  7
GREEKS
 72
     1
 11
209.6787477152686
 21
63.0896391972351
 31
0.0
100
AcDbText
  0
LINE
  5
187
330
4CE
100
AcDbEntity
  8
HILF
100
AcDbLine
 10
31.08767135713856
 20
297.0
 30
0.0
 11
0.0000000000001137
 21
297.0
 31
0.0
  0
LINE
  5
18B
102
{ACAD_REACTORS
330
61E
102
}
330
4CE
100
AcDbEntity
  8
STEMPEL
  6
Continuous
100
AcDbLine
 10
138.9151980631271
 20
258.2537242139805
 30
0.0
 11
138.9151980631269
 21
405.5333146510821
 31
0.0
  0
ARC
  5
191
330
4CE
100
AcDbEntity
  8
SCHRAFF
100
AcDbCircle
 10
137.6928542298041
 20
433.3817870124789
 30
0.0
 40
3.98983484850948
100
AcDbArc
 50
311.2438286196605
 51
48.75617138033977
  0
ARC
  5
192
330
4CE
100
AcDbEntity
  8
SCHRAFF
100
AcDbCircle
 10
127.6928542298041
 20
433.381787012479
 30
0.0
 40
3.98983484850948
100
AcDbArc
 50
311.2438286196605
 51
48.75617138033977
  0
ARC
  5
193
330
4CE
100
AcDbEntity
  8
SCHRAFF
100
AcDbCircle
 10
147.6928542298042
 20
433.3817870124789
 30
0.0
 40
3.98983484850948
100
AcDbArc
 50
311.2438286196605
 51
48.75617138033977
  0
ARC
  5
195
330
4CE
100
AcDbEntity
  8
SCHRAFF
100
AcDbCircle
 10
167.6928542298042
 20
433.3817870124789
 30
0.0
 40
3.98983484850948
100
AcDbArc
 50
311.2438286196605
 51
48.75617138033977
  0
ARC
  5
196
330
4CE
100
AcDbEntity
  8
SCHRAFF
100
AcDbCircle
 10
157.6928542298041
 20
433.3817870124789
 30
0.0
 40
3.98983484850948
100
AcDbArc
 50
311.2438286196605
 51
48.75617138033977
  0
ARC
  5
197
330
4CE
100
AcDbEntity
  8
SCHRAFF
100
AcDbCircle
 10
187.6928542298042
 20
433.3817870124788
 30
0.0
 40
3.98983484850948
100
AcDbArc
 50
311.2438286196605
 51
48.75617138033977
  0
ARC
  5
198
330
4CE
100
AcDbEntity
  8
SCHRAFF
100
AcDbCircle
 10
177.6928542298041
 20
433.3817870124789
 30
0.0
 40
3.98983484850948
100
AcDbArc
 50
311.2438286196605
 51
48.75617138033977
  0
ARC
  5
19E
330
4CE
100
AcDbEntity
  8
SCHRAFF
100
AcDbCircle
 10
197.6928542298042
 20
433.3817870124789
 30
0.0
 40
3.98983484850948
100
AcDbArc
 50
311.2438286196605
 51
48.75617138033977
  0
ARC
  5
19F
330
4CE
100
AcDbEntity
  8
SCHRAFF
100
AcDbCircle
 10
217.6928542298042
 20
433.3817870124789
 30
0.0
 40
3.98983484850948
100
AcDbArc
 50
311.2438286196605
 51
48.75617138033977
  0
ARC
  5
1A0
330
4CE
100
AcDbEntity
  8
SCHRAFF
100
AcDbCircle
 10
207.6928542298042
 20
433.3817870124789
 30
0.0
 40
3.98983484850948
100
AcDbArc
 50
311.2438286196605
 51
48.75617138033977
  0
ARC
  5
1A2
330
4CE
100
AcDbEntity
  8
SCHRAFF
100
AcDbCircle
 10
227.6928542298042
 20
433.3817870124789
 30
0.0
 40
3.98983484850948
100
AcDbArc
 50
311.2438286196605
 51
48.75617138033977
  0
ARC
  5
1A3
330
4CE
100
AcDbEntity
  8
SCHRAFF
100
AcDbCircle
 10
237.6928542298042
 20
433.3817870124788
 30
0.0
 40
3.98983484850948
100
AcDbArc
 50
311.2438286196605
 51
48.75617138033977
  0
INSERT
  5
1A8
330
4CE
100
AcDbEntity
  8
TEXT
100
AcDbBlockReference
  2
INDEX
 10
420.0
 20
0.0
 30
0.0
 41
2.0
 42
2.0
 43
2.0
  0
LINE
  5
1A9
330
4CE
100
AcDbEntity
  8
HILF
100
AcDbLine
 10
420.0
 20
-0.0000000000001137
 30
0.0
 11
419.9999999999999
 21
594.0
 31
0.0
  0
LINE
  5
1AA
330
4CE
100
AcDbEntity
  8
STEMPEL
100
AcDbLine
 10
410.0
 20
10.0
 30
0.0
 11
410.0
 21
584.0
 31
0.0
  0
LINE
  5
1AB
330
4CE
100
AcDbEntity
  8
STEMPEL
100
AcDbLine
 10
332.0
 20
109.9999999999997
 30
0.0
 11
332.0
 21
40.0
 31
0.0
  0
LINE
  5
1AC
330
4CE
100
AcDbEntity
  8
HILF
100
AcDbLine
 10
336.7238616296993
 20
83.77983636955827
 30
0.0
 11
404.8588839326728
 21
83.77983636955827
 31
0.0
  0
LINE
  5
1AD
330
4CE
100
AcDbEntity
  8
VOLL
100
AcDbLine
 10
332.0
 20
60.0
 30
0.0
 11
410.0
 21
60.0
 31
0.0
  0
TEXT
  5
1AE
330
4CE
100
AcDbEntity
  8
TEXT
100
AcDbText
 10
336.178754957634
 20
102.3132034537136
 30
0.0
 40
5.0
  1
Zeichnungs Nr.
 41
0.8
  7
GREEKS
100
AcDbText
  0
TEXT
  5
1AF
330
4CE
100
AcDbEntity
  8
TEXT
 62
     1
100
AcDbText
 10
346.2613596023828
 20
88.14901428913959
 30
0.0
 40
7.0
  1
06007HG0W
 41
0.8
  7
GREEKS
 72
     1
 11
370.6613596023828
 21
88.14901428913959
 31
0.0
100
AcDbText
  0
TEXT
  5
1B0
330
4CE
100
AcDbEntity
  8
TEXT
100
AcDbText
 10
336.7238616296993
 20
73.1811823709997
 30
0.0
 40
5.0
  1
Ersatz für:
 41
0.8
  7
GREEKS
100
AcDbText
  0
TEXT
  5
1B1
330
4CE
100
AcDbEntity
  8
TEXT
100
AcDbText
 10
337.2400861497006
 20
52.07416177878602
 30
0.0
 40
5.0
  1
ersetzt durch:
 41
0.8
  7
GREEKS
100
AcDbText
  0
LINE
  5
1B6
102
{ACAD_REACTORS
330
987
102
}
330
4CE
100
AcDbEntity
  8
STEMPEL
100
AcDbLine
 10
354.1436406356504
 20
248.4183939675036
 30
0.0
 11
355.015198063127
 21
258.3803409484212
 31
0.0
  0
LINE
  5
1B7
102
{ACAD_REACTORS
330
987
102
}
330
4CE
100
AcDbEntity
  8
STEMPEL
100
AcDbLine
 10
357.9151980631266
 20
258.2537242139823
 30
0.0
 11
357.915198063127
 21
405.5333146510819
 31
0.0
  0
ARC
  5
1BF
102
{ACAD_REACTORS
330
987
102
}
330
4CE
100
AcDbEntity
  8
STEMPEL
100
AcDbCircle
 10
367.915198063127
 20
405.5333146510818
 30
0.0
 40
10.0
100
AcDbArc
 50
151.9645009083413
 51
179.9999999999998
  0
LINE
  5
4F8
330
4CE
100
AcDbEntity
  8
HILF
  6
Continuous
100
AcDbLine
 10
141.8151980631266
 20
258.3803409484215
 30
0.0
 11
352.1041205342513
 21
258.380340948421
 31
0.0
  0
LINE
  5
4F9
102
{ACAD_REACTORS
330
987
102
}
330
4CE
100
AcDbEntity
  8
STEMPEL
100
AcDbLine
 10
355.0151980631269
 20
258.3803409484212
 30
0.0
 11
355.0151980631269
 21
405.5333146510818
 31
0.0
  0
LINE
  5
4FA
102
{ACAD_REACTORS
330
987
102
}
330
4CE
100
AcDbEntity
  8
STEMPEL
100
AcDbLine
 10
357.0513889567434
 20
248.3803409484211
 30
0.0
 11
357.9151980631266
 21
258.2537242139823
 31
0.0
  0
LINE
  5
4FC
330
4CE
100
AcDbEntity
  8
STEMPEL
100
AcDbLine
 10
139.7790071695101
 20
248.3803409484214
 30
0.0
 11
138.9151980631271
 21
258.2537242139805
 31
0.0
  0
LINE
  5
606
330
4CE
100
AcDbEntity
  8
MITTEL
100
AcDbLine
 10
248.415198063127
 20
461.2589988956742
 30
0.0
 11
248.4151980631271
 21
538.3803409484211
 31
0.0
  0
DIMENSION
  5
607
102
{ACAD_XDICTIONARY
360
614
102
}
102
{ACAD_REACTORS
330
61E
102
}
330
4CE
100
AcDbEntity
  8
BEM
100
AcDbDimension
  2
*D4
 10
357.9151980631265
 20
226.1226242017667
 30
0.0
 11
248.4151980631268
 21
232.6226242017667
 31
0.0
 70
    32
  1
%%c<>
 71
     5
 42
218.9999999999993
  3
STANDARD
100
AcDbAlignedDimension
 13
138.9151980631271
 23
258.2537242139805
 33
0.0
 14
357.9151980631265
 24
258.2771464588429
 34
0.0
100
AcDbRotatedDimension
1001
ACAD
1000
DSTYLE
1002
{
1070
    40
1040
2.0
1070
    41
1040
3.5
1070
    42
1040
1.0
1070
    43
1040
7.0
1070
    44
1040
1.0
1070
    47
1040
2.0
1070
    73
1070
     0
1070
    74
1070
     0
1070
    77
1070
     1
1070
    78
1070
     8
1070
    79
1070
     2
1070
   140
1040
3.5
1070
   141
1040
1.5
1070
   146
1040
0.5
1070
   147
1040
1.5
1070
   172
1070
     1
1070
   178
1070
     1
1070
   179
1070
     2
1070
   279
1070
     0
1002
}
  0
TEXT
  5
6A0
330
4CE
100
AcDbEntity
  8
TEXT
 62
     1
100
AcDbText
 10
226.9692408084909
 20
298.0016507204808
 30
0.0
 40
7.0
  1
DN200
 50
90.0
 41
0.8
  7
GREEKS
100
AcDbText
  0
TEXT
  5
6A2
330
4CE
100
AcDbEntity
  8
TEXT
 62
     1
100
AcDbText
 10
226.9692408084909
 20
493.8167077982996
 30
0.0
 40
7.0
  1
DN250
 50
90.0
 41
0.8
  7
GREEKS
100
AcDbText
  0
TEXT
  5
6A3
330
4CE
100
AcDbEntity
  8
TEXT
100
AcDbText
 10
193.2166482913145
 20
88.41825943226146
 30
0.0
 40
4.0
  1
DIN EN1123-2
 41
0.8
 72
     1
 11
210.2071244817907
 21
88.41825943226146
 31
0.0
100
AcDbText
  0
TEXT
  5
6B8
330
4CE
100
AcDbEntity
  8
TEXT
 62
     1
100
AcDbText
 10
173.7905869735248
 20
129.0783465745483
 30
0.0
 40
7.0
  1
feuerverzinkt und innen beschichtet
 41
0.8
  7
GREEKS
100
AcDbText
  0
TEXT
  5
6B9
330
4CE
100
AcDbEntity
  8
TEXT
 62
     1
100
AcDbText
 10
125.840869536127
 20
139.8004583895517
 30
0.0
 40
7.0
  1
Werkstoff: E195 EN10305, P235 TR1 EN10217-1 feuerverzinkt
 41
0.8
  7
GREEKS
100
AcDbText
  0
DIMENSION
  5
6BD
102
{ACAD_XDICTIONARY
360
6CA
102
}
102
{ACAD_REACTORS
330
6D4
102
}
330
4CE
100
AcDbEntity
  8
BEM
100
AcDbDimension
  2
*D5
 10
95.61482579281939
 20
408.381787012479
 30
0.0
 11
89.11482579281932
 21
328.3810639804502
 31
0.0
 70
    32
 71
     5
 42
160.0014460640577
  3
STANDARD
100
AcDbAlignedDimension
 13
139.7790071695101
 23
248.3803409484214
 33
0.0
 14
138.5009273106258
 24
408.381787012479
 34
0.0
 50
90.0
100
AcDbRotatedDimension
1001
ACAD
1000
DSTYLE
1002
{
1070
    40
1040
2.0
1070
    41
1040
3.5
1070
    42
1040
1.0
1070
    43
1040
7.0
1070
    44
1040
1.0
1070
    47
1040
2.0
1070
    73
1070
     0
1070
    74
1070
     0
1070
    77
1070
     1
1070
    78
1070
     8
1070
    79
1070
     2
1070
   140
1040
3.5
1070
   141
1040
1.5
1070
   146
1040
0.5
1070
   147
1040
1.5
1070
   172
1070
     1
1070
   178
1070
     1
1070
   179
1070
     2
1070
   279
1070
     0
1002
}
  0
ARC
  5
721
102
{ACAD_REACTORS
330
99B
102
}
330
4CE
100
AcDbEntity
  8
STEMPEL
100
AcDbCircle
 10
368.9151980631274
 20
465.6347602061767
 30
0.0
 40
16.0
100
AcDbArc
 50
334.7892320242126
 51
0.0
  0
LINE
  5
723
330
4CE
100
AcDbEntity
  8
HILF
100
AcDbLine
 10
377.3342037836215
 20
463.380340948421
 30
0.0
 11
115.7826114748632
 21
463.3803409484213
 31
0.0
  0
LINE
  5
724
102
{ACAD_REACTORS
330
80A
330
822
330
99B
102
}
330
4CE
100
AcDbEntity
  8
STEMPEL
100
AcDbLine
 10
384.9151980631274
 20
465.6347602061767
 30
0.0
 11
384.9151980631273
 21
533.3803409484211
 31
0.0
  0
LINE
  5
725
102
{ACAD_REACTORS
330
80A
330
822
330
843
330
99B
102
}
330
4CE
100
AcDbEntity
  8
STEMPEL
100
AcDbLine
 10
111.9151980631267
 20
533.3803409484212
 30
0.0
 11
384.9151980631268
 21
533.3803409484211
 31
0.0
  0
LINE
  5
727
102
{ACAD_REACTORS
330
80A
330
99B
102
}
330
4CE
100
AcDbEntity
  8
STEMPEL
100
AcDbLine
 10
380.9151980631274
 20
465.7151419564571
 30
0.0
 11
380.9151980631274
 21
533.380340948421
 31
0.0
  0
LINE
  5
728
102
{ACAD_REACTORS
330
822
102
}
330
4CE
100
AcDbEntity
  8
STEMPEL
100
AcDbLine
 10
111.9151980631266
 20
465.6347602061766
 30
0.0
 11
111.9151980631267
 21
533.3803409484212
 31
0.0
  0
DIMENSION
  5
7EF
102
{ACAD_XDICTIONARY
360
7FE
102
}
102
{ACAD_REACTORS
330
80A
102
}
330
4CE
100
AcDbEntity
  8
BEM
100
AcDbDimension
  2
*D6
 10
380.9151980631274
 20
548.5725779396095
 30
0.0
 11
361.9151980631274
 21
555.0725779396096
 31
0.0
 70
    32
 71
     5
 42
3.999999999999886
  3
STANDARD
100
AcDbAlignedDimension
 13
384.9151980631273
 23
533.3803409484211
 33
0.0
 14
380.9151980631274
 24
533.3803409484211
 34
0.0
100
AcDbRotatedDimension
1001
ACAD
1000
DSTYLE
1002
{
1070
    40
1040
2.0
1070
    41
1040
3.5
1070
    42
1040
1.0
1070
    43
1040
7.0
1070
    44
1040
1.0
1070
    47
1040
2.0
1070
    73
1070
     0
1070
    74
1070
     0
1070
    77
1070
     1
1070
    78
1070
     8
1070
    79
1070
     2
1070
   140
1040
3.5
1070
   141
1040
1.5
1070
   146
1040
0.5
1070
   147
1040
1.5
1070
   172
1070
     1
1070
   178
1070
     1
1070
   179
1070
     2
1070
   279
1070
     0
1002
}
  0
DIMENSION
  5
80B
102
{ACAD_XDICTIONARY
360
818
102
}
102
{ACAD_REACTORS
330
822
102
}
330
4CE
100
AcDbEntity
  8
BEM
100
AcDbDimension
  2
*D7
 10
111.9151980631267
 20
562.5725779396096
 30
0.0
 11
248.4151980631271
 21
569.0725779396095
 31
0.0
 70
    32
  1
%%c<>
 71
     5
 42
273.0000000000004
  3
STANDARD
100
AcDbAlignedDimension
 13
384.9151980631273
 23
533.3803409484211
 33
0.0
 14
111.9151980631267
 24
533.3803409484212
 34
0.0
100
AcDbRotatedDimension
1001
ACAD
1000
DSTYLE
1002
{
1070
    40
1040
2.0
1070
    41
1040
3.5
1070
    42
1040
1.0
1070
    43
1040
7.0
1070
    44
1040
1.0
1070
    47
1040
2.0
1070
    73
1070
     0
1070
    74
1070
     0
1070
    77
1070
     1
1070
    78
1070
     8
1070
    79
1070
     2
1070
   140
1040
3.5
1070
   141
1040
1.5
1070
   146
1040
0.5
1070
   147
1040
1.5
1070
   172
1070
     1
1070
   178
1070
     1
1070
   179
1070
     2
1070
   279
1070
     0
1002
}
  0
DIMENSION
  5
82C
102
{ACAD_XDICTIONARY
360
839
102
}
102
{ACAD_REACTORS
330
843
102
}
330
4CE
100
AcDbEntity
  8
BEM
100
AcDbDimension
  2
*D8
 10
93.55319943942459
 20
463.3803409484213
 30
0.0
 11
87.05319943942452
 21
498.3803409484212
 31
0.0
 70
    32
  1
min.<>
 71
     5
 42
69.99999999999994
  3
STANDARD
100
AcDbAlignedDimension
 13
111.9151980631267
 23
533.3803409484212
 33
0.0
 14
112.0748194751553
 24
463.3803409484213
 34
0.0
 50
90.0
100
AcDbRotatedDimension
1001
ACAD
1000
DSTYLE
1002
{
1070
    40
1040
2.0
1070
    41
1040
3.5
1070
    42
1040
1.0
1070
    43
1040
7.0
1070
    44
1040
1.0
1070
    47
1040
2.0
1070
    73
1070
     0
1070
    74
1070
     0
1070
    77
1070
     1
1070
    78
1070
     8
1070
    79
1070
     2
1070
   140
1040
3.5
1070
   141
1040
1.5
1070
   146
1040
0.5
1070
   147
1040
1.5
1070
   172
1070
     1
1070
   178
1070
     1
1070
   179
1070
     2
1070
   279
1070
     0
1002
}
  0
TEXT
  5
916
330
4CE
100
AcDbEntity
  8
TEXT
100
AcDbText
 10
235.1296391125315
 20
61.50334417585292
 30
0.0
 40
5.0
  1
DN200 Muffe
 41
0.8
  7
GREEKS
100
AcDbText
  0
LINE
  5
932
102
{ACAD_REACTORS
330
987
102
}
330
4CE
100
AcDbEntity
  8
STEMPEL
100
AcDbLine
 10
371.4151980631271
 20
433.3817870124788
 30
0.0
 11
359.0886325623317
 21
410.2334999091509
 31
0.0
  0
ARC
  5
933
102
{ACAD_REACTORS
330
987
102
}
330
4CE
100
AcDbEntity
  8
STEMPEL
100
AcDbCircle
 10
367.915198063127
 20
405.5333146510818
 30
0.0
 40
12.9
100
AcDbArc
 50
151.9645009083413
 51
179.9999999999998
  0
LINE
  5
934
102
{ACAD_REACTORS
330
987
102
}
330
4CE
100
AcDbEntity
  8
STEMPEL
100
AcDbLine
 10
368.129661916889
 20
433.3817870124789
 30
0.0
 11
356.5289285671011
 21
411.596553633991
 31
0.0
  0
LINE
  5
936
102
{ACAD_REACTORS
330
99B
102
}
330
4CE
100
AcDbEntity
  8
STEMPEL
100
AcDbLine
 10
371.4151980631271
 20
433.3817870124788
 30
0.0
 11
383.3911503345105
 21
458.8195708590905
 31
0.0
  0
ARC
  5
937
102
{ACAD_REACTORS
330
99B
102
}
330
4CE
100
AcDbEntity
  8
STEMPEL
100
AcDbCircle
 10
368.9151980631274
 20
465.6347602061767
 30
0.0
 40
12.0
100
AcDbArc
 50
334.7892320242126
 51
0.0
  0
LINE
  5
938
102
{ACAD_REACTORS
330
99B
102
}
330
4CE
100
AcDbEntity
  8
STEMPEL
100
AcDbLine
 10
366.9940726822068
 20
433.3817870124788
 30
0.0
 11
379.7721622666647
 21
460.5233681958621
 31
0.0
  0
LINE
  5
944
102
{ACAD_REACTORS
330
96F
102
}
330
4CE
100
AcDbEntity
  8
STEMPEL
100
AcDbLine
 10
125.4151980631269
 20
433.381787012479
 30
0.0
 11
113.4392457917434
 21
458.8195708590906
 31
0.0
  0
LINE
  5
947
102
{ACAD_REACTORS
330
96F
102
}
330
4CE
100
AcDbEntity
  8
STEMPEL
100
AcDbLine
 10
125.4151980631269
 20
433.381787012479
 30
0.0
 11
137.7417635639222
 21
410.233499909151
 31
0.0
  0
ARC
  5
948
330
4CE
100
AcDbEntity
  8
STEMPEL
100
AcDbCircle
 10
127.9151980631266
 20
465.6347602061769
 30
0.0
 40
16.0
100
AcDbArc
 50
179.9999999999999
 51
205.2107679757873
  0
ARC
  5
949
330
4CE
100
AcDbEntity
  8
STEMPEL
100
AcDbCircle
 10
128.9151980631269
 20
405.5333146510819
 30
0.0
 40
10.0
100
AcDbArc
 50
0.0000000000001514
 51
28.03549909165868
  0
ARC
  5
967
102
{ACAD_REACTORS
330
96F
102
}
330
4CE
100
AcDbEntity
  8
SCHRAFF
100
AcDbCircle
 10
127.0773213124123
 20
434.169154126838
 30
0.0
 40
3.787918175538121
100
AcDbArc
 50
144.2585177852571
 51
269.022667120762
  0
HATCH
  5
96F
330
4CE
100
AcDbEntity
  8
SCHRAFF
100
AcDbHatch
 10
0.0
 20
0.0
 30
0.0
210
0.0
220
0.0
230
1.0
  2
_USER
 70
     0
 71
     1
 91
        1
 92
        7
 72
     1
 73
     1
 93
        3
 10
125.415198063127
 20
433.3817870124793
 42
0.0
 10
124.0028165038373
 20
436.3817870124793
 42
0.6054077449371861
 10
127.0127113623753
 20
430.3817870124789
 42
0.0
 97
        3
330
944
330
967
330
947
 75
     0
 76
     0
 52
0.0
 41
0.1
 77
     0
 78
     1
 53
0.0
 43
0.0
 44
0.0
 45
0.0
 46
0.1
 79
     0
 47
0.1673521570354422
 98
        1
 10
124.7421964635564
 20
432.080309549887
  0
HATCH
  5
970
330
4CE
100
AcDbEntity
  8
SCHRAFF
100
AcDbHatch
 10
0.0
 20
0.0
 30
0.0
210
0.0
220
0.0
230
1.0
  2
_USER
 70
     0
 71
     0
 91
        1
 92
        7
 72
     1
 73
     1
 93
        3
 10
371.4151980631269
 20
433.3817870124791
 42
0.0
 10
372.8275796224166
 20
436.381787012479
 42
-0.6054077449371861
 10
369.8176847638786
 20
430.3817870124787
 42
0.0
 97
        0
 75
     0
 76
     0
 52
0.0
 41
0.1
 77
     0
 78
     1
 53
179.9999999999999
 43
496.8303961262532
 44
-0.0000000000003979
 45
0.0000000000000002
 46
0.1
 79
     0
 47
0.1673521570354422
 98
        1
 10
372.0881996626975
 20
432.0803095498868
  0
ARC
  5
971
330
4CE
100
AcDbEntity
  8
SCHRAFF
100
AcDbCircle
 10
369.7530748138416
 20
434.1691541268378
 30
0.0
 40
3.787918175538121
100
AcDbArc
 50
270.9773328792379
 51
35.74148221474281
  0
HATCH
  5
987
330
4CE
100
AcDbEntity
  8
SCHRAFF
100
AcDbHatch
 10
0.0
 20
0.0
 30
0.0
210
0.0
220
0.0
230
1.0
  2
_USER
 70
     0
 71
     1
 91
        1
 92
        7
 72
     1
 73
     1
 93
       10
 10
357.915198063127
 20
405.5333146510819
 42
-0.1229417930917809
 10
359.0886325623317
 20
410.2334999091509
 42
0.0
 10
371.4151980631271
 20
433.3817870124789
 42
0.0
 10
368.129661916889
 20
433.3817870124789
 42
0.0
 10
356.5289285671011
 20
411.596553633991
 42
0.1229417930917828
 10
355.0151980631269
 20
405.5333146510818
 42
0.0
 10
355.0151980631269
 20
258.380340948421
 42
0.0
 10
354.1403114278677
 20
248.3803409484212
 42
0.0
 10
357.0513889567434
 20
248.3803409484211
 42
0.0
 10
357.9151980631266
 20
258.2537242139828
 42
0.0
 97
       10
330
1BF
330
932
330
13A
330
934
330
933
330
4F9
330
1B6
330
13B
330
4FA
330
1B7
 75
     0
 76
     0
 52
45.0
 41
3.0
 77
     0
 78
     1
 53
45.0
 43
0.0
 44
0.0
 45
-2.121320343559642
 46
2.121320343559642
 79
     0
 47
0.7047647161905469
 98
        1
 10
356.4696473978743
 20
363.2985729508089
  0
HATCH
  5
99B
330
4CE
100
AcDbEntity
  8
SCHRAFF
100
AcDbHatch
 10
0.0
 20
0.0
 30
0.0
210
0.0
220
0.0
230
1.0
  2
_USER
 70
     0
 71
     1
 91
        1
 92
        7
 72
     1
 73
     1
 93
        8
 10
380.9151980631274
 20
465.6347602061767
 42
-0.110448584881449
 10
379.7721622666647
 20
460.5233681958621
 42
0.0
 10
366.9940726822069
 20
433.3817870124788
 42
0.0
 10
371.4151980631271
 20
433.3817870124788
 42
0.0
 10
383.3911503345105
 20
458.8195708590905
 42
0.1104485848814496
 10
384.9151980631274
 20
465.6347602061768
 42
0.0
 10
384.9151980631273
 20
533.380340948421
 42
0.0
 10
380.9151980631274
 20
533.380340948421
 42
0.0
 97
        8
330
725
330
727
330
937
330
938
330
13A
330
936
330
721
330
724
 75
     0
 76
     0
 52
135.0
 41
3.0
 77
     0
 78
     1
 53
135.0
 43
0.0
 44
0.0
 45
-2.121320343559642
 46
-2.121320343559642
 79
     0
 47
0.7047647161905469
 98
        1
 10
382.5654631659963
 20
511.2991634055966
  0
ENDSEC
  0
SECTION
  2
OBJECTS
  0
DICTIONARY
  5
4BA
330
0
100
AcDbDictionary
281
     1
  3
ACAD_COLOR
350
4C9
  3
ACAD_GROUP
350
4BB
  3
ACAD_LAYOUT
350
4C7
  3
ACAD_MATERIAL
350
4C8
  3
ACAD_MLINESTYLE
350
4C4
  3
ACAD_PLOTSETTINGS
350
4C6
  3
ACAD_PLOTSTYLENAME
350
4BC
  3
AcDbVariableDictionary
350
910
  0
DICTIONARY
  5
614
330
607
100
AcDbDictionary
280
     1
281
     1
  3
ACAD_DIMASSOC
360
61E
  0
DICTIONARY
  5
6CA
330
6BD
100
AcDbDictionary
280
     1
281
     1
  3
ACAD_DIMASSOC
360
6D4
  0
DICTIONARY
  5
7FE
330
7EF
100
AcDbDictionary
280
     1
281
     1
  3
ACAD_DIMASSOC
360
80A
  0
DICTIONARY
  5
818
330
80B
100
AcDbDictionary
280
     1
281
     1
  3
ACAD_DIMASSOC
360
822
  0
DICTIONARY
  5
839
330
82C
100
AcDbDictionary
280
     1
281
     1
  3
ACAD_DIMASSOC
360
843
  0
DICTIONARY
  5
4C9
102
{ACAD_REACTORS
330
4BA
102
}
330
4BA
100
AcDbDictionary
281
     1
  0
DICTIONARY
  5
4BB
102
{ACAD_REACTORS
330
4BA
102
}
330
4BA
100
AcDbDictionary
281
     1
  0
DICTIONARY
  5
4C7
102
{ACAD_REACTORS
330
4BA
102
}
330
4BA
100
AcDbDictionary
281
     1
  3
Layout1
350
4CD
  3
Model
350
4D1
  0
DICTIONARY
  5
4C8
102
{ACAD_REACTORS
330
4BA
102
}
330
4BA
100
AcDbDictionary
281
     1
  0
DICTIONARY
  5
4C4
102
{ACAD_REACTORS
330
4BA
102
}
330
4BA
100
AcDbDictionary
281
     1
  3
Standard
350
4C5
  0
DICTIONARY
  5
4C6
102
{ACAD_REACTORS
330
4BA
102
}
330
4BA
100
AcDbDictionary
281
     1
  0
ACDBDICTIONARYWDFLT
  5
4BC
102
{ACAD_REACTORS
330
4BA
102
}
330
4BA
100
AcDbDictionary
281
     1
  3
Normal
350
4BD
100
AcDbDictionaryWithDefault
340
4BD
  0
DICTIONARY
  5
910
102
{ACAD_REACTORS
330
4BA
102
}
330
4BA
100
AcDbDictionary
281
     1
  3
DIMASSOC
350
912
  3
HIDETEXT
350
911
  3
PROJECTNAME
350
913
  0
DIMASSOC
  5
61E
102
{ACAD_REACTORS
330
614
102
}
330
614
100
AcDbDimAssoc
330
607
 90
        1
 70
     0
 71
     0
  1
AcDbOsnapPointRef
 72
    13
331
18B
 73
     2
 91
        0
 40
0.0
 10
0.0
 20
0.0
 30
2.000000000000000E+50
 75
     0
  0
DIMASSOC
  5
6D4
102
{ACAD_REACTORS
330
6CA
102
}
330
6CA
100
AcDbDimAssoc
330
6BD
 90
        1
 70
     0
 71
     0
  1
AcDbOsnapPointRef
 72
    13
331
13B
 73
     2
 91
        0
 40
0.0
 10
0.0
 20
0.0
 30
2.000000000000000E+50
 75
     0
  0
DIMASSOC
  5
80A
102
{ACAD_REACTORS
330
7FE
102
}
330
7FE
100
AcDbDimAssoc
330
7EF
 90
        3
 70
     0
 71
     0
  1
AcDbOsnapPointRef
 72
     6
331
725
 73
     2
 91
        0
 40
1.0
 10
0.0
 20
0.0
 30
0.0
332
724
 74
     2
 92
        0
 75
     0
  1
AcDbOsnapPointRef
 72
     6
331
727
 73
     2
 91
        0
 40
1.0
 10
0.0
 20
0.0
 30
0.0
332
725
 74
     2
 92
        0
 75
     0
  0
DIMASSOC
  5
822
102
{ACAD_REACTORS
330
818
102
}
330
818
100
AcDbDimAssoc
330
80B
 90
        3
 70
     0
 71
     0
  1
AcDbOsnapPointRef
 72
     6
331
725
 73
     2
 91
        0
 40
1.0
 10
0.0
 20
0.0
 30
0.0
332
724
 74
     2
 92
        0
 75
     0
  1
AcDbOsnapPointRef
 72
     1
331
728
 73
     2
 91
        0
 40
1.0
 10
0.0
 20
0.0
 30
2.000000000000000E+50
 75
     0
  0
DIMASSOC
  5
843
102
{ACAD_REACTORS
330
839
102
}
330
839
100
AcDbDimAssoc
330
82C
 90
        1
 70
     0
 71
     0
  1
AcDbOsnapPointRef
 72
    13
331
725
 73
     2
 91
        0
 40
0.0
 10
0.0
 20
0.0
 30
2.000000000000000E+50
 75
     0
  0
LAYOUT
  5
4CD
102
{ACAD_REACTORS
330
4C7
102
}
330
4C7
100
AcDbPlotSettings
  1

  2
RICOH Aficio 2027 PCL 6
  4

  6

 40
0.0
 41
0.0
 42
0.0
 43
0.0
 44
0.0
 45
0.0
 46
0.0
 47
0.0
 48
0.0
 49
0.0
140
0.0
141
0.0
142
1.0
143
1.0
 70
   688
 72
     0
 73
     0
 74
     5
  7
monochrome1.ctb
 75
    16
147
1.0
 76
     0
 77
     2
 78
   300
148
0.0
149
0.0
100
AcDbLayout
  1
Layout1
 70
     0
 71
     1
 10
0.0
 20
0.0
 11
12.0
 21
9.0
 12
2.245139065676091
 22
50.00000000000001
 32
-1.032423782695658
 14
1.000000000000000E+20
 24
1.000000000000000E+20
 34
1.000000000000000E+20
 15
-1.000000000000000E+20
 25
-1.000000000000000E+20
 35
-1.000000000000000E+20
146
0.0
 13
0.0
 23
0.0
 33
0.0
 16
1.0
 26
0.0
 36
0.0
 17
0.0
 27
1.0
 37
0.0
 76
     0
330
4CA
  0
LAYOUT
  5
4D1
102
{ACAD_REACTORS
330
4C7
102
}
330
4C7
100
AcDbPlotSettings
  1

  2
RICOH Aficio 2027 PCL 6
  4
A4
  6

 40
5.027083396911621
 41
5.027085304260253
 42
5.027084350585937
 43
5.027069091796875
 44
209.9733276367187
 45
296.9259948730469
 46
0.0
 47
0.0
 48
0.0
 49
0.0
140
0.0
141
0.0
142
1.0
143
1.0
 70
 11952
 72
     0
 73
     1
 74
     0
  7
monochrome1.ctb
 75
     0
147
1.0
 76
     0
 77
     2
 78
   300
148
2092.240755169082
149
81.75712724803208
100
AcDbLayout
  1
Model
 70
     1
 71
     0
 10
0.0
 20
0.0
 11
12.0
 21
9.0
 12
0.0
 22
0.0
 32
0.0
 14
0.0
 24
0.0
 34
0.0
 15
0.0
 25
0.0
 35
0.0
146
0.0
 13
0.0
 23
0.0
 33
0.0
 16
1.0
 26
0.0
 36
0.0
 17
0.0
 27
1.0
 37
0.0
 76
     0
330
4CE
  0
MLINESTYLE
  5
4C5
102
{ACAD_REACTORS
330
4C4
102
}
330
4C4
100
AcDbMlineStyle
  2
STANDARD
 70
     0
  3

 62
   256
 51
90.0
 52
90.0
 71
     2
 49
0.5
 62
   256
  6
BYLAYER
 49
-0.5
 62
   256
  6
BYLAYER
  0
ACDBPLACEHOLDER
  5
4BD
102
{ACAD_REACTORS
330
4BC
102
}
330
4BC
  0
DICTIONARYVAR
  5
912
102
{ACAD_REACTORS
330
910
102
}
330
910
100
DictionaryVariables
280
     0
  1
2
  0
DICTIONARYVAR
  5
911
102
{ACAD_REACTORS
330
910
102
}
330
910
100
DictionaryVariables
280
     0
  1
1
  0
DICTIONARYVAR
  5
913
102
{ACAD_REACTORS
330
910
102
}
330
910
100
DictionaryVariables
280
     0
  1

  0
ENDSEC
  0
EOF
