  0
SECTION
  2
HEADER
  9
$ACADVER
  1
AC1018
  9
$ACADMAINTVER
 70
     2
  9
$DWGCODEPAGE
  3
ANSI_1252
  9
$INSBASE
 10
0.0
 20
0.0
 30
0.0
  9
$EXTMIN
 10
-0.0064041928749248
 20
-0.0090573584946014
 30
-0.0000000000112498
  9
$EXTMAX
 10
420.0064100605654
 20
594.0090656570857
 30
0.0000000000002956
  9
$LIMMIN
 10
0.0
 20
0.0
  9
$LIMMAX
 10
419.9999999999999
 20
594.0
  9
$ORTHOMODE
 70
     1
  9
$REGENMODE
 70
     1
  9
$FILLMODE
 70
     1
  9
$QTEXTMODE
 70
     0
  9
$MIRRTEXT
 70
     1
  9
$LTSCALE
 40
20.0
  9
$ATTMODE
 70
     1
  9
$TEXTSIZE
 40
2.5
  9
$TRACEWID
 40
0.5
  9
$TEXTSTYLE
  7
GREEKS
  9
$CLAYER
  8
VOLL
  9
$CELTYPE
  6
ByLayer
  9
$CECOLOR
 62
   256
  9
$CELTSCALE
 40
1.0
  9
$DISPSILH
 70
     0
  9
$DIMSCALE
 40
2.0
  9
$DIMASZ
 40
3.5
  9
$DIMEXO
 40
1.0
  9
$DIMDLI
 40
7.0
  9
$DIMRND
 40
0.0
  9
$DIMDLE
 40
0.0
  9
$DIMEXE
 40
1.0
  9
$DIMTP
 40
2.2
  9
$DIMTM
 40
2.2
  9
$DIMTXT
 40
3.5
  9
$DIMCEN
 40
1.5
  9
$DIMTSZ
 40
0.0
  9
$DIMTOL
 70
     0
  9
$DIMLIM
 70
     0
  9
$DIMTIH
 70
     0
  9
$DIMTOH
 70
     0
  9
$DIMSE1
 70
     0
  9
$DIMSE2
 70
     0
  9
$DIMTAD
 70
     1
  9
$DIMZIN
 70
     8
  9
$DIMBLK
  1

  9
$DIMASO
 70
     1
  9
$DIMSHO
 70
     0
  9
$DIMPOST
  1

  9
$DIMAPOST
  1

  9
$DIMALT
 70
     0
  9
$DIMALTD
 70
     2
  9
$DIMALTF
 40
25.4
  9
$DIMLFAC
 40
1.0
  9
$DIMTOFL
 70
     1
  9
$DIMTVP
 40
0.0
  9
$DIMTIX
 70
     0
  9
$DIMSOXD
 70
     0
  9
$DIMSAH
 70
     0
  9
$DIMBLK1
  1

  9
$DIMBLK2
  1

  9
$DIMSTYLE
  2
Standard
  9
$DIMCLRD
 70
     0
  9
$DIMCLRE
 70
     0
  9
$DIMCLRT
 70
     1
  9
$DIMTFAC
 40
0.5
  9
$DIMGAP
 40
1.5
  9
$DIMJUST
 70
     0
  9
$DIMSD1
 70
     0
  9
$DIMSD2
 70
     0
  9
$DIMTOLJ
 70
     1
  9
$DIMTZIN
 70
     8
  9
$DIMALTZ
 70
     8
  9
$DIMALTTZ
 70
     8
  9
$DIMUPT
 70
     0
  9
$DIMDEC
 70
     2
  9
$DIMTDEC
 70
     2
  9
$DIMALTU
 70
     2
  9
$DIMALTTD
 70
     2
  9
$DIMTXSTY
  7
GREEKS
  9
$DIMAUNIT
 70
     0
  9
$DIMADEC
 70
     2
  9
$DIMALTRND
 40
0.0
  9
$DIMAZIN
 70
     2
  9
$DIMDSEP
 70
    46
  9
$DIMATFIT
 70
     3
  9
$DIMFRAC
 70
     0
  9
$DIMLDRBLK
  1

  9
$DIMLUNIT
 70
     2
  9
$DIMLWD
 70
    -2
  9
$DIMLWE
 70
    -2
  9
$DIMTMOVE
 70
     0
  9
$LUNITS
 70
     2
  9
$LUPREC
 70
     2
  9
$SKETCHINC
 40
1.0
  9
$FILLETRAD
 40
16.0
  9
$AUNITS
 70
     0
  9
$AUPREC
 70
     0
  9
$MENU
  1
ACAD
  9
$ELEVATION
 40
0.0
  9
$PELEVATION
 40
0.0
  9
$THICKNESS
 40
0.0
  9
$LIMCHECK
 70
     0
  9
$CHAMFERA
 40
0.0
  9
$CHAMFERB
 40
0.0
  9
$CHAMFERC
 40
0.0
  9
$CHAMFERD
 40
0.0
  9
$SKPOLY
 70
     0
  9
$TDCREATE
 40
2452216.504863079
  9
$TDUCREATE
 40
2452216.421529745
  9
$TDUPDATE
 40
2455658.370304780
  9
$TDUUPDATE
 40
2455658.286971447
  9
$TDINDWG
 40
0.0684765972
  9
$TDUSRTIMER
 40
0.0684765972
  9
$USRTIMER
 70
     1
  9
$ANGBASE
 50
0.0
  9
$ANGDIR
 70
     0
  9
$PDMODE
 70
     0
  9
$PDSIZE
 40
0.0
  9
$PLINEWID
 40
0.0
  9
$SPLFRAME
 70
     0
  9
$SPLINETYPE
 70
     6
  9
$SPLINESEGS
 70
     8
  9
$HANDSEED
  5
374
  9
$SURFTAB1
 70
     6
  9
$SURFTAB2
 70
     6
  9
$SURFTYPE
 70
     6
  9
$SURFU
 70
     6
  9
$SURFV
 70
     6
  9
$UCSBASE
  2

  9
$UCSNAME
  2

  9
$UCSORG
 10
0.0
 20
0.0
 30
0.0
  9
$UCSXDIR
 10
1.0
 20
0.0
 30
0.0
  9
$UCSYDIR
 10
0.0
 20
1.0
 30
0.0
  9
$UCSORTHOREF
  2

  9
$UCSORTHOVIEW
 70
     0
  9
$UCSORGTOP
 10
0.0
 20
0.0
 30
0.0
  9
$UCSORGBOTTOM
 10
0.0
 20
0.0
 30
0.0
  9
$UCSORGLEFT
 10
0.0
 20
0.0
 30
0.0
  9
$UCSORGRIGHT
 10
0.0
 20
0.0
 30
0.0
  9
$UCSORGFRONT
 10
0.0
 20
0.0
 30
0.0
  9
$UCSORGBACK
 10
0.0
 20
0.0
 30
0.0
  9
$PUCSBASE
  2

  9
$PUCSNAME
  2

  9
$PUCSORG
 10
0.0
 20
0.0
 30
0.0
  9
$PUCSXDIR
 10
1.0
 20
0.0
 30
0.0
  9
$PUCSYDIR
 10
0.0
 20
1.0
 30
0.0
  9
$PUCSORTHOREF
  2

  9
$PUCSORTHOVIEW
 70
     0
  9
$PUCSORGTOP
 10
0.0
 20
0.0
 30
0.0
  9
$PUCSORGBOTTOM
 10
0.0
 20
0.0
 30
0.0
  9
$PUCSORGLEFT
 10
0.0
 20
0.0
 30
0.0
  9
$PUCSORGRIGHT
 10
0.0
 20
0.0
 30
0.0
  9
$PUCSORGFRONT
 10
0.0
 20
0.0
 30
0.0
  9
$PUCSORGBACK
 10
0.0
 20
0.0
 30
0.0
  9
$USERI1
 70
     0
  9
$USERI2
 70
     0
  9
$USERI3
 70
     0
  9
$USERI4
 70
     0
  9
$USERI5
 70
     0
  9
$USERR1
 40
0.0
  9
$USERR2
 40
0.0
  9
$USERR3
 40
0.0
  9
$USERR4
 40
0.0
  9
$USERR5
 40
0.0
  9
$WORLDVIEW
 70
     1
  9
$SHADEDGE
 70
     3
  9
$SHADEDIF
 70
    70
  9
$TILEMODE
 70
     1
  9
$MAXACTVP
 70
    16
  9
$PINSBASE
 10
2.245139065676091
 20
50.00000000000001
 30
-1.032423782695658
  9
$PLIMCHECK
 70
     0
  9
$PEXTMIN
 10
1.000000000000000E+20
 20
1.000000000000000E+20
 30
1.000000000000000E+20
  9
$PEXTMAX
 10
-1.000000000000000E+20
 20
-1.000000000000000E+20
 30
-1.000000000000000E+20
  9
$PLIMMIN
 10
0.0
 20
0.0
  9
$PLIMMAX
 10
12.0
 20
9.0
  9
$UNITMODE
 70
     0
  9
$VISRETAIN
 70
     0
  9
$PLINEGEN
 70
     0
  9
$PSLTSCALE
 70
     0
  9
$TREEDEPTH
 70
  3020
  9
$CMLSTYLE
  2
Standard
  9
$CMLJUST
 70
     0
  9
$CMLSCALE
 40
1.0
  9
$PROXYGRAPHICS
 70
     1
  9
$MEASUREMENT
 70
     0
  9
$CELWEIGHT
370
    -1
  9
$ENDCAPS
280
     0
  9
$JOINSTYLE
280
     0
  9
$LWDISPLAY
290
     0
  9
$INSUNITS
 70
     0
  9
$HYPERLINKBASE
  1

  9
$STYLESHEET
  1
monochrome 1.ctb
  9
$XEDIT
290
     1
  9
$CEPSNTYPE
380
     0
  9
$PSTYLEMODE
290
     1
  9
$FINGERPRINTGUID
  2
{BC48AD51-4817-4796-95B7-19D897BCD904}
  9
$VERSIONGUID
  2
{5C2E4ED4-92EC-494E-855A-59E573676DB3}
  9
$EXTNAMES
290
     1
  9
$PSVPSCALE
 40
0.0
  9
$OLESTARTUP
290
     0
  9
$SORTENTS
280
   127
  9
$INDEXCTL
280
     0
  9
$HIDETEXT
280
     1
  9
$XCLIPFRAME
290
     0
  9
$HALOGAP
280
     0
  9
$OBSCOLOR
 70
   257
  9
$OBSLTYPE
280
     0
  9
$INTERSECTIONDISPLAY
280
     0
  9
$INTERSECTIONCOLOR
 70
   257
  9
$DIMASSOC
280
     2
  9
$PROJECTNAME
  1

  0
ENDSEC
  0
SECTION
  2
CLASSES
  0
CLASS
  1
ACDBDICTIONARYWDFLT
  2
AcDbDictionaryWithDefault
  3
ObjectDBX Classes
 90
        0
 91
        1
280
     0
281
     0
  0
CLASS
  1
DICTIONARYVAR
  2
AcDbDictionaryVar
  3
ObjectDBX Classes
 90
        0
 91
        3
280
     0
281
     0
  0
ENDSEC
  0
SECTION
  2
TABLES
  0
TABLE
  2
VPORT
  5
8
330
0
100
AcDbSymbolTable
 70
     3
  0
VPORT
  5
373
330
8
100
AcDbSymbolTableRecord
100
AcDbViewportTableRecord
  2
*Active
 70
     0
 10
0.0
 20
0.0
 11
1.0
 21
1.0
 12
210.0
 22
297.0
 13
0.0
 23
0.0
 14
1.0
 24
1.0
 15
10.0
 25
10.0
 16
0.0
 26
0.0
 36
1.0
 17
0.0
 27
0.0
 37
0.0
 40
594.0
 41
1.334231805929919
 42
50.0
 43
0.0
 44
0.0
 50
0.0
 51
0.0
 71
     0
 72
  1500
 73
     1
 74
     0
 75
     0
 76
     0
 77
     0
 78
     0
281
     0
 65
     1
110
0.0
120
0.0
130
0.0
111
1.0
121
0.0
131
0.0
112
0.0
122
1.0
132
0.0
 79
     0
146
0.0
  0
ENDTAB
  0
TABLE
  2
LTYPE
  5
5
330
0
100
AcDbSymbolTable
 70
     2
  0
LTYPE
  5
13
330
5
100
AcDbSymbolTableRecord
100
AcDbLinetypeTableRecord
  2
ByBlock
 70
     0
  3

 72
    65
 73
     0
 40
0.0
  0
LTYPE
  5
14
330
5
100
AcDbSymbolTableRecord
100
AcDbLinetypeTableRecord
  2
ByLayer
 70
     0
  3

 72
    65
 73
     0
 40
0.0
  0
LTYPE
  5
15
330
5
100
AcDbSymbolTableRecord
100
AcDbLinetypeTableRecord
  2
Continuous
 70
     0
  3
Solid line
 72
    65
 73
     0
 40
0.0
  0
LTYPE
  5
33
330
5
100
AcDbSymbolTableRecord
100
AcDbLinetypeTableRecord
  2
STRICHPUNKT
 70
     0
  3
__ . __ . __ . __ . __ . __ . __ . __ . __ . __
 72
    65
 73
     4
 40
1.0
 49
0.5
 74
     0
 49
-0.25
 74
     0
 49
0.0
 74
     0
 49
-0.25
 74
     0
  0
ENDTAB
  0
TABLE
  2
LAYER
  5
2
330
0
100
AcDbSymbolTable
 70
     9
  0
LAYER
  5
10
330
2
100
AcDbSymbolTableRecord
100
AcDbLayerTableRecord
  2
0
 70
     0
 62
     7
  6
Continuous
370
    -3
390
F
  0
LAYER
  5
36
330
2
100
AcDbSymbolTableRecord
100
AcDbLayerTableRecord
  2
VOLL
 70
     0
 62
     1
  6
Continuous
370
    -3
390
F
  0
LAYER
  5
37
330
2
100
AcDbSymbolTableRecord
100
AcDbLayerTableRecord
  2
HILF
 70
     0
 62
     2
  6
Continuous
370
    -3
390
F
  0
LAYER
  5
38
330
2
100
AcDbSymbolTableRecord
100
AcDbLayerTableRecord
  2
MITTEL
 70
     0
 62
     2
  6
STRICHPUNKT
370
    -3
390
F
  0
LAYER
  5
39
330
2
100
AcDbSymbolTableRecord
100
AcDbLayerTableRecord
  2
BEM
 70
     0
 62
     7
  6
Continuous
370
    -3
390
F
  0
LAYER
  5
3A
330
2
100
AcDbSymbolTableRecord
100
AcDbLayerTableRecord
  2
STEMPEL
 70
     0
 62
     3
  6
Continuous
370
    -3
390
F
  0
LAYER
  5
3B
330
2
100
AcDbSymbolTableRecord
100
AcDbLayerTableRecord
  2
TEXT
 70
     0
 62
     7
  6
Continuous
370
    -3
390
F
  0
LAYER
  5
3C
330
2
100
AcDbSymbolTableRecord
100
AcDbLayerTableRecord
  2
DEFPOINTS
 70
     0
 62
     7
  6
Continuous
290
     0
370
    -3
390
F
  0
LAYER
  5
3D
330
2
100
AcDbSymbolTableRecord
100
AcDbLayerTableRecord
  2
SCHRAFF
 70
     0
 62
     7
  6
Continuous
370
    -3
390
F
  0
ENDTAB
  0
TABLE
  2
STYLE
  5
3
330
0
100
AcDbSymbolTable
 70
     2
  0
STYLE
  5
11
330
3
100
AcDbSymbolTableRecord
100
AcDbTextStyleTableRecord
  2
STANDARD
 70
     0
 40
0.0
 41
1.0
 50
0.0
 71
     0
 42
3.5
  3
txt
  4

  0
STYLE
  5
32
330
3
100
AcDbSymbolTableRecord
100
AcDbTextStyleTableRecord
  2
GREEKS
 70
     0
 40
0.0
 41
0.8
 50
0.0
 71
     0
 42
2.5
  3
SIMPLEX.shx
  4

  0
ENDTAB
  0
TABLE
  2
VIEW
  5
6
330
0
100
AcDbSymbolTable
 70
     0
  0
ENDTAB
  0
TABLE
  2
UCS
  5
7
330
0
100
AcDbSymbolTable
 70
     0
  0
ENDTAB
  0
TABLE
  2
APPID
  5
9
330
0
100
AcDbSymbolTable
 70
     1
  0
APPID
  5
12
330
9
100
AcDbSymbolTableRecord
100
AcDbRegAppTableRecord
  2
ACAD
 70
     0
  0
ENDTAB
  0
TABLE
  2
DIMSTYLE
  5
A
330
0
100
AcDbSymbolTable
 70
     1
100
AcDbDimStyleTable
 71
     1
340
1DC
  0
DIMSTYLE
105
1DC
102
{ACAD_REACTORS
330
1CD
330
157
330
147
330
159
102
}
330
A
100
AcDbSymbolTableRecord
100
AcDbDimStyleTableRecord
  2
Standard
 70
     0
340
11
  0
ENDTAB
  0
TABLE
  2
BLOCK_RECORD
  5
1
330
0
100
AcDbSymbolTable
 70
    15
  0
BLOCK_RECORD
  5
20
330
1
100
AcDbSymbolTableRecord
100
AcDbBlockTableRecord
  2
*Model_Space
340
23
  0
BLOCK_RECORD
  5
1C
330
1
100
AcDbSymbolTableRecord
100
AcDbBlockTableRecord
  2
*Paper_Space
340
1F
  0
BLOCK_RECORD
  5
24
330
1
100
AcDbSymbolTableRecord
100
AcDbBlockTableRecord
  2
LOGO
340
0
102
{BLKREFS
331
170
102
}
  0
BLOCK_RECORD
  5
27
330
1
100
AcDbSymbolTableRecord
100
AcDbBlockTableRecord
  2
*X1
340
0
102
{BLKREFS
331
191
331
1BD
102
}
  0
BLOCK_RECORD
  5
24C
330
1
100
AcDbSymbolTableRecord
100
AcDbBlockTableRecord
  2
*D10
340
0
  0
BLOCK_RECORD
  5
258
330
1
100
AcDbSymbolTableRecord
100
AcDbBlockTableRecord
  2
*D11
340
0
  0
BLOCK_RECORD
  5
2FB
330
1
100
AcDbSymbolTableRecord
100
AcDbBlockTableRecord
  2
*D13
340
0
  0
BLOCK_RECORD
  5
322
330
1
100
AcDbSymbolTableRecord
100
AcDbBlockTableRecord
  2
*D14
340
0
  0
ENDTAB
  0
ENDSEC
  0
SECTION
  2
BLOCKS
  0
BLOCK
  5
41
330
20
100
AcDbEntity
  8
0
100
AcDbBlockBegin
  2
*Model_Space
 70
     0
 10
0.0
 20
0.0
 30
0.0
  3
*Model_Space
  1

  0
ENDBLK
  5
42
330
20
100
AcDbEntity
  8
0
100
AcDbBlockEnd
  0
BLOCK
  5
3F
330
1C
100
AcDbEntity
 67
     1
  8
0
100
AcDbBlockBegin
  2
*Paper_Space
 70
     0
 10
0.0
 20
0.0
 30
0.0
  3
*Paper_Space
  1

  0
ENDBLK
  5
40
330
1C
100
AcDbEntity
 67
     1
  8
0
100
AcDbBlockEnd
  0
BLOCK
  5
43
330
24
100
AcDbEntity
  8
0
100
AcDbBlockBegin
  2
LOGO
 70
     0
 10
0.0
 20
0.0
 30
0.0
  3
LOGO
  1

  0
ARC
  5
44
330
24
100
AcDbEntity
  8
0
100
AcDbCircle
 10
11.59973089678112
 20
-9.271599258481501
 30
0.0
 40
4.5
100
AcDbArc
 50
270.0
 51
231.0575587310159
  0
LINE
  5
45
330
24
100
AcDbEntity
  8
0
100
AcDbLine
 10
3.599730896781125
 20
-4.771599258481529
 30
0.0
 11
3.599730896781153
 21
-11.77159925848133
 31
0.0
  0
LINE
  5
46
330
24
100
AcDbEntity
  8
0
100
AcDbLine
 10
2.599730896781125
 20
-4.771599258481529
 30
0.0
 11
2.599730896781153
 21
-11.77159925848133
 31
0.0
  0
CIRCLE
  5
47
330
24
100
AcDbEntity
  8
0
100
AcDbCircle
 10
11.59973089678112
 20
-9.271599258481501
 30
0.0
 40
3.5
  0
ARC
  5
48
330
24
100
AcDbEntity
  8
0
100
AcDbCircle
 10
31.59973089678115
 20
-9.271599258481472
 30
0.0
 40
4.5
100
AcDbArc
 50
270.0
 51
231.0575587310182
  0
LINE
  5
49
330
24
100
AcDbEntity
  8
0
100
AcDbLine
 10
17.59973089678112
 20
-4.771599258481472
 30
0.0
 11
17.59973089678115
 21
-13.77159925848147
 31
0.0
  0
ARC
  5
4A
330
24
100
AcDbEntity
  8
0
100
AcDbCircle
 10
22.59973089678116
 20
-7.271599258481472
 30
0.0
 40
2.5
100
AcDbArc
 50
293.1161887722295
 51
90.0
  0
CIRCLE
  5
4B
330
24
100
AcDbEntity
  8
0
100
AcDbCircle
 10
31.59973089678115
 20
-9.271599258481472
 30
0.0
 40
3.5
  0
ARC
  5
4C
330
24
100
AcDbEntity
  8
0
100
AcDbCircle
 10
4.599730896781153
 20
-11.77159925848133
 30
0.0
 40
1.0
100
AcDbArc
 50
180.0
 51
270.0
  0
ARC
  5
4D
330
24
100
AcDbEntity
  8
0
100
AcDbCircle
 10
4.599730896781153
 20
-11.77159925848133
 30
0.0
 40
2.0
100
AcDbArc
 50
179.9999999999992
 51
270.0
  0
LINE
  5
4E
330
24
100
AcDbEntity
  8
0
100
AcDbLine
 10
11.59973089678115
 20
-13.77159925848144
 30
0.0
 11
4.599730896781153
 21
-13.77159925848147
 31
0.0
  0
LINE
  5
4F
330
24
100
AcDbEntity
  8
0
100
AcDbLine
 10
8.771303772034769
 20
-12.77159925848136
 30
0.0
 11
4.599730896781153
 21
-12.77159925848133
 31
0.0
  0
LINE
  5
50
330
24
100
AcDbEntity
  8
0
100
AcDbLine
 10
31.59973089678115
 20
-13.77159925848147
 30
0.0
 11
23.6715276665056
 21
-13.77159925848144
 31
0.0
  0
LINE
  5
51
330
24
100
AcDbEntity
  8
0
100
AcDbLine
 10
23.56565672307022
 20
-9.51278021337896
 30
0.0
 11
24.4388546544846
 21
-12.77159925848144
 31
0.0
  0
LINE
  5
52
330
24
100
AcDbEntity
  8
0
100
AcDbLine
 10
22.59973089678116
 20
-9.771599258481472
 30
0.0
 11
18.59973089678112
 21
-9.771599258481472
 31
0.0
  0
LINE
  5
53
330
24
100
AcDbEntity
  8
0
100
AcDbLine
 10
18.59973089678115
 20
-13.77159925848144
 30
0.0
 11
17.59973089678115
 21
-13.77159925848144
 31
0.0
  0
LINE
  5
54
330
24
100
AcDbEntity
  8
0
100
AcDbLine
 10
18.59973089678115
 20
-9.771599258481472
 30
0.0
 11
18.59973089678115
 21
-13.77159925848144
 31
0.0
  0
LINE
  5
55
330
24
100
AcDbEntity
  8
0
100
AcDbLine
 10
22.59973089678116
 20
-9.771599258481472
 30
0.0
 11
23.67152766650562
 21
-13.77159925848147
 31
0.0
  0
ARC
  5
56
330
24
100
AcDbEntity
  8
0
100
AcDbCircle
 10
22.59973089678116
 20
-7.271599258481472
 30
0.0
 40
2.5
100
AcDbArc
 50
270.0
 51
270.0000000000007
  0
LINE
  5
57
330
24
100
AcDbEntity
  8
0
100
AcDbLine
 10
28.77130377203494
 20
-12.77159925848147
 30
0.0
 11
24.43885465448463
 21
-12.77159925848144
 31
0.0
  0
LINE
  5
58
330
24
100
AcDbEntity
  8
0
100
AcDbLine
 10
3.599730896781125
 20
-4.771599258481472
 30
0.0
 11
2.599730896781125
 21
-4.771599258481472
 31
0.0
  0
LINE
  5
59
330
24
100
AcDbEntity
  8
0
100
AcDbLine
 10
22.59973089678116
 20
-8.771599258481472
 30
0.0
 11
18.59973089678115
 21
-8.771599258481472
 31
0.0
  0
LINE
  5
5A
330
24
100
AcDbEntity
  8
0
100
AcDbLine
 10
22.59973089678116
 20
-5.771599258481472
 30
0.0
 11
18.59973089678115
 21
-5.771599258481472
 31
0.0
  0
LINE
  5
5B
330
24
100
AcDbEntity
  8
0
100
AcDbLine
 10
22.59973089678116
 20
-4.771599258481472
 30
0.0
 11
17.59973089678115
 21
-4.771599258481472
 31
0.0
  0
LINE
  5
5C
330
24
100
AcDbEntity
  8
0
100
AcDbLine
 10
18.59973089678115
 20
-5.771599258481472
 30
0.0
 11
18.59973089678115
 21
-8.771599258481472
 31
0.0
  0
ARC
  5
5D
330
24
100
AcDbEntity
  8
0
100
AcDbCircle
 10
22.59973089678116
 20
-7.271599258481472
 30
0.0
 40
1.5
100
AcDbArc
 50
270.0
 51
90.0
  0
ENDBLK
  5
5E
330
24
100
AcDbEntity
  8
0
100
AcDbBlockEnd
  0
BLOCK
  5
71
330
27
100
AcDbEntity
  8
0
100
AcDbBlockBegin
  2
*X1
 70
     1
 10
0.0
 20
0.0
 30
0.0
  3
*X1
  1

  0
LINE
  5
72
330
27
100
AcDbEntity
  8
0
 62
     0
100
AcDbLine
 10
121.7260989624078
 20
355.7
 30
0.0
 11
123.3944535707626
 21
355.7
 31
0.0
  0
LINE
  5
73
330
27
100
AcDbEntity
  8
0
 62
     0
100
AcDbLine
 10
121.7457943759325
 20
355.8
 30
0.0
 11
123.4380557252462
 21
355.8
 31
0.0
  0
LINE
  5
74
330
27
100
AcDbEntity
  8
0
 62
     0
100
AcDbLine
 10
121.7683469737023
 20
355.9000000000001
 30
0.0
 11
123.5000557252462
 21
355.9000000000001
 31
0.0
  0
LINE
  5
75
330
27
100
AcDbEntity
  8
0
 62
     0
100
AcDbLine
 10
121.7938103214674
 20
356.0
 30
0.0
 11
123.5620557252462
 21
356.0
 31
0.0
  0
LINE
  5
76
330
27
100
AcDbEntity
  8
0
 62
     0
100
AcDbLine
 10
121.8222465215539
 20
356.1
 30
0.0
 11
123.6240557252462
 21
356.1
 31
0.0
  0
LINE
  5
77
330
27
100
AcDbEntity
  8
0
 62
     0
100
AcDbLine
 10
121.8537270346459
 20
356.2000000000001
 30
0.0
 11
123.6860557252462
 21
356.2000000000001
 31
0.0
  0
LINE
  5
78
330
27
100
AcDbEntity
  8
0
 62
     0
100
AcDbLine
 10
121.888333671128
 20
356.3
 30
0.0
 11
123.7480557252462
 21
356.3
 31
0.0
  0
LINE
  5
79
330
27
100
AcDbEntity
  8
0
 62
     0
100
AcDbLine
 10
121.9261597869326
 20
356.4
 30
0.0
 11
123.8100557252462
 21
356.4
 31
0.0
  0
LINE
  5
7A
330
27
100
AcDbEntity
  8
0
 62
     0
100
AcDbLine
 10
121.9673117288629
 20
356.5
 30
0.0
 11
123.8720557252462
 21
356.5
 31
0.0
  0
LINE
  5
7B
330
27
100
AcDbEntity
  8
0
 62
     0
100
AcDbLine
 10
122.0119105876809
 20
356.6
 30
0.0
 11
123.9340557252462
 21
356.6
 31
0.0
  0
LINE
  5
7C
330
27
100
AcDbEntity
  8
0
 62
     0
100
AcDbLine
 10
122.0600943351717
 20
356.7000000000001
 30
0.0
 11
123.9960557252462
 21
356.7000000000001
 31
0.0
  0
LINE
  5
7D
330
27
100
AcDbEntity
  8
0
 62
     0
100
AcDbLine
 10
122.1120204458331
 20
356.8
 30
0.0
 11
124.0580557252462
 21
356.8
 31
0.0
  0
LINE
  5
7E
330
27
100
AcDbEntity
  8
0
 62
     0
100
AcDbLine
 10
122.1678691376661
 20
356.9
 30
0.0
 11
124.1200557252462
 21
356.9
 31
0.0
  0
LINE
  5
7F
330
27
100
AcDbEntity
  8
0
 62
     0
100
AcDbLine
 10
122.2278474140843
 20
357.0
 30
0.0
 11
124.1820557252462
 21
357.0
 31
0.0
  0
LINE
  5
80
330
27
100
AcDbEntity
  8
0
 62
     0
100
AcDbLine
 10
122.2921941569209
 20
357.1
 30
0.0
 11
124.2440557252462
 21
357.1
 31
0.0
  0
LINE
  5
81
330
27
100
AcDbEntity
  8
0
 62
     0
100
AcDbLine
 10
122.3611866194772
 20
357.2
 30
0.0
 11
124.3060557252462
 21
357.2
 31
0.0
  0
LINE
  5
82
330
27
100
AcDbEntity
  8
0
 62
     0
100
AcDbLine
 10
122.435148815653
 20
357.3
 30
0.0
 11
124.3680557252462
 21
357.3
 31
0.0
  0
LINE
  5
83
330
27
100
AcDbEntity
  8
0
 62
     0
100
AcDbLine
 10
122.5144625248475
 20
357.4
 30
0.0
 11
124.4300557252462
 21
357.4
 31
0.0
  0
LINE
  5
84
330
27
100
AcDbEntity
  8
0
 62
     0
100
AcDbLine
 10
122.5995819811884
 20
357.5
 30
0.0
 11
124.4920557252462
 21
357.5
 31
0.0
  0
LINE
  5
85
330
27
100
AcDbEntity
  8
0
 62
     0
100
AcDbLine
 10
122.691053875768
 20
357.6
 30
0.0
 11
124.5540557252462
 21
357.6
 31
0.0
  0
LINE
  5
86
330
27
100
AcDbEntity
  8
0
 62
     0
100
AcDbLine
 10
122.7895452300288
 20
357.7
 30
0.0
 11
124.6160557252462
 21
357.7
 31
0.0
  0
LINE
  5
87
330
27
100
AcDbEntity
  8
0
 62
     0
100
AcDbLine
 10
122.895883300592
 20
357.8
 30
0.0
 11
124.6780557252462
 21
357.8
 31
0.0
  0
LINE
  5
88
330
27
100
AcDbEntity
  8
0
 62
     0
100
AcDbLine
 10
123.0111145629524
 20
357.9000000000001
 30
0.0
 11
124.7400557252462
 21
357.9000000000001
 31
0.0
  0
LINE
  5
89
330
27
100
AcDbEntity
  8
0
 62
     0
100
AcDbLine
 10
123.1365953052587
 20
358.0
 30
0.0
 11
124.8020557252462
 21
358.0
 31
0.0
  0
LINE
  5
8A
330
27
100
AcDbEntity
  8
0
 62
     0
100
AcDbLine
 10
123.2741374616523
 20
358.1
 30
0.0
 11
124.8640557252462
 21
358.1
 31
0.0
  0
LINE
  5
8B
330
27
100
AcDbEntity
  8
0
 62
     0
100
AcDbLine
 10
123.4262576034772
 20
358.2000000000001
 30
0.0
 11
124.9260557252462
 21
358.2000000000001
 31
0.0
  0
LINE
  5
8C
330
27
100
AcDbEntity
  8
0
 62
     0
100
AcDbLine
 10
123.5966357146171
 20
358.3
 30
0.0
 11
124.9880557252462
 21
358.3
 31
0.0
  0
LINE
  5
8D
330
27
100
AcDbEntity
  8
0
 62
     0
100
AcDbLine
 10
123.7910521833696
 20
358.4
 30
0.0
 11
125.0500557252462
 21
358.4
 31
0.0
  0
LINE
  5
8E
330
27
100
AcDbEntity
  8
0
 62
     0
100
AcDbLine
 10
124.0196075740422
 20
358.5
 30
0.0
 11
125.1120557252462
 21
358.5
 31
0.0
  0
LINE
  5
8F
330
27
100
AcDbEntity
  8
0
 62
     0
100
AcDbLine
 10
124.3033941556636
 20
358.6
 30
0.0
 11
125.1740557252462
 21
358.6
 31
0.0
  0
LINE
  5
90
330
27
100
AcDbEntity
  8
0
 62
     0
100
AcDbLine
 10
124.7070088351701
 20
358.7000000000001
 30
0.0
 11
125.2360557252462
 21
358.7000000000001
 31
0.0
  0
LINE
  5
91
330
27
100
AcDbEntity
  8
0
 62
     0
100
AcDbLine
 10
121.7092150244439
 20
355.6
 30
0.0
 11
123.3615950703198
 21
355.6
 31
0.0
  0
LINE
  5
92
330
27
100
AcDbEntity
  8
0
 62
     0
100
AcDbLine
 10
121.6951041518106
 20
355.5
 30
0.0
 11
123.3287365698771
 21
355.5
 31
0.0
  0
LINE
  5
93
330
27
100
AcDbEntity
  8
0
 62
     0
100
AcDbLine
 10
121.6837347782816
 20
355.4
 30
0.0
 11
123.2958780694343
 21
355.4
 31
0.0
  0
LINE
  5
94
330
27
100
AcDbEntity
  8
0
 62
     0
100
AcDbLine
 10
121.6750818183067
 20
355.3
 30
0.0
 11
123.2630195689916
 21
355.3
 31
0.0
  0
LINE
  5
95
330
27
100
AcDbEntity
  8
0
 62
     0
100
AcDbLine
 10
121.6691263847591
 20
355.2
 30
0.0
 11
123.2301610685488
 21
355.2
 31
0.0
  0
LINE
  5
96
330
27
100
AcDbEntity
  8
0
 62
     0
100
AcDbLine
 10
121.6658555801917
 20
355.1
 30
0.0
 11
123.1973025681061
 21
355.1
 31
0.0
  0
LINE
  5
97
330
27
100
AcDbEntity
  8
0
 62
     0
100
AcDbLine
 10
121.6652623561444
 20
355.0
 30
0.0
 11
123.1644440676633
 21
355.0
 31
0.0
  0
LINE
  5
98
330
27
100
AcDbEntity
  8
0
 62
     0
100
AcDbLine
 10
121.667345436888
 20
354.9
 30
0.0
 11
123.1315855672205
 21
354.9
 31
0.0
  0
LINE
  5
99
330
27
100
AcDbEntity
  8
0
 62
     0
100
AcDbLine
 10
121.6721093056706
 20
354.8
 30
0.0
 11
123.0987270667778
 21
354.8
 31
0.0
  0
LINE
  5
9A
330
27
100
AcDbEntity
  8
0
 62
     0
100
AcDbLine
 10
121.679564253117
 20
354.7000000000001
 30
0.0
 11
123.065868566335
 21
354.7000000000001
 31
0.0
  0
LINE
  5
9B
330
27
100
AcDbEntity
  8
0
 62
     0
100
AcDbLine
 10
121.6897264890087
 20
354.6
 30
0.0
 11
123.0330100658923
 21
354.6
 31
0.0
  0
LINE
  5
9C
330
27
100
AcDbEntity
  8
0
 62
     0
100
AcDbLine
 10
121.7026183202952
 20
354.5
 30
0.0
 11
123.0001515654495
 21
354.5
 31
0.0
  0
LINE
  5
9D
330
27
100
AcDbEntity
  8
0
 62
     0
100
AcDbLine
 10
121.7182683999528
 20
354.4
 30
0.0
 11
122.9672930650067
 21
354.4
 31
0.0
  0
LINE
  5
9E
330
27
100
AcDbEntity
  8
0
 62
     0
100
AcDbLine
 10
121.7367120532827
 20
354.3
 30
0.0
 11
122.934434564564
 21
354.3
 31
0.0
  0
LINE
  5
9F
330
27
100
AcDbEntity
  8
0
 62
     0
100
AcDbLine
 10
121.7579916905415
 20
354.2000000000001
 30
0.0
 11
122.9015760641212
 21
354.2000000000001
 31
0.0
  0
LINE
  5
A0
330
27
100
AcDbEntity
  8
0
 62
     0
100
AcDbLine
 10
121.7821573175416
 20
354.1
 30
0.0
 11
122.8687175636785
 21
354.1
 31
0.0
  0
LINE
  5
A1
330
27
100
AcDbEntity
  8
0
 62
     0
100
AcDbLine
 10
121.8092671592211
 20
354.0
 30
0.0
 11
122.8358590632357
 21
354.0
 31
0.0
  0
LINE
  5
A2
330
27
100
AcDbEntity
  8
0
 62
     0
100
AcDbLine
 10
121.8393884153616
 20
353.9000000000001
 30
0.0
 11
122.803000562793
 21
353.9000000000001
 31
0.0
  0
LINE
  5
A3
330
27
100
AcDbEntity
  8
0
 62
     0
100
AcDbLine
 10
121.8725981729398
 20
353.8
 30
0.0
 11
122.7701420623502
 21
353.8
 31
0.0
  0
LINE
  5
A4
330
27
100
AcDbEntity
  8
0
 62
     0
100
AcDbLine
 10
121.9089845064109
 20
353.7
 30
0.0
 11
122.7372835619075
 21
353.7
 31
0.0
  0
LINE
  5
A5
330
27
100
AcDbEntity
  8
0
 62
     0
100
AcDbLine
 10
121.9486478061045
 20
353.6
 30
0.0
 11
122.7044250614647
 21
353.6
 31
0.0
  0
LINE
  5
A6
330
27
100
AcDbEntity
  8
0
 62
     0
100
AcDbLine
 10
121.9917023866401
 20
353.5
 30
0.0
 11
122.6715665610219
 21
353.5
 31
0.0
  0
LINE
  5
A7
330
27
100
AcDbEntity
  8
0
 62
     0
100
AcDbLine
 10
122.0382784429516
 20
353.4
 30
0.0
 11
122.6387080605792
 21
353.4
 31
0.0
  0
LINE
  5
A8
330
27
100
AcDbEntity
  8
0
 62
     0
100
AcDbLine
 10
122.0885244427757
 20
353.3
 30
0.0
 11
122.6058495601364
 21
353.3
 31
0.0
  0
LINE
  5
A9
330
27
100
AcDbEntity
  8
0
 62
     0
100
AcDbLine
 10
122.1426100736861
 20
353.2
 30
0.0
 11
122.5729910596937
 21
353.2
 31
0.0
  0
LINE
  5
AA
330
27
100
AcDbEntity
  8
0
 62
     0
100
AcDbLine
 10
122.2007299035609
 20
353.1
 30
0.0
 11
122.5401325592509
 21
353.1
 31
0.0
  0
LINE
  5
AB
330
27
100
AcDbEntity
  8
0
 62
     0
100
AcDbLine
 10
122.2631079712437
 20
353.0
 30
0.0
 11
122.5072740588082
 21
353.0
 31
0.0
  0
LINE
  5
AC
330
27
100
AcDbEntity
  8
0
 62
     0
100
AcDbLine
 10
122.3300036077367
 20
352.9
 30
0.0
 11
122.4744155583654
 21
352.9
 31
0.0
  0
LINE
  5
AD
330
27
100
AcDbEntity
  8
0
 62
     0
100
AcDbLine
 10
122.4017189113239
 20
352.8
 30
0.0
 11
122.4415570579227
 21
352.8
 31
0.0
  0
ENDBLK
  5
AE
330
27
100
AcDbEntity
  8
0
100
AcDbBlockEnd
  0
BLOCK
  5
256
330
24C
100
AcDbEntity
  8
0
100
AcDbBlockBegin
  2
*D10
 70
     1
 10
0.0
 20
0.0
 30
0.0
  3
*D10
  1

  0
LINE
  5
352
330
24C
100
AcDbEntity
  8
BEM
 62
     0
370
    -2
100
AcDbLine
 10
100.713413598997
 20
245.7645788670911
 30
0.0
 11
68.65440530952756
 21
245.7645788670911
 31
0.0
  0
LINE
  5
353
330
24C
100
AcDbEntity
  8
BEM
 62
     0
370
    -2
100
AcDbLine
 10
119.7991886985603
 20
504.7645788670911
 30
0.0
 11
68.65440530952762
 21
504.7645788670911
 31
0.0
  0
LINE
  5
354
330
24C
100
AcDbEntity
  8
BEM
 62
     0
370
    -2
100
AcDbLine
 10
70.65440530952756
 20
252.7645788670911
 30
0.0
 11
70.65440530952762
 21
497.7645788670911
 31
0.0
  0
SOLID
  5
355
330
24C
100
AcDbEntity
  8
BEM
 62
     0
100
AcDbTrace
 10
69.48773864286089
 20
252.7645788670911
 30
0.0
 11
71.82107197619423
 21
252.7645788670911
 31
0.0
 12
70.65440530952756
 22
245.7645788670911
 32
0.0
 13
70.65440530952756
 23
245.7645788670911
 33
0.0
  0
SOLID
  5
356
330
24C
100
AcDbEntity
  8
BEM
 62
     0
100
AcDbTrace
 10
69.48773864286095
 20
497.7645788670911
 30
0.0
 11
71.82107197619429
 21
497.7645788670911
 31
0.0
 12
70.65440530952762
 22
504.7645788670911
 32
0.0
 13
70.65440530952762
 23
504.7645788670911
 33
0.0
  0
MTEXT
  5
357
330
24C
100
AcDbEntity
  8
BEM
 62
     1
100
AcDbMText
 10
64.15440530952754
 20
375.2645788670911
 30
0.0
 40
7.0
 41
0.0
 71
     5
 72
     1
  1
\A1;259
  7
GREEKS
 11
0.0000000000000001
 21
1.0
 31
0.0
 73
     1
 44
1.0
  0
POINT
  5
358
330
24C
100
AcDbEntity
  8
DEFPOINTS
 62
     0
100
AcDbPoint
 10
102.713413598997
 20
245.7645788670911
 30
0.0
  0
POINT
  5
359
330
24C
100
AcDbEntity
  8
DEFPOINTS
 62
     0
100
AcDbPoint
 10
121.7991886985603
 20
504.7645788670911
 30
0.0
  0
POINT
  5
35A
330
24C
100
AcDbEntity
  8
DEFPOINTS
 62
     0
100
AcDbPoint
 10
70.65440530952762
 20
504.7645788670911
 30
0.0
  0
ENDBLK
  5
257
330
24C
100
AcDbEntity
  8
0
100
AcDbBlockEnd
  0
BLOCK
  5
262
330
258
100
AcDbEntity
  8
0
100
AcDbBlockBegin
  2
*D11
 70
     1
 10
0.0
 20
0.0
 30
0.0
  3
*D11
  1

  0
LINE
  5
340
330
258
100
AcDbEntity
  8
BEM
 62
     0
370
    -2
100
AcDbLine
 10
348.7134135989969
 20
370.6116051644303
 30
0.0
 11
348.7134135989969
 21
350.4490184529917
 31
0.0
  0
LINE
  5
341
330
258
100
AcDbEntity
  8
BEM
 62
     0
370
    -2
100
AcDbLine
 10
129.7134135989967
 20
370.6116051644301
 30
0.0
 11
129.7134135989967
 21
350.4490184529917
 31
0.0
  0
LINE
  5
342
330
258
100
AcDbEntity
  8
BEM
 62
     0
370
    -2
100
AcDbLine
 10
341.7134135989968
 20
352.4490184529917
 30
0.0
 11
136.7134135989967
 21
352.4490184529917
 31
0.0
  0
SOLID
  5
343
330
258
100
AcDbEntity
  8
BEM
 62
     0
100
AcDbTrace
 10
341.7134135989968
 20
353.6156851196584
 30
0.0
 11
341.7134135989968
 21
351.282351786325
 31
0.0
 12
348.7134135989969
 22
352.4490184529917
 32
0.0
 13
348.7134135989969
 23
352.4490184529917
 33
0.0
  0
SOLID
  5
344
330
258
100
AcDbEntity
  8
BEM
 62
     0
100
AcDbTrace
 10
136.7134135989967
 20
353.6156851196584
 30
0.0
 11
136.7134135989967
 21
351.282351786325
 31
0.0
 12
129.7134135989967
 22
352.4490184529917
 32
0.0
 13
129.7134135989967
 23
352.4490184529917
 33
0.0
  0
MTEXT
  5
345
330
258
100
AcDbEntity
  8
BEM
 62
     1
100
AcDbMText
 10
239.2134135989968
 20
358.9490184529917
 30
0.0
 40
7.0
 41
0.0
 71
     5
 72
     1
  1
\A1;%%c219
  7
GREEKS
 73
     1
 44
1.0
  0
POINT
  5
346
330
258
100
AcDbEntity
  8
DEFPOINTS
 62
     0
100
AcDbPoint
 10
348.7134135989969
 20
372.6116051644303
 30
0.0
  0
POINT
  5
347
330
258
100
AcDbEntity
  8
DEFPOINTS
 62
     0
100
AcDbPoint
 10
129.7134135989967
 20
372.6116051644301
 30
0.0
  0
POINT
  5
348
330
258
100
AcDbEntity
  8
DEFPOINTS
 62
     0
100
AcDbPoint
 10
129.7134135989967
 20
352.4490184529917
 30
0.0
  0
ENDBLK
  5
263
330
258
100
AcDbEntity
  8
0
100
AcDbBlockEnd
  0
BLOCK
  5
305
330
2FB
100
AcDbEntity
  8
0
100
AcDbBlockBegin
  2
*D13
 70
     1
 10
0.0
 20
0.0
 30
0.0
  3
*D13
  1

  0
LINE
  5
35B
330
2FB
100
AcDbEntity
  8
BEM
 62
     0
370
    -2
100
AcDbLine
 10
375.713413598997
 20
243.7645788670911
 30
0.0
 11
375.713413598997
 21
219.3441802355279
 31
0.0
  0
LINE
  5
35C
330
2FB
100
AcDbEntity
  8
BEM
 62
     0
370
    -2
100
AcDbLine
 10
102.713413598997
 20
243.7645788670911
 30
0.0
 11
102.713413598997
 21
219.3441802355279
 31
0.0
  0
LINE
  5
35D
330
2FB
100
AcDbEntity
  8
BEM
 62
     0
370
    -2
100
AcDbLine
 10
368.713413598997
 20
221.3441802355279
 30
0.0
 11
109.713413598997
 21
221.3441802355279
 31
0.0
  0
SOLID
  5
35E
330
2FB
100
AcDbEntity
  8
BEM
 62
     0
100
AcDbTrace
 10
368.713413598997
 20
222.5108469021945
 30
0.0
 11
368.713413598997
 21
220.1775135688612
 31
0.0
 12
375.713413598997
 22
221.3441802355279
 32
0.0
 13
375.713413598997
 23
221.3441802355279
 33
0.0
  0
SOLID
  5
35F
330
2FB
100
AcDbEntity
  8
BEM
 62
     0
100
AcDbTrace
 10
109.713413598997
 20
222.5108469021945
 30
0.0
 11
109.713413598997
 21
220.1775135688612
 31
0.0
 12
102.713413598997
 22
221.3441802355279
 32
0.0
 13
102.713413598997
 23
221.3441802355279
 33
0.0
  0
MTEXT
  5
360
330
2FB
100
AcDbEntity
  8
BEM
 62
     1
100
AcDbMText
 10
239.2134135989969
 20
227.8441802355279
 30
0.0
 40
7.0
 41
0.0
 71
     5
 72
     1
  1
\A1;%%c273
  7
GREEKS
 73
     1
 44
1.0
  0
POINT
  5
361
330
2FB
100
AcDbEntity
  8
DEFPOINTS
 62
     0
100
AcDbPoint
 10
375.713413598997
 20
245.7645788670911
 30
0.0
  0
POINT
  5
362
330
2FB
100
AcDbEntity
  8
DEFPOINTS
 62
     0
100
AcDbPoint
 10
102.713413598997
 20
245.7645788670911
 30
0.0
  0
POINT
  5
363
330
2FB
100
AcDbEntity
  8
DEFPOINTS
 62
     0
100
AcDbPoint
 10
102.713413598997
 20
221.3441802355279
 30
0.0
  0
ENDBLK
  5
306
330
2FB
100
AcDbEntity
  8
0
100
AcDbBlockEnd
  0
BLOCK
  5
32C
330
322
100
AcDbEntity
  8
0
100
AcDbBlockBegin
  2
*D14
 70
     1
 10
0.0
 20
0.0
 30
0.0
  3
*D14
  1

  0
LINE
  5
349
330
322
100
AcDbEntity
  8
BEM
 62
     0
370
    -2
100
AcDbLine
 10
100.713413598997
 20
245.7645788670911
 30
0.0
 11
84.81349289291072
 21
245.7645788670911
 31
0.0
  0
LINE
  5
34A
330
322
100
AcDbEntity
  8
BEM
 62
     0
370
    -2
100
AcDbLine
 10
100.9281153637897
 20
315.7645788670911
 30
0.0
 11
84.81349289291074
 21
315.7645788670911
 31
0.0
  0
LINE
  5
34B
330
322
100
AcDbEntity
  8
BEM
 62
     0
370
    -2
100
AcDbLine
 10
86.81349289291073
 20
252.7645788670911
 30
0.0
 11
86.81349289291075
 21
308.7645788670911
 31
0.0
  0
SOLID
  5
34C
330
322
100
AcDbEntity
  8
BEM
 62
     0
100
AcDbTrace
 10
85.64682622624406
 20
252.7645788670911
 30
0.0
 11
87.9801595595774
 21
252.7645788670911
 31
0.0
 12
86.81349289291073
 22
245.7645788670911
 32
0.0
 13
86.81349289291073
 23
245.7645788670911
 33
0.0
  0
SOLID
  5
34D
330
322
100
AcDbEntity
  8
BEM
 62
     0
100
AcDbTrace
 10
85.64682622624408
 20
308.7645788670911
 30
0.0
 11
87.98015955957742
 21
308.7645788670911
 31
0.0
 12
86.81349289291075
 22
315.7645788670911
 32
0.0
 13
86.81349289291075
 23
315.7645788670911
 33
0.0
  0
MTEXT
  5
34E
330
322
100
AcDbEntity
  8
BEM
 62
     1
100
AcDbMText
 10
80.31349289291069
 20
280.7645788670911
 30
0.0
 40
7.0
 41
0.0
 71
     5
 72
     1
  1
\A1;min.70
  7
GREEKS
 11
0.0000000000000001
 21
1.0
 31
0.0
 73
     1
 44
1.0
  0
POINT
  5
34F
330
322
100
AcDbEntity
  8
DEFPOINTS
 62
     0
100
AcDbPoint
 10
102.713413598997
 20
245.7645788670911
 30
0.0
  0
POINT
  5
350
330
322
100
AcDbEntity
  8
DEFPOINTS
 62
     0
100
AcDbPoint
 10
102.9281153637897
 20
315.7645788670911
 30
0.0
  0
POINT
  5
351
330
322
100
AcDbEntity
  8
DEFPOINTS
 62
     0
100
AcDbPoint
 10
86.81349289291075
 20
315.7645788670911
 30
0.0
  0
ENDBLK
  5
32D
330
322
100
AcDbEntity
  8
0
100
AcDbBlockEnd
  0
ENDSEC
  0
SECTION
  2
ENTITIES
  0
LINE
  5
140
330
20
100
AcDbEntity
  8
STEMPEL
  6
Continuous
100
AcDbLine
 10
114.2134135989967
 20
345.7631328030334
 30
0.0
 11
364.2134135989969
 21
345.7631328030333
 31
0.0
  0
LINE
  5
141
330
20
100
AcDbEntity
  8
STEMPEL
  6
Continuous
100
AcDbLine
 10
121.7991886985603
 20
504.7645788670911
 30
0.0
 11
356.6276384994331
 21
504.7645788670911
 31
0.0
  0
LINE
  5
142
330
20
100
AcDbEntity
  8
STEMPEL
100
AcDbLine
 10
375.713413598997
 20
245.7645788670911
 30
0.0
 11
102.713413598997
 21
245.7645788670911
 31
0.0
  0
LINE
  5
145
330
20
100
AcDbEntity
  8
HILF
100
AcDbLine
 10
132.29499558245
 20
369.7631328030334
 30
0.0
 11
346.1318316155435
 21
369.7631328030332
 31
0.0
  0
LINE
  5
146
330
20
100
AcDbEntity
  8
HILF
100
AcDbLine
 10
371.4840849584768
 20
315.7645788670912
 30
0.0
 11
106.5808270107328
 21
315.7645788670911
 31
0.0
  0
DIMENSION
  5
147
330
20
100
AcDbEntity
  8
BEM
100
AcDbDimension
  2
*D13
 10
102.713413598997
 20
221.3441802355279
 30
0.0
 11
239.2134135989969
 21
227.8441802355279
 31
0.0
 70
    32
  1
%%c<>
 71
     5
 42
273.0
  3
Standard
100
AcDbAlignedDimension
 13
375.713413598997
 23
245.7645788670911
 33
0.0
 14
102.713413598997
 24
245.7645788670911
 34
0.0
100
AcDbRotatedDimension
1001
ACAD
1000
DSTYLE
1002
{
1070
    40
1040
2.0
1070
    41
1040
3.5
1070
    42
1040
1.0
1070
    43
1040
7.0
1070
    44
1040
1.0
1070
    47
1040
2.2
1070
    48
1040
2.2
1070
    73
1070
     0
1070
    74
1070
     0
1070
    77
1070
     1
1070
    78
1070
     8
1070
    79
1070
     2
1070
   140
1040
3.5
1070
   141
1040
1.5
1070
   146
1040
0.5
1070
   147
1040
1.5
1070
   172
1070
     1
1070
   178
1070
     1
1070
   179
1070
     2
1070
   271
1070
     2
1070
   272
1070
     2
1070
   284
1070
     8
1070
   285
1070
     8
1070
   286
1070
     8
1070
   340
1005
32
1002
}
  0
LINE
  5
148
330
20
100
AcDbEntity
  8
HILF
  6
Continuous
100
AcDbLine
 10
126.4709566911976
 20
425.1102074858932
 30
0.0
 11
351.9558705067954
 21
425.1102074858932
 31
0.0
  0
LINE
  5
149
330
20
100
AcDbEntity
  8
HILF
  6
Continuous
100
AcDbLine
 10
132.0369407072701
 20
380.2776582957495
 30
0.0
 11
346.389886490723
 21
380.2776582957495
 31
0.0
  0
LINE
  5
14A
330
20
100
AcDbEntity
  8
HILF
  6
Continuous
100
AcDbLine
 10
128.0177943781502
 20
388.5953033738654
 30
0.0
 11
350.4090328198433
 21
388.5953033738654
 31
0.0
  0
LINE
  5
14B
330
20
100
AcDbEntity
  8
HILF
100
AcDbLine
 10
419.9999999999999
 20
594.0000000000002
 30
0.0
 11
0.0
 21
594.0
 31
0.0
  0
LINE
  5
14C
330
20
100
AcDbEntity
  8
STEMPEL
100
AcDbLine
 10
410.0
 20
584.0
 30
0.0
 11
39.99999999999989
 21
584.0
 31
0.0
  0
TEXT
  5
14E
330
20
100
AcDbEntity
  8
TEXT
 62
     1
100
AcDbText
 10
238.7787075758031
 20
128.0179198267417
 30
0.0
 40
7.0
  1
feuerverzinkt und innen beschichtet
 41
0.8
  7
GREEKS
100
AcDbText
  0
LINE
  5
14F
330
20
100
AcDbEntity
  8
HILF
100
AcDbLine
 10
233.4909699289885
 20
14.89398258028314
 30
0.0
 11
404.8588839326728
 21
14.89398258028314
 31
0.0
  0
LINE
  5
150
330
20
100
AcDbEntity
  8
STEMPEL
100
AcDbLine
 10
410.0
 20
80.0
 30
0.0
 11
146.0000000000001
 21
79.99999999999994
 31
0.0
  0
LINE
  5
151
330
20
100
AcDbEntity
  8
STEMPEL
100
AcDbLine
 10
410.0
 20
40.0
 30
0.0
 11
146.0000000000001
 21
39.99999999999997
 31
0.0
  0
LINE
  5
152
330
20
100
AcDbEntity
  8
HILF
100
AcDbLine
 10
420.0
 20
0.0
 30
0.0
 11
0.0
 21
0.0
 31
0.0
  0
LINE
  5
153
330
20
100
AcDbEntity
  8
STEMPEL
100
AcDbLine
 10
410.0
 20
10.0
 30
0.0
 11
39.99999999999989
 21
10.0
 31
0.0
  0
LINE
  5
154
330
20
100
AcDbEntity
  8
STEMPEL
100
AcDbLine
 10
49.99999999999989
 20
10.0
 30
0.0
 11
410.0
 21
10.0
 31
0.0
  0
LINE
  5
155
330
20
100
AcDbEntity
  8
STEMPEL
100
AcDbLine
 10
410.0
 20
110.0
 30
0.0
 11
39.99999999999997
 21
110.0
 31
0.0
  0
LINE
  5
156
330
20
100
AcDbEntity
  8
MITTEL
100
AcDbLine
 10
239.2134135989968
 20
348.8923995620684
 30
0.0
 11
239.2134135989967
 21
240.7645788670911
 31
0.0
  0
DIMENSION
  5
157
330
20
100
AcDbEntity
  8
BEM
100
AcDbDimension
  2
*D10
 10
70.65440530952762
 20
504.7645788670911
 30
0.0
 11
64.15440530952754
 21
375.2645788670911
 31
0.0
 70
    32
  1
259
 71
     5
 42
259.0
  3
Standard
100
AcDbAlignedDimension
 13
102.713413598997
 23
245.7645788670911
 33
0.0
 14
121.7991886985603
 24
504.7645788670911
 34
0.0
 50
90.0
100
AcDbRotatedDimension
1001
ACAD
1000
DSTYLE
1002
{
1070
    40
1040
2.0
1070
    41
1040
3.5
1070
    42
1040
1.0
1070
    43
1040
7.0
1070
    44
1040
1.0
1070
    47
1040
2.2
1070
    48
1040
2.2
1070
    73
1070
     0
1070
    74
1070
     0
1070
    77
1070
     1
1070
    78
1070
     8
1070
    79
1070
     2
1070
   140
1040
3.5
1070
   141
1040
1.5
1070
   146
1040
0.5
1070
   147
1040
1.5
1070
   172
1070
     1
1070
   178
1070
     1
1070
   179
1070
     2
1070
   271
1070
     2
1070
   272
1070
     2
1070
   284
1070
     8
1070
   285
1070
     8
1070
   286
1070
     8
1070
   340
1005
32
1002
}
  0
DIMENSION
  5
159
330
20
100
AcDbEntity
  8
BEM
100
AcDbDimension
  2
*D14
 10
86.81349289291075
 20
315.7645788670911
 30
0.0
 11
80.31349289291069
 21
280.7645788670911
 31
0.0
 70
    32
  1
min.70
 71
     5
 42
69.99999999999997
  3
Standard
100
AcDbAlignedDimension
 13
102.713413598997
 23
245.7645788670911
 33
0.0
 14
102.9281153637897
 24
315.7645788670911
 34
0.0
 50
90.0
100
AcDbRotatedDimension
1001
ACAD
1000
DSTYLE
1002
{
1070
    40
1040
2.0
1070
    41
1040
3.5
1070
    42
1040
1.0
1070
    43
1040
7.0
1070
    44
1040
1.0
1070
    47
1040
2.2
1070
    48
1040
2.2
1070
    73
1070
     0
1070
    74
1070
     0
1070
    77
1070
     1
1070
    78
1070
     8
1070
    79
1070
     2
1070
   140
1040
3.5
1070
   141
1040
1.5
1070
   146
1040
0.5
1070
   147
1040
1.5
1070
   172
1070
     1
1070
   178
1070
     1
1070
   179
1070
     2
1070
   271
1070
     2
1070
   272
1070
     2
1070
   284
1070
     8
1070
   285
1070
     8
1070
   286
1070
     8
1070
   340
1005
32
1002
}
  0
LINE
  5
15A
330
20
100
AcDbEntity
  8
STEMPEL
100
AcDbLine
 10
102.7134135989964
 20
313.5101596093355
 30
0.0
 11
102.7134135989965
 21
245.7645788670911
 31
0.0
  0
LINE
  5
15B
330
20
100
AcDbEntity
  8
HILF
100
AcDbLine
 10
0.0
 20
0.0
 30
0.0
 11
-0.0000000000001137
 21
594.0
 31
0.0
  0
LINE
  5
15C
330
20
100
AcDbEntity
  8
STEMPEL
100
AcDbLine
 10
40.0
 20
10.0
 30
0.0
 11
39.99999999999989
 21
584.0
 31
0.0
  0
TEXT
  5
15D
330
20
100
AcDbEntity
  8
TEXT
100
AcDbText
 10
41.85509950977674
 20
111.6719999999999
 30
0.0
 40
5.0
  1
Erstellt mit AUTOCAD 2004
 41
0.8
  7
GREEKS
100
AcDbText
  0
LINE
  5
15E
330
20
100
AcDbEntity
  8
HILF
100
AcDbLine
 10
40.00000000000008
 20
39.99999999999997
 30
0.0
 11
146.0000000000001
 21
39.99999999999997
 31
0.0
  0
LINE
  5
15F
330
20
100
AcDbEntity
  8
HILF
100
AcDbLine
 10
40.00000000000008
 20
49.99999999999997
 30
0.0
 11
146.0000000000001
 21
49.99999999999997
 31
0.0
  0
LINE
  5
160
330
20
100
AcDbEntity
  8
HILF
100
AcDbLine
 10
40.00000000000008
 20
59.99999999999998
 30
0.0
 11
146.0000000000001
 21
59.99999999999998
 31
0.0
  0
LINE
  5
161
330
20
100
AcDbEntity
  8
HILF
100
AcDbLine
 10
40.00000000000008
 20
69.99999999999994
 30
0.0
 11
146.0000000000001
 21
69.99999999999994
 31
0.0
  0
LINE
  5
162
330
20
100
AcDbEntity
  8
HILF
100
AcDbLine
 10
40.00000000000008
 20
79.99999999999994
 30
0.0
 11
146.0000000000001
 21
79.99999999999994
 31
0.0
  0
LINE
  5
163
330
20
100
AcDbEntity
  8
HILF
100
AcDbLine
 10
40.00000000000008
 20
90.00000000000005
 30
0.0
 11
146.0000000000001
 21
90.00000000000005
 31
0.0
  0
LINE
  5
164
330
20
100
AcDbEntity
  8
HILF
100
AcDbLine
 10
40.00000000000008
 20
100.0
 30
0.0
 11
146.0000000000001
 21
100.0
 31
0.0
  0
LINE
  5
165
330
20
100
AcDbEntity
  8
STEMPEL
100
AcDbLine
 10
145.9999999999999
 20
29.99999999999997
 30
0.0
 11
39.99999999999997
 21
29.99999999999997
 31
0.0
  0
LINE
  5
166
330
20
100
AcDbEntity
  8
VOLL
100
AcDbLine
 10
54.00000000000009
 20
110.0
 30
0.0
 11
53.99999999999998
 21
9.999999999999971
 31
0.0
  0
TEXT
  5
167
330
20
100
AcDbEntity
  8
TEXT
100
AcDbText
 10
48.26641107045756
 20
13.65465846027192
 30
0.0
 40
4.0
  1
Index
 50
90.0
 41
0.8
  7
GREEKS
100
AcDbText
  0
TEXT
  5
168
330
20
100
AcDbEntity
  8
TEXT
100
AcDbText
 10
234.9837501577827
 20
42.62974153022633
 30
0.0
 40
4.0
  1
06006GH0W.DWG
 41
0.8
  7
GREEKS
100
AcDbText
  0
LINE
  5
169
330
20
100
AcDbEntity
  8
VOLL
100
AcDbLine
 10
164.0000000000001
 20
79.99999999999994
 30
0.0
 11
164.0000000000001
 21
39.99999999999997
 31
0.0
  0
TEXT
  5
16A
330
20
100
AcDbEntity
  8
TEXT
100
AcDbText
 10
147.6006777387303
 20
43.52946389649807
 30
0.0
 40
4.0
  1
Norm.
 41
0.8
  7
GREEKS
100
AcDbText
  0
LINE
  5
16B
330
20
100
AcDbEntity
  8
VOLL
100
AcDbLine
 10
124.0000000000001
 20
109.9999999999999
 30
0.0
 11
124.0
 21
9.999999999999971
 31
0.0
  0
LINE
  5
16C
330
20
100
AcDbEntity
  8
VOLL
100
AcDbLine
 10
104.0000000000001
 20
109.9999999999999
 30
0.0
 11
104.0
 21
9.999999999999971
 31
0.0
  0
LINE
  5
16D
330
20
100
AcDbEntity
  8
STEMPEL
100
AcDbLine
 10
146.0000000000001
 20
109.9999999999999
 30
0.0
 11
146.0
 21
9.999999999999971
 31
0.0
  0
LINE
  5
16E
330
20
100
AcDbEntity
  8
VOLL
100
AcDbLine
 10
190.0000000000001
 20
109.9999999999998
 30
0.0
 11
190.0
 21
39.99999999999997
 31
0.0
  0
LINE
  5
16F
330
20
100
AcDbEntity
  8
STEMPEL
100
AcDbLine
 10
230.0
 20
110.0
 30
0.0
 11
230.0
 21
9.999999999999971
 31
0.0
  0
INSERT
  5
170
330
20
100
AcDbEntity
  8
STEMPEL
100
AcDbBlockReference
  2
LOGO
 10
150.9955485457794
 20
45.02105276448322
 30
0.0
 41
2.0
 42
2.0
 43
2.0
  0
TEXT
  5
171
330
20
100
AcDbEntity
  8
TEXT
100
AcDbText
 10
67.85221352145004
 20
18.67381894984132
 30
0.0
 40
4.0
  1
Änderung
 41
0.8
  7
GREEKS
 72
     1
 11
78.59507066430719
 21
18.67381894984132
 31
0.0
100
AcDbText
  0
TEXT
  5
172
330
20
100
AcDbEntity
  8
TEXT
100
AcDbText
 10
109.8372379567136
 20
18.6715626933981
 30
0.0
 40
4.0
  1
Tag
 41
0.8
  7
GREEKS
 72
     1
 11
113.570571290047
 21
18.6715626933981
 31
0.0
100
AcDbText
  0
TEXT
  5
173
330
20
100
AcDbEntity
  8
TEXT
100
AcDbText
 10
128.726703598503
 20
18.59324216966408
 30
0.0
 40
4.0
  1
Name
 41
0.8
  7
GREEKS
 72
     1
 11
135.0505131223125
 21
18.59324216966408
 31
0.0
100
AcDbText
  0
TEXT
  5
174
330
20
100
AcDbEntity
  8
TEXT
100
AcDbText
 10
234.742238391136
 20
30.84560570193057
 30
0.0
 40
5.0
  1
Bauvorhaben
 41
0.8
  7
GREEKS
100
AcDbText
  0
TEXT
  5
175
330
20
100
AcDbEntity
  8
TEXT
 62
     1
100
AcDbText
 10
190.7787075758031
 20
140.0179198267417
 30
0.0
 40
7.0
  1
Werkstoff: EN 10219 S235, P235 TR1 EN10217-1
 41
0.8
  7
GREEKS
100
AcDbText
  0
LINE
  5
176
330
20
100
AcDbEntity
  8
HILF
100
AcDbLine
 10
146.0000000000001
 20
49.99999999999997
 30
0.0
 11
230.0
 21
49.99999999999997
 31
0.0
  0
LINE
  5
177
330
20
100
AcDbEntity
  8
HILF
100
AcDbLine
 10
146.0000000000001
 20
59.99999999999998
 30
0.0
 11
230.0
 21
59.99999999999998
 31
0.0
  0
LINE
  5
178
330
20
100
AcDbEntity
  8
HILF
100
AcDbLine
 10
146.0000000000001
 20
69.99999999999994
 30
0.0
 11
230.0
 21
69.99999999999994
 31
0.0
  0
TEXT
  5
179
330
20
100
AcDbEntity
  8
TEXT
100
AcDbText
 10
153.5163572150377
 20
102.4620895087088
 30
0.0
 40
5.0
  1
Maßstab
 41
0.8
  7
GREEKS
100
AcDbText
  0
TEXT
  5
17A
330
20
100
AcDbEntity
  8
TEXT
100
AcDbText
 10
147.5515086571672
 20
53.68926291428377
 30
0.0
 40
4.0
  1
Gepr.
 41
0.8
  7
GREEKS
100
AcDbText
  0
TEXT
  5
17B
330
20
100
AcDbEntity
  8
TEXT
100
AcDbText
 10
148.622109822104
 20
73.14025471151666
 30
0.0
 40
4.0
  1
2011
 41
0.8
  7
GREEKS
100
AcDbText
  0
TEXT
  5
17C
330
20
100
AcDbEntity
  8
TEXT
100
AcDbText
 10
147.5836127167615
 20
63.62990369617964
 30
0.0
 40
4.0
  1
Gez.
 41
0.8
  7
GREEKS
100
AcDbText
  0
TEXT
  5
17D
330
20
100
AcDbEntity
  8
TEXT
100
AcDbText
 10
172.331167315365
 20
73.31880501229926
 30
0.0
 40
4.0
  1
Tag
 41
0.8
  7
GREEKS
100
AcDbText
  0
TEXT
  5
17E
330
20
100
AcDbEntity
  8
TEXT
100
AcDbText
 10
170.398997108236
 20
63.10765040825732
 30
0.0
 40
4.0
  1
06.04.
 41
0.8
  7
GREEKS
 72
     1
 11
177.4085209177599
 21
63.10765040825732
 31
0.0
100
AcDbText
  0
TEXT
  5
17F
330
20
100
AcDbEntity
  8
TEXT
 62
     1
100
AcDbText
 10
160.5006306481887
 20
88.14901428913959
 30
0.0
 40
7.0
  1
1:2
 41
0.8
  7
GREEKS
100
AcDbText
  0
TEXT
  5
180
330
20
100
AcDbEntity
  8
TEXT
 62
     1
100
AcDbText
 10
69.64115036283404
 20
175.2986938158537
 30
0.0
 40
7.0
  1
Rohrenden leicht entgratet
 41
0.8
  7
GREEKS
100
AcDbText
  0
TEXT
  5
181
330
20
100
AcDbEntity
  8
TEXT
100
AcDbText
 10
235.1296391125315
 20
71.50334417585288
 30
0.0
 40
5.0
  1
DN200/250 Muffenlos/Muffe
 41
0.8
  7
GREEKS
100
AcDbText
  0
TEXT
  5
182
330
20
100
AcDbEntity
  8
TEXT
 62
     1
100
AcDbText
 10
234.8532061785107
 20
87.41748789253779
 30
0.0
 40
7.0
  1
Übergangsrohr konzentrisch
 41
0.6200000000000001
  7
GREEKS
100
AcDbText
  0
TEXT
  5
183
330
20
100
AcDbEntity
  8
TEXT
100
AcDbText
 10
234.877940380901
 20
102.5489328011779
 30
0.0
 40
5.0
  1
Benennung
 41
0.8
  7
GREEKS
100
AcDbText
  0
TEXT
  5
184
330
20
100
AcDbEntity
  8
TEXT
100
AcDbText
 10
235.1296391125315
 20
51.64011943042159
 30
0.0
 40
5.0
  1
EDV-Art.Nr. 06006.GH0X
 41
0.8
  7
GREEKS
100
AcDbText
  0
LINE
  5
185
330
20
100
AcDbEntity
  8
HILF
100
AcDbLine
 10
234.7736801096948
 20
49.99999999999997
 30
0.0
 11
324.835391655631
 21
49.99999999999997
 31
0.0
  0
LINE
  5
186
330
20
100
AcDbEntity
  8
HILF
100
AcDbLine
 10
234.7736801096948
 20
59.99999999999998
 30
0.0
 11
324.835391655631
 21
59.99999999999998
 31
0.0
  0
LINE
  5
187
330
20
100
AcDbEntity
  8
HILF
100
AcDbLine
 10
234.7736801096948
 20
69.99999999999994
 30
0.0
 11
324.835391655631
 21
69.99999999999994
 31
0.0
  0
LINE
  5
188
330
20
100
AcDbEntity
  8
HILF
100
AcDbLine
 10
234.7736801096948
 20
84.03758247564139
 30
0.0
 11
324.8353916556311
 21
84.03758247564139
 31
0.0
  0
TEXT
  5
189
330
20
100
AcDbEntity
  8
TEXT
100
AcDbText
 10
194.2858954734051
 20
102.4184168434819
 30
0.0
 40
5.0
  1
Zul. Abw.
 41
0.8
  7
GREEKS
100
AcDbText
  0
TEXT
  5
18A
330
20
100
AcDbEntity
  8
TEXT
100
AcDbText
 10
202.4626584226295
 20
73.30961091915225
 30
0.0
 40
4.0
  1
Name
 41
0.8
  7
GREEKS
100
AcDbText
  0
TEXT
  5
18B
330
20
100
AcDbEntity
  8
TEXT
100
AcDbText
 10
204.4216048581257
 20
63.0896391972351
 30
0.0
 40
4.0
  1
Koeh
 41
0.8
  7
GREEKS
 72
     1
 11
209.6787477152686
 21
63.0896391972351
 31
0.0
100
AcDbText
  0
LINE
  5
18C
330
20
100
AcDbEntity
  8
HILF
100
AcDbLine
 10
31.08767135713856
 20
297.0
 30
0.0
 11
0.0000000000001137
 21
297.0
 31
0.0
  0
LINE
  5
18D
330
20
100
AcDbEntity
  8
MITTEL
100
AcDbLine
 10
239.2134135989967
 20
509.7645788670911
 30
0.0
 11
239.2134135989968
 21
363.3673685610001
 31
0.0
  0
LINE
  5
18F
330
20
100
AcDbEntity
  8
STEMPEL
  6
Continuous
100
AcDbLine
 10
115.8134135989968
 20
482.9070858726967
 30
0.0
 11
115.8134135989968
 21
450.6220718614855
 31
0.0
  0
LINE
  5
190
330
20
100
AcDbEntity
  8
STEMPEL
  6
Continuous
100
AcDbLine
 10
129.7134135989969
 20
376.4644339892547
 30
0.0
 11
129.7134135989968
 21
372.6116051644301
 31
0.0
  0
INSERT
  5
191
330
20
100
AcDbEntity
  8
SCHRAFF
100
AcDbBlockReference
  2
*X1
 10
-9.201784464130184
 20
-10.0
 30
0.0
1001
ACAD
1000
HATCH
1002
{
1070
    16
1000
_U,I
1040
0.1
1040
0.0
1070
     0
1002
}
  0
ARC
  5
192
330
20
100
AcDbEntity
  8
SCHRAFF
100
AcDbCircle
 10
116.2008495112049
 20
345.0278307723916
 30
0.0
 40
3.737475240297565
100
AcDbArc
 50
91.95398095863323
 51
217.296749474264
  0
LINE
  5
193
330
20
100
AcDbEntity
  8
STEMPEL
100
AcDbLine
 10
128.2124405161204
 20
367.3422084758136
 30
0.0
 11
114.2134135989966
 21
345.7631328030332
 31
0.0
  0
LINE
  5
194
330
20
100
AcDbEntity
  8
STEMPEL
100
AcDbLine
 10
114.2134135989966
 20
345.7631328030332
 30
0.0
 11
103.3363471794134
 21
317.931226033597
 31
0.0
  0
ARC
  5
195
330
20
100
AcDbEntity
  8
SCHRAFF
100
AcDbCircle
 10
126.2870947917879
 20
345.7631328030335
 30
0.0
 40
3.98983484850948
100
AcDbArc
 50
311.2438286196602
 51
48.75617138033951
  0
ARC
  5
196
330
20
100
AcDbEntity
  8
SCHRAFF
100
AcDbCircle
 10
116.2870947917879
 20
345.7631328030335
 30
0.0
 40
3.98983484850948
100
AcDbArc
 50
311.2438286196602
 51
48.75617138033951
  0
ARC
  5
197
330
20
100
AcDbEntity
  8
SCHRAFF
100
AcDbCircle
 10
136.2870947917879
 20
345.7631328030335
 30
0.0
 40
3.98983484850948
100
AcDbArc
 50
311.2438286196602
 51
48.75617138033951
  0
ARC
  5
198
330
20
100
AcDbEntity
  8
STEMPEL
100
AcDbCircle
 10
119.7134135989966
 20
372.6116051644303
 30
0.0
 40
10.0
100
AcDbArc
 50
328.2010871757055
 51
359.9999999999987
  0
ARC
  5
199
330
20
100
AcDbEntity
  8
SCHRAFF
100
AcDbCircle
 10
156.2870947917879
 20
345.7631328030335
 30
0.0
 40
3.98983484850948
100
AcDbArc
 50
311.2438286196602
 51
48.75617138033951
  0
ARC
  5
19A
330
20
100
AcDbEntity
  8
SCHRAFF
100
AcDbCircle
 10
146.2870947917879
 20
345.7631328030335
 30
0.0
 40
3.98983484850948
100
AcDbArc
 50
311.2438286196602
 51
48.75617138033951
  0
ARC
  5
19B
330
20
100
AcDbEntity
  8
SCHRAFF
100
AcDbCircle
 10
176.2870947917879
 20
345.7631328030335
 30
0.0
 40
3.98983484850948
100
AcDbArc
 50
311.2438286196602
 51
48.75617138033951
  0
ARC
  5
19C
330
20
100
AcDbEntity
  8
SCHRAFF
100
AcDbCircle
 10
166.2870947917879
 20
345.7631328030335
 30
0.0
 40
3.98983484850948
100
AcDbArc
 50
311.2438286196602
 51
48.75617138033951
  0
LINE
  5
19D
330
20
100
AcDbEntity
  8
STEMPEL
  6
Continuous
100
AcDbLine
 10
124.3134135989968
 20
419.5890249598358
 30
0.0
 11
124.3134135989968
 21
393.9160814759527
 31
0.0
  0
ARC
  5
19E
330
20
100
AcDbEntity
  8
STEMPEL
  6
Continuous
100
AcDbCircle
 10
145.2134135989967
 20
393.9160814759526
 30
0.0
 40
20.9
100
AcDbArc
 50
179.9999999999999
 51
214.3868930268838
  0
ARC
  5
19F
330
20
100
AcDbEntity
  8
STEMPEL
  6
Continuous
100
AcDbCircle
 10
119.7134135989967
 20
376.4644339892536
 30
0.0
 40
10.0
100
AcDbArc
 50
0.0
 51
34.38689302688368
  0
ARC
  5
1A0
330
20
100
AcDbEntity
  8
STEMPEL
  6
Continuous
100
AcDbCircle
 10
158.7134135989967
 20
450.6220718614855
 30
0.0
 40
42.9
100
AcDbArc
 50
180.0
 51
210.6354476581464
  0
ARC
  5
1A1
330
20
100
AcDbEntity
  8
STEMPEL
  6
Continuous
100
AcDbCircle
 10
106.3134135989968
 20
419.5890249598358
 30
0.0
 40
18.0
100
AcDbArc
 50
359.9999999999999
 51
30.63544765814634
  0
ARC
  5
1A2
330
20
100
AcDbEntity
  8
SCHRAFF
100
AcDbCircle
 10
186.2870947917879
 20
345.7631328030334
 30
0.0
 40
3.98983484850948
100
AcDbArc
 50
311.2438286196602
 51
48.75617138033951
  0
ARC
  5
1A3
330
20
100
AcDbEntity
  8
SCHRAFF
100
AcDbCircle
 10
206.2870947917879
 20
345.7631328030334
 30
0.0
 40
3.98983484850948
100
AcDbArc
 50
311.2438286196602
 51
48.75617138033951
  0
ARC
  5
1A4
330
20
100
AcDbEntity
  8
SCHRAFF
100
AcDbCircle
 10
196.2870947917879
 20
345.7631328030334
 30
0.0
 40
3.98983484850948
100
AcDbArc
 50
311.2438286196602
 51
48.75617138033951
  0
ARC
  5
1A5
330
20
100
AcDbEntity
  8
SCHRAFF
100
AcDbCircle
 10
216.2870947917879
 20
345.7631328030334
 30
0.0
 40
3.98983484850948
100
AcDbArc
 50
311.2438286196602
 51
48.75617138033951
  0
ARC
  5
1A6
330
20
100
AcDbEntity
  8
SCHRAFF
100
AcDbCircle
 10
226.2870947917879
 20
345.7631328030334
 30
0.0
 40
3.98983484850948
100
AcDbArc
 50
311.2438286196602
 51
48.75617138033951
  0
ARC
  5
1A7
330
20
100
AcDbEntity
  8
STEMPEL
  6
Continuous
100
AcDbCircle
 10
158.7134135989967
 20
482.9070858726967
 30
0.0
 40
42.9
100
AcDbArc
 50
149.3695577484716
 51
180.0
  0
LINE
  5
1A8
330
20
100
AcDbEntity
  8
STEMPEL
100
AcDbLine
 10
375.7134135989971
 20
313.5101596093357
 30
0.0
 11
375.713413598997
 21
245.7645788670911
 31
0.0
  0
LINE
  5
1AA
330
20
100
AcDbEntity
  8
HILF
100
AcDbLine
 10
420.0
 20
-0.0000000000001137
 30
0.0
 11
419.9999999999999
 21
594.0
 31
0.0
  0
LINE
  5
1AB
330
20
100
AcDbEntity
  8
STEMPEL
100
AcDbLine
 10
410.0
 20
10.0
 30
0.0
 11
410.0
 21
584.0
 31
0.0
  0
LINE
  5
1AC
330
20
100
AcDbEntity
  8
STEMPEL
100
AcDbLine
 10
332.0
 20
109.9999999999997
 30
0.0
 11
332.0
 21
40.0
 31
0.0
  0
LINE
  5
1AD
330
20
100
AcDbEntity
  8
HILF
100
AcDbLine
 10
336.7238616296993
 20
83.77983636955827
 30
0.0
 11
404.8588839326728
 21
83.77983636955827
 31
0.0
  0
LINE
  5
1AE
330
20
100
AcDbEntity
  8
VOLL
100
AcDbLine
 10
332.0
 20
60.0
 30
0.0
 11
410.0
 21
60.0
 31
0.0
  0
TEXT
  5
1AF
330
20
100
AcDbEntity
  8
TEXT
100
AcDbText
 10
336.178754957634
 20
102.3132034537136
 30
0.0
 40
5.0
  1
Zeichnungs Nr.
 41
0.8
  7
GREEKS
100
AcDbText
  0
TEXT
  5
1B0
330
20
100
AcDbEntity
  8
TEXT
 62
     1
100
AcDbText
 10
342.847717454267
 20
88.14901428913959
 30
0.0
 40
7.0
  1
06006GH0W
 41
0.8
  7
GREEKS
 72
     1
 11
367.247717454267
 21
88.14901428913959
 31
0.0
100
AcDbText
  0
TEXT
  5
1B1
330
20
100
AcDbEntity
  8
TEXT
100
AcDbText
 10
336.7238616296993
 20
73.1811823709997
 30
0.0
 40
5.0
  1
Ersatz für:
 41
0.8
  7
GREEKS
100
AcDbText
  0
TEXT
  5
1B2
330
20
100
AcDbEntity
  8
TEXT
100
AcDbText
 10
337.2400861497006
 20
52.07416177878602
 30
0.0
 40
5.0
  1
ersetzt durch:
 41
0.8
  7
GREEKS
100
AcDbText
  0
LINE
  5
1B3
330
20
100
AcDbEntity
  8
STEMPEL
  6
Continuous
100
AcDbLine
 10
362.6134135989967
 20
482.9070858726967
 30
0.0
 11
362.6134135989967
 21
450.6220718614855
 31
0.0
  0
LINE
  5
1B6
330
20
100
AcDbEntity
  8
STEMPEL
100
AcDbLine
 10
348.7134135989967
 20
376.4644339892547
 30
0.0
 11
348.7134135989969
 21
372.6116051644303
 31
0.0
  0
LINE
  5
1B7
330
20
100
AcDbEntity
  8
STEMPEL
100
AcDbLine
 10
364.2134135989969
 20
345.7631328030332
 30
0.0
 11
375.0904800185801
 21
317.9312260335972
 31
0.0
  0
LINE
  5
1B9
330
20
100
AcDbEntity
  8
STEMPEL
100
AcDbLine
 10
350.2143866818731
 20
367.3422084758136
 30
0.0
 11
364.2134135989969
 21
345.7631328030332
 31
0.0
  0
ARC
  5
1BB
330
20
100
AcDbEntity
  8
STEMPEL
100
AcDbCircle
 10
358.7134135989968
 20
372.6116051644303
 30
0.0
 40
10.0
100
AcDbArc
 50
180.0000000000001
 51
211.7989128242945
  0
ARC
  5
1BC
330
20
100
AcDbEntity
  8
SCHRAFF
100
AcDbCircle
 10
362.2259776867886
 20
345.0278307723916
 30
0.0
 40
3.737475240297565
100
AcDbArc
 50
322.7032505257361
 51
88.04601904136676
  0
INSERT
  5
1BD
330
20
100
AcDbEntity
  8
SCHRAFF
100
AcDbBlockReference
  2
*X1
 10
487.6286116621237
 20
-10.0
 30
0.0
 41
-1.0
1001
ACAD
1000
HATCH
1002
{
1070
    16
1000
_U,I
1040
0.1
1040
0.0
1070
     0
1002
}
  0
LINE
  5
1BF
330
20
100
AcDbEntity
  8
STEMPEL
  6
Continuous
100
AcDbLine
 10
354.1134135989967
 20
419.5890249598356
 30
0.0
 11
354.1134135989967
 21
393.9160814759527
 31
0.0
  0
ARC
  5
1C0
330
20
100
AcDbEntity
  8
STEMPEL
  6
Continuous
100
AcDbCircle
 10
333.2134135989968
 20
393.9160814759527
 30
0.0
 40
20.9
100
AcDbArc
 50
325.6131069731178
 51
0.0
  0
ARC
  5
1C2
330
20
100
AcDbEntity
  8
STEMPEL
100
AcDbCircle
 10
358.7134135989967
 20
376.4644339892547
 30
0.0
 40
10.0
100
AcDbArc
 50
145.6131069731178
 51
180.0
  0
ARC
  5
1C5
330
20
100
AcDbEntity
  8
STEMPEL
  6
Continuous
100
AcDbCircle
 10
372.1134135989967
 20
419.5890249598356
 30
0.0
 40
18.0
100
AcDbArc
 50
149.3645523418536
 51
180.0
  0
ARC
  5
1C7
330
20
100
AcDbEntity
  8
STEMPEL
  6
Continuous
100
AcDbCircle
 10
319.7134135989967
 20
450.6220718614855
 30
0.0
 40
42.9
100
AcDbArc
 50
329.3645523418534
 51
0.0
  0
ARC
  5
1C9
330
20
100
AcDbEntity
  8
STEMPEL
  6
Continuous
100
AcDbCircle
 10
319.7134135989967
 20
482.9070858726967
 30
0.0
 40
42.9
100
AcDbArc
 50
0.0
 51
30.63044225152844
  0
DIMENSION
  5
1CD
330
20
100
AcDbEntity
  8
BEM
100
AcDbDimension
  2
*D11
 10
129.7134135989967
 20
352.4490184529917
 30
0.0
 11
239.2134135989968
 21
352.4490184529917
 31
0.0
 70
   160
  1
%%c<>
 71
     5
 42
219.0000000000002
  3
Standard
100
AcDbAlignedDimension
 13
348.7134135989969
 23
372.6116051644303
 33
0.0
 14
129.7134135989967
 24
372.6116051644301
 34
0.0
100
AcDbRotatedDimension
1001
ACAD
1000
DSTYLE
1002
{
1070
    40
1040
2.0
1070
    41
1040
3.5
1070
    42
1040
1.0
1070
    43
1040
7.0
1070
    44
1040
1.0
1070
    47
1040
2.2
1070
    48
1040
2.2
1070
    73
1070
     0
1070
    74
1070
     0
1070
    77
1070
     1
1070
    78
1070
     8
1070
    79
1070
     2
1070
   140
1040
3.5
1070
   141
1040
1.5
1070
   146
1040
0.5
1070
   147
1040
1.5
1070
   172
1070
     1
1070
   178
1070
     1
1070
   179
1070
     2
1070
   271
1070
     2
1070
   272
1070
     2
1070
   284
1070
     8
1070
   285
1070
     8
1070
   286
1070
     8
1070
   340
1005
32
1002
}
  0
ARC
  5
1D1
330
20
100
AcDbEntity
  8
STEMPEL
100
AcDbCircle
 10
359.7134135989971
 20
313.5101596093357
 30
0.0
 40
16.0
100
AcDbArc
 50
359.9999999999999
 51
16.04049336842102
  0
ARC
  5
1D2
330
20
100
AcDbEntity
  8
STEMPEL
100
AcDbCircle
 10
118.7134135989964
 20
313.5101596093355
 30
0.0
 40
16.0
100
AcDbArc
 50
163.9595066315789
 51
180.0000000000001
  0
TEXT
  5
1DA
330
20
100
AcDbEntity
  8
TEXT
 62
     1
100
AcDbText
 10
233.967866077546
 20
439.0721242205762
 30
0.0
 40
7.0
  1
DN200
 50
90.0
 41
0.8
  7
GREEKS
100
AcDbText
  0
TEXT
  5
1DB
330
20
100
AcDbEntity
  8
TEXT
 62
     1
100
AcDbText
 10
233.967866077546
 20
262.0267679542314
 30
0.0
 40
7.0
  1
DN250
 50
90.0
 41
0.8
  7
GREEKS
100
AcDbText
  0
TEXT
  5
1DE
330
20
100
AcDbEntity
  8
BEM
100
AcDbText
 10
416.5811541437437
 20
12.14804815338303
 30
0.0
 40
4.0
  1
Diese Zeichnung ist urheberrechtlich geschützt und bleibt unser Eigentum. Sie darf weder ganz noch teilweise vervielfältigt und nicht an Dritte weitergegeben werden.
 50
90.0
 41
0.8
  7
GREEKS
100
AcDbText
  0
TEXT
  5
203
330
20
100
AcDbEntity
  8
TEXT
100
AcDbText
 10
192.6882715247924
 20
88.0494036312225
 30
0.0
 40
4.0
  1
DIN EN1123-2
 41
0.8
  7
GREEKS
 72
     1
 11
209.6787477152686
 21
88.0494036312225
 31
0.0
100
AcDbText
  0
ARC
  5
365
330
20
100
AcDbEntity
  8
SCHRAFF
100
AcDbCircle
 10
336.2870947917879
 20
345.7631328030333
 30
0.0
 40
3.98983484850948
100
AcDbArc
 50
311.2438286196602
 51
48.75617138033951
  0
ARC
  5
366
330
20
100
AcDbEntity
  8
SCHRAFF
100
AcDbCircle
 10
326.2870947917879
 20
345.7631328030333
 30
0.0
 40
3.98983484850948
100
AcDbArc
 50
311.2438286196602
 51
48.75617138033951
  0
ARC
  5
367
330
20
100
AcDbEntity
  8
SCHRAFF
100
AcDbCircle
 10
306.2870947917879
 20
345.7631328030333
 30
0.0
 40
3.98983484850948
100
AcDbArc
 50
311.2438286196602
 51
48.75617138033951
  0
ARC
  5
368
330
20
100
AcDbEntity
  8
SCHRAFF
100
AcDbCircle
 10
316.2870947917879
 20
345.7631328030333
 30
0.0
 40
3.98983484850948
100
AcDbArc
 50
311.2438286196602
 51
48.75617138033951
  0
ARC
  5
369
330
20
100
AcDbEntity
  8
SCHRAFF
100
AcDbCircle
 10
296.2870947917879
 20
345.7631328030333
 30
0.0
 40
3.98983484850948
100
AcDbArc
 50
311.2438286196602
 51
48.75617138033951
  0
ARC
  5
36A
330
20
100
AcDbEntity
  8
SCHRAFF
100
AcDbCircle
 10
276.2870947917879
 20
345.7631328030334
 30
0.0
 40
3.98983484850948
100
AcDbArc
 50
311.2438286196602
 51
48.75617138033951
  0
ARC
  5
36B
330
20
100
AcDbEntity
  8
SCHRAFF
100
AcDbCircle
 10
286.2870947917879
 20
345.7631328030334
 30
0.0
 40
3.98983484850948
100
AcDbArc
 50
311.2438286196602
 51
48.75617138033951
  0
ARC
  5
36C
330
20
100
AcDbEntity
  8
SCHRAFF
100
AcDbCircle
 10
256.2870947917879
 20
345.7631328030334
 30
0.0
 40
3.98983484850948
100
AcDbArc
 50
311.2438286196602
 51
48.75617138033951
  0
ARC
  5
36D
330
20
100
AcDbEntity
  8
SCHRAFF
100
AcDbCircle
 10
266.2870947917879
 20
345.7631328030334
 30
0.0
 40
3.98983484850948
100
AcDbArc
 50
311.2438286196602
 51
48.75617138033951
  0
ARC
  5
36E
330
20
100
AcDbEntity
  8
SCHRAFF
100
AcDbCircle
 10
246.2870947917879
 20
345.7631328030334
 30
0.0
 40
3.98983484850948
100
AcDbArc
 50
311.2438286196602
 51
48.75617138033951
  0
ARC
  5
36F
330
20
100
AcDbEntity
  8
SCHRAFF
100
AcDbCircle
 10
236.2870947917879
 20
345.7631328030334
 30
0.0
 40
3.98983484850948
100
AcDbArc
 50
311.2438286196602
 51
48.75617138033951
  0
ARC
  5
370
330
20
100
AcDbEntity
  8
SCHRAFF
100
AcDbCircle
 10
346.2870947917879
 20
345.7631328030333
 30
0.0
 40
3.98983484850948
100
AcDbArc
 50
311.2438286196602
 51
48.75617138033951
  0
ARC
  5
371
330
20
100
AcDbEntity
  8
SCHRAFF
100
AcDbCircle
 10
356.2870947917879
 20
345.7631328030333
 30
0.0
 40
3.98983484850948
100
AcDbArc
 50
311.2438286196602
 51
48.75617138033951
  0
ENDSEC
  0
SECTION
  2
OBJECTS
  0
DICTIONARY
  5
C
330
0
100
AcDbDictionary
281
     1
  3
ACAD_COLOR
350
1B
  3
ACAD_GROUP
350
D
  3
ACAD_LAYOUT
350
19
  3
ACAD_MATERIAL
350
1A
  3
ACAD_MLINESTYLE
350
16
  3
ACAD_PLOTSETTINGS
350
18
  3
ACAD_PLOTSTYLENAME
350
E
  3
AcDbVariableDictionary
350
218
  0
DICTIONARY
  5
1B
102
{ACAD_REACTORS
330
C
102
}
330
C
100
AcDbDictionary
281
     1
  0
DICTIONARY
  5
D
102
{ACAD_REACTORS
330
C
102
}
330
C
100
AcDbDictionary
281
     1
  0
DICTIONARY
  5
19
102
{ACAD_REACTORS
330
C
102
}
330
C
100
AcDbDictionary
281
     1
  3
Layout1
350
1F
  3
Model
350
23
  0
DICTIONARY
  5
1A
102
{ACAD_REACTORS
330
C
102
}
330
C
100
AcDbDictionary
281
     1
  0
DICTIONARY
  5
16
102
{ACAD_REACTORS
330
C
102
}
330
C
100
AcDbDictionary
281
     1
  3
Standard
350
17
  0
DICTIONARY
  5
18
102
{ACAD_REACTORS
330
C
102
}
330
C
100
AcDbDictionary
281
     1
  0
ACDBDICTIONARYWDFLT
  5
E
102
{ACAD_REACTORS
330
C
102
}
330
C
100
AcDbDictionary
281
     1
  3
Normal
350
F
100
AcDbDictionaryWithDefault
340
F
  0
DICTIONARY
  5
218
102
{ACAD_REACTORS
330
C
102
}
330
C
100
AcDbDictionary
281
     1
  3
DIMASSOC
350
21A
  3
HIDETEXT
350
219
  3
PROJECTNAME
350
21B
  0
LAYOUT
  5
1F
102
{ACAD_REACTORS
330
19
102
}
330
19
100
AcDbPlotSettings
  1

  2
RICOH Aficio 2027 PCL 6
  4

  6

 40
0.0
 41
0.0
 42
0.0
 43
0.0
 44
0.0
 45
0.0
 46
0.0
 47
0.0
 48
0.0
 49
0.0
140
0.0
141
0.0
142
1.0
143
1.0
 70
   688
 72
     0
 73
     0
 74
     5
  7
monochrome1.ctb
 75
    16
147
1.0
 76
     0
 77
     2
 78
   300
148
0.0
149
0.0
100
AcDbLayout
  1
Layout1
 70
     0
 71
     1
 10
0.0
 20
0.0
 11
12.0
 21
9.0
 12
2.245139065676091
 22
50.00000000000001
 32
-1.032423782695658
 14
1.000000000000000E+20
 24
1.000000000000000E+20
 34
1.000000000000000E+20
 15
-1.000000000000000E+20
 25
-1.000000000000000E+20
 35
-1.000000000000000E+20
146
0.0
 13
0.0
 23
0.0
 33
0.0
 16
1.0
 26
0.0
 36
0.0
 17
0.0
 27
1.0
 37
0.0
 76
     0
330
1C
  0
LAYOUT
  5
23
102
{ACAD_REACTORS
330
19
102
}
330
19
100
AcDbPlotSettings
  1

  2
RICOH Aficio 2027 PCL 6
  4
A4
  6

 40
5.027083396911621
 41
5.027085304260253
 42
5.027084350585937
 43
5.027069091796875
 44
209.9733276367187
 45
296.9259948730469
 46
0.0
 47
0.0
 48
0.0
 49
0.0
140
0.0
141
0.0
142
1.0
143
1.0
 70
 11952
 72
     0
 73
     1
 74
     0
  7
monochrome1.ctb
 75
     0
147
1.0
 76
     0
 77
     2
 78
   300
148
2299.89518964334
149
90.09517935315257
100
AcDbLayout
  1
Model
 70
     1
 71
     0
 10
0.0
 20
0.0
 11
12.0
 21
9.0
 12
0.0
 22
0.0
 32
0.0
 14
0.0
 24
0.0
 34
0.0
 15
0.0
 25
0.0
 35
0.0
146
0.0
 13
0.0
 23
0.0
 33
0.0
 16
1.0
 26
0.0
 36
0.0
 17
0.0
 27
1.0
 37
0.0
 76
     0
330
20
  0
MLINESTYLE
  5
17
102
{ACAD_REACTORS
330
16
102
}
330
16
100
AcDbMlineStyle
  2
STANDARD
 70
     0
  3

 62
   256
 51
90.0
 52
90.0
 71
     2
 49
0.5
 62
   256
  6
BYLAYER
 49
-0.5
 62
   256
  6
BYLAYER
  0
ACDBPLACEHOLDER
  5
F
102
{ACAD_REACTORS
330
E
102
}
330
E
  0
DICTIONARYVAR
  5
21A
102
{ACAD_REACTORS
330
218
102
}
330
218
100
DictionaryVariables
280
     0
  1
2
  0
DICTIONARYVAR
  5
219
102
{ACAD_REACTORS
330
218
102
}
330
218
100
DictionaryVariables
280
     0
  1
1
  0
DICTIONARYVAR
  5
21B
102
{ACAD_REACTORS
330
218
102
}
330
218
100
DictionaryVariables
280
     0
  1

  0
ENDSEC
  0
EOF
