  0
SECTION
  2
HEADER
  9
$ACADVER
  1
AC1018
  9
$ACADMAINTVER
 70
     2
  9
$DWGCODEPAGE
  3
ANSI_1252
  9
$INSBASE
 10
0.0
 20
0.0
 30
0.0
  9
$EXTMIN
 10
-0.0192209888436992
 20
-0.0271839699362317
 30
-0.0000000000000058
  9
$EXTMAX
 10
420.0192288123714
 20
594.0271950346398
 30
0.0000000000000104
  9
$LIMMIN
 10
0.0
 20
0.0
  9
$LIMMAX
 10
419.9999999999999
 20
594.0
  9
$ORTHOMODE
 70
     1
  9
$REGENMODE
 70
     1
  9
$FILLMODE
 70
     1
  9
$QTEXTMODE
 70
     0
  9
$MIRRTEXT
 70
     1
  9
$LTSCALE
 40
20.0
  9
$ATTMODE
 70
     1
  9
$TEXTSIZE
 40
2.5
  9
$TRACEWID
 40
0.5
  9
$TEXTSTYLE
  7
GREEKS
  9
$CLAYER
  8
SCHRAFF
  9
$CELTYPE
  6
ByLayer
  9
$CECOLOR
 62
   256
  9
$CELTSCALE
 40
1.0
  9
$DISPSILH
 70
     0
  9
$DIMSCALE
 40
2.0
  9
$DIMASZ
 40
3.5
  9
$DIMEXO
 40
1.0
  9
$DIMDLI
 40
7.0
  9
$DIMRND
 40
0.0
  9
$DIMDLE
 40
0.0
  9
$DIMEXE
 40
1.0
  9
$DIMTP
 40
4.0
  9
$DIMTM
 40
4.0
  9
$DIMTXT
 40
3.5
  9
$DIMCEN
 40
1.5
  9
$DIMTSZ
 40
0.0
  9
$DIMTOL
 70
     0
  9
$DIMLIM
 70
     0
  9
$DIMTIH
 70
     0
  9
$DIMTOH
 70
     0
  9
$DIMSE1
 70
     0
  9
$DIMSE2
 70
     0
  9
$DIMTAD
 70
     1
  9
$DIMZIN
 70
     8
  9
$DIMBLK
  1

  9
$DIMASO
 70
     1
  9
$DIMSHO
 70
     0
  9
$DIMPOST
  1

  9
$DIMAPOST
  1

  9
$DIMALT
 70
     0
  9
$DIMALTD
 70
     2
  9
$DIMALTF
 40
25.4
  9
$DIMLFAC
 40
1.0
  9
$DIMTOFL
 70
     1
  9
$DIMTVP
 40
0.0
  9
$DIMTIX
 70
     0
  9
$DIMSOXD
 70
     0
  9
$DIMSAH
 70
     0
  9
$DIMBLK1
  1

  9
$DIMBLK2
  1

  9
$DIMSTYLE
  2
Standard
  9
$DIMCLRD
 70
     0
  9
$DIMCLRE
 70
     0
  9
$DIMCLRT
 70
     1
  9
$DIMTFAC
 40
0.5
  9
$DIMGAP
 40
1.5
  9
$DIMJUST
 70
     0
  9
$DIMSD1
 70
     0
  9
$DIMSD2
 70
     0
  9
$DIMTOLJ
 70
     1
  9
$DIMTZIN
 70
     8
  9
$DIMALTZ
 70
     8
  9
$DIMALTTZ
 70
     8
  9
$DIMUPT
 70
     0
  9
$DIMDEC
 70
     2
  9
$DIMTDEC
 70
     2
  9
$DIMALTU
 70
     2
  9
$DIMALTTD
 70
     2
  9
$DIMTXSTY
  7
GREEKS
  9
$DIMAUNIT
 70
     0
  9
$DIMADEC
 70
     2
  9
$DIMALTRND
 40
0.0
  9
$DIMAZIN
 70
     2
  9
$DIMDSEP
 70
    46
  9
$DIMATFIT
 70
     3
  9
$DIMFRAC
 70
     0
  9
$DIMLDRBLK
  1

  9
$DIMLUNIT
 70
     2
  9
$DIMLWD
 70
    -2
  9
$DIMLWE
 70
    -2
  9
$DIMTMOVE
 70
     0
  9
$LUNITS
 70
     2
  9
$LUPREC
 70
     2
  9
$SKETCHINC
 40
1.0
  9
$FILLETRAD
 40
0.0
  9
$AUNITS
 70
     0
  9
$AUPREC
 70
     0
  9
$MENU
  1
ACAD
  9
$ELEVATION
 40
0.0
  9
$PELEVATION
 40
0.0
  9
$THICKNESS
 40
0.0
  9
$LIMCHECK
 70
     0
  9
$CHAMFERA
 40
0.0
  9
$CHAMFERB
 40
0.0
  9
$CHAMFERC
 40
0.0
  9
$CHAMFERD
 40
0.0
  9
$SKPOLY
 70
     0
  9
$TDCREATE
 40
2452216.351598148
  9
$TDUCREATE
 40
2452216.268264815
  9
$TDUPDATE
 40
2455658.359378461
  9
$TDUUPDATE
 40
2455658.276045127
  9
$TDINDWG
 40
0.0266439699
  9
$TDUSRTIMER
 40
0.0266439699
  9
$USRTIMER
 70
     1
  9
$ANGBASE
 50
0.0
  9
$ANGDIR
 70
     0
  9
$PDMODE
 70
     0
  9
$PDSIZE
 40
0.0
  9
$PLINEWID
 40
0.0
  9
$SPLFRAME
 70
     0
  9
$SPLINETYPE
 70
     6
  9
$SPLINESEGS
 70
     8
  9
$HANDSEED
  5
2B6
  9
$SURFTAB1
 70
     6
  9
$SURFTAB2
 70
     6
  9
$SURFTYPE
 70
     6
  9
$SURFU
 70
     6
  9
$SURFV
 70
     6
  9
$UCSBASE
  2

  9
$UCSNAME
  2

  9
$UCSORG
 10
0.0
 20
0.0
 30
0.0
  9
$UCSXDIR
 10
1.0
 20
0.0
 30
0.0
  9
$UCSYDIR
 10
0.0
 20
1.0
 30
0.0
  9
$UCSORTHOREF
  2

  9
$UCSORTHOVIEW
 70
     0
  9
$UCSORGTOP
 10
0.0
 20
0.0
 30
0.0
  9
$UCSORGBOTTOM
 10
0.0
 20
0.0
 30
0.0
  9
$UCSORGLEFT
 10
0.0
 20
0.0
 30
0.0
  9
$UCSORGRIGHT
 10
0.0
 20
0.0
 30
0.0
  9
$UCSORGFRONT
 10
0.0
 20
0.0
 30
0.0
  9
$UCSORGBACK
 10
0.0
 20
0.0
 30
0.0
  9
$PUCSBASE
  2

  9
$PUCSNAME
  2

  9
$PUCSORG
 10
0.0
 20
0.0
 30
0.0
  9
$PUCSXDIR
 10
1.0
 20
0.0
 30
0.0
  9
$PUCSYDIR
 10
0.0
 20
1.0
 30
0.0
  9
$PUCSORTHOREF
  2

  9
$PUCSORTHOVIEW
 70
     0
  9
$PUCSORGTOP
 10
0.0
 20
0.0
 30
0.0
  9
$PUCSORGBOTTOM
 10
0.0
 20
0.0
 30
0.0
  9
$PUCSORGLEFT
 10
0.0
 20
0.0
 30
0.0
  9
$PUCSORGRIGHT
 10
0.0
 20
0.0
 30
0.0
  9
$PUCSORGFRONT
 10
0.0
 20
0.0
 30
0.0
  9
$PUCSORGBACK
 10
0.0
 20
0.0
 30
0.0
  9
$USERI1
 70
     0
  9
$USERI2
 70
     0
  9
$USERI3
 70
     0
  9
$USERI4
 70
     0
  9
$USERI5
 70
     0
  9
$USERR1
 40
0.0
  9
$USERR2
 40
0.0
  9
$USERR3
 40
0.0
  9
$USERR4
 40
0.0
  9
$USERR5
 40
0.0
  9
$WORLDVIEW
 70
     1
  9
$SHADEDGE
 70
     3
  9
$SHADEDIF
 70
    70
  9
$TILEMODE
 70
     1
  9
$MAXACTVP
 70
    16
  9
$PINSBASE
 10
0.0
 20
0.0
 30
0.0
  9
$PLIMCHECK
 70
     0
  9
$PEXTMIN
 10
1.000000000000000E+20
 20
1.000000000000000E+20
 30
1.000000000000000E+20
  9
$PEXTMAX
 10
-1.000000000000000E+20
 20
-1.000000000000000E+20
 30
-1.000000000000000E+20
  9
$PLIMMIN
 10
0.0
 20
0.0
  9
$PLIMMAX
 10
12.0
 20
9.0
  9
$UNITMODE
 70
     0
  9
$VISRETAIN
 70
     0
  9
$PLINEGEN
 70
     0
  9
$PSLTSCALE
 70
     0
  9
$TREEDEPTH
 70
  3020
  9
$CMLSTYLE
  2
Standard
  9
$CMLJUST
 70
     0
  9
$CMLSCALE
 40
1.0
  9
$PROXYGRAPHICS
 70
     1
  9
$MEASUREMENT
 70
     0
  9
$CELWEIGHT
370
    -1
  9
$ENDCAPS
280
     0
  9
$JOINSTYLE
280
     0
  9
$LWDISPLAY
290
     0
  9
$INSUNITS
 70
     0
  9
$HYPERLINKBASE
  1

  9
$STYLESHEET
  1
monochrome 1.ctb
  9
$XEDIT
290
     1
  9
$CEPSNTYPE
380
     0
  9
$PSTYLEMODE
290
     1
  9
$FINGERPRINTGUID
  2
{5EED8AF2-BEAB-4030-A842-B0C296A04341}
  9
$VERSIONGUID
  2
{B44D5209-115D-4D4E-9494-5314B1D1086F}
  9
$EXTNAMES
290
     1
  9
$PSVPSCALE
 40
0.0
  9
$OLESTARTUP
290
     0
  9
$SORTENTS
280
   127
  9
$INDEXCTL
280
     0
  9
$HIDETEXT
280
     1
  9
$XCLIPFRAME
290
     0
  9
$HALOGAP
280
     0
  9
$OBSCOLOR
 70
   257
  9
$OBSLTYPE
280
     0
  9
$INTERSECTIONDISPLAY
280
     0
  9
$INTERSECTIONCOLOR
 70
   257
  9
$DIMASSOC
280
     2
  9
$PROJECTNAME
  1

  0
ENDSEC
  0
SECTION
  2
CLASSES
  0
CLASS
  1
ACDBDICTIONARYWDFLT
  2
AcDbDictionaryWithDefault
  3
ObjectDBX Classes
 90
        0
 91
        1
280
     0
281
     0
  0
CLASS
  1
DICTIONARYVAR
  2
AcDbDictionaryVar
  3
ObjectDBX Classes
 90
        0
 91
        3
280
     0
281
     0
  0
ENDSEC
  0
SECTION
  2
TABLES
  0
TABLE
  2
VPORT
  5
8
330
0
100
AcDbSymbolTable
 70
     4
  0
VPORT
  5
2B5
330
8
100
AcDbSymbolTableRecord
100
AcDbViewportTableRecord
  2
*Active
 70
     0
 10
0.0
 20
0.0
 11
1.0
 21
1.0
 12
210.0
 22
297.0
 13
0.0
 23
0.0
 14
1.0
 24
1.0
 15
10.0
 25
10.0
 16
0.0
 26
0.0
 36
1.0
 17
0.0
 27
0.0
 37
0.0
 40
594.0
 41
1.334231805929919
 42
50.0
 43
0.0
 44
0.0
 50
0.0
 51
0.0
 71
     0
 72
  1500
 73
     1
 74
     0
 75
     0
 76
     0
 77
     0
 78
     0
281
     0
 65
     1
110
0.0
120
0.0
130
0.0
111
1.0
121
0.0
131
0.0
112
0.0
122
1.0
132
0.0
 79
     0
146
0.0
  0
ENDTAB
  0
TABLE
  2
LTYPE
  5
5
330
0
100
AcDbSymbolTable
 70
     2
  0
LTYPE
  5
13
330
5
100
AcDbSymbolTableRecord
100
AcDbLinetypeTableRecord
  2
ByBlock
 70
     0
  3

 72
    65
 73
     0
 40
0.0
  0
LTYPE
  5
14
330
5
100
AcDbSymbolTableRecord
100
AcDbLinetypeTableRecord
  2
ByLayer
 70
     0
  3

 72
    65
 73
     0
 40
0.0
  0
LTYPE
  5
15
330
5
100
AcDbSymbolTableRecord
100
AcDbLinetypeTableRecord
  2
Continuous
 70
     0
  3
Solid line
 72
    65
 73
     0
 40
0.0
  0
LTYPE
  5
34
330
5
100
AcDbSymbolTableRecord
100
AcDbLinetypeTableRecord
  2
STRICHPUNKT
 70
     0
  3
__ . __ . __ . __ . __ . __ . __ . __ . __ . __
 72
    65
 73
     4
 40
1.0
 49
0.5
 74
     0
 49
-0.25
 74
     0
 49
0.0
 74
     0
 49
-0.25
 74
     0
  0
ENDTAB
  0
TABLE
  2
LAYER
  5
2
330
0
100
AcDbSymbolTable
 70
     9
  0
LAYER
  5
10
330
2
100
AcDbSymbolTableRecord
100
AcDbLayerTableRecord
  2
0
 70
     0
 62
     7
  6
Continuous
370
    -3
390
F
  0
LAYER
  5
37
330
2
100
AcDbSymbolTableRecord
100
AcDbLayerTableRecord
  2
VOLL
 70
     0
 62
     1
  6
Continuous
370
    -3
390
F
  0
LAYER
  5
38
330
2
100
AcDbSymbolTableRecord
100
AcDbLayerTableRecord
  2
HILF
 70
     0
 62
     2
  6
Continuous
370
    -3
390
F
  0
LAYER
  5
39
330
2
100
AcDbSymbolTableRecord
100
AcDbLayerTableRecord
  2
MITTEL
 70
     0
 62
     2
  6
STRICHPUNKT
370
    -3
390
F
  0
LAYER
  5
3A
330
2
100
AcDbSymbolTableRecord
100
AcDbLayerTableRecord
  2
BEM
 70
     0
 62
     7
  6
Continuous
370
    -3
390
F
  0
LAYER
  5
3B
330
2
100
AcDbSymbolTableRecord
100
AcDbLayerTableRecord
  2
STEMPEL
 70
     0
 62
     3
  6
Continuous
370
    -3
390
F
  0
LAYER
  5
3C
330
2
100
AcDbSymbolTableRecord
100
AcDbLayerTableRecord
  2
TEXT
 70
     0
 62
     7
  6
Continuous
370
    -3
390
F
  0
LAYER
  5
3D
330
2
100
AcDbSymbolTableRecord
100
AcDbLayerTableRecord
  2
DEFPOINTS
 70
     0
 62
     7
  6
Continuous
290
     0
370
    -3
390
F
  0
LAYER
  5
3E
330
2
100
AcDbSymbolTableRecord
100
AcDbLayerTableRecord
  2
SCHRAFF
 70
     0
 62
     7
  6
Continuous
370
    -3
390
F
  0
ENDTAB
  0
TABLE
  2
STYLE
  5
3
330
0
100
AcDbSymbolTable
 70
     2
  0
STYLE
  5
11
330
3
100
AcDbSymbolTableRecord
100
AcDbTextStyleTableRecord
  2
STANDARD
 70
     0
 40
0.0
 41
1.0
 50
0.0
 71
     0
 42
3.5
  3
txt
  4

  0
STYLE
  5
33
330
3
100
AcDbSymbolTableRecord
100
AcDbTextStyleTableRecord
  2
GREEKS
 70
     0
 40
0.0
 41
0.8
 50
0.0
 71
     0
 42
2.5
  3
SIMPLEX.shx
  4

  0
ENDTAB
  0
TABLE
  2
VIEW
  5
6
330
0
100
AcDbSymbolTable
 70
     0
  0
ENDTAB
  0
TABLE
  2
UCS
  5
7
330
0
100
AcDbSymbolTable
 70
     0
  0
ENDTAB
  0
TABLE
  2
APPID
  5
9
330
0
100
AcDbSymbolTable
 70
     1
  0
APPID
  5
12
330
9
100
AcDbSymbolTableRecord
100
AcDbRegAppTableRecord
  2
ACAD
 70
     0
  0
ENDTAB
  0
TABLE
  2
DIMSTYLE
  5
A
330
0
100
AcDbSymbolTable
 70
     1
100
AcDbDimStyleTable
 71
     1
340
1C8
  0
DIMSTYLE
105
1C8
102
{ACAD_REACTORS
330
14D
330
192
330
165
102
}
330
A
100
AcDbSymbolTableRecord
100
AcDbDimStyleTableRecord
  2
Standard
 70
     0
340
11
  0
ENDTAB
  0
TABLE
  2
BLOCK_RECORD
  5
1
330
0
100
AcDbSymbolTable
 70
     7
  0
BLOCK_RECORD
  5
20
330
1
100
AcDbSymbolTableRecord
100
AcDbBlockTableRecord
  2
*Model_Space
340
23
  0
BLOCK_RECORD
  5
1C
330
1
100
AcDbSymbolTableRecord
100
AcDbBlockTableRecord
  2
*Paper_Space
340
1F
  0
BLOCK_RECORD
  5
24
330
1
100
AcDbSymbolTableRecord
100
AcDbBlockTableRecord
  2
LOGO
340
0
102
{BLKREFS
331
154
102
}
  0
BLOCK_RECORD
  5
26
330
1
100
AcDbSymbolTableRecord
100
AcDbBlockTableRecord
  2
*X1
340
0
102
{BLKREFS
331
1B2
331
1BC
102
}
  0
BLOCK_RECORD
  5
2E
330
1
100
AcDbSymbolTableRecord
100
AcDbBlockTableRecord
  2
*D2
340
0
  0
BLOCK_RECORD
  5
2F
330
1
100
AcDbSymbolTableRecord
100
AcDbBlockTableRecord
  2
*D3
340
0
  0
BLOCK_RECORD
  5
211
330
1
100
AcDbSymbolTableRecord
100
AcDbBlockTableRecord
  2
*D4
340
0
  0
BLOCK_RECORD
  5
230
330
1
100
AcDbSymbolTableRecord
100
AcDbBlockTableRecord
  2
*D5
340
0
  0
BLOCK_RECORD
  5
23C
330
1
100
AcDbSymbolTableRecord
100
AcDbBlockTableRecord
  2
*D6
340
0
  0
ENDTAB
  0
ENDSEC
  0
SECTION
  2
BLOCKS
  0
BLOCK
  5
42
330
20
100
AcDbEntity
  8
0
100
AcDbBlockBegin
  2
*Model_Space
 70
     0
 10
0.0
 20
0.0
 30
0.0
  3
*Model_Space
  1

  0
ENDBLK
  5
43
330
20
100
AcDbEntity
  8
0
100
AcDbBlockEnd
  0
BLOCK
  5
40
330
1C
100
AcDbEntity
 67
     1
  8
0
100
AcDbBlockBegin
  2
*Paper_Space
 70
     0
 10
0.0
 20
0.0
 30
0.0
  3
*Paper_Space
  1

  0
ENDBLK
  5
41
330
1C
100
AcDbEntity
 67
     1
  8
0
100
AcDbBlockEnd
  0
BLOCK
  5
44
330
24
100
AcDbEntity
  8
0
100
AcDbBlockBegin
  2
LOGO
 70
     0
 10
0.0
 20
0.0
 30
0.0
  3
LOGO
  1

  0
ARC
  5
45
330
24
100
AcDbEntity
  8
0
100
AcDbCircle
 10
11.59973089678112
 20
-9.271599258481501
 30
0.0
 40
4.5
100
AcDbArc
 50
270.0
 51
231.0575587310159
  0
LINE
  5
46
330
24
100
AcDbEntity
  8
0
100
AcDbLine
 10
3.599730896781125
 20
-4.771599258481529
 30
0.0
 11
3.599730896781153
 21
-11.77159925848133
 31
0.0
  0
LINE
  5
47
330
24
100
AcDbEntity
  8
0
100
AcDbLine
 10
2.599730896781125
 20
-4.771599258481529
 30
0.0
 11
2.599730896781153
 21
-11.77159925848133
 31
0.0
  0
CIRCLE
  5
48
330
24
100
AcDbEntity
  8
0
100
AcDbCircle
 10
11.59973089678112
 20
-9.271599258481501
 30
0.0
 40
3.5
  0
ARC
  5
49
330
24
100
AcDbEntity
  8
0
100
AcDbCircle
 10
31.59973089678115
 20
-9.271599258481472
 30
0.0
 40
4.5
100
AcDbArc
 50
270.0
 51
231.0575587310182
  0
LINE
  5
4A
330
24
100
AcDbEntity
  8
0
100
AcDbLine
 10
17.59973089678112
 20
-4.771599258481472
 30
0.0
 11
17.59973089678115
 21
-13.77159925848147
 31
0.0
  0
ARC
  5
4B
330
24
100
AcDbEntity
  8
0
100
AcDbCircle
 10
22.59973089678116
 20
-7.271599258481472
 30
0.0
 40
2.5
100
AcDbArc
 50
293.1161887722295
 51
90.0
  0
CIRCLE
  5
4C
330
24
100
AcDbEntity
  8
0
100
AcDbCircle
 10
31.59973089678115
 20
-9.271599258481472
 30
0.0
 40
3.5
  0
ARC
  5
4D
330
24
100
AcDbEntity
  8
0
100
AcDbCircle
 10
4.599730896781153
 20
-11.77159925848133
 30
0.0
 40
1.0
100
AcDbArc
 50
180.0
 51
270.0
  0
ARC
  5
4E
330
24
100
AcDbEntity
  8
0
100
AcDbCircle
 10
4.599730896781153
 20
-11.77159925848133
 30
0.0
 40
2.0
100
AcDbArc
 50
179.9999999999992
 51
270.0
  0
LINE
  5
4F
330
24
100
AcDbEntity
  8
0
100
AcDbLine
 10
11.59973089678115
 20
-13.77159925848144
 30
0.0
 11
4.599730896781153
 21
-13.77159925848147
 31
0.0
  0
LINE
  5
50
330
24
100
AcDbEntity
  8
0
100
AcDbLine
 10
8.771303772034769
 20
-12.77159925848136
 30
0.0
 11
4.599730896781153
 21
-12.77159925848133
 31
0.0
  0
LINE
  5
51
330
24
100
AcDbEntity
  8
0
100
AcDbLine
 10
31.59973089678115
 20
-13.77159925848147
 30
0.0
 11
23.6715276665056
 21
-13.77159925848144
 31
0.0
  0
LINE
  5
52
330
24
100
AcDbEntity
  8
0
100
AcDbLine
 10
23.56565672307022
 20
-9.51278021337896
 30
0.0
 11
24.4388546544846
 21
-12.77159925848144
 31
0.0
  0
LINE
  5
53
330
24
100
AcDbEntity
  8
0
100
AcDbLine
 10
22.59973089678116
 20
-9.771599258481472
 30
0.0
 11
18.59973089678112
 21
-9.771599258481472
 31
0.0
  0
LINE
  5
54
330
24
100
AcDbEntity
  8
0
100
AcDbLine
 10
18.59973089678115
 20
-13.77159925848144
 30
0.0
 11
17.59973089678115
 21
-13.77159925848144
 31
0.0
  0
LINE
  5
55
330
24
100
AcDbEntity
  8
0
100
AcDbLine
 10
18.59973089678115
 20
-9.771599258481472
 30
0.0
 11
18.59973089678115
 21
-13.77159925848144
 31
0.0
  0
LINE
  5
56
330
24
100
AcDbEntity
  8
0
100
AcDbLine
 10
22.59973089678116
 20
-9.771599258481472
 30
0.0
 11
23.67152766650562
 21
-13.77159925848147
 31
0.0
  0
ARC
  5
57
330
24
100
AcDbEntity
  8
0
100
AcDbCircle
 10
22.59973089678116
 20
-7.271599258481472
 30
0.0
 40
2.5
100
AcDbArc
 50
270.0
 51
270.0000000000007
  0
LINE
  5
58
330
24
100
AcDbEntity
  8
0
100
AcDbLine
 10
28.77130377203494
 20
-12.77159925848147
 30
0.0
 11
24.43885465448463
 21
-12.77159925848144
 31
0.0
  0
LINE
  5
59
330
24
100
AcDbEntity
  8
0
100
AcDbLine
 10
3.599730896781125
 20
-4.771599258481472
 30
0.0
 11
2.599730896781125
 21
-4.771599258481472
 31
0.0
  0
LINE
  5
5A
330
24
100
AcDbEntity
  8
0
100
AcDbLine
 10
22.59973089678116
 20
-8.771599258481472
 30
0.0
 11
18.59973089678115
 21
-8.771599258481472
 31
0.0
  0
LINE
  5
5B
330
24
100
AcDbEntity
  8
0
100
AcDbLine
 10
22.59973089678116
 20
-5.771599258481472
 30
0.0
 11
18.59973089678115
 21
-5.771599258481472
 31
0.0
  0
LINE
  5
5C
330
24
100
AcDbEntity
  8
0
100
AcDbLine
 10
22.59973089678116
 20
-4.771599258481472
 30
0.0
 11
17.59973089678115
 21
-4.771599258481472
 31
0.0
  0
LINE
  5
5D
330
24
100
AcDbEntity
  8
0
100
AcDbLine
 10
18.59973089678115
 20
-5.771599258481472
 30
0.0
 11
18.59973089678115
 21
-8.771599258481472
 31
0.0
  0
ARC
  5
5E
330
24
100
AcDbEntity
  8
0
100
AcDbCircle
 10
22.59973089678116
 20
-7.271599258481472
 30
0.0
 40
1.5
100
AcDbArc
 50
270.0
 51
90.0
  0
ENDBLK
  5
5F
330
24
100
AcDbEntity
  8
0
100
AcDbBlockEnd
  0
BLOCK
  5
64
330
26
100
AcDbEntity
  8
0
100
AcDbBlockBegin
  2
*X1
 70
     1
 10
0.0
 20
0.0
 30
0.0
  3
*X1
  1

  0
LINE
  5
65
330
26
100
AcDbEntity
  8
0
 62
     0
100
AcDbLine
 10
222.1151863064869
 20
554.6
 30
0.0
 11
225.2759086810044
 21
554.6
 31
0.0
  0
LINE
  5
66
330
26
100
AcDbEntity
  8
0
 62
     0
100
AcDbLine
 10
222.164708399514
 20
554.7
 30
0.0
 11
225.4981309032266
 21
554.7
 31
0.0
  0
LINE
  5
67
330
26
100
AcDbEntity
  8
0
 62
     0
100
AcDbLine
 10
222.2170750811154
 20
554.8
 30
0.0
 11
225.7293223152467
 21
554.8
 31
0.0
  0
LINE
  5
68
330
26
100
AcDbEntity
  8
0
 62
     0
100
AcDbLine
 10
222.2723897752719
 20
554.8999999999999
 30
0.0
 11
225.9803683403511
 21
554.8999999999999
 31
0.0
  0
LINE
  5
69
330
26
100
AcDbEntity
  8
0
 62
     0
100
AcDbLine
 10
222.3307672507001
 20
555.0
 30
0.0
 11
226.2314143654557
 21
555.0
 31
0.0
  0
LINE
  5
6A
330
26
100
AcDbEntity
  8
0
 62
     0
100
AcDbLine
 10
222.3923351903749
 20
555.1
 30
0.0
 11
226.4824603905604
 21
555.1
 31
0.0
  0
LINE
  5
6B
330
26
100
AcDbEntity
  8
0
 62
     0
100
AcDbLine
 10
222.4572360701337
 20
555.2
 30
0.0
 11
226.7335064156651
 21
555.2
 31
0.0
  0
LINE
  5
6C
330
26
100
AcDbEntity
  8
0
 62
     0
100
AcDbLine
 10
222.5256294232748
 20
555.3
 30
0.0
 11
226.9845524407697
 21
555.3
 31
0.0
  0
LINE
  5
6D
330
26
100
AcDbEntity
  8
0
 62
     0
100
AcDbLine
 10
222.5976945919261
 20
555.4
 30
0.0
 11
227.2355984658741
 21
555.4
 31
0.0
  0
LINE
  5
6E
330
26
100
AcDbEntity
  8
0
 62
     0
100
AcDbLine
 10
222.6736340988163
 20
555.4999999999999
 30
0.0
 11
227.4866444909788
 21
555.4999999999999
 31
0.0
  0
LINE
  5
6F
330
26
100
AcDbEntity
  8
0
 62
     0
100
AcDbLine
 10
222.7536778189391
 20
555.6
 30
0.0
 11
227.7376905160835
 21
555.6
 31
0.0
  0
LINE
  5
70
330
26
100
AcDbEntity
  8
0
 62
     0
100
AcDbLine
 10
222.8380881956817
 20
555.7
 30
0.0
 11
227.9887365411881
 21
555.7
 31
0.0
  0
LINE
  5
71
330
26
100
AcDbEntity
  8
0
 62
     0
100
AcDbLine
 10
222.9271668399303
 20
555.8
 30
0.0
 11
228.2397825662928
 21
555.8
 31
0.0
  0
LINE
  5
72
330
26
100
AcDbEntity
  8
0
 62
     0
100
AcDbLine
 10
223.021262988942
 20
555.9
 30
0.0
 11
228.4908285913971
 21
555.9
 31
0.0
  0
LINE
  5
73
330
26
100
AcDbEntity
  8
0
 62
     0
100
AcDbLine
 10
223.1207845097164
 20
556.0
 30
0.0
 11
228.7418746165018
 21
556.0
 31
0.0
  0
LINE
  5
74
330
26
100
AcDbEntity
  8
0
 62
     0
100
AcDbLine
 10
223.2262124519298
 20
556.0999999999999
 30
0.0
 11
228.9929206416065
 21
556.0999999999999
 31
0.0
  0
LINE
  5
75
330
26
100
AcDbEntity
  8
0
 62
     0
100
AcDbLine
 10
223.3381206625289
 20
556.2
 30
0.0
 11
229.2439666667111
 21
556.2
 31
0.0
  0
LINE
  5
76
330
26
100
AcDbEntity
  8
0
 62
     0
100
AcDbLine
 10
223.4572028017721
 20
556.3
 30
0.0
 11
229.4950126918158
 21
556.3
 31
0.0
  0
LINE
  5
77
330
26
100
AcDbEntity
  8
0
 62
     0
100
AcDbLine
 10
223.5843105003588
 20
556.4
 30
0.0
 11
229.6021716988094
 21
556.4
 31
0.0
  0
LINE
  5
78
330
26
100
AcDbEntity
  8
0
 62
     0
100
AcDbLine
 10
223.7205088641393
 20
556.5
 30
0.0
 11
229.4659733350289
 21
556.5
 31
0.0
  0
LINE
  5
79
330
26
100
AcDbEntity
  8
0
 62
     0
100
AcDbLine
 10
223.8671600952534
 20
556.6
 30
0.0
 11
229.3193221039149
 21
556.6
 31
0.0
  0
LINE
  5
7A
330
26
100
AcDbEntity
  8
0
 62
     0
100
AcDbLine
 10
224.026054938087
 20
556.7
 30
0.0
 11
229.1604272610812
 21
556.7
 31
0.0
  0
LINE
  5
7B
330
26
100
AcDbEntity
  8
0
 62
     0
100
AcDbLine
 10
224.1996304517569
 20
556.8
 30
0.0
 11
228.9868517474113
 21
556.8
 31
0.0
  0
LINE
  5
7C
330
26
100
AcDbEntity
  8
0
 62
     0
100
AcDbLine
 10
224.3913557531135
 20
556.8999999999999
 30
0.0
 11
228.7951264460548
 21
556.8999999999999
 31
0.0
  0
LINE
  5
7D
330
26
100
AcDbEntity
  8
0
 62
     0
100
AcDbLine
 10
224.6064783496284
 20
557.0
 30
0.0
 11
228.5800038495398
 21
557.0
 31
0.0
  0
LINE
  5
7E
330
26
100
AcDbEntity
  8
0
 62
     0
100
AcDbLine
 10
224.853656847465
 20
557.1
 30
0.0
 11
228.3328253517032
 21
557.1
 31
0.0
  0
LINE
  5
7F
330
26
100
AcDbEntity
  8
0
 62
     0
100
AcDbLine
 10
225.149260311682
 20
557.2
 30
0.0
 11
228.0372218874862
 21
557.2
 31
0.0
  0
LINE
  5
80
330
26
100
AcDbEntity
  8
0
 62
     0
100
AcDbLine
 10
225.5330488238909
 20
557.3
 30
0.0
 11
227.6534333752774
 21
557.3
 31
0.0
  0
LINE
  5
81
330
26
100
AcDbEntity
  8
0
 62
     0
100
AcDbLine
 10
226.2151739004646
 20
557.3999999999999
 30
0.0
 11
226.9713082987037
 21
557.3999999999999
 31
0.0
  0
LINE
  5
82
330
26
100
AcDbEntity
  8
0
 62
     0
100
AcDbLine
 10
222.0684154030106
 20
554.4999999999999
 30
0.0
 11
225.0536864587821
 21
554.4999999999999
 31
0.0
  0
LINE
  5
83
330
26
100
AcDbEntity
  8
0
 62
     0
100
AcDbLine
 10
222.0243111987471
 20
554.3999999999999
 30
0.0
 11
224.8314642365598
 21
554.3999999999999
 31
0.0
  0
LINE
  5
84
330
26
100
AcDbEntity
  8
0
 62
     0
100
AcDbLine
 10
221.9827971629168
 20
554.3000000000001
 30
0.0
 11
224.6092420143377
 21
554.3000000000001
 31
0.0
  0
LINE
  5
85
330
26
100
AcDbEntity
  8
0
 62
     0
100
AcDbLine
 10
221.9438039134784
 20
554.2
 30
0.0
 11
224.3870197921155
 21
554.2
 31
0.0
  0
LINE
  5
86
330
26
100
AcDbEntity
  8
0
 62
     0
100
AcDbLine
 10
221.9072685215665
 20
554.1
 30
0.0
 11
224.1647975698932
 21
554.1
 31
0.0
  0
LINE
  5
87
330
26
100
AcDbEntity
  8
0
 62
     0
100
AcDbLine
 10
221.8731339126313
 20
554.0
 30
0.0
 11
223.9425753476709
 21
554.0
 31
0.0
  0
LINE
  5
88
330
26
100
AcDbEntity
  8
0
 62
     0
100
AcDbLine
 10
221.8413483492462
 20
553.8999999999999
 30
0.0
 11
223.7203531254486
 21
553.8999999999999
 31
0.0
  0
LINE
  5
89
330
26
100
AcDbEntity
  8
0
 62
     0
100
AcDbLine
 10
221.811864983328
 20
553.8000000000001
 30
0.0
 11
223.4981309032266
 21
553.8000000000001
 31
0.0
  0
LINE
  5
8A
330
26
100
AcDbEntity
  8
0
 62
     0
100
AcDbLine
 10
221.7846414677271
 20
553.7
 30
0.0
 11
223.2759086810044
 21
553.7
 31
0.0
  0
LINE
  5
8B
330
26
100
AcDbEntity
  8
0
 62
     0
100
AcDbLine
 10
221.7596396189193
 20
553.6
 30
0.0
 11
223.0536864587821
 21
553.6
 31
0.0
  0
LINE
  5
8C
330
26
100
AcDbEntity
  8
0
 62
     0
100
AcDbLine
 10
221.7368251239622
 20
553.5
 30
0.0
 11
222.8314642365598
 21
553.5
 31
0.0
  0
LINE
  5
8D
330
26
100
AcDbEntity
  8
0
 62
     0
100
AcDbLine
 10
221.7161672860494
 20
553.3999999999999
 30
0.0
 11
222.6092420143375
 21
553.3999999999999
 31
0.0
  0
LINE
  5
8E
330
26
100
AcDbEntity
  8
0
 62
     0
100
AcDbLine
 10
221.6976388039461
 20
553.3
 30
0.0
 11
222.3870197921155
 21
553.3
 31
0.0
  0
LINE
  5
8F
330
26
100
AcDbEntity
  8
0
 62
     0
100
AcDbLine
 10
221.6812155813842
 20
553.2
 30
0.0
 11
222.1647975698932
 21
553.2
 31
0.0
  0
LINE
  5
90
330
26
100
AcDbEntity
  8
0
 62
     0
100
AcDbLine
 10
221.6668765631498
 20
553.1
 30
0.0
 11
221.9425753476709
 21
553.1
 31
0.0
  0
LINE
  5
91
330
26
100
AcDbEntity
  8
0
 62
     0
100
AcDbLine
 10
221.6546035951475
 20
553.0
 30
0.0
 11
221.7203531254487
 21
553.0
 31
0.0
  0
ENDBLK
  5
92
330
26
100
AcDbEntity
  8
0
100
AcDbBlockEnd
  0
BLOCK
  5
114
330
2E
100
AcDbEntity
  8
0
100
AcDbBlockBegin
  2
*D2
 70
     1
 10
0.0
 20
0.0
 30
0.0
  3
*D2
  1

  0
LINE
  5
115
330
2E
100
AcDbEntity
  8
0
  6
ByBlock
 62
     0
100
AcDbLine
 10
125.6512035653952
 20
266.2688826979759
 30
0.0
 11
125.6512035653952
 21
217.0615551218809
 31
0.0
  0
LINE
  5
116
330
2E
100
AcDbEntity
  8
0
  6
ByBlock
 62
     0
100
AcDbLine
 10
195.6512035653951
 20
266.2688826979758
 30
0.0
 11
195.6512035653951
 21
217.0615551218809
 31
0.0
  0
LINE
  5
117
330
2E
100
AcDbEntity
  8
0
  6
ByBlock
 62
     0
100
AcDbLine
 10
132.6512035653951
 20
219.0615551218809
 30
0.0
 11
188.6512035653952
 21
219.0615551218809
 31
0.0
  0
SOLID
  5
118
330
2E
100
AcDbEntity
  8
0
  6
ByBlock
 62
     0
100
AcDbTrace
 10
132.6512035653951
 20
220.2282217885476
 30
0.0
 11
132.6512035653951
 21
217.8948884552142
 31
0.0
 12
125.6512035653952
 22
219.0615551218809
 32
0.0
 13
125.6512035653952
 23
219.0615551218809
 33
0.0
  0
SOLID
  5
119
330
2E
100
AcDbEntity
  8
0
  6
ByBlock
 62
     0
100
AcDbTrace
 10
188.6512035653952
 20
220.2282217885476
 30
0.0
 11
188.6512035653952
 21
217.8948884552142
 31
0.0
 12
195.6512035653951
 22
219.0615551218809
 32
0.0
 13
195.6512035653951
 23
219.0615551218809
 33
0.0
  0
TEXT
  5
11A
330
2E
100
AcDbEntity
  8
0
  6
ByBlock
 62
     1
100
AcDbText
 10
147.1845368987285
 20
222.5615551218809
 30
0.0
 40
7.0
  1
min.70
 41
0.8
  7
GREEKS
 72
     1
 11
160.6512035653951
 21
226.0615551218809
 31
0.0
100
AcDbText
 73
     2
  0
POINT
  5
11B
330
2E
100
AcDbEntity
  8
DEFPOINTS
  6
ByBlock
 62
     0
100
AcDbPoint
 10
125.6512035653952
 20
268.2688826979759
 30
0.0
  0
POINT
  5
11C
330
2E
100
AcDbEntity
  8
DEFPOINTS
  6
ByBlock
 62
     0
100
AcDbPoint
 10
195.6512035653951
 20
268.2688826979758
 30
0.0
  0
POINT
  5
11D
330
2E
100
AcDbEntity
  8
DEFPOINTS
  6
ByBlock
 62
     0
100
AcDbPoint
 10
195.6512035653951
 20
219.0615551218809
 30
0.0
  0
ENDBLK
  5
11E
330
2E
100
AcDbEntity
  8
0
100
AcDbBlockEnd
  0
BLOCK
  5
11F
330
2F
100
AcDbEntity
  8
0
100
AcDbBlockBegin
  2
*D3
 70
     1
 10
0.0
 20
0.0
 30
0.0
  3
*D3
  1

  0
LINE
  5
120
330
2F
100
AcDbEntity
  8
0
  6
ByBlock
 62
     0
100
AcDbLine
 10
335.6512035653952
 20
240.8188826979758
 30
0.0
 11
335.6512035653952
 21
217.0615551218809
 31
0.0
  0
LINE
  5
121
330
2F
100
AcDbEntity
  8
0
  6
ByBlock
 62
     0
100
AcDbLine
 10
255.6512035653952
 20
241.1903468538611
 30
0.0
 11
255.6512035653952
 21
217.0615551218809
 31
0.0
  0
LINE
  5
122
330
2F
100
AcDbEntity
  8
0
  6
ByBlock
 62
     0
100
AcDbLine
 10
328.6512035653952
 20
219.0615551218809
 30
0.0
 11
262.6512035653952
 21
219.0615551218809
 31
0.0
  0
SOLID
  5
123
330
2F
100
AcDbEntity
  8
0
  6
ByBlock
 62
     0
100
AcDbTrace
 10
328.6512035653952
 20
220.2282217885476
 30
0.0
 11
328.6512035653952
 21
217.8948884552142
 31
0.0
 12
335.6512035653952
 22
219.0615551218809
 32
0.0
 13
335.6512035653952
 23
219.0615551218809
 33
0.0
  0
SOLID
  5
124
330
2F
100
AcDbEntity
  8
0
  6
ByBlock
 62
     0
100
AcDbTrace
 10
262.6512035653952
 20
220.2282217885476
 30
0.0
 11
262.6512035653952
 21
217.8948884552142
 31
0.0
 12
255.6512035653952
 22
219.0615551218809
 32
0.0
 13
255.6512035653952
 23
219.0615551218809
 33
0.0
  0
TEXT
  5
125
330
2F
100
AcDbEntity
  8
0
  6
ByBlock
 62
     1
100
AcDbText
 10
282.1845368987285
 20
222.5615551218809
 30
0.0
 40
7.0
  1
min.80
 41
0.8
  7
GREEKS
 72
     1
 11
295.6512035653952
 21
226.0615551218809
 31
0.0
100
AcDbText
 73
     2
  0
POINT
  5
126
330
2F
100
AcDbEntity
  8
DEFPOINTS
  6
ByBlock
 62
     0
100
AcDbPoint
 10
335.6512035653952
 20
242.8188826979758
 30
0.0
  0
POINT
  5
127
330
2F
100
AcDbEntity
  8
DEFPOINTS
  6
ByBlock
 62
     0
100
AcDbPoint
 10
255.6512035653952
 20
243.1903468538611
 30
0.0
  0
POINT
  5
128
330
2F
100
AcDbEntity
  8
DEFPOINTS
  6
ByBlock
 62
     0
100
AcDbPoint
 10
255.6512035653952
 20
219.0615551218809
 30
0.0
  0
ENDBLK
  5
129
330
2F
100
AcDbEntity
  8
0
100
AcDbBlockEnd
  0
BLOCK
  5
21B
330
211
100
AcDbEntity
  8
0
100
AcDbBlockBegin
  2
*D4
 70
     1
 10
0.0
 20
0.0
 30
0.0
  3
*D4
  1

  0
LINE
  5
2A5
330
211
100
AcDbEntity
  8
BEM
 62
     0
370
    -2
100
AcDbLine
 10
125.6512035653952
 20
266.2688826979759
 30
0.0
 11
125.6512035653952
 21
195.8361077037115
 31
0.0
  0
LINE
  5
2A6
330
211
100
AcDbEntity
  8
BEM
 62
     0
370
    -2
100
AcDbLine
 10
335.6512035653952
 20
240.8188826979758
 30
0.0
 11
335.6512035653952
 21
195.8361077037115
 31
0.0
  0
LINE
  5
2A7
330
211
100
AcDbEntity
  8
BEM
 62
     0
370
    -2
100
AcDbLine
 10
132.6512035653951
 20
197.8361077037115
 30
0.0
 11
328.6512035653952
 21
197.8361077037115
 31
0.0
  0
SOLID
  5
2A8
330
211
100
AcDbEntity
  8
BEM
 62
     0
100
AcDbTrace
 10
132.6512035653951
 20
199.0027743703781
 30
0.0
 11
132.6512035653951
 21
196.6694410370448
 31
0.0
 12
125.6512035653952
 22
197.8361077037115
 32
0.0
 13
125.6512035653952
 23
197.8361077037115
 33
0.0
  0
SOLID
  5
2A9
330
211
100
AcDbEntity
  8
BEM
 62
     0
100
AcDbTrace
 10
328.6512035653952
 20
199.0027743703781
 30
0.0
 11
328.6512035653952
 21
196.6694410370448
 31
0.0
 12
335.6512035653952
 22
197.8361077037115
 32
0.0
 13
335.6512035653952
 23
197.8361077037115
 33
0.0
  0
MTEXT
  5
2AA
330
211
100
AcDbEntity
  8
BEM
 62
     1
100
AcDbMText
 10
230.6512035653952
 20
204.3361077037115
 30
0.0
 40
7.0
 41
0.0
 71
     5
 72
     1
  1
\A1;210
  7
GREEKS
 73
     1
 44
1.0
  0
POINT
  5
2AB
330
211
100
AcDbEntity
  8
DEFPOINTS
 62
     0
100
AcDbPoint
 10
125.6512035653952
 20
268.2688826979759
 30
0.0
  0
POINT
  5
2AC
330
211
100
AcDbEntity
  8
DEFPOINTS
 62
     0
100
AcDbPoint
 10
335.6512035653952
 20
242.8188826979758
 30
0.0
  0
POINT
  5
2AD
330
211
100
AcDbEntity
  8
DEFPOINTS
 62
     0
100
AcDbPoint
 10
335.6512035653952
 20
197.8361077037115
 30
0.0
  0
ENDBLK
  5
21C
330
211
100
AcDbEntity
  8
0
100
AcDbBlockEnd
  0
BLOCK
  5
23A
330
230
100
AcDbEntity
  8
0
100
AcDbBlockBegin
  2
*D5
 70
     1
 10
0.0
 20
0.0
 30
0.0
  3
*D5
  1

  0
LINE
  5
251
330
230
100
AcDbEntity
  8
BEM
 62
     0
370
    -2
100
AcDbLine
 10
337.6512035653952
 20
242.8188826979758
 30
0.0
 11
360.4910618655976
 21
242.8188826979758
 31
0.0
  0
LINE
  5
252
330
230
100
AcDbEntity
  8
BEM
 62
     0
370
    -2
100
AcDbLine
 10
337.6512035653952
 20
566.7188826979757
 30
0.0
 11
360.4910618655977
 21
566.7188826979757
 31
0.0
  0
LINE
  5
253
330
230
100
AcDbEntity
  8
BEM
 62
     0
370
    -2
100
AcDbLine
 10
358.4910618655976
 20
249.8188826979759
 30
0.0
 11
358.4910618655977
 21
559.7188826979758
 31
0.0
  0
SOLID
  5
254
330
230
100
AcDbEntity
  8
BEM
 62
     0
100
AcDbTrace
 10
357.324395198931
 20
249.8188826979759
 30
0.0
 11
359.6577285322644
 21
249.8188826979759
 31
0.0
 12
358.4910618655976
 22
242.8188826979758
 32
0.0
 13
358.4910618655976
 23
242.8188826979758
 33
0.0
  0
SOLID
  5
255
330
230
100
AcDbEntity
  8
BEM
 62
     0
100
AcDbTrace
 10
357.324395198931
 20
559.7188826979758
 30
0.0
 11
359.6577285322644
 21
559.7188826979758
 31
0.0
 12
358.4910618655977
 22
566.7188826979757
 32
0.0
 13
358.4910618655977
 23
566.7188826979757
 33
0.0
  0
MTEXT
  5
256
330
230
100
AcDbEntity
  8
BEM
 62
     1
100
AcDbMText
 10
351.9910618655976
 20
404.7688826979759
 30
0.0
 40
7.0
 41
0.0
 71
     5
 72
     1
  1
\A1;%%c324
  7
GREEKS
 11
0.0000000000000001
 21
1.0
 31
0.0
 73
     1
 44
1.0
  0
POINT
  5
257
330
230
100
AcDbEntity
  8
DEFPOINTS
 62
     0
100
AcDbPoint
 10
335.6512035653952
 20
242.8188826979758
 30
0.0
  0
POINT
  5
258
330
230
100
AcDbEntity
  8
DEFPOINTS
 62
     0
100
AcDbPoint
 10
335.6512035653952
 20
566.7188826979757
 30
0.0
  0
POINT
  5
259
330
230
100
AcDbEntity
  8
DEFPOINTS
 62
     0
100
AcDbPoint
 10
358.4910618655977
 20
566.7188826979757
 30
0.0
  0
ENDBLK
  5
23B
330
230
100
AcDbEntity
  8
0
100
AcDbBlockEnd
  0
BLOCK
  5
246
330
23C
100
AcDbEntity
  8
0
100
AcDbBlockBegin
  2
*D6
 70
     1
 10
0.0
 20
0.0
 30
0.0
  3
*D6
  1

  0
LINE
  5
25A
330
23C
100
AcDbEntity
  8
BEM
 62
     0
370
    -2
100
AcDbLine
 10
123.6512035653952
 20
268.2688826979759
 30
0.0
 11
108.6165814329557
 21
268.2688826979759
 31
0.0
  0
LINE
  5
25B
330
23C
100
AcDbEntity
  8
BEM
 62
     0
370
    -2
100
AcDbLine
 10
123.6512035653952
 20
541.2688826979758
 30
0.0
 11
108.6165814329557
 21
541.2688826979758
 31
0.0
  0
LINE
  5
25C
330
23C
100
AcDbEntity
  8
BEM
 62
     0
370
    -2
100
AcDbLine
 10
110.6165814329557
 20
275.2688826979759
 30
0.0
 11
110.6165814329557
 21
534.2688826979759
 31
0.0
  0
SOLID
  5
25D
330
23C
100
AcDbEntity
  8
BEM
 62
     0
100
AcDbTrace
 10
109.449914766289
 20
275.2688826979759
 30
0.0
 11
111.7832480996224
 21
275.2688826979759
 31
0.0
 12
110.6165814329557
 22
268.2688826979759
 32
0.0
 13
110.6165814329557
 23
268.2688826979759
 33
0.0
  0
SOLID
  5
25E
330
23C
100
AcDbEntity
  8
BEM
 62
     0
100
AcDbTrace
 10
109.4499147662891
 20
534.2688826979759
 30
0.0
 11
111.7832480996224
 21
534.2688826979759
 31
0.0
 12
110.6165814329557
 22
541.2688826979758
 32
0.0
 13
110.6165814329557
 23
541.2688826979758
 33
0.0
  0
MTEXT
  5
25F
330
23C
100
AcDbEntity
  8
BEM
 62
     1
100
AcDbMText
 10
104.1165814329557
 20
404.7688826979758
 30
0.0
 40
7.0
 41
0.0
 71
     5
 72
     1
  1
\A1;%%c273
  7
GREEKS
 11
0.0000000000000001
 21
1.0
 31
0.0
 73
     1
 44
1.0
  0
POINT
  5
260
330
23C
100
AcDbEntity
  8
DEFPOINTS
 62
     0
100
AcDbPoint
 10
125.6512035653952
 20
268.2688826979759
 30
0.0
  0
POINT
  5
261
330
23C
100
AcDbEntity
  8
DEFPOINTS
 62
     0
100
AcDbPoint
 10
125.6512035653952
 20
541.2688826979758
 30
0.0
  0
POINT
  5
262
330
23C
100
AcDbEntity
  8
DEFPOINTS
 62
     0
100
AcDbPoint
 10
110.6165814329557
 20
541.2688826979758
 30
0.0
  0
ENDBLK
  5
247
330
23C
100
AcDbEntity
  8
0
100
AcDbBlockEnd
  0
ENDSEC
  0
SECTION
  2
ENTITIES
  0
DIMENSION
  5
14D
330
20
100
AcDbEntity
  8
BEM
100
AcDbDimension
  2
*D4
 10
335.6512035653952
 20
197.8361077037115
 30
0.0
 11
230.6512035653952
 21
204.3361077037115
 31
0.0
 70
    32
 71
     5
 42
210.0
  3
Standard
100
AcDbAlignedDimension
 13
125.6512035653952
 23
268.2688826979759
 33
0.0
 14
335.6512035653952
 24
242.8188826979758
 34
0.0
100
AcDbRotatedDimension
1001
ACAD
1000
DSTYLE
1002
{
1070
    40
1040
2.0
1070
    41
1040
3.5
1070
    42
1040
1.0
1070
    43
1040
7.0
1070
    44
1040
1.0
1070
    47
1040
4.0
1070
    48
1040
4.0
1070
    73
1070
     0
1070
    74
1070
     0
1070
    77
1070
     1
1070
    78
1070
     8
1070
    79
1070
     2
1070
   140
1040
3.5
1070
   141
1040
1.5
1070
   146
1040
0.5
1070
   147
1040
1.5
1070
   172
1070
     1
1070
   178
1070
     1
1070
   179
1070
     2
1070
   271
1070
     2
1070
   272
1070
     2
1070
   284
1070
     8
1070
   285
1070
     8
1070
   286
1070
     8
1070
   340
1005
33
1002
}
  0
LINE
  5
14F
330
20
100
AcDbEntity
  8
STEMPEL
100
AcDbLine
 10
225.6512035653952
 20
254.7688826979759
 30
0.0
 11
198.7828833813913
 21
266.8596267807776
 31
0.0
  0
LINE
  5
150
330
20
100
AcDbEntity
  8
STEMPEL
100
AcDbLine
 10
225.6512035653952
 20
554.7688826979758
 30
0.0
 11
198.7828833813913
 21
542.6781386151741
 31
0.0
  0
TEXT
  5
153
330
20
100
AcDbEntity
  8
TEXT
 62
     1
100
AcDbText
 10
190.0904260007294
 20
138.7349824624928
 30
0.0
 40
7.0
  1
Werkstoff: EN 10219 S235
 41
0.8
  7
GREEKS
100
AcDbText
  0
INSERT
  5
154
330
20
100
AcDbEntity
  8
STEMPEL
100
AcDbBlockReference
  2
LOGO
 10
150.9955485457794
 20
45.02105276448322
 30
0.0
 41
2.0
 42
2.0
 43
2.0
  0
TEXT
  5
155
330
20
100
AcDbEntity
  8
TEXT
100
AcDbText
 10
204.4216048581257
 20
63.0896391972351
 30
0.0
 40
4.0
  1
Koeh
 41
0.8
  7
GREEKS
 72
     1
 11
209.6787477152686
 21
63.0896391972351
 31
0.0
100
AcDbText
  0
LINE
  5
156
330
20
100
AcDbEntity
  8
HILF
100
AcDbLine
 10
420.0
 20
0.0
 30
0.0
 11
0.0
 21
0.0
 31
0.0
  0
LINE
  5
157
330
20
100
AcDbEntity
  8
HILF
100
AcDbLine
 10
419.9999999999999
 20
594.0000000000002
 30
0.0
 11
0.0
 21
594.0
 31
0.0
  0
LINE
  5
158
330
20
100
AcDbEntity
  8
STEMPEL
100
AcDbLine
 10
410.0
 20
584.0
 30
0.0
 11
39.99999999999989
 21
584.0
 31
0.0
  0
LINE
  5
159
330
20
100
AcDbEntity
  8
STEMPEL
100
AcDbLine
 10
410.0
 20
10.0
 30
0.0
 11
39.99999999999989
 21
10.0
 31
0.0
  0
LINE
  5
15A
330
20
100
AcDbEntity
  8
STEMPEL
100
AcDbLine
 10
49.99999999999989
 20
10.0
 30
0.0
 11
410.0
 21
10.0
 31
0.0
  0
TEXT
  5
15B
330
20
100
AcDbEntity
  8
TEXT
100
AcDbText
 10
202.4626584226295
 20
73.30961091915225
 30
0.0
 40
4.0
  1
Name
 41
0.8
  7
GREEKS
100
AcDbText
  0
TEXT
  5
15C
330
20
100
AcDbEntity
  8
TEXT
100
AcDbText
 10
194.2858954734051
 20
102.4184168434819
 30
0.0
 40
5.0
  1
Zul. Abw.
 41
0.8
  7
GREEKS
100
AcDbText
  0
LINE
  5
15D
330
20
100
AcDbEntity
  8
HILF
100
AcDbLine
 10
146.0000000000001
 20
49.99999999999997
 30
0.0
 11
230.0
 21
49.99999999999997
 31
0.0
  0
LINE
  5
15E
330
20
100
AcDbEntity
  8
HILF
100
AcDbLine
 10
146.0000000000001
 20
59.99999999999998
 30
0.0
 11
230.0
 21
59.99999999999998
 31
0.0
  0
LINE
  5
15F
330
20
100
AcDbEntity
  8
HILF
100
AcDbLine
 10
146.0000000000001
 20
69.99999999999994
 30
0.0
 11
230.0
 21
69.99999999999994
 31
0.0
  0
LINE
  5
160
330
20
100
AcDbEntity
  8
STEMPEL
100
AcDbLine
 10
410.0
 20
80.0
 30
0.0
 11
146.0000000000001
 21
79.99999999999994
 31
0.0
  0
LINE
  5
161
330
20
100
AcDbEntity
  8
STEMPEL
100
AcDbLine
 10
410.0
 20
40.0
 30
0.0
 11
146.0000000000001
 21
39.99999999999997
 31
0.0
  0
LINE
  5
162
330
20
100
AcDbEntity
  8
STEMPEL
100
AcDbLine
 10
410.0
 20
110.0
 30
0.0
 11
39.99999999999997
 21
110.0
 31
0.0
  0
LINE
  5
164
330
20
100
AcDbEntity
  8
HILF
100
AcDbLine
 10
195.5747333622138
 20
537.5527483744729
 30
0.0
 11
195.5747333622138
 21
271.9850170214789
 31
0.0
  0
DIMENSION
  5
165
330
20
100
AcDbEntity
  8
BEM
100
AcDbDimension
  2
*D6
 10
110.6165814329557
 20
541.2688826979758
 30
0.0
 11
104.1165814329557
 21
404.7688826979758
 31
0.0
 70
    32
  1
%%c<>
 71
     5
 42
273.0
  3
Standard
100
AcDbAlignedDimension
 13
125.6512035653952
 23
268.2688826979759
 33
0.0
 14
125.6512035653952
 24
541.2688826979758
 34
0.0
 50
90.0
100
AcDbRotatedDimension
1001
ACAD
1000
DSTYLE
1002
{
1070
    40
1040
2.0
1070
    41
1040
3.5
1070
    42
1040
1.0
1070
    43
1040
7.0
1070
    44
1040
1.0
1070
    47
1040
4.0
1070
    48
1040
4.0
1070
    73
1070
     0
1070
    74
1070
     0
1070
    77
1070
     1
1070
    78
1070
     8
1070
    79
1070
     2
1070
   140
1040
3.5
1070
   141
1040
1.5
1070
   146
1040
0.5
1070
   147
1040
1.5
1070
   172
1070
     1
1070
   178
1070
     1
1070
   179
1070
     2
1070
   271
1070
     2
1070
   272
1070
     2
1070
   284
1070
     8
1070
   285
1070
     8
1070
   286
1070
     8
1070
   340
1005
33
1002
}
  0
LINE
  5
166
330
20
100
AcDbEntity
  8
STEMPEL
100
AcDbLine
 10
125.6512035653952
 20
541.2688826979758
 30
0.0
 11
125.6512035653952
 21
268.2688826979759
 31
0.0
  0
LINE
  5
167
330
20
100
AcDbEntity
  8
HILF
100
AcDbLine
 10
0.0
 20
0.0
 30
0.0
 11
-0.0000000000001137
 21
594.0
 31
0.0
  0
LINE
  5
168
330
20
100
AcDbEntity
  8
STEMPEL
100
AcDbLine
 10
40.0
 20
10.0
 30
0.0
 11
39.99999999999989
 21
584.0
 31
0.0
  0
TEXT
  5
169
330
20
100
AcDbEntity
  8
TEXT
 62
     1
100
AcDbText
 10
71.01771351298139
 20
161.1863863368481
 30
0.0
 40
7.0
  1
Rohrenden leicht entgratet
 41
0.8
  7
GREEKS
100
AcDbText
  0
TEXT
  5
16A
330
20
100
AcDbEntity
  8
TEXT
100
AcDbText
 10
41.85509950977674
 20
111.6719999999999
 30
0.0
 40
5.0
  1
Erstellt mit AUTOCAD 2004
 41
0.8
  7
GREEKS
100
AcDbText
  0
TEXT
  5
16B
330
20
100
AcDbEntity
  8
TEXT
100
AcDbText
 10
67.79743064437376
 20
18.67381894984132
 30
0.0
 40
4.0
  1
Änderung
 41
0.8
  7
GREEKS
 72
     1
 11
78.5402877872309
 21
18.67381894984132
 31
0.0
100
AcDbText
  0
LINE
  5
16C
330
20
100
AcDbEntity
  8
HILF
100
AcDbLine
 10
40.00000000000008
 20
39.99999999999997
 30
0.0
 11
146.0000000000001
 21
39.99999999999997
 31
0.0
  0
LINE
  5
16D
330
20
100
AcDbEntity
  8
HILF
100
AcDbLine
 10
40.00000000000008
 20
49.99999999999997
 30
0.0
 11
146.0000000000001
 21
49.99999999999997
 31
0.0
  0
LINE
  5
16E
330
20
100
AcDbEntity
  8
HILF
100
AcDbLine
 10
40.00000000000008
 20
59.99999999999998
 30
0.0
 11
146.0000000000001
 21
59.99999999999998
 31
0.0
  0
LINE
  5
16F
330
20
100
AcDbEntity
  8
HILF
100
AcDbLine
 10
40.00000000000008
 20
69.99999999999994
 30
0.0
 11
146.0000000000001
 21
69.99999999999994
 31
0.0
  0
LINE
  5
170
330
20
100
AcDbEntity
  8
HILF
100
AcDbLine
 10
40.00000000000008
 20
79.99999999999994
 30
0.0
 11
146.0000000000001
 21
79.99999999999994
 31
0.0
  0
LINE
  5
171
330
20
100
AcDbEntity
  8
HILF
100
AcDbLine
 10
40.00000000000008
 20
90.00000000000005
 30
0.0
 11
146.0000000000001
 21
90.00000000000005
 31
0.0
  0
LINE
  5
172
330
20
100
AcDbEntity
  8
HILF
100
AcDbLine
 10
40.00000000000008
 20
100.0
 30
0.0
 11
146.0000000000001
 21
100.0
 31
0.0
  0
LINE
  5
173
330
20
100
AcDbEntity
  8
STEMPEL
100
AcDbLine
 10
145.9999999999999
 20
29.99999999999997
 30
0.0
 11
39.99999999999997
 21
29.99999999999997
 31
0.0
  0
TEXT
  5
174
330
20
100
AcDbEntity
  8
TEXT
100
AcDbText
 10
48.26641107045756
 20
13.65465846027192
 30
0.0
 40
4.0
  1
Index
 50
90.0
 41
0.8
  7
GREEKS
100
AcDbText
  0
LINE
  5
175
330
20
100
AcDbEntity
  8
VOLL
100
AcDbLine
 10
54.00000000000009
 20
110.0
 30
0.0
 11
53.99999999999998
 21
9.999999999999971
 31
0.0
  0
LINE
  5
176
330
20
100
AcDbEntity
  8
HILF
100
AcDbLine
 10
31.08767135713856
 20
297.0
 30
0.0
 11
0.0000000000001137
 21
297.0
 31
0.0
  0
TEXT
  5
177
330
20
100
AcDbEntity
  8
TEXT
100
AcDbText
 10
110.3570923715701
 20
18.6715626933981
 30
0.0
 40
4.0
  1
Tag
 41
0.8
  7
GREEKS
 72
     1
 11
114.0904257049034
 21
18.6715626933981
 31
0.0
100
AcDbText
  0
LINE
  5
178
330
20
100
AcDbEntity
  8
VOLL
100
AcDbLine
 10
124.0000000000001
 20
109.9999999999999
 30
0.0
 11
124.0
 21
9.999999999999971
 31
0.0
  0
LINE
  5
179
330
20
100
AcDbEntity
  8
VOLL
100
AcDbLine
 10
104.0000000000001
 20
109.9999999999999
 30
0.0
 11
104.0
 21
9.999999999999971
 31
0.0
  0
TEXT
  5
17A
330
20
100
AcDbEntity
  8
TEXT
100
AcDbText
 10
128.8234489557332
 20
18.59324216966408
 30
0.0
 40
4.0
  1
Name
 41
0.8
  7
GREEKS
 72
     1
 11
135.1472584795427
 21
18.59324216966408
 31
0.0
100
AcDbText
  0
LINE
  5
17B
330
20
100
AcDbEntity
  8
STEMPEL
100
AcDbLine
 10
146.0000000000001
 20
109.9999999999999
 30
0.0
 11
146.0
 21
9.999999999999971
 31
0.0
  0
TEXT
  5
17C
330
20
100
AcDbEntity
  8
TEXT
100
AcDbText
 10
170.398997108236
 20
63.10765040825732
 30
0.0
 40
4.0
  1
06.04.
 41
0.8
  7
GREEKS
 72
     1
 11
177.4085209177599
 21
63.10765040825732
 31
0.0
100
AcDbText
  0
TEXT
  5
17D
330
20
100
AcDbEntity
  8
TEXT
100
AcDbText
 10
172.331167315365
 20
73.31880501229926
 30
0.0
 40
4.0
  1
Tag
 41
0.8
  7
GREEKS
100
AcDbText
  0
TEXT
  5
17E
330
20
100
AcDbEntity
  8
TEXT
100
AcDbText
 10
147.5836127167615
 20
63.62990369617964
 30
0.0
 40
4.0
  1
Gez.
 41
0.8
  7
GREEKS
100
AcDbText
  0
LINE
  5
17F
330
20
100
AcDbEntity
  8
VOLL
100
AcDbLine
 10
164.0000000000001
 20
79.99999999999994
 30
0.0
 11
164.0000000000001
 21
39.99999999999997
 31
0.0
  0
TEXT
  5
180
330
20
100
AcDbEntity
  8
TEXT
100
AcDbText
 10
147.6006777387303
 20
43.52946389649807
 30
0.0
 40
4.0
  1
Norm.
 41
0.8
  7
GREEKS
100
AcDbText
  0
TEXT
  5
181
330
20
100
AcDbEntity
  8
TEXT
100
AcDbText
 10
147.5515086571672
 20
53.68926291428377
 30
0.0
 40
4.0
  1
Gepr.
 41
0.8
  7
GREEKS
100
AcDbText
  0
TEXT
  5
182
330
20
100
AcDbEntity
  8
TEXT
 62
     1
100
AcDbText
 10
160.5006306481887
 20
88.14901428913959
 30
0.0
 40
7.0
  1
1:2
 41
0.8
  7
GREEKS
100
AcDbText
  0
TEXT
  5
183
330
20
100
AcDbEntity
  8
TEXT
100
AcDbText
 10
153.5163572150377
 20
102.4620895087088
 30
0.0
 40
5.0
  1
Maßstab
 41
0.8
  7
GREEKS
100
AcDbText
  0
TEXT
  5
184
330
20
100
AcDbEntity
  8
TEXT
100
AcDbText
 10
148.622109822104
 20
73.14025471151666
 30
0.0
 40
4.0
  1
2011
 41
0.8
  7
GREEKS
100
AcDbText
  0
LINE
  5
185
330
20
100
AcDbEntity
  8
VOLL
100
AcDbLine
 10
190.0000000000001
 20
109.9999999999998
 30
0.0
 11
190.0
 21
39.99999999999997
 31
0.0
  0
DIMENSION
  5
187
330
20
100
AcDbEntity
  8
BEM
100
AcDbDimension
  2
*D2
 10
195.6512035653951
 20
219.0615551218809
 30
0.0
 11
160.6512035653951
 21
226.0615551218809
 31
0.0
  1
min.70
 71
     5
 42
-1.0
100
AcDbAlignedDimension
 13
125.6512035653952
 23
268.2688826979759
 33
0.0
 14
195.6512035653951
 24
268.2688826979758
 34
0.0
100
AcDbRotatedDimension
  0
LINE
  5
188
330
20
100
AcDbEntity
  8
STEMPEL
100
AcDbLine
 10
125.6512035653952
 20
268.2688826979759
 30
0.0
 11
192.2170485441306
 21
268.2688826979759
 31
0.0
  0
ARC
  5
18A
330
20
100
AcDbEntity
  8
STEMPEL
100
AcDbCircle
 10
192.2170485441306
 20
252.2688826979759
 30
0.0
 40
16.0
100
AcDbArc
 50
65.77225468204581
 51
90.0
  0
LINE
  5
18C
330
20
100
AcDbEntity
  8
STEMPEL
100
AcDbLine
 10
125.6512035653952
 20
541.2688826979758
 30
0.0
 11
192.2170485441306
 21
541.2688826979758
 31
0.0
  0
ARC
  5
18E
330
20
100
AcDbEntity
  8
STEMPEL
100
AcDbCircle
 10
192.2170485441306
 20
557.2688826979758
 30
0.0
 40
16.0
100
AcDbArc
 50
270.0
 51
294.2277453179542
  0
LINE
  5
190
330
20
100
AcDbEntity
  8
HILF
100
AcDbLine
 10
255.7199116749394
 20
562.2688643380094
 30
0.0
 11
255.7199116749394
 21
247.2689010579423
 31
0.0
  0
DIMENSION
  5
192
330
20
100
AcDbEntity
  8
BEM
100
AcDbDimension
  2
*D5
 10
358.4910618655977
 20
566.7188826979757
 30
0.0
 11
351.9910618655976
 21
404.7688826979759
 31
0.0
 70
    32
  1
%%c324
 71
     5
 42
323.9
  3
Standard
100
AcDbAlignedDimension
 13
335.6512035653952
 23
242.8188826979758
 33
0.0
 14
335.6512035653952
 24
566.7188826979757
 34
0.0
 50
90.0
100
AcDbRotatedDimension
1001
ACAD
1000
DSTYLE
1002
{
1070
    40
1040
2.0
1070
    41
1040
3.5
1070
    42
1040
1.0
1070
    43
1040
7.0
1070
    44
1040
1.0
1070
    47
1040
4.0
1070
    48
1040
4.0
1070
    73
1070
     0
1070
    74
1070
     0
1070
    77
1070
     1
1070
    78
1070
     8
1070
    79
1070
     2
1070
   140
1040
3.5
1070
   141
1040
1.5
1070
   146
1040
0.5
1070
   147
1040
1.5
1070
   172
1070
     1
1070
   178
1070
     1
1070
   179
1070
     2
1070
   271
1070
     2
1070
   272
1070
     2
1070
   284
1070
     8
1070
   285
1070
     8
1070
   286
1070
     8
1070
   340
1005
33
1002
}
  0
LINE
  5
193
330
20
100
AcDbEntity
  8
STEMPEL
100
AcDbLine
 10
225.6512035653952
 20
554.7688826979758
 30
0.0
 11
225.6512035653952
 21
254.7688826979758
 31
0.0
  0
LINE
  5
194
330
20
100
AcDbEntity
  8
STEMPEL
100
AcDbLine
 10
335.6512035653952
 20
566.7188826979757
 30
0.0
 11
335.6512035653952
 21
242.8188826979758
 31
0.0
  0
LINE
  5
196
330
20
100
AcDbEntity
  8
HILF
100
AcDbLine
 10
420.0
 20
-0.0000000000001137
 30
0.0
 11
419.9999999999999
 21
594.0
 31
0.0
  0
LINE
  5
197
330
20
100
AcDbEntity
  8
STEMPEL
100
AcDbLine
 10
410.0
 20
10.0
 30
0.0
 11
410.0
 21
584.0
 31
0.0
  0
TEXT
  5
199
330
20
100
AcDbEntity
  8
TEXT
 62
     1
100
AcDbText
 10
238.0904260007294
 20
126.7349824624928
 30
0.0
 40
7.0
  1
feuerverzinkt und innen beschichtet
 41
0.8
  7
GREEKS
100
AcDbText
  0
TEXT
  5
19A
330
20
100
AcDbEntity
  8
TEXT
100
AcDbText
 10
337.2400861497006
 20
52.07416177878602
 30
0.0
 40
5.0
  1
ersetzt durch:
 41
0.8
  7
GREEKS
100
AcDbText
  0
TEXT
  5
19B
330
20
100
AcDbEntity
  8
TEXT
100
AcDbText
 10
336.7238616296993
 20
73.1811823709997
 30
0.0
 40
5.0
  1
Ersatz für:
 41
0.8
  7
GREEKS
100
AcDbText
  0
TEXT
  5
19C
330
20
100
AcDbEntity
  8
TEXT
100
AcDbText
 10
336.178754957634
 20
102.3132034537136
 30
0.0
 40
5.0
  1
Zeichnungs Nr.
 41
0.8
  7
GREEKS
100
AcDbText
  0
LINE
  5
19D
330
20
100
AcDbEntity
  8
HILF
100
AcDbLine
 10
233.4909699289885
 20
14.89398258028314
 30
0.0
 11
404.8588839326728
 21
14.89398258028314
 31
0.0
  0
LINE
  5
19E
330
20
100
AcDbEntity
  8
HILF
100
AcDbLine
 10
336.7238616296993
 20
83.77983636955827
 30
0.0
 11
404.8588839326728
 21
83.77983636955827
 31
0.0
  0
LINE
  5
19F
330
20
100
AcDbEntity
  8
VOLL
100
AcDbLine
 10
332.0
 20
60.0
 30
0.0
 11
410.0
 21
60.0
 31
0.0
  0
TEXT
  5
1A0
330
20
100
AcDbEntity
  8
TEXT
100
AcDbText
 10
235.1296391125315
 20
71.50334417585288
 30
0.0
 40
5.0
  1
DN250/300 Muffenlos
 41
0.8
  7
GREEKS
100
AcDbText
  0
TEXT
  5
1A1
330
20
100
AcDbEntity
  8
TEXT
100
AcDbText
 10
235.1296391125315
 20
51.64011943042159
 30
0.0
 40
5.0
  1
EDV-Art.Nr. 06005.HK0X
 41
0.8
  7
GREEKS
100
AcDbText
  0
TEXT
  5
1A2
330
20
100
AcDbEntity
  8
TEXT
 62
     1
100
AcDbText
 10
236.8935731057402
 20
87.41748789253779
 30
0.0
 40
7.0
  1
Übergangsrohr
 41
0.8
  7
GREEKS
100
AcDbText
  0
LINE
  5
1A3
330
20
100
AcDbEntity
  8
HILF
100
AcDbLine
 10
234.7736801096948
 20
49.99999999999997
 30
0.0
 11
324.835391655631
 21
49.99999999999997
 31
0.0
  0
LINE
  5
1A4
330
20
100
AcDbEntity
  8
HILF
100
AcDbLine
 10
234.7736801096948
 20
59.99999999999998
 30
0.0
 11
324.835391655631
 21
59.99999999999998
 31
0.0
  0
LINE
  5
1A5
330
20
100
AcDbEntity
  8
HILF
100
AcDbLine
 10
234.7736801096948
 20
69.99999999999994
 30
0.0
 11
324.835391655631
 21
69.99999999999994
 31
0.0
  0
LINE
  5
1A6
330
20
100
AcDbEntity
  8
HILF
100
AcDbLine
 10
234.7736801096948
 20
84.03758247564139
 30
0.0
 11
324.8353916556311
 21
84.03758247564139
 31
0.0
  0
LINE
  5
1A7
330
20
100
AcDbEntity
  8
STEMPEL
100
AcDbLine
 10
230.0
 20
110.0
 30
0.0
 11
230.0
 21
9.999999999999971
 31
0.0
  0
TEXT
  5
1A8
330
20
100
AcDbEntity
  8
TEXT
100
AcDbText
 10
234.9837501577827
 20
42.62974153022633
 30
0.0
 40
4.0
  1
06005HK0W.DWG
 41
0.8
  7
GREEKS
100
AcDbText
  0
TEXT
  5
1A9
330
20
100
AcDbEntity
  8
TEXT
100
AcDbText
 10
234.742238391136
 20
30.84560570193057
 30
0.0
 40
5.0
  1
Bauvorhaben
 41
0.8
  7
GREEKS
100
AcDbText
  0
TEXT
  5
1AA
330
20
100
AcDbEntity
  8
TEXT
100
AcDbText
 10
234.877940380901
 20
102.5489328011779
 30
0.0
 40
5.0
  1
Benennung
 41
0.8
  7
GREEKS
100
AcDbText
  0
LINE
  5
1AB
330
20
100
AcDbEntity
  8
STEMPEL
100
AcDbLine
 10
332.0
 20
109.9999999999997
 30
0.0
 11
332.0
 21
40.0
 31
0.0
  0
DIMENSION
  5
1AD
330
20
100
AcDbEntity
  8
BEM
100
AcDbDimension
  2
*D3
 10
255.6512035653952
 20
219.0615551218809
 30
0.0
 11
295.6512035653952
 21
226.0615551218809
 31
0.0
  1
min.80
 71
     5
 42
-1.0
100
AcDbAlignedDimension
 13
335.6512035653952
 23
242.8188826979758
 33
0.0
 14
255.6512035653952
 24
243.1903468538611
 34
0.0
100
AcDbRotatedDimension
  0
LINE
  5
1AF
330
20
100
AcDbEntity
  8
STEMPEL
100
AcDbLine
 10
259.4879444500911
 20
242.8188826979759
 30
0.0
 11
335.6512035653952
 21
242.8188826979759
 31
0.0
  0
LINE
  5
1B0
330
20
100
AcDbEntity
  8
STEMPEL
100
AcDbLine
 10
252.0868342780434
 20
244.2386897974377
 30
0.0
 11
225.6512035653952
 21
254.7688826979759
 31
0.0
  0
INSERT
  5
1B2
330
20
100
AcDbEntity
  8
SCHRAFF
100
AcDbBlockReference
  2
*X1
 10
0.0
 20
809.5377653959516
 30
0.0
 41
-1.0
 50
180.0
1001
ACAD
1000
HATCH
1002
{
1070
    16
1000
_U,I
1040
0.1
1040
0.0
1070
     0
1002
}
  0
ARC
  5
1B3
330
20
100
AcDbEntity
  8
SCHRAFF
100
AcDbCircle
 10
226.5932410995841
 20
257.0931296679039
 30
0.0
 40
4.969765575438223
100
AcDbArc
 50
186.0552406026376
 51
307.9746830392017
  0
ARC
  5
1B5
330
20
100
AcDbEntity
  8
STEMPEL
100
AcDbCircle
 10
259.4879444500911
 20
262.8188826979759
 30
0.0
 40
20.0
100
AcDbArc
 50
248.2809593176185
 51
270.0000000000001
  0
TEXT
  5
1B6
330
20
100
AcDbEntity
  8
TEXT
 62
     1
100
AcDbText
 10
345.0108168349281
 20
88.14901428913959
 30
0.0
 40
7.0
  1
06005HK0W
 41
0.8
  7
GREEKS
 72
     1
 11
369.4108168349282
 21
88.14901428913959
 31
0.0
100
AcDbText
  0
LINE
  5
1B7
330
20
100
AcDbEntity
  8
MITTEL
100
AcDbLine
 10
120.6512035653951
 20
404.7688826979758
 30
0.0
 11
340.6512035653952
 21
404.7688826979758
 31
0.0
  0
LINE
  5
1B9
330
20
100
AcDbEntity
  8
STEMPEL
100
AcDbLine
 10
259.4879444500911
 20
566.7188826979757
 30
0.0
 11
335.6512035653952
 21
566.7188826979757
 31
0.0
  0
LINE
  5
1BB
330
20
100
AcDbEntity
  8
STEMPEL
100
AcDbLine
 10
252.0868342780434
 20
565.299075598514
 30
0.0
 11
225.6512035653952
 21
554.7688826979758
 31
0.0
  0
INSERT
  5
1BC
330
20
100
AcDbEntity
  8
SCHRAFF
100
AcDbBlockReference
  2
*X1
 10
0.0
 20
0.0
 30
0.0
1001
ACAD
1000
HATCH
1002
{
1070
    16
1000
_U,I
1040
0.1
1040
0.0
1070
     0
1002
}
  0
ARC
  5
1BD
330
20
100
AcDbEntity
  8
SCHRAFF
100
AcDbCircle
 10
226.5932410995841
 20
552.444635728048
 30
0.0
 40
4.969765575438223
100
AcDbArc
 50
52.02531696079826
 51
173.9447593973623
  0
ARC
  5
1BE
330
20
100
AcDbEntity
  8
STEMPEL
100
AcDbCircle
 10
259.4879444500911
 20
546.7188826979757
 30
0.0
 40
20.0
100
AcDbArc
 50
89.99999999999992
 51
111.7190406823815
  0
TEXT
  5
1C6
330
20
100
AcDbEntity
  8
TEXT
 62
     1
100
AcDbText
 10
143.2872788957186
 20
410.7177036832544
 30
0.0
 40
7.0
  1
DN250
 41
0.8
  7
GREEKS
100
AcDbText
  0
TEXT
  5
1C7
330
20
100
AcDbEntity
  8
TEXT
 62
     1
100
AcDbText
 10
280.2553123353825
 20
410.7177036832544
 30
0.0
 40
7.0
  1
DN300
 41
0.8
  7
GREEKS
100
AcDbText
  0
TEXT
  5
1D0
330
20
100
AcDbEntity
  8
BEM
100
AcDbText
 10
417.3022923857165
 20
10.16790107998849
 30
0.0
 40
4.0
  1
Diese Zeichnung ist urheberrechtlich geschützt und bleibt unser Eigentum. Sie darf weder ganz noch teilweise verfielfältigt und nicht an Dritte weitergegeben werden.
 50
90.0
 41
0.8
  7
GREEKS
100
AcDbText
  0
TEXT
  5
1D1
330
20
100
AcDbEntity
  8
TEXT
100
AcDbText
 10
192.6882715247924
 20
89.02742550995117
 30
0.0
 40
4.0
  1
DIN EN1123-2
 41
0.8
  7
GREEKS
 72
     1
 11
209.6787477152686
 21
89.02742550995117
 31
0.0
100
AcDbText
  0
ARC
  5
265
330
20
100
AcDbEntity
  8
SCHRAFF
100
AcDbCircle
 10
225.6512035653952
 20
554.7688826979758
 30
0.0
 40
5.0
100
AcDbArc
 50
216.8698976458439
 51
323.1301023541574
  0
ARC
  5
266
330
20
100
AcDbEntity
  8
SCHRAFF
100
AcDbCircle
 10
225.6512035653952
 20
549.7688826979758
 30
0.0
 40
5.0
100
AcDbArc
 50
216.8698976458439
 51
323.1301023541574
  0
ARC
  5
267
330
20
100
AcDbEntity
  8
SCHRAFF
100
AcDbCircle
 10
225.6512035653952
 20
539.7688826979758
 30
0.0
 40
5.0
100
AcDbArc
 50
216.8698976458439
 51
323.1301023541574
  0
ARC
  5
268
330
20
100
AcDbEntity
  8
SCHRAFF
100
AcDbCircle
 10
225.6512035653952
 20
544.7688826979758
 30
0.0
 40
5.0
100
AcDbArc
 50
216.8698976458439
 51
323.1301023541574
  0
ARC
  5
269
330
20
100
AcDbEntity
  8
SCHRAFF
100
AcDbCircle
 10
225.6512035653952
 20
524.7688826979758
 30
0.0
 40
5.0
100
AcDbArc
 50
216.8698976458439
 51
323.1301023541574
  0
ARC
  5
26A
330
20
100
AcDbEntity
  8
SCHRAFF
100
AcDbCircle
 10
225.6512035653952
 20
519.7688826979758
 30
0.0
 40
5.0
100
AcDbArc
 50
216.8698976458439
 51
323.1301023541574
  0
ARC
  5
26B
330
20
100
AcDbEntity
  8
SCHRAFF
100
AcDbCircle
 10
225.6512035653952
 20
529.7688826979758
 30
0.0
 40
5.0
100
AcDbArc
 50
216.8698976458439
 51
323.1301023541574
  0
ARC
  5
26C
330
20
100
AcDbEntity
  8
SCHRAFF
100
AcDbCircle
 10
225.6512035653952
 20
534.7688826979759
 30
0.0
 40
5.0
100
AcDbArc
 50
216.8698976458439
 51
323.1301023541574
  0
ARC
  5
26D
330
20
100
AcDbEntity
  8
SCHRAFF
100
AcDbCircle
 10
225.6512035653952
 20
494.7688826979758
 30
0.0
 40
5.0
100
AcDbArc
 50
216.8698976458439
 51
323.1301023541574
  0
ARC
  5
26E
330
20
100
AcDbEntity
  8
SCHRAFF
100
AcDbCircle
 10
225.6512035653952
 20
489.7688826979758
 30
0.0
 40
5.0
100
AcDbArc
 50
216.8698976458439
 51
323.1301023541574
  0
ARC
  5
26F
330
20
100
AcDbEntity
  8
SCHRAFF
100
AcDbCircle
 10
225.6512035653952
 20
479.7688826979758
 30
0.0
 40
5.0
100
AcDbArc
 50
216.8698976458439
 51
323.1301023541574
  0
ARC
  5
270
330
20
100
AcDbEntity
  8
SCHRAFF
100
AcDbCircle
 10
225.6512035653952
 20
484.7688826979759
 30
0.0
 40
5.0
100
AcDbArc
 50
216.8698976458439
 51
323.1301023541574
  0
ARC
  5
271
330
20
100
AcDbEntity
  8
SCHRAFF
100
AcDbCircle
 10
225.6512035653952
 20
504.7688826979758
 30
0.0
 40
5.0
100
AcDbArc
 50
216.8698976458439
 51
323.1301023541574
  0
ARC
  5
272
330
20
100
AcDbEntity
  8
SCHRAFF
100
AcDbCircle
 10
225.6512035653952
 20
499.7688826979758
 30
0.0
 40
5.0
100
AcDbArc
 50
216.8698976458439
 51
323.1301023541574
  0
ARC
  5
273
330
20
100
AcDbEntity
  8
SCHRAFF
100
AcDbCircle
 10
225.6512035653952
 20
509.7688826979759
 30
0.0
 40
5.0
100
AcDbArc
 50
216.8698976458439
 51
323.1301023541574
  0
ARC
  5
274
330
20
100
AcDbEntity
  8
SCHRAFF
100
AcDbCircle
 10
225.6512035653952
 20
514.7688826979758
 30
0.0
 40
5.0
100
AcDbArc
 50
216.8698976458439
 51
323.1301023541574
  0
ARC
  5
275
330
20
100
AcDbEntity
  8
SCHRAFF
100
AcDbCircle
 10
225.6512035653952
 20
454.7688826979758
 30
0.0
 40
5.0
100
AcDbArc
 50
216.8698976458439
 51
323.1301023541574
  0
ARC
  5
276
330
20
100
AcDbEntity
  8
SCHRAFF
100
AcDbCircle
 10
225.6512035653952
 20
449.7688826979758
 30
0.0
 40
5.0
100
AcDbArc
 50
216.8698976458439
 51
323.1301023541574
  0
ARC
  5
277
330
20
100
AcDbEntity
  8
SCHRAFF
100
AcDbCircle
 10
225.6512035653952
 20
439.7688826979758
 30
0.0
 40
5.0
100
AcDbArc
 50
216.8698976458439
 51
323.1301023541574
  0
ARC
  5
278
330
20
100
AcDbEntity
  8
SCHRAFF
100
AcDbCircle
 10
225.6512035653952
 20
444.7688826979758
 30
0.0
 40
5.0
100
AcDbArc
 50
216.8698976458439
 51
323.1301023541574
  0
ARC
  5
279
330
20
100
AcDbEntity
  8
SCHRAFF
100
AcDbCircle
 10
225.6512035653952
 20
464.7688826979758
 30
0.0
 40
5.0
100
AcDbArc
 50
216.8698976458439
 51
323.1301023541574
  0
ARC
  5
27A
330
20
100
AcDbEntity
  8
SCHRAFF
100
AcDbCircle
 10
225.6512035653952
 20
459.7688826979759
 30
0.0
 40
5.0
100
AcDbArc
 50
216.8698976458439
 51
323.1301023541574
  0
ARC
  5
27B
330
20
100
AcDbEntity
  8
SCHRAFF
100
AcDbCircle
 10
225.6512035653952
 20
469.7688826979758
 30
0.0
 40
5.0
100
AcDbArc
 50
216.8698976458439
 51
323.1301023541574
  0
ARC
  5
27C
330
20
100
AcDbEntity
  8
SCHRAFF
100
AcDbCircle
 10
225.6512035653952
 20
474.7688826979758
 30
0.0
 40
5.0
100
AcDbArc
 50
216.8698976458439
 51
323.1301023541574
  0
ARC
  5
27D
330
20
100
AcDbEntity
  8
SCHRAFF
100
AcDbCircle
 10
225.6512035653952
 20
414.7688826979758
 30
0.0
 40
5.0
100
AcDbArc
 50
216.8698976458439
 51
323.1301023541574
  0
ARC
  5
27E
330
20
100
AcDbEntity
  8
SCHRAFF
100
AcDbCircle
 10
225.6512035653952
 20
409.7688826979759
 30
0.0
 40
5.0
100
AcDbArc
 50
216.8698976458439
 51
323.1301023541574
  0
ARC
  5
27F
330
20
100
AcDbEntity
  8
SCHRAFF
100
AcDbCircle
 10
225.6512035653952
 20
399.7688826979759
 30
0.0
 40
5.0
100
AcDbArc
 50
216.8698976458439
 51
323.1301023541574
  0
ARC
  5
280
330
20
100
AcDbEntity
  8
SCHRAFF
100
AcDbCircle
 10
225.6512035653952
 20
404.7688826979758
 30
0.0
 40
5.0
100
AcDbArc
 50
216.8698976458439
 51
323.1301023541574
  0
ARC
  5
281
330
20
100
AcDbEntity
  8
SCHRAFF
100
AcDbCircle
 10
225.6512035653952
 20
424.7688826979758
 30
0.0
 40
5.0
100
AcDbArc
 50
216.8698976458439
 51
323.1301023541574
  0
ARC
  5
282
330
20
100
AcDbEntity
  8
SCHRAFF
100
AcDbCircle
 10
225.6512035653952
 20
419.7688826979758
 30
0.0
 40
5.0
100
AcDbArc
 50
216.8698976458439
 51
323.1301023541574
  0
ARC
  5
283
330
20
100
AcDbEntity
  8
SCHRAFF
100
AcDbCircle
 10
225.6512035653952
 20
429.7688826979758
 30
0.0
 40
5.0
100
AcDbArc
 50
216.8698976458439
 51
323.1301023541574
  0
ARC
  5
284
330
20
100
AcDbEntity
  8
SCHRAFF
100
AcDbCircle
 10
225.6512035653952
 20
434.7688826979759
 30
0.0
 40
5.0
100
AcDbArc
 50
216.8698976458439
 51
323.1301023541574
  0
ARC
  5
285
330
20
100
AcDbEntity
  8
SCHRAFF
100
AcDbCircle
 10
225.6512035653952
 20
374.7688826979759
 30
0.0
 40
5.0
100
AcDbArc
 50
216.8698976458439
 51
323.1301023541574
  0
ARC
  5
286
330
20
100
AcDbEntity
  8
SCHRAFF
100
AcDbCircle
 10
225.6512035653952
 20
369.7688826979759
 30
0.0
 40
5.0
100
AcDbArc
 50
216.8698976458439
 51
323.1301023541574
  0
ARC
  5
287
330
20
100
AcDbEntity
  8
SCHRAFF
100
AcDbCircle
 10
225.6512035653952
 20
359.7688826979759
 30
0.0
 40
5.0
100
AcDbArc
 50
216.8698976458439
 51
323.1301023541574
  0
ARC
  5
288
330
20
100
AcDbEntity
  8
SCHRAFF
100
AcDbCircle
 10
225.6512035653952
 20
364.7688826979759
 30
0.0
 40
5.0
100
AcDbArc
 50
216.8698976458439
 51
323.1301023541574
  0
ARC
  5
289
330
20
100
AcDbEntity
  8
SCHRAFF
100
AcDbCircle
 10
225.6512035653952
 20
384.7688826979759
 30
0.0
 40
5.0
100
AcDbArc
 50
216.8698976458439
 51
323.1301023541574
  0
ARC
  5
28A
330
20
100
AcDbEntity
  8
SCHRAFF
100
AcDbCircle
 10
225.6512035653952
 20
379.7688826979759
 30
0.0
 40
5.0
100
AcDbArc
 50
216.8698976458439
 51
323.1301023541574
  0
ARC
  5
28B
330
20
100
AcDbEntity
  8
SCHRAFF
100
AcDbCircle
 10
225.6512035653952
 20
389.7688826979759
 30
0.0
 40
5.0
100
AcDbArc
 50
216.8698976458439
 51
323.1301023541574
  0
ARC
  5
28C
330
20
100
AcDbEntity
  8
SCHRAFF
100
AcDbCircle
 10
225.6512035653952
 20
394.7688826979759
 30
0.0
 40
5.0
100
AcDbArc
 50
216.8698976458439
 51
323.1301023541574
  0
ARC
  5
28D
330
20
100
AcDbEntity
  8
SCHRAFF
100
AcDbCircle
 10
225.6512035653952
 20
334.7688826979759
 30
0.0
 40
5.0
100
AcDbArc
 50
216.8698976458439
 51
323.1301023541574
  0
ARC
  5
28E
330
20
100
AcDbEntity
  8
SCHRAFF
100
AcDbCircle
 10
225.6512035653952
 20
329.7688826979759
 30
0.0
 40
5.0
100
AcDbArc
 50
216.8698976458439
 51
323.1301023541574
  0
ARC
  5
28F
330
20
100
AcDbEntity
  8
SCHRAFF
100
AcDbCircle
 10
225.6512035653952
 20
319.7688826979759
 30
0.0
 40
5.0
100
AcDbArc
 50
216.8698976458439
 51
323.1301023541574
  0
ARC
  5
290
330
20
100
AcDbEntity
  8
SCHRAFF
100
AcDbCircle
 10
225.6512035653952
 20
324.7688826979759
 30
0.0
 40
5.0
100
AcDbArc
 50
216.8698976458439
 51
323.1301023541574
  0
ARC
  5
291
330
20
100
AcDbEntity
  8
SCHRAFF
100
AcDbCircle
 10
225.6512035653952
 20
344.7688826979759
 30
0.0
 40
5.0
100
AcDbArc
 50
216.8698976458439
 51
323.1301023541574
  0
ARC
  5
292
330
20
100
AcDbEntity
  8
SCHRAFF
100
AcDbCircle
 10
225.6512035653952
 20
339.7688826979759
 30
0.0
 40
5.0
100
AcDbArc
 50
216.8698976458439
 51
323.1301023541574
  0
ARC
  5
293
330
20
100
AcDbEntity
  8
SCHRAFF
100
AcDbCircle
 10
225.6512035653952
 20
349.7688826979759
 30
0.0
 40
5.0
100
AcDbArc
 50
216.8698976458439
 51
323.1301023541574
  0
ARC
  5
294
330
20
100
AcDbEntity
  8
SCHRAFF
100
AcDbCircle
 10
225.6512035653952
 20
354.7688826979759
 30
0.0
 40
5.0
100
AcDbArc
 50
216.8698976458439
 51
323.1301023541574
  0
ARC
  5
295
330
20
100
AcDbEntity
  8
SCHRAFF
100
AcDbCircle
 10
225.6512035653952
 20
294.7688826979759
 30
0.0
 40
5.0
100
AcDbArc
 50
216.8698976458439
 51
323.1301023541574
  0
ARC
  5
296
330
20
100
AcDbEntity
  8
SCHRAFF
100
AcDbCircle
 10
225.6512035653952
 20
289.7688826979759
 30
0.0
 40
5.0
100
AcDbArc
 50
216.8698976458439
 51
323.1301023541574
  0
ARC
  5
297
330
20
100
AcDbEntity
  8
SCHRAFF
100
AcDbCircle
 10
225.6512035653952
 20
279.7688826979759
 30
0.0
 40
5.0
100
AcDbArc
 50
216.8698976458439
 51
323.1301023541574
  0
ARC
  5
298
330
20
100
AcDbEntity
  8
SCHRAFF
100
AcDbCircle
 10
225.6512035653952
 20
284.7688826979759
 30
0.0
 40
5.0
100
AcDbArc
 50
216.8698976458439
 51
323.1301023541574
  0
ARC
  5
299
330
20
100
AcDbEntity
  8
SCHRAFF
100
AcDbCircle
 10
225.6512035653952
 20
304.7688826979759
 30
0.0
 40
5.0
100
AcDbArc
 50
216.8698976458439
 51
323.1301023541574
  0
ARC
  5
29A
330
20
100
AcDbEntity
  8
SCHRAFF
100
AcDbCircle
 10
225.6512035653952
 20
299.7688826979759
 30
0.0
 40
5.0
100
AcDbArc
 50
216.8698976458439
 51
323.1301023541574
  0
ARC
  5
29B
330
20
100
AcDbEntity
  8
SCHRAFF
100
AcDbCircle
 10
225.6512035653952
 20
309.7688826979759
 30
0.0
 40
5.0
100
AcDbArc
 50
216.8698976458439
 51
323.1301023541574
  0
ARC
  5
29C
330
20
100
AcDbEntity
  8
SCHRAFF
100
AcDbCircle
 10
225.6512035653952
 20
314.7688826979759
 30
0.0
 40
5.0
100
AcDbArc
 50
216.8698976458439
 51
323.1301023541574
  0
ARC
  5
2A1
330
20
100
AcDbEntity
  8
SCHRAFF
100
AcDbCircle
 10
225.6512035653952
 20
264.7688826979759
 30
0.0
 40
5.0
100
AcDbArc
 50
216.8698976458439
 51
323.1301023541574
  0
ARC
  5
2A3
330
20
100
AcDbEntity
  8
SCHRAFF
100
AcDbCircle
 10
225.6512035653952
 20
269.7688826979759
 30
0.0
 40
5.0
100
AcDbArc
 50
216.8698976458439
 51
323.1301023541574
  0
ARC
  5
2A4
330
20
100
AcDbEntity
  8
SCHRAFF
100
AcDbCircle
 10
225.6512035653952
 20
274.7688826979759
 30
0.0
 40
5.0
100
AcDbArc
 50
216.8698976458439
 51
323.1301023541574
  0
ENDSEC
  0
SECTION
  2
OBJECTS
  0
DICTIONARY
  5
C
330
0
100
AcDbDictionary
281
     1
  3
ACAD_COLOR
350
1B
  3
ACAD_GROUP
350
D
  3
ACAD_LAYOUT
350
19
  3
ACAD_MATERIAL
350
1A
  3
ACAD_MLINESTYLE
350
16
  3
ACAD_PLOTSETTINGS
350
18
  3
ACAD_PLOTSTYLENAME
350
E
  3
AcDbVariableDictionary
350
1E6
  0
DICTIONARY
  5
1B
102
{ACAD_REACTORS
330
C
102
}
330
C
100
AcDbDictionary
281
     1
  0
DICTIONARY
  5
D
102
{ACAD_REACTORS
330
C
102
}
330
C
100
AcDbDictionary
281
     1
  0
DICTIONARY
  5
19
102
{ACAD_REACTORS
330
C
102
}
330
C
100
AcDbDictionary
281
     1
  3
Layout1
350
1F
  3
Model
350
23
  0
DICTIONARY
  5
1A
102
{ACAD_REACTORS
330
C
102
}
330
C
100
AcDbDictionary
281
     1
  0
DICTIONARY
  5
16
102
{ACAD_REACTORS
330
C
102
}
330
C
100
AcDbDictionary
281
     1
  3
Standard
350
17
  0
DICTIONARY
  5
18
102
{ACAD_REACTORS
330
C
102
}
330
C
100
AcDbDictionary
281
     1
  0
ACDBDICTIONARYWDFLT
  5
E
102
{ACAD_REACTORS
330
C
102
}
330
C
100
AcDbDictionary
281
     1
  3
Normal
350
F
100
AcDbDictionaryWithDefault
340
F
  0
DICTIONARY
  5
1E6
102
{ACAD_REACTORS
330
C
102
}
330
C
100
AcDbDictionary
281
     1
  3
DIMASSOC
350
1E8
  3
HIDETEXT
350
1E7
  3
PROJECTNAME
350
1E9
  0
LAYOUT
  5
1F
102
{ACAD_REACTORS
330
19
102
}
330
19
100
AcDbPlotSettings
  1

  2
RICOH Aficio 2027 PCL 6
  4

  6

 40
0.0
 41
0.0
 42
0.0
 43
0.0
 44
0.0
 45
0.0
 46
0.0
 47
0.0
 48
0.0
 49
0.0
140
0.0
141
0.0
142
1.0
143
1.0
 70
   688
 72
     0
 73
     0
 74
     5
  7
monochrome1.ctb
 75
    16
147
1.0
 76
     0
 77
     2
 78
   300
148
0.0
149
0.0
100
AcDbLayout
  1
Layout1
 70
     0
 71
     1
 10
0.0
 20
0.0
 11
12.0
 21
9.0
 12
0.0
 22
0.0
 32
0.0
 14
1.000000000000000E+20
 24
1.000000000000000E+20
 34
1.000000000000000E+20
 15
-1.000000000000000E+20
 25
-1.000000000000000E+20
 35
-1.000000000000000E+20
146
0.0
 13
0.0
 23
0.0
 33
0.0
 16
1.0
 26
0.0
 36
0.0
 17
0.0
 27
1.0
 37
0.0
 76
     0
330
1C
  0
LAYOUT
  5
23
102
{ACAD_REACTORS
330
19
102
}
330
19
100
AcDbPlotSettings
  1

  2
RICOH Aficio 2027 PCL 6
  4
A4
  6

 40
5.027083396911621
 41
5.027085304260253
 42
5.027084350585937
 43
5.027069091796875
 44
209.9733276367187
 45
296.9259948730469
 46
0.0
 47
0.0
 48
0.0
 49
0.0
140
0.0
141
0.0
142
1.0
143
1.0
 70
 11952
 72
     0
 73
     1
 74
     0
  7
monochrome1.ctb
 75
     0
147
1.0
 76
     0
 77
     2
 78
   300
148
2299.89518964334
149
90.09517935315257
100
AcDbLayout
  1
Model
 70
     1
 71
     0
 10
0.0
 20
0.0
 11
12.0
 21
9.0
 12
0.0
 22
0.0
 32
0.0
 14
0.0
 24
0.0
 34
0.0
 15
0.0
 25
0.0
 35
0.0
146
0.0
 13
0.0
 23
0.0
 33
0.0
 16
1.0
 26
0.0
 36
0.0
 17
0.0
 27
1.0
 37
0.0
 76
     0
330
20
  0
MLINESTYLE
  5
17
102
{ACAD_REACTORS
330
16
102
}
330
16
100
AcDbMlineStyle
  2
STANDARD
 70
     0
  3

 62
   256
 51
90.0
 52
90.0
 71
     2
 49
0.5
 62
   256
  6
BYLAYER
 49
-0.5
 62
   256
  6
BYLAYER
  0
ACDBPLACEHOLDER
  5
F
102
{ACAD_REACTORS
330
E
102
}
330
E
  0
DICTIONARYVAR
  5
1E8
102
{ACAD_REACTORS
330
1E6
102
}
330
1E6
100
DictionaryVariables
280
     0
  1
2
  0
DICTIONARYVAR
  5
1E7
102
{ACAD_REACTORS
330
1E6
102
}
330
1E6
100
DictionaryVariables
280
     0
  1
1
  0
DICTIONARYVAR
  5
1E9
102
{ACAD_REACTORS
330
1E6
102
}
330
1E6
100
DictionaryVariables
280
     0
  1

  0
ENDSEC
  0
EOF
