  0
SECTION
  2
HEADER
  9
$ACADVER
  1
AC1018
  9
$ACADMAINTVER
 70
     2
  9
$DWGCODEPAGE
  3
ANSI_1252
  9
$INSBASE
 10
0.0
 20
0.0
 30
0.0
  9
$EXTMIN
 10
-0.0512671842570853
 20
-0.0362532231536079
 30
-0.0000000349181948
  9
$EXTMAX
 10
840.0512750076064
 20
594.0362587553781
 30
0.0000000814935746
  9
$LIMMIN
 10
0.0
 20
0.0
  9
$LIMMAX
 10
840.0000000000002
 20
593.9999999999998
  9
$ORTHOMODE
 70
     1
  9
$REGENMODE
 70
     1
  9
$FILLMODE
 70
     1
  9
$QTEXTMODE
 70
     0
  9
$MIRRTEXT
 70
     1
  9
$LTSCALE
 40
20.0
  9
$ATTMODE
 70
     1
  9
$TEXTSIZE
 40
3.5
  9
$TRACEWID
 40
1.0
  9
$TEXTSTYLE
  7
STANDARD
  9
$CLAYER
  8
VOLL
  9
$CELTYPE
  6
ByLayer
  9
$CECOLOR
 62
   256
  9
$CELTSCALE
 40
1.0
  9
$DISPSILH
 70
     0
  9
$DIMSCALE
 40
2.0
  9
$DIMASZ
 40
3.5
  9
$DIMEXO
 40
1.0
  9
$DIMDLI
 40
7.0
  9
$DIMRND
 40
0.0
  9
$DIMDLE
 40
0.0
  9
$DIMEXE
 40
1.0
  9
$DIMTP
 40
0.0
  9
$DIMTM
 40
0.0
  9
$DIMTXT
 40
3.5
  9
$DIMCEN
 40
1.5
  9
$DIMTSZ
 40
0.0
  9
$DIMTOL
 70
     0
  9
$DIMLIM
 70
     0
  9
$DIMTIH
 70
     0
  9
$DIMTOH
 70
     0
  9
$DIMSE1
 70
     0
  9
$DIMSE2
 70
     0
  9
$DIMTAD
 70
     1
  9
$DIMZIN
 70
     8
  9
$DIMBLK
  1

  9
$DIMASO
 70
     1
  9
$DIMSHO
 70
     0
  9
$DIMPOST
  1

  9
$DIMAPOST
  1

  9
$DIMALT
 70
     0
  9
$DIMALTD
 70
     2
  9
$DIMALTF
 40
25.4
  9
$DIMLFAC
 40
1.0
  9
$DIMTOFL
 70
     1
  9
$DIMTVP
 40
0.0
  9
$DIMTIX
 70
     0
  9
$DIMSOXD
 70
     0
  9
$DIMSAH
 70
     0
  9
$DIMBLK1
  1

  9
$DIMBLK2
  1

  9
$DIMSTYLE
  2
Standard
  9
$DIMCLRD
 70
     0
  9
$DIMCLRE
 70
     0
  9
$DIMCLRT
 70
     1
  9
$DIMTFAC
 40
0.5142857142857144
  9
$DIMGAP
 40
1.5
  9
$DIMJUST
 70
     0
  9
$DIMSD1
 70
     0
  9
$DIMSD2
 70
     0
  9
$DIMTOLJ
 70
     1
  9
$DIMTZIN
 70
     8
  9
$DIMALTZ
 70
     8
  9
$DIMALTTZ
 70
     8
  9
$DIMUPT
 70
     0
  9
$DIMDEC
 70
     2
  9
$DIMTDEC
 70
     2
  9
$DIMALTU
 70
     2
  9
$DIMALTTD
 70
     2
  9
$DIMTXSTY
  7
STANDARD
  9
$DIMAUNIT
 70
     0
  9
$DIMADEC
 70
     2
  9
$DIMALTRND
 40
0.0
  9
$DIMAZIN
 70
     2
  9
$DIMDSEP
 70
    46
  9
$DIMATFIT
 70
     3
  9
$DIMFRAC
 70
     0
  9
$DIMLDRBLK
  1

  9
$DIMLUNIT
 70
     2
  9
$DIMLWD
 70
    -2
  9
$DIMLWE
 70
    -2
  9
$DIMTMOVE
 70
     0
  9
$LUNITS
 70
     2
  9
$LUPREC
 70
     2
  9
$SKETCHINC
 40
1.0
  9
$FILLETRAD
 40
0.0
  9
$AUNITS
 70
     0
  9
$AUPREC
 70
     0
  9
$MENU
  1
ACAD
  9
$ELEVATION
 40
0.0
  9
$PELEVATION
 40
0.0
  9
$THICKNESS
 40
0.0
  9
$LIMCHECK
 70
     0
  9
$CHAMFERA
 40
0.0
  9
$CHAMFERB
 40
0.0
  9
$CHAMFERC
 40
0.0
  9
$CHAMFERD
 40
0.0
  9
$SKPOLY
 70
     0
  9
$TDCREATE
 40
2455397.867059838
  9
$TDUCREATE
 40
2455397.783726505
  9
$TDUPDATE
 40
2455455.420531227
  9
$TDUUPDATE
 40
2455455.337197893
  9
$TDINDWG
 40
0.0681625810
  9
$TDUSRTIMER
 40
0.0681625810
  9
$USRTIMER
 70
     1
  9
$ANGBASE
 50
0.0
  9
$ANGDIR
 70
     0
  9
$PDMODE
 70
     0
  9
$PDSIZE
 40
0.0
  9
$PLINEWID
 40
0.0
  9
$SPLFRAME
 70
     0
  9
$SPLINETYPE
 70
     6
  9
$SPLINESEGS
 70
     8
  9
$HANDSEED
  5
14AC
  9
$SURFTAB1
 70
     6
  9
$SURFTAB2
 70
     6
  9
$SURFTYPE
 70
     6
  9
$SURFU
 70
     6
  9
$SURFV
 70
     6
  9
$UCSBASE
  2

  9
$UCSNAME
  2

  9
$UCSORG
 10
0.0
 20
0.0
 30
0.0
  9
$UCSXDIR
 10
1.0
 20
0.0
 30
0.0
  9
$UCSYDIR
 10
0.0
 20
1.0
 30
0.0
  9
$UCSORTHOREF
  2

  9
$UCSORTHOVIEW
 70
     0
  9
$UCSORGTOP
 10
0.0
 20
0.0
 30
0.0
  9
$UCSORGBOTTOM
 10
0.0
 20
0.0
 30
0.0
  9
$UCSORGLEFT
 10
0.0
 20
0.0
 30
0.0
  9
$UCSORGRIGHT
 10
0.0
 20
0.0
 30
0.0
  9
$UCSORGFRONT
 10
0.0
 20
0.0
 30
0.0
  9
$UCSORGBACK
 10
0.0
 20
0.0
 30
0.0
  9
$PUCSBASE
  2

  9
$PUCSNAME
  2

  9
$PUCSORG
 10
0.0
 20
0.0
 30
0.0
  9
$PUCSXDIR
 10
1.0
 20
0.0
 30
0.0
  9
$PUCSYDIR
 10
0.0
 20
1.0
 30
0.0
  9
$PUCSORTHOREF
  2

  9
$PUCSORTHOVIEW
 70
     0
  9
$PUCSORGTOP
 10
0.0
 20
0.0
 30
0.0
  9
$PUCSORGBOTTOM
 10
0.0
 20
0.0
 30
0.0
  9
$PUCSORGLEFT
 10
0.0
 20
0.0
 30
0.0
  9
$PUCSORGRIGHT
 10
0.0
 20
0.0
 30
0.0
  9
$PUCSORGFRONT
 10
0.0
 20
0.0
 30
0.0
  9
$PUCSORGBACK
 10
0.0
 20
0.0
 30
0.0
  9
$USERI1
 70
     0
  9
$USERI2
 70
     0
  9
$USERI3
 70
     0
  9
$USERI4
 70
     0
  9
$USERI5
 70
     0
  9
$USERR1
 40
0.0
  9
$USERR2
 40
0.0
  9
$USERR3
 40
0.0
  9
$USERR4
 40
0.0
  9
$USERR5
 40
0.0
  9
$WORLDVIEW
 70
     1
  9
$SHADEDGE
 70
     3
  9
$SHADEDIF
 70
    70
  9
$TILEMODE
 70
     1
  9
$MAXACTVP
 70
    16
  9
$PINSBASE
 10
0.0
 20
0.0
 30
0.0
  9
$PLIMCHECK
 70
     0
  9
$PEXTMIN
 10
1.000000000000000E+20
 20
1.000000000000000E+20
 30
1.000000000000000E+20
  9
$PEXTMAX
 10
-1.000000000000000E+20
 20
-1.000000000000000E+20
 30
-1.000000000000000E+20
  9
$PLIMMIN
 10
0.0
 20
0.0
  9
$PLIMMAX
 10
12.0
 20
9.0
  9
$UNITMODE
 70
     0
  9
$VISRETAIN
 70
     0
  9
$PLINEGEN
 70
     0
  9
$PSLTSCALE
 70
     0
  9
$TREEDEPTH
 70
  3020
  9
$CMLSTYLE
  2
Standard
  9
$CMLJUST
 70
     0
  9
$CMLSCALE
 40
1.0
  9
$PROXYGRAPHICS
 70
     1
  9
$MEASUREMENT
 70
     0
  9
$CELWEIGHT
370
    -1
  9
$ENDCAPS
280
     0
  9
$JOINSTYLE
280
     0
  9
$LWDISPLAY
290
     0
  9
$INSUNITS
 70
     0
  9
$HYPERLINKBASE
  1

  9
$STYLESHEET
  1
monochrome 1.ctb
  9
$XEDIT
290
     1
  9
$CEPSNTYPE
380
     0
  9
$PSTYLEMODE
290
     1
  9
$FINGERPRINTGUID
  2
{D68B0D0D-A558-11D7-B632-000102183313}
  9
$VERSIONGUID
  2
{4265D259-F2F7-402B-ABF0-0D204F844A0F}
  9
$EXTNAMES
290
     1
  9
$PSVPSCALE
 40
0.0
  9
$OLESTARTUP
290
     0
  9
$SORTENTS
280
   127
  9
$INDEXCTL
280
     0
  9
$HIDETEXT
280
     0
  9
$XCLIPFRAME
290
     0
  9
$HALOGAP
280
     0
  9
$OBSCOLOR
 70
   257
  9
$OBSLTYPE
280
     0
  9
$INTERSECTIONDISPLAY
280
     0
  9
$INTERSECTIONCOLOR
 70
   257
  9
$DIMASSOC
280
     1
  9
$PROJECTNAME
  1

  0
ENDSEC
  0
SECTION
  2
CLASSES
  0
CLASS
  1
ACDBDICTIONARYWDFLT
  2
AcDbDictionaryWithDefault
  3
ObjectDBX Classes
 90
        0
 91
        1
280
     0
281
     0
  0
CLASS
  1
DICTIONARYVAR
  2
AcDbDictionaryVar
  3
ObjectDBX Classes
 90
        0
 91
        2
280
     0
281
     0
  0
ENDSEC
  0
SECTION
  2
TABLES
  0
TABLE
  2
VPORT
  5
8
330
0
100
AcDbSymbolTable
 70
     2
  0
VPORT
  5
14AB
330
8
100
AcDbSymbolTableRecord
100
AcDbViewportTableRecord
  2
*Active
 70
     0
 10
0.0
 20
0.0
 11
1.0
 21
1.0
 12
420.0000039116747
 22
297.0000027661123
 13
0.0
 23
0.0
 14
1.0
 24
1.0
 15
10.0
 25
10.0
 16
0.0
 26
0.0
 36
1.0
 17
0.0
 27
0.0
 37
0.0
 40
632.1787407146647
 41
1.336927223719676
 42
50.0
 43
0.0
 44
0.0
 50
0.0
 51
0.0
 71
     0
 72
  1500
 73
     1
 74
     0
 75
     0
 76
     0
 77
     0
 78
     0
281
     0
 65
     1
110
0.0
120
0.0
130
0.0
111
1.0
121
0.0
131
0.0
112
0.0
122
1.0
132
0.0
 79
     0
146
0.0
  0
ENDTAB
  0
TABLE
  2
LTYPE
  5
5
330
0
100
AcDbSymbolTable
 70
     2
  0
LTYPE
  5
13
330
5
100
AcDbSymbolTableRecord
100
AcDbLinetypeTableRecord
  2
ByBlock
 70
     0
  3

 72
    65
 73
     0
 40
0.0
  0
LTYPE
  5
14
330
5
100
AcDbSymbolTableRecord
100
AcDbLinetypeTableRecord
  2
ByLayer
 70
     0
  3

 72
    65
 73
     0
 40
0.0
  0
LTYPE
  5
15
330
5
100
AcDbSymbolTableRecord
100
AcDbLinetypeTableRecord
  2
Continuous
 70
     0
  3
Solid line
 72
    65
 73
     0
 40
0.0
  0
LTYPE
  5
25
330
5
100
AcDbSymbolTableRecord
100
AcDbLinetypeTableRecord
  2
STRICHPUNKT
 70
     0
  3
__ . __ . __ . __ . __ . __ . __ . __ . __ . __
 72
    65
 73
     4
 40
1.0
 49
0.5
 74
     0
 49
-0.25
 74
     0
 49
0.0
 74
     0
 49
-0.25
 74
     0
  0
ENDTAB
  0
TABLE
  2
LAYER
  5
2
330
0
100
AcDbSymbolTable
 70
     9
  0
LAYER
  5
10
330
2
100
AcDbSymbolTableRecord
100
AcDbLayerTableRecord
  2
0
 70
     0
 62
     7
  6
Continuous
370
    -3
390
F
  0
LAYER
  5
2B
330
2
100
AcDbSymbolTableRecord
100
AcDbLayerTableRecord
  2
VOLL
 70
     0
 62
     1
  6
Continuous
370
    -3
390
F
  0
LAYER
  5
2C
330
2
100
AcDbSymbolTableRecord
100
AcDbLayerTableRecord
  2
HILF
 70
     0
 62
     2
  6
Continuous
370
    -3
390
F
  0
LAYER
  5
2D
330
2
100
AcDbSymbolTableRecord
100
AcDbLayerTableRecord
  2
MITTEL
 70
     0
 62
     2
  6
STRICHPUNKT
370
    -3
390
F
  0
LAYER
  5
2F
330
2
100
AcDbSymbolTableRecord
100
AcDbLayerTableRecord
  2
BEM
 70
     0
 62
     7
  6
Continuous
370
    -3
390
F
  0
LAYER
  5
30
330
2
100
AcDbSymbolTableRecord
100
AcDbLayerTableRecord
  2
STEMPEL
 70
     0
 62
     3
  6
Continuous
370
    -3
390
F
  0
LAYER
  5
33
330
2
100
AcDbSymbolTableRecord
100
AcDbLayerTableRecord
  2
TEXT
 70
     0
 62
     7
  6
Continuous
370
    -3
390
F
  0
LAYER
  5
239
330
2
100
AcDbSymbolTableRecord
100
AcDbLayerTableRecord
  2
SCHRAFF
 70
     0
 62
     7
  6
Continuous
370
    -3
390
F
  0
LAYER
  5
23A
330
2
100
AcDbSymbolTableRecord
100
AcDbLayerTableRecord
  2
DEFPOINTS
 70
     0
 62
     7
  6
Continuous
290
     0
370
    -3
390
F
  0
ENDTAB
  0
TABLE
  2
STYLE
  5
3
330
0
100
AcDbSymbolTable
 70
     2
  0
STYLE
  5
11
330
3
100
AcDbSymbolTableRecord
100
AcDbTextStyleTableRecord
  2
STANDARD
 70
     0
 40
0.0
 41
0.8
 50
0.0
 71
     0
 42
3.5
  3
simplex.shx
  4

  0
STYLE
  5
24
330
3
100
AcDbSymbolTableRecord
100
AcDbTextStyleTableRecord
  2
GREEKS
 70
     0
 40
0.0
 41
0.8
 50
0.0
 71
     0
 42
2.5
  3
SIMPLEX.shx
  4

  0
ENDTAB
  0
TABLE
  2
VIEW
  5
6
330
0
100
AcDbSymbolTable
 70
     0
  0
ENDTAB
  0
TABLE
  2
UCS
  5
7
330
0
100
AcDbSymbolTable
 70
     0
  0
ENDTAB
  0
TABLE
  2
APPID
  5
9
330
0
100
AcDbSymbolTable
 70
     1
  0
APPID
  5
12
330
9
100
AcDbSymbolTableRecord
100
AcDbRegAppTableRecord
  2
ACAD
 70
     0
  0
ENDTAB
  0
TABLE
  2
DIMSTYLE
  5
A
330
0
100
AcDbSymbolTable
 70
     1
100
AcDbDimStyleTable
 71
     1
340
A2
  0
DIMSTYLE
105
A2
102
{ACAD_REACTORS
330
E4E
330
E4C
330
D9D
330
D10
330
1189
330
11A9
102
}
330
A
100
AcDbSymbolTableRecord
100
AcDbDimStyleTableRecord
  2
Standard
 70
     0
340
11
  0
ENDTAB
  0
TABLE
  2
BLOCK_RECORD
  5
1
330
0
100
AcDbSymbolTable
 70
    14
  0
BLOCK_RECORD
  5
1E
102
{ACAD_XDICTIONARY
360
DB
102
}
330
1
100
AcDbSymbolTableRecord
100
AcDbBlockTableRecord
  2
*Model_Space
340
21
  0
BLOCK_RECORD
  5
1A
102
{ACAD_XDICTIONARY
360
DD
102
}
330
1
100
AcDbSymbolTableRecord
100
AcDbBlockTableRecord
  2
*Paper_Space
340
1D
  0
BLOCK_RECORD
  5
22
330
1
100
AcDbSymbolTableRecord
100
AcDbBlockTableRecord
  2
LOGO
340
0
102
{BLKREFS
331
56
102
}
  0
BLOCK_RECORD
  5
23
330
1
100
AcDbSymbolTableRecord
100
AcDbBlockTableRecord
  2
LORO
340
0
102
{BLKREFS
331
9B
102
}
  0
BLOCK_RECORD
  5
E54
330
1
100
AcDbSymbolTableRecord
100
AcDbBlockTableRecord
  2
*D2
340
0
  0
BLOCK_RECORD
  5
EAF
330
1
100
AcDbSymbolTableRecord
100
AcDbBlockTableRecord
  2
*D3
340
0
  0
BLOCK_RECORD
  5
EBC
330
1
100
AcDbSymbolTableRecord
100
AcDbBlockTableRecord
  2
*D4
340
0
  0
BLOCK_RECORD
  5
EC9
330
1
100
AcDbSymbolTableRecord
100
AcDbBlockTableRecord
  2
*D5
340
0
  0
BLOCK_RECORD
  5
118A
330
1
100
AcDbSymbolTableRecord
100
AcDbBlockTableRecord
  2
*D6
340
0
  0
BLOCK_RECORD
  5
11AA
330
1
100
AcDbSymbolTableRecord
100
AcDbBlockTableRecord
  2
*D7
340
0
  0
BLOCK_RECORD
  5
11DD
330
1
100
AcDbSymbolTableRecord
100
AcDbBlockTableRecord
  2
*X8
340
0
102
{BLKREFS
331
133B
102
}
  0
BLOCK_RECORD
  5
11FB
330
1
100
AcDbSymbolTableRecord
100
AcDbBlockTableRecord
  2
*X9
340
0
102
{BLKREFS
331
1370
102
}
  0
BLOCK_RECORD
  5
120A
330
1
100
AcDbSymbolTableRecord
100
AcDbBlockTableRecord
  2
*X10
340
0
102
{BLKREFS
331
13A9
102
}
  0
BLOCK_RECORD
  5
1228
330
1
100
AcDbSymbolTableRecord
100
AcDbBlockTableRecord
  2
*X11
340
0
102
{BLKREFS
331
1376
102
}
  0
BLOCK_RECORD
  5
1246
330
1
100
AcDbSymbolTableRecord
100
AcDbBlockTableRecord
  2
*X12
340
0
102
{BLKREFS
331
1378
102
}
  0
BLOCK_RECORD
  5
13DA
330
1
100
AcDbSymbolTableRecord
100
AcDbBlockTableRecord
  2
8DI931D
340
0
102
{BLKREFS
331
1422
331
1438
102
}
  0
ENDTAB
  0
ENDSEC
  0
SECTION
  2
BLOCKS
  0
BLOCK
  5
37
330
1E
100
AcDbEntity
  8
0
100
AcDbBlockBegin
  2
*Model_Space
 70
     0
 10
0.0
 20
0.0
 30
0.0
  3
*Model_Space
  1

  0
ENDBLK
  5
38
330
1E
100
AcDbEntity
  8
0
100
AcDbBlockEnd
  0
BLOCK
  5
35
330
1A
100
AcDbEntity
 67
     1
  8
0
100
AcDbBlockBegin
  2
*Paper_Space
 70
     0
 10
0.0
 20
0.0
 30
0.0
  3
*Paper_Space
  1

  0
ENDBLK
  5
36
330
1A
100
AcDbEntity
 67
     1
  8
0
100
AcDbBlockEnd
  0
BLOCK
  5
39
330
22
100
AcDbEntity
  8
0
100
AcDbBlockBegin
  2
LOGO
 70
     0
 10
0.0
 20
0.0
 30
0.0
  3
LOGO
  1

  0
ARC
  5
3A
330
22
100
AcDbEntity
  8
0
100
AcDbCircle
 10
11.59973089678112
 20
-9.271599258481501
 30
0.0
 40
4.5
100
AcDbArc
 50
270.0
 51
231.0575587310159
  0
LINE
  5
3B
330
22
100
AcDbEntity
  8
0
100
AcDbLine
 10
3.599730896781125
 20
-4.771599258481529
 30
0.0
 11
3.599730896781153
 21
-11.77159925848133
 31
0.0
  0
LINE
  5
3C
330
22
100
AcDbEntity
  8
0
100
AcDbLine
 10
2.599730896781125
 20
-4.771599258481529
 30
0.0
 11
2.599730896781153
 21
-11.77159925848133
 31
0.0
  0
CIRCLE
  5
3D
330
22
100
AcDbEntity
  8
0
100
AcDbCircle
 10
11.59973089678112
 20
-9.271599258481501
 30
0.0
 40
3.5
  0
ARC
  5
3E
330
22
100
AcDbEntity
  8
0
100
AcDbCircle
 10
31.59973089678115
 20
-9.271599258481472
 30
0.0
 40
4.5
100
AcDbArc
 50
270.0
 51
231.0575587310182
  0
LINE
  5
3F
330
22
100
AcDbEntity
  8
0
100
AcDbLine
 10
17.59973089678112
 20
-4.771599258481472
 30
0.0
 11
17.59973089678115
 21
-13.77159925848147
 31
0.0
  0
ARC
  5
40
330
22
100
AcDbEntity
  8
0
100
AcDbCircle
 10
22.59973089678116
 20
-7.271599258481472
 30
0.0
 40
2.5
100
AcDbArc
 50
293.1161887722295
 51
90.0
  0
CIRCLE
  5
41
330
22
100
AcDbEntity
  8
0
100
AcDbCircle
 10
31.59973089678115
 20
-9.271599258481472
 30
0.0
 40
3.5
  0
ARC
  5
42
330
22
100
AcDbEntity
  8
0
100
AcDbCircle
 10
4.599730896781153
 20
-11.77159925848133
 30
0.0
 40
1.0
100
AcDbArc
 50
180.0
 51
270.0
  0
ARC
  5
43
330
22
100
AcDbEntity
  8
0
100
AcDbCircle
 10
4.599730896781153
 20
-11.77159925848133
 30
0.0
 40
2.0
100
AcDbArc
 50
179.9999999999992
 51
270.0
  0
LINE
  5
44
330
22
100
AcDbEntity
  8
0
100
AcDbLine
 10
11.59973089678115
 20
-13.77159925848144
 30
0.0
 11
4.599730896781153
 21
-13.77159925848147
 31
0.0
  0
LINE
  5
45
330
22
100
AcDbEntity
  8
0
100
AcDbLine
 10
8.771303772034769
 20
-12.77159925848136
 30
0.0
 11
4.599730896781153
 21
-12.77159925848133
 31
0.0
  0
LINE
  5
46
330
22
100
AcDbEntity
  8
0
100
AcDbLine
 10
31.59973089678115
 20
-13.77159925848147
 30
0.0
 11
23.6715276665056
 21
-13.77159925848144
 31
0.0
  0
LINE
  5
47
330
22
100
AcDbEntity
  8
0
100
AcDbLine
 10
23.56565672307022
 20
-9.51278021337896
 30
0.0
 11
24.4388546544846
 21
-12.77159925848144
 31
0.0
  0
LINE
  5
48
330
22
100
AcDbEntity
  8
0
100
AcDbLine
 10
22.59973089678116
 20
-9.771599258481472
 30
0.0
 11
18.59973089678112
 21
-9.771599258481472
 31
0.0
  0
LINE
  5
49
330
22
100
AcDbEntity
  8
0
100
AcDbLine
 10
18.59973089678115
 20
-13.77159925848144
 30
0.0
 11
17.59973089678115
 21
-13.77159925848144
 31
0.0
  0
LINE
  5
4A
330
22
100
AcDbEntity
  8
0
100
AcDbLine
 10
18.59973089678115
 20
-9.771599258481472
 30
0.0
 11
18.59973089678115
 21
-13.77159925848144
 31
0.0
  0
LINE
  5
4B
330
22
100
AcDbEntity
  8
0
100
AcDbLine
 10
22.59973089678116
 20
-9.771599258481472
 30
0.0
 11
23.67152766650562
 21
-13.77159925848147
 31
0.0
  0
ARC
  5
4C
330
22
100
AcDbEntity
  8
0
100
AcDbCircle
 10
22.59973089678116
 20
-7.271599258481472
 30
0.0
 40
2.5
100
AcDbArc
 50
270.0
 51
270.0000000000007
  0
LINE
  5
4D
330
22
100
AcDbEntity
  8
0
100
AcDbLine
 10
28.77130377203494
 20
-12.77159925848147
 30
0.0
 11
24.43885465448463
 21
-12.77159925848144
 31
0.0
  0
LINE
  5
4E
330
22
100
AcDbEntity
  8
0
100
AcDbLine
 10
3.599730896781125
 20
-4.771599258481472
 30
0.0
 11
2.599730896781125
 21
-4.771599258481472
 31
0.0
  0
LINE
  5
4F
330
22
100
AcDbEntity
  8
0
100
AcDbLine
 10
22.59973089678116
 20
-8.771599258481472
 30
0.0
 11
18.59973089678115
 21
-8.771599258481472
 31
0.0
  0
LINE
  5
50
330
22
100
AcDbEntity
  8
0
100
AcDbLine
 10
22.59973089678116
 20
-5.771599258481472
 30
0.0
 11
18.59973089678115
 21
-5.771599258481472
 31
0.0
  0
LINE
  5
51
330
22
100
AcDbEntity
  8
0
100
AcDbLine
 10
22.59973089678116
 20
-4.771599258481472
 30
0.0
 11
17.59973089678115
 21
-4.771599258481472
 31
0.0
  0
LINE
  5
52
330
22
100
AcDbEntity
  8
0
100
AcDbLine
 10
18.59973089678115
 20
-5.771599258481472
 30
0.0
 11
18.59973089678115
 21
-8.771599258481472
 31
0.0
  0
ARC
  5
53
330
22
100
AcDbEntity
  8
0
100
AcDbCircle
 10
22.59973089678116
 20
-7.271599258481472
 30
0.0
 40
1.5
100
AcDbArc
 50
270.0
 51
90.0
  0
ENDBLK
  5
54
330
22
100
AcDbEntity
  8
0
100
AcDbBlockEnd
  0
BLOCK
  5
55
330
23
100
AcDbEntity
  8
0
100
AcDbBlockBegin
  2
LORO
 70
     0
 10
0.0
 20
0.0
 30
0.0
  3
LORO
  1

  0
INSERT
  5
56
330
23
100
AcDbEntity
  8
STEMPEL
100
AcDbBlockReference
  2
LOGO
 10
-1.748032802467321
 20
3.771489518552062
 30
0.0
  0
ENDBLK
  5
57
330
23
100
AcDbEntity
  8
0
100
AcDbBlockEnd
  0
BLOCK
  5
E5F
330
E54
100
AcDbEntity
  8
0
100
AcDbBlockBegin
  2
*D2
 70
     1
 10
0.0
 20
0.0
 30
0.0
  3
*D2
  1

  0
LINE
  5
1468
330
E54
100
AcDbEntity
  8
BEM
 62
     0
370
    -2
100
AcDbLine
 10
78.1205435061336
 20
181.363170244192
 30
0.0
 11
78.1205435061336
 21
147.4807379664651
 31
0.0
  0
LINE
  5
1469
330
E54
100
AcDbEntity
  8
BEM
 62
     0
370
    -2
100
AcDbLine
 10
424.9094289290871
 20
172.550840291303
 30
0.0
 11
424.9094289290871
 21
147.4807379664651
 31
0.0
  0
LINE
  5
146A
330
E54
100
AcDbEntity
  8
BEM
 62
     0
370
    -2
100
AcDbLine
 10
85.12054350613359
 20
149.4807379664651
 30
0.0
 11
417.9094289290872
 21
149.4807379664651
 31
0.0
  0
SOLID
  5
146B
330
E54
100
AcDbEntity
  8
BEM
 62
     0
100
AcDbTrace
 10
85.12054350613359
 20
150.6474046331317
 30
0.0
 11
85.12054350613359
 21
148.3140712997984
 31
0.0
 12
78.1205435061336
 22
149.4807379664651
 32
0.0
 13
78.1205435061336
 23
149.4807379664651
 33
0.0
  0
SOLID
  5
146C
330
E54
100
AcDbEntity
  8
BEM
 62
     0
100
AcDbTrace
 10
417.9094289290872
 20
150.6474046331317
 30
0.0
 11
417.9094289290872
 21
148.3140712997984
 31
0.0
 12
424.9094289290871
 22
149.4807379664651
 32
0.0
 13
424.9094289290871
 23
149.4807379664651
 33
0.0
  0
MTEXT
  5
146D
330
E54
100
AcDbEntity
  8
BEM
 62
     1
100
AcDbMText
 10
251.5149862176104
 20
155.9807379664651
 30
0.0
 40
7.0
 41
0.0
 71
     5
 72
     1
  1
\A1;620
 73
     1
 44
1.0
  0
POINT
  5
146E
330
E54
100
AcDbEntity
  8
DEFPOINTS
 62
     0
100
AcDbPoint
 10
78.1205435061336
 20
183.363170244192
 30
0.0
  0
POINT
  5
146F
330
E54
100
AcDbEntity
  8
DEFPOINTS
 62
     0
100
AcDbPoint
 10
424.9094289290871
 20
174.550840291303
 30
0.0
  0
POINT
  5
1470
330
E54
100
AcDbEntity
  8
DEFPOINTS
 62
     0
100
AcDbPoint
 10
424.9094289290871
 20
149.4807379664651
 30
0.0
  0
ENDBLK
  5
E60
330
E54
100
AcDbEntity
  8
0
100
AcDbBlockEnd
  0
BLOCK
  5
EBA
330
EAF
100
AcDbEntity
  8
0
100
AcDbBlockBegin
  2
*D3
 70
     1
 10
0.0
 20
0.0
 30
0.0
  3
*D3
  1

  0
LINE
  5
1180
330
EAF
100
AcDbEntity
  8
BEM
 62
     0
370
    -2
100
AcDbLine
 10
171.7035487503914
 20
349.0753712025131
 30
0.0
 11
65.31668727593306
 21
349.0753712025132
 31
0.0
  0
LINE
  5
1181
330
EAF
100
AcDbEntity
  8
BEM
 62
     0
370
    -2
100
AcDbLine
 10
171.7035487503919
 20
482.0753712025133
 30
0.0
 11
65.3166872759331
 21
482.0753712025133
 31
0.0
  0
LINE
  5
1182
330
EAF
100
AcDbEntity
  8
BEM
 62
     0
370
    -2
100
AcDbLine
 10
67.31668727593308
 20
356.0753712025132
 30
0.0
 11
67.31668727593309
 21
475.0753712025134
 31
0.0
  0
SOLID
  5
1183
330
EAF
100
AcDbEntity
  8
BEM
 62
     0
100
AcDbTrace
 10
66.15002060926641
 20
356.0753712025132
 30
0.0
 11
68.48335394259975
 21
356.0753712025132
 31
0.0
 12
67.31668727593306
 22
349.0753712025132
 32
0.0
 13
67.31668727593306
 23
349.0753712025132
 33
0.0
  0
SOLID
  5
1184
330
EAF
100
AcDbEntity
  8
BEM
 62
     0
100
AcDbTrace
 10
66.15002060926642
 20
475.0753712025134
 30
0.0
 11
68.48335394259976
 21
475.0753712025134
 31
0.0
 12
67.3166872759331
 22
482.0753712025133
 32
0.0
 13
67.3166872759331
 23
482.0753712025133
 33
0.0
  0
MTEXT
  5
1185
330
EAF
100
AcDbEntity
  8
BEM
 62
     1
100
AcDbMText
 10
60.81668727593302
 20
415.5753712025132
 30
0.0
 40
7.0
 41
0.0
 71
     5
 72
     1
  1
\A1;%%c133
 11
0.0000000000000001
 21
1.0
 31
0.0
 73
     1
 44
1.0
  0
POINT
  5
1186
330
EAF
100
AcDbEntity
  8
DEFPOINTS
 62
     0
100
AcDbPoint
 10
173.7035487503914
 20
349.0753712025131
 30
0.0
  0
POINT
  5
1187
330
EAF
100
AcDbEntity
  8
DEFPOINTS
 62
     0
100
AcDbPoint
 10
173.7035487503919
 20
482.0753712025133
 30
0.0
  0
POINT
  5
1188
330
EAF
100
AcDbEntity
  8
DEFPOINTS
 62
     0
100
AcDbPoint
 10
67.3166872759331
 20
482.0753712025133
 30
0.0
  0
ENDBLK
  5
EBB
330
EAF
100
AcDbEntity
  8
0
100
AcDbBlockEnd
  0
BLOCK
  5
EC7
330
EBC
100
AcDbEntity
  8
0
100
AcDbBlockBegin
  2
*D4
 70
     1
 10
0.0
 20
0.0
 30
0.0
  3
*D4
  1

  0
LINE
  5
1153
330
EBC
100
AcDbEntity
  8
BEM
 62
     0
370
    -2
100
AcDbLine
 10
804.9094289290872
 20
169.7923954938967
 30
0.0
 11
804.9094289290872
 21
133.7817639622379
 31
0.0
  0
LINE
  5
1154
330
EBC
100
AcDbEntity
  8
BEM
 62
     0
370
    -2
100
AcDbLine
 10
78.1205435061336
 20
181.363170244192
 30
0.0
 11
78.1205435061336
 21
133.7817639622379
 31
0.0
  0
LINE
  5
1155
330
EBC
100
AcDbEntity
  8
BEM
 62
     0
370
    -2
100
AcDbLine
 10
797.9094289290872
 20
135.7817639622379
 30
0.0
 11
85.12054350613359
 21
135.7817639622379
 31
0.0
  0
SOLID
  5
1156
330
EBC
100
AcDbEntity
  8
BEM
 62
     0
100
AcDbTrace
 10
797.9094289290872
 20
136.9484306289046
 30
0.0
 11
797.9094289290872
 21
134.6150972955713
 31
0.0
 12
804.9094289290872
 22
135.7817639622379
 32
0.0
 13
804.9094289290872
 23
135.7817639622379
 33
0.0
  0
SOLID
  5
1157
330
EBC
100
AcDbEntity
  8
BEM
 62
     0
100
AcDbTrace
 10
85.12054350613359
 20
136.9484306289046
 30
0.0
 11
85.12054350613359
 21
134.6150972955713
 31
0.0
 12
78.1205435061336
 22
135.7817639622379
 32
0.0
 13
78.1205435061336
 23
135.7817639622379
 33
0.0
  0
MTEXT
  5
1158
330
EBC
100
AcDbEntity
  8
BEM
 62
     1
100
AcDbMText
 10
441.5149862176104
 20
142.2817639622379
 30
0.0
 40
7.0
 41
0.0
 71
     5
 72
     1
  1
\A1;1000
 73
     1
 44
1.0
  0
POINT
  5
1159
330
EBC
100
AcDbEntity
  8
DEFPOINTS
 62
     0
100
AcDbPoint
 10
804.9094289290872
 20
171.7923954938967
 30
0.0
  0
POINT
  5
115A
330
EBC
100
AcDbEntity
  8
DEFPOINTS
 62
     0
100
AcDbPoint
 10
78.1205435061336
 20
183.363170244192
 30
0.0
  0
POINT
  5
115B
330
EBC
100
AcDbEntity
  8
DEFPOINTS
 62
     0
100
AcDbPoint
 10
78.1205435061336
 20
135.7817639622379
 30
0.0
  0
ENDBLK
  5
EC8
330
EBC
100
AcDbEntity
  8
0
100
AcDbBlockEnd
  0
BLOCK
  5
ED4
330
EC9
100
AcDbEntity
  8
0
100
AcDbBlockBegin
  2
*D5
 70
     1
 10
0.0
 20
0.0
 30
0.0
  3
*D5
  1

  0
LINE
  5
FEE
330
EC9
100
AcDbEntity
  8
BEM
 62
     0
370
    -2
100
AcDbLine
 10
804.9094289290872
 20
169.7923954938967
 30
0.0
 11
804.9094289290872
 21
147.7817639622379
 31
0.0
  0
LINE
  5
FEF
330
EC9
100
AcDbEntity
  8
BEM
 62
     0
370
    -2
100
AcDbLine
 10
644.9094289290871
 20
173.1674907912739
 30
0.0
 11
644.9094289290871
 21
147.7817639622379
 31
0.0
  0
LINE
  5
FF0
330
EC9
100
AcDbEntity
  8
BEM
 62
     0
370
    -2
100
AcDbLine
 10
797.9094289290872
 20
149.7817639622379
 30
0.0
 11
651.9094289290872
 21
149.7817639622379
 31
0.0
  0
SOLID
  5
FF1
330
EC9
100
AcDbEntity
  8
BEM
 62
     0
100
AcDbTrace
 10
797.9094289290872
 20
150.9484306289046
 30
0.0
 11
797.9094289290872
 21
148.6150972955713
 31
0.0
 12
804.9094289290872
 22
149.7817639622379
 32
0.0
 13
804.9094289290872
 23
149.7817639622379
 33
0.0
  0
SOLID
  5
FF2
330
EC9
100
AcDbEntity
  8
BEM
 62
     0
100
AcDbTrace
 10
651.9094289290872
 20
150.9484306289046
 30
0.0
 11
651.9094289290872
 21
148.6150972955713
 31
0.0
 12
644.9094289290871
 22
149.7817639622379
 32
0.0
 13
644.9094289290871
 23
149.7817639622379
 33
0.0
  0
MTEXT
  5
FF3
330
EC9
100
AcDbEntity
  8
BEM
 62
     1
100
AcDbMText
 10
724.9094289290872
 20
156.2817639622379
 30
0.0
 40
7.0
 41
0.0
 71
     5
 72
     1
  1
\A1;160
 73
     1
 44
1.0
  0
POINT
  5
FF4
330
EC9
100
AcDbEntity
  8
DEFPOINTS
 62
     0
100
AcDbPoint
 10
804.9094289290872
 20
171.7923954938967
 30
0.0
  0
POINT
  5
FF5
330
EC9
100
AcDbEntity
  8
DEFPOINTS
 62
     0
100
AcDbPoint
 10
644.9094289290871
 20
175.1674907912739
 30
0.0
  0
POINT
  5
FF6
330
EC9
100
AcDbEntity
  8
DEFPOINTS
 62
     0
100
AcDbPoint
 10
644.9094289290871
 20
149.7817639622379
 30
0.0
  0
ENDBLK
  5
ED5
330
EC9
100
AcDbEntity
  8
0
100
AcDbBlockEnd
  0
BLOCK
  5
1194
330
118A
100
AcDbEntity
  8
0
100
AcDbBlockBegin
  2
*D6
 70
     1
 10
0.0
 20
0.0
 30
0.0
  3
*D6
  1

  0
LINE
  5
119F
330
118A
100
AcDbEntity
  8
BEM
 62
     0
370
    -2
100
AcDbLine
 10
85.52738121281519
 20
307.0508402913031
 30
0.0
 11
64.53901725612084
 21
307.0508402913031
 31
0.0
  0
LINE
  5
11A0
330
118A
100
AcDbEntity
  8
BEM
 62
     0
370
    -2
100
AcDbLine
 10
85.52738121281478
 20
182.0508402913032
 30
0.0
 11
64.53901725612081
 21
182.0508402913032
 31
0.0
  0
LINE
  5
11A1
330
118A
100
AcDbEntity
  8
BEM
 62
     0
370
    -2
100
AcDbLine
 10
66.53901725612084
 20
300.0508402913031
 30
0.0
 11
66.53901725612081
 21
189.0508402913032
 31
0.0
  0
SOLID
  5
11A2
330
118A
100
AcDbEntity
  8
BEM
 62
     0
100
AcDbTrace
 10
65.37235058945417
 20
300.0508402913031
 30
0.0
 11
67.70568392278751
 21
300.0508402913031
 31
0.0
 12
66.53901725612084
 22
307.0508402913031
 32
0.0
 13
66.53901725612084
 23
307.0508402913031
 33
0.0
  0
SOLID
  5
11A3
330
118A
100
AcDbEntity
  8
BEM
 62
     0
100
AcDbTrace
 10
65.37235058945414
 20
189.0508402913032
 30
0.0
 11
67.70568392278748
 21
189.0508402913032
 31
0.0
 12
66.53901725612081
 22
182.0508402913032
 32
0.0
 13
66.53901725612081
 23
182.0508402913032
 33
0.0
  0
MTEXT
  5
11A4
330
118A
100
AcDbEntity
  8
BEM
 62
     1
100
AcDbMText
 10
60.03901725612078
 20
244.5508402913031
 30
0.0
 40
7.0
 41
0.0
 71
     5
 72
     1
  1
\A1;%%c125
 11
0.0000000000000001
 21
1.0
 31
0.0
 73
     1
 44
1.0
  0
POINT
  5
11A5
330
118A
100
AcDbEntity
  8
DEFPOINTS
 62
     0
100
AcDbPoint
 10
87.52738121281518
 20
307.0508402913031
 30
0.0
  0
POINT
  5
11A6
330
118A
100
AcDbEntity
  8
DEFPOINTS
 62
     0
100
AcDbPoint
 10
87.52738121281479
 20
182.0508402913032
 30
0.0
  0
POINT
  5
11A7
330
118A
100
AcDbEntity
  8
DEFPOINTS
 62
     0
100
AcDbPoint
 10
66.53901725612081
 20
182.0508402913032
 30
0.0
  0
ENDBLK
  5
1195
330
118A
100
AcDbEntity
  8
0
100
AcDbBlockEnd
  0
BLOCK
  5
11B4
330
11AA
100
AcDbEntity
  8
0
100
AcDbBlockBegin
  2
*D7
 70
     1
 10
0.0
 20
0.0
 30
0.0
  3
*D7
  1

  0
LINE
  5
11B6
330
11AA
100
AcDbEntity
  8
BEM
 62
     0
370
    -2
100
AcDbLine
 10
78.1205435061336
 20
181.363170244192
 30
0.0
 11
78.1205435061336
 21
161.3433694465461
 31
0.0
  0
LINE
  5
11B7
330
11AA
100
AcDbEntity
  8
BEM
 62
     0
370
    -2
100
AcDbLine
 10
163.1205435061335
 20
180.0508402913031
 30
0.0
 11
163.1205435061335
 21
161.3433694465461
 31
0.0
  0
LINE
  5
11B8
330
11AA
100
AcDbEntity
  8
BEM
 62
     0
370
    -2
100
AcDbLine
 10
85.12054350613359
 20
163.3433694465461
 30
0.0
 11
156.1205435061335
 21
163.3433694465461
 31
0.0
  0
SOLID
  5
11B9
330
11AA
100
AcDbEntity
  8
BEM
 62
     0
100
AcDbTrace
 10
85.12054350613359
 20
164.5100361132128
 30
0.0
 11
85.12054350613359
 21
162.1767027798795
 31
0.0
 12
78.1205435061336
 22
163.3433694465461
 32
0.0
 13
78.1205435061336
 23
163.3433694465461
 33
0.0
  0
SOLID
  5
11BA
330
11AA
100
AcDbEntity
  8
BEM
 62
     0
100
AcDbTrace
 10
156.1205435061335
 20
164.5100361132128
 30
0.0
 11
156.1205435061335
 21
162.1767027798795
 31
0.0
 12
163.1205435061335
 22
163.3433694465461
 32
0.0
 13
163.1205435061335
 23
163.3433694465461
 33
0.0
  0
MTEXT
  5
11BB
330
11AA
100
AcDbEntity
  8
BEM
 62
     1
100
AcDbMText
 10
120.6205435061336
 20
169.8433694465461
 30
0.0
 40
7.0
 41
0.0
 71
     5
 72
     1
  1
\A1;85
 73
     1
 44
1.0
  0
POINT
  5
11BC
330
11AA
100
AcDbEntity
  8
DEFPOINTS
 62
     0
100
AcDbPoint
 10
78.1205435061336
 20
183.363170244192
 30
0.0
  0
POINT
  5
11BD
330
11AA
100
AcDbEntity
  8
DEFPOINTS
 62
     0
100
AcDbPoint
 10
163.1205435061335
 20
182.0508402913031
 30
0.0
  0
POINT
  5
11BE
330
11AA
100
AcDbEntity
  8
DEFPOINTS
 62
     0
100
AcDbPoint
 10
163.1205435061335
 20
163.3433694465461
 30
0.0
  0
ENDBLK
  5
11B5
330
11AA
100
AcDbEntity
  8
0
100
AcDbBlockEnd
  0
BLOCK
  5
11DE
330
11DD
100
AcDbEntity
  8
0
100
AcDbBlockBegin
  2
*X8
 70
     1
 10
0.0
 20
0.0
 30
0.0
  3
*X8
  1

  0
LINE
  5
11DF
330
11DD
100
AcDbEntity
  8
0
 62
     0
100
AcDbLine
 10
291.1224192644115
 20
517.8077384129988
 30
0.0
 11
288.8620416766701
 21
520.0681160007402
 31
0.0
  0
LINE
  5
11E0
330
11DD
100
AcDbEntity
  8
0
 62
     0
100
AcDbLine
 10
290.5885462502022
 20
515.5131843024618
 30
0.0
 11
288.5668616367926
 21
517.5348689158714
 31
0.0
  0
LINE
  5
11E1
330
11DD
100
AcDbEntity
  8
0
 62
     0
100
AcDbLine
 10
289.6033182642901
 20
513.6699851636278
 30
0.0
 11
287.7979675569544
 21
515.4753358709634
 31
0.0
  0
LINE
  5
11E2
330
11DD
100
AcDbEntity
  8
0
 62
     0
100
AcDbLine
 10
288.2643788345836
 20
512.1804974685881
 30
0.0
 11
286.4913186765762
 21
513.9535576265955
 31
0.0
  0
LINE
  5
11E3
330
11DD
100
AcDbEntity
  8
0
 62
     0
100
AcDbLine
 10
286.5856769592675
 20
511.030772219158
 30
0.0
 11
284.6923747402856
 21
512.9240744381398
 31
0.0
  0
LINE
  5
11E4
330
11DD
100
AcDbEntity
  8
0
 62
     0
100
AcDbLine
 10
284.5143788053091
 20
510.2736432483702
 30
0.0
 11
282.2199060529391
 21
512.5681160007402
 31
0.0
  0
LINE
  5
11E5
330
11DD
100
AcDbEntity
  8
0
 62
     0
100
AcDbLine
 10
281.8914789281929
 20
510.0681160007401
 30
0.0
 11
279.3914789281929
 21
512.5681160007402
 31
0.0
  0
LINE
  5
11E6
330
11DD
100
AcDbEntity
  8
0
 62
     0
100
AcDbLine
 10
279.0630518034467
 20
510.0681160007401
 30
0.0
 11
276.5630518034468
 21
512.5681160007402
 31
0.0
  0
LINE
  5
11E7
330
11DD
100
AcDbEntity
  8
0
 62
     0
100
AcDbLine
 10
276.2346246787005
 20
510.0681160007401
 30
0.0
 11
273.7346246787005
 21
512.5681160007402
 31
0.0
  0
LINE
  5
11E8
330
11DD
100
AcDbEntity
  8
0
 62
     0
100
AcDbLine
 10
273.4061975539543
 20
510.0681160007401
 30
0.0
 11
270.9061975539543
 21
512.5681160007402
 31
0.0
  0
LINE
  5
11E9
330
11DD
100
AcDbEntity
  8
0
 62
     0
100
AcDbLine
 10
270.5777704292081
 20
510.0681160007401
 30
0.0
 11
268.0777704292081
 21
512.5681160007402
 31
0.0
  0
LINE
  5
11EA
330
11DD
100
AcDbEntity
  8
0
 62
     0
100
AcDbLine
 10
267.7493433044619
 20
510.0681160007401
 30
0.0
 11
265.2493433044619
 21
512.5681160007402
 31
0.0
  0
LINE
  5
11EB
330
11DD
100
AcDbEntity
  8
0
 62
     0
100
AcDbLine
 10
264.9209161797157
 20
510.0681160007401
 30
0.0
 11
262.4209161797158
 21
512.5681160007402
 31
0.0
  0
LINE
  5
11EC
330
11DD
100
AcDbEntity
  8
0
 62
     0
100
AcDbLine
 10
262.0924890549696
 20
510.0681160007401
 30
0.0
 11
259.5924890549696
 21
512.5681160007402
 31
0.0
  0
LINE
  5
11ED
330
11DD
100
AcDbEntity
  8
0
 62
     0
100
AcDbLine
 10
259.2640619302234
 20
510.0681160007401
 30
0.0
 11
256.7640619302234
 21
512.5681160007402
 31
0.0
  0
LINE
  5
11EE
330
11DD
100
AcDbEntity
  8
0
 62
     0
100
AcDbLine
 10
256.4356348054772
 20
510.0681160007401
 30
0.0
 11
253.9356348054772
 21
512.5681160007402
 31
0.0
  0
LINE
  5
11EF
330
11DD
100
AcDbEntity
  8
0
 62
     0
100
AcDbLine
 10
253.607207680731
 20
510.0681160007401
 30
0.0
 11
251.107207680731
 21
512.5681160007402
 31
0.0
  0
LINE
  5
11F0
330
11DD
100
AcDbEntity
  8
0
 62
     0
100
AcDbLine
 10
406.220011133613
 20
510.1903772841525
 30
0.0
 11
399.2787591021641
 21
517.1316293156015
 31
0.0
  0
LINE
  5
11F1
330
11DD
100
AcDbEntity
  8
0
 62
     0
100
AcDbLine
 10
409.1706995417714
 20
510.0681160007401
 30
0.0
 11
406.5718460945303
 21
512.6669694479812
 31
0.0
  0
LINE
  5
11F2
330
11DD
100
AcDbEntity
  8
0
 62
     0
100
AcDbLine
 10
401.7553512659929
 20
517.4834642765188
 30
0.0
 11
399.1706995417715
 21
520.0681160007402
 31
0.0
  0
LINE
  5
11F3
330
11DD
100
AcDbEntity
  8
0
 62
     0
100
AcDbLine
 10
411.9991266665177
 20
510.0681160007401
 30
0.0
 11
409.4991266665176
 21
512.5681160007402
 31
0.0
  0
LINE
  5
11F4
330
11DD
100
AcDbEntity
  8
0
 62
     0
100
AcDbLine
 10
414.8275537912638
 20
510.0681160007401
 30
0.0
 11
412.3275537912638
 21
512.5681160007402
 31
0.0
  0
LINE
  5
11F5
330
11DD
100
AcDbEntity
  8
0
 62
     0
100
AcDbLine
 10
417.65598091601
 20
510.0681160007401
 30
0.0
 11
415.1559809160101
 21
512.5681160007402
 31
0.0
  0
LINE
  5
11F6
330
11DD
100
AcDbEntity
  8
0
 62
     0
100
AcDbLine
 10
420.4844080407562
 20
510.0681160007401
 30
0.0
 11
417.9844080407562
 21
512.5681160007402
 31
0.0
  0
LINE
  5
11F7
330
11DD
100
AcDbEntity
  8
0
 62
     0
100
AcDbLine
 10
423.3128351655024
 20
510.0681160007401
 30
0.0
 11
420.8128351655024
 21
512.5681160007402
 31
0.0
  0
LINE
  5
11F8
330
11DD
100
AcDbEntity
  8
0
 62
     0
100
AcDbLine
 10
425.9254753373226
 20
510.2839029536662
 30
0.0
 11
423.6412622902486
 21
512.5681160007402
 31
0.0
  0
LINE
  5
11F9
330
11DD
100
AcDbEntity
  8
0
 62
     0
100
AcDbLine
 10
426.7808104525657
 20
512.2569949631692
 30
0.0
 11
426.4696894149948
 21
512.5681160007402
 31
0.0
  0
ENDBLK
  5
11FA
330
11DD
100
AcDbEntity
  8
0
100
AcDbBlockEnd
  0
BLOCK
  5
11FC
330
11FB
100
AcDbEntity
  8
0
100
AcDbBlockBegin
  2
*X9
 70
     1
 10
0.0
 20
0.0
 30
0.0
  3
*X9
  1

  0
LINE
  5
11FD
330
11FB
100
AcDbEntity
  8
0
 62
     0
100
AcDbLine
 10
302.316951344301
 20
243.9806418964109
 30
0.0
 11
303.3100006596937
 21
244.9736912118035
 31
0.0
  0
LINE
  5
11FE
330
11FB
100
AcDbEntity
  8
0
 62
     0
100
AcDbLine
 10
301.3100006596937
 20
245.6253416412531
 30
0.0
 11
303.2811928333529
 21
247.5965338149123
 31
0.0
  0
LINE
  5
11FF
330
11FB
100
AcDbEntity
  8
0
 62
     0
100
AcDbLine
 10
300.9678993997685
 20
247.9348908107774
 30
0.0
 11
302.3831829759803
 21
249.3501743869892
 31
0.0
  0
LINE
  5
1200
330
11FB
100
AcDbEntity
  8
0
 62
     0
100
AcDbLine
 10
298.7071901578266
 20
248.3258319982851
 30
0.0
 11
300.5533148508208
 21
250.1719566912793
 31
0.0
  0
LINE
  5
1201
330
11FB
100
AcDbEntity
  8
0
 62
     0
100
AcDbLine
 10
296.2688654944206
 20
248.5391577643287
 30
0.0
 11
298.1149901874149
 21
250.385282457323
 31
0.0
  0
LINE
  5
1202
330
11FB
100
AcDbEntity
  8
0
 62
     0
100
AcDbLine
 10
293.8305408310147
 20
248.7524835303723
 30
0.0
 11
295.6766655240091
 21
250.5986082233667
 31
0.0
  0
LINE
  5
1203
330
11FB
100
AcDbEntity
  8
0
 62
     0
100
AcDbLine
 10
291.3922161676087
 20
248.9658092964158
 30
0.0
 11
293.2383408606033
 21
250.8119339894104
 31
0.0
  0
LINE
  5
1204
330
11FB
100
AcDbEntity
  8
0
 62
     0
100
AcDbLine
 10
291.3100006596938
 20
87.13291759207816
 30
0.0
 11
292.2473741971275
 21
88.07029112951198
 31
0.0
  0
LINE
  5
1205
330
11FB
100
AcDbEntity
  8
0
 62
     0
100
AcDbLine
 10
292.9531306393999
 20
86.12439714233476
 30
0.0
 11
295.1532563746526
 21
88.32452287758746
 31
0.0
  0
LINE
  5
1206
330
11FB
100
AcDbEntity
  8
0
 62
     0
100
AcDbLine
 10
295.859012816925
 20
86.37862889041025
 30
0.0
 11
298.0591385521776
 21
88.57875462566294
 31
0.0
  0
LINE
  5
1207
330
11FB
100
AcDbEntity
  8
0
 62
     0
100
AcDbLine
 10
301.3100006596937
 20
91.82961673317905
 30
0.0
 11
302.4610258229258
 21
92.98064189641111
 31
0.0
  0
LINE
  5
1208
330
11FB
100
AcDbEntity
  8
0
 62
     0
100
AcDbLine
 10
298.76489499445
 20
86.63286063848577
 30
0.0
 11
303.3100006596937
 21
91.17796630372948
 31
0.0
  0
ENDBLK
  5
1209
330
11FB
100
AcDbEntity
  8
0
100
AcDbBlockEnd
  0
BLOCK
  5
120B
330
120A
100
AcDbEntity
  8
0
100
AcDbBlockBegin
  2
*X10
 70
     1
 10
0.0
 20
0.0
 30
0.0
  3
*X10
  1

  0
LINE
  5
120C
330
120A
100
AcDbEntity
  8
0
 62
     0
100
AcDbLine
 10
306.5595970816198
 20
205.7968807625368
 30
0.0
 11
308.5595970816198
 21
207.7968807625368
 31
0.0
  0
LINE
  5
120D
330
120A
100
AcDbEntity
  8
0
 62
     0
100
AcDbLine
 10
306.5595970816198
 20
208.4485311919864
 30
0.0
 11
308.5595970816198
 21
210.4485311919864
 31
0.0
  0
LINE
  5
120E
330
120A
100
AcDbEntity
  8
0
 62
     0
100
AcDbLine
 10
306.5595970816198
 20
211.1001816214359
 30
0.0
 11
308.5595970816198
 21
213.1001816214359
 31
0.0
  0
LINE
  5
120F
330
120A
100
AcDbEntity
  8
0
 62
     0
100
AcDbLine
 10
311.0708043735965
 20
215.6113889134126
 30
0.0
 11
312.1511704494188
 21
216.6917549892349
 31
0.0
  0
LINE
  5
1210
330
120A
100
AcDbEntity
  8
0
 62
     0
100
AcDbLine
 10
306.5595970816198
 20
213.7518320508855
 30
0.0
 11
310.0885735179431
 21
217.2808084872087
 31
0.0
  0
LINE
  5
1211
330
120A
100
AcDbEntity
  8
0
 62
     0
100
AcDbLine
 10
310.5595970816198
 20
217.7518320508855
 30
0.0
 11
312.5595970816196
 21
219.7518320508852
 31
0.0
  0
LINE
  5
1212
330
120A
100
AcDbEntity
  8
0
 62
     0
100
AcDbLine
 10
310.5595970816198
 20
220.403482480335
 30
0.0
 11
312.5595970816196
 21
222.4034824803348
 31
0.0
  0
LINE
  5
1213
330
120A
100
AcDbEntity
  8
0
 62
     0
100
AcDbLine
 10
310.5595970816198
 20
223.0551329097846
 30
0.0
 11
312.5595970816196
 21
225.0551329097844
 31
0.0
  0
LINE
  5
1214
330
120A
100
AcDbEntity
  8
0
 62
     0
100
AcDbLine
 10
310.5595970816198
 20
225.7067833392341
 30
0.0
 11
312.5595970816196
 21
227.7067833392339
 31
0.0
  0
LINE
  5
1215
330
120A
100
AcDbEntity
  8
0
 62
     0
100
AcDbLine
 10
310.5595970816197
 20
228.3584337686836
 30
0.0
 11
312.5595970816196
 21
230.3584337686835
 31
0.0
  0
LINE
  5
1216
330
120A
100
AcDbEntity
  8
0
 62
     0
100
AcDbLine
 10
310.5595970816197
 20
231.0100841981331
 30
0.0
 11
312.5595970816196
 21
233.010084198133
 31
0.0
  0
LINE
  5
1217
330
120A
100
AcDbEntity
  8
0
 62
     0
100
AcDbLine
 10
310.5595970816197
 20
233.6617346275827
 30
0.0
 11
312.5595970816196
 21
235.6617346275826
 31
0.0
  0
LINE
  5
1218
330
120A
100
AcDbEntity
  8
0
 62
     0
100
AcDbLine
 10
310.5595970816196
 20
236.3133850570322
 30
0.0
 11
312.5595970816196
 21
238.3133850570321
 31
0.0
  0
LINE
  5
1219
330
120A
100
AcDbEntity
  8
0
 62
     0
100
AcDbLine
 10
310.5595970816196
 20
238.9650354864817
 30
0.0
 11
311.5749170599837
 21
239.9803554648458
 31
0.0
  0
LINE
  5
121A
330
120A
100
AcDbEntity
  8
0
 62
     0
100
AcDbLine
 10
306.5595970816198
 20
203.1452303330873
 30
0.0
 11
308.5595970816198
 21
205.1452303330872
 31
0.0
  0
LINE
  5
121B
330
120A
100
AcDbEntity
  8
0
 62
     0
100
AcDbLine
 10
306.5595970816198
 20
200.4935799036377
 30
0.0
 11
308.5595970816198
 21
202.4935799036377
 31
0.0
  0
LINE
  5
121C
330
120A
100
AcDbEntity
  8
0
 62
     0
100
AcDbLine
 10
306.5595970816198
 20
197.8419294741881
 30
0.0
 11
308.5595970816198
 21
199.8419294741881
 31
0.0
  0
LINE
  5
121D
330
120A
100
AcDbEntity
  8
0
 62
     0
100
AcDbLine
 10
306.5595970816198
 20
195.1902790447386
 30
0.0
 11
308.5595970816198
 21
197.1902790447386
 31
0.0
  0
LINE
  5
121E
330
120A
100
AcDbEntity
  8
0
 62
     0
100
AcDbLine
 10
306.5595970816198
 20
192.538628615289
 30
0.0
 11
308.5595970816198
 21
194.538628615289
 31
0.0
  0
LINE
  5
121F
330
120A
100
AcDbEntity
  8
0
 62
     0
100
AcDbLine
 10
306.5595970816198
 20
189.8869781858395
 30
0.0
 11
308.5595970816198
 21
191.8869781858394
 31
0.0
  0
LINE
  5
1220
330
120A
100
AcDbEntity
  8
0
 62
     0
100
AcDbLine
 10
306.5595970816198
 20
187.2353277563899
 30
0.0
 11
308.5595970816198
 21
189.2353277563899
 31
0.0
  0
LINE
  5
1221
330
120A
100
AcDbEntity
  8
0
 62
     0
100
AcDbLine
 10
306.5595970816198
 20
184.5836773269404
 30
0.0
 11
308.5595970816198
 21
186.5836773269404
 31
0.0
  0
LINE
  5
1222
330
120A
100
AcDbEntity
  8
0
 62
     0
100
AcDbLine
 10
306.5595970816198
 20
181.9320268974908
 30
0.0
 11
308.5595970816198
 21
183.9320268974908
 31
0.0
  0
LINE
  5
1223
330
120A
100
AcDbEntity
  8
0
 62
     0
100
AcDbLine
 10
306.5595970816198
 20
179.2803764680413
 30
0.0
 11
308.5595970816198
 21
181.2803764680412
 31
0.0
  0
LINE
  5
1224
330
120A
100
AcDbEntity
  8
0
 62
     0
100
AcDbLine
 10
306.5595970816198
 20
176.6287260385917
 30
0.0
 11
309.2354214759997
 21
179.3045504329715
 31
0.0
  0
LINE
  5
1225
330
120A
100
AcDbEntity
  8
0
 62
     0
100
AcDbLine
 10
306.5595970816198
 20
173.9770756091421
 30
0.0
 11
308.5595970816199
 21
175.9770756091422
 31
0.0
  0
LINE
  5
1226
330
120A
100
AcDbEntity
  8
0
 62
     0
100
AcDbLine
 10
308.714527366773
 20
173.4803554648458
 30
0.0
 11
309.3844639484384
 21
174.1502920465112
 31
0.0
  0
ENDBLK
  5
1227
330
120A
100
AcDbEntity
  8
0
100
AcDbBlockEnd
  0
BLOCK
  5
1229
330
1228
100
AcDbEntity
  8
0
100
AcDbBlockBegin
  2
*X11
 70
     1
 10
0.0
 20
0.0
 30
0.0
  3
*X11
  1

  0
LINE
  5
122A
330
1228
100
AcDbEntity
  8
0
 62
     0
100
AcDbLine
 10
306.5595970816198
 20
139.505620026298
 30
0.0
 11
308.5595970816198
 21
141.505620026298
 31
0.0
  0
LINE
  5
122B
330
1228
100
AcDbEntity
  8
0
 62
     0
100
AcDbLine
 10
306.5595970816198
 20
142.1572704557475
 30
0.0
 11
308.5595970816198
 21
144.1572704557476
 31
0.0
  0
LINE
  5
122C
330
1228
100
AcDbEntity
  8
0
 62
     0
100
AcDbLine
 10
306.5595970816198
 20
144.8089208851971
 30
0.0
 11
308.5595970816198
 21
146.8089208851971
 31
0.0
  0
LINE
  5
122D
330
1228
100
AcDbEntity
  8
0
 62
     0
100
AcDbLine
 10
306.5595970816198
 20
147.4605713146466
 30
0.0
 11
308.5595970816199
 21
149.4605713146467
 31
0.0
  0
LINE
  5
122E
330
1228
100
AcDbEntity
  8
0
 62
     0
100
AcDbLine
 10
306.5595970816199
 20
150.1122217440962
 30
0.0
 11
308.5595970816199
 21
152.1122217440962
 31
0.0
  0
LINE
  5
122F
330
1228
100
AcDbEntity
  8
0
 62
     0
100
AcDbLine
 10
306.5595970816199
 20
152.7638721735458
 30
0.0
 11
308.5595970816199
 21
154.7638721735458
 31
0.0
  0
LINE
  5
1230
330
1228
100
AcDbEntity
  8
0
 62
     0
100
AcDbLine
 10
306.5595970816199
 20
155.4155226029953
 30
0.0
 11
308.5595970816199
 21
157.4155226029953
 31
0.0
  0
LINE
  5
1231
330
1228
100
AcDbEntity
  8
0
 62
     0
100
AcDbLine
 10
306.5595970816199
 20
158.0671730324449
 30
0.0
 11
308.5595970816199
 21
160.0671730324449
 31
0.0
  0
LINE
  5
1232
330
1228
100
AcDbEntity
  8
0
 62
     0
100
AcDbLine
 10
306.5595970816199
 20
160.7188234618944
 30
0.0
 11
308.5595970816199
 21
162.7188234618945
 31
0.0
  0
LINE
  5
1233
330
1228
100
AcDbEntity
  8
0
 62
     0
100
AcDbLine
 10
306.5595970816199
 20
163.370473891344
 30
0.0
 11
308.5595970816199
 21
165.370473891344
 31
0.0
  0
LINE
  5
1234
330
1228
100
AcDbEntity
  8
0
 62
     0
100
AcDbLine
 10
306.5595970816199
 20
166.0221243207935
 30
0.0
 11
308.5595970816199
 21
168.0221243207936
 31
0.0
  0
LINE
  5
1235
330
1228
100
AcDbEntity
  8
0
 62
     0
100
AcDbLine
 10
306.5595970816199
 20
168.6737747502431
 30
0.0
 11
308.5595970816199
 21
170.6737747502432
 31
0.0
  0
LINE
  5
1236
330
1228
100
AcDbEntity
  8
0
 62
     0
100
AcDbLine
 10
306.5595970816199
 20
171.3254251796926
 30
0.0
 11
308.714527366773
 21
173.4803554648458
 31
0.0
  0
LINE
  5
1237
330
1228
100
AcDbEntity
  8
0
 62
     0
100
AcDbLine
 10
306.5595970816198
 20
136.8539695968484
 30
0.0
 11
308.5595970816198
 21
138.8539695968484
 31
0.0
  0
LINE
  5
1238
330
1228
100
AcDbEntity
  8
0
 62
     0
100
AcDbLine
 10
306.5595970816198
 20
134.2023191673989
 30
0.0
 11
308.5595970816198
 21
136.2023191673989
 31
0.0
  0
LINE
  5
1239
330
1228
100
AcDbEntity
  8
0
 62
     0
100
AcDbLine
 10
306.7573114459071
 20
131.7483831022366
 30
0.0
 11
308.5595970816198
 21
133.5506687379493
 31
0.0
  0
LINE
  5
123A
330
1228
100
AcDbEntity
  8
0
 62
     0
100
AcDbLine
 10
307.949018761544
 20
130.2884399884239
 30
0.0
 11
309.478845873903
 21
131.8182671007829
 31
0.0
  0
LINE
  5
123B
330
1228
100
AcDbEntity
  8
0
 62
     0
100
AcDbLine
 10
310.0065879182997
 20
129.6943587157301
 30
0.0
 11
311.4219344123896
 21
131.10970520982
 31
0.0
  0
LINE
  5
123C
330
1228
100
AcDbEntity
  8
0
 62
     0
100
AcDbLine
 10
310.5595970816198
 20
127.5957174496006
 30
0.0
 11
312.4658264421766
 21
129.5019468101575
 31
0.0
  0
LINE
  5
123D
330
1228
100
AcDbEntity
  8
0
 62
     0
100
AcDbLine
 10
310.5595970816198
 20
124.9440670201511
 30
0.0
 11
312.5595970816196
 21
126.9440670201509
 31
0.0
  0
LINE
  5
123E
330
1228
100
AcDbEntity
  8
0
 62
     0
100
AcDbLine
 10
310.5595970816198
 20
122.2924165907015
 30
0.0
 11
312.5595970816196
 21
124.2924165907013
 31
0.0
  0
LINE
  5
123F
330
1228
100
AcDbEntity
  8
0
 62
     0
100
AcDbLine
 10
310.5595970816198
 20
119.6407661612519
 30
0.0
 11
312.5595970816196
 21
121.6407661612518
 31
0.0
  0
LINE
  5
1240
330
1228
100
AcDbEntity
  8
0
 62
     0
100
AcDbLine
 10
310.5595970816198
 20
116.9891157318023
 30
0.0
 11
312.5595970816196
 21
118.9891157318022
 31
0.0
  0
LINE
  5
1241
330
1228
100
AcDbEntity
  8
0
 62
     0
100
AcDbLine
 10
310.5595970816197
 20
114.3374653023528
 30
0.0
 11
312.5595970816196
 21
116.3374653023527
 31
0.0
  0
LINE
  5
1242
330
1228
100
AcDbEntity
  8
0
 62
     0
100
AcDbLine
 10
310.5595970816197
 20
111.6858148729032
 30
0.0
 11
312.5595970816196
 21
113.6858148729031
 31
0.0
  0
LINE
  5
1243
330
1228
100
AcDbEntity
  8
0
 62
     0
100
AcDbLine
 10
310.5595970816197
 20
109.0341644434536
 30
0.0
 11
312.5595970816196
 21
111.0341644434535
 31
0.0
  0
LINE
  5
1244
330
1228
100
AcDbEntity
  8
0
 62
     0
100
AcDbLine
 10
311.1574385324618
 20
106.9803554648462
 30
0.0
 11
312.5595970816196
 21
108.382514014004
 31
0.0
  0
ENDBLK
  5
1245
330
1228
100
AcDbEntity
  8
0
100
AcDbBlockEnd
  0
BLOCK
  5
1247
330
1246
100
AcDbEntity
  8
0
100
AcDbBlockBegin
  2
*X12
 70
     1
 10
0.0
 20
0.0
 30
0.0
  3
*X12
  1

  0
LINE
  5
1248
330
1246
100
AcDbEntity
  8
0
 62
     0
100
AcDbLine
 10
302.1920741880784
 20
489.5753712025134
 30
0.0
 11
303.7128067205971
 21
491.0961037350322
 31
0.0
  0
LINE
  5
1249
330
1246
100
AcDbEntity
  8
0
 62
     0
100
AcDbLine
 10
300.424307235112
 20
489.5753712025134
 30
0.0
 11
303.7128067205971
 21
492.8638706879985
 31
0.0
  0
LINE
  5
124A
330
1246
100
AcDbEntity
  8
0
 62
     0
100
AcDbLine
 10
298.6565402821457
 20
489.5753712025134
 30
0.0
 11
303.6565402821458
 21
494.5753712025136
 31
0.0
  0
LINE
  5
124B
330
1246
100
AcDbEntity
  8
0
 62
     0
100
AcDbLine
 10
296.8887733291794
 20
489.5753712025134
 30
0.0
 11
301.8887733291795
 21
494.5753712025136
 31
0.0
  0
LINE
  5
124C
330
1246
100
AcDbEntity
  8
0
 62
     0
100
AcDbLine
 10
295.1210063762129
 20
489.5753712025134
 30
0.0
 11
300.1210063762131
 21
494.5753712025136
 31
0.0
  0
LINE
  5
124D
330
1246
100
AcDbEntity
  8
0
 62
     0
100
AcDbLine
 10
293.3532394232466
 20
489.5753712025134
 30
0.0
 11
298.3532394232467
 21
494.5753712025136
 31
0.0
  0
LINE
  5
124E
330
1246
100
AcDbEntity
  8
0
 62
     0
100
AcDbLine
 10
291.5854724702802
 20
489.5753712025134
 30
0.0
 11
296.5854724702804
 21
494.5753712025136
 31
0.0
  0
LINE
  5
124F
330
1246
100
AcDbEntity
  8
0
 62
     0
100
AcDbLine
 10
289.8177055173139
 20
489.5753712025134
 30
0.0
 11
294.817705517314
 21
494.5753712025136
 31
0.0
  0
LINE
  5
1250
330
1246
100
AcDbEntity
  8
0
 62
     0
100
AcDbLine
 10
288.0499385643475
 20
489.5753712025134
 30
0.0
 11
293.0499385643476
 21
494.5753712025136
 31
0.0
  0
LINE
  5
1251
330
1246
100
AcDbEntity
  8
0
 62
     0
100
AcDbLine
 10
286.7128067205971
 20
490.0060063117295
 30
0.0
 11
291.2821716113812
 21
494.5753712025136
 31
0.0
  0
LINE
  5
1252
330
1246
100
AcDbEntity
  8
0
 62
     0
100
AcDbLine
 10
286.7128067205971
 20
491.7737732646958
 30
0.0
 11
289.5144046584149
 21
494.5753712025136
 31
0.0
  0
LINE
  5
1253
330
1246
100
AcDbEntity
  8
0
 62
     0
100
AcDbLine
 10
286.7128067205971
 20
493.5415402176622
 30
0.0
 11
287.7466377054485
 21
494.5753712025136
 31
0.0
  0
LINE
  5
1254
330
1246
100
AcDbEntity
  8
0
 62
     0
100
AcDbLine
 10
393.7128067205971
 20
494.47552303968
 30
0.0
 11
393.8126548834306
 21
494.5753712025136
 31
0.0
  0
LINE
  5
1255
330
1246
100
AcDbEntity
  8
0
 62
     0
100
AcDbLine
 10
393.7128067205971
 20
492.7077560867137
 30
0.0
 11
395.580421836397
 21
494.5753712025135
 31
0.0
  0
LINE
  5
1256
330
1246
100
AcDbEntity
  8
0
 62
     0
100
AcDbLine
 10
393.7128067205971
 20
490.9399891337473
 30
0.0
 11
397.3481887893633
 21
494.5753712025135
 31
0.0
  0
LINE
  5
1257
330
1246
100
AcDbEntity
  8
0
 62
     0
100
AcDbLine
 10
394.1159557423296
 20
489.5753712025134
 30
0.0
 11
399.1159557423296
 21
494.5753712025135
 31
0.0
  0
LINE
  5
1258
330
1246
100
AcDbEntity
  8
0
 62
     0
100
AcDbLine
 10
395.883722695296
 20
489.5753712025134
 30
0.0
 11
400.883722695296
 21
494.5753712025135
 31
0.0
  0
LINE
  5
1259
330
1246
100
AcDbEntity
  8
0
 62
     0
100
AcDbLine
 10
397.6514896482624
 20
489.5753712025134
 30
0.0
 11
402.6514896482622
 21
494.5753712025135
 31
0.0
  0
LINE
  5
125A
330
1246
100
AcDbEntity
  8
0
 62
     0
100
AcDbLine
 10
399.4192566012287
 20
489.5753712025134
 30
0.0
 11
404.4192566012286
 21
494.5753712025134
 31
0.0
  0
LINE
  5
125B
330
1246
100
AcDbEntity
  8
0
 62
     0
100
AcDbLine
 10
401.187023554195
 20
489.5753712025134
 30
0.0
 11
406.187023554195
 21
494.5753712025134
 31
0.0
  0
LINE
  5
125C
330
1246
100
AcDbEntity
  8
0
 62
     0
100
AcDbLine
 10
402.9547905071614
 20
489.5753712025134
 30
0.0
 11
407.9547905071613
 21
494.5753712025133
 31
0.0
  0
LINE
  5
125D
330
1246
100
AcDbEntity
  8
0
 62
     0
100
AcDbLine
 10
404.7225574601277
 20
489.5753712025134
 30
0.0
 11
409.7225574601276
 21
494.5753712025133
 31
0.0
  0
LINE
  5
125E
330
1246
100
AcDbEntity
  8
0
 62
     0
100
AcDbLine
 10
406.4903244130942
 20
489.5753712025134
 30
0.0
 11
410.7128067205971
 21
493.7978535100165
 31
0.0
  0
LINE
  5
125F
330
1246
100
AcDbEntity
  8
0
 62
     0
100
AcDbLine
 10
408.2580913660605
 20
489.5753712025134
 30
0.0
 11
410.7128067205971
 21
492.0300865570501
 31
0.0
  0
LINE
  5
1260
330
1246
100
AcDbEntity
  8
0
 62
     0
100
AcDbLine
 10
410.0258583190268
 20
489.5753712025134
 30
0.0
 11
410.7128067205971
 21
490.2623196040837
 31
0.0
  0
LINE
  5
1261
330
1246
100
AcDbEntity
  8
0
 62
     0
100
AcDbLine
 10
303.7128067205971
 20
493.5500890672351
 30
0.0
 11
302.6875245853186
 21
494.5753712025136
 31
0.0
  0
LINE
  5
1262
330
1246
100
AcDbEntity
  8
0
 62
     0
100
AcDbLine
 10
303.7128067205971
 20
491.7823221142687
 30
0.0
 11
300.9197576323523
 21
494.5753712025136
 31
0.0
  0
LINE
  5
1263
330
1246
100
AcDbEntity
  8
0
 62
     0
100
AcDbLine
 10
303.7128067205971
 20
490.0145551613023
 30
0.0
 11
299.1519906793858
 21
494.5753712025136
 31
0.0
  0
LINE
  5
1264
330
1246
100
AcDbEntity
  8
0
 62
     0
100
AcDbLine
 10
302.3842237264196
 20
489.5753712025134
 30
0.0
 11
297.3842237264195
 21
494.5753712025136
 31
0.0
  0
LINE
  5
1265
330
1246
100
AcDbEntity
  8
0
 62
     0
100
AcDbLine
 10
300.6164567734533
 20
489.5753712025134
 30
0.0
 11
295.6164567734532
 21
494.5753712025136
 31
0.0
  0
LINE
  5
1266
330
1246
100
AcDbEntity
  8
0
 62
     0
100
AcDbLine
 10
298.8486898204869
 20
489.5753712025134
 30
0.0
 11
293.8486898204868
 21
494.5753712025136
 31
0.0
  0
LINE
  5
1267
330
1246
100
AcDbEntity
  8
0
 62
     0
100
AcDbLine
 10
297.0809228675205
 20
489.5753712025134
 30
0.0
 11
292.0809228675204
 21
494.5753712025136
 31
0.0
  0
LINE
  5
1268
330
1246
100
AcDbEntity
  8
0
 62
     0
100
AcDbLine
 10
295.3131559145542
 20
489.5753712025134
 30
0.0
 11
290.3131559145541
 21
494.5753712025136
 31
0.0
  0
LINE
  5
1269
330
1246
100
AcDbEntity
  8
0
 62
     0
100
AcDbLine
 10
293.5453889615878
 20
489.5753712025134
 30
0.0
 11
288.5453889615877
 21
494.5753712025136
 31
0.0
  0
LINE
  5
126A
330
1246
100
AcDbEntity
  8
0
 62
     0
100
AcDbLine
 10
291.7776220086214
 20
489.5753712025134
 30
0.0
 11
286.7776220086213
 21
494.5753712025136
 31
0.0
  0
LINE
  5
126B
330
1246
100
AcDbEntity
  8
0
 62
     0
100
AcDbLine
 10
290.0098550556551
 20
489.5753712025134
 30
0.0
 11
286.7128067205971
 21
492.8724195375713
 31
0.0
  0
LINE
  5
126C
330
1246
100
AcDbEntity
  8
0
 62
     0
100
AcDbLine
 10
288.2420881026887
 20
489.5753712025134
 30
0.0
 11
286.7128067205971
 21
491.104652584605
 31
0.0
  0
LINE
  5
126D
330
1246
100
AcDbEntity
  8
0
 62
     0
100
AcDbLine
 10
394.3081052806708
 20
489.5753712025134
 30
0.0
 11
393.7128067205971
 21
490.1706697625871
 31
0.0
  0
LINE
  5
126E
330
1246
100
AcDbEntity
  8
0
 62
     0
100
AcDbLine
 10
396.0758722336372
 20
489.5753712025134
 30
0.0
 11
393.7128067205971
 21
491.9384367155535
 31
0.0
  0
LINE
  5
126F
330
1246
100
AcDbEntity
  8
0
 62
     0
100
AcDbLine
 10
397.8436391866035
 20
489.5753712025134
 30
0.0
 11
393.7128067205971
 21
493.7062036685198
 31
0.0
  0
LINE
  5
1270
330
1246
100
AcDbEntity
  8
0
 62
     0
100
AcDbLine
 10
399.6114061395699
 20
489.5753712025134
 30
0.0
 11
394.6114061395698
 21
494.5753712025136
 31
0.0
  0
LINE
  5
1271
330
1246
100
AcDbEntity
  8
0
 62
     0
100
AcDbLine
 10
401.3791730925363
 20
489.5753712025134
 30
0.0
 11
396.3791730925363
 21
494.5753712025135
 31
0.0
  0
LINE
  5
1272
330
1246
100
AcDbEntity
  8
0
 62
     0
100
AcDbLine
 10
403.1469400455026
 20
489.5753712025134
 30
0.0
 11
398.1469400455027
 21
494.5753712025135
 31
0.0
  0
LINE
  5
1273
330
1246
100
AcDbEntity
  8
0
 62
     0
100
AcDbLine
 10
404.9147069984689
 20
489.5753712025134
 30
0.0
 11
399.9147069984691
 21
494.5753712025135
 31
0.0
  0
LINE
  5
1274
330
1246
100
AcDbEntity
  8
0
 62
     0
100
AcDbLine
 10
406.6824739514354
 20
489.5753712025134
 30
0.0
 11
401.6824739514354
 21
494.5753712025135
 31
0.0
  0
LINE
  5
1275
330
1246
100
AcDbEntity
  8
0
 62
     0
100
AcDbLine
 10
408.4502409044017
 20
489.5753712025134
 30
0.0
 11
403.4502409044018
 21
494.5753712025134
 31
0.0
  0
LINE
  5
1276
330
1246
100
AcDbEntity
  8
0
 62
     0
100
AcDbLine
 10
410.2180078573681
 20
489.5753712025134
 30
0.0
 11
405.2180078573682
 21
494.5753712025134
 31
0.0
  0
LINE
  5
1277
330
1246
100
AcDbEntity
  8
0
 62
     0
100
AcDbLine
 10
410.7128067205971
 20
490.8483392922509
 30
0.0
 11
406.9857748103346
 21
494.5753712025134
 31
0.0
  0
LINE
  5
1278
330
1246
100
AcDbEntity
  8
0
 62
     0
100
AcDbLine
 10
410.7128067205971
 20
492.6161062452172
 30
0.0
 11
408.753541763301
 21
494.5753712025133
 31
0.0
  0
LINE
  5
1279
330
1246
100
AcDbEntity
  8
0
 62
     0
100
AcDbLine
 10
410.7128067205971
 20
494.3838731981836
 30
0.0
 11
410.5213087162674
 21
494.5753712025133
 31
0.0
  0
ENDBLK
  5
127A
330
1246
100
AcDbEntity
  8
0
100
AcDbBlockEnd
  0
BLOCK
  5
13DB
330
13DA
100
AcDbEntity
  8
0
100
AcDbBlockBegin
  2
8DI931D
 70
     0
 10
0.0
 20
0.0
 30
0.0
  3
8DI931D
  1

  0
LWPOLYLINE
  5
13DC
330
13DA
100
AcDbEntity
  8
STEMPEL
100
AcDbPolyline
 90
        6
 70
     1
 43
0.0
 10
-3.752776749732561
 20
6.5
 10
-7.505553499465122
 20
0.0
 10
-3.752776749732561
 20
-6.5
 10
3.752776749732561
 20
-6.5
 10
7.505553499465122
 20
0.0
 10
3.752776749732561
 20
6.5
  0
CIRCLE
  5
13DD
330
13DA
100
AcDbEntity
  8
STEMPEL
100
AcDbCircle
 10
0.0
 20
0.0
 30
0.0
 40
6.5
  0
ENDBLK
  5
13DE
330
13DA
100
AcDbEntity
  8
0
100
AcDbBlockEnd
  0
ENDSEC
  0
SECTION
  2
ENTITIES
  0
LINE
  5
58
330
1E
100
AcDbEntity
  8
STEMPEL
100
AcDbLine
 10
830.0000000000004
 20
109.9999999999998
 30
0.0
 11
470.0000000000001
 21
109.9999999999999
 31
0.0
  0
LINE
  5
59
330
1E
100
AcDbEntity
  8
STEMPEL
100
AcDbLine
 10
470.0000000000001
 20
109.9999999999999
 30
0.0
 11
470.0000000000001
 21
9.999999999999886
 31
0.0
  0
LINE
  5
5A
330
1E
100
AcDbEntity
  8
STEMPEL
100
AcDbLine
 10
566.0000000000003
 20
109.9999999999997
 30
0.0
 11
566.0000000000001
 21
9.999999999999772
 31
0.0
  0
LINE
  5
5B
330
1E
100
AcDbEntity
  8
STEMPEL
100
AcDbLine
 10
650.0
 20
109.9999999999999
 30
0.0
 11
650.0
 21
9.999999999999886
 31
0.0
  0
LINE
  5
5C
330
1E
100
AcDbEntity
  8
STEMPEL
100
AcDbLine
 10
752.0000000000003
 20
109.9999999999995
 30
0.0
 11
752.0000000000003
 21
39.99999999999989
 31
0.0
  0
LINE
  5
5D
330
1E
100
AcDbEntity
  8
STEMPEL
100
AcDbLine
 10
566.0000000000001
 20
29.99999999999989
 30
0.0
 11
470.0000000000001
 21
29.99999999999989
 31
0.0
  0
LINE
  5
5E
330
1E
100
AcDbEntity
  8
STEMPEL
100
AcDbLine
 10
830.0000000000004
 20
39.99999999999989
 30
0.0
 11
566.0000000000001
 21
39.99999999999989
 31
0.0
  0
LINE
  5
5F
330
1E
100
AcDbEntity
  8
STEMPEL
100
AcDbLine
 10
830.0000000000004
 20
79.99999999999989
 30
0.0
 11
566.0000000000003
 21
79.99999999999989
 31
0.0
  0
LINE
  5
60
330
1E
100
AcDbEntity
  8
VOLL
100
AcDbLine
 10
484.0000000000002
 20
109.9999999999999
 30
0.0
 11
484.0000000000001
 21
9.999999999999886
 31
0.0
  0
LINE
  5
61
330
1E
100
AcDbEntity
  8
VOLL
100
AcDbLine
 10
524.0000000000001
 20
109.9999999999997
 30
0.0
 11
524.0
 21
9.999999999999772
 31
0.0
  0
LINE
  5
62
330
1E
100
AcDbEntity
  8
VOLL
100
AcDbLine
 10
544.0000000000002
 20
109.9999999999997
 30
0.0
 11
544.0
 21
9.999999999999772
 31
0.0
  0
LINE
  5
63
330
1E
100
AcDbEntity
  8
VOLL
100
AcDbLine
 10
584.0000000000003
 20
79.99999999999989
 30
0.0
 11
584.0000000000003
 21
39.99999999999989
 31
0.0
  0
LINE
  5
64
330
1E
100
AcDbEntity
  8
VOLL
100
AcDbLine
 10
610.0000000000003
 20
109.9999999999996
 30
0.0
 11
610.0000000000001
 21
39.99999999999989
 31
0.0
  0
LINE
  5
65
330
1E
100
AcDbEntity
  8
HILF
100
AcDbLine
 10
470.0000000000001
 20
99.99999999999989
 30
0.0
 11
566.0000000000003
 21
99.99999999999989
 31
0.0
  0
LINE
  5
66
330
1E
100
AcDbEntity
  8
HILF
100
AcDbLine
 10
470.0000000000001
 20
89.99999999999989
 30
0.0
 11
566.0000000000003
 21
89.99999999999989
 31
0.0
  0
LINE
  5
67
330
1E
100
AcDbEntity
  8
HILF
100
AcDbLine
 10
470.0000000000001
 20
79.99999999999989
 30
0.0
 11
566.0000000000003
 21
79.99999999999989
 31
0.0
  0
LINE
  5
68
330
1E
100
AcDbEntity
  8
HILF
100
AcDbLine
 10
470.0000000000001
 20
69.99999999999989
 30
0.0
 11
566.0000000000003
 21
69.99999999999989
 31
0.0
  0
LINE
  5
69
330
1E
100
AcDbEntity
  8
HILF
100
AcDbLine
 10
470.0000000000001
 20
59.99999999999989
 30
0.0
 11
566.0000000000003
 21
59.99999999999989
 31
0.0
  0
LINE
  5
6A
330
1E
100
AcDbEntity
  8
HILF
100
AcDbLine
 10
470.0000000000001
 20
49.99999999999989
 30
0.0
 11
566.0000000000003
 21
49.99999999999989
 31
0.0
  0
LINE
  5
6B
330
1E
100
AcDbEntity
  8
HILF
100
AcDbLine
 10
470.0000000000001
 20
39.99999999999989
 30
0.0
 11
566.0000000000003
 21
39.99999999999989
 31
0.0
  0
LINE
  5
6C
330
1E
100
AcDbEntity
  8
HILF
100
AcDbLine
 10
566.0000000000003
 20
69.99999999999989
 30
0.0
 11
650.0
 21
69.99999999999989
 31
0.0
  0
LINE
  5
6D
330
1E
100
AcDbEntity
  8
HILF
100
AcDbLine
 10
566.0000000000003
 20
59.99999999999989
 30
0.0
 11
650.0
 21
59.99999999999989
 31
0.0
  0
LINE
  5
6E
330
1E
100
AcDbEntity
  8
HILF
100
AcDbLine
 10
566.0000000000003
 20
49.99999999999989
 30
0.0
 11
650.0
 21
49.99999999999989
 31
0.0
  0
LINE
  5
6F
330
1E
100
AcDbEntity
  8
HILF
100
AcDbLine
 10
654.773680109695
 20
84.03758247564121
 30
0.0
 11
746.6297842514812
 21
84.03758247564121
 31
0.0
  0
LINE
  5
70
330
1E
100
AcDbEntity
  8
HILF
100
AcDbLine
 10
654.773680109695
 20
69.99999999999989
 30
0.0
 11
746.6297842514812
 21
69.99999999999989
 31
0.0
  0
LINE
  5
71
330
1E
100
AcDbEntity
  8
HILF
100
AcDbLine
 10
654.773680109695
 20
59.99999999999989
 30
0.0
 11
746.6297842514812
 21
59.99999999999989
 31
0.0
  0
LINE
  5
72
330
1E
100
AcDbEntity
  8
HILF
100
AcDbLine
 10
654.773680109695
 20
49.99999999999989
 30
0.0
 11
746.6297842514812
 21
49.99999999999989
 31
0.0
  0
LINE
  5
73
330
1E
100
AcDbEntity
  8
VOLL
100
AcDbLine
 10
752.0000000000003
 20
59.99999999999989
 30
0.0
 11
830.0000000000004
 21
59.99999999999989
 31
0.0
  0
LINE
  5
74
330
1E
100
AcDbEntity
  8
HILF
100
AcDbLine
 10
756.7238616296996
 20
83.77983636955809
 30
0.0
 11
824.8588839326732
 21
83.77983636955804
 31
0.0
  0
LINE
  5
75
330
1E
100
AcDbEntity
  8
HILF
100
AcDbLine
 10
654.773680109695
 20
14.89398258028291
 30
0.0
 11
824.8588839326732
 21
14.89398258028291
 31
0.0
  0
TEXT
  5
76
330
1E
100
AcDbEntity
  8
TEXT
100
AcDbText
 10
492.3998239263299
 20
18.67381894984115
 30
0.0
 40
4.0
  1
Änderung
 41
0.8
  7
GREEKS
 72
     1
 11
503.1426810691869
 21
18.67381894984115
 31
0.0
100
AcDbText
  0
TEXT
  5
78
330
1E
100
AcDbEntity
  8
TEXT
100
AcDbText
 10
573.5163572150376
 20
102.4620895087087
 30
0.0
 40
5.0
  1
Maßstab
 41
0.8
  7
GREEKS
100
AcDbText
  0
TEXT
  5
79
330
1E
100
AcDbEntity
  8
TEXT
100
AcDbText
 10
654.8779403809009
 20
102.5489328011778
 30
0.0
 40
5.0
  1
Benennung
 41
0.8
  7
GREEKS
100
AcDbText
  0
TEXT
  5
7A
330
1E
100
AcDbEntity
  8
TEXT
100
AcDbText
 10
756.1787549576343
 20
102.3132034537135
 30
0.0
 40
5.0
  1
Zeichnungs Nr.
 41
0.8
  7
GREEKS
100
AcDbText
  0
TEXT
  5
7B
330
1E
100
AcDbEntity
  8
TEXT
100
AcDbText
 10
654.7422383911359
 20
30.84560570193048
 30
0.0
 40
5.0
  1
Bauvorhaben
 41
0.8
  7
GREEKS
100
AcDbText
  0
TEXT
  5
7C
330
1E
100
AcDbEntity
  8
TEXT
100
AcDbText
 10
756.7238616296995
 20
73.18118237099949
 30
0.0
 40
5.0
  1
Ersatz für:
 41
0.8
  7
GREEKS
100
AcDbText
  0
TEXT
  5
7D
330
1E
100
AcDbEntity
  8
TEXT
100
AcDbText
 10
478.2664110704578
 20
13.6546584602718
 30
0.0
 40
4.0
  1
Index
 50
89.99999999999998
 41
0.8
  7
GREEKS
100
AcDbText
  0
TEXT
  5
7E
330
1E
100
AcDbEntity
  8
TEXT
100
AcDbText
 10
529.8990113186979
 20
18.67156269339799
 30
0.0
 40
4.0
  1
Tag
 41
0.8
  7
GREEKS
 72
     1
 11
533.6323446520313
 21
18.67156269339799
 31
0.0
100
AcDbText
  0
TEXT
  5
7F
330
1E
100
AcDbEntity
  8
TEXT
100
AcDbText
 10
548.9795678138292
 20
18.59324216966391
 30
0.0
 40
4.0
  1
Name
 41
0.8
  7
GREEKS
 72
     1
 11
555.3033773376387
 21
18.59324216966391
 31
0.0
100
AcDbText
  0
TEXT
  5
80
330
1E
100
AcDbEntity
  8
TEXT
100
AcDbText
 10
592.3311673153651
 20
73.31880501229909
 30
0.0
 40
4.0
  1
Tag
 41
0.8
  7
GREEKS
100
AcDbText
  0
TEXT
  5
81
330
1E
100
AcDbEntity
  8
TEXT
100
AcDbText
 10
622.4626584226296
 20
73.30961091915208
 30
0.0
 40
4.0
  1
Name
 41
0.8
  7
GREEKS
100
AcDbText
  0
TEXT
  5
82
330
1E
100
AcDbEntity
  8
TEXT
100
AcDbText
 10
567.5836127167615
 20
63.62990369617946
 30
0.0
 40
4.0
  1
Gez.
 41
0.8
  7
GREEKS
100
AcDbText
  0
TEXT
  5
83
330
1E
100
AcDbEntity
  8
TEXT
100
AcDbText
 10
567.5515086571672
 20
53.68926291428365
 30
0.0
 40
4.0
  1
Gepr.
 41
0.8
  7
GREEKS
100
AcDbText
  0
TEXT
  5
84
330
1E
100
AcDbEntity
  8
TEXT
100
AcDbText
 10
567.6006777387303
 20
43.52946389649789
 30
0.0
 40
4.0
  1
Norm.
 41
0.8
  7
GREEKS
100
AcDbText
  0
TEXT
  5
85
330
1E
100
AcDbEntity
  8
TEXT
100
AcDbText
 10
757.2400861497007
 20
52.07416177878585
 30
0.0
 40
5.0
  1
ersetzt durch:
 41
0.8
  7
GREEKS
100
AcDbText
  0
TEXT
  5
86
330
1E
100
AcDbEntity
  8
TEXT
100
AcDbText
 10
568.8693027807324
 20
72.96682596523718
 30
0.0
 40
4.0
  1
2010
 41
0.8
  7
GREEKS
100
AcDbText
  0
LINE
  5
87
330
1E
100
AcDbEntity
  8
HILF
100
AcDbLine
 10
0.0
 20
0.0
 30
0.0
 11
840.0000000000002
 21
-0.0000000000001137
 31
0.0
  0
LINE
  5
88
330
1E
100
AcDbEntity
  8
HILF
100
AcDbLine
 10
840.0000000000002
 20
-0.0000000000001137
 30
0.0
 11
840.0000000000002
 21
593.9999999999998
 31
0.0
  0
LINE
  5
89
330
1E
100
AcDbEntity
  8
HILF
100
AcDbLine
 10
840.0000000000002
 20
593.9999999999998
 30
0.0
 11
0.0000000000001705
 21
594.0
 31
0.0
  0
LINE
  5
8B
330
1E
100
AcDbEntity
  8
STEMPEL
100
AcDbLine
 10
830.0
 20
583.9999999999998
 30
0.0
 11
40.00000000000011
 21
584.0
 31
0.0
  0
LINE
  5
8D
330
1E
100
AcDbEntity
  8
STEMPEL
100
AcDbLine
 10
40.0
 20
10.0
 30
0.0
 11
830.0
 21
9.999999999999886
 31
0.0
  0
LINE
  5
8E
330
1E
100
AcDbEntity
  8
STEMPEL
100
AcDbLine
 10
830.0
 20
9.999999999999886
 30
0.0
 11
830.0
 21
583.9999999999998
 31
0.0
  0
TEXT
  5
91
330
1E
100
AcDbEntity
  8
TEXT
100
AcDbText
 10
618.5090226415829
 20
102.8398961137899
 30
0.0
 40
5.0
  1
Zul.Abw.
 41
0.8
  7
GREEKS
100
AcDbText
  0
TEXT
  5
93
330
1E
100
AcDbEntity
  8
TEXT
100
AcDbText
 10
590.4612856559488
 20
63.15085876120213
 30
0.0
 40
4.0
  1
15.09.
 41
0.8
  7
GREEKS
 72
     1
 11
597.1660475607107
 21
63.15085876120213
 31
0.0
100
AcDbText
  0
TEXT
  5
94
330
1E
100
AcDbEntity
  8
TEXT
100
AcDbText
 10
624.0231753226609
 20
62.94297655165462
 30
0.0
 40
4.0
  1
Koeh
 41
0.8
  7
GREEKS
 72
     1
 11
629.2803181798038
 21
62.94297655165462
 31
0.0
100
AcDbText
  0
TEXT
  5
99
330
1E
100
AcDbEntity
  8
TEXT
 62
     1
100
AcDbText
 10
582.703491203422
 20
87.47077088414959
 30
0.0
 40
7.0
  1
1:2
 41
0.8
  7
GREEKS
100
AcDbText
  0
TEXT
  5
9A
330
1E
100
AcDbEntity
  8
TEXT
100
AcDbText
 10
470.0441139350129
 20
114.1143585051042
 30
0.0
 40
5.0
  1
Erstellt mit AUTOCAD 2004
 41
0.8
  7
GREEKS
100
AcDbText
  0
INSERT
  5
9B
330
1E
100
AcDbEntity
  8
HILF
100
AcDbBlockReference
  2
LORO
 10
573.0624985962354
 20
36.98059300298954
 30
0.0
 41
2.0
 42
2.0
 43
2.0
  0
LINE
  5
9C
330
1E
100
AcDbEntity
  8
BEM
100
AcDbLine
 10
456.0
 20
-0.0000000000001137
 30
0.0
 11
456.0
 21
9.999999999999886
 31
0.0
  0
LINE
  5
13E
330
1E
100
AcDbEntity
  8
HILF
100
AcDbLine
 10
0.0
 20
0.0
 30
0.0
 11
0.0000000000001705
 21
594.0
 31
0.0
  0
LINE
  5
13F
330
1E
100
AcDbEntity
  8
STEMPEL
100
AcDbLine
 10
40.0
 20
10.0
 30
0.0
 11
40.00000000000011
 21
584.0
 31
0.0
  0
LINE
  5
14A
330
1E
100
AcDbEntity
  8
HILF
100
AcDbLine
 10
0.0000000000000568
 20
297.0
 30
0.0
 11
40.00000000000006
 21
297.0
 31
0.0
  0
TEXT
  5
15B
330
1E
100
AcDbEntity
  8
BEM
100
AcDbText
 10
837.3022923857165
 20
10.16790107998847
 30
0.0
 40
4.0
  1
Diese Zeichnung ist urheberrechtlich geschützt und bleibt unser Eigentum. Sie darf weder ganz noch teilweise verfielfältigt und nicht an Dritte weitergegeben werden.
 50
89.99999999999998
 41
0.8
  7
GREEKS
100
AcDbText
  0
TEXT
  5
AC9
330
1E
100
AcDbEntity
  8
TEXT
 62
     1
100
AcDbText
 10
702.8749761836077
 20
420.3774854837381
 30
0.0
 40
7.0
  1
DN125
 41
0.8
  7
GREEKS
100
AcDbText
  0
TEXT
  5
ACA
330
1E
100
AcDbEntity
  8
TEXT
100
AcDbText
 10
612.2898419893275
 20
89.26643524492067
 30
0.0
 40
4.0
  1
DIN EN1123-2
 41
0.8
  7
GREEKS
 72
     1
 11
629.2803181798038
 21
89.26643524492067
 31
0.0
100
AcDbText
  0
TEXT
  5
AE3
330
1E
100
AcDbEntity
  8
TEXT
 62
     1
100
AcDbText
 10
664.6057658946469
 20
129.0783465745481
 30
0.0
 40
7.0
  1

 41
0.8
  7
GREEKS
100
AcDbText
  0
DIMENSION
  5
D10
330
1E
100
AcDbEntity
  8
BEM
100
AcDbDimension
  2
*D2
 10
424.9094289290871
 20
149.4807379664651
 30
0.0
 11
251.5149862176104
 21
155.9807379664651
 31
0.0
 70
    32
  1
620
 71
     5
 42
346.7888854229536
  3
Standard
100
AcDbAlignedDimension
 13
78.1205435061336
 23
183.363170244192
 33
0.0
 14
424.9094289290871
 24
174.550840291303
 34
0.0
100
AcDbRotatedDimension
1001
ACAD
1000
DSTYLE
1002
{
1070
    40
1040
2.0
1070
    41
1040
3.5
1070
    42
1040
1.0
1070
    43
1040
7.0
1070
    44
1040
1.0
1070
    73
1070
     0
1070
    74
1070
     0
1070
    77
1070
     1
1070
    78
1070
     8
1070
    79
1070
     2
1070
   140
1040
3.5
1070
   141
1040
1.5
1070
   146
1040
0.5142857142857144
1070
   147
1040
1.5
1070
   172
1070
     1
1070
   178
1070
     1
1070
   179
1070
     2
1070
   271
1070
     2
1070
   272
1070
     2
1070
   284
1070
     8
1070
   285
1070
     8
1070
   286
1070
     8
1002
}
  0
LINE
  5
D11
330
1E
100
AcDbEntity
  8
STEMPEL
100
AcDbLine
 10
804.9094289290872
 20
488.3338159999195
 30
0.0
 11
803.9855993368439
 21
488.7646048136128
 31
0.0
  0
ARC
  5
D12
330
1E
100
AcDbEntity
  8
STEMPEL
100
AcDbCircle
 10
791.3070514846229
 20
461.5753712025132
 30
0.0
 40
30.0
100
AcDbArc
 50
65.00000000000655
 51
90.0
  0
ARC
  5
D13
330
1E
100
AcDbEntity
  8
STEMPEL
100
AcDbCircle
 10
751.9094289290872
 20
505.0753712025133
 30
0.0
 40
18.0
100
AcDbArc
 50
270.0
 51
295.0071583365423
  0
ARC
  5
D14
330
1E
100
AcDbEntity
  8
STEMPEL
100
AcDbCircle
 10
772.2004289290871
 20
461.5753712025132
 30
0.0
 40
29.99973625969209
100
AcDbArc
 50
90.0
 51
115.0071583365423
  0
LINE
  5
D15
330
1E
100
AcDbEntity
  8
STEMPEL
100
AcDbLine
 10
791.3070514846229
 20
491.5753712025132
 30
0.0
 11
772.2004289290871
 21
491.5753712025132
 31
0.0
  0
LINE
  5
D16
330
1E
100
AcDbEntity
  8
STEMPEL
100
AcDbLine
 10
751.9094289290872
 20
487.0753712025132
 30
0.0
 11
653.3781483517583
 21
487.0753712025132
 31
0.0
  0
LINE
  5
D17
330
1E
100
AcDbEntity
  8
STEMPEL
100
AcDbLine
 10
804.9094289290872
 20
342.816926405107
 30
0.0
 11
803.9855993368439
 21
342.3861375914137
 31
0.0
  0
ARC
  5
D18
330
1E
100
AcDbEntity
  8
STEMPEL
100
AcDbCircle
 10
791.3070514846229
 20
369.5753712025133
 30
0.0
 40
30.0
100
AcDbArc
 50
270.0
 51
294.9999999999935
  0
LINE
  5
D19
330
1E
100
AcDbEntity
  8
STEMPEL
100
AcDbLine
 10
804.9094289290872
 20
317.3092850887092
 30
0.0
 11
803.9855993368439
 21
317.7400739024025
 31
0.0
  0
ARC
  5
D1A
330
1E
100
AcDbEntity
  8
STEMPEL
100
AcDbCircle
 10
791.3070514846229
 20
290.550840291303
 30
0.0
 40
30.0
100
AcDbArc
 50
65.00000000000655
 51
90.0
  0
ARC
  5
D1B
330
1E
100
AcDbEntity
  8
STEMPEL
100
AcDbCircle
 10
751.9094289290872
 20
326.0753712025133
 30
0.0
 40
18.0
100
AcDbArc
 50
64.99284166345768
 51
90.0
  0
ARC
  5
D1C
330
1E
100
AcDbEntity
  8
STEMPEL
100
AcDbCircle
 10
772.2004289290871
 20
290.550840291303
 30
0.0
 40
29.99973625969209
100
AcDbArc
 50
90.0
 51
115.0071583365423
  0
ARC
  5
D1D
330
1E
100
AcDbEntity
  8
STEMPEL
100
AcDbCircle
 10
772.2004289290871
 20
369.5753712025133
 30
0.0
 40
29.99973625969209
100
AcDbArc
 50
244.9928416634577
 51
270.0
  0
ARC
  5
D1E
330
1E
100
AcDbEntity
  8
STEMPEL
100
AcDbCircle
 10
751.9094289290872
 20
334.050840291303
 30
0.0
 40
18.0
100
AcDbArc
 50
270.0
 51
295.0071583365423
  0
LINE
  5
D1F
330
1E
100
AcDbEntity
  8
STEMPEL
100
AcDbLine
 10
791.3070514846229
 20
320.550840291303
 30
0.0
 11
772.2004289290871
 21
320.550840291303
 31
0.0
  0
LINE
  5
D20
330
1E
100
AcDbEntity
  8
STEMPEL
100
AcDbLine
 10
791.3070514846229
 20
339.5753712025133
 30
0.0
 11
772.2004289290871
 21
339.5753712025133
 31
0.0
  0
LINE
  5
D21
330
1E
100
AcDbEntity
  8
STEMPEL
100
AcDbLine
 10
751.9094289290872
 20
316.050840291303
 30
0.0
 11
653.3781483517583
 21
316.050840291303
 31
0.0
  0
LINE
  5
D22
330
1E
100
AcDbEntity
  8
STEMPEL
100
AcDbLine
 10
751.9094289290872
 20
344.0753712025133
 30
0.0
 11
653.3781483517583
 21
344.0753712025132
 31
0.0
  0
LINE
  5
D23
330
1E
100
AcDbEntity
  8
STEMPEL
100
AcDbLine
 10
804.9094289290872
 20
171.7923954938967
 30
0.0
 11
803.9855993368439
 21
171.3616066802034
 31
0.0
  0
ARC
  5
D24
330
1E
100
AcDbEntity
  8
STEMPEL
100
AcDbCircle
 10
791.3070514846229
 20
198.5508402913029
 30
0.0
 40
30.0
100
AcDbArc
 50
270.0
 51
294.9999999999935
  0
ARC
  5
D25
330
1E
100
AcDbEntity
  8
STEMPEL
100
AcDbCircle
 10
751.9094289290872
 20
155.0508402913029
 30
0.0
 40
18.0
100
AcDbArc
 50
64.99284166345768
 51
90.0
  0
ARC
  5
D26
330
1E
100
AcDbEntity
  8
STEMPEL
100
AcDbCircle
 10
772.2004289290871
 20
198.5508402913029
 30
0.0
 40
29.99973625969209
100
AcDbArc
 50
244.9928416634577
 51
270.0
  0
LINE
  5
D27
330
1E
100
AcDbEntity
  8
STEMPEL
100
AcDbLine
 10
791.3070514846229
 20
168.5508402913029
 30
0.0
 11
772.2004289290871
 21
168.5508402913029
 31
0.0
  0
LINE
  5
D28
330
1E
100
AcDbEntity
  8
STEMPEL
100
AcDbLine
 10
751.9094289290872
 20
173.0508402913029
 30
0.0
 11
653.3781483517583
 21
173.0508402913029
 31
0.0
  0
LINE
  5
D29
330
1E
100
AcDbEntity
  8
HILF
100
AcDbLine
 10
755.8064397477915
 20
313.9246556881815
 30
0.0
 11
755.8064397477915
 21
175.1770248944236
 31
0.0
  0
LINE
  5
D2A
330
1E
100
AcDbEntity
  8
STEMPEL
100
AcDbLine
 10
804.9094289290872
 20
317.3092850887092
 30
0.0
 11
804.9094289290872
 21
171.7923954938967
 31
0.0
  0
LINE
  5
D2D
330
1E
100
AcDbEntity
  8
HILF
100
AcDbLine
 10
755.8064397477915
 20
484.9491865993917
 30
0.0
 11
755.8064397477915
 21
346.2015558056338
 31
0.0
  0
LINE
  5
D2E
330
1E
100
AcDbEntity
  8
STEMPEL
100
AcDbLine
 10
804.9094289290872
 20
488.3338159999195
 30
0.0
 11
804.9094289290872
 21
342.816926405107
 31
0.0
  0
ARC
  5
D2F
330
1E
100
AcDbEntity
  8
STEMPEL
100
AcDbCircle
 10
637.4094289290872
 20
492.0753712025134
 30
0.0
 40
10.0
100
AcDbArc
 50
270.0
 51
304.771944031949
  0
LINE
  5
D3F
330
1E
100
AcDbEntity
  8
STEMPEL
100
AcDbLine
 10
637.4094289290872
 20
482.0753712025133
 30
0.0
 11
487.4094289290872
 21
482.0753712025133
 31
0.0
  0
LINE
  5
D40
330
1E
100
AcDbEntity
  8
MITTEL
100
AcDbLine
 10
424.9094289290871
 20
494.5753712025132
 30
0.0
 11
424.9094289290871
 21
415.5753712025133
 31
0.0
  0
LINE
  5
D89
330
1E
100
AcDbEntity
  8
STEMPEL
100
AcDbLine
 10
281.9553646575449
 20
482.0753712025133
 30
0.0
 11
173.7035487503919
 21
482.0753712025133
 31
0.0
  0
LINE
  5
D8A
330
1E
100
AcDbEntity
  8
STEMPEL
100
AcDbLine
 10
362.4094289290873
 20
482.0753712025133
 30
0.0
 11
286.9553646575449
 21
482.0753712025133
 31
0.0
  0
ARC
  5
D8B
330
1E
100
AcDbEntity
  8
STEMPEL
100
AcDbCircle
 10
637.4094289290872
 20
321.0508402913031
 30
0.0
 40
10.0
100
AcDbArc
 50
270.0
 51
304.771944031949
  0
ARC
  5
D8C
330
1E
100
AcDbEntity
  8
STEMPEL
100
AcDbCircle
 10
637.4094289290872
 20
339.0753712025132
 30
0.0
 40
10.0
100
AcDbArc
 50
55.22805596805097
 51
90.0
  0
ARC
  5
D8D
330
1E
100
AcDbEntity
  8
STEMPEL
100
AcDbCircle
 10
637.4094289290872
 20
168.0508402913028
 30
0.0
 40
10.0
100
AcDbArc
 50
55.22805596805097
 51
90.0
  0
LINE
  5
D91
330
1E
100
AcDbEntity
  8
HILF
100
AcDbLine
 10
647.9996196097536
 20
312.5877391549353
 30
0.0
 11
647.9996196097536
 21
176.5139414276718
 31
0.0
  0
LINE
  5
D92
330
1E
100
AcDbEntity
  8
HILF
100
AcDbLine
 10
640.3975004524231
 20
308.9132363856139
 30
0.0
 11
640.3975004524231
 21
180.1884441969934
 31
0.0
  0
LINE
  5
D99
330
1E
100
AcDbEntity
  8
STEMPEL
100
AcDbLine
 10
281.9553646575449
 20
349.0753712025132
 30
0.0
 11
173.7035487503914
 21
349.0753712025131
 31
0.0
  0
LINE
  5
D9A
330
1E
100
AcDbEntity
  8
STEMPEL
100
AcDbLine
 10
281.9553646575449
 20
311.0508402913031
 30
0.0
 11
173.7035487503918
 21
311.0508402913031
 31
0.0
  0
LINE
  5
D9B
330
1E
100
AcDbEntity
  8
STEMPEL
100
AcDbLine
 10
281.9553646575449
 20
178.0508402913028
 30
0.0
 11
173.7035487503914
 21
178.0508402913028
 31
0.0
  0
DIMENSION
  5
D9D
330
1E
100
AcDbEntity
  8
BEM
100
AcDbDimension
  2
*D3
 10
67.3166872759331
 20
482.0753712025133
 30
0.0
 11
60.81668727593302
 21
415.5753712025132
 31
0.0
 70
    32
  1
%%c<>
 71
     5
 42
133.0000000000002
  3
Standard
100
AcDbAlignedDimension
 13
173.7035487503914
 23
349.0753712025131
 33
0.0
 14
173.7035487503919
 24
482.0753712025133
 34
0.0
 50
90.0
100
AcDbRotatedDimension
1001
ACAD
1000
DSTYLE
1002
{
1070
    40
1040
2.0
1070
    41
1040
3.5
1070
    42
1040
1.0
1070
    43
1040
7.0
1070
    44
1040
1.0
1070
    73
1070
     0
1070
    74
1070
     0
1070
    77
1070
     1
1070
    78
1070
     8
1070
    79
1070
     2
1070
   140
1040
3.5
1070
   141
1040
1.5
1070
   146
1040
0.5142857142857144
1070
   147
1040
1.5
1070
   172
1070
     1
1070
   178
1070
     1
1070
   179
1070
     2
1070
   271
1070
     2
1070
   272
1070
     2
1070
   284
1070
     8
1070
   285
1070
     8
1070
   286
1070
     8
1002
}
  0
POLYLINE
  5
D9E
330
1E
100
AcDbEntity
  8
HILF
100
AcDb2dPolyline
 66
     1
 10
0.0
 20
0.0
 30
0.0
 70
     4
 75
     6
  0
VERTEX
  5
D9F
330
D9E
100
AcDbEntity
  8
HILF
100
AcDbVertex
100
AcDb2dVertex
 10
281.9553646575449
 20
311.0508402913031
 30
0.0
 70
    16
  0
VERTEX
  5
DA0
330
D9E
100
AcDbEntity
  8
HILF
100
AcDbVertex
100
AcDb2dVertex
 10
281.9553646575449
 20
311.0508402913031
 30
0.0
 70
     8
  0
VERTEX
  5
DA1
330
D9E
100
AcDbEntity
  8
HILF
100
AcDbVertex
100
AcDb2dVertex
 10
284.349618874048
 20
301.1975818357167
 30
0.0
 70
     8
  0
VERTEX
  5
DA2
330
D9E
100
AcDbEntity
  8
HILF
100
AcDbVertex
100
AcDb2dVertex
 10
286.1271504873768
 20
292.7684574655682
 30
0.0
 70
     8
  0
VERTEX
  5
DA3
330
D9E
100
AcDbEntity
  8
HILF
100
AcDbVertex
100
AcDb2dVertex
 10
287.3522481626381
 20
285.5881329137621
 30
0.0
 70
     8
  0
VERTEX
  5
DA4
330
D9E
100
AcDbEntity
  8
HILF
100
AcDbVertex
100
AcDb2dVertex
 10
288.0892005649394
 20
279.4812739132026
 30
0.0
 70
     8
  0
VERTEX
  5
DA5
330
D9E
100
AcDbEntity
  8
HILF
100
AcDbVertex
100
AcDb2dVertex
 10
288.4022963593878
 20
274.2725461967942
 30
0.0
 70
     8
  0
VERTEX
  5
DA6
330
D9E
100
AcDbEntity
  8
HILF
100
AcDbVertex
100
AcDb2dVertex
 10
288.3558242110904
 20
269.786615497441
 30
0.0
 70
     8
  0
VERTEX
  5
DA7
330
D9E
100
AcDbEntity
  8
HILF
100
AcDbVertex
100
AcDb2dVertex
 10
288.0140727851541
 20
265.8481475480477
 30
0.0
 70
     8
  0
VERTEX
  5
DA8
330
D9E
100
AcDbEntity
  8
HILF
100
AcDbVertex
100
AcDb2dVertex
 10
287.4413307466863
 20
262.2818080815184
 30
0.0
 70
     8
  0
VERTEX
  5
DA9
330
D9E
100
AcDbEntity
  8
HILF
100
AcDbVertex
100
AcDb2dVertex
 10
286.6930242271363
 20
258.9358748471923
 30
0.0
 70
     8
  0
VERTEX
  5
DAA
330
D9E
100
AcDbEntity
  8
HILF
100
AcDbVertex
100
AcDb2dVertex
 10
285.7891292233236
 20
255.7530736601481
 30
0.0
 70
     8
  0
VERTEX
  5
DAB
330
D9E
100
AcDbEntity
  8
HILF
100
AcDbVertex
100
AcDb2dVertex
 10
284.7407591984096
 20
252.6997423518988
 30
0.0
 70
     8
  0
VERTEX
  5
DAC
330
D9E
100
AcDbEntity
  8
HILF
100
AcDbVertex
100
AcDb2dVertex
 10
283.5590276155559
 20
249.7422187539578
 30
0.0
 70
     8
  0
VERTEX
  5
DAD
330
D9E
100
AcDbEntity
  8
HILF
100
AcDbVertex
100
AcDb2dVertex
 10
282.2550479379243
 20
246.8468406978384
 30
0.0
 70
     8
  0
VERTEX
  5
DAE
330
D9E
100
AcDbEntity
  8
HILF
100
AcDbVertex
100
AcDb2dVertex
 10
280.8399336286765
 20
243.9799460150539
 30
0.0
 70
     8
  0
VERTEX
  5
DAF
330
D9E
100
AcDbEntity
  8
HILF
100
AcDbVertex
100
AcDb2dVertex
 10
279.3247981509738
 20
241.1078725371177
 30
0.0
 70
     8
  0
VERTEX
  5
DB0
330
D9E
100
AcDbEntity
  8
HILF
100
AcDbVertex
100
AcDb2dVertex
 10
277.7207549679782
 20
238.1969580955429
 30
0.0
 70
     8
  0
VERTEX
  5
DB1
330
D9E
100
AcDbEntity
  8
HILF
100
AcDbVertex
100
AcDb2dVertex
 10
276.0455161616034
 20
235.2174246182068
 30
0.0
 70
     8
  0
VERTEX
  5
DB2
330
D9E
100
AcDbEntity
  8
HILF
100
AcDbVertex
100
AcDb2dVertex
 10
274.343188288772
 20
232.1550304184419
 30
0.0
 70
     8
  0
VERTEX
  5
DB3
330
D9E
100
AcDbEntity
  8
HILF
100
AcDbVertex
100
AcDb2dVertex
 10
272.6644765251591
 20
228.9994179059445
 30
0.0
 70
     8
  0
VERTEX
  5
DB4
330
D9E
100
AcDbEntity
  8
HILF
100
AcDbVertex
100
AcDb2dVertex
 10
271.0600860464396
 20
225.7402294904111
 30
0.0
 70
     8
  0
VERTEX
  5
DB5
330
D9E
100
AcDbEntity
  8
HILF
100
AcDbVertex
100
AcDb2dVertex
 10
269.5807220282885
 20
222.3671075815381
 30
0.0
 70
     8
  0
VERTEX
  5
DB6
330
D9E
100
AcDbEntity
  8
HILF
100
AcDbVertex
100
AcDb2dVertex
 10
268.2770896463808
 20
218.869694589022
 30
0.0
 70
     8
  0
VERTEX
  5
DB7
330
D9E
100
AcDbEntity
  8
HILF
100
AcDbVertex
100
AcDb2dVertex
 10
267.1998940763913
 20
215.2376329225589
 30
0.0
 70
     8
  0
VERTEX
  5
DB8
330
D9E
100
AcDbEntity
  8
HILF
100
AcDbVertex
100
AcDb2dVertex
 10
266.399840493995
 20
211.4605649918455
 30
0.0
 70
     8
  0
VERTEX
  5
DB9
330
D9E
100
AcDbEntity
  8
HILF
100
AcDbVertex
100
AcDb2dVertex
 10
265.9391462236723
 20
207.5345198376221
 30
0.0
 70
     8
  0
VERTEX
  5
DBA
330
D9E
100
AcDbEntity
  8
HILF
100
AcDbVertex
100
AcDb2dVertex
 10
265.9260771851252
 20
203.4810730248062
 30
0.0
 70
     8
  0
VERTEX
  5
DBB
330
D9E
100
AcDbEntity
  8
HILF
100
AcDbVertex
100
AcDb2dVertex
 10
266.480411446861
 20
199.3281867493589
 30
0.0
 70
     8
  0
VERTEX
  5
DBC
330
D9E
100
AcDbEntity
  8
HILF
100
AcDbVertex
100
AcDb2dVertex
 10
267.7219270773874
 20
195.1038232072418
 30
0.0
 70
     8
  0
VERTEX
  5
DBD
330
D9E
100
AcDbEntity
  8
HILF
100
AcDbVertex
100
AcDb2dVertex
 10
269.7704021452115
 20
190.8359445944163
 30
0.0
 70
     8
  0
VERTEX
  5
DBE
330
D9E
100
AcDbEntity
  8
HILF
100
AcDbVertex
100
AcDb2dVertex
 10
272.7456147188408
 20
186.5525131068437
 30
0.0
 70
     8
  0
VERTEX
  5
DBF
330
D9E
100
AcDbEntity
  8
HILF
100
AcDbVertex
100
AcDb2dVertex
 10
276.7673428667829
 20
182.2814909404854
 30
0.0
 70
     8
  0
VERTEX
  5
DC0
330
D9E
100
AcDbEntity
  8
HILF
100
AcDbVertex
100
AcDb2dVertex
 10
281.9553646575449
 20
178.0508402913028
 30
0.0
 70
     8
  0
VERTEX
  5
DC1
330
D9E
100
AcDbEntity
  8
HILF
100
AcDbVertex
100
AcDb2dVertex
 10
289.2194848525475
 20
282.720786280626
 30
0.0
 70
    16
  0
VERTEX
  5
DC2
330
D9E
100
AcDbEntity
  8
HILF
100
AcDbVertex
100
AcDb2dVertex
 10
289.2194848525475
 20
260.1826697799884
 30
0.0
 70
    16
  0
VERTEX
  5
DC3
330
D9E
100
AcDbEntity
  8
HILF
100
AcDbVertex
100
AcDb2dVertex
 10
278.5505602173802
 20
238.9703248382119
 30
0.0
 70
    16
  0
VERTEX
  5
DC4
330
D9E
100
AcDbEntity
  8
HILF
100
AcDbVertex
100
AcDb2dVertex
 10
262.9028040858012
 20
213.1177794404217
 30
0.0
 70
    16
  0
VERTEX
  5
DC5
330
D9E
100
AcDbEntity
  8
HILF
100
AcDbVertex
100
AcDb2dVertex
 10
266.4591122975238
 20
189.2538913809231
 30
0.0
 70
    16
  0
VERTEX
  5
DC6
330
D9E
100
AcDbEntity
  8
HILF
100
AcDbVertex
100
AcDb2dVertex
 10
281.9553646575449
 20
178.0508402913028
 30
0.0
 70
    16
  0
SEQEND
  5
DC7
330
D9E
100
AcDbEntity
  8
HILF
  0
LINE
  5
DC8
330
1E
100
AcDbEntity
  8
STEMPEL
100
AcDbLine
 10
637.4094289290872
 20
178.0508402913028
 30
0.0
 11
286.9553646575449
 21
178.0508402913028
 31
0.0
  0
LINE
  5
DC9
330
1E
100
AcDbEntity
  8
STEMPEL
100
AcDbLine
 10
637.4094289290872
 20
311.0508402913031
 30
0.0
 11
286.9553646575449
 21
311.0508402913031
 31
0.0
  0
POLYLINE
  5
DCA
330
1E
100
AcDbEntity
  8
HILF
100
AcDb2dPolyline
 66
     1
 10
0.0
 20
0.0
 30
0.0
 70
     4
 75
     6
  0
VERTEX
  5
DCB
330
DCA
100
AcDbEntity
  8
HILF
100
AcDbVertex
100
AcDb2dVertex
 10
286.9553646575449
 20
311.0508402913031
 30
0.0
 70
    16
  0
VERTEX
  5
DCC
330
DCA
100
AcDbEntity
  8
HILF
100
AcDbVertex
100
AcDb2dVertex
 10
286.9553646575449
 20
311.0508402913031
 30
0.0
 70
     8
  0
VERTEX
  5
DCD
330
DCA
100
AcDbEntity
  8
HILF
100
AcDbVertex
100
AcDb2dVertex
 10
289.349618874048
 20
301.1975818357167
 30
0.0
 70
     8
  0
VERTEX
  5
DCE
330
DCA
100
AcDbEntity
  8
HILF
100
AcDbVertex
100
AcDb2dVertex
 10
291.1271504873767
 20
292.7684574655682
 30
0.0
 70
     8
  0
VERTEX
  5
DCF
330
DCA
100
AcDbEntity
  8
HILF
100
AcDbVertex
100
AcDb2dVertex
 10
292.3522481626381
 20
285.5881329137621
 30
0.0
 70
     8
  0
VERTEX
  5
DD0
330
DCA
100
AcDbEntity
  8
HILF
100
AcDbVertex
100
AcDb2dVertex
 10
293.0892005649395
 20
279.4812739132026
 30
0.0
 70
     8
  0
VERTEX
  5
DD1
330
DCA
100
AcDbEntity
  8
HILF
100
AcDbVertex
100
AcDb2dVertex
 10
293.4022963593879
 20
274.2725461967942
 30
0.0
 70
     8
  0
VERTEX
  5
DD2
330
DCA
100
AcDbEntity
  8
HILF
100
AcDbVertex
100
AcDb2dVertex
 10
293.3558242110904
 20
269.786615497441
 30
0.0
 70
     8
  0
VERTEX
  5
DD3
330
DCA
100
AcDbEntity
  8
HILF
100
AcDbVertex
100
AcDb2dVertex
 10
293.0140727851541
 20
265.8481475480477
 30
0.0
 70
     8
  0
VERTEX
  5
DD4
330
DCA
100
AcDbEntity
  8
HILF
100
AcDbVertex
100
AcDb2dVertex
 10
292.4413307466863
 20
262.2818080815184
 30
0.0
 70
     8
  0
VERTEX
  5
DD5
330
DCA
100
AcDbEntity
  8
HILF
100
AcDbVertex
100
AcDb2dVertex
 10
291.6930242271363
 20
258.9358748471923
 30
0.0
 70
     8
  0
VERTEX
  5
DD6
330
DCA
100
AcDbEntity
  8
HILF
100
AcDbVertex
100
AcDb2dVertex
 10
290.7891292233236
 20
255.7530736601481
 30
0.0
 70
     8
  0
VERTEX
  5
DD7
330
DCA
100
AcDbEntity
  8
HILF
100
AcDbVertex
100
AcDb2dVertex
 10
289.7407591984096
 20
252.6997423518988
 30
0.0
 70
     8
  0
VERTEX
  5
DD8
330
DCA
100
AcDbEntity
  8
HILF
100
AcDbVertex
100
AcDb2dVertex
 10
288.5590276155559
 20
249.7422187539578
 30
0.0
 70
     8
  0
VERTEX
  5
DD9
330
DCA
100
AcDbEntity
  8
HILF
100
AcDbVertex
100
AcDb2dVertex
 10
287.2550479379244
 20
246.8468406978384
 30
0.0
 70
     8
  0
VERTEX
  5
DDA
330
DCA
100
AcDbEntity
  8
HILF
100
AcDbVertex
100
AcDb2dVertex
 10
285.8399336286765
 20
243.9799460150539
 30
0.0
 70
     8
  0
VERTEX
  5
DDB
330
DCA
100
AcDbEntity
  8
HILF
100
AcDbVertex
100
AcDb2dVertex
 10
284.3247981509738
 20
241.1078725371177
 30
0.0
 70
     8
  0
VERTEX
  5
DDC
330
DCA
100
AcDbEntity
  8
HILF
100
AcDbVertex
100
AcDb2dVertex
 10
282.7207549679782
 20
238.1969580955429
 30
0.0
 70
     8
  0
VERTEX
  5
DDD
330
DCA
100
AcDbEntity
  8
HILF
100
AcDbVertex
100
AcDb2dVertex
 10
281.0455161616033
 20
235.2174246182068
 30
0.0
 70
     8
  0
VERTEX
  5
DDE
330
DCA
100
AcDbEntity
  8
HILF
100
AcDbVertex
100
AcDb2dVertex
 10
279.343188288772
 20
232.1550304184419
 30
0.0
 70
     8
  0
VERTEX
  5
DDF
330
DCA
100
AcDbEntity
  8
HILF
100
AcDbVertex
100
AcDb2dVertex
 10
277.6644765251591
 20
228.9994179059445
 30
0.0
 70
     8
  0
VERTEX
  5
DE0
330
DCA
100
AcDbEntity
  8
HILF
100
AcDbVertex
100
AcDb2dVertex
 10
276.0600860464397
 20
225.7402294904111
 30
0.0
 70
     8
  0
VERTEX
  5
DE1
330
DCA
100
AcDbEntity
  8
HILF
100
AcDbVertex
100
AcDb2dVertex
 10
274.5807220282885
 20
222.3671075815381
 30
0.0
 70
     8
  0
VERTEX
  5
DE2
330
DCA
100
AcDbEntity
  8
HILF
100
AcDbVertex
100
AcDb2dVertex
 10
273.2770896463808
 20
218.869694589022
 30
0.0
 70
     8
  0
VERTEX
  5
DE3
330
DCA
100
AcDbEntity
  8
HILF
100
AcDbVertex
100
AcDb2dVertex
 10
272.1998940763913
 20
215.2376329225589
 30
0.0
 70
     8
  0
VERTEX
  5
DE4
330
DCA
100
AcDbEntity
  8
HILF
100
AcDbVertex
100
AcDb2dVertex
 10
271.3998404939951
 20
211.4605649918455
 30
0.0
 70
     8
  0
VERTEX
  5
DE5
330
DCA
100
AcDbEntity
  8
HILF
100
AcDbVertex
100
AcDb2dVertex
 10
270.9391462236723
 20
207.5345198376221
 30
0.0
 70
     8
  0
VERTEX
  5
DE6
330
DCA
100
AcDbEntity
  8
HILF
100
AcDbVertex
100
AcDb2dVertex
 10
270.9260771851252
 20
203.4810730248062
 30
0.0
 70
     8
  0
VERTEX
  5
DE7
330
DCA
100
AcDbEntity
  8
HILF
100
AcDbVertex
100
AcDb2dVertex
 10
271.480411446861
 20
199.3281867493589
 30
0.0
 70
     8
  0
VERTEX
  5
DE8
330
DCA
100
AcDbEntity
  8
HILF
100
AcDbVertex
100
AcDb2dVertex
 10
272.7219270773874
 20
195.1038232072418
 30
0.0
 70
     8
  0
VERTEX
  5
DE9
330
DCA
100
AcDbEntity
  8
HILF
100
AcDbVertex
100
AcDb2dVertex
 10
274.7704021452115
 20
190.8359445944163
 30
0.0
 70
     8
  0
VERTEX
  5
DEA
330
DCA
100
AcDbEntity
  8
HILF
100
AcDbVertex
100
AcDb2dVertex
 10
277.7456147188408
 20
186.5525131068437
 30
0.0
 70
     8
  0
VERTEX
  5
DEB
330
DCA
100
AcDbEntity
  8
HILF
100
AcDbVertex
100
AcDb2dVertex
 10
281.7673428667829
 20
182.2814909404854
 30
0.0
 70
     8
  0
VERTEX
  5
DEC
330
DCA
100
AcDbEntity
  8
HILF
100
AcDbVertex
100
AcDb2dVertex
 10
286.9553646575449
 20
178.0508402913028
 30
0.0
 70
     8
  0
VERTEX
  5
DED
330
DCA
100
AcDbEntity
  8
HILF
100
AcDbVertex
100
AcDb2dVertex
 10
294.2194848525474
 20
282.720786280626
 30
0.0
 70
    16
  0
VERTEX
  5
DEE
330
DCA
100
AcDbEntity
  8
HILF
100
AcDbVertex
100
AcDb2dVertex
 10
294.2194848525474
 20
260.1826697799884
 30
0.0
 70
    16
  0
VERTEX
  5
DEF
330
DCA
100
AcDbEntity
  8
HILF
100
AcDbVertex
100
AcDb2dVertex
 10
283.5505602173802
 20
238.9703248382119
 30
0.0
 70
    16
  0
VERTEX
  5
DF0
330
DCA
100
AcDbEntity
  8
HILF
100
AcDbVertex
100
AcDb2dVertex
 10
267.9028040858012
 20
213.1177794404217
 30
0.0
 70
    16
  0
VERTEX
  5
DF1
330
DCA
100
AcDbEntity
  8
HILF
100
AcDbVertex
100
AcDb2dVertex
 10
271.4591122975238
 20
189.2538913809231
 30
0.0
 70
    16
  0
VERTEX
  5
DF2
330
DCA
100
AcDbEntity
  8
HILF
100
AcDbVertex
100
AcDb2dVertex
 10
286.9553646575449
 20
178.0508402913028
 30
0.0
 70
    16
  0
SEQEND
  5
DF3
330
DCA
100
AcDbEntity
  8
HILF
  0
LINE
  5
DF4
330
1E
100
AcDbEntity
  8
STEMPEL
100
AcDbLine
 10
637.4094289290872
 20
349.0753712025132
 30
0.0
 11
286.9553646575449
 21
349.0753712025132
 31
0.0
  0
LINE
  5
DF5
330
1E
100
AcDbEntity
  8
HILF
100
AcDbLine
 10
647.9996196097536
 20
483.6122700661456
 30
0.0
 11
647.9996196097536
 21
347.5384723388821
 31
0.0
  0
LINE
  5
DF6
330
1E
100
AcDbEntity
  8
HILF
100
AcDbLine
 10
640.3975004524231
 20
479.9377672968242
 30
0.0
 11
640.3975004524231
 21
351.2129751082037
 31
0.0
  0
POLYLINE
  5
DF7
330
1E
100
AcDbEntity
  8
HILF
100
AcDb2dPolyline
 66
     1
 10
0.0
 20
0.0
 30
0.0
 70
     4
 75
     6
  0
VERTEX
  5
DF8
330
DF7
100
AcDbEntity
  8
HILF
100
AcDbVertex
100
AcDb2dVertex
 10
286.9553646575449
 20
482.0753712025133
 30
0.0
 70
    16
  0
VERTEX
  5
DF9
330
DF7
100
AcDbEntity
  8
HILF
100
AcDbVertex
100
AcDb2dVertex
 10
286.9553646575449
 20
482.0753712025133
 30
0.0
 70
     8
  0
VERTEX
  5
DFA
330
DF7
100
AcDbEntity
  8
HILF
100
AcDbVertex
100
AcDb2dVertex
 10
289.349618874048
 20
472.222112746927
 30
0.0
 70
     8
  0
VERTEX
  5
DFB
330
DF7
100
AcDbEntity
  8
HILF
100
AcDbVertex
100
AcDb2dVertex
 10
291.1271504873767
 20
463.7929883767784
 30
0.0
 70
     8
  0
VERTEX
  5
DFC
330
DF7
100
AcDbEntity
  8
HILF
100
AcDbVertex
100
AcDb2dVertex
 10
292.3522481626381
 20
456.6126638249724
 30
0.0
 70
     8
  0
VERTEX
  5
DFD
330
DF7
100
AcDbEntity
  8
HILF
100
AcDbVertex
100
AcDb2dVertex
 10
293.0892005649395
 20
450.5058048244129
 30
0.0
 70
     8
  0
VERTEX
  5
DFE
330
DF7
100
AcDbEntity
  8
HILF
100
AcDbVertex
100
AcDb2dVertex
 10
293.4022963593879
 20
445.2970771080044
 30
0.0
 70
     8
  0
VERTEX
  5
DFF
330
DF7
100
AcDbEntity
  8
HILF
100
AcDbVertex
100
AcDb2dVertex
 10
293.3558242110904
 20
440.8111464086513
 30
0.0
 70
     8
  0
VERTEX
  5
E00
330
DF7
100
AcDbEntity
  8
HILF
100
AcDbVertex
100
AcDb2dVertex
 10
293.0140727851541
 20
436.8726784592579
 30
0.0
 70
     8
  0
VERTEX
  5
E01
330
DF7
100
AcDbEntity
  8
HILF
100
AcDbVertex
100
AcDb2dVertex
 10
292.4413307466863
 20
433.3063389927287
 30
0.0
 70
     8
  0
VERTEX
  5
E02
330
DF7
100
AcDbEntity
  8
HILF
100
AcDbVertex
100
AcDb2dVertex
 10
291.6930242271363
 20
429.9604057584025
 30
0.0
 70
     8
  0
VERTEX
  5
E03
330
DF7
100
AcDbEntity
  8
HILF
100
AcDbVertex
100
AcDb2dVertex
 10
290.7891292233236
 20
426.7776045713583
 30
0.0
 70
     8
  0
VERTEX
  5
E04
330
DF7
100
AcDbEntity
  8
HILF
100
AcDbVertex
100
AcDb2dVertex
 10
289.7407591984096
 20
423.7242732631091
 30
0.0
 70
     8
  0
VERTEX
  5
E05
330
DF7
100
AcDbEntity
  8
HILF
100
AcDbVertex
100
AcDb2dVertex
 10
288.5590276155559
 20
420.7667496651681
 30
0.0
 70
     8
  0
VERTEX
  5
E06
330
DF7
100
AcDbEntity
  8
HILF
100
AcDbVertex
100
AcDb2dVertex
 10
287.2550479379244
 20
417.8713716090487
 30
0.0
 70
     8
  0
VERTEX
  5
E07
330
DF7
100
AcDbEntity
  8
HILF
100
AcDbVertex
100
AcDb2dVertex
 10
285.8399336286765
 20
415.0044769262642
 30
0.0
 70
     8
  0
VERTEX
  5
E08
330
DF7
100
AcDbEntity
  8
HILF
100
AcDbVertex
100
AcDb2dVertex
 10
284.3247981509738
 20
412.132403448328
 30
0.0
 70
     8
  0
VERTEX
  5
E09
330
DF7
100
AcDbEntity
  8
HILF
100
AcDbVertex
100
AcDb2dVertex
 10
282.7207549679782
 20
409.2214890067531
 30
0.0
 70
     8
  0
VERTEX
  5
E0A
330
DF7
100
AcDbEntity
  8
HILF
100
AcDbVertex
100
AcDb2dVertex
 10
281.0455161616033
 20
406.241955529417
 30
0.0
 70
     8
  0
VERTEX
  5
E0B
330
DF7
100
AcDbEntity
  8
HILF
100
AcDbVertex
100
AcDb2dVertex
 10
279.343188288772
 20
403.1795613296521
 30
0.0
 70
     8
  0
VERTEX
  5
E0C
330
DF7
100
AcDbEntity
  8
HILF
100
AcDbVertex
100
AcDb2dVertex
 10
277.6644765251591
 20
400.0239488171548
 30
0.0
 70
     8
  0
VERTEX
  5
E0D
330
DF7
100
AcDbEntity
  8
HILF
100
AcDbVertex
100
AcDb2dVertex
 10
276.0600860464397
 20
396.7647604016215
 30
0.0
 70
     8
  0
VERTEX
  5
E0E
330
DF7
100
AcDbEntity
  8
HILF
100
AcDbVertex
100
AcDb2dVertex
 10
274.5807220282885
 20
393.3916384927485
 30
0.0
 70
     8
  0
VERTEX
  5
E0F
330
DF7
100
AcDbEntity
  8
HILF
100
AcDbVertex
100
AcDb2dVertex
 10
273.2770896463808
 20
389.8942255002322
 30
0.0
 70
     8
  0
VERTEX
  5
E10
330
DF7
100
AcDbEntity
  8
HILF
100
AcDbVertex
100
AcDb2dVertex
 10
272.1998940763913
 20
386.2621638337692
 30
0.0
 70
     8
  0
VERTEX
  5
E11
330
DF7
100
AcDbEntity
  8
HILF
100
AcDbVertex
100
AcDb2dVertex
 10
271.3998404939951
 20
382.4850959030557
 30
0.0
 70
     8
  0
VERTEX
  5
E12
330
DF7
100
AcDbEntity
  8
HILF
100
AcDbVertex
100
AcDb2dVertex
 10
270.9391462236723
 20
378.5590507488324
 30
0.0
 70
     8
  0
VERTEX
  5
E13
330
DF7
100
AcDbEntity
  8
HILF
100
AcDbVertex
100
AcDb2dVertex
 10
270.9260771851252
 20
374.5056039360164
 30
0.0
 70
     8
  0
VERTEX
  5
E14
330
DF7
100
AcDbEntity
  8
HILF
100
AcDbVertex
100
AcDb2dVertex
 10
271.480411446861
 20
370.3527176605692
 30
0.0
 70
     8
  0
VERTEX
  5
E15
330
DF7
100
AcDbEntity
  8
HILF
100
AcDbVertex
100
AcDb2dVertex
 10
272.7219270773874
 20
366.1283541184521
 30
0.0
 70
     8
  0
VERTEX
  5
E16
330
DF7
100
AcDbEntity
  8
HILF
100
AcDbVertex
100
AcDb2dVertex
 10
274.7704021452115
 20
361.8604755056267
 30
0.0
 70
     8
  0
VERTEX
  5
E17
330
DF7
100
AcDbEntity
  8
HILF
100
AcDbVertex
100
AcDb2dVertex
 10
277.7456147188408
 20
357.577044018054
 30
0.0
 70
     8
  0
VERTEX
  5
E18
330
DF7
100
AcDbEntity
  8
HILF
100
AcDbVertex
100
AcDb2dVertex
 10
281.7673428667829
 20
353.3060218516957
 30
0.0
 70
     8
  0
VERTEX
  5
E19
330
DF7
100
AcDbEntity
  8
HILF
100
AcDbVertex
100
AcDb2dVertex
 10
286.9553646575449
 20
349.0753712025132
 30
0.0
 70
     8
  0
VERTEX
  5
E1A
330
DF7
100
AcDbEntity
  8
HILF
100
AcDbVertex
100
AcDb2dVertex
 10
294.2194848525474
 20
453.7453171918362
 30
0.0
 70
    16
  0
VERTEX
  5
E1B
330
DF7
100
AcDbEntity
  8
HILF
100
AcDbVertex
100
AcDb2dVertex
 10
294.2194848525474
 20
431.2072006911987
 30
0.0
 70
    16
  0
VERTEX
  5
E1C
330
DF7
100
AcDbEntity
  8
HILF
100
AcDbVertex
100
AcDb2dVertex
 10
283.5505602173802
 20
409.994855749422
 30
0.0
 70
    16
  0
VERTEX
  5
E1D
330
DF7
100
AcDbEntity
  8
HILF
100
AcDbVertex
100
AcDb2dVertex
 10
267.9028040858012
 20
384.142310351632
 30
0.0
 70
    16
  0
VERTEX
  5
E1E
330
DF7
100
AcDbEntity
  8
HILF
100
AcDbVertex
100
AcDb2dVertex
 10
271.4591122975238
 20
360.2784222921334
 30
0.0
 70
    16
  0
VERTEX
  5
E1F
330
DF7
100
AcDbEntity
  8
HILF
100
AcDbVertex
100
AcDb2dVertex
 10
286.9553646575449
 20
349.0753712025132
 30
0.0
 70
    16
  0
SEQEND
  5
E20
330
DF7
100
AcDbEntity
  8
HILF
  0
POLYLINE
  5
E21
330
1E
100
AcDbEntity
  8
HILF
100
AcDb2dPolyline
 66
     1
 10
0.0
 20
0.0
 30
0.0
 70
     4
 75
     6
  0
VERTEX
  5
E22
330
E21
100
AcDbEntity
  8
HILF
100
AcDbVertex
100
AcDb2dVertex
 10
281.9553646575449
 20
482.0753712025133
 30
0.0
 70
    16
  0
VERTEX
  5
E23
330
E21
100
AcDbEntity
  8
HILF
100
AcDbVertex
100
AcDb2dVertex
 10
281.9553646575449
 20
482.0753712025133
 30
0.0
 70
     8
  0
VERTEX
  5
E24
330
E21
100
AcDbEntity
  8
HILF
100
AcDbVertex
100
AcDb2dVertex
 10
284.349618874048
 20
472.222112746927
 30
0.0
 70
     8
  0
VERTEX
  5
E25
330
E21
100
AcDbEntity
  8
HILF
100
AcDbVertex
100
AcDb2dVertex
 10
286.1271504873768
 20
463.7929883767784
 30
0.0
 70
     8
  0
VERTEX
  5
E26
330
E21
100
AcDbEntity
  8
HILF
100
AcDbVertex
100
AcDb2dVertex
 10
287.3522481626381
 20
456.6126638249724
 30
0.0
 70
     8
  0
VERTEX
  5
E27
330
E21
100
AcDbEntity
  8
HILF
100
AcDbVertex
100
AcDb2dVertex
 10
288.0892005649394
 20
450.5058048244129
 30
0.0
 70
     8
  0
VERTEX
  5
E28
330
E21
100
AcDbEntity
  8
HILF
100
AcDbVertex
100
AcDb2dVertex
 10
288.4022963593878
 20
445.2970771080044
 30
0.0
 70
     8
  0
VERTEX
  5
E29
330
E21
100
AcDbEntity
  8
HILF
100
AcDbVertex
100
AcDb2dVertex
 10
288.3558242110904
 20
440.8111464086513
 30
0.0
 70
     8
  0
VERTEX
  5
E2A
330
E21
100
AcDbEntity
  8
HILF
100
AcDbVertex
100
AcDb2dVertex
 10
288.0140727851541
 20
436.8726784592579
 30
0.0
 70
     8
  0
VERTEX
  5
E2B
330
E21
100
AcDbEntity
  8
HILF
100
AcDbVertex
100
AcDb2dVertex
 10
287.4413307466863
 20
433.3063389927287
 30
0.0
 70
     8
  0
VERTEX
  5
E2C
330
E21
100
AcDbEntity
  8
HILF
100
AcDbVertex
100
AcDb2dVertex
 10
286.6930242271363
 20
429.9604057584025
 30
0.0
 70
     8
  0
VERTEX
  5
E2D
330
E21
100
AcDbEntity
  8
HILF
100
AcDbVertex
100
AcDb2dVertex
 10
285.7891292233236
 20
426.7776045713583
 30
0.0
 70
     8
  0
VERTEX
  5
E2E
330
E21
100
AcDbEntity
  8
HILF
100
AcDbVertex
100
AcDb2dVertex
 10
284.7407591984096
 20
423.7242732631091
 30
0.0
 70
     8
  0
VERTEX
  5
E2F
330
E21
100
AcDbEntity
  8
HILF
100
AcDbVertex
100
AcDb2dVertex
 10
283.5590276155559
 20
420.7667496651681
 30
0.0
 70
     8
  0
VERTEX
  5
E30
330
E21
100
AcDbEntity
  8
HILF
100
AcDbVertex
100
AcDb2dVertex
 10
282.2550479379243
 20
417.8713716090487
 30
0.0
 70
     8
  0
VERTEX
  5
E31
330
E21
100
AcDbEntity
  8
HILF
100
AcDbVertex
100
AcDb2dVertex
 10
280.8399336286765
 20
415.0044769262642
 30
0.0
 70
     8
  0
VERTEX
  5
E32
330
E21
100
AcDbEntity
  8
HILF
100
AcDbVertex
100
AcDb2dVertex
 10
279.3247981509738
 20
412.132403448328
 30
0.0
 70
     8
  0
VERTEX
  5
E33
330
E21
100
AcDbEntity
  8
HILF
100
AcDbVertex
100
AcDb2dVertex
 10
277.7207549679782
 20
409.2214890067531
 30
0.0
 70
     8
  0
VERTEX
  5
E34
330
E21
100
AcDbEntity
  8
HILF
100
AcDbVertex
100
AcDb2dVertex
 10
276.0455161616034
 20
406.241955529417
 30
0.0
 70
     8
  0
VERTEX
  5
E35
330
E21
100
AcDbEntity
  8
HILF
100
AcDbVertex
100
AcDb2dVertex
 10
274.343188288772
 20
403.1795613296521
 30
0.0
 70
     8
  0
VERTEX
  5
E36
330
E21
100
AcDbEntity
  8
HILF
100
AcDbVertex
100
AcDb2dVertex
 10
272.6644765251591
 20
400.0239488171548
 30
0.0
 70
     8
  0
VERTEX
  5
E37
330
E21
100
AcDbEntity
  8
HILF
100
AcDbVertex
100
AcDb2dVertex
 10
271.0600860464396
 20
396.7647604016215
 30
0.0
 70
     8
  0
VERTEX
  5
E38
330
E21
100
AcDbEntity
  8
HILF
100
AcDbVertex
100
AcDb2dVertex
 10
269.5807220282885
 20
393.3916384927485
 30
0.0
 70
     8
  0
VERTEX
  5
E39
330
E21
100
AcDbEntity
  8
HILF
100
AcDbVertex
100
AcDb2dVertex
 10
268.2770896463808
 20
389.8942255002322
 30
0.0
 70
     8
  0
VERTEX
  5
E3A
330
E21
100
AcDbEntity
  8
HILF
100
AcDbVertex
100
AcDb2dVertex
 10
267.1998940763913
 20
386.2621638337692
 30
0.0
 70
     8
  0
VERTEX
  5
E3B
330
E21
100
AcDbEntity
  8
HILF
100
AcDbVertex
100
AcDb2dVertex
 10
266.399840493995
 20
382.4850959030557
 30
0.0
 70
     8
  0
VERTEX
  5
E3C
330
E21
100
AcDbEntity
  8
HILF
100
AcDbVertex
100
AcDb2dVertex
 10
265.9391462236723
 20
378.5590507488324
 30
0.0
 70
     8
  0
VERTEX
  5
E3D
330
E21
100
AcDbEntity
  8
HILF
100
AcDbVertex
100
AcDb2dVertex
 10
265.9260771851252
 20
374.5056039360164
 30
0.0
 70
     8
  0
VERTEX
  5
E3E
330
E21
100
AcDbEntity
  8
HILF
100
AcDbVertex
100
AcDb2dVertex
 10
266.480411446861
 20
370.3527176605692
 30
0.0
 70
     8
  0
VERTEX
  5
E3F
330
E21
100
AcDbEntity
  8
HILF
100
AcDbVertex
100
AcDb2dVertex
 10
267.7219270773874
 20
366.1283541184521
 30
0.0
 70
     8
  0
VERTEX
  5
E40
330
E21
100
AcDbEntity
  8
HILF
100
AcDbVertex
100
AcDb2dVertex
 10
269.7704021452115
 20
361.8604755056267
 30
0.0
 70
     8
  0
VERTEX
  5
E41
330
E21
100
AcDbEntity
  8
HILF
100
AcDbVertex
100
AcDb2dVertex
 10
272.7456147188408
 20
357.577044018054
 30
0.0
 70
     8
  0
VERTEX
  5
E42
330
E21
100
AcDbEntity
  8
HILF
100
AcDbVertex
100
AcDb2dVertex
 10
276.7673428667829
 20
353.3060218516957
 30
0.0
 70
     8
  0
VERTEX
  5
E43
330
E21
100
AcDbEntity
  8
HILF
100
AcDbVertex
100
AcDb2dVertex
 10
281.9553646575449
 20
349.0753712025132
 30
0.0
 70
     8
  0
VERTEX
  5
E44
330
E21
100
AcDbEntity
  8
HILF
100
AcDbVertex
100
AcDb2dVertex
 10
289.2194848525475
 20
453.7453171918362
 30
0.0
 70
    16
  0
VERTEX
  5
E45
330
E21
100
AcDbEntity
  8
HILF
100
AcDbVertex
100
AcDb2dVertex
 10
289.2194848525475
 20
431.2072006911987
 30
0.0
 70
    16
  0
VERTEX
  5
E46
330
E21
100
AcDbEntity
  8
HILF
100
AcDbVertex
100
AcDb2dVertex
 10
278.5505602173802
 20
409.994855749422
 30
0.0
 70
    16
  0
VERTEX
  5
E47
330
E21
100
AcDbEntity
  8
HILF
100
AcDbVertex
100
AcDb2dVertex
 10
262.9028040858012
 20
384.142310351632
 30
0.0
 70
    16
  0
VERTEX
  5
E48
330
E21
100
AcDbEntity
  8
HILF
100
AcDbVertex
100
AcDb2dVertex
 10
266.4591122975238
 20
360.2784222921334
 30
0.0
 70
    16
  0
VERTEX
  5
E49
330
E21
100
AcDbEntity
  8
HILF
100
AcDbVertex
100
AcDb2dVertex
 10
281.9553646575449
 20
349.0753712025132
 30
0.0
 70
    16
  0
SEQEND
  5
E4A
330
E21
100
AcDbEntity
  8
HILF
  0
DIMENSION
  5
E4C
330
1E
100
AcDbEntity
  8
BEM
100
AcDbDimension
  2
*D4
 10
78.1205435061336
 20
135.7817639622379
 30
0.0
 11
441.5149862176104
 21
142.2817639622379
 31
0.0
 70
    32
  1
1000
 71
     5
 42
726.7888854229536
  3
Standard
100
AcDbAlignedDimension
 13
804.9094289290872
 23
171.7923954938967
 33
0.0
 14
78.1205435061336
 24
183.363170244192
 34
0.0
100
AcDbRotatedDimension
1001
ACAD
1000
DSTYLE
1002
{
1070
    40
1040
2.0
1070
    41
1040
3.5
1070
    42
1040
1.0
1070
    43
1040
7.0
1070
    44
1040
1.0
1070
    73
1070
     0
1070
    74
1070
     0
1070
    77
1070
     1
1070
    78
1070
     8
1070
    79
1070
     2
1070
   140
1040
3.5
1070
   141
1040
1.5
1070
   146
1040
0.5142857142857144
1070
   147
1040
1.5
1070
   172
1070
     1
1070
   178
1070
     1
1070
   179
1070
     2
1070
   271
1070
     2
1070
   272
1070
     2
1070
   284
1070
     8
1070
   285
1070
     8
1070
   286
1070
     8
1002
}
  0
LINE
  5
E4D
330
1E
100
AcDbEntity
  8
MITTEL
100
AcDbLine
 10
809.9094289290871
 20
244.5508402913029
 30
0.0
 11
73.12054350613357
 21
244.5508402913031
 31
0.0
  0
DIMENSION
  5
E4E
330
1E
100
AcDbEntity
  8
BEM
100
AcDbDimension
  2
*D5
 10
644.9094289290871
 20
149.7817639622379
 30
0.0
 11
724.9094289290872
 21
156.2817639622379
 31
0.0
 70
    32
 71
     5
 42
160.0
  3
Standard
100
AcDbAlignedDimension
 13
804.9094289290872
 23
171.7923954938967
 33
0.0
 14
644.9094289290871
 24
175.1674907912739
 34
0.0
100
AcDbRotatedDimension
1001
ACAD
1000
DSTYLE
1002
{
1070
    40
1040
2.0
1070
    41
1040
3.5
1070
    42
1040
1.0
1070
    43
1040
7.0
1070
    44
1040
1.0
1070
    73
1070
     0
1070
    74
1070
     0
1070
    77
1070
     1
1070
    78
1070
     8
1070
    79
1070
     2
1070
   140
1040
3.5
1070
   141
1040
1.5
1070
   146
1040
0.5142857142857144
1070
   147
1040
1.5
1070
   172
1070
     1
1070
   178
1070
     1
1070
   179
1070
     2
1070
   271
1070
     2
1070
   272
1070
     2
1070
   284
1070
     8
1070
   285
1070
     8
1070
   286
1070
     8
1002
}
  0
ARC
  5
E4F
330
1E
100
AcDbEntity
  8
STEMPEL
100
AcDbCircle
 10
653.3781483517583
 20
191.0508402913029
 30
0.0
 40
18.0
100
AcDbArc
 50
235.228055968051
 51
270.0
  0
ARC
  5
E50
330
1E
100
AcDbEntity
  8
STEMPEL
100
AcDbCircle
 10
653.3781483517583
 20
298.0508402913029
 30
0.0
 40
18.0
100
AcDbArc
 50
90.0
 51
124.771944031949
  0
ARC
  5
E51
330
1E
100
AcDbEntity
  8
STEMPEL
100
AcDbCircle
 10
653.3781483517583
 20
362.0753712025133
 30
0.0
 40
18.0
100
AcDbArc
 50
235.228055968051
 51
270.0
  0
ARC
  5
E52
330
1E
100
AcDbEntity
  8
STEMPEL
100
AcDbCircle
 10
653.3781483517583
 20
469.0753712025133
 30
0.0
 40
18.0
100
AcDbArc
 50
90.0
 51
124.771944031949
  0
LINE
  5
E53
330
1E
100
AcDbEntity
  8
MITTEL
100
AcDbLine
 10
809.9094289290871
 20
415.5753712025131
 30
0.0
 11
73.12054350613357
 21
415.5753712025133
 31
0.0
  0
ARC
  5
112F
330
1E
100
AcDbEntity
  8
STEMPEL
100
AcDbCircle
 10
173.7035487503919
 20
474.0753712025133
 30
0.0
 40
8.0
100
AcDbArc
 50
90.0
 51
131.4096221092697
  0
ARC
  5
1131
330
1E
100
AcDbEntity
  8
STEMPEL
100
AcDbCircle
 10
173.7035487503914
 20
357.0753712025133
 30
0.0
 40
8.0
100
AcDbArc
 50
228.5903778907302
 51
270.0
  0
ARC
  5
1132
330
1E
100
AcDbEntity
  8
STEMPEL
100
AcDbCircle
 10
163.1205435061336
 20
486.0753712025133
 30
0.0
 40
8.0
100
AcDbArc
 50
270.0
 51
311.4096221092697
  0
ARC
  5
1133
330
1E
100
AcDbEntity
  8
STEMPEL
100
AcDbCircle
 10
163.1205435061336
 20
345.0753712025133
 30
0.0
 40
8.0
100
AcDbArc
 50
48.59037789073024
 51
89.99999999999998
  0
LINE
  5
1134
330
1E
100
AcDbEntity
  8
STEMPEL
100
AcDbLine
 10
173.8261736948431
 20
349.0753712025134
 30
0.0
 11
173.7035487503913
 21
349.0753712025134
 31
0.0
  0
LINE
  5
1135
330
1E
100
AcDbEntity
  8
STEMPEL
100
AcDbLine
 10
173.826173694843
 20
482.0753712025133
 30
0.0
 11
173.7035487503918
 21
482.0753712025133
 31
0.0
  0
LINE
  5
1136
330
1E
100
AcDbEntity
  8
STEMPEL
100
AcDbLine
 10
87.52738121281481
 20
353.0753712025135
 30
0.0
 11
78.12054350613363
 21
354.3877011554023
 31
0.0
  0
LINE
  5
1137
330
1E
100
AcDbEntity
  8
STEMPEL
100
AcDbLine
 10
87.52738121281522
 20
478.0753712025133
 30
0.0
 11
78.12054350613357
 21
476.7630412496244
 31
0.0
  0
LINE
  5
1138
330
1E
100
AcDbEntity
  8
HILF
100
AcDbLine
 10
87.52738121281533
 20
475.5753712025133
 30
0.0
 11
87.52738121281533
 21
355.5753712025135
 31
0.0
  0
LINE
  5
1139
330
1E
100
AcDbEntity
  8
HILF
100
AcDbLine
 10
163.1205435061336
 20
475.5753712025133
 30
0.0
 11
163.1205435061336
 21
355.5753712025134
 31
0.0
  0
LINE
  5
113A
330
1E
100
AcDbEntity
  8
STEMPEL
100
AcDbLine
 10
163.1205435061336
 20
353.0753712025134
 30
0.0
 11
87.52738121281481
 21
353.0753712025135
 31
0.0
  0
LINE
  5
113B
330
1E
100
AcDbEntity
  8
STEMPEL
100
AcDbLine
 10
163.1205435061336
 20
478.0753712025133
 30
0.0
 11
87.52738121281522
 21
478.0753712025133
 31
0.0
  0
LINE
  5
113C
330
1E
100
AcDbEntity
  8
STEMPEL
100
AcDbLine
 10
78.12054350613357
 20
476.7630412496244
 30
0.0
 11
78.12054350613363
 21
354.3877011554023
 31
0.0
  0
LINE
  5
113D
330
1E
100
AcDbEntity
  8
STEMPEL
100
AcDbLine
 10
78.12054350613355
 20
305.7385103384143
 30
0.0
 11
78.1205435061336
 21
183.363170244192
 31
0.0
  0
LINE
  5
113E
330
1E
100
AcDbEntity
  8
STEMPEL
100
AcDbLine
 10
163.1205435061335
 20
307.0508402913031
 30
0.0
 11
87.52738121281518
 21
307.0508402913031
 31
0.0
  0
LINE
  5
113F
330
1E
100
AcDbEntity
  8
STEMPEL
100
AcDbLine
 10
163.1205435061335
 20
182.0508402913031
 30
0.0
 11
87.52738121281479
 21
182.0508402913032
 31
0.0
  0
LINE
  5
1140
330
1E
100
AcDbEntity
  8
HILF
100
AcDbLine
 10
163.1205435061335
 20
304.5508402913031
 30
0.0
 11
163.1205435061335
 21
184.5508402913031
 31
0.0
  0
LINE
  5
1141
330
1E
100
AcDbEntity
  8
HILF
100
AcDbLine
 10
87.52738121281529
 20
304.5508402913031
 30
0.0
 11
87.52738121281529
 21
184.5508402913032
 31
0.0
  0
LINE
  5
1142
330
1E
100
AcDbEntity
  8
STEMPEL
100
AcDbLine
 10
87.52738121281518
 20
307.0508402913031
 30
0.0
 11
78.12054350613355
 21
305.7385103384143
 31
0.0
  0
LINE
  5
1143
330
1E
100
AcDbEntity
  8
STEMPEL
100
AcDbLine
 10
87.52738121281479
 20
182.0508402913032
 30
0.0
 11
78.1205435061336
 21
183.363170244192
 31
0.0
  0
LINE
  5
1144
330
1E
100
AcDbEntity
  8
STEMPEL
100
AcDbLine
 10
173.826173694843
 20
311.0508402913031
 30
0.0
 11
173.7035487503918
 21
311.0508402913031
 31
0.0
  0
LINE
  5
1145
330
1E
100
AcDbEntity
  8
STEMPEL
100
AcDbLine
 10
173.8261736948431
 20
178.0508402913031
 30
0.0
 11
173.7035487503913
 21
178.0508402913031
 31
0.0
  0
ARC
  5
1146
330
1E
100
AcDbEntity
  8
STEMPEL
100
AcDbCircle
 10
163.1205435061336
 20
174.0508402913031
 30
0.0
 40
8.0
100
AcDbArc
 50
48.59037789073024
 51
89.99999999999998
  0
ARC
  5
1147
330
1E
100
AcDbEntity
  8
STEMPEL
100
AcDbCircle
 10
163.1205435061336
 20
315.0508402913031
 30
0.0
 40
8.0
100
AcDbArc
 50
270.0
 51
311.4096221092697
  0
ARC
  5
1148
330
1E
100
AcDbEntity
  8
STEMPEL
100
AcDbCircle
 10
173.7035487503914
 20
186.0508402913031
 30
0.0
 40
8.0
100
AcDbArc
 50
228.5903778907302
 51
270.0
  0
ARC
  5
1149
330
1E
100
AcDbEntity
  8
STEMPEL
100
AcDbCircle
 10
173.7035487503918
 20
303.0508402913031
 30
0.0
 40
8.0
100
AcDbArc
 50
90.0
 51
131.4096221092697
  0
DIMENSION
  5
1189
330
1E
100
AcDbEntity
  8
BEM
100
AcDbDimension
  2
*D6
 10
66.53901725612081
 20
182.0508402913032
 30
0.0
 11
60.03901725612078
 21
244.5508402913031
 31
0.0
 70
    32
  1
%%c<>
 71
     5
 42
124.9999999999998
  3
Standard
100
AcDbAlignedDimension
 13
87.52738121281518
 23
307.0508402913031
 33
0.0
 14
87.52738121281479
 24
182.0508402913032
 34
0.0
 50
90.0
100
AcDbRotatedDimension
1001
ACAD
1000
DSTYLE
1002
{
1070
    40
1040
2.0
1070
    41
1040
3.5
1070
    42
1040
1.0
1070
    43
1040
7.0
1070
    44
1040
1.0
1070
    73
1070
     0
1070
    74
1070
     0
1070
    77
1070
     1
1070
    78
1070
     8
1070
    79
1070
     2
1070
   140
1040
3.5
1070
   141
1040
1.5
1070
   146
1040
0.5142857142857144
1070
   147
1040
1.5
1070
   172
1070
     1
1070
   178
1070
     1
1070
   179
1070
     2
1070
   271
1070
     2
1070
   272
1070
     2
1070
   284
1070
     8
1070
   285
1070
     8
1070
   286
1070
     8
1002
}
  0
DIMENSION
  5
11A9
330
1E
100
AcDbEntity
  8
BEM
100
AcDbDimension
  2
*D7
 10
163.1205435061335
 20
163.3433694465461
 30
0.0
 11
120.6205435061336
 21
169.8433694465461
 31
0.0
 70
    32
 71
     5
 42
84.99999999999994
  3
Standard
100
AcDbAlignedDimension
 13
78.1205435061336
 23
183.363170244192
 33
0.0
 14
163.1205435061335
 24
182.0508402913031
 34
0.0
100
AcDbRotatedDimension
1001
ACAD
1000
DSTYLE
1002
{
1070
    40
1040
2.0
1070
    41
1040
3.5
1070
    42
1040
1.0
1070
    43
1040
7.0
1070
    44
1040
1.0
1070
    73
1070
     0
1070
    74
1070
     0
1070
    77
1070
     1
1070
    78
1070
     8
1070
    79
1070
     2
1070
   140
1040
3.5
1070
   141
1040
1.5
1070
   146
1040
0.5142857142857144
1070
   147
1040
1.5
1070
   172
1070
     1
1070
   178
1070
     1
1070
   179
1070
     2
1070
   271
1070
     2
1070
   272
1070
     2
1070
   284
1070
     8
1070
   285
1070
     8
1070
   286
1070
     8
1002
}
  0
LINE
  5
132D
330
1E
100
AcDbEntity
  8
TEXT
 62
     2
100
AcDbLine
 10
344.4103369000057
 20
493.9890945292304
 30
0.0
 11
303.2335291649823
 21
520.8793187280235
 31
0.0
  0
TEXT
  5
132E
330
1E
100
AcDbEntity
  8
TEXT
 62
     1
100
AcDbText
 10
204.0663042162521
 20
511.4729937891263
 30
0.0
 40
7.0
  1
EDV-Art.Nr. 55880.125X
 41
0.75
  7
GREEKS
100
AcDbText
  0
LINE
  5
132F
330
1E
100
AcDbEntity
  8
TEXT
 62
     2
100
AcDbLine
 10
203.8760305416781
 20
520.8793187280235
 30
0.0
 11
303.2335291649823
 21
520.8793187280235
 31
0.0
  0
TEXT
  5
1330
330
1E
100
AcDbEntity
  8
TEXT
 62
     1
100
AcDbText
 10
204.0663042162521
 20
524.25922414492
 30
0.0
 40
7.0
  1
Deckel DN125
 41
0.75
  7
GREEKS
100
AcDbText
  0
LINE
  5
1334
330
1E
100
AcDbEntity
  8
STEMPEL
100
AcDbLine
 10
490.5183487342618
 20
503.0753712025132
 30
0.0
 11
501.3005091239032
 21
503.0753712025133
 31
0.0
  0
ARC
  5
1335
330
1E
100
AcDbEntity
  8
STEMPEL
100
AcDbCircle
 10
490.5178229629752
 20
500.1484202646498
 30
0.0
 40
2.926950985085932
100
AcDbArc
 50
52.11936428281847
 51
121.4691945238291
  0
ARC
  5
1336
330
1E
100
AcDbEntity
  8
STEMPEL
100
AcDbCircle
 10
495.9094289290872
 20
505.5253712025133
 30
0.0
 40
5.65
100
AcDbArc
 50
0.0
 51
180.0
  0
LINE
  5
1337
330
1E
100
AcDbEntity
  8
STEMPEL
100
AcDbLine
 10
490.5183487342618
 20
496.5753712025132
 30
0.0
 11
501.3005091239032
 21
496.5753712025132
 31
0.0
  0
ARC
  5
1338
330
1E
100
AcDbEntity
  8
STEMPEL
100
AcDbCircle
 10
490.5178229629752
 20
499.5023221403767
 30
0.0
 40
2.926950985085932
100
AcDbArc
 50
238.5308054768418
 51
307.8806357171815
  0
LINE
  5
1339
330
1E
100
AcDbEntity
  8
STEMPEL
100
AcDbLine
 10
482.5360317566829
 20
484.5753712025131
 30
0.0
 11
491.9094289290871
 21
484.5753712025131
 31
0.0
  0
LINE
  5
133A
330
1E
100
AcDbEntity
  8
STEMPEL
100
AcDbLine
 10
505.5848628331889
 20
479.5753712025134
 30
0.0
 11
487.4094289290872
 21
479.5753712025134
 31
0.0
  0
INSERT
  5
133B
330
1E
100
AcDbEntity
  8
SCHRAFF
100
AcDbBlockReference
  2
*X8
 10
79.75293111033534
 20
-30.49274479822691
 30
0.0
1001
ACAD
1000
HATCH
1002
{
1070
    16
1000
_U,I
1040
2.0
1040
2.356194490192344
1070
     0
1002
}
  0
POLYLINE
  5
133C
330
1E
100
AcDbEntity
  8
HILF
100
AcDb2dPolyline
 66
     1
 10
0.0
 20
0.0
 30
0.0
 70
     4
 75
     6
  0
VERTEX
  5
133D
330
133C
100
AcDbEntity
  8
HILF
100
AcDbVertex
100
AcDb2dVertex
 10
506.6686124899757
 20
482.0753712025133
 30
0.0
 70
    16
  0
VERTEX
  5
133E
330
133C
100
AcDbEntity
  8
HILF
100
AcDbVertex
100
AcDb2dVertex
 10
506.6686124899758
 20
482.0753712025133
 30
0.0
 70
     8
  0
VERTEX
  5
133F
330
133C
100
AcDbEntity
  8
HILF
100
AcDbVertex
100
AcDb2dVertex
 10
503.9443014089301
 20
475.7909145847301
 30
0.0
 70
     8
  0
VERTEX
  5
1340
330
133C
100
AcDbEntity
  8
HILF
100
AcDbVertex
100
AcDb2dVertex
 10
500.7143383999452
 20
470.3701936896093
 30
0.0
 70
     8
  0
VERTEX
  5
1341
330
133C
100
AcDbEntity
  8
HILF
100
AcDbVertex
100
AcDb2dVertex
 10
497.0351435676016
 20
465.7134019819833
 30
0.0
 70
     8
  0
VERTEX
  5
1342
330
133C
100
AcDbEntity
  8
HILF
100
AcDbVertex
100
AcDb2dVertex
 10
492.9631370164797
 20
461.7207329266848
 30
0.0
 70
     8
  0
VERTEX
  5
1343
330
133C
100
AcDbEntity
  8
HILF
100
AcDbVertex
100
AcDb2dVertex
 10
488.5547388511599
 20
458.2923799885461
 30
0.0
 70
     8
  0
VERTEX
  5
1344
330
133C
100
AcDbEntity
  8
HILF
100
AcDbVertex
100
AcDb2dVertex
 10
483.866369176223
 20
455.3285366323999
 30
0.0
 70
     8
  0
VERTEX
  5
1345
330
133C
100
AcDbEntity
  8
HILF
100
AcDbVertex
100
AcDb2dVertex
 10
478.9544480962491
 20
452.7293963230787
 30
0.0
 70
     8
  0
VERTEX
  5
1346
330
133C
100
AcDbEntity
  8
HILF
100
AcDbVertex
100
AcDb2dVertex
 10
473.875395715819
 20
450.395152525415
 30
0.0
 70
     8
  0
VERTEX
  5
1347
330
133C
100
AcDbEntity
  8
HILF
100
AcDbVertex
100
AcDb2dVertex
 10
468.6799546455003
 20
448.2447496652723
 30
0.0
 70
     8
  0
VERTEX
  5
1348
330
133C
100
AcDbEntity
  8
HILF
100
AcDbVertex
100
AcDb2dVertex
 10
463.3961575198094
 20
446.2721360126383
 30
0.0
 70
     8
  0
VERTEX
  5
1349
330
133C
100
AcDbEntity
  8
HILF
100
AcDbVertex
100
AcDb2dVertex
 10
458.0463594792502
 20
444.4900107985314
 30
0.0
 70
     8
  0
VERTEX
  5
134A
330
133C
100
AcDbEntity
  8
HILF
100
AcDbVertex
100
AcDb2dVertex
 10
452.6529156643261
 20
442.9110732539703
 30
0.0
 70
     8
  0
VERTEX
  5
134B
330
133C
100
AcDbEntity
  8
HILF
100
AcDbVertex
100
AcDb2dVertex
 10
447.238181215541
 20
441.5480226099735
 30
0.0
 70
     8
  0
VERTEX
  5
134C
330
133C
100
AcDbEntity
  8
HILF
100
AcDbVertex
100
AcDb2dVertex
 10
441.8245112733984
 20
440.4135580975595
 30
0.0
 70
     8
  0
VERTEX
  5
134D
330
133C
100
AcDbEntity
  8
HILF
100
AcDbVertex
100
AcDb2dVertex
 10
436.4342609784022
 20
439.5203789477472
 30
0.0
 70
     8
  0
VERTEX
  5
134E
330
133C
100
AcDbEntity
  8
HILF
100
AcDbVertex
100
AcDb2dVertex
 10
431.0897854710558
 20
438.8811843915547
 30
0.0
 70
     8
  0
VERTEX
  5
134F
330
133C
100
AcDbEntity
  8
HILF
100
AcDbVertex
100
AcDb2dVertex
 10
425.8077978812311
 20
438.505300427129
 30
0.0
 70
     8
  0
VERTEX
  5
1350
330
133C
100
AcDbEntity
  8
HILF
100
AcDbVertex
100
AcDb2dVertex
 10
420.5824432962716
 20
438.3885601211285
 30
0.0
 70
     8
  0
VERTEX
  5
1351
330
133C
100
AcDbEntity
  8
HILF
100
AcDbVertex
100
AcDb2dVertex
 10
415.4022247928889
 20
438.52342330734
 30
0.0
 70
     8
  0
VERTEX
  5
1352
330
133C
100
AcDbEntity
  8
HILF
100
AcDbVertex
100
AcDb2dVertex
 10
410.2556454477947
 20
438.9023498195501
 30
0.0
 70
     8
  0
VERTEX
  5
1353
330
133C
100
AcDbEntity
  8
HILF
100
AcDbVertex
100
AcDb2dVertex
 10
405.1312083377006
 20
439.5177994915455
 30
0.0
 70
     8
  0
VERTEX
  5
1354
330
133C
100
AcDbEntity
  8
HILF
100
AcDbVertex
100
AcDb2dVertex
 10
400.0174165393183
 20
440.3622321571129
 30
0.0
 70
     8
  0
VERTEX
  5
1355
330
133C
100
AcDbEntity
  8
HILF
100
AcDbVertex
100
AcDb2dVertex
 10
394.9027731293591
 20
441.4281076500389
 30
0.0
 70
     8
  0
VERTEX
  5
1356
330
133C
100
AcDbEntity
  8
HILF
100
AcDbVertex
100
AcDb2dVertex
 10
389.775781184535
 20
442.7078858041103
 30
0.0
 70
     8
  0
VERTEX
  5
1357
330
133C
100
AcDbEntity
  8
HILF
100
AcDbVertex
100
AcDb2dVertex
 10
384.6338503523775
 20
444.1929681836596
 30
0.0
 70
     8
  0
VERTEX
  5
1358
330
133C
100
AcDbEntity
  8
HILF
100
AcDbVertex
100
AcDb2dVertex
 10
379.510016563699
 20
445.8705232752022
 30
0.0
 70
     8
  0
VERTEX
  5
1359
330
133C
100
AcDbEntity
  8
HILF
100
AcDbVertex
100
AcDb2dVertex
 10
374.4462223201316
 20
447.7266612957996
 30
0.0
 70
     8
  0
VERTEX
  5
135A
330
133C
100
AcDbEntity
  8
HILF
100
AcDbVertex
100
AcDb2dVertex
 10
369.4844101233079
 20
449.7474924625132
 30
0.0
 70
     8
  0
VERTEX
  5
135B
330
133C
100
AcDbEntity
  8
HILF
100
AcDbVertex
100
AcDb2dVertex
 10
364.66652247486
 20
451.9191269924045
 30
0.0
 70
     8
  0
VERTEX
  5
135C
330
133C
100
AcDbEntity
  8
HILF
100
AcDbVertex
100
AcDb2dVertex
 10
360.0345018764205
 20
454.2276751025349
 30
0.0
 70
     8
  0
VERTEX
  5
135D
330
133C
100
AcDbEntity
  8
HILF
100
AcDbVertex
100
AcDb2dVertex
 10
355.6302908296215
 20
456.6592470099658
 30
0.0
 70
     8
  0
VERTEX
  5
135E
330
133C
100
AcDbEntity
  8
HILF
100
AcDbVertex
100
AcDb2dVertex
 10
351.4958318360956
 20
459.1999529317586
 30
0.0
 70
     8
  0
VERTEX
  5
135F
330
133C
100
AcDbEntity
  8
HILF
100
AcDbVertex
100
AcDb2dVertex
 10
347.6678866768819
 20
461.8364650387482
 30
0.0
 70
     8
  0
VERTEX
  5
1360
330
133C
100
AcDbEntity
  8
HILF
100
AcDbVertex
100
AcDb2dVertex
 10
344.1624942506475
 20
464.5577033168633
 30
0.0
 70
     8
  0
VERTEX
  5
1361
330
133C
100
AcDbEntity
  8
HILF
100
AcDbVertex
100
AcDb2dVertex
 10
340.9905127354663
 20
467.3531497058061
 30
0.0
 70
     8
  0
VERTEX
  5
1362
330
133C
100
AcDbEntity
  8
HILF
100
AcDbVertex
100
AcDb2dVertex
 10
338.1628003094123
 20
470.2122861452789
 30
0.0
 70
     8
  0
VERTEX
  5
1363
330
133C
100
AcDbEntity
  8
HILF
100
AcDbVertex
100
AcDb2dVertex
 10
335.6902151505593
 20
473.1245945749837
 30
0.0
 70
     8
  0
VERTEX
  5
1364
330
133C
100
AcDbEntity
  8
HILF
100
AcDbVertex
100
AcDb2dVertex
 10
333.5836154369813
 20
476.079556934623
 30
0.0
 70
     8
  0
VERTEX
  5
1365
330
133C
100
AcDbEntity
  8
HILF
100
AcDbVertex
100
AcDb2dVertex
 10
331.8538593467523
 20
479.0666551638988
 30
0.0
 70
     8
  0
VERTEX
  5
1366
330
133C
100
AcDbEntity
  8
HILF
100
AcDbVertex
100
AcDb2dVertex
 10
330.5118050579462
 20
482.0753712025133
 30
0.0
 70
     8
  0
VERTEX
  5
1367
330
133C
100
AcDbEntity
  8
HILF
100
AcDbVertex
100
AcDb2dVertex
 10
500.1281367151778
 20
464.0764556713928
 30
0.0
 70
    16
  0
VERTEX
  5
1368
330
133C
100
AcDbEntity
  8
HILF
100
AcDbVertex
100
AcDb2dVertex
 10
475.0563151384944
 20
448.634192776188
 30
0.0
 70
    16
  0
VERTEX
  5
1369
330
133C
100
AcDbEntity
  8
HILF
100
AcDbVertex
100
AcDb2dVertex
 10
430.3630662374171
 20
436.0365569287429
 30
0.0
 70
    16
  0
VERTEX
  5
136A
330
133C
100
AcDbEntity
  8
HILF
100
AcDbVertex
100
AcDb2dVertex
 10
390.0301327381718
 20
440.5066858581689
 30
0.0
 70
    16
  0
VERTEX
  5
136B
330
133C
100
AcDbEntity
  8
HILF
100
AcDbVertex
100
AcDb2dVertex
 10
348.1710899171054
 20
458.1840144632432
 30
0.0
 70
    16
  0
VERTEX
  5
136C
330
133C
100
AcDbEntity
  8
HILF
100
AcDbVertex
100
AcDb2dVertex
 10
333.5640290456885
 20
474.032654074021
 30
0.0
 70
    16
  0
VERTEX
  5
136D
330
133C
100
AcDbEntity
  8
HILF
100
AcDbVertex
100
AcDb2dVertex
 10
330.5118050579462
 20
482.0753712025133
 30
0.0
 70
    16
  0
SEQEND
  5
136E
330
133C
100
AcDbEntity
  8
HILF
  0
LINE
  5
136F
330
1E
100
AcDbEntity
  8
STEMPEL
100
AcDbLine
 10
346.2082864134503
 20
496.5753712025132
 30
0.0
 11
503.6105714447243
 21
496.5753712025135
 31
0.0
  0
INSERT
  5
1370
330
1E
100
AcDbEntity
  8
SCHRAFF
100
AcDbBlockReference
  2
*X9
 10
256.4287870326758
 20
193.2653705428197
 30
0.0
 41
-1.0
 50
270.0
1001
ACAD
1000
HATCH
1002
{
1070
    16
1000
ANSI31,I
1040
15.0
1040
0.0
1002
}
  0
LINE
  5
1371
330
1E
100
AcDbEntity
  8
STEMPEL
100
AcDbLine
 10
491.9094289290871
 20
494.5753712025132
 30
0.0
 11
468.7929361142759
 21
494.5753712025135
 31
0.0
  0
LINE
  5
1372
330
1E
100
AcDbEntity
  8
HILF
100
AcDbLine
 10
369.9035354103644
 20
480.0231436816787
 30
0.0
 11
404.3669600859586
 21
439.6439986435286
 31
0.0
  0
LINE
  5
1373
330
1E
100
AcDbEntity
  8
HILF
100
AcDbLine
 10
447.0418611774337
 20
441.5068826589441
 30
0.0
 11
479.9153224478099
 21
480.0231436816786
 31
0.0
  0
LINE
  5
1374
330
1E
100
AcDbEntity
  8
STEMPEL
100
AcDbLine
 10
383.4094289290873
 20
492.5753712025135
 30
0.0
 11
423.2094289290871
 21
492.5753712025135
 31
0.0
  0
LINE
  5
1375
330
1E
100
AcDbEntity
  8
STEMPEL
100
AcDbLine
 10
384.2485285602651
 20
490.5753712025135
 30
0.0
 11
465.57032929791
 21
490.5753712025135
 31
0.0
  0
INSERT
  5
1376
330
1E
100
AcDbEntity
  8
SCHRAFF
100
AcDbBlockReference
  2
*X11
 10
251.4290734642409
 20
184.0157741208939
 30
0.0
 41
-1.0
 50
270.0
1001
ACAD
1000
HATCH
1002
{
1070
    16
1000
ANSI31,I
1040
15.0
1040
0.0
1002
}
  0
LINE
  5
1377
330
1E
100
AcDbEntity
  8
STEMPEL
100
AcDbLine
 10
486.9094289290871
 20
489.5753712025133
 30
0.0
 11
362.9094289290873
 21
489.5753712025133
 31
0.0
  0
INSERT
  5
1378
330
1E
100
AcDbEntity
  8
SCHRAFF
100
AcDbBlockReference
  2
*X12
 10
76.19662220849011
 20
-0.0000000000001137
 30
0.0
1001
ACAD
1000
HATCH
1002
{
1070
    16
1000
NET,I
1040
10.0
1040
0.7853981633974483
1002
}
  0
LINE
  5
1379
330
1E
100
AcDbEntity
  8
STEMPEL
100
AcDbLine
 10
357.9094289290872
 20
484.5753712025135
 30
0.0
 11
367.2828261014919
 21
484.5753712025135
 31
0.0
  0
LINE
  5
137A
330
1E
100
AcDbEntity
  8
STEMPEL
100
AcDbLine
 10
357.9094289290872
 20
494.5753712025134
 30
0.0
 11
381.0259217438992
 21
494.5753712025135
 31
0.0
  0
LINE
  5
137B
330
1E
100
AcDbEntity
  8
STEMPEL
100
AcDbLine
 10
362.4094289290873
 20
479.5753712025134
 30
0.0
 11
331.6269437679323
 21
479.5753712025134
 31
0.0
  0
LINE
  5
137C
330
1E
100
AcDbEntity
  8
MITTEL
100
AcDbLine
 10
353.9094289290872
 20
516.1753712025126
 30
0.0
 11
353.9094289290872
 21
482.0753712025133
 31
0.0
  0
LINE
  5
137D
330
1E
100
AcDbEntity
  8
STEMPEL
100
AcDbLine
 10
346.7206209742711
 20
502.4894460134468
 30
0.0
 11
346.7206209742711
 21
497.1612963915798
 31
0.0
  0
LINE
  5
137E
330
1E
100
AcDbEntity
  8
STEMPEL
100
AcDbLine
 10
350.3150249516792
 20
502.4586382372435
 30
0.0
 11
350.3150249516792
 21
497.1921041677835
 31
0.0
  0
LINE
  5
137F
330
1E
100
AcDbEntity
  8
STEMPEL
100
AcDbLine
 10
357.5038329064952
 20
502.4586382372435
 30
0.0
 11
357.5038329064952
 21
497.1921041677835
 31
0.0
  0
LINE
  5
1380
330
1E
100
AcDbEntity
  8
STEMPEL
100
AcDbLine
 10
361.0982368839033
 20
502.4894460134468
 30
0.0
 11
361.0982368839033
 21
497.1612963915798
 31
0.0
  0
ARC
  5
1381
330
1E
100
AcDbEntity
  8
STEMPEL
100
AcDbCircle
 10
348.5178229629752
 20
499.5023221403767
 30
0.0
 40
2.926950985085932
100
AcDbArc
 50
238.5308054768418
 51
307.8806357171815
  0
LINE
  5
1382
330
1E
100
AcDbEntity
  8
STEMPEL
100
AcDbLine
 10
348.5183487342618
 20
496.5753712025132
 30
0.0
 11
359.3005091239032
 21
496.5753712025132
 31
0.0
  0
LINE
  5
1383
330
1E
100
AcDbEntity
  8
STEMPEL
100
AcDbLine
 10
346.7206209742711
 20
497.1612963915798
 30
0.0
 11
346.9898372913997
 21
497.0058642784154
 31
0.0
  0
ARC
  5
1384
330
1E
100
AcDbEntity
  8
STEMPEL
100
AcDbCircle
 10
359.3010348951992
 20
499.5023221403767
 30
0.0
 40
2.926950985085932
100
AcDbArc
 50
232.1193642828185
 51
301.4691945241509
  0
ARC
  5
1385
330
1E
100
AcDbEntity
  8
STEMPEL
100
AcDbCircle
 10
353.9094289290872
 20
507.3580764025132
 30
0.0
 40
10.7827052
100
AcDbArc
 50
250.5278273813862
 51
289.4721726186137
  0
LINE
  5
1386
330
1E
100
AcDbEntity
  8
STEMPEL
100
AcDbLine
 10
359.2958796538461
 20
496.5753712025132
 30
0.0
 11
359.3005091238929
 21
496.5753712025132
 31
0.0
  0
LINE
  5
1387
330
1E
100
AcDbEntity
  8
STEMPEL
100
AcDbLine
 10
361.0982368839033
 20
497.1612963915798
 30
0.0
 11
360.8290205668187
 21
497.0058642784407
 31
0.0
  0
LINE
  5
1388
330
1E
100
AcDbEntity
  8
STEMPEL
100
AcDbLine
 10
349.4094289290878
 20
496.5753712025135
 30
0.0
 11
349.4094289290873
 21
494.5753712025132
 31
0.0
  0
LINE
  5
1389
330
1E
100
AcDbEntity
  8
STEMPEL
100
AcDbLine
 10
358.4094289290878
 20
496.5753712025132
 30
0.0
 11
358.4094289290878
 21
494.5753712025132
 31
0.0
  0
LINE
  5
138A
330
1E
100
AcDbEntity
  8
HILF
100
AcDbLine
 10
350.9094289290872
 20
496.5753712025132
 30
0.0
 11
350.9094289290872
 21
482.0753712025133
 31
0.0
  0
LINE
  5
138B
330
1E
100
AcDbEntity
  8
STEMPEL
100
AcDbLine
 10
349.9094289290872
 20
496.5753712025132
 30
0.0
 11
349.9094289290872
 21
482.0753712025133
 31
0.0
  0
LINE
  5
138C
330
1E
100
AcDbEntity
  8
HILF
100
AcDbLine
 10
356.9094289290872
 20
496.5753712025132
 30
0.0
 11
356.9094289290872
 21
482.0753712025133
 31
0.0
  0
LINE
  5
138D
330
1E
100
AcDbEntity
  8
STEMPEL
100
AcDbLine
 10
357.9094289290872
 20
496.5753712025132
 30
0.0
 11
357.9094289290872
 21
482.0753712025133
 31
0.0
  0
LINE
  5
138E
330
1E
100
AcDbEntity
  8
STEMPEL
100
AcDbLine
 10
344.4170686041738
 20
484.5753712025135
 30
0.0
 11
345.2120917153587
 21
493.6625269452611
 31
0.0
  0
LINE
  5
138F
330
1E
100
AcDbEntity
  8
STEMPEL
100
AcDbLine
 10
342.4094289290873
 20
484.5753712025135
 30
0.0
 11
343.2197023191756
 21
493.8368384307564
 31
0.0
  0
ARC
  5
1390
330
1E
100
AcDbEntity
  8
STEMPEL
100
AcDbCircle
 10
346.2082864134503
 20
493.5753712025134
 30
0.0
 40
1.0
100
AcDbArc
 50
90.0
 51
175.0000000000002
  0
ARC
  5
1391
330
1E
100
AcDbEntity
  8
STEMPEL
100
AcDbCircle
 10
346.2082864134503
 20
493.5753712025134
 30
0.0
 40
3.0
100
AcDbArc
 50
90.0
 51
175.0000000000002
  0
LINE
  5
1392
330
1E
100
AcDbEntity
  8
STEMPEL
100
AcDbLine
 10
342.4094289290873
 20
484.5753712025135
 30
0.0
 11
349.9094289290872
 21
484.5753712025135
 31
0.0
  0
LINE
  5
1393
330
1E
100
AcDbEntity
  8
STEMPEL
100
AcDbLine
 10
346.2082864134503
 20
494.5753712025135
 30
0.0
 11
349.9094289290872
 21
494.5753712025134
 31
0.0
  0
ARC
  5
1394
330
1E
100
AcDbEntity
  8
STEMPEL
100
AcDbCircle
 10
353.9094289290872
 20
505.5253712025133
 30
0.0
 40
5.65
100
AcDbArc
 50
0.0
 51
180.0
  0
ARC
  5
1395
330
1E
100
AcDbEntity
  8
STEMPEL
100
AcDbCircle
 10
348.5178229629752
 20
500.1484202646498
 30
0.0
 40
2.926950985085932
100
AcDbArc
 50
52.11936428281847
 51
121.4691945238291
  0
LINE
  5
1396
330
1E
100
AcDbEntity
  8
STEMPEL
100
AcDbLine
 10
348.5183487342618
 20
503.0753712025132
 30
0.0
 11
359.3005091239032
 21
503.0753712025133
 31
0.0
  0
LINE
  5
1397
330
1E
100
AcDbEntity
  8
STEMPEL
100
AcDbLine
 10
346.7206209742711
 20
502.4894460134468
 30
0.0
 11
346.9898372913698
 21
502.6448781265939
 31
0.0
  0
ARC
  5
1398
330
1E
100
AcDbEntity
  8
STEMPEL
100
AcDbCircle
 10
359.3010348951992
 20
500.1484202646498
 30
0.0
 40
2.926950985085932
100
AcDbArc
 50
58.53080547515485
 51
127.8806357171815
  0
ARC
  5
1399
330
1E
100
AcDbEntity
  8
STEMPEL
100
AcDbCircle
 10
353.9094289290872
 20
492.2926660025133
 30
0.0
 40
10.7827052
100
AcDbArc
 50
70.52782738138624
 51
109.4721726186137
  0
LINE
  5
139A
330
1E
100
AcDbEntity
  8
STEMPEL
100
AcDbLine
 10
359.2958796538461
 20
503.0753712025133
 30
0.0
 11
359.3005091238929
 21
503.0753712025133
 31
0.0
  0
LINE
  5
139B
330
1E
100
AcDbEntity
  8
STEMPEL
100
AcDbLine
 10
361.0982368839033
 20
502.4894460134468
 30
0.0
 11
360.8290205668494
 21
502.6448781265679
 31
0.0
  0
LINE
  5
139C
330
1E
100
AcDbEntity
  8
STEMPEL
100
AcDbLine
 10
348.2594289290872
 20
505.5253712025133
 30
0.0
 11
348.2594289290872
 21
503.0639433038911
 31
0.0
  0
LINE
  5
139D
330
1E
100
AcDbEntity
  8
STEMPEL
100
AcDbLine
 10
359.5594289290872
 20
505.5253712025133
 30
0.0
 11
359.5594289290872
 21
503.0639433038911
 31
0.0
  0
ARC
  5
139E
330
1E
100
AcDbEntity
  8
STEMPEL
100
AcDbCircle
 10
384.2485285602651
 20
493.5753712025134
 30
0.0
 40
3.0
100
AcDbArc
 50
189.9999999999986
 51
270.0
  0
ARC
  5
139F
330
1E
100
AcDbEntity
  8
STEMPEL
100
AcDbCircle
 10
380.1868221127218
 20
493.5753712025133
 30
0.0
 40
3.0
100
AcDbArc
 50
9.999999999998609
 51
90.0
  0
LINE
  5
13A0
330
1E
100
AcDbEntity
  8
STEMPEL
100
AcDbLine
 10
383.4094289290873
 20
492.5753712025135
 30
0.0
 11
383.1412453717588
 21
494.0963157355141
 31
0.0
  0
LINE
  5
13A1
330
1E
100
AcDbEntity
  8
STEMPEL
100
AcDbLine
 10
370.9094289290872
 20
489.5753712025133
 30
0.0
 11
370.9094289290872
 21
488.0753712025134
 31
0.0
  0
LINE
  5
13A2
330
1E
100
AcDbEntity
  8
STEMPEL
100
AcDbLine
 10
379.9094289290873
 20
494.5753712025133
 30
0.0
 11
379.9094289290873
 21
489.5753712025133
 31
0.0
  0
ARC
  5
13A3
330
1E
100
AcDbEntity
  8
STEMPEL
100
AcDbCircle
 10
362.4094289290873
 20
488.0753712025134
 30
0.0
 40
6.0
100
AcDbArc
 50
270.0
 51
0.0
  0
LINE
  5
13A4
330
1E
100
AcDbEntity
  8
STEMPEL
100
AcDbLine
 10
368.4094289290872
 20
489.5753712025133
 30
0.0
 11
368.4094289290873
 21
488.0753712025134
 31
0.0
  0
LINE
  5
13A5
330
1E
100
AcDbEntity
  8
STEMPEL
100
AcDbLine
 10
362.9094289290873
 20
494.5753712025133
 30
0.0
 11
362.9094289290873
 21
489.5753712025133
 31
0.0
  0
ARC
  5
13A6
330
1E
100
AcDbEntity
  8
STEMPEL
100
AcDbCircle
 10
362.4094289290873
 20
488.0753712025134
 30
0.0
 40
8.5
100
AcDbArc
 50
270.0
 51
0.0
  0
LINE
  5
13A7
330
1E
100
AcDbEntity
  8
STEMPEL
100
AcDbLine
 10
381.2941053012286
 20
493.0544266695129
 30
0.0
 11
381.0259217438992
 21
494.5753712025135
 31
0.0
  0
LINE
  5
13A8
330
1E
100
AcDbEntity
  8
STEMPEL
100
AcDbLine
 10
466.4094289290873
 20
492.5753712025135
 30
0.0
 11
431.3094289290874
 21
492.5753712025135
 31
0.0
  0
INSERT
  5
13A9
330
1E
100
AcDbEntity
  8
SCHRAFF
100
AcDbBlockReference
  2
*X10
 10
251.4290734642409
 20
184.0157741208939
 30
0.0
 41
-1.0
 50
270.0
1001
ACAD
1000
HATCH
1002
{
1070
    16
1000
ANSI31,I
1040
15.0
1040
0.0
1002
}
  0
LINE
  5
13AA
330
1E
100
AcDbEntity
  8
STEMPEL
100
AcDbLine
 10
426.4094289290871
 20
492.5753712025135
 30
0.0
 11
428.1094289290871
 21
492.5753712025135
 31
0.0
  0
LINE
  5
13AB
330
1E
100
AcDbEntity
  8
STEMPEL
100
AcDbLine
 10
428.1094289290871
 20
492.5753712025135
 30
0.0
 11
426.4094289290873
 21
492.5753712025135
 31
0.0
  0
LINE
  5
13AC
330
1E
100
AcDbEntity
  8
STEMPEL
100
AcDbLine
 10
428.1094289290871
 20
492.5753712025135
 30
0.0
 11
426.4094289290873
 21
492.5753712025135
 31
0.0
  0
LINE
  5
13AD
330
1E
100
AcDbEntity
  8
STEMPEL
100
AcDbLine
 10
429.709428929087
 20
493.5753712025134
 30
0.0
 11
426.5094289290872
 21
493.5753712025134
 31
0.0
  0
LINE
  5
13AE
330
1E
100
AcDbEntity
  8
STEMPEL
100
AcDbLine
 10
423.2094289290871
 20
493.5753712025134
 30
0.0
 11
418.5094289290872
 21
493.5753712025134
 31
0.0
  0
ARC
  5
13AF
330
1E
100
AcDbEntity
  8
STEMPEL
100
AcDbCircle
 10
418.5094289290872
 20
491.7953712025135
 30
0.0
 40
1.780000000000033
100
AcDbArc
 50
90.0
 51
154.0107664161727
  0
ARC
  5
13B0
330
1E
100
AcDbEntity
  8
STEMPEL
100
AcDbCircle
 10
424.8094289290872
 20
491.7953712025135
 30
0.0
 40
1.780000000000033
100
AcDbArc
 50
25.98923358382723
 51
154.0107664161727
  0
LINE
  5
13B1
330
1E
100
AcDbEntity
  8
STEMPEL
100
AcDbLine
 10
426.4094289290871
 20
493.5753712025134
 30
0.0
 11
423.2094289290871
 21
493.5753712025134
 31
0.0
  0
ARC
  5
13B2
330
1E
100
AcDbEntity
  8
STEMPEL
100
AcDbCircle
 10
429.709428929087
 20
491.7953712025135
 30
0.0
 40
1.780000000000033
100
AcDbArc
 50
25.98923358382723
 51
154.0107664161727
  0
LINE
  5
13B3
330
1E
100
AcDbEntity
  8
STEMPEL
100
AcDbLine
 10
488.7206209742712
 20
502.4894460134468
 30
0.0
 11
488.7206209742712
 21
497.1612963915798
 31
0.0
  0
LINE
  5
13B4
330
1E
100
AcDbEntity
  8
STEMPEL
100
AcDbLine
 10
466.4094289290873
 20
492.5753712025135
 30
0.0
 11
466.6776124864167
 21
494.0963157355141
 31
0.0
  0
ARC
  5
13B5
330
1E
100
AcDbEntity
  8
STEMPEL
100
AcDbCircle
 10
465.57032929791
 20
493.5753712025134
 30
0.0
 40
3.0
100
AcDbArc
 50
270.0
 51
350.0000000000014
  0
LINE
  5
13B6
330
1E
100
AcDbEntity
  8
STEMPEL
100
AcDbLine
 10
468.524752556947
 20
493.0544266695129
 30
0.0
 11
468.7929361142759
 21
494.5753712025135
 31
0.0
  0
ARC
  5
13B7
330
1E
100
AcDbEntity
  8
STEMPEL
100
AcDbCircle
 10
469.6320357454532
 20
493.5753712025133
 30
0.0
 40
3.0
100
AcDbArc
 50
90.0
 51
170.0000000000014
  0
LINE
  5
13B8
330
1E
100
AcDbEntity
  8
STEMPEL
100
AcDbLine
 10
469.9094289290872
 20
494.5753712025133
 30
0.0
 11
469.9094289290872
 21
489.5753712025133
 31
0.0
  0
LINE
  5
13B9
330
1E
100
AcDbEntity
  8
STEMPEL
100
AcDbLine
 10
488.7206209742712
 20
497.1612963915798
 30
0.0
 11
488.9898372913997
 21
497.0058642784154
 31
0.0
  0
LINE
  5
13BA
330
1E
100
AcDbEntity
  8
STEMPEL
100
AcDbLine
 10
491.4094289290873
 20
496.575371202513
 30
0.0
 11
491.4094289290873
 21
494.575371202513
 31
0.0
  0
LINE
  5
13BB
330
1E
100
AcDbEntity
  8
STEMPEL
100
AcDbLine
 10
486.9094289290872
 20
494.5753712025133
 30
0.0
 11
486.9094289290872
 21
489.5753712025133
 31
0.0
  0
LINE
  5
13BC
330
1E
100
AcDbEntity
  8
STEMPEL
100
AcDbLine
 10
481.4094289290872
 20
489.5753712025133
 30
0.0
 11
481.4094289290872
 21
488.0753712025134
 31
0.0
  0
LINE
  5
13BD
330
1E
100
AcDbEntity
  8
STEMPEL
100
AcDbLine
 10
478.9094289290871
 20
489.5753712025133
 30
0.0
 11
478.9094289290871
 21
488.0753712025134
 31
0.0
  0
ARC
  5
13BE
330
1E
100
AcDbEntity
  8
STEMPEL
100
AcDbCircle
 10
487.4094289290872
 20
488.0753712025134
 30
0.0
 40
8.5
100
AcDbArc
 50
180.0
 51
270.0
  0
ARC
  5
13BF
330
1E
100
AcDbEntity
  8
STEMPEL
100
AcDbCircle
 10
487.4094289290872
 20
488.0753712025134
 30
0.0
 40
6.0
100
AcDbArc
 50
180.0
 51
270.0
  0
LINE
  5
13C0
330
1E
100
AcDbEntity
  8
STEMPEL
100
AcDbLine
 10
490.2594289290871
 20
505.5253712025133
 30
0.0
 11
490.2594289290871
 21
503.0639433038911
 31
0.0
  0
LINE
  5
13C1
330
1E
100
AcDbEntity
  8
STEMPEL
100
AcDbLine
 10
488.7206209742712
 20
502.4894460134468
 30
0.0
 11
488.9898372913698
 21
502.6448781265939
 31
0.0
  0
LINE
  5
13C2
330
1E
100
AcDbEntity
  8
STEMPEL
100
AcDbLine
 10
503.0982368839032
 20
502.4894460134468
 30
0.0
 11
503.0982368839032
 21
497.1612963915798
 31
0.0
  0
LINE
  5
13C3
330
1E
100
AcDbEntity
  8
STEMPEL
100
AcDbLine
 10
499.5038329064952
 20
502.4586382372435
 30
0.0
 11
499.5038329064952
 21
497.1921041677835
 31
0.0
  0
LINE
  5
13C4
330
1E
100
AcDbEntity
  8
STEMPEL
100
AcDbLine
 10
492.3150249516792
 20
502.4586382372435
 30
0.0
 11
492.3150249516792
 21
497.1921041677835
 31
0.0
  0
LINE
  5
13C5
330
1E
100
AcDbEntity
  8
MITTEL
100
AcDbLine
 10
495.9094289290872
 20
516.1753712025126
 30
0.0
 11
495.9094289290872
 21
482.0753712025133
 31
0.0
  0
LINE
  5
13C6
330
1E
100
AcDbEntity
  8
STEMPEL
100
AcDbLine
 10
503.0982368839032
 20
497.1612963915798
 30
0.0
 11
502.8290205668186
 21
497.0058642784407
 31
0.0
  0
LINE
  5
13C7
330
1E
100
AcDbEntity
  8
STEMPEL
100
AcDbLine
 10
501.2958796538461
 20
496.5753712025132
 30
0.0
 11
501.3005091238929
 21
496.5753712025132
 31
0.0
  0
ARC
  5
13C8
330
1E
100
AcDbEntity
  8
STEMPEL
100
AcDbCircle
 10
495.9094289290872
 20
507.3580764025132
 30
0.0
 40
10.7827052
100
AcDbArc
 50
250.5278273813862
 51
289.4721726186137
  0
ARC
  5
13C9
330
1E
100
AcDbEntity
  8
STEMPEL
100
AcDbCircle
 10
501.3010348951992
 20
499.5023221403767
 30
0.0
 40
2.926950985085932
100
AcDbArc
 50
232.1193642828185
 51
301.4691945241509
  0
LINE
  5
13CA
330
1E
100
AcDbEntity
  8
STEMPEL
100
AcDbLine
 10
505.4017892540008
 20
484.575371202513
 30
0.0
 11
504.6067661428164
 21
493.6625269452607
 31
0.0
  0
LINE
  5
13CB
330
1E
100
AcDbEntity
  8
STEMPEL
100
AcDbLine
 10
507.4094289290878
 20
484.575371202513
 30
0.0
 11
506.5991555389995
 21
493.836838430756
 31
0.0
  0
LINE
  5
13CC
330
1E
100
AcDbEntity
  8
STEMPEL
100
AcDbLine
 10
500.4094289290874
 20
496.575371202513
 30
0.0
 11
500.4094289290874
 21
494.5753712025128
 31
0.0
  0
LINE
  5
13CD
330
1E
100
AcDbEntity
  8
STEMPEL
100
AcDbLine
 10
503.6105714447243
 20
494.575371202513
 30
0.0
 11
499.9094289290871
 21
494.5753712025131
 31
0.0
  0
LINE
  5
13CE
330
1E
100
AcDbEntity
  8
STEMPEL
100
AcDbLine
 10
499.9094289290871
 20
496.5753712025135
 30
0.0
 11
499.9094289290872
 21
482.0753712025133
 31
0.0
  0
LINE
  5
13CF
330
1E
100
AcDbEntity
  8
HILF
100
AcDbLine
 10
498.9094289290871
 20
496.5753712025135
 30
0.0
 11
498.9094289290871
 21
482.0753712025133
 31
0.0
  0
ARC
  5
13D0
330
1E
100
AcDbEntity
  8
STEMPEL
100
AcDbCircle
 10
503.6105714447243
 20
493.575371202513
 30
0.0
 40
1.0
100
AcDbArc
 50
4.999999999999743
 51
90.0
  0
ARC
  5
13D1
330
1E
100
AcDbEntity
  8
STEMPEL
100
AcDbCircle
 10
503.6105714447243
 20
493.575371202513
 30
0.0
 40
3.0
100
AcDbArc
 50
4.999999999999743
 51
90.0
  0
LINE
  5
13D2
330
1E
100
AcDbEntity
  8
STEMPEL
100
AcDbLine
 10
499.9094289290871
 20
484.5753712025131
 30
0.0
 11
507.4094289290878
 21
484.575371202513
 31
0.0
  0
LINE
  5
13D3
330
1E
100
AcDbEntity
  8
HILF
100
AcDbLine
 10
492.9094289290872
 20
496.5753712025135
 30
0.0
 11
492.9094289290872
 21
482.0753712025133
 31
0.0
  0
LINE
  5
13D4
330
1E
100
AcDbEntity
  8
STEMPEL
100
AcDbLine
 10
491.9094289290871
 20
496.5753712025134
 30
0.0
 11
491.9094289290872
 21
482.0753712025133
 31
0.0
  0
LINE
  5
13D5
330
1E
100
AcDbEntity
  8
STEMPEL
100
AcDbLine
 10
501.5594289290872
 20
505.5253712025133
 30
0.0
 11
501.5594289290872
 21
503.0639433038911
 31
0.0
  0
LINE
  5
13D6
330
1E
100
AcDbEntity
  8
STEMPEL
100
AcDbLine
 10
503.0982368839032
 20
502.4894460134468
 30
0.0
 11
502.8290205668494
 21
502.6448781265679
 31
0.0
  0
LINE
  5
13D7
330
1E
100
AcDbEntity
  8
STEMPEL
100
AcDbLine
 10
501.2958796538461
 20
503.0753712025133
 30
0.0
 11
501.3005091238929
 21
503.0753712025133
 31
0.0
  0
ARC
  5
13D8
330
1E
100
AcDbEntity
  8
STEMPEL
100
AcDbCircle
 10
495.9094289290872
 20
492.2926660025133
 30
0.0
 40
10.7827052
100
AcDbArc
 50
70.52782738138624
 51
109.4721726186137
  0
ARC
  5
13D9
330
1E
100
AcDbEntity
  8
STEMPEL
100
AcDbCircle
 10
501.3010348951992
 20
500.1484202646498
 30
0.0
 40
2.926950985085932
100
AcDbArc
 50
58.53080547515485
 51
127.8806357171815
  0
CIRCLE
  5
1421
330
1E
100
AcDbEntity
  8
STEMPEL
100
AcDbCircle
 10
496.4094289290872
 20
244.7692392370483
 30
0.0
 40
5.65
  0
INSERT
  5
1422
330
1E
100
AcDbEntity
  8
STEMPEL
100
AcDbBlockReference
  2
8DI931D
 10
496.4094289290872
 20
244.7692392370483
 30
0.0
  0
LINE
  5
1423
330
1E
100
AcDbEntity
  8
HILF
100
AcDbLine
 10
469.0864200795297
 20
290.8584363517092
 30
0.0
 11
498.6660660972286
 21
262.6397450023991
 31
0.0
  0
LINE
  5
1424
330
1E
100
AcDbEntity
  8
STEMPEL
100
AcDbLine
 10
469.7766855662555
 20
291.5819925401528
 30
0.0
 11
499.3563315839544
 21
263.3633011908431
 31
0.0
  0
LINE
  5
1425
330
1E
100
AcDbEntity
  8
HILF
100
AcDbLine
 10
469.0864200795297
 20
198.243244230897
 30
0.0
 11
498.6660660972286
 21
226.4619355802069
 31
0.0
  0
LINE
  5
1426
330
1E
100
AcDbEntity
  8
STEMPEL
100
AcDbLine
 10
469.7766855662555
 20
197.5196880424531
 30
0.0
 11
499.3563315839544
 21
225.7383793917631
 31
0.0
  0
LINE
  5
1427
330
1E
100
AcDbEntity
  8
MITTEL
100
AcDbLine
 10
424.9094289290871
 20
314.5508402913032
 30
0.0
 11
424.9094289290871
 21
174.550840291303
 31
0.0
  0
ARC
  5
1428
330
1E
100
AcDbEntity
  8
STEMPEL
100
AcDbCircle
 10
424.9094289290871
 20
244.550840291303
 30
0.0
 40
41.5
100
AcDbArc
 50
180.0
 51
270.0
  0
ARC
  5
1429
330
1E
100
AcDbEntity
  8
HILF
100
AcDbCircle
 10
424.9094289290871
 20
244.550840291303
 30
0.0
 40
45.0
100
AcDbArc
 50
180.0
 51
270.0
  0
LINE
  5
142A
330
1E
100
AcDbEntity
  8
HILF
100
AcDbLine
 10
380.7324377786447
 20
198.243244230897
 30
0.0
 11
351.1527917609453
 21
226.4619355802069
 31
0.0
  0
LINE
  5
142B
330
1E
100
AcDbEntity
  8
STEMPEL
100
AcDbLine
 10
380.0421722919189
 20
197.5196880424531
 30
0.0
 11
350.4625262742195
 21
225.7383793917631
 31
0.0
  0
ARC
  5
142C
330
1E
100
AcDbEntity
  8
HILF
100
AcDbCircle
 10
424.9094289290871
 20
244.550840291303
 30
0.0
 40
45.0
100
AcDbArc
 50
270.0
 51
0.0
  0
ARC
  5
142D
330
1E
100
AcDbEntity
  8
STEMPEL
100
AcDbCircle
 10
424.9094289290871
 20
244.550840291303
 30
0.0
 40
41.5
100
AcDbArc
 50
270.0
 51
0.0
  0
ARC
  5
142E
330
1E
100
AcDbEntity
  8
STEMPEL
100
AcDbCircle
 10
424.9094289290871
 20
244.550840291303
 30
0.0
 40
65.0
100
AcDbArc
 50
226.3488718828344
 51
313.6511281171656
  0
ARC
  5
142F
330
1E
100
AcDbEntity
  8
HILF
100
AcDbCircle
 10
424.9094289290871
 20
244.550840291303
 30
0.0
 40
64.0
100
AcDbArc
 50
226.3488718828344
 51
313.6511281171656
  0
ARC
  5
1430
330
1E
100
AcDbEntity
  8
HILF
100
AcDbCircle
 10
424.9094289290871
 20
244.5508402913032
 30
0.0
 40
64.0
100
AcDbArc
 50
46.34887188283442
 51
133.6511281171656
  0
ARC
  5
1431
330
1E
100
AcDbEntity
  8
STEMPEL
100
AcDbCircle
 10
424.9094289290871
 20
244.5508402913032
 30
0.0
 40
65.0
100
AcDbArc
 50
46.34887188283442
 51
133.6511281171656
  0
ARC
  5
1432
330
1E
100
AcDbEntity
  8
HILF
100
AcDbCircle
 10
424.9094289290871
 20
244.550840291303
 30
0.0
 40
45.0
100
AcDbArc
 50
90.0
 51
180.0
  0
ARC
  5
1433
330
1E
100
AcDbEntity
  8
STEMPEL
100
AcDbCircle
 10
424.9094289290871
 20
244.550840291303
 30
0.0
 40
41.5
100
AcDbArc
 50
90.0
 51
180.0
  0
LINE
  5
1434
330
1E
100
AcDbEntity
  8
MITTEL
100
AcDbLine
 10
353.4094289290867
 20
233.5669385589455
 30
0.0
 11
353.4094289290867
 21
255.9715399151511
 31
0.0
  0
ARC
  5
1435
330
1E
100
AcDbEntity
  8
HILF
100
AcDbCircle
 10
368.4094289290872
 20
244.550840291303
 30
0.0
 40
25.0
100
AcDbArc
 50
133.6511281171656
 51
226.3488718828344
  0
ARC
  5
1436
330
1E
100
AcDbEntity
  8
STEMPEL
100
AcDbCircle
 10
368.4094289290872
 20
244.550840291303
 30
0.0
 40
26.0
100
AcDbArc
 50
133.6511281171656
 51
226.3488718828344
  0
CIRCLE
  5
1437
330
1E
100
AcDbEntity
  8
STEMPEL
100
AcDbCircle
 10
353.4094289290867
 20
244.7692392370483
 30
0.0
 40
5.65
  0
INSERT
  5
1438
330
1E
100
AcDbEntity
  8
STEMPEL
100
AcDbBlockReference
  2
8DI931D
 10
353.4094289290867
 20
244.550840291303
 30
0.0
  0
LINE
  5
1439
330
1E
100
AcDbEntity
  8
HILF
100
AcDbLine
 10
380.7324377786447
 20
290.8584363517092
 30
0.0
 11
351.1527917609453
 21
262.6397450023991
 31
0.0
  0
LINE
  5
143A
330
1E
100
AcDbEntity
  8
STEMPEL
100
AcDbLine
 10
380.0421722919189
 20
291.5819925401528
 30
0.0
 11
350.4625262742195
 21
263.3633011908431
 31
0.0
  0
LINE
  5
143B
330
1E
100
AcDbEntity
  8
STEMPEL
100
AcDbLine
 10
417.3844289290871
 20
266.1008402913029
 30
0.0
 11
417.3844289290871
 21
253.570840291303
 31
0.0
  0
ARC
  5
143C
330
1E
100
AcDbEntity
  8
STEMPEL
100
AcDbCircle
 10
424.9094289290871
 20
253.570840291303
 30
0.0
 40
7.524999999999954
100
AcDbArc
 50
298.708321022749
 51
125.0821845754675
  0
CIRCLE
  5
143D
330
1E
100
AcDbEntity
  8
STEMPEL
100
AcDbCircle
 10
424.9094289290871
 20
253.570840291303
 30
0.0
 40
4.324999999999954
  0
ARC
  5
143E
330
1E
100
AcDbEntity
  8
STEMPEL
100
AcDbCircle
 10
424.9094289290871
 20
244.550840291303
 30
0.0
 40
41.5
100
AcDbArc
 50
0.0
 51
90.0
  0
ARC
  5
143F
330
1E
100
AcDbEntity
  8
HILF
100
AcDbCircle
 10
424.9094289290871
 20
244.550840291303
 30
0.0
 40
45.0
100
AcDbArc
 50
0.0
 51
90.0
  0
LINE
  5
1440
330
1E
100
AcDbEntity
  8
STEMPEL
100
AcDbLine
 10
417.3844289290871
 20
235.4368280384746
 30
0.0
 11
417.3844289290871
 21
227.5708402913029
 31
0.0
  0
ARC
  5
1441
330
1E
100
AcDbEntity
  8
STEMPEL
100
AcDbCircle
 10
424.9094289290871
 20
227.5708402913029
 30
0.0
 40
7.524999999999954
100
AcDbArc
 50
180.0
 51
125.0821845754603
  0
CIRCLE
  5
1442
330
1E
100
AcDbEntity
  8
STEMPEL
100
AcDbCircle
 10
424.9094289290871
 20
227.5708402913029
 30
0.0
 40
4.324999999999954
  0
ARC
  5
1443
330
1E
100
AcDbEntity
  8
STEMPEL
100
AcDbCircle
 10
428.1344289290869
 20
239.9708402913028
 30
0.0
 40
4.299999999999931
100
AcDbArc
 50
232.49196016292
 51
0.0
  0
LINE
  5
1444
330
1E
100
AcDbEntity
  8
STEMPEL
100
AcDbLine
 10
425.5162761142019
 20
236.5597882779338
 30
0.0
 11
421.0014317586789
 21
235.2801407424923
 31
0.0
  0
LINE
  5
1445
330
1E
100
AcDbEntity
  8
STEMPEL
100
AcDbLine
 10
421.2947885597004
 20
246.9708402913028
 30
0.0
 11
418.984428929087
 21
246.9708402913028
 31
0.0
  0
LINE
  5
1446
330
1E
100
AcDbEntity
  8
STEMPEL
100
AcDbLine
 10
423.8344289290869
 20
243.7708402913028
 30
0.0
 11
418.984428929087
 21
243.7708402913028
 31
0.0
  0
LINE
  5
1447
330
1E
100
AcDbEntity
  8
STEMPEL
100
AcDbLine
 10
423.8344289290869
 20
239.4792109846298
 30
0.0
 11
419.8221668049698
 21
238.3420109098607
 31
0.0
  0
LINE
  5
1448
330
1E
100
AcDbEntity
  8
STEMPEL
100
AcDbLine
 10
423.8344289290869
 20
243.7708402913028
 30
0.0
 11
423.8344289290869
 21
239.4792109846298
 31
0.0
  0
ARC
  5
1449
330
1E
100
AcDbEntity
  8
STEMPEL
100
AcDbCircle
 10
421.0844289290869
 20
234.7870773898648
 30
0.0
 40
0.5
100
AcDbArc
 50
99.55500261066188
 51
180.0
  0
ARC
  5
144A
330
1E
100
AcDbEntity
  8
STEMPEL
100
AcDbCircle
 10
420.3344289290871
 20
235.4368280384746
 30
0.0
 40
2.95
100
AcDbArc
 50
99.99999999999861
 51
180.0
  0
ARC
  5
144B
330
1E
100
AcDbEntity
  8
STEMPEL
100
AcDbCircle
 10
424.9094289290871
 20
253.570840291303
 30
0.0
 40
7.524999999999954
100
AcDbArc
 50
180.0
 51
241.2916789772509
  0
ARC
  5
144C
330
1E
100
AcDbEntity
  8
STEMPEL
100
AcDbCircle
 10
418.984428929087
 20
245.3708402913029
 30
0.0
 40
1.600000000000022
100
AcDbArc
 50
90.0
 51
270.0
  0
LINE
  5
144D
330
1E
100
AcDbEntity
  8
STEMPEL
100
AcDbLine
 10
420.5844289290869
 20
234.7870773898648
 30
0.0
 11
420.5844289290871
 21
233.7287620186391
 31
0.0
  0
LINE
  5
144E
330
1E
100
AcDbEntity
  8
STEMPEL
100
AcDbLine
 10
427.034428929087
 20
239.9708402913028
 30
0.0
 11
427.034428929087
 21
243.7708402913028
 31
0.0
  0
ARC
  5
144F
330
1E
100
AcDbEntity
  8
STEMPEL
100
AcDbCircle
 10
431.434428929087
 20
245.9708402913028
 30
0.0
 40
1.0
100
AcDbArc
 50
0.0
 51
90.0
  0
LINE
  5
1450
330
1E
100
AcDbEntity
  8
STEMPEL
100
AcDbLine
 10
432.434428929087
 20
245.9708402913028
 30
0.0
 11
432.4344289290868
 21
239.9708402913028
 31
0.0
  0
LINE
  5
1451
330
1E
100
AcDbEntity
  8
STEMPEL
100
AcDbLine
 10
429.234428929087
 20
243.7708402913028
 30
0.0
 11
429.234428929087
 21
239.9708402913028
 31
0.0
  0
LINE
  5
1452
330
1E
100
AcDbEntity
  8
STEMPEL
100
AcDbLine
 10
429.234428929087
 20
243.7708402913028
 30
0.0
 11
427.034428929087
 21
243.7708402913028
 31
0.0
  0
ARC
  5
1453
330
1E
100
AcDbEntity
  8
STEMPEL
100
AcDbCircle
 10
428.1344289290869
 20
239.9708402913028
 30
0.0
 40
1.099999999999931
100
AcDbArc
 50
180.0
 51
0.0
  0
LINE
  5
1454
330
1E
100
AcDbEntity
  8
STEMPEL
100
AcDbLine
 10
431.434428929087
 20
246.9708402913028
 30
0.0
 11
428.5240692984737
 21
246.9708402913028
 31
0.0
  0
LINE
  5
1455
330
1E
100
AcDbEntity
  8
STEMPEL
100
AcDbLine
 10
430.8344289290869
 20
265.8508402913029
 30
0.0
 11
421.0844289290871
 21
265.8508402913029
 31
0.0
  0
LINE
  5
1456
330
1E
100
AcDbEntity
  8
STEMPEL
100
AcDbLine
 10
430.8344289290869
 20
269.0508402913029
 30
0.0
 11
420.3344289290871
 21
269.0508402913029
 31
0.0
  0
LINE
  5
1457
330
1E
100
AcDbEntity
  8
STEMPEL
100
AcDbLine
 10
420.5844289290871
 20
265.3508402913029
 30
0.0
 11
420.5844289290871
 21
259.7287620186381
 31
0.0
  0
ARC
  5
1458
330
1E
100
AcDbEntity
  8
STEMPEL
100
AcDbCircle
 10
421.0844289290871
 20
265.3508402913029
 30
0.0
 40
0.5
100
AcDbArc
 50
90.0
 51
180.0
  0
ARC
  5
1459
330
1E
100
AcDbEntity
  8
STEMPEL
100
AcDbCircle
 10
420.3344289290871
 20
266.1008402913029
 30
0.0
 40
2.95
100
AcDbArc
 50
90.0
 51
180.0
  0
ARC
  5
145A
330
1E
100
AcDbEntity
  8
STEMPEL
100
AcDbCircle
 10
430.8344289290869
 20
267.450840291303
 30
0.0
 40
1.600000000000022
100
AcDbArc
 50
270.0
 51
90.0
  0
LINE
  5
145B
330
1E
100
AcDbEntity
  8
MITTEL
100
AcDbLine
 10
496.4094289290872
 20
233.5669385589455
 30
0.0
 11
496.4094289290872
 21
255.9715399151511
 31
0.0
  0
ARC
  5
145C
330
1E
100
AcDbEntity
  8
HILF
100
AcDbCircle
 10
481.4094289290872
 20
244.550840291303
 30
0.0
 40
25.0
100
AcDbArc
 50
313.6511281171656
 51
46.34887188283442
  0
ARC
  5
145D
330
1E
100
AcDbEntity
  8
STEMPEL
100
AcDbCircle
 10
481.4094289290872
 20
244.550840291303
 30
0.0
 40
26.0
100
AcDbArc
 50
313.6511281171656
 51
46.34887188283442
  0
TEXT
  5
1484
330
1E
100
AcDbEntity
  8
TEXT
 62
     1
100
AcDbText
 10
766.6628088850802
 20
87.37343075652526
 30
0.0
 40
7.0
  1
05554125W
 41
0.8
  7
GREEKS
 72
     1
 11
790.1294755517469
 21
87.37343075652526
 31
0.0
100
AcDbText
  0
TEXT
  5
1485
330
1E
100
AcDbEntity
  8
TEXT
 62
     1
100
AcDbText
 10
655.0390572473189
 20
87.3734307565253
 30
0.0
 40
7.0
  1
Regenstandrohr DN125
 41
0.75
  7
GREEKS
100
AcDbText
  0
TEXT
  5
1486
330
1E
100
AcDbEntity
  8
TEXT
100
AcDbText
 10
654.3410940884991
 20
72.10021383107516
 30
0.0
 40
5.0
  1
Auslaufende %%C125
 41
0.8
  7
GREEKS
100
AcDbText
  0
TEXT
  5
1487
330
1E
100
AcDbEntity
  8
TEXT
100
AcDbText
 10
654.3410940884991
 20
62.34559085209025
 30
0.0
 40
5.0
  1
mit Reinigungsöffnung
 41
0.8
  7
GREEKS
100
AcDbText
  0
TEXT
  5
1488
330
1E
100
AcDbEntity
  8
TEXT
100
AcDbText
 10
654.3410940884991
 20
52.59097337846049
 30
0.0
 40
5.0
  1
EDV-Art.Nr. 05554.125X
 41
0.8
  7
GREEKS
100
AcDbText
  0
TEXT
  5
1489
330
1E
100
AcDbEntity
  8
TEXT
100
AcDbText
 10
654.1676050109347
 20
43.31127624791498
 30
0.0
 40
4.0
  1
05554125W.DWG
 41
0.8
  7
GREEKS
100
AcDbText
  0
TEXT
  5
14A1
330
1E
100
AcDbEntity
  8
TEXT
 62
     1
100
AcDbText
 10
280.5605115011246
 20
84.08639450073517
 30
0.0
 40
7.0
  1
und innen beschichtet
 41
0.8
  7
GREEKS
100
AcDbText
  0
TEXT
  5
14A2
330
1E
100
AcDbEntity
  8
TEXT
 62
     1
100
AcDbText
 10
232.6107940637268
 20
94.80850631573863
 30
0.0
 40
7.0
  1
Werkstoff: E195 EN10305 feuerverzinkt
 41
0.8
  7
GREEKS
100
AcDbText
  0
ENDSEC
  0
SECTION
  2
OBJECTS
  0
DICTIONARY
  5
C
330
0
100
AcDbDictionary
281
     1
  3
ACAD_COLOR
350
11A
  3
ACAD_GROUP
350
D
  3
ACAD_LAYOUT
350
19
  3
ACAD_MATERIAL
350
119
  3
ACAD_MLINESTYLE
350
16
  3
ACAD_PLOTSETTINGS
350
18
  3
ACAD_PLOTSTYLENAME
350
E
  3
AcDbVariableDictionary
350
125
  0
DICTIONARY
  5
DB
330
1E
100
AcDbDictionary
280
     1
281
     1
  3
ACAD_LAYOUTSELFREF
360
10F
  0
DICTIONARY
  5
DD
330
1A
100
AcDbDictionary
280
     1
281
     1
  3
ACAD_LAYOUTSELFREF
360
10E
  0
DICTIONARY
  5
11A
102
{ACAD_REACTORS
330
C
102
}
330
C
100
AcDbDictionary
281
     1
  0
DICTIONARY
  5
D
102
{ACAD_REACTORS
330
C
102
}
330
C
100
AcDbDictionary
281
     1
  0
DICTIONARY
  5
19
102
{ACAD_REACTORS
330
C
102
}
330
C
100
AcDbDictionary
281
     1
  3
Layout1
350
1D
  3
Model
350
21
  0
DICTIONARY
  5
119
102
{ACAD_REACTORS
330
C
102
}
330
C
100
AcDbDictionary
281
     1
  0
DICTIONARY
  5
16
102
{ACAD_REACTORS
330
C
102
}
330
C
100
AcDbDictionary
281
     1
  3
Standard
350
17
  0
DICTIONARY
  5
18
102
{ACAD_REACTORS
330
C
102
}
330
C
100
AcDbDictionary
281
     1
  0
ACDBDICTIONARYWDFLT
  5
E
102
{ACAD_REACTORS
330
C
102
}
330
C
100
AcDbDictionary
281
     1
  3
Normal
350
F
100
AcDbDictionaryWithDefault
340
F
  0
DICTIONARY
  5
125
102
{ACAD_REACTORS
330
C
102
}
330
C
100
AcDbDictionary
281
     1
  3
DIMASSOC
350
126
  3
PROJECTNAME
350
127
  0
XRECORD
  5
10F
102
{ACAD_REACTORS
330
DB
102
}
330
DB
100
AcDbXrecord
280
     1
340
1E
  0
XRECORD
  5
10E
102
{ACAD_REACTORS
330
DD
102
}
330
DD
100
AcDbXrecord
280
     1
340
1A
  0
LAYOUT
  5
1D
102
{ACAD_REACTORS
330
19
102
}
330
19
100
AcDbPlotSettings
  1

  2
\\NT_WORK01\HP LaserJet 5000 PCL 6
  4

  6

 40
0.0
 41
0.0
 42
0.0
 43
0.0
 44
0.0
 45
0.0
 46
0.0
 47
0.0
 48
0.0
 49
0.0
140
0.0
141
0.0
142
1.0
143
1.0
 70
   688
 72
     0
 73
     0
 74
     5
  7

 75
    16
147
1.0
 76
     0
 77
     2
 78
   300
148
0.0
149
0.0
100
AcDbLayout
  1
Layout1
 70
     0
 71
     1
 10
0.0
 20
0.0
 11
12.0
 21
9.0
 12
0.0
 22
0.0
 32
0.0
 14
1.000000000000000E+20
 24
1.000000000000000E+20
 34
1.000000000000000E+20
 15
-1.000000000000000E+20
 25
-1.000000000000000E+20
 35
-1.000000000000000E+20
146
0.0
 13
0.0
 23
0.0
 33
0.0
 16
1.0
 26
0.0
 36
0.0
 17
0.0
 27
1.0
 37
0.0
 76
     0
330
1A
  0
LAYOUT
  5
21
102
{ACAD_REACTORS
330
19
102
}
330
19
100
AcDbPlotSettings
  1

  2
RICOH Aficio MP 2510 RPCS
  4
A4
  6

 40
5.027083396911621
 41
5.027085304260253
 42
5.027084350585937
 43
5.027069091796875
 44
209.9733276367187
 45
296.9259948730469
 46
0.0
 47
2.08
 48
351.473986
 49
751.054739
140
833.973755
141
990.405304
142
1.0
143
2.971200961074196
 70
 11956
 72
     1
 73
     1
 74
     2
  7
monochrome 1.ctb
 75
     0
147
0.3365642422377462
 76
     1
 77
     2
 78
   300
148
0.0
149
0.0
100
AcDbLayout
  1
Model
 70
     1
 71
     0
 10
0.0
 20
0.0
 11
12.0
 21
9.0
 12
0.0
 22
0.0
 32
0.0
 14
0.0
 24
0.0
 34
0.0
 15
0.0
 25
0.0
 35
0.0
146
0.0
 13
0.0
 23
0.0
 33
0.0
 16
1.0
 26
0.0
 36
0.0
 17
0.0
 27
1.0
 37
0.0
 76
     0
330
1E
  0
MLINESTYLE
  5
17
102
{ACAD_REACTORS
330
16
102
}
330
16
100
AcDbMlineStyle
  2
STANDARD
 70
     0
  3

 62
   256
 51
90.0
 52
90.0
 71
     2
 49
0.5
 62
   256
  6
BYLAYER
 49
-0.5
 62
   256
  6
BYLAYER
  0
ACDBPLACEHOLDER
  5
F
102
{ACAD_REACTORS
330
E
102
}
330
E
  0
DICTIONARYVAR
  5
126
102
{ACAD_REACTORS
330
125
102
}
330
125
100
DictionaryVariables
280
     0
  1
1
  0
DICTIONARYVAR
  5
127
102
{ACAD_REACTORS
330
125
102
}
330
125
100
DictionaryVariables
280
     0
  1

  0
ENDSEC
  0
EOF
