  0
SECTION
  2
HEADER
  9
$ACADVER
  1
AC1018
  9
$ACADMAINTVER
 70
     2
  9
$DWGCODEPAGE
  3
ANSI_1252
  9
$INSBASE
 10
0.0
 20
0.0
 30
0.0
  9
$EXTMIN
 10
-0.005322321162339
 20
-0.0037676166430174
 30
-0.0000000000000053
  9
$EXTMAX
 10
840.0149686494213
 20
594.0007696009176
 30
0.0000000000000099
  9
$LIMMIN
 10
0.0
 20
0.0
  9
$LIMMAX
 10
840.0
 20
594.0
  9
$ORTHOMODE
 70
     1
  9
$REGENMODE
 70
     1
  9
$FILLMODE
 70
     1
  9
$QTEXTMODE
 70
     0
  9
$MIRRTEXT
 70
     1
  9
$LTSCALE
 40
20.0
  9
$ATTMODE
 70
     1
  9
$TEXTSIZE
 40
3.5
  9
$TRACEWID
 40
1.0
  9
$TEXTSTYLE
  7
STANDARD
  9
$CLAYER
  8
VOLL
  9
$CELTYPE
  6
ByLayer
  9
$CECOLOR
 62
   256
  9
$CELTSCALE
 40
1.0
  9
$DISPSILH
 70
     0
  9
$DIMSCALE
 40
2.0
  9
$DIMASZ
 40
3.5
  9
$DIMEXO
 40
1.0
  9
$DIMDLI
 40
7.0
  9
$DIMRND
 40
0.0
  9
$DIMDLE
 40
0.0
  9
$DIMEXE
 40
1.0
  9
$DIMTP
 40
0.0
  9
$DIMTM
 40
0.0
  9
$DIMTXT
 40
3.5
  9
$DIMCEN
 40
1.5
  9
$DIMTSZ
 40
0.0
  9
$DIMTOL
 70
     0
  9
$DIMLIM
 70
     0
  9
$DIMTIH
 70
     0
  9
$DIMTOH
 70
     0
  9
$DIMSE1
 70
     0
  9
$DIMSE2
 70
     0
  9
$DIMTAD
 70
     1
  9
$DIMZIN
 70
     8
  9
$DIMBLK
  1

  9
$DIMASO
 70
     1
  9
$DIMSHO
 70
     0
  9
$DIMPOST
  1

  9
$DIMAPOST
  1

  9
$DIMALT
 70
     0
  9
$DIMALTD
 70
     2
  9
$DIMALTF
 40
25.4
  9
$DIMLFAC
 40
1.0
  9
$DIMTOFL
 70
     1
  9
$DIMTVP
 40
0.0
  9
$DIMTIX
 70
     0
  9
$DIMSOXD
 70
     0
  9
$DIMSAH
 70
     0
  9
$DIMBLK1
  1

  9
$DIMBLK2
  1

  9
$DIMSTYLE
  2
Standard
  9
$DIMCLRD
 70
     0
  9
$DIMCLRE
 70
     0
  9
$DIMCLRT
 70
     1
  9
$DIMTFAC
 40
0.5142857142857144
  9
$DIMGAP
 40
1.5
  9
$DIMJUST
 70
     0
  9
$DIMSD1
 70
     0
  9
$DIMSD2
 70
     0
  9
$DIMTOLJ
 70
     1
  9
$DIMTZIN
 70
     8
  9
$DIMALTZ
 70
     8
  9
$DIMALTTZ
 70
     8
  9
$DIMUPT
 70
     0
  9
$DIMDEC
 70
     2
  9
$DIMTDEC
 70
     2
  9
$DIMALTU
 70
     2
  9
$DIMALTTD
 70
     2
  9
$DIMTXSTY
  7
STANDARD
  9
$DIMAUNIT
 70
     0
  9
$DIMADEC
 70
     2
  9
$DIMALTRND
 40
0.0
  9
$DIMAZIN
 70
     2
  9
$DIMDSEP
 70
    46
  9
$DIMATFIT
 70
     3
  9
$DIMFRAC
 70
     0
  9
$DIMLDRBLK
  1

  9
$DIMLUNIT
 70
     2
  9
$DIMLWD
 70
    -2
  9
$DIMLWE
 70
    -2
  9
$DIMTMOVE
 70
     0
  9
$LUNITS
 70
     2
  9
$LUPREC
 70
     2
  9
$SKETCHINC
 40
1.0
  9
$FILLETRAD
 40
0.0
  9
$AUNITS
 70
     0
  9
$AUPREC
 70
     0
  9
$MENU
  1
ACAD
  9
$ELEVATION
 40
0.0
  9
$PELEVATION
 40
0.0
  9
$THICKNESS
 40
0.0
  9
$LIMCHECK
 70
     0
  9
$CHAMFERA
 40
0.0
  9
$CHAMFERB
 40
0.0
  9
$CHAMFERC
 40
0.0
  9
$CHAMFERD
 40
0.0
  9
$SKPOLY
 70
     0
  9
$TDCREATE
 40
2455397.867059838
  9
$TDUCREATE
 40
2455397.783726505
  9
$TDUPDATE
 40
2455455.410249942
  9
$TDUUPDATE
 40
2455455.326916609
  9
$TDINDWG
 40
0.0359242130
  9
$TDUSRTIMER
 40
0.0359242130
  9
$USRTIMER
 70
     1
  9
$ANGBASE
 50
0.0
  9
$ANGDIR
 70
     0
  9
$PDMODE
 70
     0
  9
$PDSIZE
 40
0.0
  9
$PLINEWID
 40
0.0
  9
$SPLFRAME
 70
     0
  9
$SPLINETYPE
 70
     6
  9
$SPLINESEGS
 70
     8
  9
$HANDSEED
  5
80C
  9
$SURFTAB1
 70
     6
  9
$SURFTAB2
 70
     6
  9
$SURFTYPE
 70
     6
  9
$SURFU
 70
     6
  9
$SURFV
 70
     6
  9
$UCSBASE
  2

  9
$UCSNAME
  2

  9
$UCSORG
 10
0.0
 20
0.0
 30
0.0
  9
$UCSXDIR
 10
1.0
 20
0.0
 30
0.0
  9
$UCSYDIR
 10
0.0
 20
1.0
 30
0.0
  9
$UCSORTHOREF
  2

  9
$UCSORTHOVIEW
 70
     0
  9
$UCSORGTOP
 10
0.0
 20
0.0
 30
0.0
  9
$UCSORGBOTTOM
 10
0.0
 20
0.0
 30
0.0
  9
$UCSORGLEFT
 10
0.0
 20
0.0
 30
0.0
  9
$UCSORGRIGHT
 10
0.0
 20
0.0
 30
0.0
  9
$UCSORGFRONT
 10
0.0
 20
0.0
 30
0.0
  9
$UCSORGBACK
 10
0.0
 20
0.0
 30
0.0
  9
$PUCSBASE
  2

  9
$PUCSNAME
  2

  9
$PUCSORG
 10
0.0
 20
0.0
 30
0.0
  9
$PUCSXDIR
 10
1.0
 20
0.0
 30
0.0
  9
$PUCSYDIR
 10
0.0
 20
1.0
 30
0.0
  9
$PUCSORTHOREF
  2

  9
$PUCSORTHOVIEW
 70
     0
  9
$PUCSORGTOP
 10
0.0
 20
0.0
 30
0.0
  9
$PUCSORGBOTTOM
 10
0.0
 20
0.0
 30
0.0
  9
$PUCSORGLEFT
 10
0.0
 20
0.0
 30
0.0
  9
$PUCSORGRIGHT
 10
0.0
 20
0.0
 30
0.0
  9
$PUCSORGFRONT
 10
0.0
 20
0.0
 30
0.0
  9
$PUCSORGBACK
 10
0.0
 20
0.0
 30
0.0
  9
$USERI1
 70
     0
  9
$USERI2
 70
     0
  9
$USERI3
 70
     0
  9
$USERI4
 70
     0
  9
$USERI5
 70
     0
  9
$USERR1
 40
0.0
  9
$USERR2
 40
0.0
  9
$USERR3
 40
0.0
  9
$USERR4
 40
0.0
  9
$USERR5
 40
0.0
  9
$WORLDVIEW
 70
     1
  9
$SHADEDGE
 70
     3
  9
$SHADEDIF
 70
    70
  9
$TILEMODE
 70
     1
  9
$MAXACTVP
 70
    16
  9
$PINSBASE
 10
0.0
 20
0.0
 30
0.0
  9
$PLIMCHECK
 70
     0
  9
$PEXTMIN
 10
1.000000000000000E+20
 20
1.000000000000000E+20
 30
1.000000000000000E+20
  9
$PEXTMAX
 10
-1.000000000000000E+20
 20
-1.000000000000000E+20
 30
-1.000000000000000E+20
  9
$PLIMMIN
 10
0.0
 20
0.0
  9
$PLIMMAX
 10
12.0
 20
9.0
  9
$UNITMODE
 70
     0
  9
$VISRETAIN
 70
     0
  9
$PLINEGEN
 70
     0
  9
$PSLTSCALE
 70
     0
  9
$TREEDEPTH
 70
  3020
  9
$CMLSTYLE
  2
Standard
  9
$CMLJUST
 70
     0
  9
$CMLSCALE
 40
1.0
  9
$PROXYGRAPHICS
 70
     1
  9
$MEASUREMENT
 70
     0
  9
$CELWEIGHT
370
    -1
  9
$ENDCAPS
280
     0
  9
$JOINSTYLE
280
     0
  9
$LWDISPLAY
290
     0
  9
$INSUNITS
 70
     0
  9
$HYPERLINKBASE
  1

  9
$STYLESHEET
  1
monochrome 1.ctb
  9
$XEDIT
290
     1
  9
$CEPSNTYPE
380
     0
  9
$PSTYLEMODE
290
     1
  9
$FINGERPRINTGUID
  2
{D68B0D0D-A558-11D7-B632-000102183313}
  9
$VERSIONGUID
  2
{D1B171C9-74ED-4B70-A804-548CB9B7B6DE}
  9
$EXTNAMES
290
     1
  9
$PSVPSCALE
 40
0.0
  9
$OLESTARTUP
290
     0
  9
$SORTENTS
280
   127
  9
$INDEXCTL
280
     0
  9
$HIDETEXT
280
     0
  9
$XCLIPFRAME
290
     0
  9
$HALOGAP
280
     0
  9
$OBSCOLOR
 70
   257
  9
$OBSLTYPE
280
     0
  9
$INTERSECTIONDISPLAY
280
     0
  9
$INTERSECTIONCOLOR
 70
   257
  9
$DIMASSOC
280
     1
  9
$PROJECTNAME
  1

  0
ENDSEC
  0
SECTION
  2
CLASSES
  0
CLASS
  1
ACDBDICTIONARYWDFLT
  2
AcDbDictionaryWithDefault
  3
ObjectDBX Classes
 90
        0
 91
        1
280
     0
281
     0
  0
CLASS
  1
DICTIONARYVAR
  2
AcDbDictionaryVar
  3
ObjectDBX Classes
 90
        0
 91
        2
280
     0
281
     0
  0
ENDSEC
  0
SECTION
  2
TABLES
  0
TABLE
  2
VPORT
  5
8
330
0
100
AcDbSymbolTable
 70
     2
  0
VPORT
  5
80B
330
8
100
AcDbSymbolTableRecord
100
AcDbViewportTableRecord
  2
*Active
 70
     0
 10
0.0
 20
0.0
 11
1.0
 21
1.0
 12
420.0048231641294
 22
296.9985009921373
 13
0.0
 23
0.0
 14
1.0
 24
1.0
 15
10.0
 25
10.0
 16
0.0
 26
0.0
 36
1.0
 17
0.0
 27
0.0
 37
0.0
 40
632.1168465161835
 41
1.336927223719676
 42
50.0
 43
0.0
 44
0.0
 50
0.0
 51
0.0
 71
     0
 72
  1500
 73
     1
 74
     0
 75
     0
 76
     0
 77
     0
 78
     0
281
     0
 65
     1
110
0.0
120
0.0
130
0.0
111
1.0
121
0.0
131
0.0
112
0.0
122
1.0
132
0.0
 79
     0
146
0.0
  0
ENDTAB
  0
TABLE
  2
LTYPE
  5
5
330
0
100
AcDbSymbolTable
 70
     2
  0
LTYPE
  5
13
330
5
100
AcDbSymbolTableRecord
100
AcDbLinetypeTableRecord
  2
ByBlock
 70
     0
  3

 72
    65
 73
     0
 40
0.0
  0
LTYPE
  5
14
330
5
100
AcDbSymbolTableRecord
100
AcDbLinetypeTableRecord
  2
ByLayer
 70
     0
  3

 72
    65
 73
     0
 40
0.0
  0
LTYPE
  5
15
330
5
100
AcDbSymbolTableRecord
100
AcDbLinetypeTableRecord
  2
Continuous
 70
     0
  3
Solid line
 72
    65
 73
     0
 40
0.0
  0
LTYPE
  5
25
330
5
100
AcDbSymbolTableRecord
100
AcDbLinetypeTableRecord
  2
STRICHPUNKT
 70
     0
  3
__ . __ . __ . __ . __ . __ . __ . __ . __ . __
 72
    65
 73
     4
 40
1.0
 49
0.5
 74
     0
 49
-0.25
 74
     0
 49
0.0
 74
     0
 49
-0.25
 74
     0
  0
ENDTAB
  0
TABLE
  2
LAYER
  5
2
330
0
100
AcDbSymbolTable
 70
     9
  0
LAYER
  5
10
330
2
100
AcDbSymbolTableRecord
100
AcDbLayerTableRecord
  2
0
 70
     0
 62
     7
  6
Continuous
370
    -3
390
F
  0
LAYER
  5
2B
330
2
100
AcDbSymbolTableRecord
100
AcDbLayerTableRecord
  2
VOLL
 70
     0
 62
     1
  6
Continuous
370
    -3
390
F
  0
LAYER
  5
2C
330
2
100
AcDbSymbolTableRecord
100
AcDbLayerTableRecord
  2
HILF
 70
     0
 62
     2
  6
Continuous
370
    -3
390
F
  0
LAYER
  5
2D
330
2
100
AcDbSymbolTableRecord
100
AcDbLayerTableRecord
  2
MITTEL
 70
     0
 62
     2
  6
STRICHPUNKT
370
    -3
390
F
  0
LAYER
  5
2F
330
2
100
AcDbSymbolTableRecord
100
AcDbLayerTableRecord
  2
BEM
 70
     0
 62
     7
  6
Continuous
370
    -3
390
F
  0
LAYER
  5
30
330
2
100
AcDbSymbolTableRecord
100
AcDbLayerTableRecord
  2
STEMPEL
 70
     0
 62
     3
  6
Continuous
370
    -3
390
F
  0
LAYER
  5
33
330
2
100
AcDbSymbolTableRecord
100
AcDbLayerTableRecord
  2
TEXT
 70
     0
 62
     7
  6
Continuous
370
    -3
390
F
  0
LAYER
  5
1AC
330
2
100
AcDbSymbolTableRecord
100
AcDbLayerTableRecord
  2
SCHRAFF
 70
     0
 62
     7
  6
Continuous
370
    -3
390
F
  0
LAYER
  5
1AD
330
2
100
AcDbSymbolTableRecord
100
AcDbLayerTableRecord
  2
DEFPOINTS
 70
     0
 62
     7
  6
Continuous
290
     0
370
    -3
390
F
  0
ENDTAB
  0
TABLE
  2
STYLE
  5
3
330
0
100
AcDbSymbolTable
 70
     2
  0
STYLE
  5
11
330
3
100
AcDbSymbolTableRecord
100
AcDbTextStyleTableRecord
  2
STANDARD
 70
     0
 40
0.0
 41
0.8
 50
0.0
 71
     0
 42
3.5
  3
simplex.shx
  4

  0
STYLE
  5
24
330
3
100
AcDbSymbolTableRecord
100
AcDbTextStyleTableRecord
  2
GREEKS
 70
     0
 40
0.0
 41
0.8
 50
0.0
 71
     0
 42
2.5
  3
SIMPLEX.shx
  4

  0
ENDTAB
  0
TABLE
  2
VIEW
  5
6
330
0
100
AcDbSymbolTable
 70
     0
  0
ENDTAB
  0
TABLE
  2
UCS
  5
7
330
0
100
AcDbSymbolTable
 70
     0
  0
ENDTAB
  0
TABLE
  2
APPID
  5
9
330
0
100
AcDbSymbolTable
 70
     1
  0
APPID
  5
12
330
9
100
AcDbSymbolTableRecord
100
AcDbRegAppTableRecord
  2
ACAD
 70
     0
  0
ENDTAB
  0
TABLE
  2
DIMSTYLE
  5
A
330
0
100
AcDbSymbolTable
 70
     1
100
AcDbDimStyleTable
 71
     1
340
A2
  0
DIMSTYLE
105
A2
102
{ACAD_REACTORS
330
746
330
744
330
6BD
330
69D
102
}
330
A
100
AcDbSymbolTableRecord
100
AcDbDimStyleTableRecord
  2
Standard
 70
     0
340
11
  0
ENDTAB
  0
TABLE
  2
BLOCK_RECORD
  5
1
330
0
100
AcDbSymbolTable
 70
     7
  0
BLOCK_RECORD
  5
1E
102
{ACAD_XDICTIONARY
360
DB
102
}
330
1
100
AcDbSymbolTableRecord
100
AcDbBlockTableRecord
  2
*Model_Space
340
21
  0
BLOCK_RECORD
  5
1A
102
{ACAD_XDICTIONARY
360
DD
102
}
330
1
100
AcDbSymbolTableRecord
100
AcDbBlockTableRecord
  2
*Paper_Space
340
1D
  0
BLOCK_RECORD
  5
22
330
1
100
AcDbSymbolTableRecord
100
AcDbBlockTableRecord
  2
LOGO
340
0
102
{BLKREFS
331
56
102
}
  0
BLOCK_RECORD
  5
23
330
1
100
AcDbSymbolTableRecord
100
AcDbBlockTableRecord
  2
LORO
340
0
102
{BLKREFS
331
9B
102
}
  0
BLOCK_RECORD
  5
5BF
330
1
100
AcDbSymbolTableRecord
100
AcDbBlockTableRecord
  2
*X2
340
0
102
{BLKREFS
331
6BC
102
}
  0
BLOCK_RECORD
  5
74A
330
1
100
AcDbSymbolTableRecord
100
AcDbBlockTableRecord
  2
*D3
340
0
  0
BLOCK_RECORD
  5
757
330
1
100
AcDbSymbolTableRecord
100
AcDbBlockTableRecord
  2
*D4
340
0
  0
BLOCK_RECORD
  5
764
330
1
100
AcDbSymbolTableRecord
100
AcDbBlockTableRecord
  2
*D5
340
0
  0
BLOCK_RECORD
  5
771
330
1
100
AcDbSymbolTableRecord
100
AcDbBlockTableRecord
  2
*D6
340
0
  0
ENDTAB
  0
ENDSEC
  0
SECTION
  2
BLOCKS
  0
BLOCK
  5
37
330
1E
100
AcDbEntity
  8
0
100
AcDbBlockBegin
  2
*Model_Space
 70
     0
 10
0.0
 20
0.0
 30
0.0
  3
*Model_Space
  1

  0
ENDBLK
  5
38
330
1E
100
AcDbEntity
  8
0
100
AcDbBlockEnd
  0
BLOCK
  5
35
330
1A
100
AcDbEntity
 67
     1
  8
0
100
AcDbBlockBegin
  2
*Paper_Space
 70
     0
 10
0.0
 20
0.0
 30
0.0
  3
*Paper_Space
  1

  0
ENDBLK
  5
36
330
1A
100
AcDbEntity
 67
     1
  8
0
100
AcDbBlockEnd
  0
BLOCK
  5
39
330
22
100
AcDbEntity
  8
0
100
AcDbBlockBegin
  2
LOGO
 70
     0
 10
0.0
 20
0.0
 30
0.0
  3
LOGO
  1

  0
ARC
  5
3A
330
22
100
AcDbEntity
  8
0
100
AcDbCircle
 10
11.59973089678112
 20
-9.271599258481501
 30
0.0
 40
4.5
100
AcDbArc
 50
270.0
 51
231.0575587310159
  0
LINE
  5
3B
330
22
100
AcDbEntity
  8
0
100
AcDbLine
 10
3.599730896781125
 20
-4.771599258481529
 30
0.0
 11
3.599730896781153
 21
-11.77159925848133
 31
0.0
  0
LINE
  5
3C
330
22
100
AcDbEntity
  8
0
100
AcDbLine
 10
2.599730896781125
 20
-4.771599258481529
 30
0.0
 11
2.599730896781153
 21
-11.77159925848133
 31
0.0
  0
CIRCLE
  5
3D
330
22
100
AcDbEntity
  8
0
100
AcDbCircle
 10
11.59973089678112
 20
-9.271599258481501
 30
0.0
 40
3.5
  0
ARC
  5
3E
330
22
100
AcDbEntity
  8
0
100
AcDbCircle
 10
31.59973089678115
 20
-9.271599258481472
 30
0.0
 40
4.5
100
AcDbArc
 50
270.0
 51
231.0575587310182
  0
LINE
  5
3F
330
22
100
AcDbEntity
  8
0
100
AcDbLine
 10
17.59973089678112
 20
-4.771599258481472
 30
0.0
 11
17.59973089678115
 21
-13.77159925848147
 31
0.0
  0
ARC
  5
40
330
22
100
AcDbEntity
  8
0
100
AcDbCircle
 10
22.59973089678116
 20
-7.271599258481472
 30
0.0
 40
2.5
100
AcDbArc
 50
293.1161887722295
 51
90.0
  0
CIRCLE
  5
41
330
22
100
AcDbEntity
  8
0
100
AcDbCircle
 10
31.59973089678115
 20
-9.271599258481472
 30
0.0
 40
3.5
  0
ARC
  5
42
330
22
100
AcDbEntity
  8
0
100
AcDbCircle
 10
4.599730896781153
 20
-11.77159925848133
 30
0.0
 40
1.0
100
AcDbArc
 50
180.0
 51
270.0
  0
ARC
  5
43
330
22
100
AcDbEntity
  8
0
100
AcDbCircle
 10
4.599730896781153
 20
-11.77159925848133
 30
0.0
 40
2.0
100
AcDbArc
 50
179.9999999999992
 51
270.0
  0
LINE
  5
44
330
22
100
AcDbEntity
  8
0
100
AcDbLine
 10
11.59973089678115
 20
-13.77159925848144
 30
0.0
 11
4.599730896781153
 21
-13.77159925848147
 31
0.0
  0
LINE
  5
45
330
22
100
AcDbEntity
  8
0
100
AcDbLine
 10
8.771303772034769
 20
-12.77159925848136
 30
0.0
 11
4.599730896781153
 21
-12.77159925848133
 31
0.0
  0
LINE
  5
46
330
22
100
AcDbEntity
  8
0
100
AcDbLine
 10
31.59973089678115
 20
-13.77159925848147
 30
0.0
 11
23.6715276665056
 21
-13.77159925848144
 31
0.0
  0
LINE
  5
47
330
22
100
AcDbEntity
  8
0
100
AcDbLine
 10
23.56565672307022
 20
-9.51278021337896
 30
0.0
 11
24.4388546544846
 21
-12.77159925848144
 31
0.0
  0
LINE
  5
48
330
22
100
AcDbEntity
  8
0
100
AcDbLine
 10
22.59973089678116
 20
-9.771599258481472
 30
0.0
 11
18.59973089678112
 21
-9.771599258481472
 31
0.0
  0
LINE
  5
49
330
22
100
AcDbEntity
  8
0
100
AcDbLine
 10
18.59973089678115
 20
-13.77159925848144
 30
0.0
 11
17.59973089678115
 21
-13.77159925848144
 31
0.0
  0
LINE
  5
4A
330
22
100
AcDbEntity
  8
0
100
AcDbLine
 10
18.59973089678115
 20
-9.771599258481472
 30
0.0
 11
18.59973089678115
 21
-13.77159925848144
 31
0.0
  0
LINE
  5
4B
330
22
100
AcDbEntity
  8
0
100
AcDbLine
 10
22.59973089678116
 20
-9.771599258481472
 30
0.0
 11
23.67152766650562
 21
-13.77159925848147
 31
0.0
  0
ARC
  5
4C
330
22
100
AcDbEntity
  8
0
100
AcDbCircle
 10
22.59973089678116
 20
-7.271599258481472
 30
0.0
 40
2.5
100
AcDbArc
 50
270.0
 51
270.0000000000007
  0
LINE
  5
4D
330
22
100
AcDbEntity
  8
0
100
AcDbLine
 10
28.77130377203494
 20
-12.77159925848147
 30
0.0
 11
24.43885465448463
 21
-12.77159925848144
 31
0.0
  0
LINE
  5
4E
330
22
100
AcDbEntity
  8
0
100
AcDbLine
 10
3.599730896781125
 20
-4.771599258481472
 30
0.0
 11
2.599730896781125
 21
-4.771599258481472
 31
0.0
  0
LINE
  5
4F
330
22
100
AcDbEntity
  8
0
100
AcDbLine
 10
22.59973089678116
 20
-8.771599258481472
 30
0.0
 11
18.59973089678115
 21
-8.771599258481472
 31
0.0
  0
LINE
  5
50
330
22
100
AcDbEntity
  8
0
100
AcDbLine
 10
22.59973089678116
 20
-5.771599258481472
 30
0.0
 11
18.59973089678115
 21
-5.771599258481472
 31
0.0
  0
LINE
  5
51
330
22
100
AcDbEntity
  8
0
100
AcDbLine
 10
22.59973089678116
 20
-4.771599258481472
 30
0.0
 11
17.59973089678115
 21
-4.771599258481472
 31
0.0
  0
LINE
  5
52
330
22
100
AcDbEntity
  8
0
100
AcDbLine
 10
18.59973089678115
 20
-5.771599258481472
 30
0.0
 11
18.59973089678115
 21
-8.771599258481472
 31
0.0
  0
ARC
  5
53
330
22
100
AcDbEntity
  8
0
100
AcDbCircle
 10
22.59973089678116
 20
-7.271599258481472
 30
0.0
 40
1.5
100
AcDbArc
 50
270.0
 51
90.0
  0
ENDBLK
  5
54
330
22
100
AcDbEntity
  8
0
100
AcDbBlockEnd
  0
BLOCK
  5
55
330
23
100
AcDbEntity
  8
0
100
AcDbBlockBegin
  2
LORO
 70
     0
 10
0.0
 20
0.0
 30
0.0
  3
LORO
  1

  0
INSERT
  5
56
330
23
100
AcDbEntity
  8
STEMPEL
100
AcDbBlockReference
  2
LOGO
 10
-1.748032802467321
 20
3.771489518552062
 30
0.0
  0
ENDBLK
  5
57
330
23
100
AcDbEntity
  8
0
100
AcDbBlockEnd
  0
BLOCK
  5
5C0
330
5BF
100
AcDbEntity
  8
0
100
AcDbBlockBegin
  2
*X2
 70
     1
 10
0.0
 20
0.0
 30
0.0
  3
*X2
  1

  0
LINE
  5
5C1
330
5BF
100
AcDbEntity
  8
0
 62
     0
100
AcDbLine
 10
155.474157621429
 20
446.8021514702866
 30
0.0
 11
157.9741576214291
 21
449.3021514702867
 31
0.0
  0
LINE
  5
5C2
330
5BF
100
AcDbEntity
  8
0
 62
     0
100
AcDbLine
 10
152.6457304966828
 20
446.8021514702866
 30
0.0
 11
155.1457304966829
 21
449.3021514702867
 31
0.0
  0
LINE
  5
5C3
330
5BF
100
AcDbEntity
  8
0
 62
     0
100
AcDbLine
 10
149.8173033719367
 20
446.8021514702866
 30
0.0
 11
152.3173033719367
 21
449.3021514702867
 31
0.0
  0
LINE
  5
5C4
330
5BF
100
AcDbEntity
  8
0
 62
     0
100
AcDbLine
 10
146.9888762471905
 20
446.8021514702866
 30
0.0
 11
149.4888762471906
 21
449.3021514702867
 31
0.0
  0
LINE
  5
5C5
330
5BF
100
AcDbEntity
  8
0
 62
     0
100
AcDbLine
 10
144.1604491224443
 20
446.8021514702865
 30
0.0
 11
146.6604491224443
 21
449.3021514702867
 31
0.0
  0
LINE
  5
5C6
330
5BF
100
AcDbEntity
  8
0
 62
     0
100
AcDbLine
 10
141.3320219976981
 20
446.8021514702865
 30
0.0
 11
143.8320219976982
 21
449.3021514702867
 31
0.0
  0
LINE
  5
5C7
330
5BF
100
AcDbEntity
  8
0
 62
     0
100
AcDbLine
 10
140.2343100059394
 20
448.532866603274
 30
0.0
 11
141.003594872952
 21
449.3021514702867
 31
0.0
  0
LINE
  5
5C8
330
5BF
100
AcDbEntity
  8
0
 62
     0
100
AcDbLine
 10
158.3025847461752
 20
446.8021514702866
 30
0.0
 11
160.8025847461753
 21
449.3021514702867
 31
0.0
  0
LINE
  5
5C9
330
5BF
100
AcDbEntity
  8
0
 62
     0
100
AcDbLine
 10
161.1310118709214
 20
446.8021514702866
 30
0.0
 11
163.6310118709215
 21
449.3021514702867
 31
0.0
  0
LINE
  5
5CA
330
5BF
100
AcDbEntity
  8
0
 62
     0
100
AcDbLine
 10
163.9594389956676
 20
446.8021514702866
 30
0.0
 11
166.4594389956677
 21
449.3021514702867
 31
0.0
  0
LINE
  5
5CB
330
5BF
100
AcDbEntity
  8
0
 62
     0
100
AcDbLine
 10
166.7878661204138
 20
446.8021514702866
 30
0.0
 11
169.2878661204139
 21
449.3021514702867
 31
0.0
  0
LINE
  5
5CC
330
5BF
100
AcDbEntity
  8
0
 62
     0
100
AcDbLine
 10
169.61629324516
 20
446.8021514702866
 30
0.0
 11
172.1162932451601
 21
449.3021514702867
 31
0.0
  0
ENDBLK
  5
5CD
330
5BF
100
AcDbEntity
  8
0
100
AcDbBlockEnd
  0
BLOCK
  5
755
330
74A
100
AcDbEntity
  8
0
100
AcDbBlockBegin
  2
*D3
 70
     1
 10
0.0
 20
0.0
 30
0.0
  3
*D3
  1

  0
LINE
  5
7EE
330
74A
100
AcDbEntity
  8
BEM
 62
     0
370
    -2
100
AcDbLine
 10
776.1219976504637
 20
281.0437066728805
 30
0.0
 11
776.1219976504637
 21
254.2053539321691
 31
0.0
  0
LINE
  5
7EF
330
74A
100
AcDbEntity
  8
BEM
 62
     0
370
    -2
100
AcDbLine
 10
606.1219976504637
 20
285.4040383747019
 30
0.0
 11
606.1219976504637
 21
254.2053539321691
 31
0.0
  0
LINE
  5
7F0
330
74A
100
AcDbEntity
  8
BEM
 62
     0
370
    -2
100
AcDbLine
 10
769.1219976504637
 20
256.2053539321691
 30
0.0
 11
613.1219976504637
 21
256.2053539321691
 31
0.0
  0
SOLID
  5
7F1
330
74A
100
AcDbEntity
  8
BEM
 62
     0
100
AcDbTrace
 10
769.1219976504637
 20
257.3720205988358
 30
0.0
 11
769.1219976504637
 21
255.0386872655024
 31
0.0
 12
776.1219976504637
 22
256.2053539321691
 32
0.0
 13
776.1219976504637
 23
256.2053539321691
 33
0.0
  0
SOLID
  5
7F2
330
74A
100
AcDbEntity
  8
BEM
 62
     0
100
AcDbTrace
 10
613.1219976504637
 20
257.3720205988358
 30
0.0
 11
613.1219976504637
 21
255.0386872655024
 31
0.0
 12
606.1219976504637
 22
256.2053539321691
 32
0.0
 13
606.1219976504637
 23
256.2053539321691
 33
0.0
  0
MTEXT
  5
7F3
330
74A
100
AcDbEntity
  8
BEM
 62
     1
100
AcDbMText
 10
691.1219976504638
 20
262.7053539321691
 30
0.0
 40
7.0
 41
0.0
 71
     5
 72
     1
  1
\A1;170
 73
     1
 44
1.0
  0
POINT
  5
7F4
330
74A
100
AcDbEntity
  8
DEFPOINTS
 62
     0
100
AcDbPoint
 10
776.1219976504637
 20
283.0437066728805
 30
0.0
  0
POINT
  5
7F5
330
74A
100
AcDbEntity
  8
DEFPOINTS
 62
     0
100
AcDbPoint
 10
606.1219976504637
 20
287.4040383747019
 30
0.0
  0
POINT
  5
7F6
330
74A
100
AcDbEntity
  8
DEFPOINTS
 62
     0
100
AcDbPoint
 10
606.1219976504637
 20
256.2053539321691
 30
0.0
  0
ENDBLK
  5
756
330
74A
100
AcDbEntity
  8
0
100
AcDbBlockEnd
  0
BLOCK
  5
762
330
757
100
AcDbEntity
  8
0
100
AcDbBlockBegin
  2
*D4
 70
     1
 10
0.0
 20
0.0
 30
0.0
  3
*D4
  1

  0
LINE
  5
7E5
330
757
100
AcDbEntity
  8
BEM
 62
     0
370
    -2
100
AcDbLine
 10
162.5337793808184
 20
439.8021514702866
 30
0.0
 11
162.5337793808184
 21
432.8021514702866
 31
0.0
  0
LINE
  5
7E6
330
757
100
AcDbEntity
  8
BEM
 62
     0
370
    -2
100
AcDbLine
 10
162.5337793808185
 20
456.3021514702866
 30
0.0
 11
162.5337793808185
 21
481.03548480362
 31
0.0
  0
LINE
  5
7E7
330
757
100
AcDbEntity
  8
BEM
 62
     0
370
    -2
100
AcDbLine
 10
162.5337793808184
 20
446.8021514702867
 30
0.0
 11
162.5337793808185
 21
449.3021514702866
 31
0.0
  0
SOLID
  5
7E8
330
757
100
AcDbEntity
  8
BEM
 62
     0
100
AcDbTrace
 10
161.3671127141518
 20
439.8021514702866
 30
0.0
 11
163.7004460474851
 21
439.8021514702866
 31
0.0
 12
162.5337793808184
 22
446.8021514702867
 32
0.0
 13
162.5337793808184
 23
446.8021514702867
 33
0.0
  0
SOLID
  5
7E9
330
757
100
AcDbEntity
  8
BEM
 62
     0
100
AcDbTrace
 10
161.3671127141518
 20
456.3021514702866
 30
0.0
 11
163.7004460474851
 21
456.3021514702866
 31
0.0
 12
162.5337793808185
 22
449.3021514702866
 32
0.0
 13
162.5337793808185
 23
449.3021514702866
 33
0.0
  0
MTEXT
  5
7EA
330
757
100
AcDbEntity
  8
BEM
 62
     1
100
AcDbMText
 10
156.0337793808184
 20
472.1688181369533
 30
0.0
 40
7.0
 41
0.0
 71
     5
 72
     1
  1
\A1;2.5
 11
0.0000000000000001
 21
1.0
 31
0.0
 73
     1
 44
1.0
  0
POINT
  5
7EB
330
757
100
AcDbEntity
  8
DEFPOINTS
 62
     0
100
AcDbPoint
 10
162.5337793808185
 20
446.8021514702867
 30
0.0
  0
POINT
  5
7EC
330
757
100
AcDbEntity
  8
DEFPOINTS
 62
     0
100
AcDbPoint
 10
162.5337793808185
 20
449.3021514702866
 30
0.0
  0
POINT
  5
7ED
330
757
100
AcDbEntity
  8
DEFPOINTS
 62
     0
100
AcDbPoint
 10
162.5337793808185
 20
449.3021514702866
 30
0.0
  0
ENDBLK
  5
763
330
757
100
AcDbEntity
  8
0
100
AcDbBlockEnd
  0
BLOCK
  5
76F
330
764
100
AcDbEntity
  8
0
100
AcDbBlockBegin
  2
*D5
 70
     1
 10
0.0
 20
0.0
 30
0.0
  3
*D5
  1

  0
LINE
  5
7DC
330
764
100
AcDbEntity
  8
BEM
 62
     0
370
    -2
100
AcDbLine
 10
94.11857713132894
 20
290.3021514702866
 30
0.0
 11
78.46519665225807
 21
290.3021514702866
 31
0.0
  0
LINE
  5
7DD
330
764
100
AcDbEntity
  8
BEM
 62
     0
370
    -2
100
AcDbLine
 10
94.11857713132894
 20
449.3021514702866
 30
0.0
 11
78.4651966522581
 21
449.3021514702866
 31
0.0
  0
LINE
  5
7DE
330
764
100
AcDbEntity
  8
BEM
 62
     0
370
    -2
100
AcDbLine
 10
80.46519665225806
 20
297.3021514702866
 30
0.0
 11
80.4651966522581
 21
442.3021514702866
 31
0.0
  0
SOLID
  5
7DF
330
764
100
AcDbEntity
  8
BEM
 62
     0
100
AcDbTrace
 10
79.2985299855914
 20
297.3021514702866
 30
0.0
 11
81.63186331892474
 21
297.3021514702866
 31
0.0
 12
80.46519665225806
 22
290.3021514702866
 32
0.0
 13
80.46519665225806
 23
290.3021514702866
 33
0.0
  0
SOLID
  5
7E0
330
764
100
AcDbEntity
  8
BEM
 62
     0
100
AcDbTrace
 10
79.29852998559143
 20
442.3021514702866
 30
0.0
 11
81.63186331892477
 21
442.3021514702866
 31
0.0
 12
80.4651966522581
 22
449.3021514702866
 32
0.0
 13
80.4651966522581
 23
449.3021514702866
 33
0.0
  0
MTEXT
  5
7E1
330
764
100
AcDbEntity
  8
BEM
 62
     1
100
AcDbMText
 10
73.96519665225802
 20
369.8021514702866
 30
0.0
 40
7.0
 41
0.0
 71
     5
 72
     1
  1
\A1;%%c159
 11
0.0000000000000001
 21
1.0
 31
0.0
 73
     1
 44
1.0
  0
POINT
  5
7E2
330
764
100
AcDbEntity
  8
DEFPOINTS
 62
     0
100
AcDbPoint
 10
96.11857713132895
 20
290.3021514702866
 30
0.0
  0
POINT
  5
7E3
330
764
100
AcDbEntity
  8
DEFPOINTS
 62
     0
100
AcDbPoint
 10
96.11857713132895
 20
449.3021514702866
 30
0.0
  0
POINT
  5
7E4
330
764
100
AcDbEntity
  8
DEFPOINTS
 62
     0
100
AcDbPoint
 10
80.4651966522581
 20
449.3021514702866
 30
0.0
  0
ENDBLK
  5
770
330
764
100
AcDbEntity
  8
0
100
AcDbBlockEnd
  0
BLOCK
  5
77C
330
771
100
AcDbEntity
  8
0
100
AcDbBlockBegin
  2
*D6
 70
     1
 10
0.0
 20
0.0
 30
0.0
  3
*D6
  1

  0
LINE
  5
7D3
330
771
100
AcDbEntity
  8
BEM
 62
     0
370
    -2
100
AcDbLine
 10
96.11857713132895
 20
288.3021514702866
 30
0.0
 11
96.11857713132895
 21
234.9816663286841
 31
0.0
  0
LINE
  5
7D4
330
771
100
AcDbEntity
  8
BEM
 62
     0
370
    -2
100
AcDbLine
 10
776.1219976504637
 20
281.0437066728805
 30
0.0
 11
776.1219976504637
 21
234.9816663286841
 31
0.0
  0
LINE
  5
7D5
330
771
100
AcDbEntity
  8
BEM
 62
     0
370
    -2
100
AcDbLine
 10
103.1185771313289
 20
236.9816663286841
 30
0.0
 11
769.1219976504637
 21
236.9816663286841
 31
0.0
  0
SOLID
  5
7D6
330
771
100
AcDbEntity
  8
BEM
 62
     0
100
AcDbTrace
 10
103.1185771313289
 20
238.1483329953508
 30
0.0
 11
103.1185771313289
 21
235.8149996620175
 31
0.0
 12
96.11857713132895
 22
236.9816663286841
 32
0.0
 13
96.11857713132895
 23
236.9816663286841
 33
0.0
  0
SOLID
  5
7D7
330
771
100
AcDbEntity
  8
BEM
 62
     0
100
AcDbTrace
 10
769.1219976504637
 20
238.1483329953508
 30
0.0
 11
769.1219976504637
 21
235.8149996620175
 31
0.0
 12
776.1219976504637
 22
236.9816663286841
 32
0.0
 13
776.1219976504637
 23
236.9816663286841
 33
0.0
  0
MTEXT
  5
7D8
330
771
100
AcDbEntity
  8
BEM
 62
     1
100
AcDbMText
 10
436.1202873908963
 20
243.4816663286841
 30
0.0
 40
7.0
 41
0.0
 71
     5
 72
     1
  1
\A1;1000
 73
     1
 44
1.0
  0
POINT
  5
7D9
330
771
100
AcDbEntity
  8
DEFPOINTS
 62
     0
100
AcDbPoint
 10
96.11857713132895
 20
290.3021514702866
 30
0.0
  0
POINT
  5
7DA
330
771
100
AcDbEntity
  8
DEFPOINTS
 62
     0
100
AcDbPoint
 10
776.1219976504637
 20
283.0437066728805
 30
0.0
  0
POINT
  5
7DB
330
771
100
AcDbEntity
  8
DEFPOINTS
 62
     0
100
AcDbPoint
 10
776.1219976504637
 20
236.9816663286841
 30
0.0
  0
ENDBLK
  5
77D
330
771
100
AcDbEntity
  8
0
100
AcDbBlockEnd
  0
ENDSEC
  0
SECTION
  2
ENTITIES
  0
LINE
  5
58
330
1E
100
AcDbEntity
  8
STEMPEL
100
AcDbLine
 10
830.0000000000002
 20
110.0
 30
0.0
 11
470.0000000000001
 21
110.0
 31
0.0
  0
LINE
  5
59
330
1E
100
AcDbEntity
  8
STEMPEL
100
AcDbLine
 10
470.0000000000001
 20
110.0
 30
0.0
 11
470.0000000000001
 21
10.0
 31
0.0
  0
LINE
  5
5A
330
1E
100
AcDbEntity
  8
STEMPEL
100
AcDbLine
 10
566.0000000000002
 20
109.9999999999999
 30
0.0
 11
566.0000000000001
 21
9.999999999999886
 31
0.0
  0
LINE
  5
5B
330
1E
100
AcDbEntity
  8
STEMPEL
100
AcDbLine
 10
650.0
 20
110.0
 30
0.0
 11
650.0
 21
10.0
 31
0.0
  0
LINE
  5
5C
330
1E
100
AcDbEntity
  8
STEMPEL
100
AcDbLine
 10
752.0000000000002
 20
109.9999999999997
 30
0.0
 11
752.0000000000002
 21
40.0
 31
0.0
  0
LINE
  5
5D
330
1E
100
AcDbEntity
  8
STEMPEL
100
AcDbLine
 10
566.0
 20
30.0
 30
0.0
 11
470.0000000000001
 21
30.0
 31
0.0
  0
LINE
  5
5E
330
1E
100
AcDbEntity
  8
STEMPEL
100
AcDbLine
 10
830.0000000000002
 20
40.0
 30
0.0
 11
566.0000000000001
 21
40.0
 31
0.0
  0
LINE
  5
5F
330
1E
100
AcDbEntity
  8
STEMPEL
100
AcDbLine
 10
830.0000000000002
 20
80.0
 30
0.0
 11
566.0000000000002
 21
80.0
 31
0.0
  0
LINE
  5
60
330
1E
100
AcDbEntity
  8
VOLL
100
AcDbLine
 10
484.0000000000002
 20
110.0
 30
0.0
 11
484.0000000000001
 21
9.999999999999985
 31
0.0
  0
LINE
  5
61
330
1E
100
AcDbEntity
  8
VOLL
100
AcDbLine
 10
524.0000000000001
 20
109.9999999999999
 30
0.0
 11
524.0000000000001
 21
9.999999999999943
 31
0.0
  0
LINE
  5
62
330
1E
100
AcDbEntity
  8
VOLL
100
AcDbLine
 10
544.0000000000002
 20
109.9999999999999
 30
0.0
 11
544.0000000000001
 21
9.999999999999914
 31
0.0
  0
LINE
  5
63
330
1E
100
AcDbEntity
  8
VOLL
100
AcDbLine
 10
584.0000000000002
 20
80.0
 30
0.0
 11
584.0000000000002
 21
40.0
 31
0.0
  0
LINE
  5
64
330
1E
100
AcDbEntity
  8
VOLL
100
AcDbLine
 10
610.0000000000002
 20
109.9999999999998
 30
0.0
 11
610.0000000000001
 21
40.0
 31
0.0
  0
LINE
  5
65
330
1E
100
AcDbEntity
  8
HILF
100
AcDbLine
 10
470.0000000000001
 20
100.0
 30
0.0
 11
566.0000000000002
 21
100.0
 31
0.0
  0
LINE
  5
66
330
1E
100
AcDbEntity
  8
HILF
100
AcDbLine
 10
470.0000000000001
 20
90.0
 30
0.0
 11
566.0000000000002
 21
90.0
 31
0.0
  0
LINE
  5
67
330
1E
100
AcDbEntity
  8
HILF
100
AcDbLine
 10
470.0000000000001
 20
80.0
 30
0.0
 11
566.0000000000002
 21
80.0
 31
0.0
  0
LINE
  5
68
330
1E
100
AcDbEntity
  8
HILF
100
AcDbLine
 10
470.0000000000001
 20
70.0
 30
0.0
 11
566.0000000000002
 21
70.0
 31
0.0
  0
LINE
  5
69
330
1E
100
AcDbEntity
  8
HILF
100
AcDbLine
 10
470.0000000000001
 20
60.0
 30
0.0
 11
566.0000000000002
 21
60.0
 31
0.0
  0
LINE
  5
6A
330
1E
100
AcDbEntity
  8
HILF
100
AcDbLine
 10
470.0000000000001
 20
50.0
 30
0.0
 11
566.0000000000002
 21
50.0
 31
0.0
  0
LINE
  5
6B
330
1E
100
AcDbEntity
  8
HILF
100
AcDbLine
 10
470.0000000000001
 20
40.0
 30
0.0
 11
566.0000000000002
 21
40.0
 31
0.0
  0
LINE
  5
6C
330
1E
100
AcDbEntity
  8
HILF
100
AcDbLine
 10
566.0000000000002
 20
70.0
 30
0.0
 11
650.0
 21
70.0
 31
0.0
  0
LINE
  5
6D
330
1E
100
AcDbEntity
  8
HILF
100
AcDbLine
 10
566.0000000000002
 20
60.0
 30
0.0
 11
650.0
 21
60.0
 31
0.0
  0
LINE
  5
6E
330
1E
100
AcDbEntity
  8
HILF
100
AcDbLine
 10
566.0000000000002
 20
50.0
 30
0.0
 11
650.0
 21
50.0
 31
0.0
  0
LINE
  5
6F
330
1E
100
AcDbEntity
  8
HILF
100
AcDbLine
 10
654.7736801096948
 20
84.03758247564136
 30
0.0
 11
746.6297842514811
 21
84.03758247564136
 31
0.0
  0
LINE
  5
70
330
1E
100
AcDbEntity
  8
HILF
100
AcDbLine
 10
654.7736801096948
 20
70.0
 30
0.0
 11
746.6297842514811
 21
70.0
 31
0.0
  0
LINE
  5
71
330
1E
100
AcDbEntity
  8
HILF
100
AcDbLine
 10
654.7736801096948
 20
60.0
 30
0.0
 11
746.6297842514811
 21
60.0
 31
0.0
  0
LINE
  5
72
330
1E
100
AcDbEntity
  8
HILF
100
AcDbLine
 10
654.7736801096948
 20
50.0
 30
0.0
 11
746.6297842514811
 21
50.0
 31
0.0
  0
LINE
  5
73
330
1E
100
AcDbEntity
  8
VOLL
100
AcDbLine
 10
752.0000000000002
 20
60.0
 30
0.0
 11
830.0000000000002
 21
60.0
 31
0.0
  0
LINE
  5
74
330
1E
100
AcDbEntity
  8
HILF
100
AcDbLine
 10
756.7238616296995
 20
83.77983636955823
 30
0.0
 11
824.858883932673
 21
83.77983636955823
 31
0.0
  0
LINE
  5
75
330
1E
100
AcDbEntity
  8
HILF
100
AcDbLine
 10
654.7736801096948
 20
14.89398258028305
 30
0.0
 11
824.858883932673
 21
14.89398258028305
 31
0.0
  0
TEXT
  5
76
330
1E
100
AcDbEntity
  8
TEXT
100
AcDbText
 10
492.3998239263297
 20
18.67381894984129
 30
0.0
 40
4.0
  1
Änderung
 41
0.8
  7
GREEKS
 72
     1
 11
503.1426810691868
 21
18.67381894984129
 31
0.0
100
AcDbText
  0
TEXT
  5
78
330
1E
100
AcDbEntity
  8
TEXT
100
AcDbText
 10
573.5163572150378
 20
102.4620895087088
 30
0.0
 40
5.0
  1
Maßstab
 41
0.8
  7
GREEKS
100
AcDbText
  0
TEXT
  5
79
330
1E
100
AcDbEntity
  8
TEXT
100
AcDbText
 10
654.8779403809011
 20
102.5489328011779
 30
0.0
 40
5.0
  1
Benennung
 41
0.8
  7
GREEKS
100
AcDbText
  0
TEXT
  5
7A
330
1E
100
AcDbEntity
  8
TEXT
100
AcDbText
 10
756.1787549576343
 20
102.3132034537135
 30
0.0
 40
5.0
  1
Zeichnungs Nr.
 41
0.8
  7
GREEKS
100
AcDbText
  0
TEXT
  5
7B
330
1E
100
AcDbEntity
  8
TEXT
100
AcDbText
 10
654.742238391136
 20
30.84560570193055
 30
0.0
 40
5.0
  1
Bauvorhaben
 41
0.8
  7
GREEKS
100
AcDbText
  0
TEXT
  5
7C
330
1E
100
AcDbEntity
  8
TEXT
100
AcDbText
 10
756.7238616296995
 20
73.18118237099965
 30
0.0
 40
5.0
  1
Ersatz für:
 41
0.8
  7
GREEKS
100
AcDbText
  0
TEXT
  5
7D
330
1E
100
AcDbEntity
  8
TEXT
100
AcDbText
 10
478.2664110704577
 20
13.65465846027187
 30
0.0
 40
4.0
  1
Index
 50
90.0
 41
0.8
  7
GREEKS
100
AcDbText
  0
TEXT
  5
7E
330
1E
100
AcDbEntity
  8
TEXT
100
AcDbText
 10
529.8990113186979
 20
18.67156269339808
 30
0.0
 40
4.0
  1
Tag
 41
0.8
  7
GREEKS
 72
     1
 11
533.6323446520313
 21
18.67156269339808
 31
0.0
100
AcDbText
  0
TEXT
  5
7F
330
1E
100
AcDbEntity
  8
TEXT
100
AcDbText
 10
548.9795678138293
 20
18.59324216966404
 30
0.0
 40
4.0
  1
Name
 41
0.8
  7
GREEKS
 72
     1
 11
555.3033773376388
 21
18.59324216966404
 31
0.0
100
AcDbText
  0
TEXT
  5
80
330
1E
100
AcDbEntity
  8
TEXT
100
AcDbText
 10
592.3311673153651
 20
73.31880501229919
 30
0.0
 40
4.0
  1
Tag
 41
0.8
  7
GREEKS
100
AcDbText
  0
TEXT
  5
81
330
1E
100
AcDbEntity
  8
TEXT
100
AcDbText
 10
622.4626584226296
 20
73.3096109191522
 30
0.0
 40
4.0
  1
Name
 41
0.8
  7
GREEKS
100
AcDbText
  0
TEXT
  5
82
330
1E
100
AcDbEntity
  8
TEXT
100
AcDbText
 10
567.5836127167616
 20
63.62990369617961
 30
0.0
 40
4.0
  1
Gez.
 41
0.8
  7
GREEKS
100
AcDbText
  0
TEXT
  5
83
330
1E
100
AcDbEntity
  8
TEXT
100
AcDbText
 10
567.5515086571673
 20
53.68926291428373
 30
0.0
 40
4.0
  1
Gepr.
 41
0.8
  7
GREEKS
100
AcDbText
  0
TEXT
  5
84
330
1E
100
AcDbEntity
  8
TEXT
100
AcDbText
 10
567.6006777387304
 20
43.52946389649804
 30
0.0
 40
4.0
  1
Norm.
 41
0.8
  7
GREEKS
100
AcDbText
  0
TEXT
  5
85
330
1E
100
AcDbEntity
  8
TEXT
100
AcDbText
 10
757.2400861497007
 20
52.07416177878596
 30
0.0
 40
5.0
  1
ersetzt durch:
 41
0.8
  7
GREEKS
100
AcDbText
  0
TEXT
  5
86
330
1E
100
AcDbEntity
  8
TEXT
100
AcDbText
 10
568.8693027807324
 20
72.96682596523723
 30
0.0
 40
4.0
  1
2008
 41
0.8
  7
GREEKS
100
AcDbText
  0
LINE
  5
87
330
1E
100
AcDbEntity
  8
HILF
100
AcDbLine
 10
0.0
 20
0.0
 30
0.0
 11
840.0
 21
0.0
 31
0.0
  0
LINE
  5
88
330
1E
100
AcDbEntity
  8
HILF
100
AcDbLine
 10
840.0
 20
0.0
 30
0.0
 11
840.0
 21
594.0
 31
0.0
  0
LINE
  5
89
330
1E
100
AcDbEntity
  8
HILF
100
AcDbLine
 10
840.0
 20
594.0
 30
0.0
 11
0.0
 21
594.0
 31
0.0
  0
LINE
  5
8B
330
1E
100
AcDbEntity
  8
STEMPEL
100
AcDbLine
 10
830.0
 20
584.0
 30
0.0
 11
40.0
 21
584.0
 31
0.0
  0
LINE
  5
8D
330
1E
100
AcDbEntity
  8
STEMPEL
100
AcDbLine
 10
40.0
 20
10.0
 30
0.0
 11
830.0
 21
10.0
 31
0.0
  0
LINE
  5
8E
330
1E
100
AcDbEntity
  8
STEMPEL
100
AcDbLine
 10
830.0
 20
10.0
 30
0.0
 11
830.0
 21
584.0
 31
0.0
  0
TEXT
  5
8F
330
1E
100
AcDbEntity
  8
TEXT
 62
     1
100
AcDbText
 10
655.0390572473189
 20
87.37343075652544
 30
0.0
 40
7.0
  1
Regenstandrohr DN150
 41
0.75
  7
GREEKS
100
AcDbText
  0
TEXT
  5
90
330
1E
100
AcDbEntity
  8
TEXT
 62
     1
100
AcDbText
 10
766.6628088850802
 20
87.37343075652544
 30
0.0
 40
7.0
  1
05526150W
 41
0.8
  7
GREEKS
 72
     1
 11
790.1294755517469
 21
87.37343075652544
 31
0.0
100
AcDbText
  0
TEXT
  5
91
330
1E
100
AcDbEntity
  8
TEXT
100
AcDbText
 10
618.509022641583
 20
102.83989611379
 30
0.0
 40
5.0
  1
Zul.Abw.
 41
0.8
  7
GREEKS
100
AcDbText
  0
TEXT
  5
93
330
1E
100
AcDbEntity
  8
TEXT
100
AcDbText
 10
590.1565237511869
 20
63.1508587612022
 30
0.0
 40
4.0
  1
20.06.
 41
0.8
  7
GREEKS
 72
     1
 11
597.1660475607107
 21
63.1508587612022
 31
0.0
100
AcDbText
  0
TEXT
  5
94
330
1E
100
AcDbEntity
  8
TEXT
100
AcDbText
 10
624.023175322661
 20
62.94297655165468
 30
0.0
 40
4.0
  1
Koeh
 41
0.8
  7
GREEKS
 72
     1
 11
629.2803181798038
 21
62.94297655165468
 31
0.0
100
AcDbText
  0
TEXT
  5
95
330
1E
100
AcDbEntity
  8
TEXT
100
AcDbText
 10
654.3410940884992
 20
72.10021383107525
 30
0.0
 40
5.0
  1
1000mm lang
 41
0.8
  7
GREEKS
100
AcDbText
  0
TEXT
  5
97
330
1E
100
AcDbEntity
  8
TEXT
100
AcDbText
 10
654.3410940884992
 20
52.59097337846058
 30
0.0
 40
5.0
  1
EDV-Art.Nr. 05526.150X
 41
0.8
  7
GREEKS
100
AcDbText
  0
TEXT
  5
98
330
1E
100
AcDbEntity
  8
TEXT
100
AcDbText
 10
654.1676050109348
 20
43.31127624791508
 30
0.0
 40
4.0
  1
05526150W.DWG
 41
0.8
  7
GREEKS
100
AcDbText
  0
TEXT
  5
99
330
1E
100
AcDbEntity
  8
TEXT
 62
     1
100
AcDbText
 10
582.7034912034222
 20
87.47077088414977
 30
0.0
 40
7.0
  1
1:2
 41
0.8
  7
GREEKS
100
AcDbText
  0
TEXT
  5
9A
330
1E
100
AcDbEntity
  8
TEXT
100
AcDbText
 10
470.0441139350127
 20
114.1143585051043
 30
0.0
 40
5.0
  1
Erstellt mit AUTOCAD 2004
 41
0.8
  7
GREEKS
100
AcDbText
  0
INSERT
  5
9B
330
1E
100
AcDbEntity
  8
HILF
100
AcDbBlockReference
  2
LORO
 10
573.0624985962354
 20
36.9805930029896
 30
0.0
 41
2.0
 42
2.0
 43
2.0
  0
LINE
  5
9C
330
1E
100
AcDbEntity
  8
BEM
100
AcDbLine
 10
456.0
 20
0.0
 30
0.0
 11
456.0
 21
10.0
 31
0.0
  0
LINE
  5
13E
330
1E
100
AcDbEntity
  8
HILF
100
AcDbLine
 10
0.0
 20
0.0
 30
0.0
 11
0.0
 21
594.0
 31
0.0
  0
LINE
  5
13F
330
1E
100
AcDbEntity
  8
STEMPEL
100
AcDbLine
 10
40.0
 20
10.0
 30
0.0
 11
40.0
 21
584.0
 31
0.0
  0
LINE
  5
14A
330
1E
100
AcDbEntity
  8
HILF
100
AcDbLine
 10
0.0
 20
297.0
 30
0.0
 11
40.0
 21
297.0
 31
0.0
  0
TEXT
  5
15B
330
1E
100
AcDbEntity
  8
BEM
100
AcDbText
 10
837.3022923857165
 20
10.16790107998861
 30
0.0
 40
4.0
  1
Diese Zeichnung ist urheberrechtlich geschützt und bleibt unser Eigentum. Sie darf weder ganz noch teilweise verfielfältigt und nicht an Dritte weitergegeben werden.
 50
90.0
 41
0.8
  7
GREEKS
100
AcDbText
  0
TEXT
  5
22C
330
1E
100
AcDbEntity
  8
TEXT
 62
     1
100
AcDbText
 10
616.6560484572488
 20
139.8004583895517
 30
0.0
 40
7.0
  1
Werkstoff: E195 EN10305 feuerverzinkt
 41
0.8
  7
GREEKS
100
AcDbText
  0
TEXT
  5
22D
330
1E
100
AcDbEntity
  8
TEXT
 62
     1
100
AcDbText
 10
664.6057658946467
 20
129.0783465745483
 30
0.0
 40
7.0
  1
und innen beschichtet
 41
0.8
  7
GREEKS
100
AcDbText
  0
TEXT
  5
22E
330
1E
100
AcDbEntity
  8
TEXT
 62
     1
100
AcDbText
 10
646.5714208752237
 20
383.9564429953765
 30
0.0
 40
7.0
  1
DN150
 41
0.8
  7
GREEKS
100
AcDbText
  0
TEXT
  5
2FD
330
1E
100
AcDbEntity
  8
TEXT
100
AcDbText
 10
612.2898419893276
 20
88.34165697992029
 30
0.0
 40
4.0
  1
DIN EN1123-2
 41
0.8
  7
GREEKS
 72
     1
 11
629.2803181798038
 21
88.34165697992029
 31
0.0
100
AcDbText
  0
LINE
  5
68E
330
1E
100
AcDbEntity
  8
STEMPEL
100
AcDbLine
 10
776.1219976504637
 20
456.5605962676928
 30
0.0
 11
775.1305325934542
 21
457.0229240165693
 31
0.0
  0
ARC
  5
68F
330
1E
100
AcDbEntity
  8
STEMPEL
100
AcDbCircle
 10
744.1169976504636
 20
425.3021514702866
 30
0.0
 40
35.00004740563918
100
AcDbArc
 50
89.90569855091795
 51
117.5271836205548
  0
LINE
  5
690
330
1E
100
AcDbEntity
  8
STEMPEL
100
AcDbLine
 10
760.3388934325298
 20
460.3021514702867
 30
0.0
 11
744.0593921213099
 21
460.3021514702867
 31
0.0
  0
ARC
  5
691
330
1E
100
AcDbEntity
  8
STEMPEL
100
AcDbCircle
 10
760.3388934325298
 20
425.3021514702866
 30
0.0
 40
35.0
100
AcDbArc
 50
65.00000000000655
 51
90.0
  0
ARC
  5
692
330
1E
100
AcDbEntity
  8
STEMPEL
100
AcDbCircle
 10
598.5942497358593
 20
459.3021514702867
 30
0.0
 40
10.0
100
AcDbArc
 50
270.0
 51
304.771944031949
  0
ARC
  5
693
330
1E
100
AcDbEntity
  8
STEMPEL
100
AcDbCircle
 10
614.5629691585306
 20
436.3021514702866
 30
0.0
 40
18.0
100
AcDbArc
 50
90.0
 51
124.771944031949
  0
LINE
  5
694
330
1E
100
AcDbEntity
  8
STEMPEL
100
AcDbLine
 10
719.6219976504637
 20
454.3021514702866
 30
0.0
 11
614.5629691585306
 21
454.3021514702866
 31
0.0
  0
ARC
  5
695
330
1E
100
AcDbEntity
  8
STEMPEL
100
AcDbCircle
 10
719.6219976504637
 20
472.3021514702867
 30
0.0
 40
18.0
100
AcDbArc
 50
270.0
 51
297.5271836205548
  0
LINE
  5
696
330
1E
100
AcDbEntity
  8
STEMPEL
100
AcDbLine
 10
776.1219976504637
 20
283.0437066728805
 30
0.0
 11
775.1305325934542
 21
282.581378924004
 31
0.0
  0
LINE
  5
697
330
1E
100
AcDbEntity
  8
STEMPEL
100
AcDbLine
 10
760.3388934325298
 20
279.3021514702866
 30
0.0
 11
744.0593921213099
 21
279.3021514702866
 31
0.0
  0
ARC
  5
698
330
1E
100
AcDbEntity
  8
STEMPEL
100
AcDbCircle
 10
760.3388934325298
 20
314.3021514702866
 30
0.0
 40
35.0
100
AcDbArc
 50
270.0
 51
294.9999999999935
  0
ARC
  5
699
330
1E
100
AcDbEntity
  8
STEMPEL
100
AcDbCircle
 10
744.1169976504636
 20
314.3021514702866
 30
0.0
 40
35.00004740563918
100
AcDbArc
 50
242.4728163794451
 51
270.094301449082
  0
ARC
  5
69A
330
1E
100
AcDbEntity
  8
STEMPEL
100
AcDbCircle
 10
598.5942497358593
 20
280.3021514702866
 30
0.0
 40
10.0
100
AcDbArc
 50
55.22805596805097
 51
90.0
  0
ARC
  5
69B
330
1E
100
AcDbEntity
  8
STEMPEL
100
AcDbCircle
 10
614.5629691585306
 20
303.3021514702866
 30
0.0
 40
18.0
100
AcDbArc
 50
235.228055968051
 51
270.0
  0
LINE
  5
69C
330
1E
100
AcDbEntity
  8
STEMPEL
100
AcDbLine
 10
719.6219976504637
 20
285.3021514702866
 30
0.0
 11
614.5629691585306
 21
285.3021514702866
 31
0.0
  0
DIMENSION
  5
69D
330
1E
100
AcDbEntity
  8
BEM
100
AcDbDimension
  2
*D3
 10
606.1219976504637
 20
256.2053539321691
 30
0.0
 11
691.1219976504638
 21
262.7053539321691
 31
0.0
 70
    32
 71
     5
 42
170.0
  3
Standard
100
AcDbAlignedDimension
 13
776.1219976504637
 23
283.0437066728805
 33
0.0
 14
606.1219976504637
 24
287.4040383747019
 34
0.0
100
AcDbRotatedDimension
1001
ACAD
1000
DSTYLE
1002
{
1070
    40
1040
2.0
1070
    41
1040
3.5
1070
    42
1040
1.0
1070
    43
1040
7.0
1070
    44
1040
1.0
1070
    73
1070
     0
1070
    74
1070
     0
1070
    77
1070
     1
1070
    78
1070
     8
1070
    79
1070
     2
1070
   140
1040
3.5
1070
   141
1040
1.5
1070
   146
1040
0.5142857142857144
1070
   147
1040
1.5
1070
   172
1070
     1
1070
   178
1070
     1
1070
   179
1070
     2
1070
   271
1070
     2
1070
   272
1070
     2
1070
   284
1070
     8
1070
   285
1070
     8
1070
   286
1070
     8
1002
}
  0
ARC
  5
69E
330
1E
100
AcDbEntity
  8
STEMPEL
100
AcDbCircle
 10
719.6219976504637
 20
267.3021514702866
 30
0.0
 40
18.0
100
AcDbArc
 50
62.47281637944514
 51
90.0
  0
LINE
  5
69F
330
1E
100
AcDbEntity
  8
HILF
100
AcDbLine
 10
601.5823212591953
 20
447.1645475645945
 30
0.0
 11
601.5823212591953
 21
292.4397553759784
 31
0.0
  0
LINE
  5
6A0
330
1E
100
AcDbEntity
  8
HILF
100
AcDbLine
 10
609.1844404165259
 20
288.7652526066558
 30
0.0
 11
609.1844404165259
 21
450.8390503339187
 31
0.0
  0
LINE
  5
6A1
330
1E
100
AcDbEntity
  8
HILF
100
AcDbLine
 10
723.9044912158818
 20
452.2544521294117
 30
0.0
 11
723.9044912158818
 21
287.3498508111635
 31
0.0
  0
LINE
  5
6A2
330
1E
100
AcDbEntity
  8
STEMPEL
100
AcDbLine
 10
776.1219976504637
 20
456.5605962676928
 30
0.0
 11
776.1219976504637
 21
283.0437066728805
 31
0.0
  0
POLYLINE
  5
6A3
330
1E
100
AcDbEntity
  8
HILF
100
AcDb2dPolyline
 66
     1
 10
0.0
 20
0.0
 30
0.0
 70
     4
 75
     6
  0
VERTEX
  5
6A4
330
6A3
100
AcDbEntity
  8
HILF
100
AcDbVertex
100
AcDb2dVertex
 10
148.3033560593671
 20
449.3021514702866
 30
0.0
 70
    16
  0
VERTEX
  5
6A5
330
6A3
100
AcDbEntity
  8
HILF
100
AcDbVertex
100
AcDb2dVertex
 10
148.3033560593671
 20
449.3021514702866
 30
0.0
 70
     8
  0
VERTEX
  5
6A6
330
6A3
100
AcDbEntity
  8
HILF
100
AcDbVertex
100
AcDb2dVertex
 10
150.3313101960764
 20
441.6206015859374
 30
0.0
 70
     8
  0
VERTEX
  5
6A7
330
6A3
100
AcDbEntity
  8
HILF
100
AcDbVertex
100
AcDb2dVertex
 10
152.3557425632286
 20
435.7153878606822
 30
0.0
 70
     8
  0
VERTEX
  5
6A8
330
6A3
100
AcDbEntity
  8
HILF
100
AcDbVertex
100
AcDb2dVertex
 10
154.3731313912673
 20
431.3590059253701
 30
0.0
 70
     8
  0
VERTEX
  5
6A9
330
6A3
100
AcDbEntity
  8
HILF
100
AcDbVertex
100
AcDb2dVertex
 10
156.3799549106352
 20
428.3239514108503
 30
0.0
 70
     8
  0
VERTEX
  5
6AA
330
6A3
100
AcDbEntity
  8
HILF
100
AcDbVertex
100
AcDb2dVertex
 10
158.3726913517756
 20
426.3827199479717
 30
0.0
 70
     8
  0
VERTEX
  5
6AB
330
6A3
100
AcDbEntity
  8
HILF
100
AcDbVertex
100
AcDb2dVertex
 10
160.3478189451317
 20
425.3078071675833
 30
0.0
 70
     8
  0
VERTEX
  5
6AC
330
6A3
100
AcDbEntity
  8
HILF
100
AcDbVertex
100
AcDb2dVertex
 10
162.3018159211465
 20
424.8717087005343
 30
0.0
 70
     8
  0
VERTEX
  5
6AD
330
6A3
100
AcDbEntity
  8
HILF
100
AcDbVertex
100
AcDb2dVertex
 10
164.2311605102632
 20
424.8469201776735
 30
0.0
 70
     8
  0
VERTEX
  5
6AE
330
6A3
100
AcDbEntity
  8
HILF
100
AcDbVertex
100
AcDb2dVertex
 10
166.1364396731196
 20
425.0784897802074
 30
0.0
 70
     8
  0
VERTEX
  5
6AF
330
6A3
100
AcDbEntity
  8
HILF
100
AcDbVertex
100
AcDb2dVertex
 10
168.0346752911324
 20
425.7016758907703
 30
0.0
 70
     8
  0
VERTEX
  5
6B0
330
6A3
100
AcDbEntity
  8
HILF
100
AcDbVertex
100
AcDb2dVertex
 10
169.9469979759131
 20
426.9242894423538
 30
0.0
 70
     8
  0
VERTEX
  5
6B1
330
6A3
100
AcDbEntity
  8
HILF
100
AcDbVertex
100
AcDb2dVertex
 10
171.8945383390732
 20
428.9541413679494
 30
0.0
 70
     8
  0
VERTEX
  5
6B2
330
6A3
100
AcDbEntity
  8
HILF
100
AcDbVertex
100
AcDb2dVertex
 10
173.8984269922239
 20
431.999042600549
 30
0.0
 70
     8
  0
VERTEX
  5
6B3
330
6A3
100
AcDbEntity
  8
HILF
100
AcDbVertex
100
AcDb2dVertex
 10
175.9797945469768
 20
436.2668040731439
 30
0.0
 70
     8
  0
VERTEX
  5
6B4
330
6A3
100
AcDbEntity
  8
HILF
100
AcDbVertex
100
AcDb2dVertex
 10
178.1597716149433
 20
441.965236718726
 30
0.0
 70
     8
  0
VERTEX
  5
6B5
330
6A3
100
AcDbEntity
  8
HILF
100
AcDbVertex
100
AcDb2dVertex
 10
180.4594888077348
 20
449.3021514702866
 30
0.0
 70
     8
  0
VERTEX
  5
6B6
330
6A3
100
AcDbEntity
  8
HILF
100
AcDbVertex
100
AcDb2dVertex
 10
153.7127989881725
 20
426.2473441273178
 30
0.0
 70
    16
  0
VERTEX
  5
6B7
330
6A3
100
AcDbEntity
  8
HILF
100
AcDbVertex
100
AcDb2dVertex
 10
164.5316848457833
 20
422.8863273772746
 30
0.0
 70
    16
  0
VERTEX
  5
6B8
330
6A3
100
AcDbEntity
  8
HILF
100
AcDbVertex
100
AcDb2dVertex
 10
174.1484733613138
 20
427.3676818288274
 30
0.0
 70
    16
  0
VERTEX
  5
6B9
330
6A3
100
AcDbEntity
  8
HILF
100
AcDbVertex
100
AcDb2dVertex
 10
180.4594888077348
 20
449.3021514702866
 30
0.0
 70
    16
  0
SEQEND
  5
6BA
330
6A3
100
AcDbEntity
  8
HILF
  0
LINE
  5
6BB
330
1E
100
AcDbEntity
  8
STEMPEL
  6
Continuous
100
AcDbLine
 10
179.6758770067723
 20
446.8021514702867
 30
0.0
 11
148.9633641850844
 21
446.8021514702866
 31
0.0
  0
INSERT
  5
6BC
330
1E
100
AcDbEntity
  8
SCHRAFF
100
AcDbBlockReference
  2
*X2
 10
8.272139758715638
 20
0.0
 30
0.0
1001
ACAD
1000
HATCH
1002
{
1070
    16
1000
_U,I
1040
2.0
1040
0.7853981633974483
1070
     0
1002
}
  0
DIMENSION
  5
6BD
330
1E
100
AcDbEntity
  8
BEM
100
AcDbDimension
  2
*D4
 10
162.5337793808185
 20
449.3021514702866
 30
0.0
 11
156.0337793808184
 21
472.1688181369533
 31
0.0
 70
    32
 71
     5
 42
2.5
  3
Standard
100
AcDbAlignedDimension
 13
162.5337793808185
 23
446.8021514702867
 33
0.0
 14
162.5337793808185
 24
449.3021514702866
 34
0.0
 50
90.0
100
AcDbRotatedDimension
1001
ACAD
1000
DSTYLE
1002
{
1070
    40
1040
2.0
1070
    41
1040
3.5
1070
    42
1040
1.0
1070
    43
1040
7.0
1070
    44
1040
1.0
1070
    73
1070
     0
1070
    74
1070
     0
1070
    77
1070
     1
1070
    78
1070
     8
1070
    79
1070
     2
1070
   140
1040
3.5
1070
   141
1040
1.5
1070
   146
1040
0.5142857142857144
1070
   147
1040
1.5
1070
   172
1070
     1
1070
   178
1070
     1
1070
   179
1070
     2
1070
   271
1070
     2
1070
   272
1070
     2
1070
   284
1070
     8
1070
   285
1070
     8
1070
   286
1070
     8
1002
}
  0
LINE
  5
6BE
330
1E
100
AcDbEntity
  8
STEMPEL
100
AcDbLine
 10
342.3564134335943
 20
449.3021514702866
 30
0.0
 11
96.11857713132895
 21
449.3021514702866
 31
0.0
  0
LINE
  5
6BF
330
1E
100
AcDbEntity
  8
STEMPEL
100
AcDbLine
 10
342.3564134335942
 20
290.3021514702866
 30
0.0
 11
96.11857713132895
 21
290.3021514702866
 31
0.0
  0
POLYLINE
  5
6C0
330
1E
100
AcDbEntity
  8
HILF
100
AcDb2dPolyline
 66
     1
 10
0.0
 20
0.0
 30
0.0
 70
     4
 75
     6
  0
VERTEX
  5
6C1
330
6C0
100
AcDbEntity
  8
HILF
100
AcDbVertex
100
AcDb2dVertex
 10
342.3564134335942
 20
449.3021514702866
 30
0.0
 70
    16
  0
VERTEX
  5
6C2
330
6C0
100
AcDbEntity
  8
HILF
100
AcDbVertex
100
AcDb2dVertex
 10
342.3564134335942
 20
449.3021514702866
 30
0.0
 70
     8
  0
VERTEX
  5
6C3
330
6C0
100
AcDbEntity
  8
HILF
100
AcDbVertex
100
AcDb2dVertex
 10
345.5687482334865
 20
434.8027332842787
 30
0.0
 70
     8
  0
VERTEX
  5
6C4
330
6C0
100
AcDbEntity
  8
HILF
100
AcDbVertex
100
AcDb2dVertex
 10
347.4640353469028
 20
422.5813169675408
 30
0.0
 70
     8
  0
VERTEX
  5
6C5
330
6C0
100
AcDbEntity
  8
HILF
100
AcDbVertex
100
AcDb2dVertex
 10
348.2431255440959
 20
412.3494650755472
 30
0.0
 70
     8
  0
VERTEX
  5
6C6
330
6C0
100
AcDbEntity
  8
HILF
100
AcDbVertex
100
AcDb2dVertex
 10
348.1068695953185
 20
403.8187401637723
 30
0.0
 70
     8
  0
VERTEX
  5
6C7
330
6C0
100
AcDbEntity
  8
HILF
100
AcDbVertex
100
AcDb2dVertex
 10
347.2561182708233
 20
396.7007047876904
 30
0.0
 70
     8
  0
VERTEX
  5
6C8
330
6C0
100
AcDbEntity
  8
HILF
100
AcDbVertex
100
AcDb2dVertex
 10
345.8917223408629
 20
390.7069215027756
 30
0.0
 70
     8
  0
VERTEX
  5
6C9
330
6C0
100
AcDbEntity
  8
HILF
100
AcDbVertex
100
AcDb2dVertex
 10
344.2145325756903
 20
385.5489528645022
 30
0.0
 70
     8
  0
VERTEX
  5
6CA
330
6C0
100
AcDbEntity
  8
HILF
100
AcDbVertex
100
AcDb2dVertex
 10
342.425399745558
 20
380.9383614283447
 30
0.0
 70
     8
  0
VERTEX
  5
6CB
330
6C0
100
AcDbEntity
  8
HILF
100
AcDbVertex
100
AcDb2dVertex
 10
340.6959828062702
 20
376.6262592235107
 30
0.0
 70
     8
  0
VERTEX
  5
6CC
330
6C0
100
AcDbEntity
  8
HILF
100
AcDbVertex
100
AcDb2dVertex
 10
339.0811734558367
 20
372.5219561741429
 30
0.0
 70
     8
  0
VERTEX
  5
6CD
330
6C0
100
AcDbEntity
  8
HILF
100
AcDbVertex
100
AcDb2dVertex
 10
337.6066715778188
 20
368.574311678117
 30
0.0
 70
     8
  0
VERTEX
  5
6CE
330
6C0
100
AcDbEntity
  8
HILF
100
AcDbVertex
100
AcDb2dVertex
 10
336.2981770557778
 20
364.732185133309
 30
0.0
 70
     8
  0
VERTEX
  5
6CF
330
6C0
100
AcDbEntity
  8
HILF
100
AcDbVertex
100
AcDb2dVertex
 10
335.181389773275
 20
360.9444359375949
 30
0.0
 70
     8
  0
VERTEX
  5
6D0
330
6C0
100
AcDbEntity
  8
HILF
100
AcDbVertex
100
AcDb2dVertex
 10
334.2820096138717
 20
357.1599234888507
 30
0.0
 70
     8
  0
VERTEX
  5
6D1
330
6C0
100
AcDbEntity
  8
HILF
100
AcDbVertex
100
AcDb2dVertex
 10
333.6257364611289
 20
353.3275071849524
 30
0.0
 70
     8
  0
VERTEX
  5
6D2
330
6C0
100
AcDbEntity
  8
HILF
100
AcDbVertex
100
AcDb2dVertex
 10
333.2382701986083
 20
349.3960464237759
 30
0.0
 70
     8
  0
VERTEX
  5
6D3
330
6C0
100
AcDbEntity
  8
HILF
100
AcDbVertex
100
AcDb2dVertex
 10
333.1442498490502
 20
345.2793620560346
 30
0.0
 70
     8
  0
VERTEX
  5
6D4
330
6C0
100
AcDbEntity
  8
HILF
100
AcDbVertex
100
AcDb2dVertex
 10
333.3640709919125
 20
340.7511207437925
 30
0.0
 70
     8
  0
VERTEX
  5
6D5
330
6C0
100
AcDbEntity
  8
HILF
100
AcDbVertex
100
AcDb2dVertex
 10
333.9170683458323
 20
335.5499506019504
 30
0.0
 70
     8
  0
VERTEX
  5
6D6
330
6C0
100
AcDbEntity
  8
HILF
100
AcDbVertex
100
AcDb2dVertex
 10
334.8225766294469
 20
329.4144797454099
 30
0.0
 70
     8
  0
VERTEX
  5
6D7
330
6C0
100
AcDbEntity
  8
HILF
100
AcDbVertex
100
AcDb2dVertex
 10
336.0999305613932
 20
322.083336289072
 30
0.0
 70
     8
  0
VERTEX
  5
6D8
330
6C0
100
AcDbEntity
  8
HILF
100
AcDbVertex
100
AcDb2dVertex
 10
337.7684648603084
 20
313.295148347838
 30
0.0
 70
     8
  0
VERTEX
  5
6D9
330
6C0
100
AcDbEntity
  8
HILF
100
AcDbVertex
100
AcDb2dVertex
 10
339.8475142448297
 20
302.7885440366091
 30
0.0
 70
     8
  0
VERTEX
  5
6DA
330
6C0
100
AcDbEntity
  8
HILF
100
AcDbVertex
100
AcDb2dVertex
 10
342.3564134335942
 20
290.3021514702866
 30
0.0
 70
     8
  0
VERTEX
  5
6DB
330
6C0
100
AcDbEntity
  8
HILF
100
AcDbVertex
100
AcDb2dVertex
 10
352.8572371666105
 20
407.3433116423268
 30
0.0
 70
    16
  0
VERTEX
  5
6DC
330
6C0
100
AcDbEntity
  8
HILF
100
AcDbVertex
100
AcDb2dVertex
 10
341.4770508890987
 20
378.1763373473842
 30
0.0
 70
    16
  0
VERTEX
  5
6DD
330
6C0
100
AcDbEntity
  8
HILF
100
AcDbVertex
100
AcDb2dVertex
 10
330.0968646115868
 20
350.998020390733
 30
0.0
 70
    16
  0
VERTEX
  5
6DE
330
6C0
100
AcDbEntity
  8
HILF
100
AcDbVertex
100
AcDb2dVertex
 10
335.0756961079982
 20
326.4712465518039
 30
0.0
 70
    16
  0
VERTEX
  5
6DF
330
6C0
100
AcDbEntity
  8
HILF
100
AcDbVertex
100
AcDb2dVertex
 10
342.3564134335942
 20
290.3021514702866
 30
0.0
 70
    16
  0
SEQEND
  5
6E0
330
6C0
100
AcDbEntity
  8
HILF
  0
POLYLINE
  5
6E1
330
1E
100
AcDbEntity
  8
HILF
100
AcDb2dPolyline
 66
     1
 10
0.0
 20
0.0
 30
0.0
 70
     4
 75
     6
  0
VERTEX
  5
6E2
330
6E1
100
AcDbEntity
  8
HILF
100
AcDbVertex
100
AcDb2dVertex
 10
342.3564134335942
 20
449.3021514702866
 30
0.0
 70
    16
  0
VERTEX
  5
6E3
330
6E1
100
AcDbEntity
  8
HILF
100
AcDbVertex
100
AcDb2dVertex
 10
342.3564134335942
 20
449.3021514702866
 30
0.0
 70
     8
  0
VERTEX
  5
6E4
330
6E1
100
AcDbEntity
  8
HILF
100
AcDbVertex
100
AcDb2dVertex
 10
345.5687482334865
 20
434.8027332842787
 30
0.0
 70
     8
  0
VERTEX
  5
6E5
330
6E1
100
AcDbEntity
  8
HILF
100
AcDbVertex
100
AcDb2dVertex
 10
347.4640353469028
 20
422.5813169675408
 30
0.0
 70
     8
  0
VERTEX
  5
6E6
330
6E1
100
AcDbEntity
  8
HILF
100
AcDbVertex
100
AcDb2dVertex
 10
348.2431255440959
 20
412.3494650755472
 30
0.0
 70
     8
  0
VERTEX
  5
6E7
330
6E1
100
AcDbEntity
  8
HILF
100
AcDbVertex
100
AcDb2dVertex
 10
348.1068695953185
 20
403.8187401637723
 30
0.0
 70
     8
  0
VERTEX
  5
6E8
330
6E1
100
AcDbEntity
  8
HILF
100
AcDbVertex
100
AcDb2dVertex
 10
347.2561182708233
 20
396.7007047876904
 30
0.0
 70
     8
  0
VERTEX
  5
6E9
330
6E1
100
AcDbEntity
  8
HILF
100
AcDbVertex
100
AcDb2dVertex
 10
345.8917223408629
 20
390.7069215027756
 30
0.0
 70
     8
  0
VERTEX
  5
6EA
330
6E1
100
AcDbEntity
  8
HILF
100
AcDbVertex
100
AcDb2dVertex
 10
344.2145325756903
 20
385.5489528645022
 30
0.0
 70
     8
  0
VERTEX
  5
6EB
330
6E1
100
AcDbEntity
  8
HILF
100
AcDbVertex
100
AcDb2dVertex
 10
342.425399745558
 20
380.9383614283447
 30
0.0
 70
     8
  0
VERTEX
  5
6EC
330
6E1
100
AcDbEntity
  8
HILF
100
AcDbVertex
100
AcDb2dVertex
 10
340.6959828062702
 20
376.6262592235107
 30
0.0
 70
     8
  0
VERTEX
  5
6ED
330
6E1
100
AcDbEntity
  8
HILF
100
AcDbVertex
100
AcDb2dVertex
 10
339.0811734558367
 20
372.5219561741429
 30
0.0
 70
     8
  0
VERTEX
  5
6EE
330
6E1
100
AcDbEntity
  8
HILF
100
AcDbVertex
100
AcDb2dVertex
 10
337.6066715778188
 20
368.574311678117
 30
0.0
 70
     8
  0
VERTEX
  5
6EF
330
6E1
100
AcDbEntity
  8
HILF
100
AcDbVertex
100
AcDb2dVertex
 10
336.2981770557778
 20
364.732185133309
 30
0.0
 70
     8
  0
VERTEX
  5
6F0
330
6E1
100
AcDbEntity
  8
HILF
100
AcDbVertex
100
AcDb2dVertex
 10
335.181389773275
 20
360.9444359375949
 30
0.0
 70
     8
  0
VERTEX
  5
6F1
330
6E1
100
AcDbEntity
  8
HILF
100
AcDbVertex
100
AcDb2dVertex
 10
334.2820096138717
 20
357.1599234888507
 30
0.0
 70
     8
  0
VERTEX
  5
6F2
330
6E1
100
AcDbEntity
  8
HILF
100
AcDbVertex
100
AcDb2dVertex
 10
333.6257364611289
 20
353.3275071849524
 30
0.0
 70
     8
  0
VERTEX
  5
6F3
330
6E1
100
AcDbEntity
  8
HILF
100
AcDbVertex
100
AcDb2dVertex
 10
333.2382701986083
 20
349.3960464237759
 30
0.0
 70
     8
  0
VERTEX
  5
6F4
330
6E1
100
AcDbEntity
  8
HILF
100
AcDbVertex
100
AcDb2dVertex
 10
333.1442498490502
 20
345.2793620560346
 30
0.0
 70
     8
  0
VERTEX
  5
6F5
330
6E1
100
AcDbEntity
  8
HILF
100
AcDbVertex
100
AcDb2dVertex
 10
333.3640709919125
 20
340.7511207437925
 30
0.0
 70
     8
  0
VERTEX
  5
6F6
330
6E1
100
AcDbEntity
  8
HILF
100
AcDbVertex
100
AcDb2dVertex
 10
333.9170683458323
 20
335.5499506019504
 30
0.0
 70
     8
  0
VERTEX
  5
6F7
330
6E1
100
AcDbEntity
  8
HILF
100
AcDbVertex
100
AcDb2dVertex
 10
334.8225766294469
 20
329.4144797454099
 30
0.0
 70
     8
  0
VERTEX
  5
6F8
330
6E1
100
AcDbEntity
  8
HILF
100
AcDbVertex
100
AcDb2dVertex
 10
336.0999305613932
 20
322.083336289072
 30
0.0
 70
     8
  0
VERTEX
  5
6F9
330
6E1
100
AcDbEntity
  8
HILF
100
AcDbVertex
100
AcDb2dVertex
 10
337.7684648603084
 20
313.295148347838
 30
0.0
 70
     8
  0
VERTEX
  5
6FA
330
6E1
100
AcDbEntity
  8
HILF
100
AcDbVertex
100
AcDb2dVertex
 10
339.8475142448297
 20
302.7885440366091
 30
0.0
 70
     8
  0
VERTEX
  5
6FB
330
6E1
100
AcDbEntity
  8
HILF
100
AcDbVertex
100
AcDb2dVertex
 10
342.3564134335942
 20
290.3021514702866
 30
0.0
 70
     8
  0
VERTEX
  5
6FC
330
6E1
100
AcDbEntity
  8
HILF
100
AcDbVertex
100
AcDb2dVertex
 10
352.8572371666105
 20
407.3433116423268
 30
0.0
 70
    16
  0
VERTEX
  5
6FD
330
6E1
100
AcDbEntity
  8
HILF
100
AcDbVertex
100
AcDb2dVertex
 10
341.4770508890987
 20
378.1763373473842
 30
0.0
 70
    16
  0
VERTEX
  5
6FE
330
6E1
100
AcDbEntity
  8
HILF
100
AcDbVertex
100
AcDb2dVertex
 10
330.0968646115868
 20
350.998020390733
 30
0.0
 70
    16
  0
VERTEX
  5
6FF
330
6E1
100
AcDbEntity
  8
HILF
100
AcDbVertex
100
AcDb2dVertex
 10
335.0756961079982
 20
326.4712465518039
 30
0.0
 70
    16
  0
VERTEX
  5
700
330
6E1
100
AcDbEntity
  8
HILF
100
AcDbVertex
100
AcDb2dVertex
 10
342.3564134335942
 20
290.3021514702866
 30
0.0
 70
    16
  0
SEQEND
  5
701
330
6E1
100
AcDbEntity
  8
HILF
  0
POLYLINE
  5
702
330
1E
100
AcDbEntity
  8
HILF
100
AcDb2dPolyline
 66
     1
 10
0.0
 20
0.0
 30
0.0
 70
     4
 75
     6
  0
VERTEX
  5
703
330
702
100
AcDbEntity
  8
HILF
100
AcDbVertex
100
AcDb2dVertex
 10
347.3564134335942
 20
449.3021514702866
 30
0.0
 70
    16
  0
VERTEX
  5
704
330
702
100
AcDbEntity
  8
HILF
100
AcDbVertex
100
AcDb2dVertex
 10
347.3564134335942
 20
449.3021514702866
 30
0.0
 70
     8
  0
VERTEX
  5
705
330
702
100
AcDbEntity
  8
HILF
100
AcDbVertex
100
AcDb2dVertex
 10
350.5687482334865
 20
434.8027332842787
 30
0.0
 70
     8
  0
VERTEX
  5
706
330
702
100
AcDbEntity
  8
HILF
100
AcDbVertex
100
AcDb2dVertex
 10
352.4640353469028
 20
422.5813169675408
 30
0.0
 70
     8
  0
VERTEX
  5
707
330
702
100
AcDbEntity
  8
HILF
100
AcDbVertex
100
AcDb2dVertex
 10
353.2431255440959
 20
412.3494650755472
 30
0.0
 70
     8
  0
VERTEX
  5
708
330
702
100
AcDbEntity
  8
HILF
100
AcDbVertex
100
AcDb2dVertex
 10
353.1068695953185
 20
403.8187401637723
 30
0.0
 70
     8
  0
VERTEX
  5
709
330
702
100
AcDbEntity
  8
HILF
100
AcDbVertex
100
AcDb2dVertex
 10
352.2561182708233
 20
396.7007047876904
 30
0.0
 70
     8
  0
VERTEX
  5
70A
330
702
100
AcDbEntity
  8
HILF
100
AcDbVertex
100
AcDb2dVertex
 10
350.891722340863
 20
390.7069215027756
 30
0.0
 70
     8
  0
VERTEX
  5
70B
330
702
100
AcDbEntity
  8
HILF
100
AcDbVertex
100
AcDb2dVertex
 10
349.2145325756903
 20
385.5489528645022
 30
0.0
 70
     8
  0
VERTEX
  5
70C
330
702
100
AcDbEntity
  8
HILF
100
AcDbVertex
100
AcDb2dVertex
 10
347.425399745558
 20
380.9383614283447
 30
0.0
 70
     8
  0
VERTEX
  5
70D
330
702
100
AcDbEntity
  8
HILF
100
AcDbVertex
100
AcDb2dVertex
 10
345.6959828062701
 20
376.6262592235107
 30
0.0
 70
     8
  0
VERTEX
  5
70E
330
702
100
AcDbEntity
  8
HILF
100
AcDbVertex
100
AcDb2dVertex
 10
344.0811734558367
 20
372.5219561741429
 30
0.0
 70
     8
  0
VERTEX
  5
70F
330
702
100
AcDbEntity
  8
HILF
100
AcDbVertex
100
AcDb2dVertex
 10
342.6066715778188
 20
368.574311678117
 30
0.0
 70
     8
  0
VERTEX
  5
710
330
702
100
AcDbEntity
  8
HILF
100
AcDbVertex
100
AcDb2dVertex
 10
341.2981770557778
 20
364.732185133309
 30
0.0
 70
     8
  0
VERTEX
  5
711
330
702
100
AcDbEntity
  8
HILF
100
AcDbVertex
100
AcDb2dVertex
 10
340.181389773275
 20
360.9444359375949
 30
0.0
 70
     8
  0
VERTEX
  5
712
330
702
100
AcDbEntity
  8
HILF
100
AcDbVertex
100
AcDb2dVertex
 10
339.2820096138716
 20
357.1599234888507
 30
0.0
 70
     8
  0
VERTEX
  5
713
330
702
100
AcDbEntity
  8
HILF
100
AcDbVertex
100
AcDb2dVertex
 10
338.625736461129
 20
353.3275071849524
 30
0.0
 70
     8
  0
VERTEX
  5
714
330
702
100
AcDbEntity
  8
HILF
100
AcDbVertex
100
AcDb2dVertex
 10
338.2382701986083
 20
349.3960464237759
 30
0.0
 70
     8
  0
VERTEX
  5
715
330
702
100
AcDbEntity
  8
HILF
100
AcDbVertex
100
AcDb2dVertex
 10
338.1442498490502
 20
345.2793620560346
 30
0.0
 70
     8
  0
VERTEX
  5
716
330
702
100
AcDbEntity
  8
HILF
100
AcDbVertex
100
AcDb2dVertex
 10
338.3640709919125
 20
340.7511207437925
 30
0.0
 70
     8
  0
VERTEX
  5
717
330
702
100
AcDbEntity
  8
HILF
100
AcDbVertex
100
AcDb2dVertex
 10
338.9170683458323
 20
335.5499506019504
 30
0.0
 70
     8
  0
VERTEX
  5
718
330
702
100
AcDbEntity
  8
HILF
100
AcDbVertex
100
AcDb2dVertex
 10
339.8225766294469
 20
329.4144797454099
 30
0.0
 70
     8
  0
VERTEX
  5
719
330
702
100
AcDbEntity
  8
HILF
100
AcDbVertex
100
AcDb2dVertex
 10
341.0999305613931
 20
322.083336289072
 30
0.0
 70
     8
  0
VERTEX
  5
71A
330
702
100
AcDbEntity
  8
HILF
100
AcDbVertex
100
AcDb2dVertex
 10
342.7684648603084
 20
313.295148347838
 30
0.0
 70
     8
  0
VERTEX
  5
71B
330
702
100
AcDbEntity
  8
HILF
100
AcDbVertex
100
AcDb2dVertex
 10
344.8475142448297
 20
302.7885440366091
 30
0.0
 70
     8
  0
VERTEX
  5
71C
330
702
100
AcDbEntity
  8
HILF
100
AcDbVertex
100
AcDb2dVertex
 10
347.3564134335942
 20
290.3021514702866
 30
0.0
 70
     8
  0
VERTEX
  5
71D
330
702
100
AcDbEntity
  8
HILF
100
AcDbVertex
100
AcDb2dVertex
 10
357.8572371666106
 20
407.3433116423268
 30
0.0
 70
    16
  0
VERTEX
  5
71E
330
702
100
AcDbEntity
  8
HILF
100
AcDbVertex
100
AcDb2dVertex
 10
346.4770508890987
 20
378.1763373473842
 30
0.0
 70
    16
  0
VERTEX
  5
71F
330
702
100
AcDbEntity
  8
HILF
100
AcDbVertex
100
AcDb2dVertex
 10
335.0968646115868
 20
350.998020390733
 30
0.0
 70
    16
  0
VERTEX
  5
720
330
702
100
AcDbEntity
  8
HILF
100
AcDbVertex
100
AcDb2dVertex
 10
340.0756961079982
 20
326.4712465518039
 30
0.0
 70
    16
  0
VERTEX
  5
721
330
702
100
AcDbEntity
  8
HILF
100
AcDbVertex
100
AcDb2dVertex
 10
347.3564134335942
 20
290.3021514702866
 30
0.0
 70
    16
  0
SEQEND
  5
722
330
702
100
AcDbEntity
  8
HILF
  0
POLYLINE
  5
723
330
1E
100
AcDbEntity
  8
HILF
100
AcDb2dPolyline
 66
     1
 10
0.0
 20
0.0
 30
0.0
 70
     4
 75
     6
  0
VERTEX
  5
724
330
723
100
AcDbEntity
  8
HILF
100
AcDbVertex
100
AcDb2dVertex
 10
347.3564134335942
 20
449.3021514702866
 30
0.0
 70
    16
  0
VERTEX
  5
725
330
723
100
AcDbEntity
  8
HILF
100
AcDbVertex
100
AcDb2dVertex
 10
347.3564134335942
 20
449.3021514702866
 30
0.0
 70
     8
  0
VERTEX
  5
726
330
723
100
AcDbEntity
  8
HILF
100
AcDbVertex
100
AcDb2dVertex
 10
350.5687482334865
 20
434.8027332842787
 30
0.0
 70
     8
  0
VERTEX
  5
727
330
723
100
AcDbEntity
  8
HILF
100
AcDbVertex
100
AcDb2dVertex
 10
352.4640353469028
 20
422.5813169675408
 30
0.0
 70
     8
  0
VERTEX
  5
728
330
723
100
AcDbEntity
  8
HILF
100
AcDbVertex
100
AcDb2dVertex
 10
353.2431255440959
 20
412.3494650755472
 30
0.0
 70
     8
  0
VERTEX
  5
729
330
723
100
AcDbEntity
  8
HILF
100
AcDbVertex
100
AcDb2dVertex
 10
353.1068695953185
 20
403.8187401637723
 30
0.0
 70
     8
  0
VERTEX
  5
72A
330
723
100
AcDbEntity
  8
HILF
100
AcDbVertex
100
AcDb2dVertex
 10
352.2561182708233
 20
396.7007047876904
 30
0.0
 70
     8
  0
VERTEX
  5
72B
330
723
100
AcDbEntity
  8
HILF
100
AcDbVertex
100
AcDb2dVertex
 10
350.891722340863
 20
390.7069215027756
 30
0.0
 70
     8
  0
VERTEX
  5
72C
330
723
100
AcDbEntity
  8
HILF
100
AcDbVertex
100
AcDb2dVertex
 10
349.2145325756903
 20
385.5489528645022
 30
0.0
 70
     8
  0
VERTEX
  5
72D
330
723
100
AcDbEntity
  8
HILF
100
AcDbVertex
100
AcDb2dVertex
 10
347.425399745558
 20
380.9383614283447
 30
0.0
 70
     8
  0
VERTEX
  5
72E
330
723
100
AcDbEntity
  8
HILF
100
AcDbVertex
100
AcDb2dVertex
 10
345.6959828062701
 20
376.6262592235107
 30
0.0
 70
     8
  0
VERTEX
  5
72F
330
723
100
AcDbEntity
  8
HILF
100
AcDbVertex
100
AcDb2dVertex
 10
344.0811734558367
 20
372.5219561741429
 30
0.0
 70
     8
  0
VERTEX
  5
730
330
723
100
AcDbEntity
  8
HILF
100
AcDbVertex
100
AcDb2dVertex
 10
342.6066715778188
 20
368.574311678117
 30
0.0
 70
     8
  0
VERTEX
  5
731
330
723
100
AcDbEntity
  8
HILF
100
AcDbVertex
100
AcDb2dVertex
 10
341.2981770557778
 20
364.732185133309
 30
0.0
 70
     8
  0
VERTEX
  5
732
330
723
100
AcDbEntity
  8
HILF
100
AcDbVertex
100
AcDb2dVertex
 10
340.181389773275
 20
360.9444359375949
 30
0.0
 70
     8
  0
VERTEX
  5
733
330
723
100
AcDbEntity
  8
HILF
100
AcDbVertex
100
AcDb2dVertex
 10
339.2820096138716
 20
357.1599234888507
 30
0.0
 70
     8
  0
VERTEX
  5
734
330
723
100
AcDbEntity
  8
HILF
100
AcDbVertex
100
AcDb2dVertex
 10
338.625736461129
 20
353.3275071849524
 30
0.0
 70
     8
  0
VERTEX
  5
735
330
723
100
AcDbEntity
  8
HILF
100
AcDbVertex
100
AcDb2dVertex
 10
338.2382701986083
 20
349.3960464237759
 30
0.0
 70
     8
  0
VERTEX
  5
736
330
723
100
AcDbEntity
  8
HILF
100
AcDbVertex
100
AcDb2dVertex
 10
338.1442498490502
 20
345.2793620560346
 30
0.0
 70
     8
  0
VERTEX
  5
737
330
723
100
AcDbEntity
  8
HILF
100
AcDbVertex
100
AcDb2dVertex
 10
338.3640709919125
 20
340.7511207437925
 30
0.0
 70
     8
  0
VERTEX
  5
738
330
723
100
AcDbEntity
  8
HILF
100
AcDbVertex
100
AcDb2dVertex
 10
338.9170683458323
 20
335.5499506019504
 30
0.0
 70
     8
  0
VERTEX
  5
739
330
723
100
AcDbEntity
  8
HILF
100
AcDbVertex
100
AcDb2dVertex
 10
339.8225766294469
 20
329.4144797454099
 30
0.0
 70
     8
  0
VERTEX
  5
73A
330
723
100
AcDbEntity
  8
HILF
100
AcDbVertex
100
AcDb2dVertex
 10
341.0999305613931
 20
322.083336289072
 30
0.0
 70
     8
  0
VERTEX
  5
73B
330
723
100
AcDbEntity
  8
HILF
100
AcDbVertex
100
AcDb2dVertex
 10
342.7684648603084
 20
313.295148347838
 30
0.0
 70
     8
  0
VERTEX
  5
73C
330
723
100
AcDbEntity
  8
HILF
100
AcDbVertex
100
AcDb2dVertex
 10
344.8475142448297
 20
302.7885440366091
 30
0.0
 70
     8
  0
VERTEX
  5
73D
330
723
100
AcDbEntity
  8
HILF
100
AcDbVertex
100
AcDb2dVertex
 10
347.3564134335942
 20
290.3021514702866
 30
0.0
 70
     8
  0
VERTEX
  5
73E
330
723
100
AcDbEntity
  8
HILF
100
AcDbVertex
100
AcDb2dVertex
 10
357.8572371666106
 20
407.3433116423268
 30
0.0
 70
    16
  0
VERTEX
  5
73F
330
723
100
AcDbEntity
  8
HILF
100
AcDbVertex
100
AcDb2dVertex
 10
346.4770508890987
 20
378.1763373473842
 30
0.0
 70
    16
  0
VERTEX
  5
740
330
723
100
AcDbEntity
  8
HILF
100
AcDbVertex
100
AcDb2dVertex
 10
335.0968646115868
 20
350.998020390733
 30
0.0
 70
    16
  0
VERTEX
  5
741
330
723
100
AcDbEntity
  8
HILF
100
AcDbVertex
100
AcDb2dVertex
 10
340.0756961079982
 20
326.4712465518039
 30
0.0
 70
    16
  0
VERTEX
  5
742
330
723
100
AcDbEntity
  8
HILF
100
AcDbVertex
100
AcDb2dVertex
 10
347.3564134335942
 20
290.3021514702866
 30
0.0
 70
    16
  0
SEQEND
  5
743
330
723
100
AcDbEntity
  8
HILF
  0
DIMENSION
  5
744
330
1E
100
AcDbEntity
  8
BEM
100
AcDbDimension
  2
*D5
 10
80.4651966522581
 20
449.3021514702866
 30
0.0
 11
73.96519665225802
 21
369.8021514702866
 31
0.0
 70
    32
  1
%%c<>
 71
     5
 42
159.0
  3
Standard
100
AcDbAlignedDimension
 13
96.11857713132895
 23
290.3021514702866
 33
0.0
 14
96.11857713132895
 24
449.3021514702866
 34
0.0
 50
90.0
100
AcDbRotatedDimension
1001
ACAD
1000
DSTYLE
1002
{
1070
    40
1040
2.0
1070
    41
1040
3.5
1070
    42
1040
1.0
1070
    43
1040
7.0
1070
    44
1040
1.0
1070
    73
1070
     0
1070
    74
1070
     0
1070
    77
1070
     1
1070
    78
1070
     8
1070
    79
1070
     2
1070
   140
1040
3.5
1070
   141
1040
1.5
1070
   146
1040
0.5142857142857144
1070
   147
1040
1.5
1070
   172
1070
     1
1070
   178
1070
     1
1070
   179
1070
     2
1070
   271
1070
     2
1070
   272
1070
     2
1070
   284
1070
     8
1070
   285
1070
     8
1070
   286
1070
     8
1002
}
  0
LINE
  5
745
330
1E
100
AcDbEntity
  8
STEMPEL
  6
Continuous
100
AcDbLine
 10
96.11857713132895
 20
449.3021514702866
 30
0.0
 11
96.11857713132895
 21
290.3021514702866
 31
0.0
  0
DIMENSION
  5
746
330
1E
100
AcDbEntity
  8
BEM
100
AcDbDimension
  2
*D6
 10
776.1219976504637
 20
236.9816663286841
 30
0.0
 11
436.1202873908963
 21
243.4816663286841
 31
0.0
 70
    32
  1
1000
 71
     5
 42
680.0034205191348
  3
Standard
100
AcDbAlignedDimension
 13
96.11857713132895
 23
290.3021514702866
 33
0.0
 14
776.1219976504637
 24
283.0437066728805
 34
0.0
100
AcDbRotatedDimension
1001
ACAD
1000
DSTYLE
1002
{
1070
    40
1040
2.0
1070
    41
1040
3.5
1070
    42
1040
1.0
1070
    43
1040
7.0
1070
    44
1040
1.0
1070
    73
1070
     0
1070
    74
1070
     0
1070
    77
1070
     1
1070
    78
1070
     8
1070
    79
1070
     2
1070
   140
1040
3.5
1070
   141
1040
1.5
1070
   146
1040
0.5142857142857144
1070
   147
1040
1.5
1070
   172
1070
     1
1070
   178
1070
     1
1070
   179
1070
     2
1070
   271
1070
     2
1070
   272
1070
     2
1070
   284
1070
     8
1070
   285
1070
     8
1070
   286
1070
     8
1002
}
  0
LINE
  5
747
330
1E
100
AcDbEntity
  8
STEMPEL
100
AcDbLine
 10
598.5942497358593
 20
449.3021514702866
 30
0.0
 11
347.3564134335942
 21
449.3021514702866
 31
0.0
  0
LINE
  5
748
330
1E
100
AcDbEntity
  8
STEMPEL
100
AcDbLine
 10
598.5942497358593
 20
290.3021514702866
 30
0.0
 11
347.3564134335942
 21
290.3021514702866
 31
0.0
  0
LINE
  5
749
330
1E
100
AcDbEntity
  8
MITTEL
100
AcDbLine
 10
781.1219976504637
 20
369.8021514702866
 30
0.0
 11
91.11857713132895
 21
369.8021514702866
 31
0.0
  0
ENDSEC
  0
SECTION
  2
OBJECTS
  0
DICTIONARY
  5
C
330
0
100
AcDbDictionary
281
     1
  3
ACAD_COLOR
350
11A
  3
ACAD_GROUP
350
D
  3
ACAD_LAYOUT
350
19
  3
ACAD_MATERIAL
350
119
  3
ACAD_MLINESTYLE
350
16
  3
ACAD_PLOTSETTINGS
350
18
  3
ACAD_PLOTSTYLENAME
350
E
  3
AcDbVariableDictionary
350
125
  0
DICTIONARY
  5
DB
330
1E
100
AcDbDictionary
280
     1
281
     1
  3
ACAD_LAYOUTSELFREF
360
10F
  0
DICTIONARY
  5
DD
330
1A
100
AcDbDictionary
280
     1
281
     1
  3
ACAD_LAYOUTSELFREF
360
10E
  0
DICTIONARY
  5
11A
102
{ACAD_REACTORS
330
C
102
}
330
C
100
AcDbDictionary
281
     1
  0
DICTIONARY
  5
D
102
{ACAD_REACTORS
330
C
102
}
330
C
100
AcDbDictionary
281
     1
  0
DICTIONARY
  5
19
102
{ACAD_REACTORS
330
C
102
}
330
C
100
AcDbDictionary
281
     1
  3
Layout1
350
1D
  3
Model
350
21
  0
DICTIONARY
  5
119
102
{ACAD_REACTORS
330
C
102
}
330
C
100
AcDbDictionary
281
     1
  0
DICTIONARY
  5
16
102
{ACAD_REACTORS
330
C
102
}
330
C
100
AcDbDictionary
281
     1
  3
Standard
350
17
  0
DICTIONARY
  5
18
102
{ACAD_REACTORS
330
C
102
}
330
C
100
AcDbDictionary
281
     1
  0
ACDBDICTIONARYWDFLT
  5
E
102
{ACAD_REACTORS
330
C
102
}
330
C
100
AcDbDictionary
281
     1
  3
Normal
350
F
100
AcDbDictionaryWithDefault
340
F
  0
DICTIONARY
  5
125
102
{ACAD_REACTORS
330
C
102
}
330
C
100
AcDbDictionary
281
     1
  3
DIMASSOC
350
126
  3
PROJECTNAME
350
127
  0
XRECORD
  5
10F
102
{ACAD_REACTORS
330
DB
102
}
330
DB
100
AcDbXrecord
280
     1
340
1E
  0
XRECORD
  5
10E
102
{ACAD_REACTORS
330
DD
102
}
330
DD
100
AcDbXrecord
280
     1
340
1A
  0
LAYOUT
  5
1D
102
{ACAD_REACTORS
330
19
102
}
330
19
100
AcDbPlotSettings
  1

  2
\\NT_WORK01\HP LaserJet 5000 PCL 6
  4

  6

 40
0.0
 41
0.0
 42
0.0
 43
0.0
 44
0.0
 45
0.0
 46
0.0
 47
0.0
 48
0.0
 49
0.0
140
0.0
141
0.0
142
1.0
143
1.0
 70
   688
 72
     0
 73
     0
 74
     5
  7

 75
    16
147
1.0
 76
     0
 77
     2
 78
   300
148
0.0
149
0.0
100
AcDbLayout
  1
Layout1
 70
     0
 71
     1
 10
0.0
 20
0.0
 11
12.0
 21
9.0
 12
0.0
 22
0.0
 32
0.0
 14
1.000000000000000E+20
 24
1.000000000000000E+20
 34
1.000000000000000E+20
 15
-1.000000000000000E+20
 25
-1.000000000000000E+20
 35
-1.000000000000000E+20
146
0.0
 13
0.0
 23
0.0
 33
0.0
 16
1.0
 26
0.0
 36
0.0
 17
0.0
 27
1.0
 37
0.0
 76
     0
330
1A
  0
LAYOUT
  5
21
102
{ACAD_REACTORS
330
19
102
}
330
19
100
AcDbPlotSettings
  1

  2
none_device
  4
Letter_(8.50_x_11.00_Inches)
  6

 40
6.349999904632568
 41
6.349999904632568
 42
6.350006103515625
 43
6.350006103515625
 44
215.8999938964844
 45
279.3999938964844
 46
0.0
 47
0.0
 48
0.0
 49
0.0
140
0.0
141
0.0
142
1.0
143
1.0
 70
 11952
 72
     0
 73
     1
 74
     0
  7

 75
     0
147
1.0
 76
     0
 77
     2
 78
   300
148
-2640.238557613358
149
484.122025555242
100
AcDbLayout
  1
Model
 70
     1
 71
     0
 10
0.0
 20
0.0
 11
12.0
 21
9.0
 12
0.0
 22
0.0
 32
0.0
 14
0.0
 24
0.0
 34
0.0
 15
0.0
 25
0.0
 35
0.0
146
0.0
 13
0.0
 23
0.0
 33
0.0
 16
1.0
 26
0.0
 36
0.0
 17
0.0
 27
1.0
 37
0.0
 76
     0
330
1E
  0
MLINESTYLE
  5
17
102
{ACAD_REACTORS
330
16
102
}
330
16
100
AcDbMlineStyle
  2
STANDARD
 70
     0
  3

 62
   256
 51
90.0
 52
90.0
 71
     2
 49
0.5
 62
   256
  6
BYLAYER
 49
-0.5
 62
   256
  6
BYLAYER
  0
ACDBPLACEHOLDER
  5
F
102
{ACAD_REACTORS
330
E
102
}
330
E
  0
DICTIONARYVAR
  5
126
102
{ACAD_REACTORS
330
125
102
}
330
125
100
DictionaryVariables
280
     0
  1
1
  0
DICTIONARYVAR
  5
127
102
{ACAD_REACTORS
330
125
102
}
330
125
100
DictionaryVariables
280
     0
  1

  0
ENDSEC
  0
EOF
