  0
SECTION
  2
HEADER
  9
$ACADVER
  1
AC1018
  9
$ACADMAINTVER
 70
     2
  9
$DWGCODEPAGE
  3
ANSI_1252
  9
$INSBASE
 10
0.0
 20
0.0
 30
0.0
  9
$EXTMIN
 10
-0.005322321162339
 20
-0.0037676166430174
 30
-0.0000000000000053
  9
$EXTMAX
 10
840.0149686494213
 20
594.0007696009176
 30
0.0000000000000099
  9
$LIMMIN
 10
0.0
 20
0.0
  9
$LIMMAX
 10
840.0
 20
594.0
  9
$ORTHOMODE
 70
     0
  9
$REGENMODE
 70
     1
  9
$FILLMODE
 70
     1
  9
$QTEXTMODE
 70
     0
  9
$MIRRTEXT
 70
     1
  9
$LTSCALE
 40
20.0
  9
$ATTMODE
 70
     1
  9
$TEXTSIZE
 40
3.5
  9
$TRACEWID
 40
1.0
  9
$TEXTSTYLE
  7
STANDARD
  9
$CLAYER
  8
VOLL
  9
$CELTYPE
  6
ByLayer
  9
$CECOLOR
 62
   256
  9
$CELTSCALE
 40
1.0
  9
$DISPSILH
 70
     0
  9
$DIMSCALE
 40
2.0
  9
$DIMASZ
 40
3.5
  9
$DIMEXO
 40
1.0
  9
$DIMDLI
 40
7.0
  9
$DIMRND
 40
0.0
  9
$DIMDLE
 40
0.0
  9
$DIMEXE
 40
1.0
  9
$DIMTP
 40
0.0
  9
$DIMTM
 40
0.0
  9
$DIMTXT
 40
3.5
  9
$DIMCEN
 40
1.5
  9
$DIMTSZ
 40
0.0
  9
$DIMTOL
 70
     0
  9
$DIMLIM
 70
     0
  9
$DIMTIH
 70
     0
  9
$DIMTOH
 70
     0
  9
$DIMSE1
 70
     0
  9
$DIMSE2
 70
     0
  9
$DIMTAD
 70
     1
  9
$DIMZIN
 70
     8
  9
$DIMBLK
  1

  9
$DIMASO
 70
     1
  9
$DIMSHO
 70
     0
  9
$DIMPOST
  1

  9
$DIMAPOST
  1

  9
$DIMALT
 70
     0
  9
$DIMALTD
 70
     2
  9
$DIMALTF
 40
25.4
  9
$DIMLFAC
 40
1.0
  9
$DIMTOFL
 70
     1
  9
$DIMTVP
 40
0.0
  9
$DIMTIX
 70
     0
  9
$DIMSOXD
 70
     0
  9
$DIMSAH
 70
     0
  9
$DIMBLK1
  1

  9
$DIMBLK2
  1

  9
$DIMSTYLE
  2
Standard
  9
$DIMCLRD
 70
     0
  9
$DIMCLRE
 70
     0
  9
$DIMCLRT
 70
     1
  9
$DIMTFAC
 40
0.5142857142857144
  9
$DIMGAP
 40
1.5
  9
$DIMJUST
 70
     0
  9
$DIMSD1
 70
     0
  9
$DIMSD2
 70
     0
  9
$DIMTOLJ
 70
     1
  9
$DIMTZIN
 70
     8
  9
$DIMALTZ
 70
     8
  9
$DIMALTTZ
 70
     8
  9
$DIMUPT
 70
     0
  9
$DIMDEC
 70
     2
  9
$DIMTDEC
 70
     2
  9
$DIMALTU
 70
     2
  9
$DIMALTTD
 70
     2
  9
$DIMTXSTY
  7
STANDARD
  9
$DIMAUNIT
 70
     0
  9
$DIMADEC
 70
     2
  9
$DIMALTRND
 40
0.0
  9
$DIMAZIN
 70
     2
  9
$DIMDSEP
 70
    46
  9
$DIMATFIT
 70
     3
  9
$DIMFRAC
 70
     0
  9
$DIMLDRBLK
  1

  9
$DIMLUNIT
 70
     2
  9
$DIMLWD
 70
    -2
  9
$DIMLWE
 70
    -2
  9
$DIMTMOVE
 70
     0
  9
$LUNITS
 70
     2
  9
$LUPREC
 70
     2
  9
$SKETCHINC
 40
1.0
  9
$FILLETRAD
 40
0.0
  9
$AUNITS
 70
     0
  9
$AUPREC
 70
     0
  9
$MENU
  1
ACAD
  9
$ELEVATION
 40
0.0
  9
$PELEVATION
 40
0.0
  9
$THICKNESS
 40
0.0
  9
$LIMCHECK
 70
     0
  9
$CHAMFERA
 40
0.0
  9
$CHAMFERB
 40
0.0
  9
$CHAMFERC
 40
0.0
  9
$CHAMFERD
 40
0.0
  9
$SKPOLY
 70
     0
  9
$TDCREATE
 40
2455397.867059838
  9
$TDUCREATE
 40
2455397.783726505
  9
$TDUPDATE
 40
2455455.409412280
  9
$TDUUPDATE
 40
2455455.326078947
  9
$TDINDWG
 40
0.0885656134
  9
$TDUSRTIMER
 40
0.0885656134
  9
$USRTIMER
 70
     1
  9
$ANGBASE
 50
0.0
  9
$ANGDIR
 70
     0
  9
$PDMODE
 70
     0
  9
$PDSIZE
 40
0.0
  9
$PLINEWID
 40
0.0
  9
$SPLFRAME
 70
     0
  9
$SPLINETYPE
 70
     6
  9
$SPLINESEGS
 70
     8
  9
$HANDSEED
  5
812
  9
$SURFTAB1
 70
     6
  9
$SURFTAB2
 70
     6
  9
$SURFTYPE
 70
     6
  9
$SURFU
 70
     6
  9
$SURFV
 70
     6
  9
$UCSBASE
  2

  9
$UCSNAME
  2

  9
$UCSORG
 10
0.0
 20
0.0
 30
0.0
  9
$UCSXDIR
 10
1.0
 20
0.0
 30
0.0
  9
$UCSYDIR
 10
0.0
 20
1.0
 30
0.0
  9
$UCSORTHOREF
  2

  9
$UCSORTHOVIEW
 70
     0
  9
$UCSORGTOP
 10
0.0
 20
0.0
 30
0.0
  9
$UCSORGBOTTOM
 10
0.0
 20
0.0
 30
0.0
  9
$UCSORGLEFT
 10
0.0
 20
0.0
 30
0.0
  9
$UCSORGRIGHT
 10
0.0
 20
0.0
 30
0.0
  9
$UCSORGFRONT
 10
0.0
 20
0.0
 30
0.0
  9
$UCSORGBACK
 10
0.0
 20
0.0
 30
0.0
  9
$PUCSBASE
  2

  9
$PUCSNAME
  2

  9
$PUCSORG
 10
0.0
 20
0.0
 30
0.0
  9
$PUCSXDIR
 10
1.0
 20
0.0
 30
0.0
  9
$PUCSYDIR
 10
0.0
 20
1.0
 30
0.0
  9
$PUCSORTHOREF
  2

  9
$PUCSORTHOVIEW
 70
     0
  9
$PUCSORGTOP
 10
0.0
 20
0.0
 30
0.0
  9
$PUCSORGBOTTOM
 10
0.0
 20
0.0
 30
0.0
  9
$PUCSORGLEFT
 10
0.0
 20
0.0
 30
0.0
  9
$PUCSORGRIGHT
 10
0.0
 20
0.0
 30
0.0
  9
$PUCSORGFRONT
 10
0.0
 20
0.0
 30
0.0
  9
$PUCSORGBACK
 10
0.0
 20
0.0
 30
0.0
  9
$USERI1
 70
     0
  9
$USERI2
 70
     0
  9
$USERI3
 70
     0
  9
$USERI4
 70
     0
  9
$USERI5
 70
     0
  9
$USERR1
 40
0.0
  9
$USERR2
 40
0.0
  9
$USERR3
 40
0.0
  9
$USERR4
 40
0.0
  9
$USERR5
 40
0.0
  9
$WORLDVIEW
 70
     1
  9
$SHADEDGE
 70
     3
  9
$SHADEDIF
 70
    70
  9
$TILEMODE
 70
     1
  9
$MAXACTVP
 70
    16
  9
$PINSBASE
 10
0.0
 20
0.0
 30
0.0
  9
$PLIMCHECK
 70
     0
  9
$PEXTMIN
 10
1.000000000000000E+20
 20
1.000000000000000E+20
 30
1.000000000000000E+20
  9
$PEXTMAX
 10
-1.000000000000000E+20
 20
-1.000000000000000E+20
 30
-1.000000000000000E+20
  9
$PLIMMIN
 10
0.0
 20
0.0
  9
$PLIMMAX
 10
12.0
 20
9.0
  9
$UNITMODE
 70
     0
  9
$VISRETAIN
 70
     0
  9
$PLINEGEN
 70
     0
  9
$PSLTSCALE
 70
     0
  9
$TREEDEPTH
 70
  3020
  9
$CMLSTYLE
  2
Standard
  9
$CMLJUST
 70
     0
  9
$CMLSCALE
 40
1.0
  9
$PROXYGRAPHICS
 70
     1
  9
$MEASUREMENT
 70
     0
  9
$CELWEIGHT
370
    -1
  9
$ENDCAPS
280
     0
  9
$JOINSTYLE
280
     0
  9
$LWDISPLAY
290
     0
  9
$INSUNITS
 70
     0
  9
$HYPERLINKBASE
  1

  9
$STYLESHEET
  1
monochrome 1.ctb
  9
$XEDIT
290
     1
  9
$CEPSNTYPE
380
     0
  9
$PSTYLEMODE
290
     1
  9
$FINGERPRINTGUID
  2
{D68B0D0D-A558-11D7-B632-000102183313}
  9
$VERSIONGUID
  2
{F997872E-6646-40E5-B82E-33CF83112BC7}
  9
$EXTNAMES
290
     1
  9
$PSVPSCALE
 40
0.0
  9
$OLESTARTUP
290
     0
  9
$SORTENTS
280
   127
  9
$INDEXCTL
280
     0
  9
$HIDETEXT
280
     0
  9
$XCLIPFRAME
290
     0
  9
$HALOGAP
280
     0
  9
$OBSCOLOR
 70
   257
  9
$OBSLTYPE
280
     0
  9
$INTERSECTIONDISPLAY
280
     0
  9
$INTERSECTIONCOLOR
 70
   257
  9
$DIMASSOC
280
     1
  9
$PROJECTNAME
  1

  0
ENDSEC
  0
SECTION
  2
CLASSES
  0
CLASS
  1
ACDBDICTIONARYWDFLT
  2
AcDbDictionaryWithDefault
  3
ObjectDBX Classes
 90
        0
 91
        1
280
     0
281
     0
  0
CLASS
  1
DICTIONARYVAR
  2
AcDbDictionaryVar
  3
ObjectDBX Classes
 90
        0
 91
        2
280
     0
281
     0
  0
ENDSEC
  0
SECTION
  2
TABLES
  0
TABLE
  2
VPORT
  5
8
330
0
100
AcDbSymbolTable
 70
     2
  0
VPORT
  5
811
330
8
100
AcDbSymbolTableRecord
100
AcDbViewportTableRecord
  2
*Active
 70
     0
 10
0.0
 20
0.0
 11
1.0
 21
1.0
 12
420.0048231641294
 22
296.9985009921373
 13
0.0
 23
0.0
 14
1.0
 24
1.0
 15
10.0
 25
10.0
 16
0.0
 26
0.0
 36
1.0
 17
0.0
 27
0.0
 37
0.0
 40
632.1168465161835
 41
1.336927223719676
 42
50.0
 43
0.0
 44
0.0
 50
0.0
 51
0.0
 71
     0
 72
  1500
 73
     1
 74
     0
 75
     0
 76
     0
 77
     0
 78
     0
281
     0
 65
     1
110
0.0
120
0.0
130
0.0
111
1.0
121
0.0
131
0.0
112
0.0
122
1.0
132
0.0
 79
     0
146
0.0
  0
ENDTAB
  0
TABLE
  2
LTYPE
  5
5
330
0
100
AcDbSymbolTable
 70
     2
  0
LTYPE
  5
13
330
5
100
AcDbSymbolTableRecord
100
AcDbLinetypeTableRecord
  2
ByBlock
 70
     0
  3

 72
    65
 73
     0
 40
0.0
  0
LTYPE
  5
14
330
5
100
AcDbSymbolTableRecord
100
AcDbLinetypeTableRecord
  2
ByLayer
 70
     0
  3

 72
    65
 73
     0
 40
0.0
  0
LTYPE
  5
15
330
5
100
AcDbSymbolTableRecord
100
AcDbLinetypeTableRecord
  2
Continuous
 70
     0
  3
Solid line
 72
    65
 73
     0
 40
0.0
  0
LTYPE
  5
25
330
5
100
AcDbSymbolTableRecord
100
AcDbLinetypeTableRecord
  2
STRICHPUNKT
 70
     0
  3
__ . __ . __ . __ . __ . __ . __ . __ . __ . __
 72
    65
 73
     4
 40
1.0
 49
0.5
 74
     0
 49
-0.25
 74
     0
 49
0.0
 74
     0
 49
-0.25
 74
     0
  0
ENDTAB
  0
TABLE
  2
LAYER
  5
2
330
0
100
AcDbSymbolTable
 70
     9
  0
LAYER
  5
10
330
2
100
AcDbSymbolTableRecord
100
AcDbLayerTableRecord
  2
0
 70
     0
 62
     7
  6
Continuous
370
    -3
390
F
  0
LAYER
  5
2B
330
2
100
AcDbSymbolTableRecord
100
AcDbLayerTableRecord
  2
VOLL
 70
     0
 62
     1
  6
Continuous
370
    -3
390
F
  0
LAYER
  5
2C
330
2
100
AcDbSymbolTableRecord
100
AcDbLayerTableRecord
  2
HILF
 70
     0
 62
     2
  6
Continuous
370
    -3
390
F
  0
LAYER
  5
2D
330
2
100
AcDbSymbolTableRecord
100
AcDbLayerTableRecord
  2
MITTEL
 70
     0
 62
     2
  6
STRICHPUNKT
370
    -3
390
F
  0
LAYER
  5
2F
330
2
100
AcDbSymbolTableRecord
100
AcDbLayerTableRecord
  2
BEM
 70
     0
 62
     7
  6
Continuous
370
    -3
390
F
  0
LAYER
  5
30
330
2
100
AcDbSymbolTableRecord
100
AcDbLayerTableRecord
  2
STEMPEL
 70
     0
 62
     3
  6
Continuous
370
    -3
390
F
  0
LAYER
  5
33
330
2
100
AcDbSymbolTableRecord
100
AcDbLayerTableRecord
  2
TEXT
 70
     0
 62
     7
  6
Continuous
370
    -3
390
F
  0
LAYER
  5
1AC
330
2
100
AcDbSymbolTableRecord
100
AcDbLayerTableRecord
  2
SCHRAFF
 70
     0
 62
     7
  6
Continuous
370
    -3
390
F
  0
LAYER
  5
1AD
330
2
100
AcDbSymbolTableRecord
100
AcDbLayerTableRecord
  2
DEFPOINTS
 70
     0
 62
     7
  6
Continuous
290
     0
370
    -3
390
F
  0
ENDTAB
  0
TABLE
  2
STYLE
  5
3
330
0
100
AcDbSymbolTable
 70
     2
  0
STYLE
  5
11
330
3
100
AcDbSymbolTableRecord
100
AcDbTextStyleTableRecord
  2
STANDARD
 70
     0
 40
0.0
 41
0.8
 50
0.0
 71
     0
 42
3.5
  3
simplex.shx
  4

  0
STYLE
  5
24
330
3
100
AcDbSymbolTableRecord
100
AcDbTextStyleTableRecord
  2
GREEKS
 70
     0
 40
0.0
 41
0.8
 50
0.0
 71
     0
 42
2.5
  3
SIMPLEX.shx
  4

  0
ENDTAB
  0
TABLE
  2
VIEW
  5
6
330
0
100
AcDbSymbolTable
 70
     0
  0
ENDTAB
  0
TABLE
  2
UCS
  5
7
330
0
100
AcDbSymbolTable
 70
     0
  0
ENDTAB
  0
TABLE
  2
APPID
  5
9
330
0
100
AcDbSymbolTable
 70
     1
  0
APPID
  5
12
330
9
100
AcDbSymbolTableRecord
100
AcDbRegAppTableRecord
  2
ACAD
 70
     0
  0
ENDTAB
  0
TABLE
  2
DIMSTYLE
  5
A
330
0
100
AcDbSymbolTable
 70
     1
100
AcDbDimStyleTable
 71
     1
340
A2
  0
DIMSTYLE
105
A2
102
{ACAD_REACTORS
330
6EF
330
6A5
330
686
330
685
330
684
330
683
102
}
330
A
100
AcDbSymbolTableRecord
100
AcDbDimStyleTableRecord
  2
Standard
 70
     0
340
11
  0
ENDTAB
  0
TABLE
  2
BLOCK_RECORD
  5
1
330
0
100
AcDbSymbolTable
 70
     9
  0
BLOCK_RECORD
  5
1E
102
{ACAD_XDICTIONARY
360
DB
102
}
330
1
100
AcDbSymbolTableRecord
100
AcDbBlockTableRecord
  2
*Model_Space
340
21
  0
BLOCK_RECORD
  5
1A
102
{ACAD_XDICTIONARY
360
DD
102
}
330
1
100
AcDbSymbolTableRecord
100
AcDbBlockTableRecord
  2
*Paper_Space
340
1D
  0
BLOCK_RECORD
  5
22
330
1
100
AcDbSymbolTableRecord
100
AcDbBlockTableRecord
  2
LOGO
340
0
102
{BLKREFS
331
56
102
}
  0
BLOCK_RECORD
  5
23
330
1
100
AcDbSymbolTableRecord
100
AcDbBlockTableRecord
  2
LORO
340
0
102
{BLKREFS
331
9B
102
}
  0
BLOCK_RECORD
  5
5A9
330
1
100
AcDbSymbolTableRecord
100
AcDbBlockTableRecord
  2
*X2
340
0
102
{BLKREFS
331
65F
102
}
  0
BLOCK_RECORD
  5
6F4
330
1
100
AcDbSymbolTableRecord
100
AcDbBlockTableRecord
  2
*D3
340
0
  0
BLOCK_RECORD
  5
701
330
1
100
AcDbSymbolTableRecord
100
AcDbBlockTableRecord
  2
*D4
340
0
  0
BLOCK_RECORD
  5
70E
330
1
100
AcDbSymbolTableRecord
100
AcDbBlockTableRecord
  2
*D5
340
0
  0
BLOCK_RECORD
  5
71B
330
1
100
AcDbSymbolTableRecord
100
AcDbBlockTableRecord
  2
*D6
340
0
  0
BLOCK_RECORD
  5
742
330
1
100
AcDbSymbolTableRecord
100
AcDbBlockTableRecord
  2
*D7
340
0
  0
BLOCK_RECORD
  5
74F
330
1
100
AcDbSymbolTableRecord
100
AcDbBlockTableRecord
  2
*D8
340
0
  0
ENDTAB
  0
ENDSEC
  0
SECTION
  2
BLOCKS
  0
BLOCK
  5
37
330
1E
100
AcDbEntity
  8
0
100
AcDbBlockBegin
  2
*Model_Space
 70
     0
 10
0.0
 20
0.0
 30
0.0
  3
*Model_Space
  1

  0
ENDBLK
  5
38
330
1E
100
AcDbEntity
  8
0
100
AcDbBlockEnd
  0
BLOCK
  5
35
330
1A
100
AcDbEntity
 67
     1
  8
0
100
AcDbBlockBegin
  2
*Paper_Space
 70
     0
 10
0.0
 20
0.0
 30
0.0
  3
*Paper_Space
  1

  0
ENDBLK
  5
36
330
1A
100
AcDbEntity
 67
     1
  8
0
100
AcDbBlockEnd
  0
BLOCK
  5
39
330
22
100
AcDbEntity
  8
0
100
AcDbBlockBegin
  2
LOGO
 70
     0
 10
0.0
 20
0.0
 30
0.0
  3
LOGO
  1

  0
ARC
  5
3A
330
22
100
AcDbEntity
  8
0
100
AcDbCircle
 10
11.59973089678112
 20
-9.271599258481501
 30
0.0
 40
4.5
100
AcDbArc
 50
270.0
 51
231.0575587310159
  0
LINE
  5
3B
330
22
100
AcDbEntity
  8
0
100
AcDbLine
 10
3.599730896781125
 20
-4.771599258481529
 30
0.0
 11
3.599730896781153
 21
-11.77159925848133
 31
0.0
  0
LINE
  5
3C
330
22
100
AcDbEntity
  8
0
100
AcDbLine
 10
2.599730896781125
 20
-4.771599258481529
 30
0.0
 11
2.599730896781153
 21
-11.77159925848133
 31
0.0
  0
CIRCLE
  5
3D
330
22
100
AcDbEntity
  8
0
100
AcDbCircle
 10
11.59973089678112
 20
-9.271599258481501
 30
0.0
 40
3.5
  0
ARC
  5
3E
330
22
100
AcDbEntity
  8
0
100
AcDbCircle
 10
31.59973089678115
 20
-9.271599258481472
 30
0.0
 40
4.5
100
AcDbArc
 50
270.0
 51
231.0575587310182
  0
LINE
  5
3F
330
22
100
AcDbEntity
  8
0
100
AcDbLine
 10
17.59973089678112
 20
-4.771599258481472
 30
0.0
 11
17.59973089678115
 21
-13.77159925848147
 31
0.0
  0
ARC
  5
40
330
22
100
AcDbEntity
  8
0
100
AcDbCircle
 10
22.59973089678116
 20
-7.271599258481472
 30
0.0
 40
2.5
100
AcDbArc
 50
293.1161887722295
 51
90.0
  0
CIRCLE
  5
41
330
22
100
AcDbEntity
  8
0
100
AcDbCircle
 10
31.59973089678115
 20
-9.271599258481472
 30
0.0
 40
3.5
  0
ARC
  5
42
330
22
100
AcDbEntity
  8
0
100
AcDbCircle
 10
4.599730896781153
 20
-11.77159925848133
 30
0.0
 40
1.0
100
AcDbArc
 50
180.0
 51
270.0
  0
ARC
  5
43
330
22
100
AcDbEntity
  8
0
100
AcDbCircle
 10
4.599730896781153
 20
-11.77159925848133
 30
0.0
 40
2.0
100
AcDbArc
 50
179.9999999999992
 51
270.0
  0
LINE
  5
44
330
22
100
AcDbEntity
  8
0
100
AcDbLine
 10
11.59973089678115
 20
-13.77159925848144
 30
0.0
 11
4.599730896781153
 21
-13.77159925848147
 31
0.0
  0
LINE
  5
45
330
22
100
AcDbEntity
  8
0
100
AcDbLine
 10
8.771303772034769
 20
-12.77159925848136
 30
0.0
 11
4.599730896781153
 21
-12.77159925848133
 31
0.0
  0
LINE
  5
46
330
22
100
AcDbEntity
  8
0
100
AcDbLine
 10
31.59973089678115
 20
-13.77159925848147
 30
0.0
 11
23.6715276665056
 21
-13.77159925848144
 31
0.0
  0
LINE
  5
47
330
22
100
AcDbEntity
  8
0
100
AcDbLine
 10
23.56565672307022
 20
-9.51278021337896
 30
0.0
 11
24.4388546544846
 21
-12.77159925848144
 31
0.0
  0
LINE
  5
48
330
22
100
AcDbEntity
  8
0
100
AcDbLine
 10
22.59973089678116
 20
-9.771599258481472
 30
0.0
 11
18.59973089678112
 21
-9.771599258481472
 31
0.0
  0
LINE
  5
49
330
22
100
AcDbEntity
  8
0
100
AcDbLine
 10
18.59973089678115
 20
-13.77159925848144
 30
0.0
 11
17.59973089678115
 21
-13.77159925848144
 31
0.0
  0
LINE
  5
4A
330
22
100
AcDbEntity
  8
0
100
AcDbLine
 10
18.59973089678115
 20
-9.771599258481472
 30
0.0
 11
18.59973089678115
 21
-13.77159925848144
 31
0.0
  0
LINE
  5
4B
330
22
100
AcDbEntity
  8
0
100
AcDbLine
 10
22.59973089678116
 20
-9.771599258481472
 30
0.0
 11
23.67152766650562
 21
-13.77159925848147
 31
0.0
  0
ARC
  5
4C
330
22
100
AcDbEntity
  8
0
100
AcDbCircle
 10
22.59973089678116
 20
-7.271599258481472
 30
0.0
 40
2.5
100
AcDbArc
 50
270.0
 51
270.0000000000007
  0
LINE
  5
4D
330
22
100
AcDbEntity
  8
0
100
AcDbLine
 10
28.77130377203494
 20
-12.77159925848147
 30
0.0
 11
24.43885465448463
 21
-12.77159925848144
 31
0.0
  0
LINE
  5
4E
330
22
100
AcDbEntity
  8
0
100
AcDbLine
 10
3.599730896781125
 20
-4.771599258481472
 30
0.0
 11
2.599730896781125
 21
-4.771599258481472
 31
0.0
  0
LINE
  5
4F
330
22
100
AcDbEntity
  8
0
100
AcDbLine
 10
22.59973089678116
 20
-8.771599258481472
 30
0.0
 11
18.59973089678115
 21
-8.771599258481472
 31
0.0
  0
LINE
  5
50
330
22
100
AcDbEntity
  8
0
100
AcDbLine
 10
22.59973089678116
 20
-5.771599258481472
 30
0.0
 11
18.59973089678115
 21
-5.771599258481472
 31
0.0
  0
LINE
  5
51
330
22
100
AcDbEntity
  8
0
100
AcDbLine
 10
22.59973089678116
 20
-4.771599258481472
 30
0.0
 11
17.59973089678115
 21
-4.771599258481472
 31
0.0
  0
LINE
  5
52
330
22
100
AcDbEntity
  8
0
100
AcDbLine
 10
18.59973089678115
 20
-5.771599258481472
 30
0.0
 11
18.59973089678115
 21
-8.771599258481472
 31
0.0
  0
ARC
  5
53
330
22
100
AcDbEntity
  8
0
100
AcDbCircle
 10
22.59973089678116
 20
-7.271599258481472
 30
0.0
 40
1.5
100
AcDbArc
 50
270.0
 51
90.0
  0
ENDBLK
  5
54
330
22
100
AcDbEntity
  8
0
100
AcDbBlockEnd
  0
BLOCK
  5
55
330
23
100
AcDbEntity
  8
0
100
AcDbBlockBegin
  2
LORO
 70
     0
 10
0.0
 20
0.0
 30
0.0
  3
LORO
  1

  0
INSERT
  5
56
330
23
100
AcDbEntity
  8
STEMPEL
100
AcDbBlockReference
  2
LOGO
 10
-1.748032802467321
 20
3.771489518552062
 30
0.0
  0
ENDBLK
  5
57
330
23
100
AcDbEntity
  8
0
100
AcDbBlockEnd
  0
BLOCK
  5
5AA
330
5A9
100
AcDbEntity
  8
0
100
AcDbBlockBegin
  2
*X2
 70
     1
 10
0.0
 20
0.0
 30
0.0
  3
*X2
  1

  0
LINE
  5
5AB
330
5A9
100
AcDbEntity
  8
0
 62
     0
100
AcDbLine
 10
433.7946554269295
 20
416.8240926784524
 30
0.0
 11
435.3946554269297
 21
418.4240926784526
 31
0.0
  0
LINE
  5
5AC
330
5A9
100
AcDbEntity
  8
0
 62
     0
100
AcDbLine
 10
430.9662283021833
 20
416.8240926784524
 30
0.0
 11
432.5662283021835
 21
418.4240926784526
 31
0.0
  0
LINE
  5
5AD
330
5A9
100
AcDbEntity
  8
0
 62
     0
100
AcDbLine
 10
428.1378011774371
 20
416.8240926784524
 30
0.0
 11
429.7378011774373
 21
418.4240926784526
 31
0.0
  0
LINE
  5
5AE
330
5A9
100
AcDbEntity
  8
0
 62
     0
100
AcDbLine
 10
425.3093740526909
 20
416.8240926784524
 30
0.0
 11
426.9093740526911
 21
418.4240926784526
 31
0.0
  0
LINE
  5
5AF
330
5A9
100
AcDbEntity
  8
0
 62
     0
100
AcDbLine
 10
422.4809469279447
 20
416.8240926784524
 30
0.0
 11
424.0809469279449
 21
418.4240926784526
 31
0.0
  0
LINE
  5
5B0
330
5A9
100
AcDbEntity
  8
0
 62
     0
100
AcDbLine
 10
419.6525198031986
 20
416.8240926784524
 30
0.0
 11
421.2525198031987
 21
418.4240926784526
 31
0.0
  0
LINE
  5
5B1
330
5A9
100
AcDbEntity
  8
0
 62
     0
100
AcDbLine
 10
416.8240926784524
 20
416.8240926784524
 30
0.0
 11
418.4240926784526
 21
418.4240926784526
 31
0.0
  0
LINE
  5
5B2
330
5A9
100
AcDbEntity
  8
0
 62
     0
100
AcDbLine
 10
436.6230825516757
 20
416.8240926784524
 30
0.0
 11
438.2230825516759
 21
418.4240926784526
 31
0.0
  0
LINE
  5
5B3
330
5A9
100
AcDbEntity
  8
0
 62
     0
100
AcDbLine
 10
439.4515096764219
 20
416.8240926784524
 30
0.0
 11
441.051509676422
 21
418.4240926784526
 31
0.0
  0
LINE
  5
5B4
330
5A9
100
AcDbEntity
  8
0
 62
     0
100
AcDbLine
 10
442.2799368011681
 20
416.8240926784524
 30
0.0
 11
443.8799368011682
 21
418.4240926784526
 31
0.0
  0
LINE
  5
5B5
330
5A9
100
AcDbEntity
  8
0
 62
     0
100
AcDbLine
 10
445.1083639259143
 20
416.8240926784524
 30
0.0
 11
446.7083639259144
 21
418.4240926784526
 31
0.0
  0
LINE
  5
5B6
330
5A9
100
AcDbEntity
  8
0
 62
     0
100
AcDbLine
 10
447.9367910506605
 20
416.8240926784524
 30
0.0
 11
449.5367910506606
 21
418.4240926784526
 31
0.0
  0
LINE
  5
5B7
330
5A9
100
AcDbEntity
  8
0
 62
     0
100
AcDbLine
 10
450.7652181754067
 20
416.8240926784524
 30
0.0
 11
452.3652181754068
 21
418.4240926784526
 31
0.0
  0
LINE
  5
5B8
330
5A9
100
AcDbEntity
  8
0
 62
     0
100
AcDbLine
 10
453.5936453001529
 20
416.8240926784524
 30
0.0
 11
455.193645300153
 21
418.4240926784526
 31
0.0
  0
ENDBLK
  5
5B9
330
5A9
100
AcDbEntity
  8
0
100
AcDbBlockEnd
  0
BLOCK
  5
6FF
330
6F4
100
AcDbEntity
  8
0
100
AcDbBlockBegin
  2
*D3
 70
     1
 10
0.0
 20
0.0
 30
0.0
  3
*D3
  1

  0
LINE
  5
7EB
330
6F4
100
AcDbEntity
  8
BEM
 62
     0
370
    -2
100
AcDbLine
 10
111.5801343599281
 20
320.9240926784526
 30
0.0
 11
111.5801343599281
 21
297.9558142427444
 31
0.0
  0
LINE
  5
7EC
330
6F4
100
AcDbEntity
  8
BEM
 62
     0
370
    -2
100
AcDbLine
 10
186.5801343599281
 20
320.9240926784526
 30
0.0
 11
186.5801343599281
 21
297.9558142427444
 31
0.0
  0
LINE
  5
7ED
330
6F4
100
AcDbEntity
  8
BEM
 62
     0
370
    -2
100
AcDbLine
 10
118.5801343599281
 20
299.9558142427444
 30
0.0
 11
179.5801343599281
 21
299.9558142427444
 31
0.0
  0
SOLID
  5
7EE
330
6F4
100
AcDbEntity
  8
BEM
 62
     0
100
AcDbTrace
 10
118.5801343599281
 20
301.1224809094112
 30
0.0
 11
118.5801343599281
 21
298.7891475760778
 31
0.0
 12
111.5801343599281
 22
299.9558142427444
 32
0.0
 13
111.5801343599281
 23
299.9558142427444
 33
0.0
  0
SOLID
  5
7EF
330
6F4
100
AcDbEntity
  8
BEM
 62
     0
100
AcDbTrace
 10
179.5801343599281
 20
301.1224809094112
 30
0.0
 11
179.5801343599281
 21
298.7891475760778
 31
0.0
 12
186.5801343599281
 22
299.9558142427444
 32
0.0
 13
186.5801343599281
 23
299.9558142427444
 33
0.0
  0
MTEXT
  5
7F0
330
6F4
100
AcDbEntity
  8
BEM
 62
     1
100
AcDbMText
 10
149.0801343599281
 20
306.4558142427444
 30
0.0
 40
7.0
 41
0.0
 71
     5
 72
     1
  1
\A1;75
 73
     1
 44
1.0
  0
POINT
  5
7F1
330
6F4
100
AcDbEntity
  8
DEFPOINTS
 62
     0
100
AcDbPoint
 10
111.5801343599281
 20
322.9240926784526
 30
0.0
  0
POINT
  5
7F2
330
6F4
100
AcDbEntity
  8
DEFPOINTS
 62
     0
100
AcDbPoint
 10
186.5801343599281
 20
322.9240926784526
 30
0.0
  0
POINT
  5
7F3
330
6F4
100
AcDbEntity
  8
DEFPOINTS
 62
     0
100
AcDbPoint
 10
186.5801343599281
 20
299.9558142427444
 30
0.0
  0
ENDBLK
  5
700
330
6F4
100
AcDbEntity
  8
0
100
AcDbBlockEnd
  0
BLOCK
  5
70C
330
701
100
AcDbEntity
  8
0
100
AcDbBlockBegin
  2
*D4
 70
     1
 10
0.0
 20
0.0
 30
0.0
  3
*D4
  1

  0
LINE
  5
7F4
330
701
100
AcDbEntity
  8
BEM
 62
     0
370
    -2
100
AcDbLine
 10
111.5801343599281
 20
320.9240926784526
 30
0.0
 11
111.5801343599281
 21
270.7774963402027
 31
0.0
  0
LINE
  5
7F5
330
701
100
AcDbEntity
  8
BEM
 62
     0
370
    -2
100
AcDbLine
 10
751.7156124699722
 20
324.1586880081126
 30
0.0
 11
751.7156124699722
 21
270.7774963402027
 31
0.0
  0
LINE
  5
7F6
330
701
100
AcDbEntity
  8
BEM
 62
     0
370
    -2
100
AcDbLine
 10
118.5801343599281
 20
272.7774963402027
 30
0.0
 11
744.7156124699723
 21
272.7774963402027
 31
0.0
  0
SOLID
  5
7F7
330
701
100
AcDbEntity
  8
BEM
 62
     0
100
AcDbTrace
 10
118.5801343599281
 20
273.9441630068693
 30
0.0
 11
118.5801343599281
 21
271.610829673536
 31
0.0
 12
111.5801343599281
 22
272.7774963402027
 32
0.0
 13
111.5801343599281
 23
272.7774963402027
 33
0.0
  0
SOLID
  5
7F8
330
701
100
AcDbEntity
  8
BEM
 62
     0
100
AcDbTrace
 10
744.7156124699723
 20
273.9441630068693
 30
0.0
 11
744.7156124699723
 21
271.610829673536
 31
0.0
 12
751.7156124699722
 22
272.7774963402027
 32
0.0
 13
751.7156124699722
 23
272.7774963402027
 33
0.0
  0
MTEXT
  5
7F9
330
701
100
AcDbEntity
  8
BEM
 62
     1
100
AcDbMText
 10
431.6478734149502
 20
279.2774963402027
 30
0.0
 40
7.0
 41
0.0
 71
     5
 72
     1
  1
\A1;1000
 73
     1
 44
1.0
  0
POINT
  5
7FA
330
701
100
AcDbEntity
  8
DEFPOINTS
 62
     0
100
AcDbPoint
 10
111.5801343599281
 20
322.9240926784526
 30
0.0
  0
POINT
  5
7FB
330
701
100
AcDbEntity
  8
DEFPOINTS
 62
     0
100
AcDbPoint
 10
751.7156124699722
 20
326.1586880081126
 30
0.0
  0
POINT
  5
7FC
330
701
100
AcDbEntity
  8
DEFPOINTS
 62
     0
100
AcDbPoint
 10
751.7156124699722
 20
272.7774963402027
 30
0.0
  0
ENDBLK
  5
70D
330
701
100
AcDbEntity
  8
0
100
AcDbBlockEnd
  0
BLOCK
  5
719
330
70E
100
AcDbEntity
  8
0
100
AcDbBlockBegin
  2
*D5
 70
     1
 10
0.0
 20
0.0
 30
0.0
  3
*D5
  1

  0
LINE
  5
7D9
330
70E
100
AcDbEntity
  8
BEM
 62
     0
370
    -2
100
AcDbLine
 10
109.580134359928
 20
322.9240926784526
 30
0.0
 11
77.43163992317042
 21
322.9240926784526
 31
0.0
  0
LINE
  5
7DA
330
70E
100
AcDbEntity
  8
BEM
 62
     0
370
    -2
100
AcDbLine
 10
109.580134359928
 20
424.9240926784525
 30
0.0
 11
77.43163992317045
 21
424.9240926784525
 31
0.0
  0
LINE
  5
7DB
330
70E
100
AcDbEntity
  8
BEM
 62
     0
370
    -2
100
AcDbLine
 10
79.43163992317042
 20
329.9240926784526
 30
0.0
 11
79.43163992317045
 21
417.9240926784526
 31
0.0
  0
SOLID
  5
7DC
330
70E
100
AcDbEntity
  8
BEM
 62
     0
100
AcDbTrace
 10
78.26497325650375
 20
329.9240926784526
 30
0.0
 11
80.5983065898371
 21
329.9240926784526
 31
0.0
 12
79.43163992317042
 22
322.9240926784526
 32
0.0
 13
79.43163992317042
 23
322.9240926784526
 33
0.0
  0
SOLID
  5
7DD
330
70E
100
AcDbEntity
  8
BEM
 62
     0
100
AcDbTrace
 10
78.26497325650378
 20
417.9240926784526
 30
0.0
 11
80.59830658983711
 21
417.9240926784526
 31
0.0
 12
79.43163992317045
 22
424.9240926784525
 32
0.0
 13
79.43163992317045
 23
424.9240926784525
 33
0.0
  0
MTEXT
  5
7DE
330
70E
100
AcDbEntity
  8
BEM
 62
     1
100
AcDbMText
 10
72.93163992317038
 20
373.9240926784526
 30
0.0
 40
7.0
 41
0.0
 71
     5
 72
     1
  1
\A1;%%c102
 11
0.0000000000000001
 21
1.0
 31
0.0
 73
     1
 44
1.0
  0
POINT
  5
7DF
330
70E
100
AcDbEntity
  8
DEFPOINTS
 62
     0
100
AcDbPoint
 10
111.580134359928
 20
322.9240926784526
 30
0.0
  0
POINT
  5
7E0
330
70E
100
AcDbEntity
  8
DEFPOINTS
 62
     0
100
AcDbPoint
 10
111.580134359928
 20
424.9240926784525
 30
0.0
  0
POINT
  5
7E1
330
70E
100
AcDbEntity
  8
DEFPOINTS
 62
     0
100
AcDbPoint
 10
79.43163992317045
 20
424.9240926784525
 30
0.0
  0
ENDBLK
  5
71A
330
70E
100
AcDbEntity
  8
0
100
AcDbBlockEnd
  0
BLOCK
  5
726
330
71B
100
AcDbEntity
  8
0
100
AcDbBlockBegin
  2
*D6
 70
     1
 10
0.0
 20
0.0
 30
0.0
  3
*D6
  1

  0
LINE
  5
7D0
330
71B
100
AcDbEntity
  8
BEM
 62
     0
370
    -2
100
AcDbLine
 10
435.8008615186265
 20
409.8240926784525
 30
0.0
 11
435.8008615186265
 21
402.8240926784524
 31
0.0
  0
LINE
  5
7D1
330
71B
100
AcDbEntity
  8
BEM
 62
     0
370
    -2
100
AcDbLine
 10
435.8008615186265
 20
425.4240926784525
 30
0.0
 11
435.8008615186265
 21
448.8240926784525
 31
0.0
  0
LINE
  5
7D2
330
71B
100
AcDbEntity
  8
BEM
 62
     0
370
    -2
100
AcDbLine
 10
435.8008615186265
 20
416.8240926784525
 30
0.0
 11
435.8008615186265
 21
418.4240926784525
 31
0.0
  0
SOLID
  5
7D3
330
71B
100
AcDbEntity
  8
BEM
 62
     0
100
AcDbTrace
 10
434.6341948519598
 20
409.8240926784525
 30
0.0
 11
436.9675281852932
 21
409.8240926784525
 31
0.0
 12
435.8008615186265
 22
416.8240926784525
 32
0.0
 13
435.8008615186265
 23
416.8240926784525
 33
0.0
  0
SOLID
  5
7D4
330
71B
100
AcDbEntity
  8
BEM
 62
     0
100
AcDbTrace
 10
434.6341948519598
 20
425.4240926784525
 30
0.0
 11
436.9675281852932
 21
425.4240926784525
 31
0.0
 12
435.8008615186265
 22
418.4240926784525
 32
0.0
 13
435.8008615186265
 23
418.4240926784525
 33
0.0
  0
MTEXT
  5
7D5
330
71B
100
AcDbEntity
  8
BEM
 62
     1
100
AcDbMText
 10
429.3008615186264
 20
440.6240926784526
 30
0.0
 40
7.0
 41
0.0
 71
     5
 72
     1
  1
\A1;1.6
 11
0.0000000000000001
 21
1.0
 31
0.0
 73
     1
 44
1.0
  0
POINT
  5
7D6
330
71B
100
AcDbEntity
  8
DEFPOINTS
 62
     0
100
AcDbPoint
 10
435.8008615186265
 20
416.8240926784525
 30
0.0
  0
POINT
  5
7D7
330
71B
100
AcDbEntity
  8
DEFPOINTS
 62
     0
100
AcDbPoint
 10
435.8008615186265
 20
418.4240926784525
 30
0.0
  0
POINT
  5
7D8
330
71B
100
AcDbEntity
  8
DEFPOINTS
 62
     0
100
AcDbPoint
 10
435.8008615186265
 20
418.4240926784525
 30
0.0
  0
ENDBLK
  5
727
330
71B
100
AcDbEntity
  8
0
100
AcDbBlockEnd
  0
BLOCK
  5
74D
330
742
100
AcDbEntity
  8
0
100
AcDbBlockBegin
  2
*D7
 70
     1
 10
0.0
 20
0.0
 30
0.0
  3
*D7
  1

  0
LINE
  5
7B5
330
742
100
AcDbEntity
  8
BEM
 62
     0
370
    -2
100
AcDbLine
 10
751.7156124699722
 20
324.1586880081126
 30
0.0
 11
751.7156124699722
 21
297.8253150683228
 31
0.0
  0
LINE
  5
7B6
330
742
100
AcDbEntity
  8
BEM
 62
     0
370
    -2
100
AcDbLine
 10
621.7156124699722
 20
325.602076655417
 30
0.0
 11
621.7156124699722
 21
297.8253150683228
 31
0.0
  0
LINE
  5
7B7
330
742
100
AcDbEntity
  8
BEM
 62
     0
370
    -2
100
AcDbLine
 10
744.7156124699723
 20
299.8253150683228
 30
0.0
 11
628.7156124699722
 21
299.8253150683228
 31
0.0
  0
SOLID
  5
7B8
330
742
100
AcDbEntity
  8
BEM
 62
     0
100
AcDbTrace
 10
744.7156124699723
 20
300.9919817349895
 30
0.0
 11
744.7156124699723
 21
298.6586484016561
 31
0.0
 12
751.7156124699722
 22
299.8253150683228
 32
0.0
 13
751.7156124699722
 23
299.8253150683228
 33
0.0
  0
SOLID
  5
7B9
330
742
100
AcDbEntity
  8
BEM
 62
     0
100
AcDbTrace
 10
628.7156124699722
 20
300.9919817349895
 30
0.0
 11
628.7156124699722
 21
298.6586484016561
 31
0.0
 12
621.7156124699722
 22
299.8253150683228
 32
0.0
 13
621.7156124699722
 23
299.8253150683228
 33
0.0
  0
MTEXT
  5
7BA
330
742
100
AcDbEntity
  8
BEM
 62
     1
100
AcDbMText
 10
686.7156124699723
 20
306.3253150683228
 30
0.0
 40
7.0
 41
0.0
 71
     5
 72
     1
  1
\A1;130
 73
     1
 44
1.0
  0
POINT
  5
7BB
330
742
100
AcDbEntity
  8
DEFPOINTS
 62
     0
100
AcDbPoint
 10
751.7156124699722
 20
326.1586880081126
 30
0.0
  0
POINT
  5
7BC
330
742
100
AcDbEntity
  8
DEFPOINTS
 62
     0
100
AcDbPoint
 10
621.7156124699722
 20
327.602076655417
 30
0.0
  0
POINT
  5
7BD
330
742
100
AcDbEntity
  8
DEFPOINTS
 62
     0
100
AcDbPoint
 10
621.7156124699722
 20
299.8253150683228
 30
0.0
  0
ENDBLK
  5
74E
330
742
100
AcDbEntity
  8
0
100
AcDbBlockEnd
  0
BLOCK
  5
75A
330
74F
100
AcDbEntity
  8
0
100
AcDbBlockBegin
  2
*D8
 70
     1
 10
0.0
 20
0.0
 30
0.0
  3
*D8
  1

  0
LINE
  5
7AC
330
74F
100
AcDbEntity
  8
BEM
 62
     0
370
    -2
100
AcDbLine
 10
201.004202065585
 20
329.4240926784527
 30
0.0
 11
95.0872143755997
 21
329.4240926784528
 31
0.0
  0
LINE
  5
7AD
330
74F
100
AcDbEntity
  8
BEM
 62
     0
370
    -2
100
AcDbLine
 10
201.004202065585
 20
418.4240926784524
 30
0.0
 11
95.08721437559973
 21
418.4240926784525
 31
0.0
  0
LINE
  5
7AE
330
74F
100
AcDbEntity
  8
BEM
 62
     0
370
    -2
100
AcDbLine
 10
97.08721437559971
 20
336.4240926784528
 30
0.0
 11
97.08721437559972
 21
411.4240926784525
 31
0.0
  0
SOLID
  5
7AF
330
74F
100
AcDbEntity
  8
BEM
 62
     0
100
AcDbTrace
 10
95.92054770893303
 20
336.4240926784528
 30
0.0
 11
98.25388104226638
 21
336.4240926784528
 31
0.0
 12
97.08721437559971
 22
329.4240926784528
 32
0.0
 13
97.08721437559971
 23
329.4240926784528
 33
0.0
  0
SOLID
  5
7B0
330
74F
100
AcDbEntity
  8
BEM
 62
     0
100
AcDbTrace
 10
95.92054770893303
 20
411.4240926784525
 30
0.0
 11
98.25388104226639
 21
411.4240926784525
 31
0.0
 12
97.08721437559972
 22
418.4240926784525
 32
0.0
 13
97.08721437559972
 23
418.4240926784525
 33
0.0
  0
MTEXT
  5
7B1
330
74F
100
AcDbEntity
  8
BEM
 62
     1
100
AcDbMText
 10
90.58721437559965
 20
373.9240926784527
 30
0.0
 40
7.0
 41
0.0
 71
     5
 72
     1
  1
\A1;%%c89
 11
0.0000000000000001
 21
1.0
 31
0.0
 73
     1
 44
1.0
  0
POINT
  5
7B2
330
74F
100
AcDbEntity
  8
DEFPOINTS
 62
     0
100
AcDbPoint
 10
203.004202065585
 20
329.4240926784527
 30
0.0
  0
POINT
  5
7B3
330
74F
100
AcDbEntity
  8
DEFPOINTS
 62
     0
100
AcDbPoint
 10
203.004202065585
 20
418.4240926784524
 30
0.0
  0
POINT
  5
7B4
330
74F
100
AcDbEntity
  8
DEFPOINTS
 62
     0
100
AcDbPoint
 10
97.08721437559972
 20
418.4240926784525
 30
0.0
  0
ENDBLK
  5
75B
330
74F
100
AcDbEntity
  8
0
100
AcDbBlockEnd
  0
ENDSEC
  0
SECTION
  2
ENTITIES
  0
LINE
  5
58
330
1E
100
AcDbEntity
  8
STEMPEL
100
AcDbLine
 10
830.0000000000002
 20
110.0
 30
0.0
 11
470.0000000000001
 21
110.0
 31
0.0
  0
LINE
  5
59
330
1E
100
AcDbEntity
  8
STEMPEL
100
AcDbLine
 10
470.0000000000001
 20
110.0
 30
0.0
 11
470.0000000000001
 21
10.0
 31
0.0
  0
LINE
  5
5A
330
1E
100
AcDbEntity
  8
STEMPEL
100
AcDbLine
 10
566.0000000000002
 20
109.9999999999999
 30
0.0
 11
566.0000000000001
 21
9.999999999999886
 31
0.0
  0
LINE
  5
5B
330
1E
100
AcDbEntity
  8
STEMPEL
100
AcDbLine
 10
650.0
 20
110.0
 30
0.0
 11
650.0
 21
10.0
 31
0.0
  0
LINE
  5
5C
330
1E
100
AcDbEntity
  8
STEMPEL
100
AcDbLine
 10
752.0000000000002
 20
109.9999999999997
 30
0.0
 11
752.0000000000002
 21
40.0
 31
0.0
  0
LINE
  5
5D
330
1E
100
AcDbEntity
  8
STEMPEL
100
AcDbLine
 10
566.0
 20
30.0
 30
0.0
 11
470.0000000000001
 21
30.0
 31
0.0
  0
LINE
  5
5E
330
1E
100
AcDbEntity
  8
STEMPEL
100
AcDbLine
 10
830.0000000000002
 20
40.0
 30
0.0
 11
566.0000000000001
 21
40.0
 31
0.0
  0
LINE
  5
5F
330
1E
100
AcDbEntity
  8
STEMPEL
100
AcDbLine
 10
830.0000000000002
 20
80.0
 30
0.0
 11
566.0000000000002
 21
80.0
 31
0.0
  0
LINE
  5
60
330
1E
100
AcDbEntity
  8
VOLL
100
AcDbLine
 10
484.0000000000002
 20
110.0
 30
0.0
 11
484.0000000000001
 21
9.999999999999985
 31
0.0
  0
LINE
  5
61
330
1E
100
AcDbEntity
  8
VOLL
100
AcDbLine
 10
524.0000000000001
 20
109.9999999999999
 30
0.0
 11
524.0000000000001
 21
9.999999999999943
 31
0.0
  0
LINE
  5
62
330
1E
100
AcDbEntity
  8
VOLL
100
AcDbLine
 10
544.0000000000002
 20
109.9999999999999
 30
0.0
 11
544.0000000000001
 21
9.999999999999914
 31
0.0
  0
LINE
  5
63
330
1E
100
AcDbEntity
  8
VOLL
100
AcDbLine
 10
584.0000000000002
 20
80.0
 30
0.0
 11
584.0000000000002
 21
40.0
 31
0.0
  0
LINE
  5
64
330
1E
100
AcDbEntity
  8
VOLL
100
AcDbLine
 10
610.0000000000002
 20
109.9999999999998
 30
0.0
 11
610.0000000000001
 21
40.0
 31
0.0
  0
LINE
  5
65
330
1E
100
AcDbEntity
  8
HILF
100
AcDbLine
 10
470.0000000000001
 20
100.0
 30
0.0
 11
566.0000000000002
 21
100.0
 31
0.0
  0
LINE
  5
66
330
1E
100
AcDbEntity
  8
HILF
100
AcDbLine
 10
470.0000000000001
 20
90.0
 30
0.0
 11
566.0000000000002
 21
90.0
 31
0.0
  0
LINE
  5
67
330
1E
100
AcDbEntity
  8
HILF
100
AcDbLine
 10
470.0000000000001
 20
80.0
 30
0.0
 11
566.0000000000002
 21
80.0
 31
0.0
  0
LINE
  5
68
330
1E
100
AcDbEntity
  8
HILF
100
AcDbLine
 10
470.0000000000001
 20
70.0
 30
0.0
 11
566.0000000000002
 21
70.0
 31
0.0
  0
LINE
  5
69
330
1E
100
AcDbEntity
  8
HILF
100
AcDbLine
 10
470.0000000000001
 20
60.0
 30
0.0
 11
566.0000000000002
 21
60.0
 31
0.0
  0
LINE
  5
6A
330
1E
100
AcDbEntity
  8
HILF
100
AcDbLine
 10
470.0000000000001
 20
50.0
 30
0.0
 11
566.0000000000002
 21
50.0
 31
0.0
  0
LINE
  5
6B
330
1E
100
AcDbEntity
  8
HILF
100
AcDbLine
 10
470.0000000000001
 20
40.0
 30
0.0
 11
566.0000000000002
 21
40.0
 31
0.0
  0
LINE
  5
6C
330
1E
100
AcDbEntity
  8
HILF
100
AcDbLine
 10
566.0000000000002
 20
70.0
 30
0.0
 11
650.0
 21
70.0
 31
0.0
  0
LINE
  5
6D
330
1E
100
AcDbEntity
  8
HILF
100
AcDbLine
 10
566.0000000000002
 20
60.0
 30
0.0
 11
650.0
 21
60.0
 31
0.0
  0
LINE
  5
6E
330
1E
100
AcDbEntity
  8
HILF
100
AcDbLine
 10
566.0000000000002
 20
50.0
 30
0.0
 11
650.0
 21
50.0
 31
0.0
  0
LINE
  5
6F
330
1E
100
AcDbEntity
  8
HILF
100
AcDbLine
 10
654.7736801096948
 20
84.03758247564136
 30
0.0
 11
746.6297842514811
 21
84.03758247564136
 31
0.0
  0
LINE
  5
70
330
1E
100
AcDbEntity
  8
HILF
100
AcDbLine
 10
654.7736801096948
 20
70.0
 30
0.0
 11
746.6297842514811
 21
70.0
 31
0.0
  0
LINE
  5
71
330
1E
100
AcDbEntity
  8
HILF
100
AcDbLine
 10
654.7736801096948
 20
60.0
 30
0.0
 11
746.6297842514811
 21
60.0
 31
0.0
  0
LINE
  5
72
330
1E
100
AcDbEntity
  8
HILF
100
AcDbLine
 10
654.7736801096948
 20
50.0
 30
0.0
 11
746.6297842514811
 21
50.0
 31
0.0
  0
LINE
  5
73
330
1E
100
AcDbEntity
  8
VOLL
100
AcDbLine
 10
752.0000000000002
 20
60.0
 30
0.0
 11
830.0000000000002
 21
60.0
 31
0.0
  0
LINE
  5
74
330
1E
100
AcDbEntity
  8
HILF
100
AcDbLine
 10
756.7238616296995
 20
83.77983636955823
 30
0.0
 11
824.858883932673
 21
83.77983636955823
 31
0.0
  0
LINE
  5
75
330
1E
100
AcDbEntity
  8
HILF
100
AcDbLine
 10
654.7736801096948
 20
14.89398258028305
 30
0.0
 11
824.858883932673
 21
14.89398258028305
 31
0.0
  0
TEXT
  5
76
330
1E
100
AcDbEntity
  8
TEXT
100
AcDbText
 10
492.3998239263297
 20
18.67381894984129
 30
0.0
 40
4.0
  1
Änderung
 41
0.8
  7
GREEKS
 72
     1
 11
503.1426810691868
 21
18.67381894984129
 31
0.0
100
AcDbText
  0
TEXT
  5
78
330
1E
100
AcDbEntity
  8
TEXT
100
AcDbText
 10
573.5163572150378
 20
102.4620895087088
 30
0.0
 40
5.0
  1
Maßstab
 41
0.8
  7
GREEKS
100
AcDbText
  0
TEXT
  5
79
330
1E
100
AcDbEntity
  8
TEXT
100
AcDbText
 10
654.8779403809011
 20
102.5489328011779
 30
0.0
 40
5.0
  1
Benennung
 41
0.8
  7
GREEKS
100
AcDbText
  0
TEXT
  5
7A
330
1E
100
AcDbEntity
  8
TEXT
100
AcDbText
 10
756.1787549576343
 20
102.3132034537135
 30
0.0
 40
5.0
  1
Zeichnungs Nr.
 41
0.8
  7
GREEKS
100
AcDbText
  0
TEXT
  5
7B
330
1E
100
AcDbEntity
  8
TEXT
100
AcDbText
 10
654.742238391136
 20
30.84560570193055
 30
0.0
 40
5.0
  1
Bauvorhaben
 41
0.8
  7
GREEKS
100
AcDbText
  0
TEXT
  5
7C
330
1E
100
AcDbEntity
  8
TEXT
100
AcDbText
 10
756.7238616296995
 20
73.18118237099965
 30
0.0
 40
5.0
  1
Ersatz für:
 41
0.8
  7
GREEKS
100
AcDbText
  0
TEXT
  5
7D
330
1E
100
AcDbEntity
  8
TEXT
100
AcDbText
 10
478.2664110704577
 20
13.65465846027187
 30
0.0
 40
4.0
  1
Index
 50
90.0
 41
0.8
  7
GREEKS
100
AcDbText
  0
TEXT
  5
7E
330
1E
100
AcDbEntity
  8
TEXT
100
AcDbText
 10
529.8990113186979
 20
18.67156269339808
 30
0.0
 40
4.0
  1
Tag
 41
0.8
  7
GREEKS
 72
     1
 11
533.6323446520313
 21
18.67156269339808
 31
0.0
100
AcDbText
  0
TEXT
  5
7F
330
1E
100
AcDbEntity
  8
TEXT
100
AcDbText
 10
548.9795678138293
 20
18.59324216966404
 30
0.0
 40
4.0
  1
Name
 41
0.8
  7
GREEKS
 72
     1
 11
555.3033773376388
 21
18.59324216966404
 31
0.0
100
AcDbText
  0
TEXT
  5
80
330
1E
100
AcDbEntity
  8
TEXT
100
AcDbText
 10
592.3311673153651
 20
73.31880501229919
 30
0.0
 40
4.0
  1
Tag
 41
0.8
  7
GREEKS
100
AcDbText
  0
TEXT
  5
81
330
1E
100
AcDbEntity
  8
TEXT
100
AcDbText
 10
622.4626584226296
 20
73.3096109191522
 30
0.0
 40
4.0
  1
Name
 41
0.8
  7
GREEKS
100
AcDbText
  0
TEXT
  5
82
330
1E
100
AcDbEntity
  8
TEXT
100
AcDbText
 10
567.5836127167616
 20
63.62990369617961
 30
0.0
 40
4.0
  1
Gez.
 41
0.8
  7
GREEKS
100
AcDbText
  0
TEXT
  5
83
330
1E
100
AcDbEntity
  8
TEXT
100
AcDbText
 10
567.5515086571673
 20
53.68926291428373
 30
0.0
 40
4.0
  1
Gepr.
 41
0.8
  7
GREEKS
100
AcDbText
  0
TEXT
  5
84
330
1E
100
AcDbEntity
  8
TEXT
100
AcDbText
 10
567.6006777387304
 20
43.52946389649804
 30
0.0
 40
4.0
  1
Norm.
 41
0.8
  7
GREEKS
100
AcDbText
  0
TEXT
  5
85
330
1E
100
AcDbEntity
  8
TEXT
100
AcDbText
 10
757.2400861497007
 20
52.07416177878596
 30
0.0
 40
5.0
  1
ersetzt durch:
 41
0.8
  7
GREEKS
100
AcDbText
  0
TEXT
  5
86
330
1E
100
AcDbEntity
  8
TEXT
100
AcDbText
 10
568.8693027807324
 20
72.96682596523723
 30
0.0
 40
4.0
  1
2008
 41
0.8
  7
GREEKS
100
AcDbText
  0
LINE
  5
87
330
1E
100
AcDbEntity
  8
HILF
100
AcDbLine
 10
0.0
 20
0.0
 30
0.0
 11
840.0
 21
0.0
 31
0.0
  0
LINE
  5
88
330
1E
100
AcDbEntity
  8
HILF
100
AcDbLine
 10
840.0
 20
0.0
 30
0.0
 11
840.0
 21
594.0
 31
0.0
  0
LINE
  5
89
330
1E
100
AcDbEntity
  8
HILF
100
AcDbLine
 10
840.0
 20
594.0
 30
0.0
 11
0.0
 21
594.0
 31
0.0
  0
LINE
  5
8B
330
1E
100
AcDbEntity
  8
STEMPEL
100
AcDbLine
 10
830.0
 20
584.0
 30
0.0
 11
40.0
 21
584.0
 31
0.0
  0
LINE
  5
8D
330
1E
100
AcDbEntity
  8
STEMPEL
100
AcDbLine
 10
40.0
 20
10.0
 30
0.0
 11
830.0
 21
10.0
 31
0.0
  0
LINE
  5
8E
330
1E
100
AcDbEntity
  8
STEMPEL
100
AcDbLine
 10
830.0
 20
10.0
 30
0.0
 11
830.0
 21
584.0
 31
0.0
  0
TEXT
  5
8F
330
1E
100
AcDbEntity
  8
TEXT
 62
     1
100
AcDbText
 10
655.0390572473189
 20
87.37343075652544
 30
0.0
 40
7.0
  1
Regenstandrohr DN80
 41
0.75
  7
GREEKS
100
AcDbText
  0
TEXT
  5
90
330
1E
100
AcDbEntity
  8
TEXT
 62
     1
100
AcDbText
 10
766.1294755517469
 20
87.37343075652544
 30
0.0
 40
7.0
  1
05526080W
 41
0.8
  7
GREEKS
 72
     1
 11
790.1294755517469
 21
87.37343075652544
 31
0.0
100
AcDbText
  0
TEXT
  5
91
330
1E
100
AcDbEntity
  8
TEXT
100
AcDbText
 10
618.509022641583
 20
102.83989611379
 30
0.0
 40
5.0
  1
Zul.Abw.
 41
0.8
  7
GREEKS
100
AcDbText
  0
TEXT
  5
93
330
1E
100
AcDbEntity
  8
TEXT
100
AcDbText
 10
590.1565237511869
 20
63.1508587612022
 30
0.0
 40
4.0
  1
20.06.
 41
0.8
  7
GREEKS
 72
     1
 11
597.1660475607107
 21
63.1508587612022
 31
0.0
100
AcDbText
  0
TEXT
  5
94
330
1E
100
AcDbEntity
  8
TEXT
100
AcDbText
 10
624.023175322661
 20
62.94297655165468
 30
0.0
 40
4.0
  1
Koeh
 41
0.8
  7
GREEKS
 72
     1
 11
629.2803181798038
 21
62.94297655165468
 31
0.0
100
AcDbText
  0
TEXT
  5
95
330
1E
100
AcDbEntity
  8
TEXT
100
AcDbText
 10
654.3410940884992
 20
72.10021383107525
 30
0.0
 40
5.0
  1
1000mm lang
 41
0.8
  7
GREEKS
100
AcDbText
  0
TEXT
  5
97
330
1E
100
AcDbEntity
  8
TEXT
100
AcDbText
 10
654.3410940884992
 20
52.59097337846058
 30
0.0
 40
5.0
  1
EDV-Art.Nr. 05526.080X
 41
0.8
  7
GREEKS
100
AcDbText
  0
TEXT
  5
98
330
1E
100
AcDbEntity
  8
TEXT
100
AcDbText
 10
654.1676050109348
 20
43.31127624791508
 30
0.0
 40
4.0
  1
05526080W.DWG
 41
0.8
  7
GREEKS
100
AcDbText
  0
TEXT
  5
99
330
1E
100
AcDbEntity
  8
TEXT
 62
     1
100
AcDbText
 10
582.7034912034222
 20
87.47077088414977
 30
0.0
 40
7.0
  1
1:2
 41
0.8
  7
GREEKS
100
AcDbText
  0
TEXT
  5
9A
330
1E
100
AcDbEntity
  8
TEXT
100
AcDbText
 10
470.0441139350127
 20
114.1143585051043
 30
0.0
 40
5.0
  1
Erstellt mit AUTOCAD 2004
 41
0.8
  7
GREEKS
100
AcDbText
  0
INSERT
  5
9B
330
1E
100
AcDbEntity
  8
HILF
100
AcDbBlockReference
  2
LORO
 10
573.0624985962354
 20
36.9805930029896
 30
0.0
 41
2.0
 42
2.0
 43
2.0
  0
LINE
  5
9C
330
1E
100
AcDbEntity
  8
BEM
100
AcDbLine
 10
456.0
 20
0.0
 30
0.0
 11
456.0
 21
10.0
 31
0.0
  0
LINE
  5
13E
330
1E
100
AcDbEntity
  8
HILF
100
AcDbLine
 10
0.0
 20
0.0
 30
0.0
 11
0.0
 21
594.0
 31
0.0
  0
LINE
  5
13F
330
1E
100
AcDbEntity
  8
STEMPEL
100
AcDbLine
 10
40.0
 20
10.0
 30
0.0
 11
40.0
 21
584.0
 31
0.0
  0
LINE
  5
14A
330
1E
100
AcDbEntity
  8
HILF
100
AcDbLine
 10
0.0
 20
297.0
 30
0.0
 11
40.0
 21
297.0
 31
0.0
  0
TEXT
  5
15B
330
1E
100
AcDbEntity
  8
BEM
100
AcDbText
 10
837.3022923857165
 20
10.16790107998861
 30
0.0
 40
4.0
  1
Diese Zeichnung ist urheberrechtlich geschützt und bleibt unser Eigentum. Sie darf weder ganz noch teilweise verfielfältigt und nicht an Dritte weitergegeben werden.
 50
90.0
 41
0.8
  7
GREEKS
100
AcDbText
  0
TEXT
  5
22C
330
1E
100
AcDbEntity
  8
TEXT
 62
     1
100
AcDbText
 10
616.6560484572488
 20
139.8004583895517
 30
0.0
 40
7.0
  1
Werkstoff: E195 EN10305 feuerverzinkt
 41
0.8
  7
GREEKS
100
AcDbText
  0
TEXT
  5
22D
330
1E
100
AcDbEntity
  8
TEXT
 62
     1
100
AcDbText
 10
664.6057658946467
 20
129.0783465745483
 30
0.0
 40
7.0
  1
und innen beschichtet
 41
0.8
  7
GREEKS
100
AcDbText
  0
TEXT
  5
22E
330
1E
100
AcDbEntity
  8
TEXT
 62
     1
100
AcDbText
 10
657.2189114209776
 20
387.5150539681505
 30
0.0
 40
7.0
  1
DN80
 41
0.8
  7
GREEKS
100
AcDbText
  0
TEXT
  5
2FD
330
1E
100
AcDbEntity
  8
TEXT
100
AcDbText
 10
612.2898419893276
 20
88.34165697992029
 30
0.0
 40
4.0
  1
DIN EN1123-2
 41
0.8
  7
GREEKS
 72
     1
 11
629.2803181798038
 21
88.34165697992029
 31
0.0
100
AcDbText
  0
INSERT
  5
65F
330
1E
100
AcDbEntity
  8
SCHRAFF
100
AcDbBlockReference
  2
*X2
 10
0.0
 20
0.0
 30
0.0
1001
ACAD
1000
HATCH
1002
{
1070
    16
1000
_U,I
1040
2.0
1040
0.7853981633974483
1070
     0
1002
}
  0
POLYLINE
  5
660
330
1E
100
AcDbEntity
  8
HILF
100
AcDb2dPolyline
 66
     1
 10
0.0
 20
0.0
 30
0.0
 70
     4
 75
     6
  0
VERTEX
  5
661
330
660
100
AcDbEntity
  8
HILF
100
AcDbVertex
100
AcDb2dVertex
 10
456.8627142795906
 20
418.4240926784524
 30
0.0
 70
    16
  0
VERTEX
  5
662
330
660
100
AcDbEntity
  8
HILF
100
AcDbVertex
100
AcDb2dVertex
 10
456.8627142795906
 20
418.4240926784524
 30
0.0
 70
     8
  0
VERTEX
  5
663
330
660
100
AcDbEntity
  8
HILF
100
AcDbVertex
100
AcDb2dVertex
 10
454.4875002013675
 20
413.4199151732306
 30
0.0
 70
     8
  0
VERTEX
  5
664
330
660
100
AcDbEntity
  8
HILF
100
AcDbVertex
100
AcDb2dVertex
 10
452.2165290185089
 20
409.3545755442269
 30
0.0
 70
     8
  0
VERTEX
  5
665
330
660
100
AcDbEntity
  8
HILF
100
AcDbVertex
100
AcDb2dVertex
 10
450.0421407009307
 20
406.1224510477596
 30
0.0
 70
     8
  0
VERTEX
  5
666
330
660
100
AcDbEntity
  8
HILF
100
AcDbVertex
100
AcDb2dVertex
 10
447.956675218549
 20
403.6179189401473
 30
0.0
 70
     8
  0
VERTEX
  5
667
330
660
100
AcDbEntity
  8
HILF
100
AcDbVertex
100
AcDb2dVertex
 10
445.9524725412798
 20
401.7353564777087
 30
0.0
 70
     8
  0
VERTEX
  5
668
330
660
100
AcDbEntity
  8
HILF
100
AcDbVertex
100
AcDb2dVertex
 10
444.021872639039
 20
400.3691409167621
 30
0.0
 70
     8
  0
VERTEX
  5
669
330
660
100
AcDbEntity
  8
HILF
100
AcDbVertex
100
AcDb2dVertex
 10
442.1572154817425
 20
399.4136495136262
 30
0.0
 70
     8
  0
VERTEX
  5
66A
330
660
100
AcDbEntity
  8
HILF
100
AcDbVertex
100
AcDb2dVertex
 10
440.3508410393065
 20
398.7632595246194
 30
0.0
 70
     8
  0
VERTEX
  5
66B
330
660
100
AcDbEntity
  8
HILF
100
AcDbVertex
100
AcDb2dVertex
 10
438.5945897197413
 20
398.3297623150015
 30
0.0
 70
     8
  0
VERTEX
  5
66C
330
660
100
AcDbEntity
  8
HILF
100
AcDbVertex
100
AcDb2dVertex
 10
436.8783036834348
 20
398.0946056857971
 30
0.0
 70
     8
  0
VERTEX
  5
66D
330
660
100
AcDbEntity
  8
HILF
100
AcDbVertex
100
AcDb2dVertex
 10
435.1913255288694
 20
398.056651546972
 30
0.0
 70
     8
  0
VERTEX
  5
66E
330
660
100
AcDbEntity
  8
HILF
100
AcDbVertex
100
AcDb2dVertex
 10
433.5229978545274
 20
398.2147618084921
 30
0.0
 70
     8
  0
VERTEX
  5
66F
330
660
100
AcDbEntity
  8
HILF
100
AcDbVertex
100
AcDb2dVertex
 10
431.8626632588911
 20
398.5677983803231
 30
0.0
 70
     8
  0
VERTEX
  5
670
330
660
100
AcDbEntity
  8
HILF
100
AcDbVertex
100
AcDb2dVertex
 10
430.199664340443
 20
399.1146231724309
 30
0.0
 70
     8
  0
VERTEX
  5
671
330
660
100
AcDbEntity
  8
HILF
100
AcDbVertex
100
AcDb2dVertex
 10
428.5233436976652
 20
399.8540980947814
 30
0.0
 70
     8
  0
VERTEX
  5
672
330
660
100
AcDbEntity
  8
HILF
100
AcDbVertex
100
AcDb2dVertex
 10
426.8230439290404
 20
400.7850850573404
 30
0.0
 70
     8
  0
VERTEX
  5
673
330
660
100
AcDbEntity
  8
HILF
100
AcDbVertex
100
AcDb2dVertex
 10
425.0971553216171
 20
401.9131515350682
 30
0.0
 70
     8
  0
VERTEX
  5
674
330
660
100
AcDbEntity
  8
HILF
100
AcDbVertex
100
AcDb2dVertex
 10
423.3802589167108
 20
403.2706872629039
 30
0.0
 70
     8
  0
VERTEX
  5
675
330
660
100
AcDbEntity
  8
HILF
100
AcDbVertex
100
AcDb2dVertex
 10
421.7159834442034
 20
404.8967875407806
 30
0.0
 70
     8
  0
VERTEX
  5
676
330
660
100
AcDbEntity
  8
HILF
100
AcDbVertex
100
AcDb2dVertex
 10
420.1479576339766
 20
406.830547668632
 30
0.0
 70
     8
  0
VERTEX
  5
677
330
660
100
AcDbEntity
  8
HILF
100
AcDbVertex
100
AcDb2dVertex
 10
418.7198102159124
 20
409.1110629463914
 30
0.0
 70
     8
  0
VERTEX
  5
678
330
660
100
AcDbEntity
  8
HILF
100
AcDbVertex
100
AcDb2dVertex
 10
417.4751699198925
 20
411.7774286739924
 30
0.0
 70
     8
  0
VERTEX
  5
679
330
660
100
AcDbEntity
  8
HILF
100
AcDbVertex
100
AcDb2dVertex
 10
416.4576654757988
 20
414.8687401513682
 30
0.0
 70
     8
  0
VERTEX
  5
67A
330
660
100
AcDbEntity
  8
HILF
100
AcDbVertex
100
AcDb2dVertex
 10
415.7109256135132
 20
418.4240926784525
 30
0.0
 70
     8
  0
VERTEX
  5
67B
330
660
100
AcDbEntity
  8
HILF
100
AcDbVertex
100
AcDb2dVertex
 10
450.3830106282127
 20
403.7339486129646
 30
0.0
 70
    16
  0
VERTEX
  5
67C
330
660
100
AcDbEntity
  8
HILF
100
AcDbVertex
100
AcDb2dVertex
 10
439.810865735025
 20
396.6354870398443
 30
0.0
 70
    16
  0
VERTEX
  5
67D
330
660
100
AcDbEntity
  8
HILF
100
AcDbVertex
100
AcDb2dVertex
 10
427.1925002209324
 20
398.7544295888146
 30
0.0
 70
    16
  0
VERTEX
  5
67E
330
660
100
AcDbEntity
  8
HILF
100
AcDbVertex
100
AcDb2dVertex
 10
417.3024313773025
 20
408.2896798288979
 30
0.0
 70
    16
  0
VERTEX
  5
67F
330
660
100
AcDbEntity
  8
HILF
100
AcDbVertex
100
AcDb2dVertex
 10
415.7109256135133
 20
418.4240926784524
 30
0.0
 70
    16
  0
SEQEND
  5
680
330
660
100
AcDbEntity
  8
HILF
  0
LINE
  5
681
330
1E
100
AcDbEntity
  8
HILF
100
AcDbLine
 10
190.9960147930919
 20
325.5081487533859
 30
0.0
 11
190.9960147930919
 21
422.3400366035191
 31
0.0
  0
LINE
  5
682
330
1E
100
AcDbEntity
  8
HILF
100
AcDbLine
 10
198.5883216324209
 20
417.5609670862796
 30
0.0
 11
198.5883216324209
 21
330.2872182706254
 31
0.0
  0
DIMENSION
  5
683
330
1E
100
AcDbEntity
  8
BEM
100
AcDbDimension
  2
*D3
 10
186.5801343599281
 20
299.9558142427444
 30
0.0
 11
149.0801343599281
 21
306.4558142427444
 31
0.0
 70
    32
 71
     5
 42
75.0
  3
Standard
100
AcDbAlignedDimension
 13
111.5801343599281
 23
322.9240926784526
 33
0.0
 14
186.5801343599281
 24
322.9240926784526
 34
0.0
100
AcDbRotatedDimension
1001
ACAD
1000
DSTYLE
1002
{
1070
    40
1040
2.0
1070
    41
1040
3.5
1070
    42
1040
1.0
1070
    43
1040
7.0
1070
    44
1040
1.0
1070
    73
1070
     0
1070
    74
1070
     0
1070
    77
1070
     1
1070
    78
1070
     8
1070
    79
1070
     2
1070
   140
1040
3.5
1070
   141
1040
1.5
1070
   146
1040
0.5142857142857144
1070
   147
1040
1.5
1070
   172
1070
     1
1070
   178
1070
     1
1070
   179
1070
     2
1070
   271
1070
     2
1070
   272
1070
     2
1070
   284
1070
     8
1070
   285
1070
     8
1070
   286
1070
     8
1002
}
  0
DIMENSION
  5
684
330
1E
100
AcDbEntity
  8
BEM
100
AcDbDimension
  2
*D4
 10
751.7156124699722
 20
272.7774963402027
 30
0.0
 11
431.6478734149502
 21
279.2774963402027
 31
0.0
 70
    32
  1
1000
 71
     5
 42
640.1354781100441
  3
Standard
100
AcDbAlignedDimension
 13
111.5801343599281
 23
322.9240926784526
 33
0.0
 14
751.7156124699722
 24
326.1586880081126
 34
0.0
100
AcDbRotatedDimension
1001
ACAD
1000
DSTYLE
1002
{
1070
    40
1040
2.0
1070
    41
1040
3.5
1070
    42
1040
1.0
1070
    43
1040
7.0
1070
    44
1040
1.0
1070
    73
1070
     0
1070
    74
1070
     0
1070
    77
1070
     1
1070
    78
1070
     8
1070
    79
1070
     2
1070
   140
1040
3.5
1070
   141
1040
1.5
1070
   146
1040
0.5142857142857144
1070
   147
1040
1.5
1070
   172
1070
     1
1070
   178
1070
     1
1070
   179
1070
     2
1070
   271
1070
     2
1070
   272
1070
     2
1070
   284
1070
     8
1070
   285
1070
     8
1070
   286
1070
     8
1002
}
  0
DIMENSION
  5
685
330
1E
100
AcDbEntity
  8
BEM
100
AcDbDimension
  2
*D5
 10
79.43163992317045
 20
424.9240926784525
 30
0.0
 11
72.93163992317038
 21
373.9240926784526
 31
0.0
 70
    32
  1
%%c<>
 71
     5
 42
102.0
  3
Standard
100
AcDbAlignedDimension
 13
111.580134359928
 23
322.9240926784526
 33
0.0
 14
111.580134359928
 24
424.9240926784525
 34
0.0
 50
90.0
100
AcDbRotatedDimension
1001
ACAD
1000
DSTYLE
1002
{
1070
    40
1040
2.0
1070
    41
1040
3.5
1070
    42
1040
1.0
1070
    43
1040
7.0
1070
    44
1040
1.0
1070
    73
1070
     0
1070
    74
1070
     0
1070
    77
1070
     1
1070
    78
1070
     8
1070
    79
1070
     2
1070
   140
1040
3.5
1070
   141
1040
1.5
1070
   146
1040
0.5142857142857144
1070
   147
1040
1.5
1070
   172
1070
     1
1070
   178
1070
     1
1070
   179
1070
     2
1070
   271
1070
     2
1070
   272
1070
     2
1070
   284
1070
     8
1070
   285
1070
     8
1070
   286
1070
     8
1002
}
  0
DIMENSION
  5
686
330
1E
100
AcDbEntity
  8
BEM
100
AcDbDimension
  2
*D6
 10
435.8008615186265
 20
418.4240926784525
 30
0.0
 11
429.3008615186264
 21
440.6240926784526
 31
0.0
 70
    32
 71
     5
 42
1.600000000000022
  3
Standard
100
AcDbAlignedDimension
 13
435.8008615186265
 23
416.8240926784525
 33
0.0
 14
435.8008615186265
 24
418.4240926784525
 34
0.0
 50
90.0
100
AcDbRotatedDimension
1001
ACAD
1000
DSTYLE
1002
{
1070
    40
1040
2.0
1070
    41
1040
3.5
1070
    42
1040
1.0
1070
    43
1040
7.0
1070
    44
1040
1.0
1070
    73
1070
     0
1070
    74
1070
     0
1070
    77
1070
     1
1070
    78
1070
     8
1070
    79
1070
     2
1070
   140
1040
3.5
1070
   141
1040
1.5
1070
   146
1040
0.5142857142857144
1070
   147
1040
1.5
1070
   172
1070
     1
1070
   178
1070
     1
1070
   179
1070
     2
1070
   271
1070
     2
1070
   272
1070
     2
1070
   284
1070
     8
1070
   285
1070
     8
1070
   286
1070
     8
1002
}
  0
LINE
  5
687
330
1E
100
AcDbEntity
  8
STEMPEL
100
AcDbLine
 10
456.1032802824569
 20
416.8240926784524
 30
0.0
 11
416.0469777407089
 21
416.8240926784524
 31
0.0
  0
ARC
  5
688
330
1E
100
AcDbEntity
  8
STEMPEL
100
AcDbCircle
 10
203.004202065585
 20
317.4240926784527
 30
0.0
 40
12.0
100
AcDbArc
 50
90.0
 51
133.1834217961739
  0
ARC
  5
689
330
1E
100
AcDbEntity
  8
STEMPEL
100
AcDbCircle
 10
186.580134359928
 20
334.9240926784526
 30
0.0
 40
12.0
100
AcDbArc
 50
270.0
 51
313.1834217961739
  0
LINE
  5
68A
330
1E
100
AcDbEntity
  8
STEMPEL
100
AcDbLine
 10
250.1927102318492
 20
329.4240926784527
 30
0.0
 11
203.004202065585
 21
329.4240926784527
 31
0.0
  0
LINE
  5
68B
330
1E
100
AcDbEntity
  8
STEMPEL
100
AcDbLine
 10
186.580134359928
 20
322.9240926784526
 30
0.0
 11
111.580134359928
 21
322.9240926784526
 31
0.0
  0
ARC
  5
68C
330
1E
100
AcDbEntity
  8
STEMPEL
100
AcDbCircle
 10
203.004202065585
 20
430.4240926784524
 30
0.0
 40
12.0
100
AcDbArc
 50
226.8165782038261
 51
270.0
  0
ARC
  5
68D
330
1E
100
AcDbEntity
  8
STEMPEL
100
AcDbCircle
 10
186.580134359928
 20
412.9240926784525
 30
0.0
 40
12.0
100
AcDbArc
 50
46.81657820382612
 51
90.0
  0
LINE
  5
68E
330
1E
100
AcDbEntity
  8
STEMPEL
100
AcDbLine
 10
186.580134359928
 20
424.9240926784525
 30
0.0
 11
111.580134359928
 21
424.9240926784525
 31
0.0
  0
LINE
  5
68F
330
1E
100
AcDbEntity
  8
STEMPEL
100
AcDbLine
 10
751.7156124699722
 20
421.6894973487925
 30
0.0
 11
749.5072702462225
 21
422.7192642395541
 31
0.0
  0
LINE
  5
690
330
1E
100
AcDbEntity
  8
STEMPEL
100
AcDbLine
 10
739.1108610074013
 20
425.0240926784526
 30
0.0
 11
732.0154774309915
 21
425.0240926784526
 31
0.0
  0
ARC
  5
691
330
1E
100
AcDbEntity
  8
STEMPEL
100
AcDbCircle
 10
716.3754794067772
 20
433.5240926784526
 30
0.0
 40
12.0
100
AcDbArc
 50
270.0
 51
295.1220601866324
  0
ARC
  5
692
330
1E
100
AcDbEntity
  8
STEMPEL
100
AcDbCircle
 10
732.0837574791822
 20
400.0240926784526
 30
0.0
 40
25.00009324312574
100
AcDbArc
 50
89.84351404566565
 51
115.2111779316851
  0
ARC
  5
693
330
1E
100
AcDbEntity
  8
STEMPEL
100
AcDbCircle
 10
739.1108610074013
 20
400.4240926784525
 30
0.0
 40
24.6
100
AcDbArc
 50
65.00000000000655
 51
90.0
  0
LINE
  5
694
330
1E
100
AcDbEntity
  8
STEMPEL
100
AcDbLine
 10
751.7156124699722
 20
326.1586880081126
 30
0.0
 11
749.5072702462225
 21
325.128921117351
 31
0.0
  0
LINE
  5
695
330
1E
100
AcDbEntity
  8
STEMPEL
100
AcDbLine
 10
739.1108610074013
 20
322.8240926784526
 30
0.0
 11
732.0154774309915
 21
322.8240926784526
 31
0.0
  0
ARC
  5
696
330
1E
100
AcDbEntity
  8
STEMPEL
100
AcDbCircle
 10
716.3754794067772
 20
314.3240926784525
 30
0.0
 40
12.0
100
AcDbArc
 50
64.87793981336759
 51
90.0
  0
ARC
  5
697
330
1E
100
AcDbEntity
  8
STEMPEL
100
AcDbCircle
 10
732.0837574791822
 20
347.8240926784526
 30
0.0
 40
25.00009324312574
100
AcDbArc
 50
244.7888220683149
 51
270.1564859543343
  0
ARC
  5
698
330
1E
100
AcDbEntity
  8
STEMPEL
100
AcDbCircle
 10
739.1108610074013
 20
347.4240926784526
 30
0.0
 40
24.6
100
AcDbArc
 50
270.0
 51
294.9999999999935
  0
LINE
  5
699
330
1E
100
AcDbEntity
  8
HILF
100
AcDbLine
 10
718.9852324239827
 20
327.6713466727839
 30
0.0
 11
718.9852324239827
 21
420.1768386841221
 31
0.0
  0
LINE
  5
69A
330
1E
100
AcDbEntity
  8
STEMPEL
100
AcDbLine
 10
751.7156124699721
 20
421.6894973487924
 30
0.0
 11
751.7156124699722
 21
326.1586880081126
 31
0.0
  0
ARC
  5
69D
330
1E
100
AcDbEntity
  8
STEMPEL
100
AcDbCircle
 10
627.1043388873892
 20
409.5240926784526
 30
0.0
 40
12.0
100
AcDbArc
 50
90.0
 51
122.3280641221636
  0
ARC
  5
69E
330
1E
100
AcDbEntity
  8
STEMPEL
100
AcDbCircle
 10
616.4090128054038
 20
426.4240926784525
 30
0.0
 40
8.0
100
AcDbArc
 50
270.0
 51
302.3280641221636
  0
ARC
  5
69F
330
1E
100
AcDbEntity
  8
STEMPEL
100
AcDbCircle
 10
627.1043388873892
 20
338.3240926784525
 30
0.0
 40
12.0
100
AcDbArc
 50
237.6719358778364
 51
270.0
  0
ARC
  5
6A0
330
1E
100
AcDbEntity
  8
STEMPEL
100
AcDbCircle
 10
616.4090128054038
 20
321.4240926784526
 30
0.0
 40
8.0
100
AcDbArc
 50
57.67193587783641
 51
90.0
  0
LINE
  5
6A1
330
1E
100
AcDbEntity
  8
HILF
100
AcDbLine
 10
618.6361185505358
 20
330.7621867023946
 30
0.0
 11
618.6361185505358
 21
417.085998654509
 31
0.0
  0
LINE
  5
6A2
330
1E
100
AcDbEntity
  8
HILF
100
AcDbLine
 10
623.7636802696912
 20
328.4752348766578
 30
0.0
 11
623.7636802696912
 21
419.3729504802462
 31
0.0
  0
LINE
  5
6A3
330
1E
100
AcDbEntity
  8
STEMPEL
100
AcDbLine
 10
716.3754794067772
 20
326.3240926784525
 30
0.0
 11
627.1043388873892
 21
326.3240926784525
 31
0.0
  0
LINE
  5
6A4
330
1E
100
AcDbEntity
  8
STEMPEL
100
AcDbLine
 10
716.3754794067772
 20
421.5240926784526
 30
0.0
 11
627.1043388873892
 21
421.5240926784526
 31
0.0
  0
DIMENSION
  5
6A5
330
1E
100
AcDbEntity
  8
BEM
100
AcDbDimension
  2
*D7
 10
621.7156124699722
 20
299.8253150683228
 30
0.0
 11
686.7156124699723
 21
306.3253150683228
 31
0.0
 70
    32
 71
     5
 42
130.0
  3
Standard
100
AcDbAlignedDimension
 13
751.7156124699722
 23
326.1586880081126
 33
0.0
 14
621.7156124699722
 24
327.602076655417
 34
0.0
100
AcDbRotatedDimension
1001
ACAD
1000
DSTYLE
1002
{
1070
    40
1040
2.0
1070
    41
1040
3.5
1070
    42
1040
1.0
1070
    43
1040
7.0
1070
    44
1040
1.0
1070
    73
1070
     0
1070
    74
1070
     0
1070
    77
1070
     1
1070
    78
1070
     8
1070
    79
1070
     2
1070
   140
1040
3.5
1070
   141
1040
1.5
1070
   146
1040
0.5142857142857144
1070
   147
1040
1.5
1070
   172
1070
     1
1070
   178
1070
     1
1070
   179
1070
     2
1070
   271
1070
     2
1070
   272
1070
     2
1070
   284
1070
     8
1070
   285
1070
     8
1070
   286
1070
     8
1002
}
  0
POLYLINE
  5
6A6
330
1E
100
AcDbEntity
  8
HILF
100
AcDb2dPolyline
 66
     1
 10
0.0
 20
0.0
 30
0.0
 70
     4
 75
     6
  0
VERTEX
  5
6A7
330
6A6
100
AcDbEntity
  8
HILF
100
AcDbVertex
100
AcDb2dVertex
 10
250.1927102318492
 20
418.4240926784525
 30
0.0
 70
    16
  0
VERTEX
  5
6A8
330
6A6
100
AcDbEntity
  8
HILF
100
AcDbVertex
100
AcDb2dVertex
 10
250.1927102318492
 20
418.4240926784525
 30
0.0
 70
     8
  0
VERTEX
  5
6A9
330
6A6
100
AcDbEntity
  8
HILF
100
AcDbVertex
100
AcDb2dVertex
 10
252.8348981579818
 20
411.3705743297192
 30
0.0
 70
     8
  0
VERTEX
  5
6AA
330
6A6
100
AcDbEntity
  8
HILF
100
AcDbVertex
100
AcDb2dVertex
 10
254.5732553094272
 20
404.9230667839752
 30
0.0
 70
     8
  0
VERTEX
  5
6AB
330
6A6
100
AcDbEntity
  8
HILF
100
AcDbVertex
100
AcDb2dVertex
 10
255.520230173541
 20
398.9905581020919
 30
0.0
 70
     8
  0
VERTEX
  5
6AC
330
6A6
100
AcDbEntity
  8
HILF
100
AcDbVertex
100
AcDb2dVertex
 10
255.7882712376791
 20
393.4820363449407
 30
0.0
 70
     8
  0
VERTEX
  5
6AD
330
6A6
100
AcDbEntity
  8
HILF
100
AcDbVertex
100
AcDb2dVertex
 10
255.4898269891969
 20
388.3064895733932
 30
0.0
 70
     8
  0
VERTEX
  5
6AE
330
6A6
100
AcDbEntity
  8
HILF
100
AcDbVertex
100
AcDb2dVertex
 10
254.7373459154505
 20
383.3729058483205
 30
0.0
 70
     8
  0
VERTEX
  5
6AF
330
6A6
100
AcDbEntity
  8
HILF
100
AcDbVertex
100
AcDb2dVertex
 10
253.6432765037955
 20
378.5902732305943
 30
0.0
 70
     8
  0
VERTEX
  5
6B0
330
6A6
100
AcDbEntity
  8
HILF
100
AcDbVertex
100
AcDb2dVertex
 10
252.3200672415877
 20
373.8675797810858
 30
0.0
 70
     8
  0
VERTEX
  5
6B1
330
6A6
100
AcDbEntity
  8
HILF
100
AcDbVertex
100
AcDb2dVertex
 10
250.8864430482631
 20
369.1179184105357
 30
0.0
 70
     8
  0
VERTEX
  5
6B2
330
6A6
100
AcDbEntity
  8
HILF
100
AcDbVertex
100
AcDb2dVertex
 10
249.4862345715791
 20
364.2708014291614
 30
0.0
 70
     8
  0
VERTEX
  5
6B3
330
6A6
100
AcDbEntity
  8
HILF
100
AcDbVertex
100
AcDb2dVertex
 10
248.2695488913737
 20
359.2598459970493
 30
0.0
 70
     8
  0
VERTEX
  5
6B4
330
6A6
100
AcDbEntity
  8
HILF
100
AcDbVertex
100
AcDb2dVertex
 10
247.3864930874847
 20
354.0186692742862
 30
0.0
 70
     8
  0
VERTEX
  5
6B5
330
6A6
100
AcDbEntity
  8
HILF
100
AcDbVertex
100
AcDb2dVertex
 10
246.9871742397498
 20
348.4808884209583
 30
0.0
 70
     8
  0
VERTEX
  5
6B6
330
6A6
100
AcDbEntity
  8
HILF
100
AcDbVertex
100
AcDb2dVertex
 10
247.2216994280071
 20
342.5801205971524
 30
0.0
 70
     8
  0
VERTEX
  5
6B7
330
6A6
100
AcDbEntity
  8
HILF
100
AcDbVertex
100
AcDb2dVertex
 10
248.2401757320943
 20
336.249982962955
 30
0.0
 70
     8
  0
VERTEX
  5
6B8
330
6A6
100
AcDbEntity
  8
HILF
100
AcDbVertex
100
AcDb2dVertex
 10
250.1927102318493
 20
329.4240926784525
 30
0.0
 70
     8
  0
VERTEX
  5
6B9
330
6A6
100
AcDbEntity
  8
HILF
100
AcDbVertex
100
AcDb2dVertex
 10
258.5436066121021
 20
398.7257965097302
 30
0.0
 70
    16
  0
VERTEX
  5
6BA
330
6A6
100
AcDbEntity
  8
HILF
100
AcDbVertex
100
AcDb2dVertex
 10
253.5647751156905
 20
374.1990226708011
 30
0.0
 70
    16
  0
VERTEX
  5
6BB
330
6A6
100
AcDbEntity
  8
HILF
100
AcDbVertex
100
AcDb2dVertex
 10
243.6071121228676
 20
348.3464772730109
 30
0.0
 70
    16
  0
VERTEX
  5
6BC
330
6A6
100
AcDbEntity
  8
HILF
100
AcDbVertex
100
AcDb2dVertex
 10
250.1927102318493
 20
329.4240926784525
 30
0.0
 70
    16
  0
SEQEND
  5
6BD
330
6A6
100
AcDbEntity
  8
HILF
  0
POLYLINE
  5
6BE
330
1E
100
AcDbEntity
  8
HILF
100
AcDb2dPolyline
 66
     1
 10
0.0
 20
0.0
 30
0.0
 70
     4
 75
     6
  0
VERTEX
  5
6BF
330
6BE
100
AcDbEntity
  8
HILF
100
AcDbVertex
100
AcDb2dVertex
 10
250.1927102318492
 20
418.4240926784525
 30
0.0
 70
    16
  0
VERTEX
  5
6C0
330
6BE
100
AcDbEntity
  8
HILF
100
AcDbVertex
100
AcDb2dVertex
 10
250.1927102318492
 20
418.4240926784525
 30
0.0
 70
     8
  0
VERTEX
  5
6C1
330
6BE
100
AcDbEntity
  8
HILF
100
AcDbVertex
100
AcDb2dVertex
 10
252.8348981579818
 20
411.3705743297192
 30
0.0
 70
     8
  0
VERTEX
  5
6C2
330
6BE
100
AcDbEntity
  8
HILF
100
AcDbVertex
100
AcDb2dVertex
 10
254.5732553094272
 20
404.9230667839752
 30
0.0
 70
     8
  0
VERTEX
  5
6C3
330
6BE
100
AcDbEntity
  8
HILF
100
AcDbVertex
100
AcDb2dVertex
 10
255.520230173541
 20
398.9905581020919
 30
0.0
 70
     8
  0
VERTEX
  5
6C4
330
6BE
100
AcDbEntity
  8
HILF
100
AcDbVertex
100
AcDb2dVertex
 10
255.7882712376791
 20
393.4820363449407
 30
0.0
 70
     8
  0
VERTEX
  5
6C5
330
6BE
100
AcDbEntity
  8
HILF
100
AcDbVertex
100
AcDb2dVertex
 10
255.4898269891969
 20
388.3064895733932
 30
0.0
 70
     8
  0
VERTEX
  5
6C6
330
6BE
100
AcDbEntity
  8
HILF
100
AcDbVertex
100
AcDb2dVertex
 10
254.7373459154505
 20
383.3729058483205
 30
0.0
 70
     8
  0
VERTEX
  5
6C7
330
6BE
100
AcDbEntity
  8
HILF
100
AcDbVertex
100
AcDb2dVertex
 10
253.6432765037955
 20
378.5902732305943
 30
0.0
 70
     8
  0
VERTEX
  5
6C8
330
6BE
100
AcDbEntity
  8
HILF
100
AcDbVertex
100
AcDb2dVertex
 10
252.3200672415877
 20
373.8675797810858
 30
0.0
 70
     8
  0
VERTEX
  5
6C9
330
6BE
100
AcDbEntity
  8
HILF
100
AcDbVertex
100
AcDb2dVertex
 10
250.8864430482631
 20
369.1179184105357
 30
0.0
 70
     8
  0
VERTEX
  5
6CA
330
6BE
100
AcDbEntity
  8
HILF
100
AcDbVertex
100
AcDb2dVertex
 10
249.4862345715791
 20
364.2708014291614
 30
0.0
 70
     8
  0
VERTEX
  5
6CB
330
6BE
100
AcDbEntity
  8
HILF
100
AcDbVertex
100
AcDb2dVertex
 10
248.2695488913737
 20
359.2598459970493
 30
0.0
 70
     8
  0
VERTEX
  5
6CC
330
6BE
100
AcDbEntity
  8
HILF
100
AcDbVertex
100
AcDb2dVertex
 10
247.3864930874847
 20
354.0186692742862
 30
0.0
 70
     8
  0
VERTEX
  5
6CD
330
6BE
100
AcDbEntity
  8
HILF
100
AcDbVertex
100
AcDb2dVertex
 10
246.9871742397498
 20
348.4808884209583
 30
0.0
 70
     8
  0
VERTEX
  5
6CE
330
6BE
100
AcDbEntity
  8
HILF
100
AcDbVertex
100
AcDb2dVertex
 10
247.2216994280071
 20
342.5801205971524
 30
0.0
 70
     8
  0
VERTEX
  5
6CF
330
6BE
100
AcDbEntity
  8
HILF
100
AcDbVertex
100
AcDb2dVertex
 10
248.2401757320943
 20
336.249982962955
 30
0.0
 70
     8
  0
VERTEX
  5
6D0
330
6BE
100
AcDbEntity
  8
HILF
100
AcDbVertex
100
AcDb2dVertex
 10
250.1927102318493
 20
329.4240926784525
 30
0.0
 70
     8
  0
VERTEX
  5
6D1
330
6BE
100
AcDbEntity
  8
HILF
100
AcDbVertex
100
AcDb2dVertex
 10
258.5436066121021
 20
398.7257965097302
 30
0.0
 70
    16
  0
VERTEX
  5
6D2
330
6BE
100
AcDbEntity
  8
HILF
100
AcDbVertex
100
AcDb2dVertex
 10
253.5647751156905
 20
374.1990226708011
 30
0.0
 70
    16
  0
VERTEX
  5
6D3
330
6BE
100
AcDbEntity
  8
HILF
100
AcDbVertex
100
AcDb2dVertex
 10
243.6071121228676
 20
348.3464772730109
 30
0.0
 70
    16
  0
VERTEX
  5
6D4
330
6BE
100
AcDbEntity
  8
HILF
100
AcDbVertex
100
AcDb2dVertex
 10
250.1927102318493
 20
329.4240926784525
 30
0.0
 70
    16
  0
SEQEND
  5
6D5
330
6BE
100
AcDbEntity
  8
HILF
  0
POLYLINE
  5
6D6
330
1E
100
AcDbEntity
  8
HILF
100
AcDb2dPolyline
 66
     1
 10
0.0
 20
0.0
 30
0.0
 70
     4
 75
     6
  0
VERTEX
  5
6D7
330
6D6
100
AcDbEntity
  8
HILF
100
AcDbVertex
100
AcDb2dVertex
 10
255.1927102318492
 20
418.4240926784525
 30
0.0
 70
    16
  0
VERTEX
  5
6D8
330
6D6
100
AcDbEntity
  8
HILF
100
AcDbVertex
100
AcDb2dVertex
 10
255.1927102318492
 20
418.4240926784525
 30
0.0
 70
     8
  0
VERTEX
  5
6D9
330
6D6
100
AcDbEntity
  8
HILF
100
AcDbVertex
100
AcDb2dVertex
 10
257.8348981579818
 20
411.3705743297192
 30
0.0
 70
     8
  0
VERTEX
  5
6DA
330
6D6
100
AcDbEntity
  8
HILF
100
AcDbVertex
100
AcDb2dVertex
 10
259.5732553094272
 20
404.9230667839752
 30
0.0
 70
     8
  0
VERTEX
  5
6DB
330
6D6
100
AcDbEntity
  8
HILF
100
AcDbVertex
100
AcDb2dVertex
 10
260.520230173541
 20
398.9905581020919
 30
0.0
 70
     8
  0
VERTEX
  5
6DC
330
6D6
100
AcDbEntity
  8
HILF
100
AcDbVertex
100
AcDb2dVertex
 10
260.788271237679
 20
393.4820363449407
 30
0.0
 70
     8
  0
VERTEX
  5
6DD
330
6D6
100
AcDbEntity
  8
HILF
100
AcDbVertex
100
AcDb2dVertex
 10
260.4898269891969
 20
388.3064895733932
 30
0.0
 70
     8
  0
VERTEX
  5
6DE
330
6D6
100
AcDbEntity
  8
HILF
100
AcDbVertex
100
AcDb2dVertex
 10
259.7373459154505
 20
383.3729058483205
 30
0.0
 70
     8
  0
VERTEX
  5
6DF
330
6D6
100
AcDbEntity
  8
HILF
100
AcDbVertex
100
AcDb2dVertex
 10
258.6432765037955
 20
378.5902732305943
 30
0.0
 70
     8
  0
VERTEX
  5
6E0
330
6D6
100
AcDbEntity
  8
HILF
100
AcDbVertex
100
AcDb2dVertex
 10
257.3200672415877
 20
373.8675797810858
 30
0.0
 70
     8
  0
VERTEX
  5
6E1
330
6D6
100
AcDbEntity
  8
HILF
100
AcDbVertex
100
AcDb2dVertex
 10
255.8864430482631
 20
369.1179184105357
 30
0.0
 70
     8
  0
VERTEX
  5
6E2
330
6D6
100
AcDbEntity
  8
HILF
100
AcDbVertex
100
AcDb2dVertex
 10
254.4862345715791
 20
364.2708014291614
 30
0.0
 70
     8
  0
VERTEX
  5
6E3
330
6D6
100
AcDbEntity
  8
HILF
100
AcDbVertex
100
AcDb2dVertex
 10
253.2695488913737
 20
359.2598459970493
 30
0.0
 70
     8
  0
VERTEX
  5
6E4
330
6D6
100
AcDbEntity
  8
HILF
100
AcDbVertex
100
AcDb2dVertex
 10
252.3864930874847
 20
354.0186692742862
 30
0.0
 70
     8
  0
VERTEX
  5
6E5
330
6D6
100
AcDbEntity
  8
HILF
100
AcDbVertex
100
AcDb2dVertex
 10
251.9871742397498
 20
348.4808884209583
 30
0.0
 70
     8
  0
VERTEX
  5
6E6
330
6D6
100
AcDbEntity
  8
HILF
100
AcDbVertex
100
AcDb2dVertex
 10
252.2216994280071
 20
342.5801205971524
 30
0.0
 70
     8
  0
VERTEX
  5
6E7
330
6D6
100
AcDbEntity
  8
HILF
100
AcDbVertex
100
AcDb2dVertex
 10
253.2401757320942
 20
336.249982962955
 30
0.0
 70
     8
  0
VERTEX
  5
6E8
330
6D6
100
AcDbEntity
  8
HILF
100
AcDbVertex
100
AcDb2dVertex
 10
255.1927102318493
 20
329.4240926784525
 30
0.0
 70
     8
  0
VERTEX
  5
6E9
330
6D6
100
AcDbEntity
  8
HILF
100
AcDbVertex
100
AcDb2dVertex
 10
263.543606612102
 20
398.7257965097302
 30
0.0
 70
    16
  0
VERTEX
  5
6EA
330
6D6
100
AcDbEntity
  8
HILF
100
AcDbVertex
100
AcDb2dVertex
 10
258.5647751156905
 20
374.1990226708011
 30
0.0
 70
    16
  0
VERTEX
  5
6EB
330
6D6
100
AcDbEntity
  8
HILF
100
AcDbVertex
100
AcDb2dVertex
 10
248.6071121228676
 20
348.3464772730109
 30
0.0
 70
    16
  0
VERTEX
  5
6EC
330
6D6
100
AcDbEntity
  8
HILF
100
AcDbVertex
100
AcDb2dVertex
 10
255.1927102318493
 20
329.4240926784525
 30
0.0
 70
    16
  0
SEQEND
  5
6ED
330
6D6
100
AcDbEntity
  8
HILF
  0
LINE
  5
6EE
330
1E
100
AcDbEntity
  8
STEMPEL
100
AcDbLine
 10
111.580134359928
 20
424.9240926784525
 30
0.0
 11
111.5801343599281
 21
322.9240926784526
 31
0.0
  0
DIMENSION
  5
6EF
330
1E
100
AcDbEntity
  8
BEM
100
AcDbDimension
  2
*D8
 10
97.08721437559972
 20
418.4240926784525
 30
0.0
 11
90.58721437559965
 21
373.9240926784527
 31
0.0
 70
    32
  1
%%c<>
 71
     5
 42
88.99999999999977
  3
Standard
100
AcDbAlignedDimension
 13
203.004202065585
 23
329.4240926784527
 33
0.0
 14
203.004202065585
 24
418.4240926784524
 34
0.0
 50
90.0
100
AcDbRotatedDimension
1001
ACAD
1000
DSTYLE
1002
{
1070
    40
1040
2.0
1070
    41
1040
3.5
1070
    42
1040
1.0
1070
    43
1040
7.0
1070
    44
1040
1.0
1070
    73
1070
     0
1070
    74
1070
     0
1070
    77
1070
     1
1070
    78
1070
     8
1070
    79
1070
     2
1070
   140
1040
3.5
1070
   141
1040
1.5
1070
   146
1040
0.5142857142857144
1070
   147
1040
1.5
1070
   172
1070
     1
1070
   178
1070
     1
1070
   179
1070
     2
1070
   271
1070
     2
1070
   272
1070
     2
1070
   284
1070
     8
1070
   285
1070
     8
1070
   286
1070
     8
1002
}
  0
LINE
  5
6F0
330
1E
100
AcDbEntity
  8
STEMPEL
100
AcDbLine
 10
250.1927102318492
 20
418.4240926784524
 30
0.0
 11
203.004202065585
 21
418.4240926784524
 31
0.0
  0
LINE
  5
6F1
330
1E
100
AcDbEntity
  8
MITTEL
  6
STRICHPUNKT
100
AcDbLine
 10
756.7156124699721
 20
373.9240926784525
 30
0.0
 11
106.580134359928
 21
373.9240926784526
 31
0.0
  0
LINE
  5
6F2
330
1E
100
AcDbEntity
  8
STEMPEL
100
AcDbLine
 10
616.4090128054038
 20
418.4240926784525
 30
0.0
 11
255.1927102318492
 21
418.4240926784524
 31
0.0
  0
LINE
  5
6F3
330
1E
100
AcDbEntity
  8
STEMPEL
100
AcDbLine
 10
616.4090128054038
 20
329.4240926784525
 30
0.0
 11
255.1927102318493
 21
329.4240926784525
 31
0.0
  0
ENDSEC
  0
SECTION
  2
OBJECTS
  0
DICTIONARY
  5
C
330
0
100
AcDbDictionary
281
     1
  3
ACAD_COLOR
350
11A
  3
ACAD_GROUP
350
D
  3
ACAD_LAYOUT
350
19
  3
ACAD_MATERIAL
350
119
  3
ACAD_MLINESTYLE
350
16
  3
ACAD_PLOTSETTINGS
350
18
  3
ACAD_PLOTSTYLENAME
350
E
  3
AcDbVariableDictionary
350
125
  0
DICTIONARY
  5
DB
330
1E
100
AcDbDictionary
280
     1
281
     1
  3
ACAD_LAYOUTSELFREF
360
10F
  0
DICTIONARY
  5
DD
330
1A
100
AcDbDictionary
280
     1
281
     1
  3
ACAD_LAYOUTSELFREF
360
10E
  0
DICTIONARY
  5
11A
102
{ACAD_REACTORS
330
C
102
}
330
C
100
AcDbDictionary
281
     1
  0
DICTIONARY
  5
D
102
{ACAD_REACTORS
330
C
102
}
330
C
100
AcDbDictionary
281
     1
  0
DICTIONARY
  5
19
102
{ACAD_REACTORS
330
C
102
}
330
C
100
AcDbDictionary
281
     1
  3
Layout1
350
1D
  3
Model
350
21
  0
DICTIONARY
  5
119
102
{ACAD_REACTORS
330
C
102
}
330
C
100
AcDbDictionary
281
     1
  0
DICTIONARY
  5
16
102
{ACAD_REACTORS
330
C
102
}
330
C
100
AcDbDictionary
281
     1
  3
Standard
350
17
  0
DICTIONARY
  5
18
102
{ACAD_REACTORS
330
C
102
}
330
C
100
AcDbDictionary
281
     1
  0
ACDBDICTIONARYWDFLT
  5
E
102
{ACAD_REACTORS
330
C
102
}
330
C
100
AcDbDictionary
281
     1
  3
Normal
350
F
100
AcDbDictionaryWithDefault
340
F
  0
DICTIONARY
  5
125
102
{ACAD_REACTORS
330
C
102
}
330
C
100
AcDbDictionary
281
     1
  3
DIMASSOC
350
126
  3
PROJECTNAME
350
127
  0
XRECORD
  5
10F
102
{ACAD_REACTORS
330
DB
102
}
330
DB
100
AcDbXrecord
280
     1
340
1E
  0
XRECORD
  5
10E
102
{ACAD_REACTORS
330
DD
102
}
330
DD
100
AcDbXrecord
280
     1
340
1A
  0
LAYOUT
  5
1D
102
{ACAD_REACTORS
330
19
102
}
330
19
100
AcDbPlotSettings
  1

  2
\\NT_WORK01\HP LaserJet 5000 PCL 6
  4

  6

 40
0.0
 41
0.0
 42
0.0
 43
0.0
 44
0.0
 45
0.0
 46
0.0
 47
0.0
 48
0.0
 49
0.0
140
0.0
141
0.0
142
1.0
143
1.0
 70
   688
 72
     0
 73
     0
 74
     5
  7

 75
    16
147
1.0
 76
     0
 77
     2
 78
   300
148
0.0
149
0.0
100
AcDbLayout
  1
Layout1
 70
     0
 71
     1
 10
0.0
 20
0.0
 11
12.0
 21
9.0
 12
0.0
 22
0.0
 32
0.0
 14
1.000000000000000E+20
 24
1.000000000000000E+20
 34
1.000000000000000E+20
 15
-1.000000000000000E+20
 25
-1.000000000000000E+20
 35
-1.000000000000000E+20
146
0.0
 13
0.0
 23
0.0
 33
0.0
 16
1.0
 26
0.0
 36
0.0
 17
0.0
 27
1.0
 37
0.0
 76
     0
330
1A
  0
LAYOUT
  5
21
102
{ACAD_REACTORS
330
19
102
}
330
19
100
AcDbPlotSettings
  1

  2
none_device
  4
Letter_(8.50_x_11.00_Inches)
  6

 40
6.349999904632568
 41
6.349999904632568
 42
6.350006103515625
 43
6.350006103515625
 44
215.8999938964844
 45
279.3999938964844
 46
0.0
 47
0.0
 48
0.0
 49
0.0
140
0.0
141
0.0
142
1.0
143
1.0
 70
 11952
 72
     0
 73
     1
 74
     0
  7

 75
     0
147
1.0
 76
     0
 77
     2
 78
   300
148
-2640.238557613358
149
484.122025555242
100
AcDbLayout
  1
Model
 70
     1
 71
     0
 10
0.0
 20
0.0
 11
12.0
 21
9.0
 12
0.0
 22
0.0
 32
0.0
 14
0.0
 24
0.0
 34
0.0
 15
0.0
 25
0.0
 35
0.0
146
0.0
 13
0.0
 23
0.0
 33
0.0
 16
1.0
 26
0.0
 36
0.0
 17
0.0
 27
1.0
 37
0.0
 76
     0
330
1E
  0
MLINESTYLE
  5
17
102
{ACAD_REACTORS
330
16
102
}
330
16
100
AcDbMlineStyle
  2
STANDARD
 70
     0
  3

 62
   256
 51
90.0
 52
90.0
 71
     2
 49
0.5
 62
   256
  6
BYLAYER
 49
-0.5
 62
   256
  6
BYLAYER
  0
ACDBPLACEHOLDER
  5
F
102
{ACAD_REACTORS
330
E
102
}
330
E
  0
DICTIONARYVAR
  5
126
102
{ACAD_REACTORS
330
125
102
}
330
125
100
DictionaryVariables
280
     0
  1
1
  0
DICTIONARYVAR
  5
127
102
{ACAD_REACTORS
330
125
102
}
330
125
100
DictionaryVariables
280
     0
  1

  0
ENDSEC
  0
EOF
