  0
SECTION
  2
HEADER
  9
$ACADVER
  1
AC1018
  9
$ACADMAINTVER
 70
     2
  9
$DWGCODEPAGE
  3
ANSI_1252
  9
$INSBASE
 10
0.0
 20
0.0
 30
0.0
  9
$EXTMIN
 10
-0.0128083857493948
 20
-0.0090573584946014
 30
-0.0000000000112498
  9
$EXTMAX
 10
840.0128201211314
 20
594.0090656570851
 30
0.0000000000002956
  9
$LIMMIN
 10
0.0
 20
0.0
  9
$LIMMAX
 10
840.0000000000002
 20
593.9999999999998
  9
$ORTHOMODE
 70
     1
  9
$REGENMODE
 70
     1
  9
$FILLMODE
 70
     1
  9
$QTEXTMODE
 70
     0
  9
$MIRRTEXT
 70
     1
  9
$LTSCALE
 40
20.0
  9
$ATTMODE
 70
     1
  9
$TEXTSIZE
 40
3.5
  9
$TRACEWID
 40
1.0
  9
$TEXTSTYLE
  7
STANDARD
  9
$CLAYER
  8
VOLL
  9
$CELTYPE
  6
ByLayer
  9
$CECOLOR
 62
   256
  9
$CELTSCALE
 40
1.0
  9
$DISPSILH
 70
     0
  9
$DIMSCALE
 40
2.0
  9
$DIMASZ
 40
3.5
  9
$DIMEXO
 40
1.0
  9
$DIMDLI
 40
7.0
  9
$DIMRND
 40
0.0
  9
$DIMDLE
 40
0.0
  9
$DIMEXE
 40
1.0
  9
$DIMTP
 40
0.0
  9
$DIMTM
 40
0.0
  9
$DIMTXT
 40
3.5
  9
$DIMCEN
 40
1.5
  9
$DIMTSZ
 40
0.0
  9
$DIMTOL
 70
     0
  9
$DIMLIM
 70
     0
  9
$DIMTIH
 70
     0
  9
$DIMTOH
 70
     0
  9
$DIMSE1
 70
     0
  9
$DIMSE2
 70
     0
  9
$DIMTAD
 70
     1
  9
$DIMZIN
 70
     8
  9
$DIMBLK
  1

  9
$DIMASO
 70
     1
  9
$DIMSHO
 70
     0
  9
$DIMPOST
  1

  9
$DIMAPOST
  1

  9
$DIMALT
 70
     0
  9
$DIMALTD
 70
     2
  9
$DIMALTF
 40
25.4
  9
$DIMLFAC
 40
1.0
  9
$DIMTOFL
 70
     1
  9
$DIMTVP
 40
0.0
  9
$DIMTIX
 70
     0
  9
$DIMSOXD
 70
     0
  9
$DIMSAH
 70
     0
  9
$DIMBLK1
  1

  9
$DIMBLK2
  1

  9
$DIMSTYLE
  2
Standard
  9
$DIMCLRD
 70
     0
  9
$DIMCLRE
 70
     0
  9
$DIMCLRT
 70
     1
  9
$DIMTFAC
 40
0.5142857142857144
  9
$DIMGAP
 40
1.5
  9
$DIMJUST
 70
     0
  9
$DIMSD1
 70
     0
  9
$DIMSD2
 70
     0
  9
$DIMTOLJ
 70
     1
  9
$DIMTZIN
 70
     8
  9
$DIMALTZ
 70
     8
  9
$DIMALTTZ
 70
     8
  9
$DIMUPT
 70
     0
  9
$DIMDEC
 70
     2
  9
$DIMTDEC
 70
     2
  9
$DIMALTU
 70
     2
  9
$DIMALTTD
 70
     2
  9
$DIMTXSTY
  7
STANDARD
  9
$DIMAUNIT
 70
     0
  9
$DIMADEC
 70
     2
  9
$DIMALTRND
 40
0.0
  9
$DIMAZIN
 70
     2
  9
$DIMDSEP
 70
    46
  9
$DIMATFIT
 70
     3
  9
$DIMFRAC
 70
     0
  9
$DIMLDRBLK
  1

  9
$DIMLUNIT
 70
     2
  9
$DIMLWD
 70
    -2
  9
$DIMLWE
 70
    -2
  9
$DIMTMOVE
 70
     0
  9
$LUNITS
 70
     2
  9
$LUPREC
 70
     2
  9
$SKETCHINC
 40
1.0
  9
$FILLETRAD
 40
0.0
  9
$AUNITS
 70
     0
  9
$AUPREC
 70
     0
  9
$MENU
  1
ACAD
  9
$ELEVATION
 40
0.0
  9
$PELEVATION
 40
0.0
  9
$THICKNESS
 40
0.0
  9
$LIMCHECK
 70
     0
  9
$CHAMFERA
 40
0.0
  9
$CHAMFERB
 40
0.0
  9
$CHAMFERC
 40
0.0
  9
$CHAMFERD
 40
0.0
  9
$SKPOLY
 70
     0
  9
$TDCREATE
 40
2455397.867059838
  9
$TDUCREATE
 40
2455397.783726505
  9
$TDUPDATE
 40
2455455.394824375
  9
$TDUUPDATE
 40
2455455.311491042
  9
$TDINDWG
 40
0.0919474421
  9
$TDUSRTIMER
 40
0.0919474421
  9
$USRTIMER
 70
     1
  9
$ANGBASE
 50
0.0
  9
$ANGDIR
 70
     0
  9
$PDMODE
 70
     0
  9
$PDSIZE
 40
0.0
  9
$PLINEWID
 40
0.0
  9
$SPLFRAME
 70
     0
  9
$SPLINETYPE
 70
     6
  9
$SPLINESEGS
 70
     8
  9
$HANDSEED
  5
1563
  9
$SURFTAB1
 70
     6
  9
$SURFTAB2
 70
     6
  9
$SURFTYPE
 70
     6
  9
$SURFU
 70
     6
  9
$SURFV
 70
     6
  9
$UCSBASE
  2

  9
$UCSNAME
  2

  9
$UCSORG
 10
0.0
 20
0.0
 30
0.0
  9
$UCSXDIR
 10
1.0
 20
0.0
 30
0.0
  9
$UCSYDIR
 10
0.0
 20
1.0
 30
0.0
  9
$UCSORTHOREF
  2

  9
$UCSORTHOVIEW
 70
     0
  9
$UCSORGTOP
 10
0.0
 20
0.0
 30
0.0
  9
$UCSORGBOTTOM
 10
0.0
 20
0.0
 30
0.0
  9
$UCSORGLEFT
 10
0.0
 20
0.0
 30
0.0
  9
$UCSORGRIGHT
 10
0.0
 20
0.0
 30
0.0
  9
$UCSORGFRONT
 10
0.0
 20
0.0
 30
0.0
  9
$UCSORGBACK
 10
0.0
 20
0.0
 30
0.0
  9
$PUCSBASE
  2

  9
$PUCSNAME
  2

  9
$PUCSORG
 10
0.0
 20
0.0
 30
0.0
  9
$PUCSXDIR
 10
1.0
 20
0.0
 30
0.0
  9
$PUCSYDIR
 10
0.0
 20
1.0
 30
0.0
  9
$PUCSORTHOREF
  2

  9
$PUCSORTHOVIEW
 70
     0
  9
$PUCSORGTOP
 10
0.0
 20
0.0
 30
0.0
  9
$PUCSORGBOTTOM
 10
0.0
 20
0.0
 30
0.0
  9
$PUCSORGLEFT
 10
0.0
 20
0.0
 30
0.0
  9
$PUCSORGRIGHT
 10
0.0
 20
0.0
 30
0.0
  9
$PUCSORGFRONT
 10
0.0
 20
0.0
 30
0.0
  9
$PUCSORGBACK
 10
0.0
 20
0.0
 30
0.0
  9
$USERI1
 70
     0
  9
$USERI2
 70
     0
  9
$USERI3
 70
     0
  9
$USERI4
 70
     0
  9
$USERI5
 70
     0
  9
$USERR1
 40
0.0
  9
$USERR2
 40
0.0
  9
$USERR3
 40
0.0
  9
$USERR4
 40
0.0
  9
$USERR5
 40
0.0
  9
$WORLDVIEW
 70
     1
  9
$SHADEDGE
 70
     3
  9
$SHADEDIF
 70
    70
  9
$TILEMODE
 70
     1
  9
$MAXACTVP
 70
    16
  9
$PINSBASE
 10
0.0
 20
0.0
 30
0.0
  9
$PLIMCHECK
 70
     0
  9
$PEXTMIN
 10
1.000000000000000E+20
 20
1.000000000000000E+20
 30
1.000000000000000E+20
  9
$PEXTMAX
 10
-1.000000000000000E+20
 20
-1.000000000000000E+20
 30
-1.000000000000000E+20
  9
$PLIMMIN
 10
0.0
 20
0.0
  9
$PLIMMAX
 10
12.0
 20
9.0
  9
$UNITMODE
 70
     0
  9
$VISRETAIN
 70
     0
  9
$PLINEGEN
 70
     0
  9
$PSLTSCALE
 70
     0
  9
$TREEDEPTH
 70
  3020
  9
$CMLSTYLE
  2
Standard
  9
$CMLJUST
 70
     0
  9
$CMLSCALE
 40
1.0
  9
$PROXYGRAPHICS
 70
     1
  9
$MEASUREMENT
 70
     0
  9
$CELWEIGHT
370
    -1
  9
$ENDCAPS
280
     0
  9
$JOINSTYLE
280
     0
  9
$LWDISPLAY
290
     0
  9
$INSUNITS
 70
     0
  9
$HYPERLINKBASE
  1

  9
$STYLESHEET
  1
monochrome 1.ctb
  9
$XEDIT
290
     1
  9
$CEPSNTYPE
380
     0
  9
$PSTYLEMODE
290
     1
  9
$FINGERPRINTGUID
  2
{D68B0D0D-A558-11D7-B632-000102183313}
  9
$VERSIONGUID
  2
{4840F7B3-19F7-483C-9B98-3F31BBF5C933}
  9
$EXTNAMES
290
     1
  9
$PSVPSCALE
 40
0.0
  9
$OLESTARTUP
290
     0
  9
$SORTENTS
280
   127
  9
$INDEXCTL
280
     0
  9
$HIDETEXT
280
     0
  9
$XCLIPFRAME
290
     0
  9
$HALOGAP
280
     0
  9
$OBSCOLOR
 70
   257
  9
$OBSLTYPE
280
     0
  9
$INTERSECTIONDISPLAY
280
     0
  9
$INTERSECTIONCOLOR
 70
   257
  9
$DIMASSOC
280
     1
  9
$PROJECTNAME
  1

  0
ENDSEC
  0
SECTION
  2
CLASSES
  0
CLASS
  1
ACDBDICTIONARYWDFLT
  2
AcDbDictionaryWithDefault
  3
ObjectDBX Classes
 90
        0
 91
        1
280
     0
281
     0
  0
CLASS
  1
DICTIONARYVAR
  2
AcDbDictionaryVar
  3
ObjectDBX Classes
 90
        0
 91
        2
280
     0
281
     0
  0
ENDSEC
  0
SECTION
  2
TABLES
  0
TABLE
  2
VPORT
  5
8
330
0
100
AcDbSymbolTable
 70
     3
  0
VPORT
  5
1562
330
8
100
AcDbSymbolTableRecord
100
AcDbViewportTableRecord
  2
*Active
 70
     0
 10
0.0
 20
0.0
 11
1.0
 21
1.0
 12
420.0000058676909
 22
297.0000041492952
 13
0.0
 23
0.0
 14
1.0
 24
1.0
 15
10.0
 25
10.0
 16
0.0
 26
0.0
 36
1.0
 17
0.0
 27
0.0
 37
0.0
 40
632.1208630222709
 41
1.336927223719676
 42
50.0
 43
0.0
 44
0.0
 50
0.0
 51
0.0
 71
     0
 72
  1500
 73
     1
 74
     0
 75
     0
 76
     0
 77
     0
 78
     0
281
     0
 65
     1
110
0.0
120
0.0
130
0.0
111
1.0
121
0.0
131
0.0
112
0.0
122
1.0
132
0.0
 79
     0
146
0.0
  0
ENDTAB
  0
TABLE
  2
LTYPE
  5
5
330
0
100
AcDbSymbolTable
 70
     2
  0
LTYPE
  5
13
330
5
100
AcDbSymbolTableRecord
100
AcDbLinetypeTableRecord
  2
ByBlock
 70
     0
  3

 72
    65
 73
     0
 40
0.0
  0
LTYPE
  5
14
330
5
100
AcDbSymbolTableRecord
100
AcDbLinetypeTableRecord
  2
ByLayer
 70
     0
  3

 72
    65
 73
     0
 40
0.0
  0
LTYPE
  5
15
330
5
100
AcDbSymbolTableRecord
100
AcDbLinetypeTableRecord
  2
Continuous
 70
     0
  3
Solid line
 72
    65
 73
     0
 40
0.0
  0
LTYPE
  5
25
330
5
100
AcDbSymbolTableRecord
100
AcDbLinetypeTableRecord
  2
STRICHPUNKT
 70
     0
  3
__ . __ . __ . __ . __ . __ . __ . __ . __ . __
 72
    65
 73
     4
 40
1.0
 49
0.5
 74
     0
 49
-0.25
 74
     0
 49
0.0
 74
     0
 49
-0.25
 74
     0
  0
ENDTAB
  0
TABLE
  2
LAYER
  5
2
330
0
100
AcDbSymbolTable
 70
     9
  0
LAYER
  5
10
330
2
100
AcDbSymbolTableRecord
100
AcDbLayerTableRecord
  2
0
 70
     0
 62
     7
  6
Continuous
370
    -3
390
F
  0
LAYER
  5
2B
330
2
100
AcDbSymbolTableRecord
100
AcDbLayerTableRecord
  2
VOLL
 70
     0
 62
     1
  6
Continuous
370
    -3
390
F
  0
LAYER
  5
2C
330
2
100
AcDbSymbolTableRecord
100
AcDbLayerTableRecord
  2
HILF
 70
     0
 62
     2
  6
Continuous
370
    -3
390
F
  0
LAYER
  5
2D
330
2
100
AcDbSymbolTableRecord
100
AcDbLayerTableRecord
  2
MITTEL
 70
     0
 62
     2
  6
STRICHPUNKT
370
    -3
390
F
  0
LAYER
  5
2F
330
2
100
AcDbSymbolTableRecord
100
AcDbLayerTableRecord
  2
BEM
 70
     0
 62
     7
  6
Continuous
370
    -3
390
F
  0
LAYER
  5
30
330
2
100
AcDbSymbolTableRecord
100
AcDbLayerTableRecord
  2
STEMPEL
 70
     0
 62
     3
  6
Continuous
370
    -3
390
F
  0
LAYER
  5
33
330
2
100
AcDbSymbolTableRecord
100
AcDbLayerTableRecord
  2
TEXT
 70
     0
 62
     7
  6
Continuous
370
    -3
390
F
  0
LAYER
  5
239
330
2
100
AcDbSymbolTableRecord
100
AcDbLayerTableRecord
  2
SCHRAFF
 70
     0
 62
     7
  6
Continuous
370
    -3
390
F
  0
LAYER
  5
23A
330
2
100
AcDbSymbolTableRecord
100
AcDbLayerTableRecord
  2
DEFPOINTS
 70
     0
 62
     7
  6
Continuous
290
     0
370
    -3
390
F
  0
ENDTAB
  0
TABLE
  2
STYLE
  5
3
330
0
100
AcDbSymbolTable
 70
     2
  0
STYLE
  5
11
330
3
100
AcDbSymbolTableRecord
100
AcDbTextStyleTableRecord
  2
STANDARD
 70
     0
 40
0.0
 41
0.8
 50
0.0
 71
     0
 42
3.5
  3
simplex.shx
  4

  0
STYLE
  5
24
330
3
100
AcDbSymbolTableRecord
100
AcDbTextStyleTableRecord
  2
GREEKS
 70
     0
 40
0.0
 41
0.8
 50
0.0
 71
     0
 42
2.5
  3
SIMPLEX.shx
  4

  0
ENDTAB
  0
TABLE
  2
VIEW
  5
6
330
0
100
AcDbSymbolTable
 70
     0
  0
ENDTAB
  0
TABLE
  2
UCS
  5
7
330
0
100
AcDbSymbolTable
 70
     0
  0
ENDTAB
  0
TABLE
  2
APPID
  5
9
330
0
100
AcDbSymbolTable
 70
     1
  0
APPID
  5
12
330
9
100
AcDbSymbolTableRecord
100
AcDbRegAppTableRecord
  2
ACAD
 70
     0
  0
ENDTAB
  0
TABLE
  2
DIMSTYLE
  5
A
330
0
100
AcDbSymbolTable
 70
     1
100
AcDbDimStyleTable
 71
     1
340
A2
  0
DIMSTYLE
105
A2
102
{ACAD_REACTORS
330
1417
330
1410
330
140F
330
12E7
102
}
330
A
100
AcDbSymbolTableRecord
100
AcDbDimStyleTableRecord
  2
Standard
 70
     0
340
11
  0
ENDTAB
  0
TABLE
  2
BLOCK_RECORD
  5
1
330
0
100
AcDbSymbolTable
 70
     9
  0
BLOCK_RECORD
  5
1E
102
{ACAD_XDICTIONARY
360
DB
102
}
330
1
100
AcDbSymbolTableRecord
100
AcDbBlockTableRecord
  2
*Model_Space
340
21
  0
BLOCK_RECORD
  5
1A
102
{ACAD_XDICTIONARY
360
DD
102
}
330
1
100
AcDbSymbolTableRecord
100
AcDbBlockTableRecord
  2
*Paper_Space
340
1D
  0
BLOCK_RECORD
  5
22
330
1
100
AcDbSymbolTableRecord
100
AcDbBlockTableRecord
  2
LOGO
340
0
102
{BLKREFS
331
56
102
}
  0
BLOCK_RECORD
  5
23
330
1
100
AcDbSymbolTableRecord
100
AcDbBlockTableRecord
  2
LORO
340
0
102
{BLKREFS
331
9B
102
}
  0
BLOCK_RECORD
  5
10E4
330
1
100
AcDbSymbolTableRecord
100
AcDbBlockTableRecord
  2
*X2
340
0
102
{BLKREFS
331
1401
102
}
  0
BLOCK_RECORD
  5
1120
330
1
100
AcDbSymbolTableRecord
100
AcDbBlockTableRecord
  2
*X3
340
0
102
{BLKREFS
331
1349
102
}
  0
BLOCK_RECORD
  5
1138
330
1
100
AcDbSymbolTableRecord
100
AcDbBlockTableRecord
  2
*X4
340
0
102
{BLKREFS
331
1347
102
}
  0
BLOCK_RECORD
  5
1418
330
1
100
AcDbSymbolTableRecord
100
AcDbBlockTableRecord
  2
*D5
340
0
  0
BLOCK_RECORD
  5
1425
330
1
100
AcDbSymbolTableRecord
100
AcDbBlockTableRecord
  2
*D6
340
0
  0
BLOCK_RECORD
  5
1432
330
1
100
AcDbSymbolTableRecord
100
AcDbBlockTableRecord
  2
*D7
340
0
  0
BLOCK_RECORD
  5
143F
330
1
100
AcDbSymbolTableRecord
100
AcDbBlockTableRecord
  2
*D8
340
0
  0
ENDTAB
  0
ENDSEC
  0
SECTION
  2
BLOCKS
  0
BLOCK
  5
37
330
1E
100
AcDbEntity
  8
0
100
AcDbBlockBegin
  2
*Model_Space
 70
     0
 10
0.0
 20
0.0
 30
0.0
  3
*Model_Space
  1

  0
ENDBLK
  5
38
330
1E
100
AcDbEntity
  8
0
100
AcDbBlockEnd
  0
BLOCK
  5
35
330
1A
100
AcDbEntity
 67
     1
  8
0
100
AcDbBlockBegin
  2
*Paper_Space
 70
     0
 10
0.0
 20
0.0
 30
0.0
  3
*Paper_Space
  1

  0
ENDBLK
  5
36
330
1A
100
AcDbEntity
 67
     1
  8
0
100
AcDbBlockEnd
  0
BLOCK
  5
39
330
22
100
AcDbEntity
  8
0
100
AcDbBlockBegin
  2
LOGO
 70
     0
 10
0.0
 20
0.0
 30
0.0
  3
LOGO
  1

  0
ARC
  5
3A
330
22
100
AcDbEntity
  8
0
100
AcDbCircle
 10
11.59973089678112
 20
-9.271599258481501
 30
0.0
 40
4.5
100
AcDbArc
 50
270.0
 51
231.0575587310159
  0
LINE
  5
3B
330
22
100
AcDbEntity
  8
0
100
AcDbLine
 10
3.599730896781125
 20
-4.771599258481529
 30
0.0
 11
3.599730896781153
 21
-11.77159925848133
 31
0.0
  0
LINE
  5
3C
330
22
100
AcDbEntity
  8
0
100
AcDbLine
 10
2.599730896781125
 20
-4.771599258481529
 30
0.0
 11
2.599730896781153
 21
-11.77159925848133
 31
0.0
  0
CIRCLE
  5
3D
330
22
100
AcDbEntity
  8
0
100
AcDbCircle
 10
11.59973089678112
 20
-9.271599258481501
 30
0.0
 40
3.5
  0
ARC
  5
3E
330
22
100
AcDbEntity
  8
0
100
AcDbCircle
 10
31.59973089678115
 20
-9.271599258481472
 30
0.0
 40
4.5
100
AcDbArc
 50
270.0
 51
231.0575587310182
  0
LINE
  5
3F
330
22
100
AcDbEntity
  8
0
100
AcDbLine
 10
17.59973089678112
 20
-4.771599258481472
 30
0.0
 11
17.59973089678115
 21
-13.77159925848147
 31
0.0
  0
ARC
  5
40
330
22
100
AcDbEntity
  8
0
100
AcDbCircle
 10
22.59973089678116
 20
-7.271599258481472
 30
0.0
 40
2.5
100
AcDbArc
 50
293.1161887722295
 51
90.0
  0
CIRCLE
  5
41
330
22
100
AcDbEntity
  8
0
100
AcDbCircle
 10
31.59973089678115
 20
-9.271599258481472
 30
0.0
 40
3.5
  0
ARC
  5
42
330
22
100
AcDbEntity
  8
0
100
AcDbCircle
 10
4.599730896781153
 20
-11.77159925848133
 30
0.0
 40
1.0
100
AcDbArc
 50
180.0
 51
270.0
  0
ARC
  5
43
330
22
100
AcDbEntity
  8
0
100
AcDbCircle
 10
4.599730896781153
 20
-11.77159925848133
 30
0.0
 40
2.0
100
AcDbArc
 50
179.9999999999992
 51
270.0
  0
LINE
  5
44
330
22
100
AcDbEntity
  8
0
100
AcDbLine
 10
11.59973089678115
 20
-13.77159925848144
 30
0.0
 11
4.599730896781153
 21
-13.77159925848147
 31
0.0
  0
LINE
  5
45
330
22
100
AcDbEntity
  8
0
100
AcDbLine
 10
8.771303772034769
 20
-12.77159925848136
 30
0.0
 11
4.599730896781153
 21
-12.77159925848133
 31
0.0
  0
LINE
  5
46
330
22
100
AcDbEntity
  8
0
100
AcDbLine
 10
31.59973089678115
 20
-13.77159925848147
 30
0.0
 11
23.6715276665056
 21
-13.77159925848144
 31
0.0
  0
LINE
  5
47
330
22
100
AcDbEntity
  8
0
100
AcDbLine
 10
23.56565672307022
 20
-9.51278021337896
 30
0.0
 11
24.4388546544846
 21
-12.77159925848144
 31
0.0
  0
LINE
  5
48
330
22
100
AcDbEntity
  8
0
100
AcDbLine
 10
22.59973089678116
 20
-9.771599258481472
 30
0.0
 11
18.59973089678112
 21
-9.771599258481472
 31
0.0
  0
LINE
  5
49
330
22
100
AcDbEntity
  8
0
100
AcDbLine
 10
18.59973089678115
 20
-13.77159925848144
 30
0.0
 11
17.59973089678115
 21
-13.77159925848144
 31
0.0
  0
LINE
  5
4A
330
22
100
AcDbEntity
  8
0
100
AcDbLine
 10
18.59973089678115
 20
-9.771599258481472
 30
0.0
 11
18.59973089678115
 21
-13.77159925848144
 31
0.0
  0
LINE
  5
4B
330
22
100
AcDbEntity
  8
0
100
AcDbLine
 10
22.59973089678116
 20
-9.771599258481472
 30
0.0
 11
23.67152766650562
 21
-13.77159925848147
 31
0.0
  0
ARC
  5
4C
330
22
100
AcDbEntity
  8
0
100
AcDbCircle
 10
22.59973089678116
 20
-7.271599258481472
 30
0.0
 40
2.5
100
AcDbArc
 50
270.0
 51
270.0000000000007
  0
LINE
  5
4D
330
22
100
AcDbEntity
  8
0
100
AcDbLine
 10
28.77130377203494
 20
-12.77159925848147
 30
0.0
 11
24.43885465448463
 21
-12.77159925848144
 31
0.0
  0
LINE
  5
4E
330
22
100
AcDbEntity
  8
0
100
AcDbLine
 10
3.599730896781125
 20
-4.771599258481472
 30
0.0
 11
2.599730896781125
 21
-4.771599258481472
 31
0.0
  0
LINE
  5
4F
330
22
100
AcDbEntity
  8
0
100
AcDbLine
 10
22.59973089678116
 20
-8.771599258481472
 30
0.0
 11
18.59973089678115
 21
-8.771599258481472
 31
0.0
  0
LINE
  5
50
330
22
100
AcDbEntity
  8
0
100
AcDbLine
 10
22.59973089678116
 20
-5.771599258481472
 30
0.0
 11
18.59973089678115
 21
-5.771599258481472
 31
0.0
  0
LINE
  5
51
330
22
100
AcDbEntity
  8
0
100
AcDbLine
 10
22.59973089678116
 20
-4.771599258481472
 30
0.0
 11
17.59973089678115
 21
-4.771599258481472
 31
0.0
  0
LINE
  5
52
330
22
100
AcDbEntity
  8
0
100
AcDbLine
 10
18.59973089678115
 20
-5.771599258481472
 30
0.0
 11
18.59973089678115
 21
-8.771599258481472
 31
0.0
  0
ARC
  5
53
330
22
100
AcDbEntity
  8
0
100
AcDbCircle
 10
22.59973089678116
 20
-7.271599258481472
 30
0.0
 40
1.5
100
AcDbArc
 50
270.0
 51
90.0
  0
ENDBLK
  5
54
330
22
100
AcDbEntity
  8
0
100
AcDbBlockEnd
  0
BLOCK
  5
55
330
23
100
AcDbEntity
  8
0
100
AcDbBlockBegin
  2
LORO
 70
     0
 10
0.0
 20
0.0
 30
0.0
  3
LORO
  1

  0
INSERT
  5
56
330
23
100
AcDbEntity
  8
STEMPEL
100
AcDbBlockReference
  2
LOGO
 10
-1.748032802467321
 20
3.771489518552062
 30
0.0
  0
ENDBLK
  5
57
330
23
100
AcDbEntity
  8
0
100
AcDbBlockEnd
  0
BLOCK
  5
10E5
330
10E4
100
AcDbEntity
  8
0
100
AcDbBlockBegin
  2
*X2
 70
     1
 10
0.0
 20
0.0
 30
0.0
  3
*X2
  1

  0
LINE
  5
10E6
330
10E4
100
AcDbEntity
  8
0
 62
     0
100
AcDbLine
 10
378.4981792842587
 20
463.3509930266444
 30
0.0
 11
380.2074342953391
 21
465.0602480377247
 31
0.0
  0
LINE
  5
10E7
330
10E4
100
AcDbEntity
  8
0
 62
     0
100
AcDbLine
 10
375.0627887886031
 20
462.744029655735
 30
0.0
 11
376.7028142557564
 21
464.3840551228882
 31
0.0
  0
LINE
  5
10E8
330
10E4
100
AcDbEntity
  8
0
 62
     0
100
AcDbLine
 10
379.1743721990952
 20
466.855613066227
 30
0.0
 11
380.6627887886032
 21
468.3440296557351
 31
0.0
  0
LINE
  5
10E9
330
10E4
100
AcDbEntity
  8
0
 62
     0
100
AcDbLine
 10
372.2343616638569
 20
462.744029655735
 30
0.0
 11
373.834361663857
 21
464.3440296557351
 31
0.0
  0
LINE
  5
10EA
330
10E4
100
AcDbEntity
  8
0
 62
     0
100
AcDbLine
 10
369.4059345391107
 20
462.744029655735
 30
0.0
 11
371.0059345391109
 21
464.3440296557351
 31
0.0
  0
LINE
  5
10EB
330
10E4
100
AcDbEntity
  8
0
 62
     0
100
AcDbLine
 10
366.5775074143645
 20
462.744029655735
 30
0.0
 11
368.1775074143646
 21
464.3440296557351
 31
0.0
  0
LINE
  5
10EC
330
10E4
100
AcDbEntity
  8
0
 62
     0
100
AcDbLine
 10
363.7490802896183
 20
462.744029655735
 30
0.0
 11
365.3490802896184
 21
464.3440296557351
 31
0.0
  0
LINE
  5
10ED
330
10E4
100
AcDbEntity
  8
0
 62
     0
100
AcDbLine
 10
360.9206531648721
 20
462.744029655735
 30
0.0
 11
362.5206531648723
 21
464.3440296557351
 31
0.0
  0
LINE
  5
10EE
330
10E4
100
AcDbEntity
  8
0
 62
     0
100
AcDbLine
 10
446.0605242577897
 20
465.859514131013
 30
0.0
 11
447.4171259003314
 21
467.2161157735548
 31
0.0
  0
LINE
  5
10EF
330
10E4
100
AcDbEntity
  8
0
 62
     0
100
AcDbLine
 10
447.141305476273
 20
464.1118682247501
 30
0.0
 11
448.2727106650806
 21
465.2432734135579
 31
0.0
  0
LINE
  5
10F0
330
10E4
100
AcDbEntity
  8
0
 62
     0
100
AcDbLine
 10
448.8691892310836
 20
463.0113248548145
 30
0.0
 11
450.2089379193268
 21
464.3510735430577
 31
0.0
  0
LINE
  5
10F1
330
10E4
100
AcDbEntity
  8
0
 62
     0
100
AcDbLine
 10
451.4303211567504
 20
462.7440296557352
 30
0.0
 11
453.0303211567503
 21
464.344029655735
 31
0.0
  0
LINE
  5
10F2
330
10E4
100
AcDbEntity
  8
0
 62
     0
100
AcDbLine
 10
454.2587482814966
 20
462.7440296557352
 30
0.0
 11
455.8587482814964
 21
464.344029655735
 31
0.0
  0
LINE
  5
10F3
330
10E4
100
AcDbEntity
  8
0
 62
     0
100
AcDbLine
 10
457.0871754062427
 20
462.7440296557352
 30
0.0
 11
458.6871754062427
 21
464.344029655735
 31
0.0
  0
LINE
  5
10F4
330
10E4
100
AcDbEntity
  8
0
 62
     0
100
AcDbLine
 10
459.9156025309889
 20
462.7440296557352
 30
0.0
 11
461.5156025309889
 21
464.344029655735
 31
0.0
  0
LINE
  5
10F5
330
10E4
100
AcDbEntity
  8
0
 62
     0
100
AcDbLine
 10
462.7440296557352
 20
462.7440296557352
 30
0.0
 11
464.344029655735
 21
464.344029655735
 31
0.0
  0
ENDBLK
  5
10F6
330
10E4
100
AcDbEntity
  8
0
100
AcDbBlockEnd
  0
BLOCK
  5
1121
330
1120
100
AcDbEntity
  8
0
100
AcDbBlockBegin
  2
*X3
 70
     1
 10
0.0
 20
0.0
 30
0.0
  3
*X3
  1

  0
LINE
  5
1122
330
1120
100
AcDbEntity
  8
0
 62
     0
100
AcDbLine
 10
552.5815925013318
 20
616.221202808121
 30
0.0
 11
552.8016944405506
 21
616.4413047473399
 31
0.0
  0
LINE
  5
1123
330
1120
100
AcDbEntity
  8
0
 62
     0
100
AcDbLine
 10
549.9299420718822
 20
616.221202808121
 30
0.0
 11
552.8016944405506
 21
619.0929551767895
 31
0.0
  0
LINE
  5
1124
330
1120
100
AcDbEntity
  8
0
 62
     0
100
AcDbLine
 10
547.8016944405506
 20
616.744605606239
 30
0.0
 11
552.8016944405506
 21
621.744605606239
 31
0.0
  0
LINE
  5
1125
330
1120
100
AcDbEntity
  8
0
 62
     0
100
AcDbLine
 10
547.8016944405506
 20
619.3962560356886
 30
0.0
 11
552.8016944405506
 21
624.3962560356886
 31
0.0
  0
LINE
  5
1126
330
1120
100
AcDbEntity
  8
0
 62
     0
100
AcDbLine
 10
547.8016944405506
 20
622.0479064651381
 30
0.0
 11
550.9749907835336
 21
625.221202808121
 31
0.0
  0
LINE
  5
1127
330
1120
100
AcDbEntity
  8
0
 62
     0
100
AcDbLine
 10
547.8016944405506
 20
624.6995568945877
 30
0.0
 11
548.323340354084
 21
625.221202808121
 31
0.0
  0
LINE
  5
1128
330
1120
100
AcDbEntity
  8
0
 62
     0
100
AcDbLine
 10
547.8016944405506
 20
558.4082961583488
 30
0.0
 11
549.6146010903228
 21
560.2212028081209
 31
0.0
  0
LINE
  5
1129
330
1120
100
AcDbEntity
  8
0
 62
     0
100
AcDbLine
 10
547.8016944405506
 20
555.7566457288993
 30
0.0
 11
552.2662515197723
 21
560.2212028081209
 31
0.0
  0
LINE
  5
112A
330
1120
100
AcDbEntity
  8
0
 62
     0
100
AcDbLine
 10
547.8016944405506
 20
553.1049952994497
 30
0.0
 11
552.8016944405506
 21
558.1049952994497
 31
0.0
  0
LINE
  5
112B
330
1120
100
AcDbEntity
  8
0
 62
     0
100
AcDbLine
 10
548.5695523786715
 20
551.221202808121
 30
0.0
 11
552.8016944405506
 21
555.4533448700002
 31
0.0
  0
LINE
  5
112C
330
1120
100
AcDbEntity
  8
0
 62
     0
100
AcDbLine
 10
551.221202808121
 20
551.221202808121
 30
0.0
 11
552.8016944405506
 21
552.8016944405506
 31
0.0
  0
LINE
  5
112D
330
1120
100
AcDbEntity
  8
0
 62
     0
100
AcDbLine
 10
552.8016944405506
 20
558.2398354988117
 30
0.0
 11
550.8203271312415
 21
560.2212028081209
 31
0.0
  0
LINE
  5
112E
330
1120
100
AcDbEntity
  8
0
 62
     0
100
AcDbLine
 10
552.8016944405506
 20
555.5881850693622
 30
0.0
 11
548.1686767017919
 21
560.2212028081209
 31
0.0
  0
LINE
  5
112F
330
1120
100
AcDbEntity
  8
0
 62
     0
100
AcDbLine
 10
552.8016944405506
 20
552.9365346399126
 30
0.0
 11
547.8016944405506
 21
557.9365346399127
 31
0.0
  0
LINE
  5
1130
330
1120
100
AcDbEntity
  8
0
 62
     0
100
AcDbLine
 10
551.8653758428928
 20
551.221202808121
 30
0.0
 11
547.8016944405506
 21
555.2848842104631
 31
0.0
  0
LINE
  5
1131
330
1120
100
AcDbEntity
  8
0
 62
     0
100
AcDbLine
 10
549.2137254134433
 20
551.221202808121
 30
0.0
 11
547.8016944405506
 21
552.6332337810136
 31
0.0
  0
LINE
  5
1132
330
1120
100
AcDbEntity
  8
0
 62
     0
100
AcDbLine
 10
550.5049861496821
 20
616.221202808121
 30
0.0
 11
547.8016944405506
 21
618.9244945172524
 31
0.0
  0
LINE
  5
1133
330
1120
100
AcDbEntity
  8
0
 62
     0
100
AcDbLine
 10
552.8016944405506
 20
616.5761449467019
 30
0.0
 11
547.8016944405506
 21
621.576144946702
 31
0.0
  0
LINE
  5
1134
330
1120
100
AcDbEntity
  8
0
 62
     0
100
AcDbLine
 10
552.8016944405506
 20
619.2277953761515
 30
0.0
 11
547.8016944405506
 21
624.2277953761515
 31
0.0
  0
LINE
  5
1135
330
1120
100
AcDbEntity
  8
0
 62
     0
100
AcDbLine
 10
552.8016944405506
 20
621.879445805601
 30
0.0
 11
549.4599374380308
 21
625.221202808121
 31
0.0
  0
LINE
  5
1136
330
1120
100
AcDbEntity
  8
0
 62
     0
100
AcDbLine
 10
552.8016944405506
 20
624.5310962350506
 30
0.0
 11
552.1115878674804
 21
625.221202808121
 31
0.0
  0
ENDBLK
  5
1137
330
1120
100
AcDbEntity
  8
0
100
AcDbBlockEnd
  0
BLOCK
  5
1139
330
1138
100
AcDbEntity
  8
0
100
AcDbBlockBegin
  2
*X4
 70
     1
 10
0.0
 20
0.0
 30
0.0
  3
*X4
  1

  0
LINE
  5
113A
330
1138
100
AcDbEntity
  8
0
 62
     0
100
AcDbLine
 10
566.3841781840903
 20
726.2070178249183
 30
0.0
 11
564.8841781840904
 21
727.7070178249183
 31
0.0
  0
LINE
  5
113B
330
1138
100
AcDbEntity
  8
0
 62
     0
100
AcDbLine
 10
565.6102446070077
 20
724.1525242772548
 30
0.0
 11
564.7320653951234
 21
725.0307034891392
 31
0.0
  0
LINE
  5
113C
330
1138
100
AcDbEntity
  8
0
 62
     0
100
AcDbLine
 10
565.4841781840905
 20
721.4501635754259
 30
0.0
 11
563.9841781840905
 21
722.9501635754258
 31
0.0
  0
LINE
  5
113D
330
1138
100
AcDbEntity
  8
0
 62
     0
100
AcDbLine
 10
565.4841781840905
 20
718.6217364506798
 30
0.0
 11
563.9841781840905
 21
720.1217364506797
 31
0.0
  0
LINE
  5
113E
330
1138
100
AcDbEntity
  8
0
 62
     0
100
AcDbLine
 10
565.4841781840905
 20
715.7933093259336
 30
0.0
 11
563.9841781840905
 21
717.2933093259335
 31
0.0
  0
LINE
  5
113F
330
1138
100
AcDbEntity
  8
0
 62
     0
100
AcDbLine
 10
565.4841781840905
 20
712.9648822011874
 30
0.0
 11
563.9841781840905
 21
714.4648822011873
 31
0.0
  0
LINE
  5
1140
330
1138
100
AcDbEntity
  8
0
 62
     0
100
AcDbLine
 10
565.4841781840905
 20
710.1364550764412
 30
0.0
 11
563.9841781840905
 21
711.6364550764411
 31
0.0
  0
LINE
  5
1141
330
1138
100
AcDbEntity
  8
0
 62
     0
100
AcDbLine
 10
565.4841781840905
 20
707.308027951695
 30
0.0
 11
563.9841781840905
 21
708.8080279516949
 31
0.0
  0
LINE
  5
1142
330
1138
100
AcDbEntity
  8
0
 62
     0
100
AcDbLine
 10
565.4841781840905
 20
704.4796008269488
 30
0.0
 11
563.9841781840905
 21
705.9796008269488
 31
0.0
  0
LINE
  5
1143
330
1138
100
AcDbEntity
  8
0
 62
     0
100
AcDbLine
 10
566.9841781840906
 20
700.1511737022024
 30
0.0
 11
563.9841781840905
 21
703.1511737022026
 31
0.0
  0
LINE
  5
1144
330
1138
100
AcDbEntity
  8
0
 62
     0
100
AcDbLine
 10
566.9841781840906
 20
697.3227465774562
 30
0.0
 11
565.4841781840905
 21
698.8227465774563
 31
0.0
  0
LINE
  5
1145
330
1138
100
AcDbEntity
  8
0
 62
     0
100
AcDbLine
 10
566.9841781840906
 20
694.4943194527101
 30
0.0
 11
565.4841781840905
 21
695.9943194527101
 31
0.0
  0
LINE
  5
1146
330
1138
100
AcDbEntity
  8
0
 62
     0
100
AcDbLine
 10
566.9841781840906
 20
691.6658923279639
 30
0.0
 11
565.4841781840905
 21
693.1658923279639
 31
0.0
  0
LINE
  5
1147
330
1138
100
AcDbEntity
  8
0
 62
     0
100
AcDbLine
 10
566.9841781840906
 20
683.1806109537252
 30
0.0
 11
565.6167874203405
 21
684.5480017174755
 31
0.0
  0
LINE
  5
1148
330
1138
100
AcDbEntity
  8
0
 62
     0
100
AcDbLine
 10
566.849684695236
 20
680.4866773178338
 30
0.0
 11
565.4841781840905
 21
681.8521838289791
 31
0.0
  0
LINE
  5
1149
330
1138
100
AcDbEntity
  8
0
 62
     0
100
AcDbLine
 10
565.4976719211365
 20
679.010262967187
 30
0.0
 11
564.3319169696332
 21
680.1760179186904
 31
0.0
  0
LINE
  5
114A
330
1138
100
AcDbEntity
  8
0
 62
     0
100
AcDbLine
 10
563.4285538059237
 20
678.2509539576537
 30
0.0
 11
562.258244792859
 21
679.4212629707184
 31
0.0
  0
LINE
  5
114B
330
1138
100
AcDbEntity
  8
0
 62
     0
100
AcDbLine
 10
566.3841781840903
 20
729.0354449496646
 30
0.0
 11
566.3716214162795
 21
729.0480017174754
 31
0.0
  0
LINE
  5
114C
330
1138
100
AcDbEntity
  8
0
 62
     0
100
AcDbLine
 10
566.3716214162795
 20
729.0480017174754
 30
0.0
 11
564.8841781840904
 21
730.5354449496645
 31
0.0
  0
LINE
  5
114D
330
1138
100
AcDbEntity
  8
0
 62
     0
100
AcDbLine
 10
566.3841781840905
 20
731.8638720744107
 30
0.0
 11
563.9841781840905
 21
734.2638720744107
 31
0.0
  0
LINE
  5
114E
330
1138
100
AcDbEntity
  8
0
 62
     0
100
AcDbLine
 10
565.4841781840905
 20
735.5922991991568
 30
0.0
 11
563.9841781840905
 21
737.0922991991569
 31
0.0
  0
LINE
  5
114F
330
1138
100
AcDbEntity
  8
0
 62
     0
100
AcDbLine
 10
565.4841781840905
 20
738.420726323903
 30
0.0
 11
563.9841781840905
 21
739.9207263239031
 31
0.0
  0
LINE
  5
1150
330
1138
100
AcDbEntity
  8
0
 62
     0
100
AcDbLine
 10
565.4841781840905
 20
741.2491534486492
 30
0.0
 11
563.9841781840905
 21
742.7491534486493
 31
0.0
  0
LINE
  5
1151
330
1138
100
AcDbEntity
  8
0
 62
     0
100
AcDbLine
 10
565.4841781840905
 20
744.0775805733955
 30
0.0
 11
563.9841781840905
 21
745.5775805733955
 31
0.0
  0
LINE
  5
1152
330
1138
100
AcDbEntity
  8
0
 62
     0
100
AcDbLine
 10
565.4841781840905
 20
746.9060076981417
 30
0.0
 11
563.9841781840905
 21
748.4060076981417
 31
0.0
  0
LINE
  5
1153
330
1138
100
AcDbEntity
  8
0
 62
     0
100
AcDbLine
 10
565.4841781840905
 20
749.7344348228878
 30
0.0
 11
563.9841781840905
 21
751.2344348228878
 31
0.0
  0
LINE
  5
1154
330
1138
100
AcDbEntity
  8
0
 62
     0
100
AcDbLine
 10
565.4841781840905
 20
752.562861947634
 30
0.0
 11
563.9841781840905
 21
754.062861947634
 31
0.0
  0
LINE
  5
1155
330
1138
100
AcDbEntity
  8
0
 62
     0
100
AcDbLine
 10
565.7949247600629
 20
755.0805424964076
 30
0.0
 11
564.6091421359268
 21
756.2663251205438
 31
0.0
  0
LINE
  5
1156
330
1138
100
AcDbEntity
  8
0
 62
     0
100
AcDbLine
 10
566.9841781840906
 20
756.7197161971262
 30
0.0
 11
565.4841781840905
 21
758.2197161971263
 31
0.0
  0
LINE
  5
1157
330
1138
100
AcDbEntity
  8
0
 62
     0
100
AcDbLine
 10
566.9841781840906
 20
759.5481433218724
 30
0.0
 11
565.4841781840905
 21
761.0481433218725
 31
0.0
  0
LINE
  5
1158
330
1138
100
AcDbEntity
  8
0
 62
     0
100
AcDbLine
 10
566.9841781840906
 20
762.3765704466186
 30
0.0
 11
565.4841781840905
 21
763.8765704466187
 31
0.0
  0
LINE
  5
1159
330
1138
100
AcDbEntity
  8
0
 62
     0
100
AcDbLine
 10
566.9841781840906
 20
765.2049975713648
 30
0.0
 11
565.6411740379799
 21
766.5480017174756
 31
0.0
  0
LINE
  5
115A
330
1138
100
AcDbEntity
  8
0
 62
     0
100
AcDbLine
 10
566.9841781840906
 20
773.6902789456033
 30
0.0
 11
565.4841781840905
 21
775.1902789456035
 31
0.0
  0
LINE
  5
115B
330
1138
100
AcDbEntity
  8
0
 62
     0
100
AcDbLine
 10
561.8517730499852
 20
778.8226840797088
 30
0.0
 11
561.1314282132548
 21
779.5430289164392
 31
0.0
  0
LINE
  5
115C
330
1138
100
AcDbEntity
  8
0
 62
     0
100
AcDbLine
 10
566.9841781840906
 20
776.5187060703496
 30
0.0
 11
563.7890416062938
 21
779.7138426481465
 31
0.0
  0
ENDBLK
  5
115D
330
1138
100
AcDbEntity
  8
0
100
AcDbBlockEnd
  0
BLOCK
  5
1423
330
1418
100
AcDbEntity
  8
0
100
AcDbBlockBegin
  2
*D5
 70
     1
 10
0.0
 20
0.0
 30
0.0
  3
*D5
  1

  0
LINE
  5
148F
330
1418
100
AcDbEntity
  8
BEM
 62
     0
370
    -2
100
AcDbLine
 10
797.5819555632357
 20
257.2667102892511
 30
0.0
 11
797.5819555632357
 21
232.9930162336418
 31
0.0
  0
LINE
  5
1490
330
1418
100
AcDbEntity
  8
BEM
 62
     0
370
    -2
100
AcDbLine
 10
677.5819555632357
 20
258.7100915944909
 30
0.0
 11
677.5819555632357
 21
232.9930162336418
 31
0.0
  0
LINE
  5
1491
330
1418
100
AcDbEntity
  8
BEM
 62
     0
370
    -2
100
AcDbLine
 10
790.5819555632357
 20
234.9930162336418
 30
0.0
 11
684.5819555632357
 21
234.9930162336418
 31
0.0
  0
SOLID
  5
1492
330
1418
100
AcDbEntity
  8
BEM
 62
     0
100
AcDbTrace
 10
790.5819555632357
 20
236.1596829003085
 30
0.0
 11
790.5819555632357
 21
233.8263495669751
 31
0.0
 12
797.5819555632357
 22
234.9930162336418
 32
0.0
 13
797.5819555632357
 23
234.9930162336418
 33
0.0
  0
SOLID
  5
1493
330
1418
100
AcDbEntity
  8
BEM
 62
     0
100
AcDbTrace
 10
684.5819555632357
 20
236.1596829003085
 30
0.0
 11
684.5819555632357
 21
233.8263495669751
 31
0.0
 12
677.5819555632357
 22
234.9930162336418
 32
0.0
 13
677.5819555632357
 23
234.9930162336418
 33
0.0
  0
MTEXT
  5
1494
330
1418
100
AcDbEntity
  8
BEM
 62
     1
100
AcDbMText
 10
737.5819555632357
 20
241.4930162336418
 30
0.0
 40
7.0
 41
0.0
 71
     5
 72
     1
  1
\A1;120
 73
     1
 44
1.0
  0
POINT
  5
1495
330
1418
100
AcDbEntity
  8
DEFPOINTS
 62
     0
100
AcDbPoint
 10
797.5819555632357
 20
259.2667102892511
 30
0.0
  0
POINT
  5
1496
330
1418
100
AcDbEntity
  8
DEFPOINTS
 62
     0
100
AcDbPoint
 10
677.5819555632357
 20
260.7100915944909
 30
0.0
  0
POINT
  5
1497
330
1418
100
AcDbEntity
  8
DEFPOINTS
 62
     0
100
AcDbPoint
 10
677.5819555632357
 20
234.9930162336418
 30
0.0
  0
ENDBLK
  5
1424
330
1418
100
AcDbEntity
  8
0
100
AcDbBlockEnd
  0
BLOCK
  5
1430
330
1425
100
AcDbEntity
  8
0
100
AcDbBlockBegin
  2
*D6
 70
     1
 10
0.0
 20
0.0
 30
0.0
  3
*D6
  1

  0
LINE
  5
1486
330
1425
100
AcDbEntity
  8
BEM
 62
     0
370
    -2
100
AcDbLine
 10
93.09823420005045
 20
262.5321076175266
 30
0.0
 11
80.15069745304947
 21
262.5321076175266
 31
0.0
  0
LINE
  5
1487
330
1425
100
AcDbEntity
  8
BEM
 62
     0
370
    -2
100
AcDbLine
 10
95.09823420005046
 20
335.5321076175266
 30
0.0
 11
80.15069745304947
 21
335.5321076175266
 31
0.0
  0
LINE
  5
1488
330
1425
100
AcDbEntity
  8
BEM
 62
     0
370
    -2
100
AcDbLine
 10
82.15069745304946
 20
269.5321076175265
 30
0.0
 11
82.15069745304948
 21
328.5321076175266
 31
0.0
  0
SOLID
  5
1489
330
1425
100
AcDbEntity
  8
BEM
 62
     0
100
AcDbTrace
 10
80.98403078638279
 20
269.5321076175265
 30
0.0
 11
83.31736411971613
 21
269.5321076175265
 31
0.0
 12
82.15069745304946
 22
262.5321076175266
 32
0.0
 13
82.15069745304946
 23
262.5321076175266
 33
0.0
  0
SOLID
  5
148A
330
1425
100
AcDbEntity
  8
BEM
 62
     0
100
AcDbTrace
 10
80.98403078638281
 20
328.5321076175266
 30
0.0
 11
83.31736411971615
 21
328.5321076175266
 31
0.0
 12
82.15069745304948
 22
335.5321076175266
 32
0.0
 13
82.15069745304948
 23
335.5321076175266
 33
0.0
  0
MTEXT
  5
148B
330
1425
100
AcDbEntity
  8
BEM
 62
     1
100
AcDbMText
 10
75.65069745304942
 20
299.0321076175265
 30
0.0
 40
7.0
 41
0.0
 71
     5
 72
     1
  1
\A1;%%c73
 11
0.0000000000000001
 21
1.0
 31
0.0
 73
     1
 44
1.0
  0
POINT
  5
148C
330
1425
100
AcDbEntity
  8
DEFPOINTS
 62
     0
100
AcDbPoint
 10
95.09823420005046
 20
262.5321076175266
 30
0.0
  0
POINT
  5
148D
330
1425
100
AcDbEntity
  8
DEFPOINTS
 62
     0
100
AcDbPoint
 10
97.09823420005045
 20
335.5321076175266
 30
0.0
  0
POINT
  5
148E
330
1425
100
AcDbEntity
  8
DEFPOINTS
 62
     0
100
AcDbPoint
 10
82.15069745304948
 20
335.5321076175266
 30
0.0
  0
ENDBLK
  5
1431
330
1425
100
AcDbEntity
  8
0
100
AcDbBlockEnd
  0
BLOCK
  5
143D
330
1432
100
AcDbEntity
  8
0
100
AcDbBlockBegin
  2
*D7
 70
     1
 10
0.0
 20
0.0
 30
0.0
  3
*D7
  1

  0
LINE
  5
1498
330
1432
100
AcDbEntity
  8
BEM
 62
     0
370
    -2
100
AcDbLine
 10
95.09823420005046
 20
261.2320169257342
 30
0.0
 11
95.09823420005046
 21
232.9930162336418
 31
0.0
  0
LINE
  5
1499
330
1432
100
AcDbEntity
  8
BEM
 62
     0
370
    -2
100
AcDbLine
 10
417.5819555632357
 20
252.0321076175266
 30
0.0
 11
417.5819555632357
 21
232.9930162336418
 31
0.0
  0
LINE
  5
149A
330
1432
100
AcDbEntity
  8
BEM
 62
     0
370
    -2
100
AcDbLine
 10
102.0982342000504
 20
234.9930162336418
 30
0.0
 11
410.5819555632358
 21
234.9930162336418
 31
0.0
  0
SOLID
  5
149B
330
1432
100
AcDbEntity
  8
BEM
 62
     0
100
AcDbTrace
 10
102.0982342000504
 20
236.1596829003085
 30
0.0
 11
102.0982342000504
 21
233.8263495669751
 31
0.0
 12
95.09823420005046
 22
234.9930162336418
 32
0.0
 13
95.09823420005046
 23
234.9930162336418
 33
0.0
  0
SOLID
  5
149C
330
1432
100
AcDbEntity
  8
BEM
 62
     0
100
AcDbTrace
 10
410.5819555632358
 20
236.1596829003085
 30
0.0
 11
410.5819555632358
 21
233.8263495669751
 31
0.0
 12
417.5819555632357
 22
234.9930162336418
 32
0.0
 13
417.5819555632357
 23
234.9930162336418
 33
0.0
  0
MTEXT
  5
149D
330
1432
100
AcDbEntity
  8
BEM
 62
     1
100
AcDbMText
 10
256.3400948816432
 20
241.4930162336418
 30
0.0
 40
7.0
 41
0.0
 71
     5
 72
     1
  1
\A1;620
 73
     1
 44
1.0
  0
POINT
  5
149E
330
1432
100
AcDbEntity
  8
DEFPOINTS
 62
     0
100
AcDbPoint
 10
95.09823420005046
 20
263.2320169257342
 30
0.0
  0
POINT
  5
149F
330
1432
100
AcDbEntity
  8
DEFPOINTS
 62
     0
100
AcDbPoint
 10
417.5819555632357
 20
254.0321076175266
 30
0.0
  0
POINT
  5
14A0
330
1432
100
AcDbEntity
  8
DEFPOINTS
 62
     0
100
AcDbPoint
 10
417.5819555632357
 20
234.9930162336418
 30
0.0
  0
ENDBLK
  5
143E
330
1432
100
AcDbEntity
  8
0
100
AcDbBlockEnd
  0
BLOCK
  5
144A
330
143F
100
AcDbEntity
  8
0
100
AcDbBlockBegin
  2
*D8
 70
     1
 10
0.0
 20
0.0
 30
0.0
  3
*D8
  1

  0
LINE
  5
14C3
330
143F
100
AcDbEntity
  8
BEM
 62
     0
370
    -2
100
AcDbLine
 10
95.09823420005046
 20
261.2320169257342
 30
0.0
 11
95.09823420005046
 21
213.1064335453956
 31
0.0
  0
LINE
  5
14C4
330
143F
100
AcDbEntity
  8
BEM
 62
     0
370
    -2
100
AcDbLine
 10
797.5819555632357
 20
257.2667102892511
 30
0.0
 11
797.5819555632357
 21
213.1064335453956
 31
0.0
  0
LINE
  5
14C5
330
143F
100
AcDbEntity
  8
BEM
 62
     0
370
    -2
100
AcDbLine
 10
102.0982342000504
 20
215.1064335453956
 30
0.0
 11
790.5819555632357
 21
215.1064335453956
 31
0.0
  0
SOLID
  5
14C6
330
143F
100
AcDbEntity
  8
BEM
 62
     0
100
AcDbTrace
 10
102.0982342000504
 20
216.2731002120622
 30
0.0
 11
102.0982342000504
 21
213.9397668787289
 31
0.0
 12
95.09823420005046
 22
215.1064335453956
 32
0.0
 13
95.09823420005046
 23
215.1064335453956
 33
0.0
  0
SOLID
  5
14C7
330
143F
100
AcDbEntity
  8
BEM
 62
     0
100
AcDbTrace
 10
790.5819555632357
 20
216.2731002120622
 30
0.0
 11
790.5819555632357
 21
213.9397668787289
 31
0.0
 12
797.5819555632357
 22
215.1064335453956
 32
0.0
 13
797.5819555632357
 23
215.1064335453956
 33
0.0
  0
MTEXT
  5
14C8
330
143F
100
AcDbEntity
  8
BEM
 62
     1
100
AcDbMText
 10
446.340094881643
 20
221.6064335453956
 30
0.0
 40
7.0
 41
0.0
 71
     5
 72
     1
  1
\A1;2000
 73
     1
 44
1.0
  0
POINT
  5
14C9
330
143F
100
AcDbEntity
  8
DEFPOINTS
 62
     0
100
AcDbPoint
 10
95.09823420005046
 20
263.2320169257342
 30
0.0
  0
POINT
  5
14CA
330
143F
100
AcDbEntity
  8
DEFPOINTS
 62
     0
100
AcDbPoint
 10
797.5819555632357
 20
259.2667102892511
 30
0.0
  0
POINT
  5
14CB
330
143F
100
AcDbEntity
  8
DEFPOINTS
 62
     0
100
AcDbPoint
 10
797.5819555632357
 20
215.1064335453956
 30
0.0
  0
ENDBLK
  5
144B
330
143F
100
AcDbEntity
  8
0
100
AcDbBlockEnd
  0
ENDSEC
  0
SECTION
  2
ENTITIES
  0
LINE
  5
58
330
1E
100
AcDbEntity
  8
STEMPEL
100
AcDbLine
 10
830.0000000000004
 20
109.9999999999998
 30
0.0
 11
470.0000000000001
 21
109.9999999999999
 31
0.0
  0
LINE
  5
59
330
1E
100
AcDbEntity
  8
STEMPEL
100
AcDbLine
 10
470.0000000000001
 20
109.9999999999999
 30
0.0
 11
470.0000000000001
 21
9.999999999999886
 31
0.0
  0
LINE
  5
5A
330
1E
100
AcDbEntity
  8
STEMPEL
100
AcDbLine
 10
566.0000000000003
 20
109.9999999999997
 30
0.0
 11
566.0000000000001
 21
9.999999999999772
 31
0.0
  0
LINE
  5
5B
330
1E
100
AcDbEntity
  8
STEMPEL
100
AcDbLine
 10
650.0
 20
109.9999999999999
 30
0.0
 11
650.0
 21
9.999999999999886
 31
0.0
  0
LINE
  5
5C
330
1E
100
AcDbEntity
  8
STEMPEL
100
AcDbLine
 10
752.0000000000003
 20
109.9999999999995
 30
0.0
 11
752.0000000000003
 21
39.99999999999989
 31
0.0
  0
LINE
  5
5D
330
1E
100
AcDbEntity
  8
STEMPEL
100
AcDbLine
 10
566.0000000000001
 20
29.99999999999989
 30
0.0
 11
470.0000000000001
 21
29.99999999999989
 31
0.0
  0
LINE
  5
5E
330
1E
100
AcDbEntity
  8
STEMPEL
100
AcDbLine
 10
830.0000000000004
 20
39.99999999999989
 30
0.0
 11
566.0000000000001
 21
39.99999999999989
 31
0.0
  0
LINE
  5
5F
330
1E
100
AcDbEntity
  8
STEMPEL
100
AcDbLine
 10
830.0000000000004
 20
79.99999999999989
 30
0.0
 11
566.0000000000003
 21
79.99999999999989
 31
0.0
  0
LINE
  5
60
330
1E
100
AcDbEntity
  8
VOLL
100
AcDbLine
 10
484.0000000000002
 20
109.9999999999999
 30
0.0
 11
484.0000000000001
 21
9.999999999999886
 31
0.0
  0
LINE
  5
61
330
1E
100
AcDbEntity
  8
VOLL
100
AcDbLine
 10
524.0000000000001
 20
109.9999999999997
 30
0.0
 11
524.0
 21
9.999999999999772
 31
0.0
  0
LINE
  5
62
330
1E
100
AcDbEntity
  8
VOLL
100
AcDbLine
 10
544.0000000000002
 20
109.9999999999997
 30
0.0
 11
544.0
 21
9.999999999999772
 31
0.0
  0
LINE
  5
63
330
1E
100
AcDbEntity
  8
VOLL
100
AcDbLine
 10
584.0000000000003
 20
79.99999999999989
 30
0.0
 11
584.0000000000003
 21
39.99999999999989
 31
0.0
  0
LINE
  5
64
330
1E
100
AcDbEntity
  8
VOLL
100
AcDbLine
 10
610.0000000000003
 20
109.9999999999996
 30
0.0
 11
610.0000000000001
 21
39.99999999999989
 31
0.0
  0
LINE
  5
65
330
1E
100
AcDbEntity
  8
HILF
100
AcDbLine
 10
470.0000000000001
 20
99.99999999999989
 30
0.0
 11
566.0000000000003
 21
99.99999999999989
 31
0.0
  0
LINE
  5
66
330
1E
100
AcDbEntity
  8
HILF
100
AcDbLine
 10
470.0000000000001
 20
89.99999999999989
 30
0.0
 11
566.0000000000003
 21
89.99999999999989
 31
0.0
  0
LINE
  5
67
330
1E
100
AcDbEntity
  8
HILF
100
AcDbLine
 10
470.0000000000001
 20
79.99999999999989
 30
0.0
 11
566.0000000000003
 21
79.99999999999989
 31
0.0
  0
LINE
  5
68
330
1E
100
AcDbEntity
  8
HILF
100
AcDbLine
 10
470.0000000000001
 20
69.99999999999989
 30
0.0
 11
566.0000000000003
 21
69.99999999999989
 31
0.0
  0
LINE
  5
69
330
1E
100
AcDbEntity
  8
HILF
100
AcDbLine
 10
470.0000000000001
 20
59.99999999999989
 30
0.0
 11
566.0000000000003
 21
59.99999999999989
 31
0.0
  0
LINE
  5
6A
330
1E
100
AcDbEntity
  8
HILF
100
AcDbLine
 10
470.0000000000001
 20
49.99999999999989
 30
0.0
 11
566.0000000000003
 21
49.99999999999989
 31
0.0
  0
LINE
  5
6B
330
1E
100
AcDbEntity
  8
HILF
100
AcDbLine
 10
470.0000000000001
 20
39.99999999999989
 30
0.0
 11
566.0000000000003
 21
39.99999999999989
 31
0.0
  0
LINE
  5
6C
330
1E
100
AcDbEntity
  8
HILF
100
AcDbLine
 10
566.0000000000003
 20
69.99999999999989
 30
0.0
 11
650.0
 21
69.99999999999989
 31
0.0
  0
LINE
  5
6D
330
1E
100
AcDbEntity
  8
HILF
100
AcDbLine
 10
566.0000000000003
 20
59.99999999999989
 30
0.0
 11
650.0
 21
59.99999999999989
 31
0.0
  0
LINE
  5
6E
330
1E
100
AcDbEntity
  8
HILF
100
AcDbLine
 10
566.0000000000003
 20
49.99999999999989
 30
0.0
 11
650.0
 21
49.99999999999989
 31
0.0
  0
LINE
  5
6F
330
1E
100
AcDbEntity
  8
HILF
100
AcDbLine
 10
654.773680109695
 20
84.03758247564121
 30
0.0
 11
746.6297842514812
 21
84.03758247564121
 31
0.0
  0
LINE
  5
70
330
1E
100
AcDbEntity
  8
HILF
100
AcDbLine
 10
654.773680109695
 20
69.99999999999989
 30
0.0
 11
746.6297842514812
 21
69.99999999999989
 31
0.0
  0
LINE
  5
71
330
1E
100
AcDbEntity
  8
HILF
100
AcDbLine
 10
654.773680109695
 20
59.99999999999989
 30
0.0
 11
746.6297842514812
 21
59.99999999999989
 31
0.0
  0
LINE
  5
72
330
1E
100
AcDbEntity
  8
HILF
100
AcDbLine
 10
654.773680109695
 20
49.99999999999989
 30
0.0
 11
746.6297842514812
 21
49.99999999999989
 31
0.0
  0
LINE
  5
73
330
1E
100
AcDbEntity
  8
VOLL
100
AcDbLine
 10
752.0000000000003
 20
59.99999999999989
 30
0.0
 11
830.0000000000004
 21
59.99999999999989
 31
0.0
  0
LINE
  5
74
330
1E
100
AcDbEntity
  8
HILF
100
AcDbLine
 10
756.7238616296996
 20
83.77983636955809
 30
0.0
 11
824.8588839326732
 21
83.77983636955804
 31
0.0
  0
LINE
  5
75
330
1E
100
AcDbEntity
  8
HILF
100
AcDbLine
 10
654.773680109695
 20
14.89398258028291
 30
0.0
 11
824.8588839326732
 21
14.89398258028291
 31
0.0
  0
TEXT
  5
76
330
1E
100
AcDbEntity
  8
TEXT
100
AcDbText
 10
492.3998239263299
 20
18.67381894984115
 30
0.0
 40
4.0
  1
Änderung
 41
0.8
  7
GREEKS
 72
     1
 11
503.1426810691869
 21
18.67381894984115
 31
0.0
100
AcDbText
  0
TEXT
  5
78
330
1E
100
AcDbEntity
  8
TEXT
100
AcDbText
 10
573.5163572150376
 20
102.4620895087087
 30
0.0
 40
5.0
  1
Maßstab
 41
0.8
  7
GREEKS
100
AcDbText
  0
TEXT
  5
79
330
1E
100
AcDbEntity
  8
TEXT
100
AcDbText
 10
654.8779403809009
 20
102.5489328011778
 30
0.0
 40
5.0
  1
Benennung
 41
0.8
  7
GREEKS
100
AcDbText
  0
TEXT
  5
7A
330
1E
100
AcDbEntity
  8
TEXT
100
AcDbText
 10
756.1787549576343
 20
102.3132034537135
 30
0.0
 40
5.0
  1
Zeichnungs Nr.
 41
0.8
  7
GREEKS
100
AcDbText
  0
TEXT
  5
7B
330
1E
100
AcDbEntity
  8
TEXT
100
AcDbText
 10
654.7422383911359
 20
30.84560570193048
 30
0.0
 40
5.0
  1
Bauvorhaben
 41
0.8
  7
GREEKS
100
AcDbText
  0
TEXT
  5
7C
330
1E
100
AcDbEntity
  8
TEXT
100
AcDbText
 10
756.7238616296995
 20
73.18118237099949
 30
0.0
 40
5.0
  1
Ersatz für:
 41
0.8
  7
GREEKS
100
AcDbText
  0
TEXT
  5
7D
330
1E
100
AcDbEntity
  8
TEXT
100
AcDbText
 10
478.2664110704578
 20
13.6546584602718
 30
0.0
 40
4.0
  1
Index
 50
89.99999999999998
 41
0.8
  7
GREEKS
100
AcDbText
  0
TEXT
  5
7E
330
1E
100
AcDbEntity
  8
TEXT
100
AcDbText
 10
529.8990113186979
 20
18.67156269339799
 30
0.0
 40
4.0
  1
Tag
 41
0.8
  7
GREEKS
 72
     1
 11
533.6323446520313
 21
18.67156269339799
 31
0.0
100
AcDbText
  0
TEXT
  5
7F
330
1E
100
AcDbEntity
  8
TEXT
100
AcDbText
 10
548.9795678138292
 20
18.59324216966391
 30
0.0
 40
4.0
  1
Name
 41
0.8
  7
GREEKS
 72
     1
 11
555.3033773376387
 21
18.59324216966391
 31
0.0
100
AcDbText
  0
TEXT
  5
80
330
1E
100
AcDbEntity
  8
TEXT
100
AcDbText
 10
592.3311673153651
 20
73.31880501229909
 30
0.0
 40
4.0
  1
Tag
 41
0.8
  7
GREEKS
100
AcDbText
  0
TEXT
  5
81
330
1E
100
AcDbEntity
  8
TEXT
100
AcDbText
 10
622.4626584226296
 20
73.30961091915208
 30
0.0
 40
4.0
  1
Name
 41
0.8
  7
GREEKS
100
AcDbText
  0
TEXT
  5
82
330
1E
100
AcDbEntity
  8
TEXT
100
AcDbText
 10
567.5836127167615
 20
63.62990369617946
 30
0.0
 40
4.0
  1
Gez.
 41
0.8
  7
GREEKS
100
AcDbText
  0
TEXT
  5
83
330
1E
100
AcDbEntity
  8
TEXT
100
AcDbText
 10
567.5515086571672
 20
53.68926291428365
 30
0.0
 40
4.0
  1
Gepr.
 41
0.8
  7
GREEKS
100
AcDbText
  0
TEXT
  5
84
330
1E
100
AcDbEntity
  8
TEXT
100
AcDbText
 10
567.6006777387303
 20
43.52946389649789
 30
0.0
 40
4.0
  1
Norm.
 41
0.8
  7
GREEKS
100
AcDbText
  0
TEXT
  5
85
330
1E
100
AcDbEntity
  8
TEXT
100
AcDbText
 10
757.2400861497007
 20
52.07416177878585
 30
0.0
 40
5.0
  1
ersetzt durch:
 41
0.8
  7
GREEKS
100
AcDbText
  0
TEXT
  5
86
330
1E
100
AcDbEntity
  8
TEXT
100
AcDbText
 10
568.8693027807324
 20
72.96682596523718
 30
0.0
 40
4.0
  1
2008
 41
0.8
  7
GREEKS
100
AcDbText
  0
LINE
  5
87
330
1E
100
AcDbEntity
  8
HILF
100
AcDbLine
 10
0.0
 20
0.0
 30
0.0
 11
840.0000000000002
 21
-0.0000000000001137
 31
0.0
  0
LINE
  5
88
330
1E
100
AcDbEntity
  8
HILF
100
AcDbLine
 10
840.0000000000002
 20
-0.0000000000001137
 30
0.0
 11
840.0000000000002
 21
593.9999999999998
 31
0.0
  0
LINE
  5
89
330
1E
100
AcDbEntity
  8
HILF
100
AcDbLine
 10
840.0000000000002
 20
593.9999999999998
 30
0.0
 11
0.0000000000001705
 21
594.0
 31
0.0
  0
LINE
  5
8B
330
1E
100
AcDbEntity
  8
STEMPEL
100
AcDbLine
 10
830.0
 20
583.9999999999998
 30
0.0
 11
40.00000000000011
 21
584.0
 31
0.0
  0
LINE
  5
8D
330
1E
100
AcDbEntity
  8
STEMPEL
100
AcDbLine
 10
40.0
 20
10.0
 30
0.0
 11
830.0
 21
9.999999999999886
 31
0.0
  0
LINE
  5
8E
330
1E
100
AcDbEntity
  8
STEMPEL
100
AcDbLine
 10
830.0
 20
9.999999999999886
 30
0.0
 11
830.0
 21
583.9999999999998
 31
0.0
  0
TEXT
  5
8F
330
1E
100
AcDbEntity
  8
TEXT
 62
     1
100
AcDbText
 10
655.0390572473189
 20
87.3734307565253
 30
0.0
 40
7.0
  1
Regenstandrohr DN70
 41
0.75
  7
GREEKS
100
AcDbText
  0
TEXT
  5
90
330
1E
100
AcDbEntity
  8
TEXT
 62
     1
100
AcDbText
 10
766.1294755517469
 20
87.37343075652526
 30
0.0
 40
7.0
  1
05520070W
 41
0.8
  7
GREEKS
 72
     1
 11
790.1294755517469
 21
87.37343075652526
 31
0.0
100
AcDbText
  0
TEXT
  5
91
330
1E
100
AcDbEntity
  8
TEXT
100
AcDbText
 10
618.5090226415829
 20
102.8398961137899
 30
0.0
 40
5.0
  1
Zul.Abw.
 41
0.8
  7
GREEKS
100
AcDbText
  0
TEXT
  5
93
330
1E
100
AcDbEntity
  8
TEXT
100
AcDbText
 10
590.1565237511869
 20
63.15085876120213
 30
0.0
 40
4.0
  1
20.06.
 41
0.8
  7
GREEKS
 72
     1
 11
597.1660475607107
 21
63.15085876120213
 31
0.0
100
AcDbText
  0
TEXT
  5
94
330
1E
100
AcDbEntity
  8
TEXT
100
AcDbText
 10
624.0231753226609
 20
62.94297655165462
 30
0.0
 40
4.0
  1
Koeh
 41
0.8
  7
GREEKS
 72
     1
 11
629.2803181798038
 21
62.94297655165462
 31
0.0
100
AcDbText
  0
TEXT
  5
95
330
1E
100
AcDbEntity
  8
TEXT
100
AcDbText
 10
654.3410940884991
 20
72.10021383107516
 30
0.0
 40
5.0
  1
mit runder Reinigungsöffnung
 41
0.8
  7
GREEKS
100
AcDbText
  0
TEXT
  5
97
330
1E
100
AcDbEntity
  8
TEXT
100
AcDbText
 10
654.3410940884991
 20
52.59097337846049
 30
0.0
 40
5.0
  1
EDV-Art.Nr. 05520.070X
 41
0.8
  7
GREEKS
100
AcDbText
  0
TEXT
  5
98
330
1E
100
AcDbEntity
  8
TEXT
100
AcDbText
 10
654.1676050109347
 20
43.31127624791498
 30
0.0
 40
4.0
  1
05520070W.DWG
 41
0.8
  7
GREEKS
100
AcDbText
  0
TEXT
  5
99
330
1E
100
AcDbEntity
  8
TEXT
 62
     1
100
AcDbText
 10
582.703491203422
 20
87.47077088414959
 30
0.0
 40
7.0
  1
1:2
 41
0.8
  7
GREEKS
100
AcDbText
  0
TEXT
  5
9A
330
1E
100
AcDbEntity
  8
TEXT
100
AcDbText
 10
470.0441139350129
 20
114.1143585051042
 30
0.0
 40
5.0
  1
Erstellt mit AUTOCAD 2004
 41
0.8
  7
GREEKS
100
AcDbText
  0
INSERT
  5
9B
330
1E
100
AcDbEntity
  8
HILF
100
AcDbBlockReference
  2
LORO
 10
573.0624985962354
 20
36.98059300298954
 30
0.0
 41
2.0
 42
2.0
 43
2.0
  0
LINE
  5
9C
330
1E
100
AcDbEntity
  8
BEM
100
AcDbLine
 10
456.0
 20
-0.0000000000001137
 30
0.0
 11
456.0
 21
9.999999999999886
 31
0.0
  0
LINE
  5
13E
330
1E
100
AcDbEntity
  8
HILF
100
AcDbLine
 10
0.0
 20
0.0
 30
0.0
 11
0.0000000000001705
 21
594.0
 31
0.0
  0
LINE
  5
13F
330
1E
100
AcDbEntity
  8
STEMPEL
100
AcDbLine
 10
40.0
 20
10.0
 30
0.0
 11
40.00000000000011
 21
584.0
 31
0.0
  0
LINE
  5
14A
330
1E
100
AcDbEntity
  8
HILF
100
AcDbLine
 10
0.0000000000000568
 20
297.0
 30
0.0
 11
40.00000000000006
 21
297.0
 31
0.0
  0
TEXT
  5
15B
330
1E
100
AcDbEntity
  8
BEM
100
AcDbText
 10
837.3022923857165
 20
10.16790107998847
 30
0.0
 40
4.0
  1
Diese Zeichnung ist urheberrechtlich geschützt und bleibt unser Eigentum. Sie darf weder ganz noch teilweise verfielfältigt und nicht an Dritte weitergegeben werden.
 50
89.99999999999998
 41
0.8
  7
GREEKS
100
AcDbText
  0
TEXT
  5
ACA
330
1E
100
AcDbEntity
  8
TEXT
100
AcDbText
 10
612.2898419893275
 20
89.26643524492067
 30
0.0
 40
4.0
  1
DIN EN1123-2
 41
0.8
  7
GREEKS
 72
     1
 11
629.2803181798038
 21
89.26643524492067
 31
0.0
100
AcDbText
  0
TEXT
  5
AE3
330
1E
100
AcDbEntity
  8
TEXT
 62
     1
100
AcDbText
 10
664.6057658946469
 20
129.0783465745481
 30
0.0
 40
7.0
  1

 41
0.8
  7
GREEKS
100
AcDbText
  0
TEXT
  5
1074
330
1E
100
AcDbEntity
  8
TEXT
 62
     1
100
AcDbText
 10
664.6057658946469
 20
129.0783465745481
 30
0.0
 40
7.0
  1
und innen beschichtet
 41
0.8
  7
GREEKS
100
AcDbText
  0
TEXT
  5
1075
330
1E
100
AcDbEntity
  8
TEXT
 62
     1
100
AcDbText
 10
616.6560484572491
 20
139.8004583895515
 30
0.0
 40
7.0
  1
Werkstoff: E195 EN10305 feuerverzinkt
 41
0.8
  7
GREEKS
100
AcDbText
  0
TEXT
  5
1081
330
1E
100
AcDbEntity
  8
TEXT
100
AcDbText
 10
654.3410940884991
 20
62.10021383107516
 30
0.0
 40
5.0
  1
2000mm lang
 41
0.8
  7
GREEKS
100
AcDbText
  0
ARC
  5
12C3
330
1E
100
AcDbEntity
  8
STEMPEL
  6
Continuous
100
AcDbCircle
 10
787.0330331561168
 20
444.9440296557348
 30
0.0
 40
25.0
100
AcDbArc
 50
65.04180368769048
 51
90.0
  0
ARC
  5
12C4
330
1E
100
AcDbEntity
  8
STEMPEL
  6
Continuous
100
AcDbCircle
 10
777.9519555632356
 20
444.9440296557348
 30
0.0
 40
25.00009324312574
100
AcDbArc
 50
89.84351404566565
 51
111.1831543930369
  0
ARC
  5
12C5
330
1E
100
AcDbEntity
  8
STEMPEL
  6
Continuous
100
AcDbCircle
 10
764.5819555632357
 20
479.4440296557349
 30
0.0
 40
12.0
100
AcDbArc
 50
270.0
 51
291.183154393037
  0
LINE
  5
12C6
330
1E
100
AcDbEntity
  8
STEMPEL
  6
Continuous
100
AcDbLine
 10
787.0330331561168
 20
469.9440296557348
 30
0.0
 11
777.883675515042
 21
469.9440296557348
 31
0.0
  0
LINE
  5
12C7
330
1E
100
AcDbEntity
  8
STEMPEL
  6
Continuous
100
AcDbLine
 10
764.5819555632357
 20
467.4440296557349
 30
0.0
 11
682.9706819806525
 21
467.4440296557349
 31
0.0
  0
ARC
  5
12C8
330
1E
100
AcDbEntity
  8
STEMPEL
  6
Continuous
100
AcDbCircle
 10
682.9706819806525
 20
455.4440296557348
 30
0.0
 40
12.0
100
AcDbArc
 50
90.0
 51
122.3280641221636
  0
ARC
  5
12C9
330
1E
100
AcDbEntity
  8
STEMPEL
  6
Continuous
100
AcDbCircle
 10
787.0330331561168
 20
410.744029655735
 30
0.0
 40
25.0
100
AcDbArc
 50
270.0
 51
294.9581963123095
  0
ARC
  5
12CA
330
1E
100
AcDbEntity
  8
STEMPEL
  6
Continuous
100
AcDbCircle
 10
777.9519555632356
 20
410.744029655735
 30
0.0
 40
25.00009324312574
100
AcDbArc
 50
248.816845606963
 51
270.1564859543343
  0
ARC
  5
12CB
330
1E
100
AcDbEntity
  8
STEMPEL
  6
Continuous
100
AcDbCircle
 10
764.5819555632357
 20
376.2440296557351
 30
0.0
 40
12.0
100
AcDbArc
 50
68.81684560696301
 51
90.0
  0
LINE
  5
12CC
330
1E
100
AcDbEntity
  8
STEMPEL
  6
Continuous
100
AcDbLine
 10
787.0330331561168
 20
385.7440296557351
 30
0.0
 11
777.883675515042
 21
385.7440296557351
 31
0.0
  0
ARC
  5
12CD
330
1E
100
AcDbEntity
  8
STEMPEL
  6
Continuous
100
AcDbCircle
 10
787.0330331561168
 20
316.1321076175265
 30
0.0
 40
25.0
100
AcDbArc
 50
65.04180368769048
 51
90.0
  0
ARC
  5
12CE
330
1E
100
AcDbEntity
  8
STEMPEL
  6
Continuous
100
AcDbCircle
 10
764.5819555632357
 20
350.6321076175265
 30
0.0
 40
12.0
100
AcDbArc
 50
270.0
 51
291.183154393037
  0
ARC
  5
12CF
330
1E
100
AcDbEntity
  8
STEMPEL
  6
Continuous
100
AcDbCircle
 10
777.9519555632356
 20
316.1321076175265
 30
0.0
 40
25.00009324312574
100
AcDbArc
 50
89.84351404566565
 51
111.1831543930369
  0
LINE
  5
12D0
330
1E
100
AcDbEntity
  8
STEMPEL
  6
Continuous
100
AcDbLine
 10
787.0330331561168
 20
341.1321076175265
 30
0.0
 11
777.883675515042
 21
341.1321076175265
 31
0.0
  0
LINE
  5
12D1
330
1E
100
AcDbEntity
  8
STEMPEL
  6
Continuous
100
AcDbLine
 10
764.5819555632357
 20
388.2440296557351
 30
0.0
 11
682.9706819806525
 21
388.2440296557351
 31
0.0
  0
LINE
  5
12D2
330
1E
100
AcDbEntity
  8
STEMPEL
  6
Continuous
100
AcDbLine
 10
764.5819555632357
 20
338.6321076175264
 30
0.0
 11
682.9706819806525
 21
338.6321076175264
 31
0.0
  0
ARC
  5
12D3
330
1E
100
AcDbEntity
  8
STEMPEL
  6
Continuous
100
AcDbCircle
 10
787.0330331561168
 20
281.9321076175267
 30
0.0
 40
25.0
100
AcDbArc
 50
270.0
 51
294.9581963123095
  0
ARC
  5
12D4
330
1E
100
AcDbEntity
  8
STEMPEL
  6
Continuous
100
AcDbCircle
 10
777.9519555632356
 20
281.9321076175267
 30
0.0
 40
25.00009324312574
100
AcDbArc
 50
248.816845606963
 51
270.1564859543343
  0
ARC
  5
12D5
330
1E
100
AcDbEntity
  8
STEMPEL
  6
Continuous
100
AcDbCircle
 10
764.5819555632357
 20
247.4321076175266
 30
0.0
 40
12.0
100
AcDbArc
 50
68.81684560696301
 51
90.0
  0
LINE
  5
12D6
330
1E
100
AcDbEntity
  8
STEMPEL
  6
Continuous
100
AcDbLine
 10
787.0330331561168
 20
256.9321076175266
 30
0.0
 11
777.883675515042
 21
256.9321076175266
 31
0.0
  0
LINE
  5
12D7
330
1E
100
AcDbEntity
  8
STEMPEL
  6
Continuous
100
AcDbLine
 10
764.5819555632357
 20
259.4321076175266
 30
0.0
 11
682.9706819806525
 21
259.4321076175266
 31
0.0
  0
LINE
  5
12D8
330
1E
100
AcDbEntity
  8
HILF
100
AcDbLine
 10
766.7876377821084
 20
337.2121610472397
 30
0.0
 11
766.7876377821084
 21
260.8520541878133
 31
0.0
  0
LINE
  5
12D9
330
1E
100
AcDbEntity
  8
STEMPEL
  6
Continuous
100
AcDbLine
 10
797.5819555632357
 20
259.2667102892511
 30
0.0
 11
797.5819555632357
 21
338.797504945802
 31
0.0
  0
LINE
  5
12DA
330
1E
100
AcDbEntity
  8
HILF
100
AcDbLine
 10
679.6300233629546
 20
336.4809654193226
 30
0.0
 11
679.6300233629546
 21
261.5832498157305
 31
0.0
  0
ARC
  5
12DB
330
1E
100
AcDbEntity
  8
STEMPEL
  6
Continuous
100
AcDbCircle
 10
672.275355898667
 20
383.344029655735
 30
0.0
 40
8.0
100
AcDbArc
 50
57.67193587783641
 51
90.0
  0
LINE
  5
12DC
330
1E
100
AcDbEntity
  8
STEMPEL
  6
Continuous
100
AcDbLine
 10
672.275355898667
 20
391.344029655735
 30
0.0
 11
672.2589306858
 21
391.344029655735
 31
0.0
  0
LINE
  5
12DD
330
1E
100
AcDbEntity
  8
STEMPEL
  6
Continuous
100
AcDbLine
 10
672.275355898667
 20
391.344029655735
 30
0.0
 11
654.6479882240795
 21
391.344029655735
 31
0.0
  0
LINE
  5
12DE
330
1E
100
AcDbEntity
  8
HILF
100
AcDbLine
 10
674.5024616437992
 20
463.0059356317921
 30
0.0
 11
674.5024616437992
 21
392.6821236796778
 31
0.0
  0
LINE
  5
12DF
330
1E
100
AcDbEntity
  8
STEMPEL
  6
Continuous
100
AcDbLine
 10
672.275355898667
 20
335.5321076175266
 30
0.0
 11
672.2589306858
 21
335.5321076175266
 31
0.0
  0
LINE
  5
12E0
330
1E
100
AcDbEntity
  8
STEMPEL
  6
Continuous
100
AcDbLine
 10
672.275355898667
 20
335.5321076175266
 30
0.0
 11
654.6479882240795
 21
335.5321076175266
 31
0.0
  0
ARC
  5
12E1
330
1E
100
AcDbEntity
  8
STEMPEL
  6
Continuous
100
AcDbCircle
 10
672.275355898667
 20
254.5321076175266
 30
0.0
 40
8.0
100
AcDbArc
 50
57.67193587783641
 51
90.0
  0
LINE
  5
12E2
330
1E
100
AcDbEntity
  8
HILF
100
AcDbLine
 10
674.5024616437992
 20
334.1940135935835
 30
0.0
 11
674.5024616437992
 21
263.8702016414695
 31
0.0
  0
ARC
  5
12E3
330
1E
100
AcDbEntity
  8
STEMPEL
  6
Continuous
100
AcDbCircle
 10
672.275355898667
 20
343.5321076175266
 30
0.0
 40
8.0
100
AcDbArc
 50
270.0
 51
302.3280641221636
  0
ARC
  5
12E4
330
1E
100
AcDbEntity
  8
STEMPEL
  6
Continuous
100
AcDbCircle
 10
682.9706819806525
 20
400.2440296557351
 30
0.0
 40
12.0
100
AcDbArc
 50
237.6719358778364
 51
270.0
  0
ARC
  5
12E5
330
1E
100
AcDbEntity
  8
STEMPEL
  6
Continuous
100
AcDbCircle
 10
682.9706819806525
 20
326.6321076175265
 30
0.0
 40
12.0
100
AcDbArc
 50
90.0
 51
122.3280641221636
  0
ARC
  5
12E6
330
1E
100
AcDbEntity
  8
STEMPEL
  6
Continuous
100
AcDbCircle
 10
682.9706819806525
 20
271.4321076175266
 30
0.0
 40
12.0
100
AcDbArc
 50
237.6719358778364
 51
270.0
  0
DIMENSION
  5
12E7
330
1E
100
AcDbEntity
  8
BEM
100
AcDbDimension
  2
*D5
 10
677.5819555632357
 20
234.9930162336418
 30
0.0
 11
737.5819555632357
 21
241.4930162336418
 31
0.0
 70
    32
 71
     5
 42
120.0
  3
Standard
100
AcDbAlignedDimension
 13
797.5819555632357
 23
259.2667102892511
 33
0.0
 14
677.5819555632357
 24
260.7100915944909
 34
0.0
100
AcDbRotatedDimension
1001
ACAD
1000
DSTYLE
1002
{
1070
    40
1040
2.0
1070
    41
1040
3.5
1070
    42
1040
1.0
1070
    43
1040
7.0
1070
    44
1040
1.0
1070
    73
1070
     0
1070
    74
1070
     0
1070
    77
1070
     1
1070
    78
1070
     8
1070
    79
1070
     2
1070
   140
1040
3.5
1070
   141
1040
1.5
1070
   146
1040
0.5142857142857144
1070
   147
1040
1.5
1070
   172
1070
     1
1070
   178
1070
     1
1070
   179
1070
     2
1070
   271
1070
     2
1070
   272
1070
     2
1070
   284
1070
     8
1070
   285
1070
     8
1070
   286
1070
     8
1002
}
  0
ARC
  5
12E8
330
1E
100
AcDbEntity
  8
STEMPEL
  6
Continuous
100
AcDbCircle
 10
672.275355898667
 20
472.3440296557349
 30
0.0
 40
8.0
100
AcDbArc
 50
270.0
 51
302.3280641221636
  0
LINE
  5
12E9
330
1E
100
AcDbEntity
  8
HILF
100
AcDbLine
 10
679.6300233629546
 20
465.292887457531
 30
0.0
 11
679.6300233629546
 21
390.3951718539389
 31
0.0
  0
LINE
  5
12EA
330
1E
100
AcDbEntity
  8
STEMPEL
  6
Continuous
100
AcDbLine
 10
797.5819555632357
 20
467.6094269840104
 30
0.0
 11
797.5819555632357
 21
388.0786323274596
 31
0.0
  0
LINE
  5
12EB
330
1E
100
AcDbEntity
  8
HILF
100
AcDbLine
 10
766.7876377821084
 20
466.0240830854482
 30
0.0
 11
766.7876377821084
 21
389.6639762260217
 31
0.0
  0
LINE
  5
12ED
330
1E
100
AcDbEntity
  8
STEMPEL
100
AcDbLine
 10
465.3343430396493
 20
473.344029655735
 30
0.0
 11
461.5819555632357
 21
473.344029655735
 31
0.0
  0
LINE
  5
12EE
330
1E
100
AcDbEntity
  8
STEMPEL
100
AcDbLine
 10
467.6724166320572
 20
468.8440296557351
 30
0.0
 11
461.5819555632357
 21
468.8440296557351
 31
0.0
  0
LINE
  5
12EF
330
1E
100
AcDbEntity
  8
STEMPEL
100
AcDbLine
 10
467.6724166320569
 20
468.8440296557351
 30
0.0
 11
466.2740356604352
 21
472.6860497990607
 31
0.0
  0
LINE
  5
12F0
330
1E
100
AcDbEntity
  8
STEMPEL
100
AcDbLine
 10
469.0819555632357
 20
469.3570598707236
 30
0.0
 11
467.683574591614
 21
473.1990800140492
 31
0.0
  0
LINE
  5
12F1
330
1E
100
AcDbEntity
  8
STEMPEL
100
AcDbLine
 10
467.6724166320569
 20
468.8440296557351
 30
0.0
 11
469.0819555632357
 21
469.3570598707236
 31
0.0
  0
ARC
  5
12F2
330
1E
100
AcDbEntity
  8
STEMPEL
100
AcDbCircle
 10
465.3343430396493
 20
472.3440296557349
 30
0.0
 40
1.0
100
AcDbArc
 50
20.00000000000371
 51
90.0
  0
ARC
  5
12F3
330
1E
100
AcDbEntity
  8
STEMPEL
100
AcDbCircle
 10
465.3343430396493
 20
472.3440296557349
 30
0.0
 40
2.5
100
AcDbArc
 50
20.00000000000371
 51
90.0
  0
LINE
  5
12F4
330
1E
100
AcDbEntity
  8
STEMPEL
100
AcDbLine
 10
462.0819555632357
 20
473.344029655735
 30
0.0
 11
462.0819555632357
 21
474.844029655735
 31
0.0
  0
LINE
  5
12F5
330
1E
100
AcDbEntity
  8
STEMPEL
100
AcDbLine
 10
462.7319555632358
 20
482.2940296557352
 30
0.0
 11
462.7319555632358
 21
479.84401067417
 31
0.0
  0
LINE
  5
12F6
330
1E
100
AcDbEntity
  8
STEMPEL
100
AcDbLine
 10
464.1029600725347
 20
479.3940391105321
 30
0.0
 11
463.8962019409624
 21
479.5134109734525
 31
0.0
  0
LINE
  5
12F7
330
1E
100
AcDbEntity
  8
STEMPEL
100
AcDbLine
 10
462.7187497198508
 20
479.8440296557352
 30
0.0
 11
462.7223051528467
 21
479.8440296557352
 31
0.0
  0
LINE
  5
12F8
330
1E
100
AcDbEntity
  8
STEMPEL
100
AcDbLine
 10
464.1029600725347
 20
475.2940202009383
 30
0.0
 11
463.896201940962
 21
475.1746483380177
 31
0.0
  0
LINE
  5
12F9
330
1E
100
AcDbEntity
  8
STEMPEL
100
AcDbLine
 10
464.1029600725347
 20
479.3940391105321
 30
0.0
 11
464.1029600725347
 21
475.2940202009383
 31
0.0
  0
LINE
  5
12FA
330
1E
100
AcDbEntity
  8
STEMPEL
100
AcDbLine
 10
461.3424578178853
 20
479.3703787384082
 30
0.0
 11
461.3424578178853
 21
475.3176805730625
 31
0.0
  0
ARC
  5
12FB
330
1E
100
AcDbEntity
  8
STEMPEL
100
AcDbCircle
 10
462.72270894521
 20
477.596131335456
 30
0.0
 40
2.247898356545996
100
AcDbArc
 50
58.53080547736065
 51
127.8806357171815
  0
ARC
  5
12FC
330
1E
100
AcDbEntity
  8
STEMPEL
100
AcDbCircle
 10
462.72270894521
 20
477.0919279760143
 30
0.0
 40
2.247898356545996
100
AcDbArc
 50
232.1193642828185
 51
301.4691945226304
  0
LINE
  5
12FD
330
1E
100
AcDbEntity
  8
STEMPEL
100
AcDbLine
 10
455.5819555632357
 20
468.8440296557351
 30
0.0
 11
454.5819555632357
 21
468.8440296557351
 31
0.0
  0
LINE
  5
12FE
330
1E
100
AcDbEntity
  8
STEMPEL
100
AcDbLine
 10
455.5819555632357
 20
473.344029655735
 30
0.0
 11
445.0819555632523
 21
473.344029655735
 31
0.0
  0
ARC
  5
12FF
330
1E
100
AcDbEntity
  8
STEMPEL
100
AcDbCircle
 10
443.5819555632357
 20
473.344029655735
 30
0.0
 40
1.5
100
AcDbArc
 50
270.0
 51
0.0
  0
LINE
  5
1300
330
1E
100
AcDbEntity
  8
STEMPEL
100
AcDbLine
 10
443.5819555632479
 20
473.344029655735
 30
0.0
 11
422.486306044516
 21
473.344029655735
 31
0.0
  0
LINE
  5
1301
330
1E
100
AcDbEntity
  8
STEMPEL
100
AcDbLine
 10
443.581955563236
 20
473.344029655735
 30
0.0
 11
422.4863060444853
 21
473.344029655735
 31
0.0
  0
ARC
  5
1302
330
1E
100
AcDbEntity
  8
STEMPEL
100
AcDbCircle
 10
422.4863060444853
 20
472.7440296557349
 30
0.0
 40
0.8999999999999772
100
AcDbArc
 50
180.0
 51
270.0
  0
ARC
  5
1303
330
1E
100
AcDbEntity
  8
STEMPEL
100
AcDbCircle
 10
421.5863060444855
 20
473.344029655735
 30
0.0
 40
0.8999999999999772
100
AcDbArc
 50
0.0
 51
90.0
  0
ARC
  5
1304
330
1E
100
AcDbEntity
  8
STEMPEL
100
AcDbCircle
 10
445.0819555632357
 20
473.344029655735
 30
0.0
 40
1.500000000000056
100
AcDbArc
 50
90.0
 51
180.0
  0
LINE
  5
1305
330
1E
100
AcDbEntity
  8
STEMPEL
100
AcDbLine
 10
455.0819555632359
 20
473.344029655735
 30
0.0
 11
455.0819555632359
 21
474.844029655735
 31
0.0
  0
ARC
  5
1306
330
1E
100
AcDbEntity
  8
STEMPEL
100
AcDbCircle
 10
391.5819555632357
 20
473.344029655735
 30
0.0
 40
1.5
100
AcDbArc
 50
180.0
 51
270.0
  0
LINE
  5
1307
330
1E
100
AcDbEntity
  8
STEMPEL
100
AcDbLine
 10
391.5819555632244
 20
473.344029655735
 30
0.0
 11
412.6776050819906
 21
473.344029655735
 31
0.0
  0
LINE
  5
1308
330
1E
100
AcDbEntity
  8
STEMPEL
100
AcDbLine
 10
391.5819555632357
 20
473.344029655735
 30
0.0
 11
412.6776050819861
 21
473.344029655735
 31
0.0
  0
ARC
  5
1309
330
1E
100
AcDbEntity
  8
STEMPEL
100
AcDbCircle
 10
390.0819555632357
 20
473.344029655735
 30
0.0
 40
1.500000000000056
100
AcDbArc
 50
0.0
 51
90.0
  0
ARC
  5
130A
330
1E
100
AcDbEntity
  8
STEMPEL
100
AcDbCircle
 10
413.5776050819861
 20
473.344029655735
 30
0.0
 40
0.8999999999999772
100
AcDbArc
 50
90.0
 51
180.0
  0
ARC
  5
130B
330
1E
100
AcDbEntity
  8
STEMPEL
100
AcDbCircle
 10
412.6776050819861
 20
472.7440296557349
 30
0.0
 40
0.8999999999999772
100
AcDbArc
 50
270.0
 51
0.0
  0
LINE
  5
130C
330
1E
100
AcDbEntity
  8
STEMPEL
100
AcDbLine
 10
413.5776050819673
 20
472.7440296557349
 30
0.0
 11
417.5819555632357
 21
472.7440296557348
 31
0.0
  0
LINE
  5
130D
330
1E
100
AcDbEntity
  8
STEMPEL
100
AcDbLine
 10
413.5776050819861
 20
474.2440296557349
 30
0.0
 11
417.5819555632357
 21
474.2440296557348
 31
0.0
  0
LINE
  5
130E
330
1E
100
AcDbEntity
  8
STEMPEL
100
AcDbLine
 10
443.5819555632357
 20
471.8440296557349
 30
0.0
 11
391.5819555632357
 21
471.8440296557349
 31
0.0
  0
LINE
  5
130F
330
1E
100
AcDbEntity
  8
STEMPEL
100
AcDbLine
 10
421.5863060444993
 20
472.7440296557349
 30
0.0
 11
417.5819555632357
 21
472.7440296557348
 31
0.0
  0
LINE
  5
1310
330
1E
100
AcDbEntity
  8
STEMPEL
100
AcDbLine
 10
421.5863060444855
 20
474.2440296557349
 30
0.0
 11
417.5819555632357
 21
474.2440296557348
 31
0.0
  0
LINE
  5
1311
330
1E
100
AcDbEntity
  8
STEMPEL
100
AcDbLine
 10
454.5819555632357
 20
468.3440296557349
 30
0.0
 11
454.5819555632357
 21
473.344029655735
 31
0.0
  0
LINE
  5
1312
330
1E
100
AcDbEntity
  8
STEMPEL
100
AcDbLine
 10
389.5819555632357
 20
468.3440296557349
 30
0.0
 11
389.5819555632357
 21
473.344029655735
 31
0.0
  0
LINE
  5
1313
330
1E
100
AcDbEntity
  8
STEMPEL
100
AcDbLine
 10
445.5819555632357
 20
468.3440296557349
 30
0.0
 11
445.5819555632357
 21
473.344029655735
 31
0.0
  0
LINE
  5
1314
330
1E
100
AcDbEntity
  8
STEMPEL
100
AcDbLine
 10
451.6819555632356
 20
467.3440296557349
 30
0.0
 11
451.6819555632356
 21
468.3440296557349
 31
0.0
  0
LINE
  5
1315
330
1E
100
AcDbEntity
  8
STEMPEL
100
AcDbLine
 10
450.0819555632357
 20
467.3440296557349
 30
0.0
 11
450.0819555632357
 21
468.3440296557349
 31
0.0
  0
LINE
  5
1316
330
1E
100
AcDbEntity
  8
STEMPEL
100
AcDbLine
 10
383.4819555632356
 20
467.3440296557349
 30
0.0
 11
383.4819555632356
 21
468.3440296557349
 31
0.0
  0
LINE
  5
1317
330
1E
100
AcDbEntity
  8
STEMPEL
100
AcDbLine
 10
385.0819555632357
 20
467.3440296557349
 30
0.0
 11
385.0819555632357
 21
468.3440296557349
 31
0.0
  0
LINE
  5
1318
330
1E
100
AcDbEntity
  8
STEMPEL
  6
Continuous
100
AcDbLine
 10
451.6819555632356
 20
468.3440296557349
 30
0.0
 11
383.4819555632356
 21
468.3440296557349
 31
0.0
  0
LINE
  5
1319
330
1E
100
AcDbEntity
  8
STEMPEL
100
AcDbLine
 10
454.4319555632358
 20
482.2940296557352
 30
0.0
 11
454.4319555632358
 21
479.84401067417
 31
0.0
  0
LINE
  5
131A
330
1E
100
AcDbEntity
  8
STEMPEL
100
AcDbLine
 10
453.0609510539373
 20
479.3940391105321
 30
0.0
 11
453.2677091854844
 21
479.5134109734379
 31
0.0
  0
ARC
  5
131B
330
1E
100
AcDbEntity
  8
STEMPEL
100
AcDbCircle
 10
454.441202181262
 20
477.596131335456
 30
0.0
 40
2.247898356545996
100
AcDbArc
 50
52.11936428281847
 51
121.4691945233789
  0
LINE
  5
131C
330
1E
100
AcDbEntity
  8
STEMPEL
100
AcDbLine
 10
453.0609510539373
 20
475.2940202009383
 30
0.0
 11
453.2677091854863
 21
475.1746483380312
 31
0.0
  0
ARC
  5
131D
330
1E
100
AcDbEntity
  8
STEMPEL
100
AcDbCircle
 10
454.441202181262
 20
477.0919279760143
 30
0.0
 40
2.247898356545996
100
AcDbArc
 50
238.5308054766826
 51
307.8806357171815
  0
LINE
  5
131E
330
1E
100
AcDbEntity
  8
STEMPEL
100
AcDbLine
 10
453.0609510539373
 20
479.3940391105321
 30
0.0
 11
453.0609510539373
 21
475.2940202009383
 31
0.0
  0
LINE
  5
131F
330
1E
100
AcDbEntity
  8
STEMPEL
100
AcDbLine
 10
455.8214533085866
 20
479.3703787384082
 30
0.0
 11
455.8214533085866
 21
475.3176805730625
 31
0.0
  0
ARC
  5
1320
330
1E
100
AcDbEntity
  8
STEMPEL
100
AcDbCircle
 10
458.5819555632359
 20
482.2940296557352
 30
0.0
 40
4.15
100
AcDbArc
 50
0.0
 51
180.0
  0
ARC
  5
1321
330
1E
100
AcDbEntity
  8
STEMPEL
100
AcDbCircle
 10
458.581955563236
 20
483.1251472493351
 30
0.0
 40
8.281117593600001
100
AcDbArc
 50
250.5278273813862
 51
289.4721726186137
  0
ARC
  5
1322
330
1E
100
AcDbEntity
  8
STEMPEL
100
AcDbCircle
 10
458.581955563236
 20
471.5629120621352
 30
0.0
 40
8.281117593600001
100
AcDbArc
 50
70.52782738138624
 51
109.4721726186137
  0
LINE
  5
1323
330
1E
100
AcDbEntity
  8
STEMPEL
100
AcDbLine
 10
454.4416059736102
 20
474.8440296557351
 30
0.0
 11
462.7223051528546
 21
474.8440296557352
 31
0.0
  0
LINE
  5
1324
330
1E
100
AcDbEntity
  8
STEMPEL
100
AcDbLine
 10
454.4416059736101
 20
479.8440296557351
 30
0.0
 11
462.7223051528546
 21
479.8440296557352
 31
0.0
  0
LINE
  5
1327
330
1E
100
AcDbEntity
  8
STEMPEL
100
AcDbLine
 10
380.5819555632357
 20
468.8440296557351
 30
0.0
 11
379.5819555632357
 21
468.8440296557351
 31
0.0
  0
LINE
  5
1328
330
1E
100
AcDbEntity
  8
STEMPEL
100
AcDbLine
 10
373.5819555632357
 20
468.8440296557351
 30
0.0
 11
367.4914944944145
 21
468.8440296557351
 31
0.0
  0
LINE
  5
1329
330
1E
100
AcDbEntity
  8
STEMPEL
100
AcDbLine
 10
369.8295680868222
 20
473.344029655735
 30
0.0
 11
373.5819555632357
 21
473.344029655735
 31
0.0
  0
LINE
  5
132A
330
1E
100
AcDbEntity
  8
STEMPEL
100
AcDbLine
 10
367.4914944944145
 20
468.8440296557351
 30
0.0
 11
368.8898754660364
 21
472.6860497990607
 31
0.0
  0
LINE
  5
132B
330
1E
100
AcDbEntity
  8
STEMPEL
100
AcDbLine
 10
366.0819555632357
 20
469.3570598707236
 30
0.0
 11
367.4803365348574
 21
473.1990800140492
 31
0.0
  0
LINE
  5
132C
330
1E
100
AcDbEntity
  8
STEMPEL
100
AcDbLine
 10
367.4914944944145
 20
468.8440296557351
 30
0.0
 11
366.0819555632357
 21
469.3570598707236
 31
0.0
  0
ARC
  5
132D
330
1E
100
AcDbEntity
  8
STEMPEL
100
AcDbCircle
 10
369.8295680868222
 20
472.3440296557349
 30
0.0
 40
2.5
100
AcDbArc
 50
90.0
 51
159.9999999999963
  0
ARC
  5
132E
330
1E
100
AcDbEntity
  8
STEMPEL
100
AcDbCircle
 10
369.8295680868222
 20
472.3440296557349
 30
0.0
 40
1.0
100
AcDbArc
 50
90.0
 51
159.9999999999963
  0
LINE
  5
132F
330
1E
100
AcDbEntity
  8
STEMPEL
100
AcDbLine
 10
373.0819555632357
 20
473.344029655735
 30
0.0
 11
373.0819555632357
 21
474.844029655735
 31
0.0
  0
LINE
  5
1330
330
1E
100
AcDbEntity
  8
STEMPEL
100
AcDbLine
 10
380.0819555632358
 20
473.344029655735
 30
0.0
 11
380.0819555632358
 21
474.844029655735
 31
0.0
  0
LINE
  5
1331
330
1E
100
AcDbEntity
  8
STEMPEL
100
AcDbLine
 10
380.5819555632357
 20
468.3440296557349
 30
0.0
 11
380.5819555632357
 21
473.344029655735
 31
0.0
  0
LINE
  5
1332
330
1E
100
AcDbEntity
  8
STEMPEL
100
AcDbLine
 10
372.4416059736098
 20
479.8440296557351
 30
0.0
 11
380.7223051528544
 21
479.8440296557351
 31
0.0
  0
LINE
  5
1333
330
1E
100
AcDbEntity
  8
STEMPEL
100
AcDbLine
 10
372.4416059736098
 20
474.844029655735
 30
0.0
 11
380.7223051528544
 21
474.8440296557351
 31
0.0
  0
ARC
  5
1334
330
1E
100
AcDbEntity
  8
STEMPEL
100
AcDbCircle
 10
380.7227089452096
 20
477.0919279760143
 30
0.0
 40
2.247898356545996
100
AcDbArc
 50
232.1193642828185
 51
301.4691945226304
  0
ARC
  5
1335
330
1E
100
AcDbEntity
  8
STEMPEL
100
AcDbCircle
 10
380.7227089452096
 20
477.5961313354559
 30
0.0
 40
2.247898356545996
100
AcDbArc
 50
58.53080547736065
 51
127.8806357171815
  0
ARC
  5
1336
330
1E
100
AcDbEntity
  8
STEMPEL
100
AcDbCircle
 10
376.5819555632357
 20
471.5629120621351
 30
0.0
 40
8.281117593600001
100
AcDbArc
 50
70.52782738138624
 51
109.4721726186137
  0
ARC
  5
1337
330
1E
100
AcDbEntity
  8
STEMPEL
100
AcDbCircle
 10
376.5819555632357
 20
483.1251472493351
 30
0.0
 40
8.281117593600001
100
AcDbArc
 50
250.5278273813862
 51
289.4721726186137
  0
LINE
  5
1338
330
1E
100
AcDbEntity
  8
STEMPEL
100
AcDbLine
 10
373.8214533085864
 20
479.3703787384082
 30
0.0
 11
373.8214533085864
 21
475.3176805730624
 31
0.0
  0
LINE
  5
1339
330
1E
100
AcDbEntity
  8
STEMPEL
100
AcDbLine
 10
371.060951053937
 20
479.394039110532
 30
0.0
 11
371.060951053937
 21
475.2940202009382
 31
0.0
  0
ARC
  5
133A
330
1E
100
AcDbEntity
  8
STEMPEL
100
AcDbCircle
 10
372.4412021812617
 20
477.0919279760143
 30
0.0
 40
2.247898356545996
100
AcDbArc
 50
238.5308054766826
 51
307.8806357171815
  0
LINE
  5
133B
330
1E
100
AcDbEntity
  8
STEMPEL
100
AcDbLine
 10
371.060951053937
 20
475.2940202009382
 30
0.0
 11
371.2677091854861
 21
475.1746483380312
 31
0.0
  0
ARC
  5
133C
330
1E
100
AcDbEntity
  8
STEMPEL
100
AcDbCircle
 10
372.4412021812617
 20
477.5961313354559
 30
0.0
 40
2.247898356545996
100
AcDbArc
 50
52.11936428281847
 51
121.4691945233789
  0
LINE
  5
133D
330
1E
100
AcDbEntity
  8
STEMPEL
100
AcDbLine
 10
371.060951053937
 20
479.394039110532
 30
0.0
 11
371.2677091854841
 21
479.5134109734378
 31
0.0
  0
LINE
  5
133E
330
1E
100
AcDbEntity
  8
STEMPEL
100
AcDbLine
 10
379.342457817885
 20
479.3703787384082
 30
0.0
 11
379.342457817885
 21
475.3176805730625
 31
0.0
  0
LINE
  5
133F
330
1E
100
AcDbEntity
  8
STEMPEL
100
AcDbLine
 10
382.1029600725344
 20
479.394039110532
 30
0.0
 11
382.1029600725344
 21
475.2940202009383
 31
0.0
  0
LINE
  5
1340
330
1E
100
AcDbEntity
  8
STEMPEL
100
AcDbLine
 10
382.1029600725344
 20
475.2940202009383
 30
0.0
 11
381.8962019409617
 21
475.1746483380176
 31
0.0
  0
LINE
  5
1341
330
1E
100
AcDbEntity
  8
STEMPEL
100
AcDbLine
 10
380.7187497198505
 20
479.8440296557351
 30
0.0
 11
380.7223051528464
 21
479.8440296557351
 31
0.0
  0
LINE
  5
1342
330
1E
100
AcDbEntity
  8
STEMPEL
100
AcDbLine
 10
382.1029600725344
 20
479.394039110532
 30
0.0
 11
381.8962019409621
 21
479.5134109734524
 31
0.0
  0
ARC
  5
1343
330
1E
100
AcDbEntity
  8
STEMPEL
100
AcDbCircle
 10
376.5819555632356
 20
482.2940296557352
 30
0.0
 40
4.15
100
AcDbArc
 50
0.0
 51
180.0
  0
LINE
  5
1344
330
1E
100
AcDbEntity
  8
STEMPEL
100
AcDbLine
 10
372.4319555632356
 20
482.2940296557352
 30
0.0
 11
372.4319555632356
 21
479.84401067417
 31
0.0
  0
LINE
  5
1345
330
1E
100
AcDbEntity
  8
STEMPEL
100
AcDbLine
 10
380.7319555632355
 20
482.2940296557352
 30
0.0
 11
380.7319555632355
 21
479.84401067417
 31
0.0
  0
LINE
  5
1346
330
1E
100
AcDbEntity
  8
STEMPEL
100
AcDbLine
 10
379.5819555632357
 20
473.344029655735
 30
0.0
 11
390.0819555632373
 21
473.344029655735
 31
0.0
  0
INSERT
  5
1347
330
1E
100
AcDbEntity
  8
SCHRAFF
100
AcDbBlockReference
  2
*X4
 10
-311.4660461542397
 20
-92.14014852835555
 30
0.0
 41
-1.0
 50
270.0
1001
ACAD
1000
HATCH
1002
{
1070
    16
1000
_U,I
1040
2.0
1040
2.356194490192344
1070
     0
1002
}
  0
LINE
  5
1348
330
1E
100
AcDbEntity
  8
STEMPEL
100
AcDbLine
 10
369.8295680868222
 20
474.844029655735
 30
0.0
 11
465.3343430396493
 21
474.844029655735
 31
0.0
  0
INSERT
  5
1349
330
1E
100
AcDbEntity
  8
SCHRAFF
100
AcDbBlockReference
  2
*X3
 10
1005.803158371356
 20
-79.45766478481584
 30
0.0
 50
90.0
1001
ACAD
1000
HATCH
1002
{
1070
    16
1000
NET,I
1040
15.0
1040
0.7853981633974483
1002
}
  0
LINE
  5
134A
330
1E
100
AcDbEntity
  8
STEMPEL
100
AcDbLine
 10
380.5819555632357
 20
468.3440296557349
 30
0.0
 11
454.5819555632357
 21
468.3440296557349
 31
0.0
  0
LINE
  5
134C
330
1E
100
AcDbEntity
  8
HILF
100
AcDbLine
 10
384.8271148742245
 20
462.9214070670284
 30
0.0
 11
406.3450032062137
 21
439.8777568999717
 31
0.0
  0
LINE
  5
134D
330
1E
100
AcDbEntity
  8
HILF
100
AcDbLine
 10
431.2163833999574
 20
442.4452293854648
 30
0.0
 11
450.3367962522461
 21
462.9214070670278
 31
0.0
  0
LINE
  5
134E
330
1E
100
AcDbEntity
  8
STEMPEL
  6
Continuous
100
AcDbLine
 10
467.9080152366851
 20
462.7440296557351
 30
0.0
 11
454.6819555632356
 21
462.7440296557351
 31
0.0
  0
LINE
  5
134F
330
1E
100
AcDbEntity
  8
MITTEL
100
AcDbLine
 10
458.5819555632357
 20
287.5321076175262
 30
0.0
 11
458.5819555632357
 21
310.5321076175269
 31
0.0
  0
ARC
  5
1350
330
1E
100
AcDbEntity
  8
HILF
100
AcDbCircle
 10
454.0819555632357
 20
299.0321076175265
 30
0.0
 40
11.25
100
AcDbArc
 50
292.4681857385898
 51
67.53181426141015
  0
ARC
  5
1351
330
1E
100
AcDbEntity
  8
STEMPEL
100
AcDbCircle
 10
454.0819555632357
 20
299.0321076175265
 30
0.0
 40
15.0
100
AcDbArc
 50
292.4681857385898
 51
67.53181426141015
  0
ARC
  5
1352
330
1E
100
AcDbEntity
  8
STEMPEL
100
AcDbCircle
 10
417.5819555632355
 20
299.0321076175265
 30
0.0
 40
40.0
100
AcDbArc
 50
211.2510164130874
 51
328.7489835869126
  0
LINE
  5
1353
330
1E
100
AcDbEntity
  8
STEMPEL
100
AcDbLine
 10
422.4105755632358
 20
315.428577617526
 30
0.0
 11
422.4105755632358
 21
313.207812617526
 31
0.0
  0
LINE
  5
1354
330
1E
100
AcDbEntity
  8
STEMPEL
100
AcDbLine
 10
419.2707305632356
 20
298.169607617526
 30
0.0
 11
419.2707305632356
 21
295.5617526175259
 31
0.0
  0
LINE
  5
1355
330
1E
100
AcDbEntity
  8
STEMPEL
100
AcDbLine
 10
420.1898105632357
 20
298.1696076175259
 30
0.0
 11
420.1898105632357
 21
295.5617526175259
 31
0.0
  0
LINE
  5
1356
330
1E
100
AcDbEntity
  8
STEMPEL
100
AcDbLine
 10
422.4105755632358
 20
300.390372617526
 30
0.0
 11
422.4105755632358
 21
295.5617526175259
 31
0.0
  0
LINE
  5
1357
330
1E
100
AcDbEntity
  8
STEMPEL
100
AcDbLine
 10
419.2707305632356
 20
298.169607617526
 30
0.0
 11
420.1898105632357
 21
298.1696076175259
 31
0.0
  0
LINE
  5
1358
330
1E
100
AcDbEntity
  8
STEMPEL
100
AcDbLine
 10
419.5130445484459
 20
300.3903726175261
 30
0.0
 11
422.4105755632358
 21
300.390372617526
 31
0.0
  0
ARC
  5
1359
330
1E
100
AcDbEntity
  8
STEMPEL
100
AcDbCircle
 10
419.7302705632359
 20
295.5617526175259
 30
0.0
 40
0.4595399999999906
100
AcDbArc
 50
180.0
 51
0.0
  0
ARC
  5
135A
330
1E
100
AcDbEntity
  8
STEMPEL
100
AcDbCircle
 10
415.2683855632357
 20
312.913527617526
 30
0.0
 40
0.2942849999999999
100
AcDbArc
 50
90.0
 51
180.0
  0
ARC
  5
135B
330
1E
100
AcDbEntity
  8
STEMPEL
100
AcDbCircle
 10
415.2683855632357
 20
312.913527617526
 30
0.0
 40
2.51505
100
AcDbArc
 50
90.0
 51
180.0
  0
LINE
  5
135C
330
1E
100
AcDbEntity
  8
STEMPEL
100
AcDbLine
 10
414.9741005632358
 20
312.913527617526
 30
0.0
 11
414.9741005632358
 21
308.8798563591991
 31
0.0
  0
LINE
  5
135D
330
1E
100
AcDbEntity
  8
STEMPEL
100
AcDbLine
 10
412.7533355632357
 20
312.913527617526
 30
0.0
 11
412.7533355632357
 21
304.816032617526
 31
0.0
  0
LINE
  5
135E
330
1E
100
AcDbEntity
  8
STEMPEL
100
AcDbLine
 10
415.3852030877867
 20
292.4791594764222
 30
0.0
 11
418.0710721492572
 21
293.4567358679341
 31
0.0
  0
LINE
  5
135F
330
1E
100
AcDbEntity
  8
STEMPEL
100
AcDbLine
 10
412.7533355632357
 20
298.169607617526
 30
0.0
 11
417.0499655632355
 21
298.169607617526
 31
0.0
  0
LINE
  5
1360
330
1E
100
AcDbEntity
  8
STEMPEL
100
AcDbLine
 10
414.6256567241938
 20
294.5659959594218
 30
0.0
 11
416.6388630386849
 21
295.2987431333332
 31
0.0
  0
LINE
  5
1361
330
1E
100
AcDbEntity
  8
STEMPEL
100
AcDbLine
 10
417.0499655632355
 20
298.169607617526
 30
0.0
 11
417.0499655632358
 21
295.8858583843372
 31
0.0
  0
ARC
  5
1362
330
1E
100
AcDbEntity
  8
STEMPEL
100
AcDbCircle
 10
416.4251705632358
 20
295.8858583843372
 30
0.0
 40
0.6247949999999999
100
AcDbArc
 50
290.0000000000037
 51
0.0
  0
LINE
  5
1363
330
1E
100
AcDbEntity
  8
STEMPEL
100
AcDbLine
 10
412.7533355632357
 20
300.3903726175261
 30
0.0
 11
412.7533355632357
 21
298.169607617526
 31
0.0
  0
LINE
  5
1364
330
1E
100
AcDbEntity
  8
STEMPEL
100
AcDbLine
 10
412.7533355632357
 20
300.3903726175261
 30
0.0
 11
415.6508665780256
 21
300.3903726175261
 31
0.0
  0
LINE
  5
1365
330
1E
100
AcDbEntity
  8
STEMPEL
100
AcDbLine
 10
414.9741005632358
 20
291.8920442254182
 30
0.0
 11
414.9741005632358
 21
291.5280813591964
 31
0.0
  0
ARC
  5
1366
330
1E
100
AcDbEntity
  8
STEMPEL
100
AcDbCircle
 10
415.5988955632357
 20
291.8920442254182
 30
0.0
 40
0.6247949999999999
100
AcDbArc
 50
110.0000000000037
 51
180.0
  0
ARC
  5
1367
330
1E
100
AcDbEntity
  8
STEMPEL
100
AcDbCircle
 10
415.5988955632357
 20
291.8920442254182
 30
0.0
 40
2.845559999999999
100
AcDbArc
 50
110.0000000000037
 51
180.0
  0
LINE
  5
1368
330
1E
100
AcDbEntity
  8
STEMPEL
100
AcDbLine
 10
412.7533355632357
 20
291.8920442254182
 30
0.0
 11
412.7533355632357
 21
287.464257617526
 31
0.0
  0
ARC
  5
1369
330
1E
100
AcDbEntity
  8
STEMPEL
100
AcDbCircle
 10
417.5819555632355
 20
299.0321076175265
 30
0.0
 40
26.0
100
AcDbArc
 50
90.0
 51
270.0
  0
ARC
  5
136A
330
1E
100
AcDbEntity
  8
STEMPEL
100
AcDbCircle
 10
417.5819555632357
 20
304.816032617526
 30
0.0
 40
4.828619999999999
100
AcDbArc
 50
180.0
 51
246.4264695056741
  0
CIRCLE
  5
136B
330
1E
100
AcDbEntity
  8
STEMPEL
100
AcDbCircle
 10
417.5819555632357
 20
287.464257617526
 30
0.0
 40
2.607854999999999
  0
ARC
  5
136C
330
1E
100
AcDbEntity
  8
STEMPEL
100
AcDbCircle
 10
417.5819555632357
 20
287.464257617526
 30
0.0
 40
4.828619999999999
100
AcDbArc
 50
180.0
 51
122.6892810807625
  0
LINE
  5
136D
330
1E
100
AcDbEntity
  8
STEMPEL
100
AcDbLine
 10
422.4105755632358
 20
315.428577617526
 30
0.0
 11
415.2683855632357
 21
315.428577617526
 31
0.0
  0
LINE
  5
136E
330
1E
100
AcDbEntity
  8
STEMPEL
100
AcDbLine
 10
422.4105755632358
 20
313.207812617526
 30
0.0
 11
415.2683855632357
 21
313.207812617526
 31
0.0
  0
ARC
  5
136F
330
1E
100
AcDbEntity
  8
STEMPEL
100
AcDbCircle
 10
417.5819555632357
 20
304.816032617526
 30
0.0
 40
4.828619999999999
100
AcDbArc
 50
293.5735304943259
 51
122.689281080748
  0
CIRCLE
  5
1370
330
1E
100
AcDbEntity
  8
STEMPEL
100
AcDbCircle
 10
417.5849719994102
 20
304.8171903117973
 30
0.0
 40
2.607854999999999
  0
CIRCLE
  5
1371
330
1E
100
AcDbEntity
  8
HILF
100
AcDbCircle
 10
417.5819555632357
 20
299.0321076175265
 30
0.0
 40
27.5
  0
ARC
  5
1372
330
1E
100
AcDbEntity
  8
HILF
100
AcDbCircle
 10
417.5819555632355
 20
299.0321076175265
 30
0.0
 40
36.25
100
AcDbArc
 50
211.2510164130874
 51
328.7489835869126
  0
ARC
  5
1373
330
1E
100
AcDbEntity
  8
HILF
100
AcDbCircle
 10
417.5819555632355
 20
299.0321076175265
 30
0.0
 40
36.25
100
AcDbArc
 50
31.25101641308738
 51
148.7489835869126
  0
ARC
  5
1374
330
1E
100
AcDbEntity
  8
STEMPEL
100
AcDbCircle
 10
417.5819555632357
 20
299.0321076175265
 30
0.0
 40
26.0
100
AcDbArc
 50
270.0
 51
90.0
  0
ARC
  5
1375
330
1E
100
AcDbEntity
  8
STEMPEL
100
AcDbCircle
 10
419.7302705632359
 20
295.5617526175259
 30
0.0
 40
2.68030499999999
100
AcDbArc
 50
231.7544148360592
 51
0.0
  0
ARC
  5
1376
330
1E
100
AcDbEntity
  8
STEMPEL
100
AcDbCircle
 10
466.3114076180301
 20
328.6030477858655
 30
0.0
 40
17.0
100
AcDbArc
 50
211.2510164130874
 51
247.5318142614102
  0
ARC
  5
1377
330
1E
100
AcDbEntity
  8
STEMPEL
100
AcDbCircle
 10
466.3114076180301
 20
269.4611674491877
 30
0.0
 40
17.0
100
AcDbArc
 50
112.4681857385898
 51
148.7489835869126
  0
ARC
  5
1378
330
1E
100
AcDbEntity
  8
HILF
100
AcDbCircle
 10
466.3114076180301
 20
328.6030477858655
 30
0.0
 40
20.75
100
AcDbArc
 50
211.2510164130874
 51
247.5318142614102
  0
ARC
  5
1379
330
1E
100
AcDbEntity
  8
HILF
100
AcDbCircle
 10
466.3114076180301
 20
269.4611674491877
 30
0.0
 40
20.75
100
AcDbArc
 50
112.4681857385898
 51
148.7489835869126
  0
LWPOLYLINE
  5
137A
330
1E
100
AcDbEntity
  8
STEMPEL
100
AcDbPolyline
 90
        6
 70
     1
 43
0.0
 10
455.6952042172875
 20
304.0321076175266
 10
452.8084528713394
 20
299.0321076175265
 10
455.6952042172875
 20
294.0321076175266
 10
461.4687069091838
 20
294.0321076175266
 10
464.355458255132
 20
299.0321076175265
 10
461.4687069091838
 20
304.0321076175266
  0
CIRCLE
  5
137B
330
1E
100
AcDbEntity
  8
STEMPEL
100
AcDbCircle
 10
458.5819555632357
 20
299.0321076175265
 30
0.0
 40
5.0
  0
CIRCLE
  5
137C
330
1E
100
AcDbEntity
  8
STEMPEL
100
AcDbCircle
 10
458.5819555632357
 20
299.0321076175265
 30
0.0
 40
4.15
  0
LINE
  5
137D
330
1E
100
AcDbEntity
  8
MITTEL
  6
STRICHPUNKT
100
AcDbLine
 10
417.5819555632357
 20
254.0321076175266
 30
0.0
 11
417.5819555632356
 21
344.0321076175265
 31
0.0
  0
ARC
  5
137F
330
1E
100
AcDbEntity
  8
STEMPEL
100
AcDbCircle
 10
417.5819555632355
 20
299.0321076175265
 30
0.0
 40
40.0
100
AcDbArc
 50
31.25101641308738
 51
148.7489835869126
  0
LINE
  5
1380
330
1E
100
AcDbEntity
  8
STEMPEL
  6
Continuous
100
AcDbLine
 10
380.4819555632356
 20
462.7440296557348
 30
0.0
 11
364.0759894196118
 21
462.7440296557348
 31
0.0
  0
LINE
  5
1381
330
1E
100
AcDbEntity
  8
STEMPEL
  6
Continuous
100
AcDbLine
 10
380.4819555632356
 20
464.344029655735
 30
0.0
 11
332.2752598561822
 21
464.344029655735
 31
0.0
  0
POLYLINE
  5
1382
330
1E
100
AcDbEntity
  8
HILF
100
AcDb2dPolyline
 66
     1
 10
0.0
 20
0.0
 30
0.0
 70
     4
 75
     6
  0
VERTEX
  5
1383
330
1382
100
AcDbEntity
  8
HILF
100
AcDbVertex
100
AcDb2dVertex
 10
329.2752598561822
 20
464.344029655735
 30
0.0
 70
    16
  0
VERTEX
  5
1384
330
1382
100
AcDbEntity
  8
HILF
100
AcDbVertex
100
AcDb2dVertex
 10
329.2752598561822
 20
464.344029655735
 30
0.0
 70
     8
  0
VERTEX
  5
1385
330
1382
100
AcDbEntity
  8
HILF
100
AcDbVertex
100
AcDb2dVertex
 10
326.4357449258068
 20
456.6961240620624
 30
0.0
 70
     8
  0
VERTEX
  5
1386
330
1382
100
AcDbEntity
  8
HILF
100
AcDbVertex
100
AcDb2dVertex
 10
324.4828144838291
 20
450.0652375693349
 30
0.0
 70
     8
  0
VERTEX
  5
1387
330
1382
100
AcDbEntity
  8
HILF
100
AcDbVertex
100
AcDb2dVertex
 10
323.3064838058778
 20
444.3193986426104
 30
0.0
 70
     8
  0
VERTEX
  5
1388
330
1382
100
AcDbEntity
  8
HILF
100
AcDbVertex
100
AcDb2dVertex
 10
322.796768167582
 20
439.3266357469468
 30
0.0
 70
     8
  0
VERTEX
  5
1389
330
1382
100
AcDbEntity
  8
HILF
100
AcDbVertex
100
AcDb2dVertex
 10
322.8436828445703
 20
434.9549773474023
 30
0.0
 70
     8
  0
VERTEX
  5
138A
330
1382
100
AcDbEntity
  8
HILF
100
AcDbVertex
100
AcDb2dVertex
 10
323.3372431124714
 20
431.0724519090348
 30
0.0
 70
     8
  0
VERTEX
  5
138B
330
1382
100
AcDbEntity
  8
HILF
100
AcDbVertex
100
AcDb2dVertex
 10
324.1674642469144
 20
427.5470878969025
 30
0.0
 70
     8
  0
VERTEX
  5
138C
330
1382
100
AcDbEntity
  8
HILF
100
AcDbVertex
100
AcDb2dVertex
 10
325.224361523528
 20
424.2469137760632
 30
0.0
 70
     8
  0
VERTEX
  5
138D
330
1382
100
AcDbEntity
  8
HILF
100
AcDbVertex
100
AcDb2dVertex
 10
326.3888446303178
 20
421.0423569509361
 30
0.0
 70
     8
  0
VERTEX
  5
138E
330
1382
100
AcDbEntity
  8
HILF
100
AcDbVertex
100
AcDb2dVertex
 10
327.5054009047971
 20
417.8134405833848
 30
0.0
 70
     8
  0
VERTEX
  5
138F
330
1382
100
AcDbEntity
  8
HILF
100
AcDbVertex
100
AcDb2dVertex
 10
328.4094120968561
 20
414.4425867746335
 30
0.0
 70
     8
  0
VERTEX
  5
1390
330
1382
100
AcDbEntity
  8
HILF
100
AcDbVertex
100
AcDb2dVertex
 10
328.9362599563849
 20
410.8122176259067
 30
0.0
 70
     8
  0
VERTEX
  5
1391
330
1382
100
AcDbEntity
  8
HILF
100
AcDbVertex
100
AcDb2dVertex
 10
328.9213262332737
 20
406.8047552384291
 30
0.0
 70
     8
  0
VERTEX
  5
1392
330
1382
100
AcDbEntity
  8
HILF
100
AcDbVertex
100
AcDb2dVertex
 10
328.1999926774125
 20
402.3026217134249
 30
0.0
 70
     8
  0
VERTEX
  5
1393
330
1382
100
AcDbEntity
  8
HILF
100
AcDbVertex
100
AcDb2dVertex
 10
326.6076410386915
 20
397.1882391521187
 30
0.0
 70
     8
  0
VERTEX
  5
1394
330
1382
100
AcDbEntity
  8
HILF
100
AcDbVertex
100
AcDb2dVertex
 10
323.979653067001
 20
391.344029655735
 30
0.0
 70
     8
  0
VERTEX
  5
1395
330
1382
100
AcDbEntity
  8
HILF
100
AcDbVertex
100
AcDb2dVertex
 10
320.4233431912098
 20
442.4762812402889
 30
0.0
 70
    16
  0
VERTEX
  5
1396
330
1382
100
AcDbEntity
  8
HILF
100
AcDbVertex
100
AcDb2dVertex
 10
323.979653067001
 20
423.2525846416509
 30
0.0
 70
    16
  0
VERTEX
  5
1397
330
1382
100
AcDbEntity
  8
HILF
100
AcDbVertex
100
AcDb2dVertex
 10
332.5147967688998
 20
408.0062045806621
 30
0.0
 70
    16
  0
VERTEX
  5
1398
330
1382
100
AcDbEntity
  8
HILF
100
AcDbVertex
100
AcDb2dVertex
 10
323.979653067001
 20
391.344029655735
 30
0.0
 70
    16
  0
SEQEND
  5
1399
330
1382
100
AcDbEntity
  8
HILF
  0
POLYLINE
  5
139A
330
1E
100
AcDbEntity
  8
HILF
100
AcDb2dPolyline
 66
     1
 10
0.0
 20
0.0
 30
0.0
 70
     4
 75
     6
  0
VERTEX
  5
139B
330
139A
100
AcDbEntity
  8
HILF
100
AcDbVertex
100
AcDb2dVertex
 10
332.2752598561822
 20
464.344029655735
 30
0.0
 70
    16
  0
VERTEX
  5
139C
330
139A
100
AcDbEntity
  8
HILF
100
AcDbVertex
100
AcDb2dVertex
 10
332.2752598561822
 20
464.344029655735
 30
0.0
 70
     8
  0
VERTEX
  5
139D
330
139A
100
AcDbEntity
  8
HILF
100
AcDbVertex
100
AcDb2dVertex
 10
329.4357449258068
 20
456.6961240620624
 30
0.0
 70
     8
  0
VERTEX
  5
139E
330
139A
100
AcDbEntity
  8
HILF
100
AcDbVertex
100
AcDb2dVertex
 10
327.4828144838291
 20
450.0652375693349
 30
0.0
 70
     8
  0
VERTEX
  5
139F
330
139A
100
AcDbEntity
  8
HILF
100
AcDbVertex
100
AcDb2dVertex
 10
326.3064838058779
 20
444.3193986426104
 30
0.0
 70
     8
  0
VERTEX
  5
13A0
330
139A
100
AcDbEntity
  8
HILF
100
AcDbVertex
100
AcDb2dVertex
 10
325.796768167582
 20
439.3266357469468
 30
0.0
 70
     8
  0
VERTEX
  5
13A1
330
139A
100
AcDbEntity
  8
HILF
100
AcDbVertex
100
AcDb2dVertex
 10
325.8436828445703
 20
434.9549773474023
 30
0.0
 70
     8
  0
VERTEX
  5
13A2
330
139A
100
AcDbEntity
  8
HILF
100
AcDbVertex
100
AcDb2dVertex
 10
326.3372431124714
 20
431.0724519090348
 30
0.0
 70
     8
  0
VERTEX
  5
13A3
330
139A
100
AcDbEntity
  8
HILF
100
AcDbVertex
100
AcDb2dVertex
 10
327.1674642469144
 20
427.5470878969025
 30
0.0
 70
     8
  0
VERTEX
  5
13A4
330
139A
100
AcDbEntity
  8
HILF
100
AcDbVertex
100
AcDb2dVertex
 10
328.2243615235279
 20
424.2469137760632
 30
0.0
 70
     8
  0
VERTEX
  5
13A5
330
139A
100
AcDbEntity
  8
HILF
100
AcDbVertex
100
AcDb2dVertex
 10
329.3888446303177
 20
421.0423569509361
 30
0.0
 70
     8
  0
VERTEX
  5
13A6
330
139A
100
AcDbEntity
  8
HILF
100
AcDbVertex
100
AcDb2dVertex
 10
330.505400904797
 20
417.8134405833848
 30
0.0
 70
     8
  0
VERTEX
  5
13A7
330
139A
100
AcDbEntity
  8
HILF
100
AcDbVertex
100
AcDb2dVertex
 10
331.4094120968561
 20
414.4425867746335
 30
0.0
 70
     8
  0
VERTEX
  5
13A8
330
139A
100
AcDbEntity
  8
HILF
100
AcDbVertex
100
AcDb2dVertex
 10
331.9362599563849
 20
410.8122176259067
 30
0.0
 70
     8
  0
VERTEX
  5
13A9
330
139A
100
AcDbEntity
  8
HILF
100
AcDbVertex
100
AcDb2dVertex
 10
331.9213262332737
 20
406.8047552384291
 30
0.0
 70
     8
  0
VERTEX
  5
13AA
330
139A
100
AcDbEntity
  8
HILF
100
AcDbVertex
100
AcDb2dVertex
 10
331.1999926774125
 20
402.3026217134249
 30
0.0
 70
     8
  0
VERTEX
  5
13AB
330
139A
100
AcDbEntity
  8
HILF
100
AcDbVertex
100
AcDb2dVertex
 10
329.6076410386916
 20
397.1882391521187
 30
0.0
 70
     8
  0
VERTEX
  5
13AC
330
139A
100
AcDbEntity
  8
HILF
100
AcDbVertex
100
AcDb2dVertex
 10
326.979653067001
 20
391.344029655735
 30
0.0
 70
     8
  0
VERTEX
  5
13AD
330
139A
100
AcDbEntity
  8
HILF
100
AcDbVertex
100
AcDb2dVertex
 10
323.4233431912098
 20
442.4762812402889
 30
0.0
 70
    16
  0
VERTEX
  5
13AE
330
139A
100
AcDbEntity
  8
HILF
100
AcDbVertex
100
AcDb2dVertex
 10
326.979653067001
 20
423.2525846416509
 30
0.0
 70
    16
  0
VERTEX
  5
13AF
330
139A
100
AcDbEntity
  8
HILF
100
AcDbVertex
100
AcDb2dVertex
 10
335.5147967688998
 20
408.0062045806621
 30
0.0
 70
    16
  0
VERTEX
  5
13B0
330
139A
100
AcDbEntity
  8
HILF
100
AcDbVertex
100
AcDb2dVertex
 10
326.979653067001
 20
391.344029655735
 30
0.0
 70
    16
  0
SEQEND
  5
13B1
330
139A
100
AcDbEntity
  8
HILF
  0
LINE
  5
13B2
330
1E
100
AcDbEntity
  8
MITTEL
100
AcDbLine
 10
376.5819555632357
 20
287.5321076175262
 30
0.0
 11
376.5819555632357
 21
310.5321076175269
 31
0.0
  0
ARC
  5
13B3
330
1E
100
AcDbEntity
  8
STEMPEL
100
AcDbCircle
 10
381.0819555632358
 20
299.0321076175265
 30
0.0
 40
15.0
100
AcDbArc
 50
112.4681857385898
 51
247.5318142614102
  0
ARC
  5
13B4
330
1E
100
AcDbEntity
  8
HILF
100
AcDbCircle
 10
381.0819555632358
 20
299.0321076175265
 30
0.0
 40
11.25
100
AcDbArc
 50
112.4681857385898
 51
247.5318142614102
  0
POLYLINE
  5
13B5
330
1E
100
AcDbEntity
  8
HILF
100
AcDb2dPolyline
 66
     1
 10
0.0
 20
0.0
 30
0.0
 70
     4
 75
     6
  0
VERTEX
  5
13B6
330
13B5
100
AcDbEntity
  8
HILF
100
AcDbVertex
100
AcDb2dVertex
 10
329.2752598561822
 20
335.5321076175263
 30
0.0
 70
    16
  0
VERTEX
  5
13B7
330
13B5
100
AcDbEntity
  8
HILF
100
AcDbVertex
100
AcDb2dVertex
 10
329.2752598561822
 20
335.5321076175263
 30
0.0
 70
     8
  0
VERTEX
  5
13B8
330
13B5
100
AcDbEntity
  8
HILF
100
AcDbVertex
100
AcDb2dVertex
 10
326.4357449258068
 20
327.8842020238538
 30
0.0
 70
     8
  0
VERTEX
  5
13B9
330
13B5
100
AcDbEntity
  8
HILF
100
AcDbVertex
100
AcDb2dVertex
 10
324.4828144838291
 20
321.2533155311263
 30
0.0
 70
     8
  0
VERTEX
  5
13BA
330
13B5
100
AcDbEntity
  8
HILF
100
AcDbVertex
100
AcDb2dVertex
 10
323.3064838058778
 20
315.5074766044017
 30
0.0
 70
     8
  0
VERTEX
  5
13BB
330
13B5
100
AcDbEntity
  8
HILF
100
AcDbVertex
100
AcDb2dVertex
 10
322.796768167582
 20
310.5147137087382
 30
0.0
 70
     8
  0
VERTEX
  5
13BC
330
13B5
100
AcDbEntity
  8
HILF
100
AcDbVertex
100
AcDb2dVertex
 10
322.8436828445703
 20
306.1430553091936
 30
0.0
 70
     8
  0
VERTEX
  5
13BD
330
13B5
100
AcDbEntity
  8
HILF
100
AcDbVertex
100
AcDb2dVertex
 10
323.3372431124714
 20
302.2605298708262
 30
0.0
 70
     8
  0
VERTEX
  5
13BE
330
13B5
100
AcDbEntity
  8
HILF
100
AcDbVertex
100
AcDb2dVertex
 10
324.1674642469144
 20
298.7351658586939
 30
0.0
 70
     8
  0
VERTEX
  5
13BF
330
13B5
100
AcDbEntity
  8
HILF
100
AcDbVertex
100
AcDb2dVertex
 10
325.224361523528
 20
295.4349917378546
 30
0.0
 70
     8
  0
VERTEX
  5
13C0
330
13B5
100
AcDbEntity
  8
HILF
100
AcDbVertex
100
AcDb2dVertex
 10
326.3888446303178
 20
292.2304349127275
 30
0.0
 70
     8
  0
VERTEX
  5
13C1
330
13B5
100
AcDbEntity
  8
HILF
100
AcDbVertex
100
AcDb2dVertex
 10
327.5054009047971
 20
289.0015185451762
 30
0.0
 70
     8
  0
VERTEX
  5
13C2
330
13B5
100
AcDbEntity
  8
HILF
100
AcDbVertex
100
AcDb2dVertex
 10
328.4094120968561
 20
285.6306647364249
 30
0.0
 70
     8
  0
VERTEX
  5
13C3
330
13B5
100
AcDbEntity
  8
HILF
100
AcDbVertex
100
AcDb2dVertex
 10
328.9362599563849
 20
282.0002955876981
 30
0.0
 70
     8
  0
VERTEX
  5
13C4
330
13B5
100
AcDbEntity
  8
HILF
100
AcDbVertex
100
AcDb2dVertex
 10
328.9213262332737
 20
277.9928332002204
 30
0.0
 70
     8
  0
VERTEX
  5
13C5
330
13B5
100
AcDbEntity
  8
HILF
100
AcDbVertex
100
AcDb2dVertex
 10
328.1999926774125
 20
273.4906996752163
 30
0.0
 70
     8
  0
VERTEX
  5
13C6
330
13B5
100
AcDbEntity
  8
HILF
100
AcDbVertex
100
AcDb2dVertex
 10
326.6076410386915
 20
268.3763171139101
 30
0.0
 70
     8
  0
VERTEX
  5
13C7
330
13B5
100
AcDbEntity
  8
HILF
100
AcDbVertex
100
AcDb2dVertex
 10
323.979653067001
 20
262.5321076175263
 30
0.0
 70
     8
  0
VERTEX
  5
13C8
330
13B5
100
AcDbEntity
  8
HILF
100
AcDbVertex
100
AcDb2dVertex
 10
320.4233431912098
 20
313.6643592020803
 30
0.0
 70
    16
  0
VERTEX
  5
13C9
330
13B5
100
AcDbEntity
  8
HILF
100
AcDbVertex
100
AcDb2dVertex
 10
323.979653067001
 20
294.4406626034423
 30
0.0
 70
    16
  0
VERTEX
  5
13CA
330
13B5
100
AcDbEntity
  8
HILF
100
AcDbVertex
100
AcDb2dVertex
 10
332.5147967688998
 20
279.1942825424535
 30
0.0
 70
    16
  0
VERTEX
  5
13CB
330
13B5
100
AcDbEntity
  8
HILF
100
AcDbVertex
100
AcDb2dVertex
 10
323.979653067001
 20
262.5321076175263
 30
0.0
 70
    16
  0
SEQEND
  5
13CC
330
13B5
100
AcDbEntity
  8
HILF
  0
POLYLINE
  5
13CD
330
1E
100
AcDbEntity
  8
HILF
100
AcDb2dPolyline
 66
     1
 10
0.0
 20
0.0
 30
0.0
 70
     4
 75
     6
  0
VERTEX
  5
13CE
330
13CD
100
AcDbEntity
  8
HILF
100
AcDbVertex
100
AcDb2dVertex
 10
332.2752598561822
 20
335.5321076175263
 30
0.0
 70
    16
  0
VERTEX
  5
13CF
330
13CD
100
AcDbEntity
  8
HILF
100
AcDbVertex
100
AcDb2dVertex
 10
332.2752598561822
 20
335.5321076175263
 30
0.0
 70
     8
  0
VERTEX
  5
13D0
330
13CD
100
AcDbEntity
  8
HILF
100
AcDbVertex
100
AcDb2dVertex
 10
329.4357449258068
 20
327.8842020238538
 30
0.0
 70
     8
  0
VERTEX
  5
13D1
330
13CD
100
AcDbEntity
  8
HILF
100
AcDbVertex
100
AcDb2dVertex
 10
327.4828144838291
 20
321.2533155311263
 30
0.0
 70
     8
  0
VERTEX
  5
13D2
330
13CD
100
AcDbEntity
  8
HILF
100
AcDbVertex
100
AcDb2dVertex
 10
326.3064838058779
 20
315.5074766044017
 30
0.0
 70
     8
  0
VERTEX
  5
13D3
330
13CD
100
AcDbEntity
  8
HILF
100
AcDbVertex
100
AcDb2dVertex
 10
325.796768167582
 20
310.5147137087382
 30
0.0
 70
     8
  0
VERTEX
  5
13D4
330
13CD
100
AcDbEntity
  8
HILF
100
AcDbVertex
100
AcDb2dVertex
 10
325.8436828445703
 20
306.1430553091936
 30
0.0
 70
     8
  0
VERTEX
  5
13D5
330
13CD
100
AcDbEntity
  8
HILF
100
AcDbVertex
100
AcDb2dVertex
 10
326.3372431124714
 20
302.2605298708262
 30
0.0
 70
     8
  0
VERTEX
  5
13D6
330
13CD
100
AcDbEntity
  8
HILF
100
AcDbVertex
100
AcDb2dVertex
 10
327.1674642469144
 20
298.7351658586939
 30
0.0
 70
     8
  0
VERTEX
  5
13D7
330
13CD
100
AcDbEntity
  8
HILF
100
AcDbVertex
100
AcDb2dVertex
 10
328.2243615235279
 20
295.4349917378546
 30
0.0
 70
     8
  0
VERTEX
  5
13D8
330
13CD
100
AcDbEntity
  8
HILF
100
AcDbVertex
100
AcDb2dVertex
 10
329.3888446303177
 20
292.2304349127275
 30
0.0
 70
     8
  0
VERTEX
  5
13D9
330
13CD
100
AcDbEntity
  8
HILF
100
AcDbVertex
100
AcDb2dVertex
 10
330.505400904797
 20
289.0015185451762
 30
0.0
 70
     8
  0
VERTEX
  5
13DA
330
13CD
100
AcDbEntity
  8
HILF
100
AcDbVertex
100
AcDb2dVertex
 10
331.4094120968561
 20
285.6306647364249
 30
0.0
 70
     8
  0
VERTEX
  5
13DB
330
13CD
100
AcDbEntity
  8
HILF
100
AcDbVertex
100
AcDb2dVertex
 10
331.9362599563849
 20
282.0002955876981
 30
0.0
 70
     8
  0
VERTEX
  5
13DC
330
13CD
100
AcDbEntity
  8
HILF
100
AcDbVertex
100
AcDb2dVertex
 10
331.9213262332737
 20
277.9928332002204
 30
0.0
 70
     8
  0
VERTEX
  5
13DD
330
13CD
100
AcDbEntity
  8
HILF
100
AcDbVertex
100
AcDb2dVertex
 10
331.1999926774125
 20
273.4906996752163
 30
0.0
 70
     8
  0
VERTEX
  5
13DE
330
13CD
100
AcDbEntity
  8
HILF
100
AcDbVertex
100
AcDb2dVertex
 10
329.6076410386916
 20
268.3763171139101
 30
0.0
 70
     8
  0
VERTEX
  5
13DF
330
13CD
100
AcDbEntity
  8
HILF
100
AcDbVertex
100
AcDb2dVertex
 10
326.979653067001
 20
262.5321076175263
 30
0.0
 70
     8
  0
VERTEX
  5
13E0
330
13CD
100
AcDbEntity
  8
HILF
100
AcDbVertex
100
AcDb2dVertex
 10
323.4233431912098
 20
313.6643592020803
 30
0.0
 70
    16
  0
VERTEX
  5
13E1
330
13CD
100
AcDbEntity
  8
HILF
100
AcDbVertex
100
AcDb2dVertex
 10
326.979653067001
 20
294.4406626034423
 30
0.0
 70
    16
  0
VERTEX
  5
13E2
330
13CD
100
AcDbEntity
  8
HILF
100
AcDbVertex
100
AcDb2dVertex
 10
335.5147967688998
 20
279.1942825424535
 30
0.0
 70
    16
  0
VERTEX
  5
13E3
330
13CD
100
AcDbEntity
  8
HILF
100
AcDbVertex
100
AcDb2dVertex
 10
326.979653067001
 20
262.5321076175263
 30
0.0
 70
    16
  0
SEQEND
  5
13E4
330
13CD
100
AcDbEntity
  8
HILF
  0
LWPOLYLINE
  5
13E5
330
1E
100
AcDbEntity
  8
STEMPEL
100
AcDbPolyline
 90
        6
 70
     1
 43
0.0
 10
373.6952042172876
 20
304.0321076175266
 10
370.8084528713395
 20
299.0321076175265
 10
373.6952042172876
 20
294.0321076175266
 10
379.4687069091839
 20
294.0321076175266
 10
382.355458255132
 20
299.0321076175265
 10
379.4687069091839
 20
304.0321076175266
  0
CIRCLE
  5
13E6
330
1E
100
AcDbEntity
  8
STEMPEL
100
AcDbCircle
 10
376.5819555632357
 20
299.0321076175265
 30
0.0
 40
5.0
  0
CIRCLE
  5
13E7
330
1E
100
AcDbEntity
  8
STEMPEL
100
AcDbCircle
 10
376.5819555632357
 20
299.0321076175265
 30
0.0
 40
4.15
  0
LINE
  5
13E8
330
1E
100
AcDbEntity
  8
STEMPEL
  6
Continuous
100
AcDbLine
 10
401.2188873912818
 20
335.5321076175265
 30
0.0
 11
332.2752598561822
 21
335.5321076175265
 31
0.0
  0
LINE
  5
13E9
330
1E
100
AcDbEntity
  8
STEMPEL
  6
Continuous
100
AcDbLine
 10
401.218887391282
 20
262.5321076175266
 30
0.0
 11
326.9796530670011
 21
262.5321076175266
 31
0.0
  0
ARC
  5
13EA
330
1E
100
AcDbEntity
  8
HILF
100
AcDbCircle
 10
368.8525035084412
 20
328.6030477858655
 30
0.0
 40
20.75
100
AcDbArc
 50
292.4681857385898
 51
328.7489835869126
  0
ARC
  5
13EB
330
1E
100
AcDbEntity
  8
HILF
100
AcDbCircle
 10
368.8525035084412
 20
269.4611674491877
 30
0.0
 40
20.75
100
AcDbArc
 50
31.25101641308738
 51
67.53181426141015
  0
ARC
  5
13EC
330
1E
100
AcDbEntity
  8
STEMPEL
100
AcDbCircle
 10
368.8525035084412
 20
328.6030477858655
 30
0.0
 40
17.0
100
AcDbArc
 50
292.4681857385898
 51
328.7489835869126
  0
ARC
  5
13ED
330
1E
100
AcDbEntity
  8
STEMPEL
100
AcDbCircle
 10
368.8525035084412
 20
269.4611674491877
 30
0.0
 40
17.0
100
AcDbArc
 50
31.25101641308738
 51
67.53181426141015
  0
LWPOLYLINE
  5
13EE
330
1E
100
AcDbEntity
  8
HILF
100
AcDbPolyline
 90
       73
 70
     0
 43
0.0
 10
468.9710382983004
 20
464.344029655735
 10
467.047498962525
 20
461.4488310016582
 10
465.1266569095453
 20
459.2098666014615
 10
463.2564678999775
 20
457.5660406622231
 10
461.4445544959027
 20
456.3955502248399
 10
459.6985392594025
 20
455.5765923302086
 10
458.0260447525585
 20
454.9873640192267
 10
456.4346935374516
 20
454.5060623327907
 10
454.9321081761641
 20
454.0108843117986
 10
453.5218130830086
 20
453.406152106157
 10
452.1909400812258
 20
452.7006883018146
 10
450.9225228462888
 20
451.9294405937301
 10
449.6995950536703
 20
451.1273566768621
 10
448.5051903788427
 20
450.3293842461697
 10
447.3223424972785
 20
449.5704709966116
 10
446.1340850844509
 20
448.885564623146
 10
444.9234518158324
 20
448.3096128207322
 10
443.6790088632439
 20
447.865485772866
 10
442.4114523839031
 20
447.5277436171914
 10
441.1370110313747
 20
447.2588689798907
 10
439.8719134592246
 20
447.0213444871454
 10
438.6323883210183
 20
446.7776527651371
 10
437.4346642703214
 20
446.490276440047
 10
436.2949699606994
 20
446.1216981380569
 10
435.2295340457177
 20
445.6344004853494
 10
434.2453233693096
 20
445.0045710849275
 10
433.3122575368792
 20
444.2632174470883
 10
432.3909943441984
 20
443.4550520589503
 10
431.4421915870394
 20
442.6247874076324
 10
430.4265070611733
 20
441.8171359802532
 10
429.3045985623726
 20
441.0768102639321
 10
428.0371238864091
 20
440.4485227457877
 10
426.5847408290543
 20
439.976985912939
 10
424.9210573296005
 20
439.6929503067548
 10
423.0714819014207
 20
439.571318685604
 10
421.0743732014078
 20
439.5730318621061
 10
418.9680898864549
 20
439.6590306488795
 10
416.7909906134556
 20
439.7902558585441
 10
414.5814340393022
 20
439.9276483037186
 10
412.3777788208887
 20
440.0321487970219
 10
410.2183836151076
 20
440.0646981510734
 10
408.1348041534976
 20
439.9994282195429
 10
406.1313844661773
 20
439.8632350203041
 10
404.2056656579105
 20
439.6962056122819
 10
402.3551888334613
 20
439.5384270544014
 10
400.5774950975934
 20
439.4299864055871
 10
398.8701255550712
 20
439.4109707247635
 10
397.2306213106582
 20
439.5214670708559
 10
395.6565234691185
 20
439.8015625027887
 10
394.1419306946374
 20
440.2765255730758
 10
392.6671718890858
 20
440.9123508085871
 10
391.2091335137558
 20
441.6602142297819
 10
389.74470202994
 20
442.4712918571184
 10
388.2507638989306
 20
443.296759711056
 10
386.7042055820194
 20
444.0877938120537
 10
385.0819135404996
 20
444.7955701805702
 10
383.3607742356627
 20
445.3712648370646
 10
381.5280014540241
 20
445.7835704764151
 10
379.6121182829894
 20
446.0712464911765
 10
377.6519751351867
 20
446.2905689483235
 10
375.6864224232442
 20
446.4978139148302
 10
373.7543105597903
 20
446.7492574576712
 10
371.8944899574534
 20
447.1011756438205
 10
370.1458110288619
 20
447.6098445402525
 10
368.5471241866436
 20
448.3315402139417
 10
367.1352307800038
 20
449.3201403565975
 10
365.9387359044528
 20
450.6199291588711
 10
364.984195592078
 20
452.2727924361483
 10
364.298165874966
 20
454.3206160038152
 10
363.9072027852045
 20
456.8052856772584
 10
363.8378623548805
 20
459.7686872718635
 10
364.1167006160809
 20
463.2527066030171
 10
364.2929653464595
 20
464.344029655735
  0
LINE
  5
13EF
330
1E
100
AcDbEntity
  8
MITTEL
100
AcDbLine
 10
458.5819555632357
 20
464.344029655735
 30
0.0
 11
458.5819555632357
 21
491.4440296557351
 31
0.0
  0
LINE
  5
13F0
330
1E
100
AcDbEntity
  8
STEMPEL
  6
Continuous
100
AcDbLine
 10
373.5819555632357
 20
464.344029655735
 30
0.0
 11
373.5819555632357
 21
474.844029655735
 31
0.0
  0
LINE
  5
13F1
330
1E
100
AcDbEntity
  8
HILF
  6
Continuous
100
AcDbLine
 10
374.2069555632357
 20
464.344029655735
 30
0.0
 11
374.2069555632357
 21
474.844029655735
 31
0.0
  0
LINE
  5
13F2
330
1E
100
AcDbEntity
  8
HILF
  6
Continuous
100
AcDbLine
 10
378.9569555632358
 20
464.344029655735
 30
0.0
 11
378.9569555632358
 21
474.844029655735
 31
0.0
  0
LINE
  5
13F3
330
1E
100
AcDbEntity
  8
STEMPEL
  6
Continuous
100
AcDbLine
 10
379.5819555632357
 20
464.344029655735
 30
0.0
 11
379.5819555632357
 21
474.844029655735
 31
0.0
  0
LINE
  5
13F4
330
1E
100
AcDbEntity
  8
STEMPEL
  6
Continuous
100
AcDbLine
 10
455.5819555632357
 20
464.344029655735
 30
0.0
 11
455.5819555632357
 21
474.844029655735
 31
0.0
  0
LINE
  5
13F5
330
1E
100
AcDbEntity
  8
HILF
  6
Continuous
100
AcDbLine
 10
456.2069555632357
 20
464.344029655735
 30
0.0
 11
456.2069555632357
 21
474.844029655735
 31
0.0
  0
LINE
  5
13F6
330
1E
100
AcDbEntity
  8
HILF
  6
Continuous
100
AcDbLine
 10
460.9569555632357
 20
464.344029655735
 30
0.0
 11
460.9569555632357
 21
474.844029655735
 31
0.0
  0
LINE
  5
13F7
330
1E
100
AcDbEntity
  8
STEMPEL
  6
Continuous
100
AcDbLine
 10
461.5819555632357
 20
464.344029655735
 30
0.0
 11
461.5819555632357
 21
474.844029655735
 31
0.0
  0
LINE
  5
13F8
330
1E
100
AcDbEntity
  8
MITTEL
  6
STRICHPUNKT
100
AcDbLine
 10
417.5819555632357
 20
478.3440296557349
 30
0.0
 11
417.5819555632357
 21
427.844029655735
 31
0.0
  0
LINE
  5
13F9
330
1E
100
AcDbEntity
  8
STEMPEL
  6
Continuous
100
AcDbLine
 10
455.5819555632357
 20
464.344029655735
 30
0.0
 11
455.5819555632357
 21
474.8440296557349
 31
0.0
  0
ARC
  5
13FA
330
1E
100
AcDbEntity
  8
STEMPEL
100
AcDbCircle
 10
454.6819555632356
 20
467.3440296557349
 30
0.0
 40
3.0
100
AcDbArc
 50
180.0
 51
270.0
  0
ARC
  5
13FB
330
1E
100
AcDbEntity
  8
STEMPEL
100
AcDbCircle
 10
454.6819555632356
 20
467.3440296557349
 30
0.0
 40
4.599999999999999
100
AcDbArc
 50
180.0
 51
270.0
  0
LINE
  5
13FC
330
1E
100
AcDbEntity
  8
STEMPEL
  6
Continuous
100
AcDbLine
 10
455.5819555632357
 20
464.344029655735
 30
0.0
 11
455.5819555632357
 21
474.844029655735
 31
0.0
  0
ARC
  5
13FD
330
1E
100
AcDbEntity
  8
STEMPEL
100
AcDbCircle
 10
380.4819555632356
 20
467.3440296557349
 30
0.0
 40
3.0
100
AcDbArc
 50
270.0
 51
0.0
  0
ARC
  5
13FE
330
1E
100
AcDbEntity
  8
STEMPEL
100
AcDbCircle
 10
380.4819555632356
 20
467.3440296557349
 30
0.0
 40
4.599999999999999
100
AcDbArc
 50
270.0
 51
0.0
  0
LINE
  5
13FF
330
1E
100
AcDbEntity
  8
STEMPEL
  6
Continuous
100
AcDbLine
 10
379.5819555632357
 20
464.344029655735
 30
0.0
 11
379.5819555632357
 21
474.8440296557349
 31
0.0
  0
LINE
  5
1400
330
1E
100
AcDbEntity
  8
STEMPEL
  6
Continuous
100
AcDbLine
 10
379.5819555632357
 20
464.344029655735
 30
0.0
 11
379.5819555632357
 21
474.844029655735
 31
0.0
  0
INSERT
  5
1401
330
1E
100
AcDbEntity
  8
SCHRAFF
100
AcDbBlockReference
  2
*X2
 10
4.267557896987227
 20
-0.0000000000001137
 30
0.0
1001
ACAD
1000
HATCH
1002
{
1070
    16
1000
_U,I
1040
2.0
1040
0.7853981633974483
1070
     0
1002
}
  0
LINE
  5
1402
330
1E
100
AcDbEntity
  8
MITTEL
100
AcDbLine
 10
376.5819555632358
 20
464.344029655735
 30
0.0
 11
376.5819555632355
 21
491.4440296557351
 31
0.0
  0
LINE
  5
1409
330
1E
100
AcDbEntity
  8
STEMPEL
  6
Continuous
100
AcDbLine
 10
672.1755302616285
 20
335.5321076175266
 30
0.0
 11
614.7135440389883
 21
335.5321076175266
 31
0.0
  0
LINE
  5
140A
330
1E
100
AcDbEntity
  8
STEMPEL
  6
Continuous
100
AcDbLine
 10
672.275355898667
 20
262.5321076175266
 30
0.0
 11
609.4179372498071
 21
262.5321076175266
 31
0.0
  0
LINE
  5
140B
330
1E
100
AcDbEntity
  8
STEMPEL
  6
Continuous
100
AcDbLine
 10
672.1755302616285
 20
391.344029655735
 30
0.0
 11
609.4179372498071
 21
391.344029655735
 31
0.0
  0
LINE
  5
140C
330
1E
100
AcDbEntity
  8
STEMPEL
  6
Continuous
100
AcDbLine
 10
672.275355898667
 20
464.344029655735
 30
0.0
 11
614.7135440389881
 21
464.3440296557349
 31
0.0
  0
LINE
  5
140D
330
1E
100
AcDbEntity
  8
STEMPEL
  6
Continuous
100
AcDbLine
 10
95.09823420005046
 20
464.344029655735
 30
0.0
 11
95.09823420005046
 21
391.344029655735
 31
0.0
  0
LINE
  5
140E
330
1E
100
AcDbEntity
  8
STEMPEL
  6
Continuous
100
AcDbLine
 10
95.09823420005046
 20
262.5321076175266
 30
0.0
 11
95.09823420005046
 21
335.5321076175266
 31
0.0
  0
DIMENSION
  5
140F
330
1E
100
AcDbEntity
  8
BEM
100
AcDbDimension
  2
*D6
 10
82.15069745304948
 20
335.5321076175266
 30
0.0
 11
75.65069745304942
 21
299.0321076175265
 31
0.0
 70
    32
  1
%%c<>
 71
     5
 42
73.00000000000006
  3
Standard
100
AcDbAlignedDimension
 13
95.09823420005046
 23
262.5321076175266
 33
0.0
 14
97.09823420005045
 24
335.5321076175266
 34
0.0
 50
90.0
100
AcDbRotatedDimension
1001
ACAD
1000
DSTYLE
1002
{
1070
    40
1040
2.0
1070
    41
1040
3.5
1070
    42
1040
1.0
1070
    43
1040
7.0
1070
    44
1040
1.0
1070
    73
1070
     0
1070
    74
1070
     0
1070
    77
1070
     1
1070
    78
1070
     8
1070
    79
1070
     2
1070
   140
1040
3.5
1070
   141
1040
1.5
1070
   146
1040
0.5142857142857144
1070
   147
1040
1.5
1070
   172
1070
     1
1070
   178
1070
     1
1070
   179
1070
     2
1070
   271
1070
     2
1070
   272
1070
     2
1070
   284
1070
     8
1070
   285
1070
     8
1070
   286
1070
     8
1002
}
  0
DIMENSION
  5
1410
330
1E
100
AcDbEntity
  8
BEM
100
AcDbDimension
  2
*D7
 10
417.5819555632357
 20
234.9930162336418
 30
0.0
 11
256.3400948816432
 21
241.4930162336418
 31
0.0
 70
    32
  1
620
 71
     5
 42
322.4837213631853
  3
Standard
100
AcDbAlignedDimension
 13
95.09823420005046
 23
263.2320169257342
 33
0.0
 14
417.5819555632357
 24
254.0321076175266
 34
0.0
100
AcDbRotatedDimension
1001
ACAD
1000
DSTYLE
1002
{
1070
    40
1040
2.0
1070
    41
1040
3.5
1070
    42
1040
1.0
1070
    43
1040
7.0
1070
    44
1040
1.0
1070
    73
1070
     0
1070
    74
1070
     0
1070
    77
1070
     1
1070
    78
1070
     8
1070
    79
1070
     2
1070
   140
1040
3.5
1070
   141
1040
1.5
1070
   146
1040
0.5142857142857144
1070
   147
1040
1.5
1070
   172
1070
     1
1070
   178
1070
     1
1070
   179
1070
     2
1070
   271
1070
     2
1070
   272
1070
     2
1070
   284
1070
     8
1070
   285
1070
     8
1070
   286
1070
     8
1002
}
  0
LINE
  5
1411
330
1E
100
AcDbEntity
  8
STEMPEL
  6
Continuous
100
AcDbLine
 10
329.2752598561822
 20
464.344029655735
 30
0.0
 11
95.09823420005046
 21
464.344029655735
 31
0.0
  0
LINE
  5
1412
330
1E
100
AcDbEntity
  8
STEMPEL
  6
Continuous
100
AcDbLine
 10
323.979653067001
 20
391.344029655735
 30
0.0
 11
95.09823420005046
 21
391.344029655735
 31
0.0
  0
LINE
  5
1413
330
1E
100
AcDbEntity
  8
STEMPEL
  6
Continuous
100
AcDbLine
 10
329.2752598561822
 20
335.5321076175265
 30
0.0
 11
95.09823420005046
 21
335.5321076175266
 31
0.0
  0
LINE
  5
1414
330
1E
100
AcDbEntity
  8
STEMPEL
  6
Continuous
100
AcDbLine
 10
323.9796530670011
 20
262.5321076175266
 30
0.0
 11
95.09823420005046
 21
262.5321076175266
 31
0.0
  0
LINE
  5
1415
330
1E
100
AcDbEntity
  8
MITTEL
100
AcDbLine
 10
802.5819555632358
 20
427.844029655735
 30
0.0
 11
90.09823420005046
 21
427.8440296557351
 31
0.0
  0
LINE
  5
1416
330
1E
100
AcDbEntity
  8
MITTEL
100
AcDbLine
 10
802.5819555632358
 20
299.0321076175265
 30
0.0
 11
90.09823420005046
 21
299.0321076175265
 31
0.0
  0
DIMENSION
  5
1417
330
1E
100
AcDbEntity
  8
BEM
100
AcDbDimension
  2
*D8
 10
797.5819555632357
 20
215.1064335453956
 30
0.0
 11
446.340094881643
 21
221.6064335453956
 31
0.0
 70
    32
  1
2000
 71
     5
 42
702.4837213631853
  3
Standard
100
AcDbAlignedDimension
 13
95.09823420005046
 23
263.2320169257342
 33
0.0
 14
797.5819555632357
 24
259.2667102892511
 34
0.0
100
AcDbRotatedDimension
1001
ACAD
1000
DSTYLE
1002
{
1070
    40
1040
2.0
1070
    41
1040
3.5
1070
    42
1040
1.0
1070
    43
1040
7.0
1070
    44
1040
1.0
1070
    73
1070
     0
1070
    74
1070
     0
1070
    77
1070
     1
1070
    78
1070
     8
1070
    79
1070
     2
1070
   140
1040
3.5
1070
   141
1040
1.5
1070
   146
1040
0.5142857142857144
1070
   147
1040
1.5
1070
   172
1070
     1
1070
   178
1070
     1
1070
   179
1070
     2
1070
   271
1070
     2
1070
   272
1070
     2
1070
   284
1070
     8
1070
   285
1070
     8
1070
   286
1070
     8
1002
}
  0
TEXT
  5
14DC
330
1E
100
AcDbEntity
  8
TEXT
 62
     1
100
AcDbText
 10
712.9448129060656
 20
441.6492810460413
 30
0.0
 40
7.0
  1
DN70
 41
0.75
  7
GREEKS
100
AcDbText
  0
POLYLINE
  5
14E7
330
1E
100
AcDbEntity
  8
HILF
100
AcDb2dPolyline
 66
     1
 10
0.0
 20
0.0
 30
0.0
 70
     4
 75
     6
  0
VERTEX
  5
14E8
330
14E7
100
AcDbEntity
  8
HILF
100
AcDbVertex
100
AcDb2dVertex
 10
614.7135440389881
 20
464.344029655735
 30
0.0
 70
    16
  0
VERTEX
  5
14E9
330
14E7
100
AcDbEntity
  8
HILF
100
AcDbVertex
100
AcDb2dVertex
 10
614.7135440389881
 20
464.344029655735
 30
0.0
 70
     8
  0
VERTEX
  5
14EA
330
14E7
100
AcDbEntity
  8
HILF
100
AcDbVertex
100
AcDb2dVertex
 10
611.8740291086128
 20
456.6961240620624
 30
0.0
 70
     8
  0
VERTEX
  5
14EB
330
14E7
100
AcDbEntity
  8
HILF
100
AcDbVertex
100
AcDb2dVertex
 10
609.921098666635
 20
450.0652375693349
 30
0.0
 70
     8
  0
VERTEX
  5
14EC
330
14E7
100
AcDbEntity
  8
HILF
100
AcDbVertex
100
AcDb2dVertex
 10
608.7447679886838
 20
444.3193986426104
 30
0.0
 70
     8
  0
VERTEX
  5
14ED
330
14E7
100
AcDbEntity
  8
HILF
100
AcDbVertex
100
AcDb2dVertex
 10
608.2350523503881
 20
439.3266357469468
 30
0.0
 70
     8
  0
VERTEX
  5
14EE
330
14E7
100
AcDbEntity
  8
HILF
100
AcDbVertex
100
AcDb2dVertex
 10
608.2819670273762
 20
434.9549773474023
 30
0.0
 70
     8
  0
VERTEX
  5
14EF
330
14E7
100
AcDbEntity
  8
HILF
100
AcDbVertex
100
AcDb2dVertex
 10
608.7755272952774
 20
431.0724519090348
 30
0.0
 70
     8
  0
VERTEX
  5
14F0
330
14E7
100
AcDbEntity
  8
HILF
100
AcDbVertex
100
AcDb2dVertex
 10
609.6057484297204
 20
427.5470878969025
 30
0.0
 70
     8
  0
VERTEX
  5
14F1
330
14E7
100
AcDbEntity
  8
HILF
100
AcDbVertex
100
AcDb2dVertex
 10
610.6626457063339
 20
424.2469137760632
 30
0.0
 70
     8
  0
VERTEX
  5
14F2
330
14E7
100
AcDbEntity
  8
HILF
100
AcDbVertex
100
AcDb2dVertex
 10
611.8271288131237
 20
421.0423569509361
 30
0.0
 70
     8
  0
VERTEX
  5
14F3
330
14E7
100
AcDbEntity
  8
HILF
100
AcDbVertex
100
AcDb2dVertex
 10
612.9436850876031
 20
417.8134405833848
 30
0.0
 70
     8
  0
VERTEX
  5
14F4
330
14E7
100
AcDbEntity
  8
HILF
100
AcDbVertex
100
AcDb2dVertex
 10
613.8476962796621
 20
414.4425867746335
 30
0.0
 70
     8
  0
VERTEX
  5
14F5
330
14E7
100
AcDbEntity
  8
HILF
100
AcDbVertex
100
AcDb2dVertex
 10
614.3745441391908
 20
410.8122176259067
 30
0.0
 70
     8
  0
VERTEX
  5
14F6
330
14E7
100
AcDbEntity
  8
HILF
100
AcDbVertex
100
AcDb2dVertex
 10
614.3596104160796
 20
406.8047552384291
 30
0.0
 70
     8
  0
VERTEX
  5
14F7
330
14E7
100
AcDbEntity
  8
HILF
100
AcDbVertex
100
AcDb2dVertex
 10
613.6382768602185
 20
402.3026217134249
 30
0.0
 70
     8
  0
VERTEX
  5
14F8
330
14E7
100
AcDbEntity
  8
HILF
100
AcDbVertex
100
AcDb2dVertex
 10
612.0459252214975
 20
397.1882391521187
 30
0.0
 70
     8
  0
VERTEX
  5
14F9
330
14E7
100
AcDbEntity
  8
HILF
100
AcDbVertex
100
AcDb2dVertex
 10
609.417937249807
 20
391.344029655735
 30
0.0
 70
     8
  0
VERTEX
  5
14FA
330
14E7
100
AcDbEntity
  8
HILF
100
AcDbVertex
100
AcDb2dVertex
 10
605.8616273740158
 20
442.4762812402889
 30
0.0
 70
    16
  0
VERTEX
  5
14FB
330
14E7
100
AcDbEntity
  8
HILF
100
AcDbVertex
100
AcDb2dVertex
 10
609.417937249807
 20
423.2525846416509
 30
0.0
 70
    16
  0
VERTEX
  5
14FC
330
14E7
100
AcDbEntity
  8
HILF
100
AcDbVertex
100
AcDb2dVertex
 10
617.9530809517057
 20
408.0062045806621
 30
0.0
 70
    16
  0
VERTEX
  5
14FD
330
14E7
100
AcDbEntity
  8
HILF
100
AcDbVertex
100
AcDb2dVertex
 10
609.417937249807
 20
391.344029655735
 30
0.0
 70
    16
  0
SEQEND
  5
14FE
330
14E7
100
AcDbEntity
  8
HILF
  0
POLYLINE
  5
14FF
330
1E
100
AcDbEntity
  8
HILF
100
AcDb2dPolyline
 66
     1
 10
0.0
 20
0.0
 30
0.0
 70
     4
 75
     6
  0
VERTEX
  5
1500
330
14FF
100
AcDbEntity
  8
HILF
100
AcDbVertex
100
AcDb2dVertex
 10
611.7135440389882
 20
464.344029655735
 30
0.0
 70
    16
  0
VERTEX
  5
1501
330
14FF
100
AcDbEntity
  8
HILF
100
AcDbVertex
100
AcDb2dVertex
 10
611.7135440389882
 20
464.344029655735
 30
0.0
 70
     8
  0
VERTEX
  5
1502
330
14FF
100
AcDbEntity
  8
HILF
100
AcDbVertex
100
AcDb2dVertex
 10
608.8740291086128
 20
456.6961240620624
 30
0.0
 70
     8
  0
VERTEX
  5
1503
330
14FF
100
AcDbEntity
  8
HILF
100
AcDbVertex
100
AcDb2dVertex
 10
606.9210986666351
 20
450.0652375693349
 30
0.0
 70
     8
  0
VERTEX
  5
1504
330
14FF
100
AcDbEntity
  8
HILF
100
AcDbVertex
100
AcDb2dVertex
 10
605.7447679886839
 20
444.3193986426104
 30
0.0
 70
     8
  0
VERTEX
  5
1505
330
14FF
100
AcDbEntity
  8
HILF
100
AcDbVertex
100
AcDb2dVertex
 10
605.235052350388
 20
439.3266357469468
 30
0.0
 70
     8
  0
VERTEX
  5
1506
330
14FF
100
AcDbEntity
  8
HILF
100
AcDbVertex
100
AcDb2dVertex
 10
605.2819670273763
 20
434.9549773474023
 30
0.0
 70
     8
  0
VERTEX
  5
1507
330
14FF
100
AcDbEntity
  8
HILF
100
AcDbVertex
100
AcDb2dVertex
 10
605.7755272952775
 20
431.0724519090348
 30
0.0
 70
     8
  0
VERTEX
  5
1508
330
14FF
100
AcDbEntity
  8
HILF
100
AcDbVertex
100
AcDb2dVertex
 10
606.6057484297203
 20
427.5470878969025
 30
0.0
 70
     8
  0
VERTEX
  5
1509
330
14FF
100
AcDbEntity
  8
HILF
100
AcDbVertex
100
AcDb2dVertex
 10
607.6626457063339
 20
424.2469137760632
 30
0.0
 70
     8
  0
VERTEX
  5
150A
330
14FF
100
AcDbEntity
  8
HILF
100
AcDbVertex
100
AcDb2dVertex
 10
608.8271288131237
 20
421.0423569509361
 30
0.0
 70
     8
  0
VERTEX
  5
150B
330
14FF
100
AcDbEntity
  8
HILF
100
AcDbVertex
100
AcDb2dVertex
 10
609.943685087603
 20
417.8134405833848
 30
0.0
 70
     8
  0
VERTEX
  5
150C
330
14FF
100
AcDbEntity
  8
HILF
100
AcDbVertex
100
AcDb2dVertex
 10
610.8476962796621
 20
414.4425867746335
 30
0.0
 70
     8
  0
VERTEX
  5
150D
330
14FF
100
AcDbEntity
  8
HILF
100
AcDbVertex
100
AcDb2dVertex
 10
611.3745441391909
 20
410.8122176259067
 30
0.0
 70
     8
  0
VERTEX
  5
150E
330
14FF
100
AcDbEntity
  8
HILF
100
AcDbVertex
100
AcDb2dVertex
 10
611.3596104160797
 20
406.8047552384291
 30
0.0
 70
     8
  0
VERTEX
  5
150F
330
14FF
100
AcDbEntity
  8
HILF
100
AcDbVertex
100
AcDb2dVertex
 10
610.6382768602185
 20
402.3026217134249
 30
0.0
 70
     8
  0
VERTEX
  5
1510
330
14FF
100
AcDbEntity
  8
HILF
100
AcDbVertex
100
AcDb2dVertex
 10
609.0459252214976
 20
397.1882391521187
 30
0.0
 70
     8
  0
VERTEX
  5
1511
330
14FF
100
AcDbEntity
  8
HILF
100
AcDbVertex
100
AcDb2dVertex
 10
606.4179372498069
 20
391.344029655735
 30
0.0
 70
     8
  0
VERTEX
  5
1512
330
14FF
100
AcDbEntity
  8
HILF
100
AcDbVertex
100
AcDb2dVertex
 10
602.8616273740158
 20
442.4762812402889
 30
0.0
 70
    16
  0
VERTEX
  5
1513
330
14FF
100
AcDbEntity
  8
HILF
100
AcDbVertex
100
AcDb2dVertex
 10
606.4179372498069
 20
423.2525846416509
 30
0.0
 70
    16
  0
VERTEX
  5
1514
330
14FF
100
AcDbEntity
  8
HILF
100
AcDbVertex
100
AcDb2dVertex
 10
614.9530809517057
 20
408.0062045806621
 30
0.0
 70
    16
  0
VERTEX
  5
1515
330
14FF
100
AcDbEntity
  8
HILF
100
AcDbVertex
100
AcDb2dVertex
 10
606.4179372498069
 20
391.344029655735
 30
0.0
 70
    16
  0
SEQEND
  5
1516
330
14FF
100
AcDbEntity
  8
HILF
  0
POLYLINE
  5
1517
330
1E
100
AcDbEntity
  8
HILF
100
AcDb2dPolyline
 66
     1
 10
0.0
 20
0.0
 30
0.0
 70
     4
 75
     6
  0
VERTEX
  5
1518
330
1517
100
AcDbEntity
  8
HILF
100
AcDbVertex
100
AcDb2dVertex
 10
614.7135440389881
 20
335.5321076175263
 30
0.0
 70
    16
  0
VERTEX
  5
1519
330
1517
100
AcDbEntity
  8
HILF
100
AcDbVertex
100
AcDb2dVertex
 10
614.7135440389881
 20
335.5321076175263
 30
0.0
 70
     8
  0
VERTEX
  5
151A
330
1517
100
AcDbEntity
  8
HILF
100
AcDbVertex
100
AcDb2dVertex
 10
611.8740291086128
 20
327.8842020238538
 30
0.0
 70
     8
  0
VERTEX
  5
151B
330
1517
100
AcDbEntity
  8
HILF
100
AcDbVertex
100
AcDb2dVertex
 10
609.921098666635
 20
321.2533155311263
 30
0.0
 70
     8
  0
VERTEX
  5
151C
330
1517
100
AcDbEntity
  8
HILF
100
AcDbVertex
100
AcDb2dVertex
 10
608.7447679886838
 20
315.5074766044017
 30
0.0
 70
     8
  0
VERTEX
  5
151D
330
1517
100
AcDbEntity
  8
HILF
100
AcDbVertex
100
AcDb2dVertex
 10
608.2350523503881
 20
310.5147137087382
 30
0.0
 70
     8
  0
VERTEX
  5
151E
330
1517
100
AcDbEntity
  8
HILF
100
AcDbVertex
100
AcDb2dVertex
 10
608.2819670273762
 20
306.1430553091936
 30
0.0
 70
     8
  0
VERTEX
  5
151F
330
1517
100
AcDbEntity
  8
HILF
100
AcDbVertex
100
AcDb2dVertex
 10
608.7755272952774
 20
302.2605298708262
 30
0.0
 70
     8
  0
VERTEX
  5
1520
330
1517
100
AcDbEntity
  8
HILF
100
AcDbVertex
100
AcDb2dVertex
 10
609.6057484297204
 20
298.7351658586939
 30
0.0
 70
     8
  0
VERTEX
  5
1521
330
1517
100
AcDbEntity
  8
HILF
100
AcDbVertex
100
AcDb2dVertex
 10
610.6626457063339
 20
295.4349917378546
 30
0.0
 70
     8
  0
VERTEX
  5
1522
330
1517
100
AcDbEntity
  8
HILF
100
AcDbVertex
100
AcDb2dVertex
 10
611.8271288131237
 20
292.2304349127275
 30
0.0
 70
     8
  0
VERTEX
  5
1523
330
1517
100
AcDbEntity
  8
HILF
100
AcDbVertex
100
AcDb2dVertex
 10
612.9436850876031
 20
289.0015185451762
 30
0.0
 70
     8
  0
VERTEX
  5
1524
330
1517
100
AcDbEntity
  8
HILF
100
AcDbVertex
100
AcDb2dVertex
 10
613.8476962796621
 20
285.6306647364249
 30
0.0
 70
     8
  0
VERTEX
  5
1525
330
1517
100
AcDbEntity
  8
HILF
100
AcDbVertex
100
AcDb2dVertex
 10
614.3745441391908
 20
282.0002955876981
 30
0.0
 70
     8
  0
VERTEX
  5
1526
330
1517
100
AcDbEntity
  8
HILF
100
AcDbVertex
100
AcDb2dVertex
 10
614.3596104160796
 20
277.9928332002204
 30
0.0
 70
     8
  0
VERTEX
  5
1527
330
1517
100
AcDbEntity
  8
HILF
100
AcDbVertex
100
AcDb2dVertex
 10
613.6382768602185
 20
273.4906996752163
 30
0.0
 70
     8
  0
VERTEX
  5
1528
330
1517
100
AcDbEntity
  8
HILF
100
AcDbVertex
100
AcDb2dVertex
 10
612.0459252214975
 20
268.3763171139101
 30
0.0
 70
     8
  0
VERTEX
  5
1529
330
1517
100
AcDbEntity
  8
HILF
100
AcDbVertex
100
AcDb2dVertex
 10
609.417937249807
 20
262.5321076175263
 30
0.0
 70
     8
  0
VERTEX
  5
152A
330
1517
100
AcDbEntity
  8
HILF
100
AcDbVertex
100
AcDb2dVertex
 10
605.8616273740158
 20
313.6643592020803
 30
0.0
 70
    16
  0
VERTEX
  5
152B
330
1517
100
AcDbEntity
  8
HILF
100
AcDbVertex
100
AcDb2dVertex
 10
609.417937249807
 20
294.4406626034423
 30
0.0
 70
    16
  0
VERTEX
  5
152C
330
1517
100
AcDbEntity
  8
HILF
100
AcDbVertex
100
AcDb2dVertex
 10
617.9530809517057
 20
279.1942825424535
 30
0.0
 70
    16
  0
VERTEX
  5
152D
330
1517
100
AcDbEntity
  8
HILF
100
AcDbVertex
100
AcDb2dVertex
 10
609.417937249807
 20
262.5321076175263
 30
0.0
 70
    16
  0
SEQEND
  5
152E
330
1517
100
AcDbEntity
  8
HILF
  0
POLYLINE
  5
152F
330
1E
100
AcDbEntity
  8
HILF
100
AcDb2dPolyline
 66
     1
 10
0.0
 20
0.0
 30
0.0
 70
     4
 75
     6
  0
VERTEX
  5
1530
330
152F
100
AcDbEntity
  8
HILF
100
AcDbVertex
100
AcDb2dVertex
 10
611.7135440389882
 20
335.5321076175263
 30
0.0
 70
    16
  0
VERTEX
  5
1531
330
152F
100
AcDbEntity
  8
HILF
100
AcDbVertex
100
AcDb2dVertex
 10
611.7135440389882
 20
335.5321076175263
 30
0.0
 70
     8
  0
VERTEX
  5
1532
330
152F
100
AcDbEntity
  8
HILF
100
AcDbVertex
100
AcDb2dVertex
 10
608.8740291086128
 20
327.8842020238538
 30
0.0
 70
     8
  0
VERTEX
  5
1533
330
152F
100
AcDbEntity
  8
HILF
100
AcDbVertex
100
AcDb2dVertex
 10
606.9210986666351
 20
321.2533155311263
 30
0.0
 70
     8
  0
VERTEX
  5
1534
330
152F
100
AcDbEntity
  8
HILF
100
AcDbVertex
100
AcDb2dVertex
 10
605.7447679886839
 20
315.5074766044017
 30
0.0
 70
     8
  0
VERTEX
  5
1535
330
152F
100
AcDbEntity
  8
HILF
100
AcDbVertex
100
AcDb2dVertex
 10
605.235052350388
 20
310.5147137087382
 30
0.0
 70
     8
  0
VERTEX
  5
1536
330
152F
100
AcDbEntity
  8
HILF
100
AcDbVertex
100
AcDb2dVertex
 10
605.2819670273763
 20
306.1430553091936
 30
0.0
 70
     8
  0
VERTEX
  5
1537
330
152F
100
AcDbEntity
  8
HILF
100
AcDbVertex
100
AcDb2dVertex
 10
605.7755272952775
 20
302.2605298708262
 30
0.0
 70
     8
  0
VERTEX
  5
1538
330
152F
100
AcDbEntity
  8
HILF
100
AcDbVertex
100
AcDb2dVertex
 10
606.6057484297203
 20
298.7351658586939
 30
0.0
 70
     8
  0
VERTEX
  5
1539
330
152F
100
AcDbEntity
  8
HILF
100
AcDbVertex
100
AcDb2dVertex
 10
607.6626457063339
 20
295.4349917378546
 30
0.0
 70
     8
  0
VERTEX
  5
153A
330
152F
100
AcDbEntity
  8
HILF
100
AcDbVertex
100
AcDb2dVertex
 10
608.8271288131237
 20
292.2304349127275
 30
0.0
 70
     8
  0
VERTEX
  5
153B
330
152F
100
AcDbEntity
  8
HILF
100
AcDbVertex
100
AcDb2dVertex
 10
609.943685087603
 20
289.0015185451762
 30
0.0
 70
     8
  0
VERTEX
  5
153C
330
152F
100
AcDbEntity
  8
HILF
100
AcDbVertex
100
AcDb2dVertex
 10
610.8476962796621
 20
285.6306647364249
 30
0.0
 70
     8
  0
VERTEX
  5
153D
330
152F
100
AcDbEntity
  8
HILF
100
AcDbVertex
100
AcDb2dVertex
 10
611.3745441391909
 20
282.0002955876981
 30
0.0
 70
     8
  0
VERTEX
  5
153E
330
152F
100
AcDbEntity
  8
HILF
100
AcDbVertex
100
AcDb2dVertex
 10
611.3596104160797
 20
277.9928332002204
 30
0.0
 70
     8
  0
VERTEX
  5
153F
330
152F
100
AcDbEntity
  8
HILF
100
AcDbVertex
100
AcDb2dVertex
 10
610.6382768602185
 20
273.4906996752163
 30
0.0
 70
     8
  0
VERTEX
  5
1540
330
152F
100
AcDbEntity
  8
HILF
100
AcDbVertex
100
AcDb2dVertex
 10
609.0459252214976
 20
268.3763171139101
 30
0.0
 70
     8
  0
VERTEX
  5
1541
330
152F
100
AcDbEntity
  8
HILF
100
AcDbVertex
100
AcDb2dVertex
 10
606.4179372498069
 20
262.5321076175263
 30
0.0
 70
     8
  0
VERTEX
  5
1542
330
152F
100
AcDbEntity
  8
HILF
100
AcDbVertex
100
AcDb2dVertex
 10
602.8616273740158
 20
313.6643592020803
 30
0.0
 70
    16
  0
VERTEX
  5
1543
330
152F
100
AcDbEntity
  8
HILF
100
AcDbVertex
100
AcDb2dVertex
 10
606.4179372498069
 20
294.4406626034423
 30
0.0
 70
    16
  0
VERTEX
  5
1544
330
152F
100
AcDbEntity
  8
HILF
100
AcDbVertex
100
AcDb2dVertex
 10
614.9530809517057
 20
279.1942825424535
 30
0.0
 70
    16
  0
VERTEX
  5
1545
330
152F
100
AcDbEntity
  8
HILF
100
AcDbVertex
100
AcDb2dVertex
 10
606.4179372498069
 20
262.5321076175263
 30
0.0
 70
    16
  0
SEQEND
  5
1546
330
152F
100
AcDbEntity
  8
HILF
  0
LINE
  5
1547
330
1E
100
AcDbEntity
  8
STEMPEL
  6
Continuous
100
AcDbLine
 10
611.7135440389882
 20
335.5321076175266
 30
0.0
 11
433.9450237351892
 21
335.5321076175265
 31
0.0
  0
LINE
  5
1548
330
1E
100
AcDbEntity
  8
STEMPEL
  6
Continuous
100
AcDbLine
 10
606.417937249807
 20
262.5321076175266
 30
0.0
 11
433.9450237351891
 21
262.5321076175266
 31
0.0
  0
LINE
  5
1549
330
1E
100
AcDbEntity
  8
STEMPEL
  6
Continuous
100
AcDbLine
 10
611.713544038988
 20
464.3440296557349
 30
0.0
 11
454.6819555632356
 21
464.344029655735
 31
0.0
  0
LINE
  5
154A
330
1E
100
AcDbEntity
  8
STEMPEL
  6
Continuous
100
AcDbLine
 10
606.417937249807
 20
391.344029655735
 30
0.0
 11
326.979653067001
 21
391.344029655735
 31
0.0
  0
TEXT
  5
1556
330
1E
100
AcDbEntity
  8
TEXT
 62
     1
100
AcDbText
 10
712.9448129060656
 20
313.4468439209113
 30
0.0
 40
7.0
  1
DN70
 41
0.75
  7
GREEKS
100
AcDbText
  0
ENDSEC
  0
SECTION
  2
OBJECTS
  0
DICTIONARY
  5
C
330
0
100
AcDbDictionary
281
     1
  3
ACAD_COLOR
350
11A
  3
ACAD_GROUP
350
D
  3
ACAD_LAYOUT
350
19
  3
ACAD_MATERIAL
350
119
  3
ACAD_MLINESTYLE
350
16
  3
ACAD_PLOTSETTINGS
350
18
  3
ACAD_PLOTSTYLENAME
350
E
  3
AcDbVariableDictionary
350
125
  0
DICTIONARY
  5
DB
330
1E
100
AcDbDictionary
280
     1
281
     1
  3
ACAD_LAYOUTSELFREF
360
10F
  0
DICTIONARY
  5
DD
330
1A
100
AcDbDictionary
280
     1
281
     1
  3
ACAD_LAYOUTSELFREF
360
10E
  0
DICTIONARY
  5
11A
102
{ACAD_REACTORS
330
C
102
}
330
C
100
AcDbDictionary
281
     1
  0
DICTIONARY
  5
D
102
{ACAD_REACTORS
330
C
102
}
330
C
100
AcDbDictionary
281
     1
  0
DICTIONARY
  5
19
102
{ACAD_REACTORS
330
C
102
}
330
C
100
AcDbDictionary
281
     1
  3
Layout1
350
1D
  3
Model
350
21
  0
DICTIONARY
  5
119
102
{ACAD_REACTORS
330
C
102
}
330
C
100
AcDbDictionary
281
     1
  0
DICTIONARY
  5
16
102
{ACAD_REACTORS
330
C
102
}
330
C
100
AcDbDictionary
281
     1
  3
Standard
350
17
  0
DICTIONARY
  5
18
102
{ACAD_REACTORS
330
C
102
}
330
C
100
AcDbDictionary
281
     1
  0
ACDBDICTIONARYWDFLT
  5
E
102
{ACAD_REACTORS
330
C
102
}
330
C
100
AcDbDictionary
281
     1
  3
Normal
350
F
100
AcDbDictionaryWithDefault
340
F
  0
DICTIONARY
  5
125
102
{ACAD_REACTORS
330
C
102
}
330
C
100
AcDbDictionary
281
     1
  3
DIMASSOC
350
126
  3
PROJECTNAME
350
127
  0
XRECORD
  5
10F
102
{ACAD_REACTORS
330
DB
102
}
330
DB
100
AcDbXrecord
280
     1
340
1E
  0
XRECORD
  5
10E
102
{ACAD_REACTORS
330
DD
102
}
330
DD
100
AcDbXrecord
280
     1
340
1A
  0
LAYOUT
  5
1D
102
{ACAD_REACTORS
330
19
102
}
330
19
100
AcDbPlotSettings
  1

  2
\\NT_WORK01\HP LaserJet 5000 PCL 6
  4

  6

 40
0.0
 41
0.0
 42
0.0
 43
0.0
 44
0.0
 45
0.0
 46
0.0
 47
0.0
 48
0.0
 49
0.0
140
0.0
141
0.0
142
1.0
143
1.0
 70
   688
 72
     0
 73
     0
 74
     5
  7

 75
    16
147
1.0
 76
     0
 77
     2
 78
   300
148
0.0
149
0.0
100
AcDbLayout
  1
Layout1
 70
     0
 71
     1
 10
0.0
 20
0.0
 11
12.0
 21
9.0
 12
0.0
 22
0.0
 32
0.0
 14
1.000000000000000E+20
 24
1.000000000000000E+20
 34
1.000000000000000E+20
 15
-1.000000000000000E+20
 25
-1.000000000000000E+20
 35
-1.000000000000000E+20
146
0.0
 13
0.0
 23
0.0
 33
0.0
 16
1.0
 26
0.0
 36
0.0
 17
0.0
 27
1.0
 37
0.0
 76
     0
330
1A
  0
LAYOUT
  5
21
102
{ACAD_REACTORS
330
19
102
}
330
19
100
AcDbPlotSettings
  1

  2
none_device
  4
Letter_(8.50_x_11.00_Inches)
  6

 40
6.349999904632568
 41
6.349999904632568
 42
6.350006103515625
 43
6.350006103515625
 44
215.8999938964844
 45
279.3999938964844
 46
0.0
 47
0.0
 48
0.0
 49
0.0
140
0.0
141
0.0
142
1.0
143
1.0
 70
 11952
 72
     0
 73
     1
 74
     0
  7

 75
     0
147
1.0
 76
     0
 77
     2
 78
   300
148
-2640.065188656508
149
484.1348549907438
100
AcDbLayout
  1
Model
 70
     1
 71
     0
 10
0.0
 20
0.0
 11
12.0
 21
9.0
 12
0.0
 22
0.0
 32
0.0
 14
0.0
 24
0.0
 34
0.0
 15
0.0
 25
0.0
 35
0.0
146
0.0
 13
0.0
 23
0.0
 33
0.0
 16
1.0
 26
0.0
 36
0.0
 17
0.0
 27
1.0
 37
0.0
 76
     0
330
1E
  0
MLINESTYLE
  5
17
102
{ACAD_REACTORS
330
16
102
}
330
16
100
AcDbMlineStyle
  2
STANDARD
 70
     0
  3

 62
   256
 51
90.0
 52
90.0
 71
     2
 49
0.5
 62
   256
  6
BYLAYER
 49
-0.5
 62
   256
  6
BYLAYER
  0
ACDBPLACEHOLDER
  5
F
102
{ACAD_REACTORS
330
E
102
}
330
E
  0
DICTIONARYVAR
  5
126
102
{ACAD_REACTORS
330
125
102
}
330
125
100
DictionaryVariables
280
     0
  1
1
  0
DICTIONARYVAR
  5
127
102
{ACAD_REACTORS
330
125
102
}
330
125
100
DictionaryVariables
280
     0
  1

  0
ENDSEC
  0
EOF
