  0
SECTION
  2
HEADER
  9
$ACADVER
  1
AC1018
  9
$ACADMAINTVER
 70
     2
  9
$DWGCODEPAGE
  3
ANSI_1252
  9
$INSBASE
 10
0.0
 20
0.0
 30
0.0
  9
$EXTMIN
 10
-0.0512544705395612
 20
-0.036244232738909
 30
-0.000000000000013
  9
$EXTMAX
 10
840.0512808751781
 20
594.0362629045893
 30
0.0000000000000023
  9
$LIMMIN
 10
0.0
 20
0.0
  9
$LIMMAX
 10
840.0000000000002
 20
593.9999999999998
  9
$ORTHOMODE
 70
     1
  9
$REGENMODE
 70
     1
  9
$FILLMODE
 70
     1
  9
$QTEXTMODE
 70
     0
  9
$MIRRTEXT
 70
     1
  9
$LTSCALE
 40
20.0
  9
$ATTMODE
 70
     1
  9
$TEXTSIZE
 40
3.5
  9
$TRACEWID
 40
1.0
  9
$TEXTSTYLE
  7
STANDARD
  9
$CLAYER
  8
STEMPEL
  9
$CELTYPE
  6
ByLayer
  9
$CECOLOR
 62
   256
  9
$CELTSCALE
 40
1.0
  9
$DISPSILH
 70
     0
  9
$DIMSCALE
 40
2.0
  9
$DIMASZ
 40
3.5
  9
$DIMEXO
 40
1.0
  9
$DIMDLI
 40
7.0
  9
$DIMRND
 40
0.0
  9
$DIMDLE
 40
0.0
  9
$DIMEXE
 40
1.0
  9
$DIMTP
 40
0.0
  9
$DIMTM
 40
0.0
  9
$DIMTXT
 40
3.5
  9
$DIMCEN
 40
1.5
  9
$DIMTSZ
 40
0.0
  9
$DIMTOL
 70
     0
  9
$DIMLIM
 70
     0
  9
$DIMTIH
 70
     0
  9
$DIMTOH
 70
     0
  9
$DIMSE1
 70
     0
  9
$DIMSE2
 70
     0
  9
$DIMTAD
 70
     1
  9
$DIMZIN
 70
     8
  9
$DIMBLK
  1

  9
$DIMASO
 70
     1
  9
$DIMSHO
 70
     0
  9
$DIMPOST
  1

  9
$DIMAPOST
  1

  9
$DIMALT
 70
     0
  9
$DIMALTD
 70
     2
  9
$DIMALTF
 40
25.4
  9
$DIMLFAC
 40
1.0
  9
$DIMTOFL
 70
     1
  9
$DIMTVP
 40
0.0
  9
$DIMTIX
 70
     0
  9
$DIMSOXD
 70
     0
  9
$DIMSAH
 70
     0
  9
$DIMBLK1
  1

  9
$DIMBLK2
  1

  9
$DIMSTYLE
  2
Standard
  9
$DIMCLRD
 70
     0
  9
$DIMCLRE
 70
     0
  9
$DIMCLRT
 70
     1
  9
$DIMTFAC
 40
0.5142857142857144
  9
$DIMGAP
 40
1.5
  9
$DIMJUST
 70
     0
  9
$DIMSD1
 70
     0
  9
$DIMSD2
 70
     0
  9
$DIMTOLJ
 70
     1
  9
$DIMTZIN
 70
     8
  9
$DIMALTZ
 70
     8
  9
$DIMALTTZ
 70
     8
  9
$DIMUPT
 70
     0
  9
$DIMDEC
 70
     2
  9
$DIMTDEC
 70
     2
  9
$DIMALTU
 70
     2
  9
$DIMALTTD
 70
     2
  9
$DIMTXSTY
  7
STANDARD
  9
$DIMAUNIT
 70
     0
  9
$DIMADEC
 70
     2
  9
$DIMALTRND
 40
0.0
  9
$DIMAZIN
 70
     2
  9
$DIMDSEP
 70
    46
  9
$DIMATFIT
 70
     3
  9
$DIMFRAC
 70
     0
  9
$DIMLDRBLK
  1

  9
$DIMLUNIT
 70
     2
  9
$DIMLWD
 70
    -2
  9
$DIMLWE
 70
    -2
  9
$DIMTMOVE
 70
     0
  9
$LUNITS
 70
     2
  9
$LUPREC
 70
     2
  9
$SKETCHINC
 40
1.0
  9
$FILLETRAD
 40
0.0
  9
$AUNITS
 70
     0
  9
$AUPREC
 70
     0
  9
$MENU
  1
ACAD
  9
$ELEVATION
 40
0.0
  9
$PELEVATION
 40
0.0
  9
$THICKNESS
 40
0.0
  9
$LIMCHECK
 70
     0
  9
$CHAMFERA
 40
0.0
  9
$CHAMFERB
 40
0.0
  9
$CHAMFERC
 40
0.0
  9
$CHAMFERD
 40
0.0
  9
$SKPOLY
 70
     0
  9
$TDCREATE
 40
2455397.867059838
  9
$TDUCREATE
 40
2455397.783726505
  9
$TDUPDATE
 40
2455455.363585047
  9
$TDUUPDATE
 40
2455455.280251713
  9
$TDINDWG
 40
0.1608233102
  9
$TDUSRTIMER
 40
0.1608233102
  9
$USRTIMER
 70
     1
  9
$ANGBASE
 50
0.0
  9
$ANGDIR
 70
     0
  9
$PDMODE
 70
     0
  9
$PDSIZE
 40
0.0
  9
$PLINEWID
 40
0.0
  9
$SPLFRAME
 70
     0
  9
$SPLINETYPE
 70
     6
  9
$SPLINESEGS
 70
     8
  9
$HANDSEED
  5
1AC2
  9
$SURFTAB1
 70
     6
  9
$SURFTAB2
 70
     6
  9
$SURFTYPE
 70
     6
  9
$SURFU
 70
     6
  9
$SURFV
 70
     6
  9
$UCSBASE
  2

  9
$UCSNAME
  2

  9
$UCSORG
 10
0.0
 20
0.0
 30
0.0
  9
$UCSXDIR
 10
1.0
 20
0.0
 30
0.0
  9
$UCSYDIR
 10
0.0
 20
1.0
 30
0.0
  9
$UCSORTHOREF
  2

  9
$UCSORTHOVIEW
 70
     0
  9
$UCSORGTOP
 10
0.0
 20
0.0
 30
0.0
  9
$UCSORGBOTTOM
 10
0.0
 20
0.0
 30
0.0
  9
$UCSORGLEFT
 10
0.0
 20
0.0
 30
0.0
  9
$UCSORGRIGHT
 10
0.0
 20
0.0
 30
0.0
  9
$UCSORGFRONT
 10
0.0
 20
0.0
 30
0.0
  9
$UCSORGBACK
 10
0.0
 20
0.0
 30
0.0
  9
$PUCSBASE
  2

  9
$PUCSNAME
  2

  9
$PUCSORG
 10
0.0
 20
0.0
 30
0.0
  9
$PUCSXDIR
 10
1.0
 20
0.0
 30
0.0
  9
$PUCSYDIR
 10
0.0
 20
1.0
 30
0.0
  9
$PUCSORTHOREF
  2

  9
$PUCSORTHOVIEW
 70
     0
  9
$PUCSORGTOP
 10
0.0
 20
0.0
 30
0.0
  9
$PUCSORGBOTTOM
 10
0.0
 20
0.0
 30
0.0
  9
$PUCSORGLEFT
 10
0.0
 20
0.0
 30
0.0
  9
$PUCSORGRIGHT
 10
0.0
 20
0.0
 30
0.0
  9
$PUCSORGFRONT
 10
0.0
 20
0.0
 30
0.0
  9
$PUCSORGBACK
 10
0.0
 20
0.0
 30
0.0
  9
$USERI1
 70
     0
  9
$USERI2
 70
     0
  9
$USERI3
 70
     0
  9
$USERI4
 70
     0
  9
$USERI5
 70
     0
  9
$USERR1
 40
0.0
  9
$USERR2
 40
0.0
  9
$USERR3
 40
0.0
  9
$USERR4
 40
0.0
  9
$USERR5
 40
0.0
  9
$WORLDVIEW
 70
     1
  9
$SHADEDGE
 70
     3
  9
$SHADEDIF
 70
    70
  9
$TILEMODE
 70
     1
  9
$MAXACTVP
 70
    16
  9
$PINSBASE
 10
0.0
 20
0.0
 30
0.0
  9
$PLIMCHECK
 70
     0
  9
$PEXTMIN
 10
1.000000000000000E+20
 20
1.000000000000000E+20
 30
1.000000000000000E+20
  9
$PEXTMAX
 10
-1.000000000000000E+20
 20
-1.000000000000000E+20
 30
-1.000000000000000E+20
  9
$PLIMMIN
 10
0.0
 20
0.0
  9
$PLIMMAX
 10
12.0
 20
9.0
  9
$UNITMODE
 70
     0
  9
$VISRETAIN
 70
     0
  9
$PLINEGEN
 70
     0
  9
$PSLTSCALE
 70
     0
  9
$TREEDEPTH
 70
  3020
  9
$CMLSTYLE
  2
Standard
  9
$CMLJUST
 70
     0
  9
$CMLSCALE
 40
1.0
  9
$PROXYGRAPHICS
 70
     1
  9
$MEASUREMENT
 70
     0
  9
$CELWEIGHT
370
    -1
  9
$ENDCAPS
280
     0
  9
$JOINSTYLE
280
     0
  9
$LWDISPLAY
290
     0
  9
$INSUNITS
 70
     0
  9
$HYPERLINKBASE
  1

  9
$STYLESHEET
  1
monochrome 1.ctb
  9
$XEDIT
290
     1
  9
$CEPSNTYPE
380
     0
  9
$PSTYLEMODE
290
     1
  9
$FINGERPRINTGUID
  2
{D68B0D0D-A558-11D7-B632-000102183313}
  9
$VERSIONGUID
  2
{894C0320-EE72-4FFB-A830-BA783E71D778}
  9
$EXTNAMES
290
     1
  9
$PSVPSCALE
 40
0.0
  9
$OLESTARTUP
290
     0
  9
$SORTENTS
280
   127
  9
$INDEXCTL
280
     0
  9
$HIDETEXT
280
     0
  9
$XCLIPFRAME
290
     0
  9
$HALOGAP
280
     0
  9
$OBSCOLOR
 70
   257
  9
$OBSLTYPE
280
     0
  9
$INTERSECTIONDISPLAY
280
     0
  9
$INTERSECTIONCOLOR
 70
   257
  9
$DIMASSOC
280
     1
  9
$PROJECTNAME
  1

  0
ENDSEC
  0
SECTION
  2
CLASSES
  0
CLASS
  1
ACDBDICTIONARYWDFLT
  2
AcDbDictionaryWithDefault
  3
ObjectDBX Classes
 90
        0
 91
        1
280
     0
281
     0
  0
CLASS
  1
DICTIONARYVAR
  2
AcDbDictionaryVar
  3
ObjectDBX Classes
 90
        0
 91
        2
280
     0
281
     0
  0
ENDSEC
  0
SECTION
  2
TABLES
  0
TABLE
  2
VPORT
  5
8
330
0
100
AcDbSymbolTable
 70
     2
  0
VPORT
  5
1AC1
330
8
100
AcDbSymbolTableRecord
100
AcDbViewportTableRecord
  2
*Active
 70
     0
 10
0.0
 20
0.0
 11
1.0
 21
1.0
 12
420.0000132023192
 22
297.0000093359253
 13
0.0
 23
0.0
 14
1.0
 24
1.0
 15
10.0
 25
10.0
 16
0.0
 26
0.0
 36
1.0
 17
0.0
 27
0.0
 37
0.0
 40
632.178735562927
 41
1.336927223719676
 42
50.0
 43
0.0
 44
0.0
 50
0.0
 51
0.0
 71
     0
 72
  1500
 73
     1
 74
     0
 75
     0
 76
     0
 77
     0
 78
     0
281
     0
 65
     1
110
0.0
120
0.0
130
0.0
111
1.0
121
0.0
131
0.0
112
0.0
122
1.0
132
0.0
 79
     0
146
0.0
  0
ENDTAB
  0
TABLE
  2
LTYPE
  5
5
330
0
100
AcDbSymbolTable
 70
     2
  0
LTYPE
  5
13
330
5
100
AcDbSymbolTableRecord
100
AcDbLinetypeTableRecord
  2
ByBlock
 70
     0
  3

 72
    65
 73
     0
 40
0.0
  0
LTYPE
  5
14
330
5
100
AcDbSymbolTableRecord
100
AcDbLinetypeTableRecord
  2
ByLayer
 70
     0
  3

 72
    65
 73
     0
 40
0.0
  0
LTYPE
  5
15
330
5
100
AcDbSymbolTableRecord
100
AcDbLinetypeTableRecord
  2
Continuous
 70
     0
  3
Solid line
 72
    65
 73
     0
 40
0.0
  0
LTYPE
  5
25
330
5
100
AcDbSymbolTableRecord
100
AcDbLinetypeTableRecord
  2
STRICHPUNKT
 70
     0
  3
__ . __ . __ . __ . __ . __ . __ . __ . __ . __
 72
    65
 73
     4
 40
1.0
 49
0.5
 74
     0
 49
-0.25
 74
     0
 49
0.0
 74
     0
 49
-0.25
 74
     0
  0
ENDTAB
  0
TABLE
  2
LAYER
  5
2
330
0
100
AcDbSymbolTable
 70
     9
  0
LAYER
  5
10
330
2
100
AcDbSymbolTableRecord
100
AcDbLayerTableRecord
  2
0
 70
     0
 62
     7
  6
Continuous
370
    -3
390
F
  0
LAYER
  5
2B
330
2
100
AcDbSymbolTableRecord
100
AcDbLayerTableRecord
  2
VOLL
 70
     0
 62
     1
  6
Continuous
370
    -3
390
F
  0
LAYER
  5
2C
330
2
100
AcDbSymbolTableRecord
100
AcDbLayerTableRecord
  2
HILF
 70
     0
 62
     2
  6
Continuous
370
    -3
390
F
  0
LAYER
  5
2D
330
2
100
AcDbSymbolTableRecord
100
AcDbLayerTableRecord
  2
MITTEL
 70
     0
 62
     2
  6
STRICHPUNKT
370
    -3
390
F
  0
LAYER
  5
2F
330
2
100
AcDbSymbolTableRecord
100
AcDbLayerTableRecord
  2
BEM
 70
     0
 62
     7
  6
Continuous
370
    -3
390
F
  0
LAYER
  5
30
330
2
100
AcDbSymbolTableRecord
100
AcDbLayerTableRecord
  2
STEMPEL
 70
     0
 62
     3
  6
Continuous
370
    -3
390
F
  0
LAYER
  5
33
330
2
100
AcDbSymbolTableRecord
100
AcDbLayerTableRecord
  2
TEXT
 70
     0
 62
     7
  6
Continuous
370
    -3
390
F
  0
LAYER
  5
239
330
2
100
AcDbSymbolTableRecord
100
AcDbLayerTableRecord
  2
SCHRAFF
 70
     0
 62
     7
  6
Continuous
370
    -3
390
F
  0
LAYER
  5
23A
330
2
100
AcDbSymbolTableRecord
100
AcDbLayerTableRecord
  2
DEFPOINTS
 70
     0
 62
     7
  6
Continuous
290
     0
370
    -3
390
F
  0
ENDTAB
  0
TABLE
  2
STYLE
  5
3
330
0
100
AcDbSymbolTable
 70
     2
  0
STYLE
  5
11
330
3
100
AcDbSymbolTableRecord
100
AcDbTextStyleTableRecord
  2
STANDARD
 70
     0
 40
0.0
 41
0.8
 50
0.0
 71
     0
 42
3.5
  3
simplex.shx
  4

  0
STYLE
  5
24
330
3
100
AcDbSymbolTableRecord
100
AcDbTextStyleTableRecord
  2
GREEKS
 70
     0
 40
0.0
 41
0.8
 50
0.0
 71
     0
 42
2.5
  3
SIMPLEX.shx
  4

  0
ENDTAB
  0
TABLE
  2
VIEW
  5
6
330
0
100
AcDbSymbolTable
 70
     0
  0
ENDTAB
  0
TABLE
  2
UCS
  5
7
330
0
100
AcDbSymbolTable
 70
     0
  0
ENDTAB
  0
TABLE
  2
APPID
  5
9
330
0
100
AcDbSymbolTable
 70
     1
  0
APPID
  5
12
330
9
100
AcDbSymbolTableRecord
100
AcDbRegAppTableRecord
  2
ACAD
 70
     0
  0
ENDTAB
  0
TABLE
  2
DIMSTYLE
  5
A
330
0
100
AcDbSymbolTable
 70
     1
100
AcDbDimStyleTable
 71
     1
340
A2
  0
DIMSTYLE
105
A2
102
{ACAD_REACTORS
330
1417
330
1410
330
140F
330
12E7
102
}
330
A
100
AcDbSymbolTableRecord
100
AcDbDimStyleTableRecord
  2
Standard
 70
     0
340
11
  0
ENDTAB
  0
TABLE
  2
BLOCK_RECORD
  5
1
330
0
100
AcDbSymbolTable
 70
     6
  0
BLOCK_RECORD
  5
1E
102
{ACAD_XDICTIONARY
360
DB
102
}
330
1
100
AcDbSymbolTableRecord
100
AcDbBlockTableRecord
  2
*Model_Space
340
21
  0
BLOCK_RECORD
  5
1A
102
{ACAD_XDICTIONARY
360
DD
102
}
330
1
100
AcDbSymbolTableRecord
100
AcDbBlockTableRecord
  2
*Paper_Space
340
1D
  0
BLOCK_RECORD
  5
22
330
1
100
AcDbSymbolTableRecord
100
AcDbBlockTableRecord
  2
LOGO
340
0
102
{BLKREFS
331
56
102
}
  0
BLOCK_RECORD
  5
23
330
1
100
AcDbSymbolTableRecord
100
AcDbBlockTableRecord
  2
LORO
340
0
102
{BLKREFS
331
9B
102
}
  0
BLOCK_RECORD
  5
1418
330
1
100
AcDbSymbolTableRecord
100
AcDbBlockTableRecord
  2
*D2
340
0
  0
BLOCK_RECORD
  5
1425
330
1
100
AcDbSymbolTableRecord
100
AcDbBlockTableRecord
  2
*D3
340
0
  0
BLOCK_RECORD
  5
1432
330
1
100
AcDbSymbolTableRecord
100
AcDbBlockTableRecord
  2
*D4
340
0
  0
BLOCK_RECORD
  5
143F
330
1
100
AcDbSymbolTableRecord
100
AcDbBlockTableRecord
  2
*D5
340
0
  0
ENDTAB
  0
ENDSEC
  0
SECTION
  2
BLOCKS
  0
BLOCK
  5
37
330
1E
100
AcDbEntity
  8
0
100
AcDbBlockBegin
  2
*Model_Space
 70
     0
 10
0.0
 20
0.0
 30
0.0
  3
*Model_Space
  1

  0
ENDBLK
  5
38
330
1E
100
AcDbEntity
  8
0
100
AcDbBlockEnd
  0
BLOCK
  5
35
330
1A
100
AcDbEntity
 67
     1
  8
0
100
AcDbBlockBegin
  2
*Paper_Space
 70
     0
 10
0.0
 20
0.0
 30
0.0
  3
*Paper_Space
  1

  0
ENDBLK
  5
36
330
1A
100
AcDbEntity
 67
     1
  8
0
100
AcDbBlockEnd
  0
BLOCK
  5
39
330
22
100
AcDbEntity
  8
0
100
AcDbBlockBegin
  2
LOGO
 70
     0
 10
0.0
 20
0.0
 30
0.0
  3
LOGO
  1

  0
ARC
  5
3A
330
22
100
AcDbEntity
  8
0
100
AcDbCircle
 10
11.59973089678112
 20
-9.271599258481501
 30
0.0
 40
4.5
100
AcDbArc
 50
270.0
 51
231.0575587310159
  0
LINE
  5
3B
330
22
100
AcDbEntity
  8
0
100
AcDbLine
 10
3.599730896781125
 20
-4.771599258481529
 30
0.0
 11
3.599730896781153
 21
-11.77159925848133
 31
0.0
  0
LINE
  5
3C
330
22
100
AcDbEntity
  8
0
100
AcDbLine
 10
2.599730896781125
 20
-4.771599258481529
 30
0.0
 11
2.599730896781153
 21
-11.77159925848133
 31
0.0
  0
CIRCLE
  5
3D
330
22
100
AcDbEntity
  8
0
100
AcDbCircle
 10
11.59973089678112
 20
-9.271599258481501
 30
0.0
 40
3.5
  0
ARC
  5
3E
330
22
100
AcDbEntity
  8
0
100
AcDbCircle
 10
31.59973089678115
 20
-9.271599258481472
 30
0.0
 40
4.5
100
AcDbArc
 50
270.0
 51
231.0575587310182
  0
LINE
  5
3F
330
22
100
AcDbEntity
  8
0
100
AcDbLine
 10
17.59973089678112
 20
-4.771599258481472
 30
0.0
 11
17.59973089678115
 21
-13.77159925848147
 31
0.0
  0
ARC
  5
40
330
22
100
AcDbEntity
  8
0
100
AcDbCircle
 10
22.59973089678116
 20
-7.271599258481472
 30
0.0
 40
2.5
100
AcDbArc
 50
293.1161887722295
 51
90.0
  0
CIRCLE
  5
41
330
22
100
AcDbEntity
  8
0
100
AcDbCircle
 10
31.59973089678115
 20
-9.271599258481472
 30
0.0
 40
3.5
  0
ARC
  5
42
330
22
100
AcDbEntity
  8
0
100
AcDbCircle
 10
4.599730896781153
 20
-11.77159925848133
 30
0.0
 40
1.0
100
AcDbArc
 50
180.0
 51
270.0
  0
ARC
  5
43
330
22
100
AcDbEntity
  8
0
100
AcDbCircle
 10
4.599730896781153
 20
-11.77159925848133
 30
0.0
 40
2.0
100
AcDbArc
 50
179.9999999999992
 51
270.0
  0
LINE
  5
44
330
22
100
AcDbEntity
  8
0
100
AcDbLine
 10
11.59973089678115
 20
-13.77159925848144
 30
0.0
 11
4.599730896781153
 21
-13.77159925848147
 31
0.0
  0
LINE
  5
45
330
22
100
AcDbEntity
  8
0
100
AcDbLine
 10
8.771303772034769
 20
-12.77159925848136
 30
0.0
 11
4.599730896781153
 21
-12.77159925848133
 31
0.0
  0
LINE
  5
46
330
22
100
AcDbEntity
  8
0
100
AcDbLine
 10
31.59973089678115
 20
-13.77159925848147
 30
0.0
 11
23.6715276665056
 21
-13.77159925848144
 31
0.0
  0
LINE
  5
47
330
22
100
AcDbEntity
  8
0
100
AcDbLine
 10
23.56565672307022
 20
-9.51278021337896
 30
0.0
 11
24.4388546544846
 21
-12.77159925848144
 31
0.0
  0
LINE
  5
48
330
22
100
AcDbEntity
  8
0
100
AcDbLine
 10
22.59973089678116
 20
-9.771599258481472
 30
0.0
 11
18.59973089678112
 21
-9.771599258481472
 31
0.0
  0
LINE
  5
49
330
22
100
AcDbEntity
  8
0
100
AcDbLine
 10
18.59973089678115
 20
-13.77159925848144
 30
0.0
 11
17.59973089678115
 21
-13.77159925848144
 31
0.0
  0
LINE
  5
4A
330
22
100
AcDbEntity
  8
0
100
AcDbLine
 10
18.59973089678115
 20
-9.771599258481472
 30
0.0
 11
18.59973089678115
 21
-13.77159925848144
 31
0.0
  0
LINE
  5
4B
330
22
100
AcDbEntity
  8
0
100
AcDbLine
 10
22.59973089678116
 20
-9.771599258481472
 30
0.0
 11
23.67152766650562
 21
-13.77159925848147
 31
0.0
  0
ARC
  5
4C
330
22
100
AcDbEntity
  8
0
100
AcDbCircle
 10
22.59973089678116
 20
-7.271599258481472
 30
0.0
 40
2.5
100
AcDbArc
 50
270.0
 51
270.0000000000007
  0
LINE
  5
4D
330
22
100
AcDbEntity
  8
0
100
AcDbLine
 10
28.77130377203494
 20
-12.77159925848147
 30
0.0
 11
24.43885465448463
 21
-12.77159925848144
 31
0.0
  0
LINE
  5
4E
330
22
100
AcDbEntity
  8
0
100
AcDbLine
 10
3.599730896781125
 20
-4.771599258481472
 30
0.0
 11
2.599730896781125
 21
-4.771599258481472
 31
0.0
  0
LINE
  5
4F
330
22
100
AcDbEntity
  8
0
100
AcDbLine
 10
22.59973089678116
 20
-8.771599258481472
 30
0.0
 11
18.59973089678115
 21
-8.771599258481472
 31
0.0
  0
LINE
  5
50
330
22
100
AcDbEntity
  8
0
100
AcDbLine
 10
22.59973089678116
 20
-5.771599258481472
 30
0.0
 11
18.59973089678115
 21
-5.771599258481472
 31
0.0
  0
LINE
  5
51
330
22
100
AcDbEntity
  8
0
100
AcDbLine
 10
22.59973089678116
 20
-4.771599258481472
 30
0.0
 11
17.59973089678115
 21
-4.771599258481472
 31
0.0
  0
LINE
  5
52
330
22
100
AcDbEntity
  8
0
100
AcDbLine
 10
18.59973089678115
 20
-5.771599258481472
 30
0.0
 11
18.59973089678115
 21
-8.771599258481472
 31
0.0
  0
ARC
  5
53
330
22
100
AcDbEntity
  8
0
100
AcDbCircle
 10
22.59973089678116
 20
-7.271599258481472
 30
0.0
 40
1.5
100
AcDbArc
 50
270.0
 51
90.0
  0
ENDBLK
  5
54
330
22
100
AcDbEntity
  8
0
100
AcDbBlockEnd
  0
BLOCK
  5
55
330
23
100
AcDbEntity
  8
0
100
AcDbBlockBegin
  2
LORO
 70
     0
 10
0.0
 20
0.0
 30
0.0
  3
LORO
  1

  0
INSERT
  5
56
330
23
100
AcDbEntity
  8
STEMPEL
100
AcDbBlockReference
  2
LOGO
 10
-1.748032802467321
 20
3.771489518552062
 30
0.0
  0
ENDBLK
  5
57
330
23
100
AcDbEntity
  8
0
100
AcDbBlockEnd
  0
BLOCK
  5
1423
330
1418
100
AcDbEntity
  8
0
100
AcDbBlockBegin
  2
*D2
 70
     1
 10
0.0
 20
0.0
 30
0.0
  3
*D2
  1

  0
LINE
  5
193D
330
1418
100
AcDbEntity
  8
BEM
 62
     0
370
    -2
100
AcDbLine
 10
797.5819555632357
 20
267.4257544675898
 30
0.0
 11
797.5819555632357
 21
245.1563314088273
 31
0.0
  0
LINE
  5
193E
330
1418
100
AcDbEntity
  8
BEM
 62
     0
370
    -2
100
AcDbLine
 10
707.5819555632357
 20
268.8199649747123
 30
0.0
 11
707.5819555632357
 21
245.1563314088273
 31
0.0
  0
LINE
  5
193F
330
1418
100
AcDbEntity
  8
BEM
 62
     0
370
    -2
100
AcDbLine
 10
790.5819555632357
 20
247.1563314088273
 30
0.0
 11
714.5819555632357
 21
247.1563314088273
 31
0.0
  0
SOLID
  5
1940
330
1418
100
AcDbEntity
  8
BEM
 62
     0
100
AcDbTrace
 10
790.5819555632357
 20
248.322998075494
 30
0.0
 11
790.5819555632357
 21
245.9896647421607
 31
0.0
 12
797.5819555632357
 22
247.1563314088273
 32
0.0
 13
797.5819555632357
 23
247.1563314088273
 33
0.0
  0
SOLID
  5
1941
330
1418
100
AcDbEntity
  8
BEM
 62
     0
100
AcDbTrace
 10
714.5819555632357
 20
248.322998075494
 30
0.0
 11
714.5819555632357
 21
245.9896647421607
 31
0.0
 12
707.5819555632357
 22
247.1563314088273
 32
0.0
 13
707.5819555632357
 23
247.1563314088273
 33
0.0
  0
MTEXT
  5
1942
330
1418
100
AcDbEntity
  8
BEM
 62
     1
100
AcDbMText
 10
752.5819555632357
 20
253.6563314088273
 30
0.0
 40
7.0
 41
0.0
 71
     5
 72
     1
  1
\A1;90
 73
     1
 44
1.0
  0
POINT
  5
1943
330
1418
100
AcDbEntity
  8
DEFPOINTS
 62
     0
100
AcDbPoint
 10
797.5819555632357
 20
269.4257544675898
 30
0.0
  0
POINT
  5
1944
330
1418
100
AcDbEntity
  8
DEFPOINTS
 62
     0
100
AcDbPoint
 10
707.5819555632357
 20
270.8199649747123
 30
0.0
  0
POINT
  5
1945
330
1418
100
AcDbEntity
  8
DEFPOINTS
 62
     0
100
AcDbPoint
 10
707.5819555632357
 20
247.1563314088273
 30
0.0
  0
ENDBLK
  5
1424
330
1418
100
AcDbEntity
  8
0
100
AcDbBlockEnd
  0
BLOCK
  5
1430
330
1425
100
AcDbEntity
  8
0
100
AcDbBlockBegin
  2
*D3
 70
     1
 10
0.0
 20
0.0
 30
0.0
  3
*D3
  1

  0
LINE
  5
15EB
330
1425
100
AcDbEntity
  8
BEM
 62
     0
370
    -2
100
AcDbLine
 10
93.09823420005045
 20
272.5321076175265
 30
0.0
 11
80.15069745304947
 21
272.5321076175265
 31
0.0
  0
LINE
  5
15EC
330
1425
100
AcDbEntity
  8
BEM
 62
     0
370
    -2
100
AcDbLine
 10
93.09823420005045
 20
325.5321076175266
 30
0.0
 11
80.15069745304947
 21
325.5321076175266
 31
0.0
  0
LINE
  5
15ED
330
1425
100
AcDbEntity
  8
BEM
 62
     0
370
    -2
100
AcDbLine
 10
82.15069745304946
 20
279.5321076175265
 30
0.0
 11
82.15069745304948
 21
318.5321076175266
 31
0.0
  0
SOLID
  5
15EE
330
1425
100
AcDbEntity
  8
BEM
 62
     0
100
AcDbTrace
 10
80.98403078638279
 20
279.5321076175265
 30
0.0
 11
83.31736411971613
 21
279.5321076175265
 31
0.0
 12
82.15069745304946
 22
272.5321076175265
 32
0.0
 13
82.15069745304946
 23
272.5321076175265
 33
0.0
  0
SOLID
  5
15EF
330
1425
100
AcDbEntity
  8
BEM
 62
     0
100
AcDbTrace
 10
80.98403078638281
 20
318.5321076175266
 30
0.0
 11
83.31736411971615
 21
318.5321076175266
 31
0.0
 12
82.15069745304948
 22
325.5321076175266
 32
0.0
 13
82.15069745304948
 23
325.5321076175266
 33
0.0
  0
MTEXT
  5
15F0
330
1425
100
AcDbEntity
  8
BEM
 62
     1
100
AcDbMText
 10
75.65069745304942
 20
299.0321076175265
 30
0.0
 40
7.0
 41
0.0
 71
     5
 72
     1
  1
\A1;%%c53
 11
0.0000000000000001
 21
1.0
 31
0.0
 73
     1
 44
1.0
  0
POINT
  5
15F1
330
1425
100
AcDbEntity
  8
DEFPOINTS
 62
     0
100
AcDbPoint
 10
95.09823420005046
 20
272.5321076175265
 30
0.0
  0
POINT
  5
15F2
330
1425
100
AcDbEntity
  8
DEFPOINTS
 62
     0
100
AcDbPoint
 10
95.09823420005046
 20
325.5321076175266
 30
0.0
  0
POINT
  5
15F3
330
1425
100
AcDbEntity
  8
DEFPOINTS
 62
     0
100
AcDbPoint
 10
82.15069745304948
 20
325.5321076175266
 30
0.0
  0
ENDBLK
  5
1431
330
1425
100
AcDbEntity
  8
0
100
AcDbBlockEnd
  0
BLOCK
  5
143D
330
1432
100
AcDbEntity
  8
0
100
AcDbBlockBegin
  2
*D4
 70
     1
 10
0.0
 20
0.0
 30
0.0
  3
*D4
  1

  0
LINE
  5
1934
330
1432
100
AcDbEntity
  8
BEM
 62
     0
370
    -2
100
AcDbLine
 10
95.09823420005046
 20
270.5321076175265
 30
0.0
 11
95.09823420005046
 21
245.1563314088273
 31
0.0
  0
LINE
  5
1935
330
1432
100
AcDbEntity
  8
BEM
 62
     0
370
    -2
100
AcDbLine
 10
417.5819555632357
 20
260.0321076175266
 30
0.0
 11
417.5819555632357
 21
245.1563314088273
 31
0.0
  0
LINE
  5
1936
330
1432
100
AcDbEntity
  8
BEM
 62
     0
370
    -2
100
AcDbLine
 10
102.0982342000504
 20
247.1563314088273
 30
0.0
 11
410.5819555632358
 21
247.1563314088273
 31
0.0
  0
SOLID
  5
1937
330
1432
100
AcDbEntity
  8
BEM
 62
     0
100
AcDbTrace
 10
102.0982342000504
 20
248.322998075494
 30
0.0
 11
102.0982342000504
 21
245.9896647421607
 31
0.0
 12
95.09823420005046
 22
247.1563314088273
 32
0.0
 13
95.09823420005046
 23
247.1563314088273
 33
0.0
  0
SOLID
  5
1938
330
1432
100
AcDbEntity
  8
BEM
 62
     0
100
AcDbTrace
 10
410.5819555632358
 20
248.322998075494
 30
0.0
 11
410.5819555632358
 21
245.9896647421607
 31
0.0
 12
417.5819555632357
 22
247.1563314088273
 32
0.0
 13
417.5819555632357
 23
247.1563314088273
 33
0.0
  0
MTEXT
  5
1939
330
1432
100
AcDbEntity
  8
BEM
 62
     1
100
AcDbMText
 10
256.3400948816432
 20
253.6563314088273
 30
0.0
 40
7.0
 41
0.0
 71
     5
 72
     1
  1
\A1;620
 73
     1
 44
1.0
  0
POINT
  5
193A
330
1432
100
AcDbEntity
  8
DEFPOINTS
 62
     0
100
AcDbPoint
 10
95.09823420005046
 20
272.5321076175265
 30
0.0
  0
POINT
  5
193B
330
1432
100
AcDbEntity
  8
DEFPOINTS
 62
     0
100
AcDbPoint
 10
417.5819555632357
 20
262.0321076175265
 30
0.0
  0
POINT
  5
193C
330
1432
100
AcDbEntity
  8
DEFPOINTS
 62
     0
100
AcDbPoint
 10
417.5819555632357
 20
247.1563314088273
 30
0.0
  0
ENDBLK
  5
143E
330
1432
100
AcDbEntity
  8
0
100
AcDbBlockEnd
  0
BLOCK
  5
144A
330
143F
100
AcDbEntity
  8
0
100
AcDbBlockBegin
  2
*D5
 70
     1
 10
0.0
 20
0.0
 30
0.0
  3
*D5
  1

  0
LINE
  5
192B
330
143F
100
AcDbEntity
  8
BEM
 62
     0
370
    -2
100
AcDbLine
 10
95.09823420005046
 20
270.5321076175265
 30
0.0
 11
95.09823420005046
 21
225.2697487205811
 31
0.0
  0
LINE
  5
192C
330
143F
100
AcDbEntity
  8
BEM
 62
     0
370
    -2
100
AcDbLine
 10
797.5819555632357
 20
267.4257544675898
 30
0.0
 11
797.5819555632357
 21
225.2697487205811
 31
0.0
  0
LINE
  5
192D
330
143F
100
AcDbEntity
  8
BEM
 62
     0
370
    -2
100
AcDbLine
 10
102.0982342000504
 20
227.2697487205811
 30
0.0
 11
790.5819555632357
 21
227.2697487205811
 31
0.0
  0
SOLID
  5
192E
330
143F
100
AcDbEntity
  8
BEM
 62
     0
100
AcDbTrace
 10
102.0982342000504
 20
228.4364153872477
 30
0.0
 11
102.0982342000504
 21
226.1030820539144
 31
0.0
 12
95.09823420005046
 22
227.2697487205811
 32
0.0
 13
95.09823420005046
 23
227.2697487205811
 33
0.0
  0
SOLID
  5
192F
330
143F
100
AcDbEntity
  8
BEM
 62
     0
100
AcDbTrace
 10
790.5819555632357
 20
228.4364153872477
 30
0.0
 11
790.5819555632357
 21
226.1030820539144
 31
0.0
 12
797.5819555632357
 22
227.2697487205811
 32
0.0
 13
797.5819555632357
 23
227.2697487205811
 33
0.0
  0
MTEXT
  5
1930
330
143F
100
AcDbEntity
  8
BEM
 62
     1
100
AcDbMText
 10
446.340094881643
 20
233.7697487205811
 30
0.0
 40
7.0
 41
0.0
 71
     5
 72
     1
  1
\A1;1000
 73
     1
 44
1.0
  0
POINT
  5
1931
330
143F
100
AcDbEntity
  8
DEFPOINTS
 62
     0
100
AcDbPoint
 10
95.09823420005046
 20
272.5321076175265
 30
0.0
  0
POINT
  5
1932
330
143F
100
AcDbEntity
  8
DEFPOINTS
 62
     0
100
AcDbPoint
 10
797.5819555632357
 20
269.4257544675898
 30
0.0
  0
POINT
  5
1933
330
143F
100
AcDbEntity
  8
DEFPOINTS
 62
     0
100
AcDbPoint
 10
797.5819555632357
 20
227.2697487205811
 30
0.0
  0
ENDBLK
  5
144B
330
143F
100
AcDbEntity
  8
0
100
AcDbBlockEnd
  0
ENDSEC
  0
SECTION
  2
ENTITIES
  0
LINE
  5
58
330
1E
100
AcDbEntity
  8
STEMPEL
100
AcDbLine
 10
830.0000000000004
 20
109.9999999999998
 30
0.0
 11
470.0000000000001
 21
109.9999999999999
 31
0.0
  0
LINE
  5
59
330
1E
100
AcDbEntity
  8
STEMPEL
100
AcDbLine
 10
470.0000000000001
 20
109.9999999999999
 30
0.0
 11
470.0000000000001
 21
9.999999999999886
 31
0.0
  0
LINE
  5
5A
330
1E
100
AcDbEntity
  8
STEMPEL
100
AcDbLine
 10
566.0000000000003
 20
109.9999999999997
 30
0.0
 11
566.0000000000001
 21
9.999999999999772
 31
0.0
  0
LINE
  5
5B
330
1E
100
AcDbEntity
  8
STEMPEL
100
AcDbLine
 10
650.0
 20
109.9999999999999
 30
0.0
 11
650.0
 21
9.999999999999886
 31
0.0
  0
LINE
  5
5C
330
1E
100
AcDbEntity
  8
STEMPEL
100
AcDbLine
 10
752.0000000000003
 20
109.9999999999995
 30
0.0
 11
752.0000000000003
 21
39.99999999999989
 31
0.0
  0
LINE
  5
5D
330
1E
100
AcDbEntity
  8
STEMPEL
100
AcDbLine
 10
566.0000000000001
 20
29.99999999999989
 30
0.0
 11
470.0000000000001
 21
29.99999999999989
 31
0.0
  0
LINE
  5
5E
330
1E
100
AcDbEntity
  8
STEMPEL
100
AcDbLine
 10
830.0000000000004
 20
39.99999999999989
 30
0.0
 11
566.0000000000001
 21
39.99999999999989
 31
0.0
  0
LINE
  5
5F
330
1E
100
AcDbEntity
  8
STEMPEL
100
AcDbLine
 10
830.0000000000004
 20
79.99999999999989
 30
0.0
 11
566.0000000000003
 21
79.99999999999989
 31
0.0
  0
LINE
  5
60
330
1E
100
AcDbEntity
  8
VOLL
100
AcDbLine
 10
484.0000000000002
 20
109.9999999999999
 30
0.0
 11
484.0000000000001
 21
9.999999999999886
 31
0.0
  0
LINE
  5
61
330
1E
100
AcDbEntity
  8
VOLL
100
AcDbLine
 10
524.0000000000001
 20
109.9999999999997
 30
0.0
 11
524.0
 21
9.999999999999772
 31
0.0
  0
LINE
  5
62
330
1E
100
AcDbEntity
  8
VOLL
100
AcDbLine
 10
544.0000000000002
 20
109.9999999999997
 30
0.0
 11
544.0
 21
9.999999999999772
 31
0.0
  0
LINE
  5
63
330
1E
100
AcDbEntity
  8
VOLL
100
AcDbLine
 10
584.0000000000003
 20
79.99999999999989
 30
0.0
 11
584.0000000000003
 21
39.99999999999989
 31
0.0
  0
LINE
  5
64
330
1E
100
AcDbEntity
  8
VOLL
100
AcDbLine
 10
610.0000000000003
 20
109.9999999999996
 30
0.0
 11
610.0000000000001
 21
39.99999999999989
 31
0.0
  0
LINE
  5
65
330
1E
100
AcDbEntity
  8
HILF
100
AcDbLine
 10
470.0000000000001
 20
99.99999999999989
 30
0.0
 11
566.0000000000003
 21
99.99999999999989
 31
0.0
  0
LINE
  5
66
330
1E
100
AcDbEntity
  8
HILF
100
AcDbLine
 10
470.0000000000001
 20
89.99999999999989
 30
0.0
 11
566.0000000000003
 21
89.99999999999989
 31
0.0
  0
LINE
  5
67
330
1E
100
AcDbEntity
  8
HILF
100
AcDbLine
 10
470.0000000000001
 20
79.99999999999989
 30
0.0
 11
566.0000000000003
 21
79.99999999999989
 31
0.0
  0
LINE
  5
68
330
1E
100
AcDbEntity
  8
HILF
100
AcDbLine
 10
470.0000000000001
 20
69.99999999999989
 30
0.0
 11
566.0000000000003
 21
69.99999999999989
 31
0.0
  0
LINE
  5
69
330
1E
100
AcDbEntity
  8
HILF
100
AcDbLine
 10
470.0000000000001
 20
59.99999999999989
 30
0.0
 11
566.0000000000003
 21
59.99999999999989
 31
0.0
  0
LINE
  5
6A
330
1E
100
AcDbEntity
  8
HILF
100
AcDbLine
 10
470.0000000000001
 20
49.99999999999989
 30
0.0
 11
566.0000000000003
 21
49.99999999999989
 31
0.0
  0
LINE
  5
6B
330
1E
100
AcDbEntity
  8
HILF
100
AcDbLine
 10
470.0000000000001
 20
39.99999999999989
 30
0.0
 11
566.0000000000003
 21
39.99999999999989
 31
0.0
  0
LINE
  5
6C
330
1E
100
AcDbEntity
  8
HILF
100
AcDbLine
 10
566.0000000000003
 20
69.99999999999989
 30
0.0
 11
650.0
 21
69.99999999999989
 31
0.0
  0
LINE
  5
6D
330
1E
100
AcDbEntity
  8
HILF
100
AcDbLine
 10
566.0000000000003
 20
59.99999999999989
 30
0.0
 11
650.0
 21
59.99999999999989
 31
0.0
  0
LINE
  5
6E
330
1E
100
AcDbEntity
  8
HILF
100
AcDbLine
 10
566.0000000000003
 20
49.99999999999989
 30
0.0
 11
650.0
 21
49.99999999999989
 31
0.0
  0
LINE
  5
6F
330
1E
100
AcDbEntity
  8
HILF
100
AcDbLine
 10
654.773680109695
 20
84.03758247564121
 30
0.0
 11
746.6297842514812
 21
84.03758247564121
 31
0.0
  0
LINE
  5
70
330
1E
100
AcDbEntity
  8
HILF
100
AcDbLine
 10
654.773680109695
 20
69.99999999999989
 30
0.0
 11
746.6297842514812
 21
69.99999999999989
 31
0.0
  0
LINE
  5
71
330
1E
100
AcDbEntity
  8
HILF
100
AcDbLine
 10
654.773680109695
 20
59.99999999999989
 30
0.0
 11
746.6297842514812
 21
59.99999999999989
 31
0.0
  0
LINE
  5
72
330
1E
100
AcDbEntity
  8
HILF
100
AcDbLine
 10
654.773680109695
 20
49.99999999999989
 30
0.0
 11
746.6297842514812
 21
49.99999999999989
 31
0.0
  0
LINE
  5
73
330
1E
100
AcDbEntity
  8
VOLL
100
AcDbLine
 10
752.0000000000003
 20
59.99999999999989
 30
0.0
 11
830.0000000000004
 21
59.99999999999989
 31
0.0
  0
LINE
  5
74
330
1E
100
AcDbEntity
  8
HILF
100
AcDbLine
 10
756.7238616296996
 20
83.77983636955809
 30
0.0
 11
824.8588839326732
 21
83.77983636955804
 31
0.0
  0
LINE
  5
75
330
1E
100
AcDbEntity
  8
HILF
100
AcDbLine
 10
654.773680109695
 20
14.89398258028291
 30
0.0
 11
824.8588839326732
 21
14.89398258028291
 31
0.0
  0
TEXT
  5
76
330
1E
100
AcDbEntity
  8
TEXT
100
AcDbText
 10
492.3998239263299
 20
18.67381894984115
 30
0.0
 40
4.0
  1
Änderung
 41
0.8
  7
GREEKS
 72
     1
 11
503.1426810691869
 21
18.67381894984115
 31
0.0
100
AcDbText
  0
TEXT
  5
78
330
1E
100
AcDbEntity
  8
TEXT
100
AcDbText
 10
573.5163572150376
 20
102.4620895087087
 30
0.0
 40
5.0
  1
Maßstab
 41
0.8
  7
GREEKS
100
AcDbText
  0
TEXT
  5
79
330
1E
100
AcDbEntity
  8
TEXT
100
AcDbText
 10
654.8779403809009
 20
102.5489328011778
 30
0.0
 40
5.0
  1
Benennung
 41
0.8
  7
GREEKS
100
AcDbText
  0
TEXT
  5
7A
330
1E
100
AcDbEntity
  8
TEXT
100
AcDbText
 10
756.1787549576343
 20
102.3132034537135
 30
0.0
 40
5.0
  1
Zeichnungs Nr.
 41
0.8
  7
GREEKS
100
AcDbText
  0
TEXT
  5
7B
330
1E
100
AcDbEntity
  8
TEXT
100
AcDbText
 10
654.7422383911359
 20
30.84560570193048
 30
0.0
 40
5.0
  1
Bauvorhaben
 41
0.8
  7
GREEKS
100
AcDbText
  0
TEXT
  5
7C
330
1E
100
AcDbEntity
  8
TEXT
100
AcDbText
 10
756.7238616296995
 20
73.18118237099949
 30
0.0
 40
5.0
  1
Ersatz für:
 41
0.8
  7
GREEKS
100
AcDbText
  0
TEXT
  5
7D
330
1E
100
AcDbEntity
  8
TEXT
100
AcDbText
 10
478.2664110704578
 20
13.6546584602718
 30
0.0
 40
4.0
  1
Index
 50
89.99999999999998
 41
0.8
  7
GREEKS
100
AcDbText
  0
TEXT
  5
7E
330
1E
100
AcDbEntity
  8
TEXT
100
AcDbText
 10
529.8990113186979
 20
18.67156269339799
 30
0.0
 40
4.0
  1
Tag
 41
0.8
  7
GREEKS
 72
     1
 11
533.6323446520313
 21
18.67156269339799
 31
0.0
100
AcDbText
  0
TEXT
  5
7F
330
1E
100
AcDbEntity
  8
TEXT
100
AcDbText
 10
548.9795678138292
 20
18.59324216966391
 30
0.0
 40
4.0
  1
Name
 41
0.8
  7
GREEKS
 72
     1
 11
555.3033773376387
 21
18.59324216966391
 31
0.0
100
AcDbText
  0
TEXT
  5
80
330
1E
100
AcDbEntity
  8
TEXT
100
AcDbText
 10
592.3311673153651
 20
73.31880501229909
 30
0.0
 40
4.0
  1
Tag
 41
0.8
  7
GREEKS
100
AcDbText
  0
TEXT
  5
81
330
1E
100
AcDbEntity
  8
TEXT
100
AcDbText
 10
622.4626584226296
 20
73.30961091915208
 30
0.0
 40
4.0
  1
Name
 41
0.8
  7
GREEKS
100
AcDbText
  0
TEXT
  5
82
330
1E
100
AcDbEntity
  8
TEXT
100
AcDbText
 10
567.5836127167615
 20
63.62990369617946
 30
0.0
 40
4.0
  1
Gez.
 41
0.8
  7
GREEKS
100
AcDbText
  0
TEXT
  5
83
330
1E
100
AcDbEntity
  8
TEXT
100
AcDbText
 10
567.5515086571672
 20
53.68926291428365
 30
0.0
 40
4.0
  1
Gepr.
 41
0.8
  7
GREEKS
100
AcDbText
  0
TEXT
  5
84
330
1E
100
AcDbEntity
  8
TEXT
100
AcDbText
 10
567.6006777387303
 20
43.52946389649789
 30
0.0
 40
4.0
  1
Norm.
 41
0.8
  7
GREEKS
100
AcDbText
  0
TEXT
  5
85
330
1E
100
AcDbEntity
  8
TEXT
100
AcDbText
 10
757.2400861497007
 20
52.07416177878585
 30
0.0
 40
5.0
  1
ersetzt durch:
 41
0.8
  7
GREEKS
100
AcDbText
  0
TEXT
  5
86
330
1E
100
AcDbEntity
  8
TEXT
100
AcDbText
 10
568.8693027807324
 20
72.96682596523718
 30
0.0
 40
4.0
  1
2008
 41
0.8
  7
GREEKS
100
AcDbText
  0
LINE
  5
87
330
1E
100
AcDbEntity
  8
HILF
100
AcDbLine
 10
0.0
 20
0.0
 30
0.0
 11
840.0000000000002
 21
-0.0000000000001137
 31
0.0
  0
LINE
  5
88
330
1E
100
AcDbEntity
  8
HILF
100
AcDbLine
 10
840.0000000000002
 20
-0.0000000000001137
 30
0.0
 11
840.0000000000002
 21
593.9999999999998
 31
0.0
  0
LINE
  5
89
330
1E
100
AcDbEntity
  8
HILF
100
AcDbLine
 10
840.0000000000002
 20
593.9999999999998
 30
0.0
 11
0.0000000000001705
 21
594.0
 31
0.0
  0
LINE
  5
8B
330
1E
100
AcDbEntity
  8
STEMPEL
100
AcDbLine
 10
830.0
 20
583.9999999999998
 30
0.0
 11
40.00000000000011
 21
584.0
 31
0.0
  0
LINE
  5
8D
330
1E
100
AcDbEntity
  8
STEMPEL
100
AcDbLine
 10
40.0
 20
10.0
 30
0.0
 11
830.0
 21
9.999999999999886
 31
0.0
  0
LINE
  5
8E
330
1E
100
AcDbEntity
  8
STEMPEL
100
AcDbLine
 10
830.0
 20
9.999999999999886
 30
0.0
 11
830.0
 21
583.9999999999998
 31
0.0
  0
TEXT
  5
8F
330
1E
100
AcDbEntity
  8
TEXT
 62
     1
100
AcDbText
 10
655.0390572473189
 20
87.3734307565253
 30
0.0
 40
7.0
  1
Regenstandrohr DN50
 41
0.75
  7
GREEKS
100
AcDbText
  0
TEXT
  5
90
330
1E
100
AcDbEntity
  8
TEXT
 62
     1
100
AcDbText
 10
766.6628088850802
 20
87.37343075652526
 30
0.0
 40
7.0
  1
05510050W
 41
0.8
  7
GREEKS
 72
     1
 11
790.1294755517469
 21
87.37343075652526
 31
0.0
100
AcDbText
  0
TEXT
  5
91
330
1E
100
AcDbEntity
  8
TEXT
100
AcDbText
 10
618.5090226415829
 20
102.8398961137899
 30
0.0
 40
5.0
  1
Zul.Abw.
 41
0.8
  7
GREEKS
100
AcDbText
  0
TEXT
  5
93
330
1E
100
AcDbEntity
  8
TEXT
100
AcDbText
 10
590.7660475607107
 20
63.15085876120213
 30
0.0
 40
4.0
  1
12.12.
 41
0.8
  7
GREEKS
 72
     1
 11
597.1660475607107
 21
63.15085876120213
 31
0.0
100
AcDbText
  0
TEXT
  5
94
330
1E
100
AcDbEntity
  8
TEXT
100
AcDbText
 10
624.0231753226609
 20
62.94297655165462
 30
0.0
 40
4.0
  1
Koeh
 41
0.8
  7
GREEKS
 72
     1
 11
629.2803181798038
 21
62.94297655165462
 31
0.0
100
AcDbText
  0
TEXT
  5
95
330
1E
100
AcDbEntity
  8
TEXT
100
AcDbText
 10
654.3410940884991
 20
72.10021383107516
 30
0.0
 40
5.0
  1
mit runder Reinigungsöffnung
 41
0.8
  7
GREEKS
100
AcDbText
  0
TEXT
  5
97
330
1E
100
AcDbEntity
  8
TEXT
100
AcDbText
 10
654.3410940884991
 20
52.59097337846049
 30
0.0
 40
5.0
  1
EDV-Art.Nr. 05510.050X
 41
0.8
  7
GREEKS
100
AcDbText
  0
TEXT
  5
98
330
1E
100
AcDbEntity
  8
TEXT
100
AcDbText
 10
654.1676050109347
 20
43.31127624791498
 30
0.0
 40
4.0
  1
05510050W.DWG
 41
0.8
  7
GREEKS
100
AcDbText
  0
TEXT
  5
99
330
1E
100
AcDbEntity
  8
TEXT
 62
     1
100
AcDbText
 10
582.703491203422
 20
87.47077088414959
 30
0.0
 40
7.0
  1
1:2
 41
0.8
  7
GREEKS
100
AcDbText
  0
TEXT
  5
9A
330
1E
100
AcDbEntity
  8
TEXT
100
AcDbText
 10
470.0441139350129
 20
114.1143585051042
 30
0.0
 40
5.0
  1
Erstellt mit AUTOCAD 2004
 41
0.8
  7
GREEKS
100
AcDbText
  0
INSERT
  5
9B
330
1E
100
AcDbEntity
  8
HILF
100
AcDbBlockReference
  2
LORO
 10
573.0624985962354
 20
36.98059300298954
 30
0.0
 41
2.0
 42
2.0
 43
2.0
  0
LINE
  5
9C
330
1E
100
AcDbEntity
  8
BEM
100
AcDbLine
 10
456.0
 20
-0.0000000000001137
 30
0.0
 11
456.0
 21
9.999999999999886
 31
0.0
  0
LINE
  5
13E
330
1E
100
AcDbEntity
  8
HILF
100
AcDbLine
 10
0.0
 20
0.0
 30
0.0
 11
0.0000000000001705
 21
594.0
 31
0.0
  0
LINE
  5
13F
330
1E
100
AcDbEntity
  8
STEMPEL
100
AcDbLine
 10
40.0
 20
10.0
 30
0.0
 11
40.00000000000011
 21
584.0
 31
0.0
  0
LINE
  5
14A
330
1E
100
AcDbEntity
  8
HILF
100
AcDbLine
 10
0.0000000000000568
 20
297.0
 30
0.0
 11
40.00000000000006
 21
297.0
 31
0.0
  0
TEXT
  5
15B
330
1E
100
AcDbEntity
  8
BEM
100
AcDbText
 10
837.3022923857165
 20
10.16790107998847
 30
0.0
 40
4.0
  1
Diese Zeichnung ist urheberrechtlich geschützt und bleibt unser Eigentum. Sie darf weder ganz noch teilweise verfielfältigt und nicht an Dritte weitergegeben werden.
 50
89.99999999999998
 41
0.8
  7
GREEKS
100
AcDbText
  0
TEXT
  5
ACA
330
1E
100
AcDbEntity
  8
TEXT
100
AcDbText
 10
612.2898419893275
 20
89.26643524492067
 30
0.0
 40
4.0
  1
DIN EN1123-2
 41
0.8
  7
GREEKS
 72
     1
 11
629.2803181798038
 21
89.26643524492067
 31
0.0
100
AcDbText
  0
TEXT
  5
AE3
330
1E
100
AcDbEntity
  8
TEXT
 62
     1
100
AcDbText
 10
664.6057658946469
 20
129.0783465745481
 30
0.0
 40
7.0
  1

 41
0.8
  7
GREEKS
100
AcDbText
  0
TEXT
  5
1074
330
1E
100
AcDbEntity
  8
TEXT
 62
     1
100
AcDbText
 10
664.6057658946469
 20
129.0783465745481
 30
0.0
 40
7.0
  1
und innen beschichtet
 41
0.8
  7
GREEKS
100
AcDbText
  0
TEXT
  5
1075
330
1E
100
AcDbEntity
  8
TEXT
 62
     1
100
AcDbText
 10
616.6560484572491
 20
139.8004583895515
 30
0.0
 40
7.0
  1
Werkstoff: E195 EN10305 feuerverzinkt
 41
0.8
  7
GREEKS
100
AcDbText
  0
TEXT
  5
1076
330
1E
100
AcDbEntity
  8
TEXT
 62
     1
100
AcDbText
 10
790.1294755517469
 20
62.79741485912879
 30
0.0
 40
7.0
  1

 41
0.8
  7
GREEKS
 72
     1
 11
790.1294755517469
 21
62.79741485912879
 31
0.0
100
AcDbText
  0
TEXT
  5
1081
330
1E
100
AcDbEntity
  8
TEXT
100
AcDbText
 10
654.3410940884991
 20
62.10021383107516
 30
0.0
 40
5.0
  1
1000mm lang
 41
0.8
  7
GREEKS
100
AcDbText
  0
DIMENSION
  5
12E7
330
1E
100
AcDbEntity
  8
BEM
100
AcDbDimension
  2
*D2
 10
707.5819555632357
 20
247.1563314088273
 30
0.0
 11
752.5819555632357
 21
253.6563314088273
 31
0.0
 70
    32
 71
     5
 42
90.0
  3
Standard
100
AcDbAlignedDimension
 13
797.5819555632357
 23
269.4257544675898
 33
0.0
 14
707.5819555632357
 24
270.8199649747123
 34
0.0
100
AcDbRotatedDimension
1001
ACAD
1000
DSTYLE
1002
{
1070
    40
1040
2.0
1070
    41
1040
3.5
1070
    42
1040
1.0
1070
    43
1040
7.0
1070
    44
1040
1.0
1070
    73
1070
     0
1070
    74
1070
     0
1070
    77
1070
     1
1070
    78
1070
     8
1070
    79
1070
     2
1070
   140
1040
3.5
1070
   141
1040
1.5
1070
   146
1040
0.5142857142857144
1070
   147
1040
1.5
1070
   172
1070
     1
1070
   178
1070
     1
1070
   179
1070
     2
1070
   271
1070
     2
1070
   272
1070
     2
1070
   284
1070
     8
1070
   285
1070
     8
1070
   286
1070
     8
1002
}
  0
LINE
  5
12EC
330
1E
100
AcDbEntity
  8
TEXT
 62
     2
100
AcDbLine
 10
339.4884893509184
 20
498.1423917190739
 30
0.0
 11
375.8297023225037
 21
460.7972644411871
 31
0.0
  0
LINE
  5
13F8
330
1E
100
AcDbEntity
  8
MITTEL
100
AcDbLine
 10
417.5819555632357
 20
468.3440296557349
 30
0.0
 11
417.5819555632357
 21
427.844029655735
 31
0.0
  0
LINE
  5
1406
330
1E
100
AcDbEntity
  8
TEXT
 62
     2
100
AcDbLine
 10
239.7648303743217
 20
498.1423917190739
 30
0.0
 11
339.4884893509184
 21
498.1423917190739
 31
0.0
  0
TEXT
  5
1407
330
1E
100
AcDbEntity
  8
TEXT
 62
     1
100
AcDbText
 10
240.2255091770936
 20
488.6176366945635
 30
0.0
 40
7.0
  1
EDV-Art.Nr. 55880.050X
 41
0.75
  7
GREEKS
100
AcDbText
  0
TEXT
  5
1408
330
1E
100
AcDbEntity
  8
TEXT
 62
     1
100
AcDbText
 10
240.2255091770936
 20
501.5222971359704
 30
0.0
 40
7.0
  1
Deckel DN50
 41
0.75
  7
GREEKS
100
AcDbText
  0
DIMENSION
  5
140F
330
1E
100
AcDbEntity
  8
BEM
100
AcDbDimension
  2
*D3
 10
82.15069745304948
 20
325.5321076175266
 30
0.0
 11
75.65069745304942
 21
299.0321076175265
 31
0.0
 70
    32
  1
%%c<>
 71
     5
 42
53.00000000000006
  3
Standard
100
AcDbAlignedDimension
 13
95.09823420005046
 23
272.5321076175265
 33
0.0
 14
95.09823420005046
 24
325.5321076175266
 34
0.0
 50
90.0
100
AcDbRotatedDimension
1001
ACAD
1000
DSTYLE
1002
{
1070
    40
1040
2.0
1070
    41
1040
3.5
1070
    42
1040
1.0
1070
    43
1040
7.0
1070
    44
1040
1.0
1070
    73
1070
     0
1070
    74
1070
     0
1070
    77
1070
     1
1070
    78
1070
     8
1070
    79
1070
     2
1070
   140
1040
3.5
1070
   141
1040
1.5
1070
   146
1040
0.5142857142857144
1070
   147
1040
1.5
1070
   172
1070
     1
1070
   178
1070
     1
1070
   179
1070
     2
1070
   271
1070
     2
1070
   272
1070
     2
1070
   284
1070
     8
1070
   285
1070
     8
1070
   286
1070
     8
1002
}
  0
DIMENSION
  5
1410
330
1E
100
AcDbEntity
  8
BEM
100
AcDbDimension
  2
*D4
 10
417.5819555632357
 20
247.1563314088273
 30
0.0
 11
256.3400948816432
 21
253.6563314088273
 31
0.0
 70
    32
  1
620
 71
     5
 42
322.4837213631853
  3
Standard
100
AcDbAlignedDimension
 13
95.09823420005046
 23
272.5321076175265
 33
0.0
 14
417.5819555632357
 24
262.0321076175265
 34
0.0
100
AcDbRotatedDimension
1001
ACAD
1000
DSTYLE
1002
{
1070
    40
1040
2.0
1070
    41
1040
3.5
1070
    42
1040
1.0
1070
    43
1040
7.0
1070
    44
1040
1.0
1070
    73
1070
     0
1070
    74
1070
     0
1070
    77
1070
     1
1070
    78
1070
     8
1070
    79
1070
     2
1070
   140
1040
3.5
1070
   141
1040
1.5
1070
   146
1040
0.5142857142857144
1070
   147
1040
1.5
1070
   172
1070
     1
1070
   178
1070
     1
1070
   179
1070
     2
1070
   271
1070
     2
1070
   272
1070
     2
1070
   284
1070
     8
1070
   285
1070
     8
1070
   286
1070
     8
1002
}
  0
LINE
  5
1415
330
1E
100
AcDbEntity
  8
MITTEL
100
AcDbLine
 10
802.5819555632358
 20
427.844029655735
 30
0.0
 11
90.09823420005046
 21
427.8440296557351
 31
0.0
  0
LINE
  5
1416
330
1E
100
AcDbEntity
  8
MITTEL
100
AcDbLine
 10
802.5819555632358
 20
299.0321076175265
 30
0.0
 11
90.09823420005046
 21
299.0321076175265
 31
0.0
  0
DIMENSION
  5
1417
330
1E
100
AcDbEntity
  8
BEM
100
AcDbDimension
  2
*D5
 10
797.5819555632357
 20
227.2697487205811
 30
0.0
 11
446.340094881643
 21
233.7697487205811
 31
0.0
 70
    32
  1
1000
 71
     5
 42
702.4837213631853
  3
Standard
100
AcDbAlignedDimension
 13
95.09823420005046
 23
272.5321076175265
 33
0.0
 14
797.5819555632357
 24
269.4257544675898
 34
0.0
100
AcDbRotatedDimension
1001
ACAD
1000
DSTYLE
1002
{
1070
    40
1040
2.0
1070
    41
1040
3.5
1070
    42
1040
1.0
1070
    43
1040
7.0
1070
    44
1040
1.0
1070
    73
1070
     0
1070
    74
1070
     0
1070
    77
1070
     1
1070
    78
1070
     8
1070
    79
1070
     2
1070
   140
1040
3.5
1070
   141
1040
1.5
1070
   146
1040
0.5142857142857144
1070
   147
1040
1.5
1070
   172
1070
     1
1070
   178
1070
     1
1070
   179
1070
     2
1070
   271
1070
     2
1070
   272
1070
     2
1070
   284
1070
     8
1070
   285
1070
     8
1070
   286
1070
     8
1002
}
  0
TEXT
  5
14B4
330
1E
100
AcDbEntity
  8
TEXT
 62
     1
100
AcDbText
 10
737.2860613441266
 20
435.5676241610381
 30
0.0
 40
7.0
  1
DN50
 41
0.75
  7
GREEKS
100
AcDbText
  0
LINE
  5
14F5
330
1E
100
AcDbEntity
  8
HILF
100
AcDbLine
 10
775.0258250374371
 20
327.1975863895581
 30
0.0
 11
775.0258250374372
 21
270.866628845495
 31
0.0
  0
LINE
  5
14F6
330
1E
100
AcDbEntity
  8
HILF
100
AcDbLine
 10
710.1147390495294
 20
326.630684249904
 30
0.0
 11
710.1147390495297
 21
271.4335309851492
 31
0.0
  0
LINE
  5
14F7
330
1E
100
AcDbEntity
  8
HILF
100
AcDbLine
 10
705.0563108717284
 20
324.3953001882327
 30
0.0
 11
705.0563108717284
 21
273.6689150468205
 31
0.0
  0
LINE
  5
14F8
330
1E
100
AcDbEntity
  8
STEMPEL
100
AcDbLine
 10
95.09823420005046
 20
272.5321076175265
 30
0.0
 11
95.09823420005046
 21
325.5321076175266
 31
0.0
  0
LINE
  5
14F9
330
1E
100
AcDbEntity
  8
STEMPEL
100
AcDbLine
 10
797.5819555632357
 20
269.4257544675898
 30
0.0
 11
797.5819555632357
 21
328.6384607674634
 31
0.0
  0
ARC
  5
14FB
330
1E
100
AcDbEntity
  8
STEMPEL
100
AcDbCircle
 10
773.0819555632357
 20
338.5321076175265
 30
0.0
 40
10.0
100
AcDbArc
 50
270.0
 51
289.4630994446907
  0
ARC
  5
14FC
330
1E
100
AcDbEntity
  8
STEMPEL
100
AcDbCircle
 10
712.9902824764317
 20
316.5321076175266
 30
0.0
 40
12.0
100
AcDbArc
 50
90.0
 51
121.7883306170488
  0
ARC
  5
14FE
330
1E
100
AcDbEntity
  8
STEMPEL
100
AcDbCircle
 10
702.4546287235789
 20
333.5321076175266
 30
0.0
 40
8.0
100
AcDbArc
 50
270.0
 51
301.7883306170489
  0
LINE
  5
1500
330
1E
100
AcDbEntity
  8
STEMPEL
100
AcDbLine
 10
702.454628723579
 20
325.5321076175266
 30
0.0
 11
435.5193466778878
 21
325.5321076175266
 31
0.0
  0
LINE
  5
1503
330
1E
100
AcDbEntity
  8
STEMPEL
100
AcDbLine
 10
773.0819555632357
 20
328.5321076175265
 30
0.0
 11
712.9902824764317
 21
328.5321076175265
 31
0.0
  0
ARC
  5
1505
330
1E
100
AcDbEntity
  8
STEMPEL
100
AcDbCircle
 10
789.1994542205749
 20
311.0321076175265
 30
0.0
 40
19.5
100
AcDbArc
 50
64.54057143119041
 51
90.0
  0
ARC
  5
1507
330
1E
100
AcDbEntity
  8
STEMPEL
100
AcDbCircle
 10
784.7439555632357
 20
305.5321076175265
 30
0.0
 40
25.00003205712822
100
AcDbArc
 50
89.90824500824277
 51
109.4630994446907
  0
LINE
  5
1509
330
1E
100
AcDbEntity
  8
STEMPEL
100
AcDbLine
 10
789.1994542205749
 20
330.5321076175265
 30
0.0
 11
784.783991265244
 21
330.5321076175265
 31
0.0
  0
LINE
  5
150D
330
1E
100
AcDbEntity
  8
STEMPEL
100
AcDbLine
 10
797.5819555632357
 20
328.6391524667177
 30
0.0
 11
797.4405103245185
 21
328.7051094647412
 31
0.0
  0
ARC
  5
150E
330
1E
100
AcDbEntity
  8
STEMPEL
100
AcDbCircle
 10
773.0819555632359
 20
259.5321076175265
 30
0.0
 40
10.0
100
AcDbArc
 50
70.53690055530928
 51
90.0
  0
ARC
  5
1512
330
1E
100
AcDbEntity
  8
STEMPEL
100
AcDbCircle
 10
712.9902824764317
 20
281.5321076175266
 30
0.0
 40
12.0
100
AcDbArc
 50
238.2116693829511
 51
270.0
  0
ARC
  5
1514
330
1E
100
AcDbEntity
  8
STEMPEL
100
AcDbCircle
 10
702.454628723579
 20
264.5321076175266
 30
0.0
 40
8.0
100
AcDbArc
 50
58.21166938295115
 51
90.0
  0
LINE
  5
1515
330
1E
100
AcDbEntity
  8
STEMPEL
100
AcDbLine
 10
702.454628723579
 20
272.5321076175266
 30
0.0
 11
435.5193466778878
 21
272.5321076175266
 31
0.0
  0
LINE
  5
1518
330
1E
100
AcDbEntity
  8
STEMPEL
100
AcDbLine
 10
773.0819555632357
 20
269.5321076175266
 30
0.0
 11
712.9902824764317
 21
269.5321076175266
 31
0.0
  0
ARC
  5
151A
330
1E
100
AcDbEntity
  8
STEMPEL
100
AcDbCircle
 10
789.1994542205749
 20
287.0321076175267
 30
0.0
 40
19.5
100
AcDbArc
 50
270.0
 51
295.4594285688068
  0
ARC
  5
151C
330
1E
100
AcDbEntity
  8
STEMPEL
100
AcDbCircle
 10
784.7439555632357
 20
292.5321076175267
 30
0.0
 40
25.00003205712822
100
AcDbArc
 50
250.5369005553093
 51
270.0917549917572
  0
LINE
  5
151F
330
1E
100
AcDbEntity
  8
STEMPEL
100
AcDbLine
 10
789.1994542205749
 20
267.5321076175266
 30
0.0
 11
784.7839912652441
 21
267.5321076175265
 31
0.0
  0
LINE
  5
1522
330
1E
100
AcDbEntity
  8
STEMPEL
100
AcDbLine
 10
797.5819555632357
 20
269.4250627683354
 30
0.0
 11
797.4405103245185
 21
269.359105770312
 31
0.0
  0
LINE
  5
1523
330
1E
100
AcDbEntity
  8
STEMPEL
100
AcDbLine
 10
797.5819555632357
 20
398.2369848065438
 30
0.0
 11
797.4405103245185
 21
398.1710278085204
 31
0.0
  0
LINE
  5
1524
330
1E
100
AcDbEntity
  8
STEMPEL
100
AcDbLine
 10
789.1994542205749
 20
396.3440296557351
 30
0.0
 11
784.7839912652441
 21
396.3440296557349
 31
0.0
  0
ARC
  5
1525
330
1E
100
AcDbEntity
  8
STEMPEL
100
AcDbCircle
 10
784.7439555632357
 20
421.344029655735
 30
0.0
 40
25.00003205712822
100
AcDbArc
 50
250.5369005553093
 51
270.0917549917572
  0
ARC
  5
1526
330
1E
100
AcDbEntity
  8
STEMPEL
100
AcDbCircle
 10
789.1994542205749
 20
415.844029655735
 30
0.0
 40
19.5
100
AcDbArc
 50
270.0
 51
295.4594285688068
  0
LINE
  5
1527
330
1E
100
AcDbEntity
  8
STEMPEL
100
AcDbLine
 10
773.0819555632357
 20
398.344029655735
 30
0.0
 11
712.9902824764317
 21
398.344029655735
 31
0.0
  0
LINE
  5
1528
330
1E
100
AcDbEntity
  8
STEMPEL
100
AcDbLine
 10
702.454628723579
 20
401.3440296557349
 30
0.0
 11
95.09823420005046
 21
401.3440296557349
 31
0.0
  0
ARC
  5
1529
330
1E
100
AcDbEntity
  8
STEMPEL
100
AcDbCircle
 10
702.454628723579
 20
393.344029655735
 30
0.0
 40
8.0
100
AcDbArc
 50
58.21166938295115
 51
90.0
  0
ARC
  5
152A
330
1E
100
AcDbEntity
  8
STEMPEL
100
AcDbCircle
 10
712.9902824764317
 20
410.344029655735
 30
0.0
 40
12.0
100
AcDbArc
 50
238.2116693829511
 51
270.0
  0
ARC
  5
152B
330
1E
100
AcDbEntity
  8
STEMPEL
100
AcDbCircle
 10
773.0819555632359
 20
388.344029655735
 30
0.0
 40
10.0
100
AcDbArc
 50
70.53690055530928
 51
90.0
  0
LINE
  5
152C
330
1E
100
AcDbEntity
  8
STEMPEL
100
AcDbLine
 10
797.5819555632357
 20
457.4510745049261
 30
0.0
 11
797.4405103245185
 21
457.5170315029496
 31
0.0
  0
LINE
  5
152D
330
1E
100
AcDbEntity
  8
STEMPEL
100
AcDbLine
 10
789.1994542205749
 20
459.3440296557349
 30
0.0
 11
784.783991265244
 21
459.3440296557349
 31
0.0
  0
ARC
  5
152E
330
1E
100
AcDbEntity
  8
STEMPEL
100
AcDbCircle
 10
784.7439555632357
 20
434.3440296557349
 30
0.0
 40
25.00003205712822
100
AcDbArc
 50
89.90824500824277
 51
109.4630994446907
  0
ARC
  5
152F
330
1E
100
AcDbEntity
  8
STEMPEL
100
AcDbCircle
 10
789.1994542205749
 20
439.844029655735
 30
0.0
 40
19.5
100
AcDbArc
 50
64.54057143119041
 51
90.0
  0
LINE
  5
1530
330
1E
100
AcDbEntity
  8
STEMPEL
100
AcDbLine
 10
773.0819555632357
 20
457.3440296557349
 30
0.0
 11
712.9902824764317
 21
457.3440296557349
 31
0.0
  0
LINE
  5
1531
102
{ACAD_REACTORS
330
1862
102
}
330
1E
100
AcDbEntity
  8
STEMPEL
100
AcDbLine
 10
702.454628723579
 20
454.3440296557349
 30
0.0
 11
446.0819555632355
 21
454.3440296557349
 31
0.0
  0
ARC
  5
1532
330
1E
100
AcDbEntity
  8
STEMPEL
100
AcDbCircle
 10
702.4546287235789
 20
462.3440296557349
 30
0.0
 40
8.0
100
AcDbArc
 50
270.0
 51
301.7883306170489
  0
ARC
  5
1533
330
1E
100
AcDbEntity
  8
STEMPEL
100
AcDbCircle
 10
712.9902824764317
 20
445.3440296557349
 30
0.0
 40
12.0
100
AcDbArc
 50
90.0
 51
121.7883306170488
  0
ARC
  5
1534
330
1E
100
AcDbEntity
  8
STEMPEL
100
AcDbCircle
 10
773.0819555632357
 20
467.3440296557349
 30
0.0
 40
10.0
100
AcDbArc
 50
270.0
 51
289.4630994446907
  0
LINE
  5
1535
330
1E
100
AcDbEntity
  8
STEMPEL
100
AcDbLine
 10
797.5819555632357
 20
398.2376765057982
 30
0.0
 11
797.5819555632357
 21
457.4503828056718
 31
0.0
  0
LINE
  5
1536
330
1E
100
AcDbEntity
  8
STEMPEL
100
AcDbLine
 10
95.09823420005046
 20
401.3440296557349
 30
0.0
 11
95.09823420005046
 21
454.3440296557349
 31
0.0
  0
LINE
  5
1537
330
1E
100
AcDbEntity
  8
HILF
100
AcDbLine
 10
705.0563108717284
 20
453.207222226441
 30
0.0
 11
705.0563108717284
 21
402.4808370850289
 31
0.0
  0
LINE
  5
1538
330
1E
100
AcDbEntity
  8
HILF
100
AcDbLine
 10
710.1147390495294
 20
455.4426062881124
 30
0.0
 11
710.1147390495297
 21
400.2454530233576
 31
0.0
  0
LINE
  5
1539
330
1E
100
AcDbEntity
  8
HILF
100
AcDbLine
 10
775.0258250374371
 20
456.0095084277665
 30
0.0
 11
775.0258250374372
 21
399.6785508837035
 31
0.0
  0
POLYLINE
  5
157A
330
1E
100
AcDbEntity
  8
HILF
100
AcDb2dPolyline
 66
     1
 10
0.0
 20
0.0
 30
0.0
  0
VERTEX
  5
157B
330
157A
100
AcDbEntity
  8
HILF
100
AcDbVertex
100
AcDb2dVertex
 10
325.74300545974
 20
325.5321076175266
 30
0.0
  0
VERTEX
  5
157C
330
157A
100
AcDbEntity
  8
HILF
100
AcDbVertex
100
AcDb2dVertex
 10
324.4828144838291
 20
321.2533155311263
 30
0.0
  0
VERTEX
  5
157D
330
157A
100
AcDbEntity
  8
HILF
100
AcDbVertex
100
AcDb2dVertex
 10
323.3064838058778
 20
315.5074766044017
 30
0.0
  0
VERTEX
  5
157E
330
157A
100
AcDbEntity
  8
HILF
100
AcDbVertex
100
AcDb2dVertex
 10
322.796768167582
 20
310.5147137087382
 30
0.0
  0
VERTEX
  5
157F
330
157A
100
AcDbEntity
  8
HILF
100
AcDbVertex
100
AcDb2dVertex
 10
322.8436828445703
 20
306.1430553091936
 30
0.0
  0
VERTEX
  5
1580
330
157A
100
AcDbEntity
  8
HILF
100
AcDbVertex
100
AcDb2dVertex
 10
323.3372431124714
 20
302.2605298708262
 30
0.0
  0
VERTEX
  5
1581
330
157A
100
AcDbEntity
  8
HILF
100
AcDbVertex
100
AcDb2dVertex
 10
324.1674642469144
 20
298.7351658586939
 30
0.0
  0
VERTEX
  5
1582
330
157A
100
AcDbEntity
  8
HILF
100
AcDbVertex
100
AcDb2dVertex
 10
325.224361523528
 20
295.4349917378546
 30
0.0
  0
VERTEX
  5
1583
330
157A
100
AcDbEntity
  8
HILF
100
AcDbVertex
100
AcDb2dVertex
 10
326.3888446303178
 20
292.2304349127275
 30
0.0
  0
VERTEX
  5
1584
330
157A
100
AcDbEntity
  8
HILF
100
AcDbVertex
100
AcDb2dVertex
 10
327.5054009047971
 20
289.0015185451762
 30
0.0
  0
VERTEX
  5
1585
330
157A
100
AcDbEntity
  8
HILF
100
AcDbVertex
100
AcDb2dVertex
 10
328.4094120968561
 20
285.6306647364249
 30
0.0
  0
VERTEX
  5
1586
330
157A
100
AcDbEntity
  8
HILF
100
AcDbVertex
100
AcDb2dVertex
 10
328.9362599563849
 20
282.0002955876981
 30
0.0
  0
VERTEX
  5
1587
330
157A
100
AcDbEntity
  8
HILF
100
AcDbVertex
100
AcDb2dVertex
 10
328.9213262332737
 20
277.9928332002204
 30
0.0
  0
VERTEX
  5
1588
330
157A
100
AcDbEntity
  8
HILF
100
AcDbVertex
100
AcDb2dVertex
 10
328.1999926774125
 20
273.4906996752163
 30
0.0
  0
VERTEX
  5
1589
330
157A
100
AcDbEntity
  8
HILF
100
AcDbVertex
100
AcDb2dVertex
 10
327.9015371716638
 20
272.5321076175266
 30
0.0
  0
SEQEND
  5
158A
330
157A
100
AcDbEntity
  8
HILF
  0
POLYLINE
  5
158B
330
1E
100
AcDbEntity
  8
HILF
100
AcDb2dPolyline
 66
     1
 10
0.0
 20
0.0
 30
0.0
  0
VERTEX
  5
158C
330
158B
100
AcDbEntity
  8
HILF
100
AcDbVertex
100
AcDb2dVertex
 10
328.7430054597399
 20
325.5321076175266
 30
0.0
  0
VERTEX
  5
158D
330
158B
100
AcDbEntity
  8
HILF
100
AcDbVertex
100
AcDb2dVertex
 10
327.4828144838291
 20
321.2533155311263
 30
0.0
  0
VERTEX
  5
158E
330
158B
100
AcDbEntity
  8
HILF
100
AcDbVertex
100
AcDb2dVertex
 10
326.3064838058779
 20
315.5074766044017
 30
0.0
  0
VERTEX
  5
158F
330
158B
100
AcDbEntity
  8
HILF
100
AcDbVertex
100
AcDb2dVertex
 10
325.796768167582
 20
310.5147137087382
 30
0.0
  0
VERTEX
  5
1590
330
158B
100
AcDbEntity
  8
HILF
100
AcDbVertex
100
AcDb2dVertex
 10
325.8436828445703
 20
306.1430553091936
 30
0.0
  0
VERTEX
  5
1591
330
158B
100
AcDbEntity
  8
HILF
100
AcDbVertex
100
AcDb2dVertex
 10
326.3372431124714
 20
302.2605298708262
 30
0.0
  0
VERTEX
  5
1592
330
158B
100
AcDbEntity
  8
HILF
100
AcDbVertex
100
AcDb2dVertex
 10
327.1674642469144
 20
298.7351658586939
 30
0.0
  0
VERTEX
  5
1593
330
158B
100
AcDbEntity
  8
HILF
100
AcDbVertex
100
AcDb2dVertex
 10
328.2243615235279
 20
295.4349917378546
 30
0.0
  0
VERTEX
  5
1594
330
158B
100
AcDbEntity
  8
HILF
100
AcDbVertex
100
AcDb2dVertex
 10
329.3888446303177
 20
292.2304349127275
 30
0.0
  0
VERTEX
  5
1595
330
158B
100
AcDbEntity
  8
HILF
100
AcDbVertex
100
AcDb2dVertex
 10
330.505400904797
 20
289.0015185451762
 30
0.0
  0
VERTEX
  5
1596
330
158B
100
AcDbEntity
  8
HILF
100
AcDbVertex
100
AcDb2dVertex
 10
331.4094120968561
 20
285.6306647364249
 30
0.0
  0
VERTEX
  5
1597
330
158B
100
AcDbEntity
  8
HILF
100
AcDbVertex
100
AcDb2dVertex
 10
331.9362599563849
 20
282.0002955876981
 30
0.0
  0
VERTEX
  5
1598
330
158B
100
AcDbEntity
  8
HILF
100
AcDbVertex
100
AcDb2dVertex
 10
331.9213262332737
 20
277.9928332002204
 30
0.0
  0
VERTEX
  5
1599
330
158B
100
AcDbEntity
  8
HILF
100
AcDbVertex
100
AcDb2dVertex
 10
331.1999926774125
 20
273.4906996752163
 30
0.0
  0
VERTEX
  5
159A
330
158B
100
AcDbEntity
  8
HILF
100
AcDbVertex
100
AcDb2dVertex
 10
330.9015371716638
 20
272.5321076175266
 30
0.0
  0
SEQEND
  5
159B
330
158B
100
AcDbEntity
  8
HILF
  0
POLYLINE
  5
15C0
330
1E
100
AcDbEntity
  8
HILF
100
AcDb2dPolyline
 66
     1
 10
0.0
 20
0.0
 30
0.0
  0
VERTEX
  5
15C1
330
15C0
100
AcDbEntity
  8
HILF
100
AcDbVertex
100
AcDb2dVertex
 10
325.7430054597399
 20
454.3440296557349
 30
0.0
  0
VERTEX
  5
15C2
330
15C0
100
AcDbEntity
  8
HILF
100
AcDbVertex
100
AcDb2dVertex
 10
324.4828144838291
 20
450.0652375693349
 30
0.0
  0
VERTEX
  5
15C3
330
15C0
100
AcDbEntity
  8
HILF
100
AcDbVertex
100
AcDb2dVertex
 10
323.3064838058778
 20
444.3193986426104
 30
0.0
  0
VERTEX
  5
15C4
330
15C0
100
AcDbEntity
  8
HILF
100
AcDbVertex
100
AcDb2dVertex
 10
322.796768167582
 20
439.3266357469468
 30
0.0
  0
VERTEX
  5
15C5
330
15C0
100
AcDbEntity
  8
HILF
100
AcDbVertex
100
AcDb2dVertex
 10
322.8436828445703
 20
434.9549773474023
 30
0.0
  0
VERTEX
  5
15C6
330
15C0
100
AcDbEntity
  8
HILF
100
AcDbVertex
100
AcDb2dVertex
 10
323.3372431124714
 20
431.0724519090348
 30
0.0
  0
VERTEX
  5
15C7
330
15C0
100
AcDbEntity
  8
HILF
100
AcDbVertex
100
AcDb2dVertex
 10
324.1674642469144
 20
427.5470878969025
 30
0.0
  0
VERTEX
  5
15C8
330
15C0
100
AcDbEntity
  8
HILF
100
AcDbVertex
100
AcDb2dVertex
 10
325.224361523528
 20
424.2469137760632
 30
0.0
  0
VERTEX
  5
15C9
330
15C0
100
AcDbEntity
  8
HILF
100
AcDbVertex
100
AcDb2dVertex
 10
326.3888446303178
 20
421.0423569509361
 30
0.0
  0
VERTEX
  5
15CA
330
15C0
100
AcDbEntity
  8
HILF
100
AcDbVertex
100
AcDb2dVertex
 10
327.5054009047971
 20
417.8134405833848
 30
0.0
  0
VERTEX
  5
15CB
330
15C0
100
AcDbEntity
  8
HILF
100
AcDbVertex
100
AcDb2dVertex
 10
328.4094120968561
 20
414.4425867746335
 30
0.0
  0
VERTEX
  5
15CC
330
15C0
100
AcDbEntity
  8
HILF
100
AcDbVertex
100
AcDb2dVertex
 10
328.9362599563849
 20
410.8122176259067
 30
0.0
  0
VERTEX
  5
15CD
330
15C0
100
AcDbEntity
  8
HILF
100
AcDbVertex
100
AcDb2dVertex
 10
328.9213262332737
 20
406.8047552384291
 30
0.0
  0
VERTEX
  5
15CE
330
15C0
100
AcDbEntity
  8
HILF
100
AcDbVertex
100
AcDb2dVertex
 10
328.1999926774125
 20
402.3026217134249
 30
0.0
  0
VERTEX
  5
15CF
330
15C0
100
AcDbEntity
  8
HILF
100
AcDbVertex
100
AcDb2dVertex
 10
327.9015371716637
 20
401.3440296557349
 30
0.0
  0
SEQEND
  5
15D0
330
15C0
100
AcDbEntity
  8
HILF
  0
POLYLINE
  5
15D1
330
1E
100
AcDbEntity
  8
HILF
100
AcDb2dPolyline
 66
     1
 10
0.0
 20
0.0
 30
0.0
  0
VERTEX
  5
15D2
330
15D1
100
AcDbEntity
  8
HILF
100
AcDbVertex
100
AcDb2dVertex
 10
328.7430054597399
 20
454.3440296557349
 30
0.0
  0
VERTEX
  5
15D3
330
15D1
100
AcDbEntity
  8
HILF
100
AcDbVertex
100
AcDb2dVertex
 10
327.4828144838291
 20
450.0652375693349
 30
0.0
  0
VERTEX
  5
15D4
330
15D1
100
AcDbEntity
  8
HILF
100
AcDbVertex
100
AcDb2dVertex
 10
326.3064838058779
 20
444.3193986426104
 30
0.0
  0
VERTEX
  5
15D5
330
15D1
100
AcDbEntity
  8
HILF
100
AcDbVertex
100
AcDb2dVertex
 10
325.796768167582
 20
439.3266357469468
 30
0.0
  0
VERTEX
  5
15D6
330
15D1
100
AcDbEntity
  8
HILF
100
AcDbVertex
100
AcDb2dVertex
 10
325.8436828445703
 20
434.9549773474023
 30
0.0
  0
VERTEX
  5
15D7
330
15D1
100
AcDbEntity
  8
HILF
100
AcDbVertex
100
AcDb2dVertex
 10
326.3372431124714
 20
431.0724519090348
 30
0.0
  0
VERTEX
  5
15D8
330
15D1
100
AcDbEntity
  8
HILF
100
AcDbVertex
100
AcDb2dVertex
 10
327.1674642469144
 20
427.5470878969025
 30
0.0
  0
VERTEX
  5
15D9
330
15D1
100
AcDbEntity
  8
HILF
100
AcDbVertex
100
AcDb2dVertex
 10
328.2243615235279
 20
424.2469137760632
 30
0.0
  0
VERTEX
  5
15DA
330
15D1
100
AcDbEntity
  8
HILF
100
AcDbVertex
100
AcDb2dVertex
 10
329.3888446303177
 20
421.0423569509361
 30
0.0
  0
VERTEX
  5
15DB
330
15D1
100
AcDbEntity
  8
HILF
100
AcDbVertex
100
AcDb2dVertex
 10
330.505400904797
 20
417.8134405833848
 30
0.0
  0
VERTEX
  5
15DC
330
15D1
100
AcDbEntity
  8
HILF
100
AcDbVertex
100
AcDb2dVertex
 10
331.4094120968561
 20
414.4425867746335
 30
0.0
  0
VERTEX
  5
15DD
330
15D1
100
AcDbEntity
  8
HILF
100
AcDbVertex
100
AcDb2dVertex
 10
331.9362599563849
 20
410.8122176259067
 30
0.0
  0
VERTEX
  5
15DE
330
15D1
100
AcDbEntity
  8
HILF
100
AcDbVertex
100
AcDb2dVertex
 10
331.9213262332737
 20
406.8047552384291
 30
0.0
  0
VERTEX
  5
15DF
330
15D1
100
AcDbEntity
  8
HILF
100
AcDbVertex
100
AcDb2dVertex
 10
331.1999926774125
 20
402.3026217134249
 30
0.0
  0
VERTEX
  5
15E0
330
15D1
100
AcDbEntity
  8
HILF
100
AcDbVertex
100
AcDb2dVertex
 10
330.9015371716637
 20
401.3440296557349
 30
0.0
  0
SEQEND
  5
15E1
330
15D1
100
AcDbEntity
  8
HILF
  0
CIRCLE
  5
1642
330
1E
100
AcDbEntity
  8
STEMPEL
100
AcDbCircle
 10
417.5819555632357
 20
299.0321076175265
 30
0.0
 40
18.39476277443199
  0
CIRCLE
  5
1643
330
1E
100
AcDbEntity
  8
HILF
100
AcDbCircle
 10
417.5819555632357
 20
299.0321076175265
 30
0.0
 40
21.02479450143539
  0
ARC
  5
1644
330
1E
100
AcDbEntity
  8
HILF
100
AcDbCircle
 10
459.273132033824
 20
275.2445939917129
 30
0.0
 40
18.07
100
AcDbArc
 50
107.9174884019676
 51
150.2924450668098
  0
ARC
  5
1645
330
1E
100
AcDbEntity
  8
HILF
100
AcDbCircle
 10
451.5819555632358
 20
299.0321076175265
 30
0.0
 40
6.929999999999999
100
AcDbArc
 50
287.9174884019711
 51
72.08251159803238
  0
ARC
  5
1646
330
1E
100
AcDbEntity
  8
HILF
100
AcDbCircle
 10
459.273132033824
 20
322.8196212433402
 30
0.0
 40
18.07
100
AcDbArc
 50
209.7075549331895
 51
252.0825115980323
  0
ARC
  5
1647
330
1E
100
AcDbEntity
  8
HILF
100
AcDbCircle
 10
417.5819555632357
 20
299.0321076175265
 30
0.0
 40
29.93
100
AcDbArc
 50
29.70755493319017
 51
150.2924450668098
  0
ARC
  5
1648
330
1E
100
AcDbEntity
  8
HILF
100
AcDbCircle
 10
375.8907790926475
 20
322.8196212433403
 30
0.0
 40
18.07
100
AcDbArc
 50
287.9174884019676
 51
330.2924450668105
  0
ARC
  5
1649
330
1E
100
AcDbEntity
  8
HILF
100
AcDbCircle
 10
383.5819555632358
 20
299.0321076175266
 30
0.0
 40
6.929999999999999
100
AcDbArc
 50
107.9174884019676
 51
252.082511598029
  0
ARC
  5
164A
330
1E
100
AcDbEntity
  8
HILF
100
AcDbCircle
 10
375.8907790926475
 20
275.2445939917129
 30
0.0
 40
18.07
100
AcDbArc
 50
29.70755493319017
 51
72.08251159803238
  0
ARC
  5
164B
330
1E
100
AcDbEntity
  8
HILF
100
AcDbCircle
 10
417.5819555632357
 20
299.0321076175265
 30
0.0
 40
29.93
100
AcDbArc
 50
209.7075549331909
 51
330.2924450668091
  0
LINE
  5
164D
330
1E
100
AcDbEntity
  8
STEMPEL
100
AcDbLine
 10
415.8320848582357
 20
294.2411250814219
 30
0.0
 11
415.8320848582357
 21
293.9969059981871
 31
0.0
  0
ARC
  5
164E
330
1E
100
AcDbEntity
  8
STEMPEL
100
AcDbCircle
 10
416.2513223032357
 20
294.2411250814219
 30
0.0
 40
0.4192374449999999
100
AcDbArc
 50
110.0000000000001
 51
180.0
  0
ARC
  5
164F
330
1E
100
AcDbEntity
  8
STEMPEL
100
AcDbCircle
 10
416.2513223032357
 20
294.2411250814219
 30
0.0
 40
1.909370759999999
100
AcDbArc
 50
110.0000000000001
 51
180.0
  0
LINE
  5
1650
330
1E
100
AcDbEntity
  8
STEMPEL
100
AcDbLine
 10
414.3419515432358
 20
294.2411250814219
 30
0.0
 11
414.3419515432358
 21
291.2700802675262
 31
0.0
  0
CIRCLE
  5
1651
330
1E
100
AcDbEntity
  8
STEMPEL
100
AcDbCircle
 10
417.5819555632357
 20
291.2700802675262
 30
0.0
 40
1.749870704999999
  0
LINE
  5
1652
330
1E
100
AcDbEntity
  8
STEMPEL
100
AcDbLine
 10
416.1079346522095
 20
294.6350794148455
 30
0.0
 11
417.9101527924563
 21
295.29103317355
 31
0.0
  0
ARC
  5
1653
330
1E
100
AcDbEntity
  8
STEMPEL
100
AcDbCircle
 10
417.5819555632357
 20
291.2700802675262
 30
0.0
 40
3.240004019999999
100
AcDbArc
 50
180.0
 51
122.6892810807665
  0
LINE
  5
1654
330
1E
100
AcDbEntity
  8
STEMPEL
100
AcDbLine
 10
414.3419515432358
 20
299.9435034325262
 30
0.0
 11
414.3419515432358
 21
298.4533701175262
 31
0.0
  0
LINE
  5
1655
330
1E
100
AcDbEntity
  8
STEMPEL
100
AcDbLine
 10
414.3419515432358
 20
299.9435034325262
 30
0.0
 11
416.2861948541596
 21
299.9435034325262
 31
0.0
  0
ARC
  5
1656
330
1E
100
AcDbEntity
  8
STEMPEL
100
AcDbCircle
 10
417.5819555632357
 20
302.9131212925262
 30
0.0
 40
3.240004019999999
100
AcDbArc
 50
180.0
 51
246.4264695056768
  0
LINE
  5
1657
330
1E
100
AcDbEntity
  8
STEMPEL
100
AcDbLine
 10
418.7151235882358
 20
298.4533701175262
 30
0.0
 11
418.7151235882358
 21
296.7034994125261
 31
0.0
  0
LINE
  5
1658
330
1E
100
AcDbEntity
  8
STEMPEL
100
AcDbLine
 10
418.7151235882358
 20
298.4533701175262
 30
0.0
 11
419.3318262682359
 21
298.4533701175261
 31
0.0
  0
LINE
  5
1659
330
1E
100
AcDbEntity
  8
STEMPEL
100
AcDbLine
 10
419.3318262682359
 20
298.4533701175261
 30
0.0
 11
419.3318262682358
 21
296.7034994125261
 31
0.0
  0
LINE
  5
165A
330
1E
100
AcDbEntity
  8
STEMPEL
100
AcDbLine
 10
417.2249902732358
 20
298.4533701175262
 30
0.0
 11
417.2249902732358
 21
296.9209743820565
 31
0.0
  0
LINE
  5
165B
330
1E
100
AcDbEntity
  8
STEMPEL
100
AcDbLine
 10
420.8219595832358
 20
299.9435034325261
 30
0.0
 11
420.8219595832358
 21
296.7034994125261
 31
0.0
  0
LINE
  5
165C
330
1E
100
AcDbEntity
  8
STEMPEL
100
AcDbLine
 10
418.8777162723119
 20
299.9435034325262
 30
0.0
 11
420.8219595832358
 21
299.9435034325261
 31
0.0
  0
LINE
  5
165D
330
1E
100
AcDbEntity
  8
STEMPEL
100
AcDbLine
 10
414.3419515432358
 20
298.4533701175262
 30
0.0
 11
417.2249902732358
 21
298.4533701175262
 31
0.0
  0
ARC
  5
165E
330
1E
100
AcDbEntity
  8
STEMPEL
100
AcDbCircle
 10
416.8057528282358
 20
296.9209743820565
 30
0.0
 40
0.4192374449999999
100
AcDbArc
 50
290.0000000000001
 51
0.0
  0
ARC
  5
165F
330
1E
100
AcDbEntity
  8
STEMPEL
100
AcDbCircle
 10
416.0295500932358
 20
308.3465404375262
 30
0.0
 40
0.1974652349999999
100
AcDbArc
 50
90.0
 51
180.0
  0
ARC
  5
1660
330
1E
100
AcDbEntity
  8
STEMPEL
100
AcDbCircle
 10
416.0295500932358
 20
308.3465404375262
 30
0.0
 40
1.68759855
100
AcDbArc
 50
90.0
 51
180.0
  0
LINE
  5
1661
330
1E
100
AcDbEntity
  8
STEMPEL
100
AcDbLine
 10
415.8320848582358
 20
308.3465404375262
 30
0.0
 11
415.8320848582358
 21
305.6399470231889
 31
0.0
  0
LINE
  5
1662
330
1E
100
AcDbEntity
  8
STEMPEL
100
AcDbLine
 10
420.8219595832358
 20
310.0341389875262
 30
0.0
 11
420.8219595832358
 21
308.5440056725262
 31
0.0
  0
LINE
  5
1663
330
1E
100
AcDbEntity
  8
STEMPEL
100
AcDbLine
 10
420.8219595832358
 20
310.0341389875262
 30
0.0
 11
416.0295500932358
 21
310.0341389875262
 31
0.0
  0
LINE
  5
1664
330
1E
100
AcDbEntity
  8
STEMPEL
100
AcDbLine
 10
420.8219595832358
 20
308.5440056725262
 30
0.0
 11
416.0295500932358
 21
308.5440056725262
 31
0.0
  0
ARC
  5
1665
330
1E
100
AcDbEntity
  8
STEMPEL
100
AcDbCircle
 10
417.5819555632357
 20
302.9131212925262
 30
0.0
 40
3.240004019999999
100
AcDbArc
 50
293.5735304943269
 51
122.6892810807475
  0
LINE
  5
1666
330
1E
100
AcDbEntity
  8
STEMPEL
100
AcDbLine
 10
414.3419515432358
 20
308.3465404375262
 30
0.0
 11
414.3419515432358
 21
302.9131212925262
 31
0.0
  0
CIRCLE
  5
1667
330
1E
100
AcDbEntity
  8
STEMPEL
100
AcDbCircle
 10
417.5839795919088
 20
302.9138981053822
 30
0.0
 40
1.749870704999999
  0
ARC
  5
1668
330
1E
100
AcDbEntity
  8
STEMPEL
100
AcDbCircle
 10
419.0234749282358
 20
296.7034994125261
 30
0.0
 40
0.3083513399999937
100
AcDbArc
 50
180.0
 51
0.0
  0
LINE
  5
1669
330
1E
100
AcDbEntity
  8
STEMPEL
100
AcDbLine
 10
415.5982790422387
 20
296.0353466949382
 30
0.0
 11
416.9491404792621
 21
296.5270200486328
 31
0.0
  0
ARC
  5
166A
330
1E
100
AcDbEntity
  8
STEMPEL
100
AcDbCircle
 10
419.0234749282358
 20
296.7034994125261
 30
0.0
 40
1.798484654999993
100
AcDbArc
 50
231.7544148360567
 51
0.0
  0
LINE
  5
166B
330
1E
100
AcDbEntity
  8
MITTEL
100
AcDbLine
 10
417.5819555632357
 20
336.0321076175265
 30
0.0
 11
417.5819555632357
 21
262.0321076175265
 31
0.0
  0
LINE
  5
166C
330
1E
100
AcDbEntity
  8
MITTEL
100
AcDbLine
 10
383.5819555632358
 20
307.2821076175265
 30
0.0
 11
383.5819555632358
 21
290.7821076175265
 31
0.0
  0
LINE
  5
1670
330
1E
100
AcDbEntity
  8
MITTEL
100
AcDbLine
 10
451.5819555632358
 20
307.2821076175265
 30
0.0
 11
451.5819555632358
 21
290.7821076175265
 31
0.0
  0
ARC
  5
1671
330
1E
100
AcDbEntity
  8
STEMPEL
100
AcDbCircle
 10
417.5819555632357
 20
299.0321076175265
 30
0.0
 40
32.0
100
AcDbArc
 50
209.7075549331909
 51
330.2924450668091
  0
ARC
  5
1672
330
1E
100
AcDbEntity
  8
STEMPEL
100
AcDbCircle
 10
459.273132033824
 20
275.2445939917129
 30
0.0
 40
16.0
100
AcDbArc
 50
107.9174884019676
 51
150.2924450668098
  0
ARC
  5
1673
330
1E
100
AcDbEntity
  8
STEMPEL
100
AcDbCircle
 10
375.8907790926475
 20
275.2445939917129
 30
0.0
 40
16.0
100
AcDbArc
 50
29.70755493319017
 51
72.08251159803238
  0
ARC
  5
1674
330
1E
100
AcDbEntity
  8
STEMPEL
100
AcDbCircle
 10
417.5819555632357
 20
299.0321076175265
 30
0.0
 40
32.0
100
AcDbArc
 50
29.70755493319017
 51
150.2924450668098
  0
ARC
  5
1675
330
1E
100
AcDbEntity
  8
STEMPEL
100
AcDbCircle
 10
459.273132033824
 20
322.8196212433402
 30
0.0
 40
16.0
100
AcDbArc
 50
209.7075549331895
 51
252.0825115980323
  0
ARC
  5
1676
330
1E
100
AcDbEntity
  8
STEMPEL
100
AcDbCircle
 10
451.5819555632358
 20
299.0321076175265
 30
0.0
 40
9.0
100
AcDbArc
 50
287.9174884019711
 51
72.08251159803238
  0
ARC
  5
1677
330
1E
100
AcDbEntity
  8
STEMPEL
100
AcDbCircle
 10
375.8907790926475
 20
322.8196212433403
 30
0.0
 40
16.0
100
AcDbArc
 50
287.9174884019676
 51
330.2924450668105
  0
ARC
  5
1678
330
1E
100
AcDbEntity
  8
STEMPEL
100
AcDbCircle
 10
383.5819555632358
 20
299.0321076175266
 30
0.0
 40
9.0
100
AcDbArc
 50
107.9174884019676
 51
252.082511598029
  0
LINE
  5
1682
330
1E
100
AcDbEntity
  8
STEMPEL
100
AcDbLine
 10
399.6445644485837
 20
272.5321076175266
 30
0.0
 11
95.09823420005046
 21
272.5321076175265
 31
0.0
  0
LINE
  5
1683
330
1E
100
AcDbEntity
  8
STEMPEL
100
AcDbLine
 10
399.6445644485837
 20
325.5321076175266
 30
0.0
 11
95.09823420005046
 21
325.5321076175266
 31
0.0
  0
HATCH
  5
1737
330
1E
100
AcDbEntity
  8
SCHRAFF
100
AcDbHatch
 10
0.0
 20
0.0
 30
0.0
210
0.0
220
0.0
230
1.0
  2
_USER
 70
     0
 71
     0
 91
        4
 92
        7
 72
     1
 73
     1
 93
        8
 10
457.1122075654809
 20
461.8440296557349
 42
-0.3066784415588911
 10
458.0406842563662
 20
461.215420332089
 42
0.0
 10
459.1892405269079
 20
458.3440296557346
 42
0.0
 10
460.5819555632358
 20
458.9011156702658
 42
0.0
 10
459.4333992926941
 20
461.7725063466199
 42
0.3066784415589007
 10
457.1122075654809
 20
463.3440296557348
 42
0.0
 10
454.8319555632359
 20
463.3440296557348
 42
0.0
 10
454.8319555632359
 20
461.8440296557349
 42
0.0
 97
        0
 92
        7
 72
     1
 73
     1
 93
       19
 10
439.2537976774274
 20
463.3440296557347
 42
0.1316524975873983
 10
438.0037976774274
 20
463.0090931651959
 42
0.0
 10
436.2178992925652
 20
461.9780042519504
 42
-0.1316524975873692
 10
435.7178992925653
 20
461.8440296557349
 42
0.0
 10
421.1106347178306
 20
461.8440296557349
 42
-0.2679491924311026
 10
420.6776220159384
 20
462.0940296557348
 42
0.0
 10
420.3889468813436
 20
462.5940296557347
 42
0.267949192431143
 10
419.9559341794514
 20
462.8440296557347
 42
0.0
 10
417.5819555632357
 20
462.8440296557347
 42
0.0
 10
417.5819555632357
 20
461.3440296557349
 42
0.0
 10
419.1106347178306
 20
461.3440296557347
 42
-0.2360679774997717
 10
419.5106347178306
 20
461.1440296557347
 42
0.2360679774997792
 10
421.1106347178305
 20
460.3440296557348
 42
0.0
 10
435.7178992925653
 20
460.3440296557347
 42
0.1316524975874129
 10
436.9678992925654
 20
460.6789661462737
 42
0.0
 10
438.7537976774274
 20
461.7100550595191
 42
-0.1316524975874205
 10
439.2537976774274
 20
461.8440296557349
 42
0.0
 10
448.3319555632359
 20
461.8440296557349
 42
0.0
 10
448.3319555632357
 20
463.3440296557348
 42
0.0
 97
        0
 92
        7
 72
     1
 73
     1
 93
       19
 10
414.0532764086409
 20
460.3440296557347
 42
0.236067977499798
 10
415.6532764086409
 20
461.1440296557348
 42
-0.2360679774998107
 10
416.053276408641
 20
461.3440296557349
 42
0.0
 10
417.5819555632357
 20
461.3440296557348
 42
0.0
 10
417.5819555632357
 20
462.8440296557348
 42
0.0
 10
415.2079769470203
 20
462.8440296557348
 42
0.2679491924311506
 10
414.774964245128
 20
462.5940296557348
 42
0.0
 10
414.4862891105331
 20
462.0940296557347
 42
-0.2679491924310851
 10
414.0532764086409
 20
461.8440296557349
 42
0.0
 10
399.4460118339063
 20
461.8440296557349
 42
-0.1316524975873839
 10
398.9460118339064
 20
461.9780042519504
 42
0.0
 10
397.1601134490441
 20
463.009093165196
 42
0.1316524975873925
 10
395.9101134490442
 20
463.3440296557348
 42
0.0
 10
386.8319555632357
 20
463.3440296557348
 42
0.0
 10
386.8319555632357
 20
461.8440296557348
 42
0.0
 10
395.9101134490441
 20
461.8440296557349
 42
-0.1316524975873983
 10
396.4101134490441
 20
461.7100550595193
 42
0.0
 10
398.1960118339062
 20
460.6789661462737
 42
0.1316524975873926
 10
399.4460118339061
 20
460.3440296557348
 42
0.0
 97
        0
 92
        7
 72
     1
 73
     1
 93
        8
 10
380.3319555632357
 20
461.8440296557348
 42
0.0
 10
380.3319555632357
 20
463.3440296557348
 42
0.0
 10
378.0517035609906
 20
463.3440296557348
 42
0.3066784415588923
 10
375.7305118337774
 20
461.77250634662
 42
0.0
 10
374.5819555632358
 20
458.9011156702657
 42
0.0
 10
375.9746705995635
 20
458.3440296557347
 42
0.0
 10
377.1232268701052
 20
461.2154203320889
 42
-0.3066784415589121
 10
378.0517035609905
 20
461.8440296557349
 42
0.0
 97
        0
 75
     0
 76
     0
 52
45.0
 41
2.0
 77
     0
 78
     1
 53
45.0
 43
305.0819555632358
 44
223.7986781884998
 45
-1.414213562373094
 46
1.414213562373095
 79
     0
 47
0.14640731890295
 98
        4
 10
455.8486664435253
 20
462.5050138254933
 10
443.8347744831569
 20
462.9442359436329
 10
411.6023830613741
 20
461.040941031289
 10
378.6374373503215
 20
462.3586066860122
  0
ARC
  5
1738
330
1E
100
AcDbEntity
  8
STEMPEL
100
AcDbCircle
 10
415.2079769470202
 20
462.3440296557348
 30
0.0
 40
0.5
100
AcDbArc
 50
90.0
 51
149.9999999999994
  0
ARC
  5
1739
330
1E
100
AcDbEntity
  8
STEMPEL
100
AcDbCircle
 10
419.9559341794514
 20
462.3440296557347
 30
0.0
 40
0.5
100
AcDbArc
 50
29.99999999999891
 51
89.99999999999674
  0
ARC
  5
173A
330
1E
100
AcDbEntity
  8
STEMPEL
100
AcDbCircle
 10
416.053276408641
 20
460.8440296557348
 30
0.0
 40
0.5
100
AcDbArc
 50
89.99999999999674
 51
143.1301023541605
  0
ARC
  5
173B
330
1E
100
AcDbEntity
  8
STEMPEL
100
AcDbCircle
 10
419.1106347178306
 20
460.8440296557347
 30
0.0
 40
0.5
100
AcDbArc
 50
36.86989764584467
 51
89.99999999999674
  0
LINE
  5
173C
330
1E
100
AcDbEntity
  8
STEMPEL
100
AcDbLine
 10
419.1106347178306
 20
461.3440296557347
 30
0.0
 11
416.053276408641
 21
461.3440296557349
 31
0.0
  0
ARC
  5
173D
330
1E
100
AcDbEntity
  8
STEMPEL
100
AcDbCircle
 10
414.0532764086409
 20
462.3440296557348
 30
0.0
 40
2.0
100
AcDbArc
 50
270.0
 51
323.1301023541553
  0
ARC
  5
173E
330
1E
100
AcDbEntity
  8
STEMPEL
100
AcDbCircle
 10
421.1106347178306
 20
462.3440296557348
 30
0.0
 40
2.0
100
AcDbArc
 50
216.8698976458447
 51
270.0
  0
ARC
  5
173F
330
1E
100
AcDbEntity
  8
STEMPEL
100
AcDbCircle
 10
414.0532764086409
 20
462.3440296557348
 30
0.0
 40
0.5
100
AcDbArc
 50
270.0
 51
329.9999999999995
  0
ARC
  5
1740
330
1E
100
AcDbEntity
  8
STEMPEL
100
AcDbCircle
 10
421.1106347178306
 20
462.3440296557348
 30
0.0
 40
0.5
100
AcDbArc
 50
210.0000000000005
 51
270.0
  0
LINE
  5
1741
330
1E
100
AcDbEntity
  8
STEMPEL
100
AcDbLine
 10
421.1106347178306
 20
461.8440296557349
 30
0.0
 11
435.7178992925653
 21
461.8440296557349
 31
0.0
  0
LINE
  5
1742
330
1E
100
AcDbEntity
  8
STEMPEL
100
AcDbLine
 10
419.9559341794514
 20
462.8440296557347
 30
0.0
 11
415.2079769470203
 21
462.8440296557348
 31
0.0
  0
LINE
  5
1743
330
1E
100
AcDbEntity
  8
STEMPEL
100
AcDbLine
 10
414.4862891105331
 20
462.0940296557347
 30
0.0
 11
414.774964245128
 21
462.5940296557348
 31
0.0
  0
LINE
  5
1744
330
1E
100
AcDbEntity
  8
STEMPEL
100
AcDbLine
 10
420.6776220159384
 20
462.0940296557348
 30
0.0
 11
420.3889468813436
 21
462.5940296557347
 31
0.0
  0
ARC
  5
1745
330
1E
100
AcDbEntity
  8
STEMPEL
100
AcDbCircle
 10
395.9101134490441
 20
460.8440296557348
 30
0.0
 40
2.5
100
AcDbArc
 50
59.99999999999946
 51
90.0
  0
LINE
  5
1746
330
1E
100
AcDbEntity
  8
STEMPEL
100
AcDbLine
 10
397.1601134490441
 20
463.009093165196
 30
0.0
 11
398.9460118339064
 21
461.9780042519504
 31
0.0
  0
LINE
  5
1747
330
1E
100
AcDbEntity
  8
STEMPEL
100
AcDbLine
 10
396.4101134490441
 20
461.7100550595193
 30
0.0
 11
398.1960118339062
 21
460.6789661462737
 31
0.0
  0
ARC
  5
1748
330
1E
100
AcDbEntity
  8
STEMPEL
100
AcDbCircle
 10
399.4460118339063
 20
462.8440296557348
 30
0.0
 40
2.5
100
AcDbArc
 50
239.9999999999995
 51
270.0
  0
ARC
  5
1749
330
1E
100
AcDbEntity
  8
STEMPEL
100
AcDbCircle
 10
395.9101134490441
 20
460.8440296557348
 30
0.0
 40
1.0
100
AcDbArc
 50
59.99999999999946
 51
90.0
  0
ARC
  5
174A
330
1E
100
AcDbEntity
  8
STEMPEL
100
AcDbCircle
 10
399.4460118339063
 20
462.8440296557348
 30
0.0
 40
1.0
100
AcDbArc
 50
239.9999999999995
 51
270.0
  0
ARC
  5
174B
330
1E
100
AcDbEntity
  8
STEMPEL
100
AcDbCircle
 10
435.7178992925653
 20
462.8440296557348
 30
0.0
 40
1.0
100
AcDbArc
 50
270.0
 51
300.0000000000005
  0
ARC
  5
174C
330
1E
100
AcDbEntity
  8
STEMPEL
100
AcDbCircle
 10
439.2537976774274
 20
460.8440296557348
 30
0.0
 40
1.0
100
AcDbArc
 50
90.0
 51
120.0000000000005
  0
LINE
  5
174D
330
1E
100
AcDbEntity
  8
STEMPEL
100
AcDbLine
 10
458.0406842563663
 20
461.2154203320888
 30
0.0
 11
459.1892405269079
 21
458.3440296557346
 31
0.0
  0
ARC
  5
174E
330
1E
100
AcDbEntity
  8
STEMPEL
100
AcDbCircle
 10
457.1122075654809
 20
460.8440296557346
 30
0.0
 40
2.5
100
AcDbArc
 50
21.80140948634939
 51
90.0
  0
LINE
  5
174F
330
1E
100
AcDbEntity
  8
STEMPEL
100
AcDbLine
 10
459.4333992926941
 20
461.7725063466199
 30
0.0
 11
460.5819555632358
 21
458.9011156702656
 31
0.0
  0
LINE
  5
1750
330
1E
100
AcDbEntity
  8
STEMPEL
100
AcDbLine
 10
459.1892405269079
 20
458.3440296557346
 30
0.0
 11
460.5819555632358
 21
458.9011156702658
 31
0.0
  0
ARC
  5
1751
330
1E
100
AcDbEntity
  8
STEMPEL
100
AcDbCircle
 10
457.1122075654809
 20
460.8440296557346
 30
0.0
 40
1.0
100
AcDbArc
 50
21.80140948634939
 51
90.0
  0
ARC
  5
1752
330
1E
100
AcDbEntity
  8
STEMPEL
100
AcDbCircle
 10
378.0517035609906
 20
460.8440296557348
 30
0.0
 40
1.0
100
AcDbArc
 50
90.0
 51
158.1985905136506
  0
LINE
  5
1753
330
1E
100
AcDbEntity
  8
STEMPEL
100
AcDbLine
 10
375.9746705995636
 20
458.3440296557348
 30
0.0
 11
374.5819555632357
 21
458.9011156702659
 31
0.0
  0
LINE
  5
1756
330
1E
100
AcDbEntity
  8
STEMPEL
100
AcDbLine
 10
380.3319555632357
 20
463.3440296557348
 30
0.0
 11
380.3319555632357
 21
461.8440296557349
 31
0.0
  0
LINE
  5
1757
330
1E
100
AcDbEntity
  8
STEMPEL
100
AcDbLine
 10
386.8319555632357
 20
463.3440296557348
 30
0.0
 11
386.8319555632357
 21
461.8440296557349
 31
0.0
  0
LINE
  5
1758
330
1E
100
AcDbEntity
  8
STEMPEL
100
AcDbLine
 10
375.9746705995635
 20
458.3440296557348
 30
0.0
 11
380.5819555632357
 21
458.3440296557348
 31
0.0
  0
LINE
  5
1759
330
1E
100
AcDbEntity
  8
STEMPEL
100
AcDbLine
 10
375.7305118337774
 20
461.77250634662
 30
0.0
 11
374.5819555632358
 21
458.9011156702659
 31
0.0
  0
ARC
  5
175A
330
1E
100
AcDbEntity
  8
STEMPEL
100
AcDbCircle
 10
378.0517035609906
 20
460.8440296557348
 30
0.0
 40
2.5
100
AcDbArc
 50
90.0
 51
158.1985905136506
  0
LINE
  5
175B
330
1E
100
AcDbEntity
  8
STEMPEL
100
AcDbLine
 10
378.0517035609906
 20
461.8440296557349
 30
0.0
 11
380.5819555632358
 21
461.8440296557349
 31
0.0
  0
LINE
  5
175C
330
1E
100
AcDbEntity
  8
STEMPEL
100
AcDbLine
 10
399.4460118339063
 20
461.8440296557349
 30
0.0
 11
414.0532764086409
 21
461.8440296557349
 31
0.0
  0
LINE
  5
175D
330
1E
100
AcDbEntity
  8
STEMPEL
100
AcDbLine
 10
377.1232268701052
 20
461.2154203320889
 30
0.0
 11
375.9746705995636
 21
458.3440296557348
 31
0.0
  0
LINE
  5
175E
330
1E
100
AcDbEntity
  8
STEMPEL
100
AcDbLine
 10
399.4460118339063
 20
460.3440296557348
 30
0.0
 11
435.7178992925653
 21
460.3440296557347
 31
0.0
  0
LINE
  5
175F
330
1E
100
AcDbEntity
  8
STEMPEL
100
AcDbLine
 10
378.0517035609906
 20
463.3440296557348
 30
0.0
 11
457.1122075654809
 21
463.3440296557349
 31
0.0
  0
LINE
  5
1760
330
1E
100
AcDbEntity
  8
STEMPEL
100
AcDbLine
 10
457.1122075654809
 20
461.8440296557349
 30
0.0
 11
454.5819555632357
 21
461.8440296557349
 31
0.0
  0
LINE
  5
1761
330
1E
100
AcDbEntity
  8
STEMPEL
100
AcDbLine
 10
454.8319555632359
 20
463.3440296557348
 30
0.0
 11
454.8319555632359
 21
461.8440296557349
 31
0.0
  0
LINE
  5
1762
330
1E
100
AcDbEntity
  8
STEMPEL
100
AcDbLine
 10
448.3319555632359
 20
463.3440296557348
 30
0.0
 11
448.3319555632359
 21
461.8440296557349
 31
0.0
  0
ARC
  5
1763
330
1E
100
AcDbEntity
  8
STEMPEL
100
AcDbCircle
 10
435.7178992925653
 20
462.8440296557348
 30
0.0
 40
2.5
100
AcDbArc
 50
270.0
 51
300.0000000000005
  0
LINE
  5
1764
330
1E
100
AcDbEntity
  8
STEMPEL
100
AcDbLine
 10
438.7537976774274
 20
461.7100550595191
 30
0.0
 11
436.9678992925654
 21
460.6789661462737
 31
0.0
  0
LINE
  5
1765
330
1E
100
AcDbEntity
  8
STEMPEL
100
AcDbLine
 10
438.0037976774274
 20
463.009093165196
 30
0.0
 11
436.2178992925652
 21
461.9780042519504
 31
0.0
  0
ARC
  5
1766
330
1E
100
AcDbEntity
  8
STEMPEL
100
AcDbCircle
 10
439.2537976774274
 20
460.8440296557348
 30
0.0
 40
2.5
100
AcDbArc
 50
90.0
 51
120.0000000000005
  0
LINE
  5
1768
102
{ACAD_REACTORS
330
1872
330
1862
102
}
330
1E
100
AcDbEntity
  8
STEMPEL
100
AcDbLine
 10
443.5819555632356
 20
457.8440296557348
 30
0.0
 11
391.5819555632358
 21
457.8440296557348
 31
0.0
  0
LINE
  5
1769
102
{ACAD_REACTORS
330
1862
102
}
330
1E
100
AcDbEntity
  8
STEMPEL
100
AcDbLine
 10
391.5819555632358
 20
457.8440296557348
 30
0.0
 11
391.5819555632357
 21
456.844029655735
 31
0.0
  0
LINE
  5
176A
102
{ACAD_REACTORS
330
1862
102
}
330
1E
100
AcDbEntity
  8
STEMPEL
100
AcDbLine
 10
443.5819555632356
 20
457.8440296557348
 30
0.0
 11
443.5819555632356
 21
456.844029655735
 31
0.0
  0
LINE
  5
176B
102
{ACAD_REACTORS
330
1862
102
}
330
1E
100
AcDbEntity
  8
STEMPEL
100
AcDbLine
 10
389.0819555632358
 20
454.344029655735
 30
0.0
 11
95.09823420005046
 21
454.3440296557349
 31
0.0
  0
ARC
  5
176C
102
{ACAD_REACTORS
330
1862
102
}
330
1E
100
AcDbEntity
  8
STEMPEL
100
AcDbCircle
 10
446.0819555632355
 20
456.844029655735
 30
0.0
 40
2.5
100
AcDbArc
 50
180.0
 51
270.0
  0
ARC
  5
176D
102
{ACAD_REACTORS
330
1862
102
}
330
1E
100
AcDbEntity
  8
STEMPEL
100
AcDbCircle
 10
389.0819555632358
 20
456.844029655735
 30
0.0
 40
2.5
100
AcDbArc
 50
270.0
 51
0.0000000000009287
  0
ARC
  5
176E
102
{ACAD_REACTORS
330
1862
102
}
330
1E
100
AcDbEntity
  8
STEMPEL
100
AcDbCircle
 10
446.0819555632355
 20
456.844029655735
 30
0.0
 40
4.0
100
AcDbArc
 50
180.0
 51
270.0
  0
LINE
  5
176F
102
{ACAD_REACTORS
330
1862
102
}
330
1E
100
AcDbEntity
  8
STEMPEL
100
AcDbLine
 10
457.58855512503
 20
452.844029655735
 30
0.0
 11
446.0819555632355
 21
452.844029655735
 31
0.0
  0
ARC
  5
1770
102
{ACAD_REACTORS
330
1862
102
}
330
1E
100
AcDbEntity
  8
STEMPEL
100
AcDbCircle
 10
389.0819555632358
 20
456.844029655735
 30
0.0
 40
4.0
100
AcDbArc
 50
270.0
 51
0.0000000000009287
  0
LINE
  5
1771
102
{ACAD_REACTORS
330
1862
102
}
330
1E
100
AcDbEntity
  8
STEMPEL
100
AcDbLine
 10
389.0819555632358
 20
452.844029655735
 30
0.0
 11
365.3214548974295
 21
452.844029655735
 31
0.0
  0
LINE
  5
1772
102
{ACAD_REACTORS
330
1862
102
}
330
1E
100
AcDbEntity
  8
STEMPEL
100
AcDbLine
 10
393.0819555632358
 20
457.8440296557348
 30
0.0
 11
393.0819555632357
 21
456.844029655735
 31
0.0
  0
LINE
  5
1773
102
{ACAD_REACTORS
330
1862
102
}
330
1E
100
AcDbEntity
  8
STEMPEL
100
AcDbLine
 10
442.0819555632356
 20
457.8440296557349
 30
0.0
 11
442.0819555632355
 21
456.844029655735
 31
0.0
  0
LINE
  5
1774
330
1E
100
AcDbEntity
  8
STEMPEL
100
AcDbLine
 10
444.0819555632357
 20
461.8440296557349
 30
0.0
 11
439.2537976774274
 21
461.8440296557349
 31
0.0
  0
LINE
  5
1775
330
1E
100
AcDbEntity
  8
STEMPEL
100
AcDbLine
 10
445.5819555632357
 20
456.8440296557349
 30
0.0
 11
443.5819555632356
 21
456.8440296557349
 31
0.0
  0
LINE
  5
1778
102
{ACAD_REACTORS
330
1872
102
}
330
1E
100
AcDbEntity
  8
STEMPEL
100
AcDbLine
 10
445.5819555632357
 20
456.8440296557349
 30
0.0
 11
443.5819555632356
 21
457.8440296557348
 31
0.0
  0
LINE
  5
1779
102
{ACAD_REACTORS
330
1872
102
}
330
1E
100
AcDbEntity
  8
STEMPEL
100
AcDbLine
 10
391.5819555632358
 20
457.8440296557348
 30
0.0
 11
389.5819555632357
 21
456.8440296557348
 31
0.0
  0
LINE
  5
177A
330
1E
100
AcDbEntity
  8
STEMPEL
100
AcDbLine
 10
391.5819555632357
 20
456.8440296557349
 30
0.0
 11
389.5819555632357
 21
456.8440296557348
 31
0.0
  0
LINE
  5
177C
102
{ACAD_REACTORS
330
1862
102
}
330
1E
100
AcDbEntity
  8
MITTEL
100
AcDbLine
 10
451.5819555632357
 20
479.9440296557349
 30
0.0
 11
451.5819555632356
 21
452.844029655735
 31
0.0
  0
LINE
  5
179E
102
{ACAD_REACTORS
330
1862
102
}
330
1E
100
AcDbEntity
  8
MITTEL
100
AcDbLine
 10
383.5819555632357
 20
479.9440296557349
 30
0.0
 11
383.5819555632358
 21
452.844029655735
 31
0.0
  0
LINE
  5
17A2
330
1E
100
AcDbEntity
  8
STEMPEL
100
AcDbLine
 10
445.5819555632357
 20
458.3440296557347
 30
0.0
 11
448.5819555632357
 21
458.3440296557348
 31
0.0
  0
LINE
  5
17A3
330
1E
100
AcDbEntity
  8
STEMPEL
100
AcDbLine
 10
395.9101134490441
 20
461.8440296557349
 30
0.0
 11
391.0819555632357
 21
461.8440296557349
 31
0.0
  0
LINE
  5
17A4
330
1E
100
AcDbEntity
  8
STEMPEL
100
AcDbLine
 10
454.5819555632357
 20
458.3440296557348
 30
0.0
 11
459.1892405269083
 21
458.3440296557348
 31
0.0
  0
LINE
  5
17A5
102
{ACAD_REACTORS
330
1872
102
}
330
1E
100
AcDbEntity
  8
STEMPEL
100
AcDbLine
 10
448.5819555632356
 20
461.8440296557348
 30
0.0
 11
439.2537976774274
 21
461.8440296557349
 31
0.0
  0
LINE
  5
17A6
330
1E
100
AcDbEntity
  8
STEMPEL
100
AcDbLine
 10
386.5819555632358
 20
458.3440296557348
 30
0.0
 11
389.5819555632357
 21
458.3440296557348
 31
0.0
  0
LINE
  5
17A7
102
{ACAD_REACTORS
330
1872
102
}
330
1E
100
AcDbEntity
  8
STEMPEL
100
AcDbLine
 10
386.5819555632358
 20
461.8440296557349
 30
0.0
 11
395.9101134490441
 21
461.8440296557349
 31
0.0
  0
LINE
  5
17A8
330
1E
100
AcDbEntity
  8
HILF
100
AcDbLine
 10
442.2125722591107
 20
452.9353376947638
 30
0.0
 11
417.5819555632357
 21
427.844029655735
 31
0.0
  0
LINE
  5
17A9
330
1E
100
AcDbEntity
  8
HILF
100
AcDbLine
 10
417.5819555632357
 20
427.844029655735
 30
0.0
 11
392.9513388673606
 21
452.9353376947639
 31
0.0
  0
POLYLINE
  5
1820
102
{ACAD_REACTORS
330
1862
102
}
330
1E
100
AcDbEntity
  8
HILF
100
AcDb2dPolyline
 66
     1
 10
0.0
 20
0.0
 30
0.0
  0
VERTEX
  5
1821
330
1820
100
AcDbEntity
  8
HILF
100
AcDbVertex
100
AcDb2dVertex
 10
458.5954015673049
 20
454.3440296557349
 30
0.0
  0
VERTEX
  5
1822
330
1820
100
AcDbEntity
  8
HILF
100
AcDbVertex
100
AcDb2dVertex
 10
456.6603227593852
 20
451.4611489203952
 30
0.0
  0
VERTEX
  5
1823
330
1820
100
AcDbEntity
  8
HILF
100
AcDbVertex
100
AcDb2dVertex
 10
453.9970368632999
 20
447.8721820394288
 30
0.0
  0
VERTEX
  5
1824
330
1820
100
AcDbEntity
  8
HILF
100
AcDbVertex
100
AcDb2dVertex
 10
451.3232964370904
 20
444.6384549053672
 30
0.0
  0
VERTEX
  5
1825
330
1820
100
AcDbEntity
  8
HILF
100
AcDbVertex
100
AcDb2dVertex
 10
448.6234197238964
 20
441.7286228443464
 30
0.0
  0
VERTEX
  5
1826
330
1820
100
AcDbEntity
  8
HILF
100
AcDbVertex
100
AcDb2dVertex
 10
445.8817249668572
 20
439.1113411825024
 30
0.0
  0
VERTEX
  5
1827
330
1820
100
AcDbEntity
  8
HILF
100
AcDbVertex
100
AcDb2dVertex
 10
443.0825304091125
 20
436.7552652459713
 30
0.0
  0
VERTEX
  5
1828
330
1820
100
AcDbEntity
  8
HILF
100
AcDbVertex
100
AcDb2dVertex
 10
440.2101542938016
 20
434.629050360889
 30
0.0
  0
VERTEX
  5
1829
330
1820
100
AcDbEntity
  8
HILF
100
AcDbVertex
100
AcDb2dVertex
 10
437.248914864064
 20
432.7013518533916
 30
0.0
  0
VERTEX
  5
182A
330
1820
100
AcDbEntity
  8
HILF
100
AcDbVertex
100
AcDb2dVertex
 10
434.1895918286472
 20
430.946194275966
 30
0.0
  0
VERTEX
  5
182B
330
1820
100
AcDbEntity
  8
HILF
100
AcDbVertex
100
AcDb2dVertex
 10
431.0488107587318
 20
429.3590790865027
 30
0.0
  0
VERTEX
  5
182C
330
1820
100
AcDbEntity
  8
HILF
100
AcDbVertex
100
AcDb2dVertex
 10
427.8496586911071
 20
427.9408769692436
 30
0.0
  0
VERTEX
  5
182D
330
1820
100
AcDbEntity
  8
HILF
100
AcDbVertex
100
AcDb2dVertex
 10
424.6152226625615
 20
426.69245860843
 30
0.0
  0
VERTEX
  5
182E
330
1820
100
AcDbEntity
  8
HILF
100
AcDbVertex
100
AcDb2dVertex
 10
421.3685897098841
 20
425.6146946883036
 30
0.0
  0
VERTEX
  5
182F
330
1820
100
AcDbEntity
  8
HILF
100
AcDbVertex
100
AcDb2dVertex
 10
418.1328468698636
 20
424.708455893106
 30
0.0
  0
VERTEX
  5
1830
330
1820
100
AcDbEntity
  8
HILF
100
AcDbVertex
100
AcDb2dVertex
 10
414.9310811792892
 20
423.9746129070786
 30
0.0
  0
VERTEX
  5
1831
330
1820
100
AcDbEntity
  8
HILF
100
AcDbVertex
100
AcDb2dVertex
 10
411.7863796749495
 20
423.4140364144632
 30
0.0
  0
VERTEX
  5
1832
330
1820
100
AcDbEntity
  8
HILF
100
AcDbVertex
100
AcDb2dVertex
 10
408.7188527632379
 20
423.0266538559524
 30
0.0
  0
VERTEX
  5
1833
330
1820
100
AcDbEntity
  8
HILF
100
AcDbVertex
100
AcDb2dVertex
 10
405.7367043289661
 20
422.8086196980441
 30
0.0
  0
VERTEX
  5
1834
330
1820
100
AcDbEntity
  8
HILF
100
AcDbVertex
100
AcDb2dVertex
 10
402.84516162655
 20
422.7551451636869
 30
0.0
  0
VERTEX
  5
1835
330
1820
100
AcDbEntity
  8
HILF
100
AcDbVertex
100
AcDb2dVertex
 10
400.0494519104056
 20
422.86144147583
 30
0.0
  0
VERTEX
  5
1836
330
1820
100
AcDbEntity
  8
HILF
100
AcDbVertex
100
AcDb2dVertex
 10
397.3548024349491
 20
423.1227198574219
 30
0.0
  0
VERTEX
  5
1837
330
1820
100
AcDbEntity
  8
HILF
100
AcDbVertex
100
AcDb2dVertex
 10
394.7664404545963
 20
423.534191531412
 30
0.0
  0
VERTEX
  5
1838
330
1820
100
AcDbEntity
  8
HILF
100
AcDbVertex
100
AcDb2dVertex
 10
392.2895932237635
 20
424.0910677207488
 30
0.0
  0
VERTEX
  5
1839
330
1820
100
AcDbEntity
  8
HILF
100
AcDbVertex
100
AcDb2dVertex
 10
389.9294879968666
 20
424.7885596483814
 30
0.0
  0
VERTEX
  5
183A
330
1820
100
AcDbEntity
  8
HILF
100
AcDbVertex
100
AcDb2dVertex
 10
387.6890651045146
 20
425.6223138821239
 30
0.0
  0
VERTEX
  5
183B
330
1820
100
AcDbEntity
  8
HILF
100
AcDbVertex
100
AcDb2dVertex
 10
385.5621171820885
 20
426.5897183692515
 30
0.0
  0
VERTEX
  5
183C
330
1820
100
AcDbEntity
  8
HILF
100
AcDbVertex
100
AcDb2dVertex
 10
383.5401499411623
 20
427.6885964019049
 30
0.0
  0
VERTEX
  5
183D
330
1820
100
AcDbEntity
  8
HILF
100
AcDbVertex
100
AcDb2dVertex
 10
381.6146690933098
 20
428.9167712722245
 30
0.0
  0
VERTEX
  5
183E
330
1820
100
AcDbEntity
  8
HILF
100
AcDbVertex
100
AcDb2dVertex
 10
379.777180350105
 20
430.2720662723511
 30
0.0
  0
VERTEX
  5
183F
330
1820
100
AcDbEntity
  8
HILF
100
AcDbVertex
100
AcDb2dVertex
 10
378.019189423122
 20
431.752304694425
 30
0.0
  0
VERTEX
  5
1840
330
1820
100
AcDbEntity
  8
HILF
100
AcDbVertex
100
AcDb2dVertex
 10
376.3322020239344
 20
433.3553098305869
 30
0.0
  0
VERTEX
  5
1841
330
1820
100
AcDbEntity
  8
HILF
100
AcDbVertex
100
AcDb2dVertex
 10
374.7077238641164
 20
435.0789049729774
 30
0.0
  0
VERTEX
  5
1842
330
1820
100
AcDbEntity
  8
HILF
100
AcDbVertex
100
AcDb2dVertex
 10
373.1382044653035
 20
436.9340462563366
 30
0.0
  0
VERTEX
  5
1843
330
1820
100
AcDbEntity
  8
HILF
100
AcDbVertex
100
AcDb2dVertex
 10
371.619868589378
 20
438.9842211858034
 30
0.0
  0
VERTEX
  5
1844
330
1820
100
AcDbEntity
  8
HILF
100
AcDbVertex
100
AcDb2dVertex
 10
370.1498848082843
 20
441.3060501091162
 30
0.0
  0
VERTEX
  5
1845
330
1820
100
AcDbEntity
  8
HILF
100
AcDbVertex
100
AcDb2dVertex
 10
368.7254216939663
 20
443.9761533740135
 30
0.0
  0
VERTEX
  5
1846
330
1820
100
AcDbEntity
  8
HILF
100
AcDbVertex
100
AcDb2dVertex
 10
367.3436478183682
 20
447.0711513282338
 30
0.0
  0
VERTEX
  5
1847
330
1820
100
AcDbEntity
  8
HILF
100
AcDbVertex
100
AcDb2dVertex
 10
366.001731753434
 20
450.6676643195153
 30
0.0
  0
VERTEX
  5
1848
330
1820
100
AcDbEntity
  8
HILF
100
AcDbVertex
100
AcDb2dVertex
 10
364.8525927688958
 20
454.3440296557349
 30
0.0
  0
SEQEND
  5
1849
330
1820
100
AcDbEntity
  8
HILF
  0
HATCH
  5
1862
330
1E
100
AcDbEntity
  8
SCHRAFF
100
AcDbHatch
 10
0.0
 20
0.0
 30
0.0
210
0.0
220
0.0
230
1.0
  2
_USER
 70
     0
 71
     1
 91
        4
 92
        7
 72
     0
 73
     1
 93
        4
 10
457.58855512503
 20
452.8440296557349
 10
458.5954015673049
 20
454.344029655735
 10
451.5819555632357
 20
454.344029655735
 10
451.5819555632357
 20
452.844029655735
 97
        4
330
1531
330
177C
330
176F
330
1820
 92
        7
 72
     1
 73
     1
 93
        8
 10
446.0819555632355
 20
454.3440296557349
 42
-0.4142135623730951
 10
443.5819555632356
 20
456.844029655735
 42
0.0
 10
443.5819555632357
 20
457.8440296557348
 42
0.0
 10
442.0819555632356
 20
457.8440296557348
 42
0.0
 10
442.0819555632355
 20
456.844029655735
 42
0.4142135623731034
 10
446.0819555632355
 20
452.844029655735
 42
0.0
 10
451.5819555632356
 20
452.844029655735
 42
0.0
 10
451.5819555632356
 20
454.3440296557349
 42
0.0
 97
        8
330
1531
330
176C
330
176A
330
1768
330
1773
330
176E
330
176F
330
177C
 92
        7
 72
     1
 73
     1
 93
        8
 10
389.0819555632358
 20
452.844029655735
 42
0.4142135623730913
 10
393.0819555632357
 20
456.844029655735
 42
0.0
 10
393.0819555632358
 20
457.8440296557348
 42
0.0
 10
391.5819555632357
 20
457.8440296557349
 42
0.0
 10
391.5819555632357
 20
456.844029655735
 42
-0.4142135623730998
 10
389.0819555632358
 20
454.344029655735
 42
0.0
 10
383.5819555632358
 20
454.344029655735
 42
0.0
 10
383.5819555632358
 20
452.844029655735
 42
0.0
 97
        8
330
1772
330
1768
330
1769
330
176D
330
176B
330
179E
330
1771
330
1770
 92
        7
 72
     0
 73
     1
 93
        4
 10
364.8525927688958
 20
454.3440296557349
 10
365.3214548974295
 20
452.844029655735
 10
383.5819555632357
 20
452.844029655735
 10
383.5819555632357
 20
454.344029655735
 97
        4
330
176B
330
1820
330
1771
330
179E
 75
     0
 76
     0
 52
135.0
 41
2.0
 77
     0
 78
     1
 53
135.0
 43
0.0
 44
0.0
 45
-1.414213562373095
 46
-1.414213562373094
 79
     0
 47
0.179457457777455
 98
        4
 10
452.9025258414098
 20
453.581423687059
 10
448.973998039376
 20
453.8057760238655
 10
388.8114238912581
 20
453.3570713502524
 10
377.0965951494054
 20
454.0059255519138
  0
LINE
  5
1864
102
{ACAD_REACTORS
330
1872
102
}
330
1E
100
AcDbEntity
  8
STEMPEL
100
AcDbLine
 10
389.5819555632357
 20
461.8440296557349
 30
0.0
 11
389.5819555632357
 21
456.8440296557348
 31
0.0
  0
LINE
  5
1865
102
{ACAD_REACTORS
330
1872
102
}
330
1E
100
AcDbEntity
  8
STEMPEL
100
AcDbLine
 10
445.5819555632357
 20
461.8440296557349
 30
0.0
 11
445.5819555632357
 21
456.8440296557349
 31
0.0
  0
LINE
  5
1866
102
{ACAD_REACTORS
330
1872
102
}
330
1E
100
AcDbEntity
  8
STEMPEL
100
AcDbLine
 10
439.5819555632357
 20
461.8440296557349
 30
0.0
 11
439.5819555632357
 21
457.8440296557349
 31
0.0
  0
LINE
  5
1867
102
{ACAD_REACTORS
330
1872
102
}
330
1E
100
AcDbEntity
  8
STEMPEL
100
AcDbLine
 10
395.5819555632357
 20
461.8440296557349
 30
0.0
 11
395.5819555632357
 21
457.8440296557348
 31
0.0
  0
HATCH
  5
1872
330
1E
100
AcDbEntity
  8
SCHRAFF
100
AcDbHatch
 10
0.0
 20
0.0
 30
0.0
210
0.0
220
0.0
230
1.0
  2
NET
 70
     0
 71
     1
 91
        2
 92
        7
 72
     0
 73
     1
 93
        5
 10
443.5819555632356
 20
457.8440296557348
 10
445.5819555632357
 20
456.8440296557349
 10
445.5819555632356
 20
461.8440296557349
 10
439.5819555632358
 20
461.8440296557349
 10
439.5819555632357
 20
457.8440296557348
 97
        5
330
17A5
330
1866
330
1768
330
1778
330
1865
 92
        7
 72
     0
 73
     1
 93
        5
 10
395.5819555632357
 20
457.8440296557348
 10
395.5819555632358
 20
461.8440296557349
 10
389.5819555632357
 20
461.8440296557349
 10
389.5819555632357
 20
456.8440296557349
 10
391.5819555632359
 20
457.8440296557348
 97
        5
330
17A7
330
1864
330
1779
330
1768
330
1867
 75
     0
 76
     1
 52
135.0
 41
10.0
 77
     0
 78
     2
 53
135.0
 43
0.0
 44
0.0
 45
-0.8838834764831844
 46
-0.8838834764831842
 79
     0
 53
225.0
 43
0.0
 44
0.0
 45
0.8838834764831842
 46
-0.8838834764831844
 79
     0
 47
0.068744759908934
 98
        2
 10
442.5713441093607
 20
459.4722515985012
 10
393.5268760339686
 20
459.6097413699221
  0
LINE
  5
18A5
330
1E
100
AcDbEntity
  8
STEMPEL
100
AcDbLine
 10
457.1029600725344
 20
467.798478189992
 30
0.0
 11
457.1029600725344
 21
467.8703787384074
 31
0.0
  0
LINE
  5
18A6
330
1E
100
AcDbEntity
  8
STEMPEL
100
AcDbLine
 10
457.1029600725344
 20
467.5972332422684
 30
0.0
 11
457.1029600725344
 21
467.798478189992
 31
0.0
  0
LINE
  5
18A7
330
1E
100
AcDbEntity
  8
STEMPEL
100
AcDbLine
 10
457.1029600725344
 20
467.8703787384074
 30
0.0
 11
457.1029600725344
 21
467.8940391105316
 31
0.0
  0
LINE
  5
18A8
330
1E
100
AcDbEntity
  8
STEMPEL
100
AcDbLine
 10
457.1029600725344
 20
467.8940391105316
 30
0.0
 11
456.7963753199481
 21
468.0710458999668
 31
0.0
  0
LINE
  5
18A9
330
1E
100
AcDbEntity
  8
STEMPEL
100
AcDbLine
 10
455.7187497198505
 20
468.3440296557348
 30
0.0
 11
455.7223051528464
 21
468.3440296557348
 31
0.0
  0
LINE
  5
18AA
330
1E
100
AcDbEntity
  8
STEMPEL
100
AcDbLine
 10
457.1029600725344
 20
463.794020200938
 30
0.0
 11
456.7963753199481
 21
463.6170134115028
 31
0.0
  0
LINE
  5
18AB
330
1E
100
AcDbEntity
  8
STEMPEL
100
AcDbLine
 10
457.1029600725344
 20
467.5972332422684
 30
0.0
 11
457.1029600725344
 21
463.794020200938
 31
0.0
  0
LINE
  5
18AC
330
1E
100
AcDbEntity
  8
STEMPEL
100
AcDbLine
 10
454.342457817885
 20
467.5972332422684
 30
0.0
 11
454.342457817885
 21
467.8703787384074
 31
0.0
  0
LINE
  5
18AD
330
1E
100
AcDbEntity
  8
STEMPEL
100
AcDbLine
 10
454.342457817885
 20
467.5972332422684
 30
0.0
 11
454.342457817885
 21
463.8176805730621
 31
0.0
  0
LINE
  5
18AE
330
1E
100
AcDbEntity
  8
STEMPEL
100
AcDbLine
 10
448.8214533085864
 20
467.5972332422684
 30
0.0
 11
448.8214533085864
 21
467.8703787384074
 31
0.0
  0
LINE
  5
18AF
330
1E
100
AcDbEntity
  8
STEMPEL
100
AcDbLine
 10
446.0609510539369
 20
467.5972332422684
 30
0.0
 11
446.0609510539369
 21
467.8940391105316
 31
0.0
  0
LINE
  5
18B0
330
1E
100
AcDbEntity
  8
STEMPEL
100
AcDbLine
 10
446.0609510539369
 20
467.8940391105316
 30
0.0
 11
446.3675358065233
 21
468.0710458999668
 31
0.0
  0
ARC
  5
18B1
330
1E
100
AcDbEntity
  8
STEMPEL
100
AcDbCircle
 10
447.4412021812617
 20
466.0961313354556
 30
0.0
 40
2.247898356545996
100
AcDbArc
 50
52.11936428282104
 51
121.4691945240776
  0
LINE
  5
18B2
330
1E
100
AcDbEntity
  8
STEMPEL
100
AcDbLine
 10
446.0609510539369
 20
463.7940202009379
 30
0.0
 11
446.3675358065233
 21
463.6170134115028
 31
0.0
  0
ARC
  5
18B3
330
1E
100
AcDbEntity
  8
STEMPEL
100
AcDbCircle
 10
447.4412021812617
 20
465.5919279760139
 30
0.0
 40
2.247898356545996
100
AcDbArc
 50
238.5308054759224
 51
307.880635717179
  0
LINE
  5
18B4
330
1E
100
AcDbEntity
  8
STEMPEL
100
AcDbLine
 10
446.0609510539369
 20
467.5972332422684
 30
0.0
 11
446.0609510539369
 21
463.7940202009379
 31
0.0
  0
LINE
  5
18B5
330
1E
100
AcDbEntity
  8
STEMPEL
100
AcDbLine
 10
448.8214533085864
 20
467.5972332422684
 30
0.0
 11
448.8214533085864
 21
463.8176805730621
 31
0.0
  0
ARC
  5
18B6
330
1E
100
AcDbEntity
  8
STEMPEL
100
AcDbCircle
 10
451.5819555632356
 20
471.6251472493347
 30
0.0
 40
8.281117593600001
100
AcDbArc
 50
250.5278273813862
 51
289.4721726186137
  0
ARC
  5
18B7
330
1E
100
AcDbEntity
  8
STEMPEL
100
AcDbCircle
 10
451.5819555632356
 20
460.0629120621348
 30
0.0
 40
8.281117593600001
100
AcDbArc
 50
70.52782738138624
 51
109.4721726186137
  0
ARC
  5
18B8
330
1E
100
AcDbEntity
  8
STEMPEL
100
AcDbCircle
 10
455.7227089452097
 20
466.0961313354556
 30
0.0
 40
2.247898356545996
100
AcDbArc
 50
58.53080547592234
 51
127.8806357171789
  0
ARC
  5
18B9
330
1E
100
AcDbEntity
  8
STEMPEL
100
AcDbCircle
 10
455.7227089452097
 20
465.5919279760139
 30
0.0
 40
2.247898356545996
100
AcDbArc
 50
232.1193642828211
 51
301.4691945240776
  0
LINE
  5
18BB
330
1E
100
AcDbEntity
  8
STEMPEL
100
AcDbLine
 10
447.4416059736098
 20
468.3440296557348
 30
0.0
 11
455.7223051528544
 21
468.3440296557348
 31
0.0
  0
LINE
  5
18BC
330
1E
100
AcDbEntity
  8
STEMPEL
100
AcDbLine
 10
454.5819555632356
 20
463.3440296557348
 30
0.0
 11
454.5819555632357
 21
454.3440296557349
 31
0.0
  0
LINE
  5
18BD
330
1E
100
AcDbEntity
  8
HILF
100
AcDbLine
 10
453.8319555632358
 20
463.3440296557347
 30
0.0
 11
453.8319555632357
 21
454.3440296557349
 31
0.0
  0
LINE
  5
18BE
330
1E
100
AcDbEntity
  8
HILF
100
AcDbLine
 10
449.3319555632357
 20
463.3440296557347
 30
0.0
 11
449.3319555632356
 21
454.3440296557349
 31
0.0
  0
LINE
  5
18BF
330
1E
100
AcDbEntity
  8
STEMPEL
100
AcDbLine
 10
448.5819555632357
 20
463.3440296557349
 30
0.0
 11
448.5819555632357
 21
454.3440296557349
 31
0.0
  0
LINE
  5
18C0
330
1E
100
AcDbEntity
  8
HILF
100
AcDbLine
 10
381.3319555632357
 20
463.3440296557347
 30
0.0
 11
381.3319555632357
 21
454.3440296557349
 31
0.0
  0
LINE
  5
18C1
330
1E
100
AcDbEntity
  8
STEMPEL
100
AcDbLine
 10
380.5819555632356
 20
463.3440296557348
 30
0.0
 11
380.5819555632357
 21
454.3440296557349
 31
0.0
  0
LINE
  5
18C2
330
1E
100
AcDbEntity
  8
HILF
100
AcDbLine
 10
385.8319555632357
 20
463.3440296557347
 30
0.0
 11
385.8319555632358
 21
454.3440296557349
 31
0.0
  0
LINE
  5
18C3
330
1E
100
AcDbEntity
  8
STEMPEL
100
AcDbLine
 10
386.5819555632358
 20
463.3440296557349
 30
0.0
 11
386.5819555632358
 21
454.3440296557349
 31
0.0
  0
TEXT
  5
192A
330
1E
100
AcDbEntity
  8
TEXT
 62
     1
100
AcDbText
 10
737.2860613441266
 20
306.7557021228297
 30
0.0
 40
7.0
  1
DN50
 41
0.75
  7
GREEKS
100
AcDbText
  0
LINE
  5
1A35
330
1E
100
AcDbEntity
  8
STEMPEL
100
AcDbLine
 10
447.5319555632355
 20
470.8940296557348
 30
0.0
 11
447.5319555632357
 21
468.8133840994697
 31
0.0
  0
LINE
  5
1A36
330
1E
100
AcDbEntity
  8
STEMPEL
100
AcDbLine
 10
455.6319555632357
 20
470.8940296557348
 30
0.0
 11
455.6319555632359
 21
468.8133840994697
 31
0.0
  0
ARC
  5
1A47
330
1E
100
AcDbEntity
  8
STEMPEL
100
AcDbCircle
 10
451.5819555632357
 20
470.8940296557348
 30
0.0
 40
4.050000000000068
100
AcDbArc
 50
0.0
 51
180.0
  0
ARC
  5
1A4E
330
1E
100
AcDbEntity
  8
STEMPEL
100
AcDbCircle
 10
456.1319555632357
 20
468.8133840994697
 30
0.0
 40
0.5
100
AcDbArc
 50
180.0
 51
261.4350317935663
  0
ARC
  5
1A4F
330
1E
100
AcDbEntity
  8
STEMPEL
100
AcDbCircle
 10
447.0319555632356
 20
468.8133840994697
 30
0.0
 40
0.5
100
AcDbArc
 50
278.5649682064337
 51
0.000000000000007
  0
ARC
  5
1A51
330
1E
100
AcDbEntity
  8
STEMPEL
100
AcDbCircle
 10
379.0319555632356
 20
468.8133840994697
 30
0.0
 40
0.5
100
AcDbArc
 50
278.5649682064337
 51
0.000000000000007
  0
ARC
  5
1A52
330
1E
100
AcDbEntity
  8
STEMPEL
100
AcDbCircle
 10
388.1319555632357
 20
468.8133840994697
 30
0.0
 40
0.5
100
AcDbArc
 50
180.0
 51
261.4350317935663
  0
ARC
  5
1A53
330
1E
100
AcDbEntity
  8
STEMPEL
100
AcDbCircle
 10
383.5819555632357
 20
470.8940296557348
 30
0.0
 40
4.050000000000068
100
AcDbArc
 50
0.0
 51
180.0
  0
LINE
  5
1A54
330
1E
100
AcDbEntity
  8
STEMPEL
100
AcDbLine
 10
387.6319555632356
 20
470.8940296557348
 30
0.0
 11
387.6319555632358
 21
468.8133840994697
 31
0.0
  0
LINE
  5
1A55
330
1E
100
AcDbEntity
  8
STEMPEL
100
AcDbLine
 10
379.5319555632356
 20
470.8940296557348
 30
0.0
 11
379.5319555632357
 21
468.8133840994697
 31
0.0
  0
LINE
  5
1A56
330
1E
100
AcDbEntity
  8
STEMPEL
100
AcDbLine
 10
379.4416059736098
 20
468.3440296557348
 30
0.0
 11
387.7223051528543
 21
468.3440296557348
 31
0.0
  0
ARC
  5
1A57
330
1E
100
AcDbEntity
  8
STEMPEL
100
AcDbCircle
 10
387.7227089452097
 20
465.5919279760139
 30
0.0
 40
2.247898356545996
100
AcDbArc
 50
232.1193642828211
 51
301.4691945240776
  0
ARC
  5
1A58
330
1E
100
AcDbEntity
  8
STEMPEL
100
AcDbCircle
 10
387.7227089452097
 20
466.0961313354556
 30
0.0
 40
2.247898356545996
100
AcDbArc
 50
58.53080547592234
 51
127.8806357171789
  0
ARC
  5
1A59
330
1E
100
AcDbEntity
  8
STEMPEL
100
AcDbCircle
 10
383.5819555632356
 20
460.0629120621348
 30
0.0
 40
8.281117593600001
100
AcDbArc
 50
70.52782738138624
 51
109.4721726186137
  0
ARC
  5
1A5A
330
1E
100
AcDbEntity
  8
STEMPEL
100
AcDbCircle
 10
383.5819555632356
 20
471.6251472493347
 30
0.0
 40
8.281117593600001
100
AcDbArc
 50
250.5278273813862
 51
289.4721726186137
  0
LINE
  5
1A5B
330
1E
100
AcDbEntity
  8
STEMPEL
100
AcDbLine
 10
380.8214533085863
 20
467.5972332422684
 30
0.0
 11
380.8214533085863
 21
463.8176805730621
 31
0.0
  0
LINE
  5
1A5C
330
1E
100
AcDbEntity
  8
STEMPEL
100
AcDbLine
 10
378.0609510539369
 20
467.5972332422684
 30
0.0
 11
378.0609510539369
 21
463.7940202009379
 31
0.0
  0
ARC
  5
1A5D
330
1E
100
AcDbEntity
  8
STEMPEL
100
AcDbCircle
 10
379.4412021812616
 20
465.5919279760139
 30
0.0
 40
2.247898356545996
100
AcDbArc
 50
238.5308054759224
 51
307.880635717179
  0
LINE
  5
1A5E
330
1E
100
AcDbEntity
  8
STEMPEL
100
AcDbLine
 10
378.0609510539369
 20
463.7940202009379
 30
0.0
 11
378.3675358065233
 21
463.6170134115028
 31
0.0
  0
ARC
  5
1A5F
330
1E
100
AcDbEntity
  8
STEMPEL
100
AcDbCircle
 10
379.4412021812616
 20
466.0961313354556
 30
0.0
 40
2.247898356545996
100
AcDbArc
 50
52.11936428282104
 51
121.4691945240776
  0
LINE
  5
1A60
330
1E
100
AcDbEntity
  8
STEMPEL
100
AcDbLine
 10
378.0609510539369
 20
467.8940391105316
 30
0.0
 11
378.3675358065233
 21
468.0710458999668
 31
0.0
  0
LINE
  5
1A61
330
1E
100
AcDbEntity
  8
STEMPEL
100
AcDbLine
 10
378.0609510539369
 20
467.5972332422684
 30
0.0
 11
378.0609510539369
 21
467.8940391105316
 31
0.0
  0
LINE
  5
1A62
330
1E
100
AcDbEntity
  8
STEMPEL
100
AcDbLine
 10
380.8214533085863
 20
467.5972332422684
 30
0.0
 11
380.8214533085863
 21
467.8703787384074
 31
0.0
  0
LINE
  5
1A63
330
1E
100
AcDbEntity
  8
STEMPEL
100
AcDbLine
 10
386.342457817885
 20
467.5972332422684
 30
0.0
 11
386.342457817885
 21
463.8176805730621
 31
0.0
  0
LINE
  5
1A64
330
1E
100
AcDbEntity
  8
STEMPEL
100
AcDbLine
 10
386.342457817885
 20
467.5972332422684
 30
0.0
 11
386.342457817885
 21
467.8703787384074
 31
0.0
  0
LINE
  5
1A65
330
1E
100
AcDbEntity
  8
STEMPEL
100
AcDbLine
 10
389.1029600725344
 20
467.5972332422684
 30
0.0
 11
389.1029600725344
 21
463.794020200938
 31
0.0
  0
LINE
  5
1A66
330
1E
100
AcDbEntity
  8
STEMPEL
100
AcDbLine
 10
389.1029600725344
 20
463.794020200938
 30
0.0
 11
388.7963753199481
 21
463.6170134115028
 31
0.0
  0
LINE
  5
1A67
330
1E
100
AcDbEntity
  8
STEMPEL
100
AcDbLine
 10
387.7187497198505
 20
468.3440296557348
 30
0.0
 11
387.7223051528464
 21
468.3440296557348
 31
0.0
  0
LINE
  5
1A68
330
1E
100
AcDbEntity
  8
STEMPEL
100
AcDbLine
 10
389.1029600725344
 20
467.8940391105316
 30
0.0
 11
388.7963753199481
 21
468.0710458999668
 31
0.0
  0
LINE
  5
1A69
330
1E
100
AcDbEntity
  8
STEMPEL
100
AcDbLine
 10
389.1029600725344
 20
467.8703787384074
 30
0.0
 11
389.1029600725344
 21
467.8940391105316
 31
0.0
  0
LINE
  5
1A6A
330
1E
100
AcDbEntity
  8
STEMPEL
100
AcDbLine
 10
389.1029600725344
 20
467.5972332422684
 30
0.0
 11
389.1029600725344
 21
467.798478189992
 31
0.0
  0
LINE
  5
1A6B
330
1E
100
AcDbEntity
  8
STEMPEL
100
AcDbLine
 10
389.1029600725344
 20
467.798478189992
 30
0.0
 11
389.1029600725344
 21
467.8703787384074
 31
0.0
  0
CIRCLE
  5
1A6C
330
1E
100
AcDbEntity
  8
STEMPEL
100
AcDbCircle
 10
451.5819555632358
 20
299.0321076175265
 30
0.0
 40
4.049999999999999
  0
CIRCLE
  5
1A6D
330
1E
100
AcDbEntity
  8
STEMPEL
100
AcDbCircle
 10
383.5819555632358
 20
299.0321076175265
 30
0.0
 40
4.049999999999999
  0
CIRCLE
  5
1A77
330
1E
100
AcDbEntity
  8
STEMPEL
100
AcDbCircle
 10
383.5819555632358
 20
299.0321076175265
 30
0.0
 40
5.0
  0
CIRCLE
  5
1A79
330
1E
100
AcDbEntity
  8
STEMPEL
100
AcDbCircle
 10
451.5819555632358
 20
299.0321076175265
 30
0.0
 40
5.0
  0
LINE
  5
1A7A
330
1E
100
AcDbEntity
  8
STEMPEL
100
AcDbLine
 10
454.4687069091839
 20
294.0321076175266
 30
0.0
 11
457.355458255132
 21
299.0321076175265
 31
0.0
  0
LINE
  5
1A7B
330
1E
100
AcDbEntity
  8
STEMPEL
100
AcDbLine
 10
457.355458255132
 20
299.0321076175265
 30
0.0
 11
454.4687069091839
 21
304.0321076175266
 31
0.0
  0
LINE
  5
1A7C
330
1E
100
AcDbEntity
  8
STEMPEL
100
AcDbLine
 10
454.4687069091839
 20
304.0321076175266
 30
0.0
 11
448.6952042172876
 21
304.0321076175266
 31
0.0
  0
LINE
  5
1A7D
330
1E
100
AcDbEntity
  8
STEMPEL
100
AcDbLine
 10
448.6952042172876
 20
304.0321076175266
 30
0.0
 11
445.8084528713396
 21
299.0321076175265
 31
0.0
  0
LINE
  5
1A7E
330
1E
100
AcDbEntity
  8
STEMPEL
100
AcDbLine
 10
445.8084528713396
 20
299.0321076175265
 30
0.0
 11
448.6952042172876
 21
294.0321076175266
 31
0.0
  0
LINE
  5
1A7F
330
1E
100
AcDbEntity
  8
STEMPEL
100
AcDbLine
 10
448.6952042172876
 20
294.0321076175266
 30
0.0
 11
454.4687069091839
 21
294.0321076175266
 31
0.0
  0
LINE
  5
1A80
330
1E
100
AcDbEntity
  8
STEMPEL
100
AcDbLine
 10
380.6952042172877
 20
304.0321076175266
 30
0.0
 11
377.8084528713396
 21
299.0321076175265
 31
0.0
  0
LINE
  5
1A81
330
1E
100
AcDbEntity
  8
STEMPEL
100
AcDbLine
 10
377.8084528713396
 20
299.0321076175265
 30
0.0
 11
380.6952042172877
 21
294.0321076175266
 31
0.0
  0
LINE
  5
1A82
330
1E
100
AcDbEntity
  8
STEMPEL
100
AcDbLine
 10
380.6952042172877
 20
294.0321076175266
 30
0.0
 11
386.4687069091839
 21
294.0321076175266
 31
0.0
  0
LINE
  5
1A83
330
1E
100
AcDbEntity
  8
STEMPEL
100
AcDbLine
 10
386.4687069091839
 20
294.0321076175266
 30
0.0
 11
389.355458255132
 21
299.0321076175265
 31
0.0
  0
LINE
  5
1A84
330
1E
100
AcDbEntity
  8
STEMPEL
100
AcDbLine
 10
389.355458255132
 20
299.0321076175265
 30
0.0
 11
386.4687069091839
 21
304.0321076175266
 31
0.0
  0
LINE
  5
1A85
330
1E
100
AcDbEntity
  8
STEMPEL
100
AcDbLine
 10
386.4687069091839
 20
304.0321076175266
 30
0.0
 11
380.6952042172877
 21
304.0321076175266
 31
0.0
  0
ENDSEC
  0
SECTION
  2
OBJECTS
  0
DICTIONARY
  5
C
330
0
100
AcDbDictionary
281
     1
  3
ACAD_COLOR
350
11A
  3
ACAD_GROUP
350
D
  3
ACAD_LAYOUT
350
19
  3
ACAD_MATERIAL
350
119
  3
ACAD_MLINESTYLE
350
16
  3
ACAD_PLOTSETTINGS
350
18
  3
ACAD_PLOTSTYLENAME
350
E
  3
AcDbVariableDictionary
350
125
  0
DICTIONARY
  5
DB
330
1E
100
AcDbDictionary
280
     1
281
     1
  3
ACAD_LAYOUTSELFREF
360
10F
  0
DICTIONARY
  5
DD
330
1A
100
AcDbDictionary
280
     1
281
     1
  3
ACAD_LAYOUTSELFREF
360
10E
  0
DICTIONARY
  5
11A
102
{ACAD_REACTORS
330
C
102
}
330
C
100
AcDbDictionary
281
     1
  0
DICTIONARY
  5
D
102
{ACAD_REACTORS
330
C
102
}
330
C
100
AcDbDictionary
281
     1
  0
DICTIONARY
  5
19
102
{ACAD_REACTORS
330
C
102
}
330
C
100
AcDbDictionary
281
     1
  3
Layout1
350
1D
  3
Model
350
21
  0
DICTIONARY
  5
119
102
{ACAD_REACTORS
330
C
102
}
330
C
100
AcDbDictionary
281
     1
  0
DICTIONARY
  5
16
102
{ACAD_REACTORS
330
C
102
}
330
C
100
AcDbDictionary
281
     1
  3
Standard
350
17
  0
DICTIONARY
  5
18
102
{ACAD_REACTORS
330
C
102
}
330
C
100
AcDbDictionary
281
     1
  0
ACDBDICTIONARYWDFLT
  5
E
102
{ACAD_REACTORS
330
C
102
}
330
C
100
AcDbDictionary
281
     1
  3
Normal
350
F
100
AcDbDictionaryWithDefault
340
F
  0
DICTIONARY
  5
125
102
{ACAD_REACTORS
330
C
102
}
330
C
100
AcDbDictionary
281
     1
  3
DIMASSOC
350
126
  3
PROJECTNAME
350
127
  0
XRECORD
  5
10F
102
{ACAD_REACTORS
330
DB
102
}
330
DB
100
AcDbXrecord
280
     1
340
1E
  0
XRECORD
  5
10E
102
{ACAD_REACTORS
330
DD
102
}
330
DD
100
AcDbXrecord
280
     1
340
1A
  0
LAYOUT
  5
1D
102
{ACAD_REACTORS
330
19
102
}
330
19
100
AcDbPlotSettings
  1

  2
\\NT_WORK01\HP LaserJet 5000 PCL 6
  4

  6

 40
0.0
 41
0.0
 42
0.0
 43
0.0
 44
0.0
 45
0.0
 46
0.0
 47
0.0
 48
0.0
 49
0.0
140
0.0
141
0.0
142
1.0
143
1.0
 70
   688
 72
     0
 73
     0
 74
     5
  7

 75
    16
147
1.0
 76
     0
 77
     2
 78
   300
148
0.0
149
0.0
100
AcDbLayout
  1
Layout1
 70
     0
 71
     1
 10
0.0
 20
0.0
 11
12.0
 21
9.0
 12
0.0
 22
0.0
 32
0.0
 14
1.000000000000000E+20
 24
1.000000000000000E+20
 34
1.000000000000000E+20
 15
-1.000000000000000E+20
 25
-1.000000000000000E+20
 35
-1.000000000000000E+20
146
0.0
 13
0.0
 23
0.0
 33
0.0
 16
1.0
 26
0.0
 36
0.0
 17
0.0
 27
1.0
 37
0.0
 76
     0
330
1A
  0
LAYOUT
  5
21
102
{ACAD_REACTORS
330
19
102
}
330
19
100
AcDbPlotSettings
  1

  2
none_device
  4
Letter_(8.50_x_11.00_Inches)
  6

 40
6.349999904632568
 41
6.349999904632568
 42
6.350006103515625
 43
6.350006103515625
 44
215.8999938964844
 45
279.3999938964844
 46
0.0
 47
0.0
 48
0.0
 49
0.0
140
0.0
141
0.0
142
1.0
143
1.0
 70
 11952
 72
     0
 73
     1
 74
     0
  7

 75
     0
147
1.0
 76
     0
 77
     2
 78
   300
148
-3047.510221583066
149
76.68982206418684
100
AcDbLayout
  1
Model
 70
     1
 71
     0
 10
0.0
 20
0.0
 11
12.0
 21
9.0
 12
0.0
 22
0.0
 32
0.0
 14
0.0
 24
0.0
 34
0.0
 15
0.0
 25
0.0
 35
0.0
146
0.0
 13
0.0
 23
0.0
 33
0.0
 16
1.0
 26
0.0
 36
0.0
 17
0.0
 27
1.0
 37
0.0
 76
     0
330
1E
  0
MLINESTYLE
  5
17
102
{ACAD_REACTORS
330
16
102
}
330
16
100
AcDbMlineStyle
  2
STANDARD
 70
     0
  3

 62
   256
 51
90.0
 52
90.0
 71
     2
 49
0.5
 62
   256
  6
BYLAYER
 49
-0.5
 62
   256
  6
BYLAYER
  0
ACDBPLACEHOLDER
  5
F
102
{ACAD_REACTORS
330
E
102
}
330
E
  0
DICTIONARYVAR
  5
126
102
{ACAD_REACTORS
330
125
102
}
330
125
100
DictionaryVariables
280
     0
  1
1
  0
DICTIONARYVAR
  5
127
102
{ACAD_REACTORS
330
125
102
}
330
125
100
DictionaryVariables
280
     0
  1

  0
ENDSEC
  0
EOF
