  0
SECTION
  2
HEADER
  9
$ACADVER
  1
AC1018
  9
$ACADMAINTVER
 70
     2
  9
$DWGCODEPAGE
  3
ANSI_1252
  9
$INSBASE
 10
214.18963059078
 20
83.98788932831553
 30
0.0
  9
$EXTMIN
 10
-0.0064041928748111
 20
-0.0090573584943741
 30
-0.0000000000112498
  9
$EXTMAX
 10
420.0064100605656
 20
594.0090656570853
 30
0.0000000000002956
  9
$LIMMIN
 10
0.0
 20
0.0
  9
$LIMMAX
 10
420.0
 20
594.0
  9
$ORTHOMODE
 70
     1
  9
$REGENMODE
 70
     1
  9
$FILLMODE
 70
     1
  9
$QTEXTMODE
 70
     0
  9
$MIRRTEXT
 70
     1
  9
$LTSCALE
 40
20.0
  9
$ATTMODE
 70
     1
  9
$TEXTSIZE
 40
3.5
  9
$TRACEWID
 40
1.0
  9
$TEXTSTYLE
  7
STANDARD
  9
$CLAYER
  8
SCHRAFF
  9
$CELTYPE
  6
ByLayer
  9
$CECOLOR
 62
   256
  9
$CELTSCALE
 40
1.0
  9
$DISPSILH
 70
     0
  9
$DIMSCALE
 40
2.0
  9
$DIMASZ
 40
3.5
  9
$DIMEXO
 40
1.0
  9
$DIMDLI
 40
7.0
  9
$DIMRND
 40
0.0
  9
$DIMDLE
 40
0.0
  9
$DIMEXE
 40
1.0
  9
$DIMTP
 40
0.15
  9
$DIMTM
 40
0.15
  9
$DIMTXT
 40
3.5
  9
$DIMCEN
 40
1.5
  9
$DIMTSZ
 40
0.0
  9
$DIMTOL
 70
     0
  9
$DIMLIM
 70
     0
  9
$DIMTIH
 70
     0
  9
$DIMTOH
 70
     0
  9
$DIMSE1
 70
     0
  9
$DIMSE2
 70
     0
  9
$DIMTAD
 70
     1
  9
$DIMZIN
 70
     8
  9
$DIMBLK
  1

  9
$DIMASO
 70
     1
  9
$DIMSHO
 70
     0
  9
$DIMPOST
  1

  9
$DIMAPOST
  1

  9
$DIMALT
 70
     0
  9
$DIMALTD
 70
     2
  9
$DIMALTF
 40
25.4
  9
$DIMLFAC
 40
1.0
  9
$DIMTOFL
 70
     1
  9
$DIMTVP
 40
0.5714285714285714
  9
$DIMTIX
 70
     0
  9
$DIMSOXD
 70
     0
  9
$DIMSAH
 70
     0
  9
$DIMBLK1
  1

  9
$DIMBLK2
  1

  9
$DIMSTYLE
  2
Standard
  9
$DIMCLRD
 70
     0
  9
$DIMCLRE
 70
     0
  9
$DIMCLRT
 70
     1
  9
$DIMTFAC
 40
0.5
  9
$DIMGAP
 40
1.5
  9
$DIMJUST
 70
     0
  9
$DIMSD1
 70
     0
  9
$DIMSD2
 70
     0
  9
$DIMTOLJ
 70
     1
  9
$DIMTZIN
 70
     8
  9
$DIMALTZ
 70
     8
  9
$DIMALTTZ
 70
     8
  9
$DIMUPT
 70
     0
  9
$DIMDEC
 70
     2
  9
$DIMTDEC
 70
     2
  9
$DIMALTU
 70
     2
  9
$DIMALTTD
 70
     2
  9
$DIMTXSTY
  7
STANDARD
  9
$DIMAUNIT
 70
     0
  9
$DIMADEC
 70
     2
  9
$DIMALTRND
 40
0.0
  9
$DIMAZIN
 70
     2
  9
$DIMDSEP
 70
    46
  9
$DIMATFIT
 70
     3
  9
$DIMFRAC
 70
     0
  9
$DIMLDRBLK
  1

  9
$DIMLUNIT
 70
     2
  9
$DIMLWD
 70
    -2
  9
$DIMLWE
 70
    -2
  9
$DIMTMOVE
 70
     0
  9
$LUNITS
 70
     2
  9
$LUPREC
 70
     2
  9
$SKETCHINC
 40
1.0
  9
$FILLETRAD
 40
9.599999999999999
  9
$AUNITS
 70
     0
  9
$AUPREC
 70
     0
  9
$MENU
  1
ACAD
  9
$ELEVATION
 40
0.0
  9
$PELEVATION
 40
0.0
  9
$THICKNESS
 40
0.0
  9
$LIMCHECK
 70
     0
  9
$CHAMFERA
 40
0.0
  9
$CHAMFERB
 40
0.0
  9
$CHAMFERC
 40
0.0
  9
$CHAMFERD
 40
0.0
  9
$SKPOLY
 70
     0
  9
$TDCREATE
 40
2451289.351545949
  9
$TDUCREATE
 40
2451289.268212616
  9
$TDUPDATE
 40
2455454.593993530
  9
$TDUUPDATE
 40
2455454.510660197
  9
$TDINDWG
 40
0.0145765509
  9
$TDUSRTIMER
 40
0.0145765509
  9
$USRTIMER
 70
     1
  9
$ANGBASE
 50
0.0
  9
$ANGDIR
 70
     0
  9
$PDMODE
 70
     0
  9
$PDSIZE
 40
0.0
  9
$PLINEWID
 40
0.0
  9
$SPLFRAME
 70
     0
  9
$SPLINETYPE
 70
     6
  9
$SPLINESEGS
 70
     8
  9
$HANDSEED
  5
7D3
  9
$SURFTAB1
 70
     6
  9
$SURFTAB2
 70
     6
  9
$SURFTYPE
 70
     6
  9
$SURFU
 70
     6
  9
$SURFV
 70
     6
  9
$UCSBASE
  2

  9
$UCSNAME
  2

  9
$UCSORG
 10
0.0
 20
0.0
 30
0.0
  9
$UCSXDIR
 10
1.0
 20
0.0
 30
0.0
  9
$UCSYDIR
 10
0.0
 20
1.0
 30
0.0
  9
$UCSORTHOREF
  2

  9
$UCSORTHOVIEW
 70
     0
  9
$UCSORGTOP
 10
0.0
 20
0.0
 30
0.0
  9
$UCSORGBOTTOM
 10
0.0
 20
0.0
 30
0.0
  9
$UCSORGLEFT
 10
0.0
 20
0.0
 30
0.0
  9
$UCSORGRIGHT
 10
0.0
 20
0.0
 30
0.0
  9
$UCSORGFRONT
 10
0.0
 20
0.0
 30
0.0
  9
$UCSORGBACK
 10
0.0
 20
0.0
 30
0.0
  9
$PUCSBASE
  2

  9
$PUCSNAME
  2

  9
$PUCSORG
 10
0.0
 20
0.0
 30
0.0
  9
$PUCSXDIR
 10
1.0
 20
0.0
 30
0.0
  9
$PUCSYDIR
 10
0.0
 20
1.0
 30
0.0
  9
$PUCSORTHOREF
  2

  9
$PUCSORTHOVIEW
 70
     0
  9
$PUCSORGTOP
 10
0.0
 20
0.0
 30
0.0
  9
$PUCSORGBOTTOM
 10
0.0
 20
0.0
 30
0.0
  9
$PUCSORGLEFT
 10
0.0
 20
0.0
 30
0.0
  9
$PUCSORGRIGHT
 10
0.0
 20
0.0
 30
0.0
  9
$PUCSORGFRONT
 10
0.0
 20
0.0
 30
0.0
  9
$PUCSORGBACK
 10
0.0
 20
0.0
 30
0.0
  9
$USERI1
 70
     0
  9
$USERI2
 70
     0
  9
$USERI3
 70
     0
  9
$USERI4
 70
     0
  9
$USERI5
 70
     0
  9
$USERR1
 40
0.0
  9
$USERR2
 40
0.0
  9
$USERR3
 40
0.0
  9
$USERR4
 40
0.0
  9
$USERR5
 40
0.0
  9
$WORLDVIEW
 70
     1
  9
$SHADEDGE
 70
     3
  9
$SHADEDIF
 70
    70
  9
$TILEMODE
 70
     1
  9
$MAXACTVP
 70
    16
  9
$PINSBASE
 10
0.0
 20
0.0
 30
0.0
  9
$PLIMCHECK
 70
     0
  9
$PEXTMIN
 10
1.000000000000000E+20
 20
1.000000000000000E+20
 30
1.000000000000000E+20
  9
$PEXTMAX
 10
-1.000000000000000E+20
 20
-1.000000000000000E+20
 30
-1.000000000000000E+20
  9
$PLIMMIN
 10
0.0
 20
0.0
  9
$PLIMMAX
 10
12.0
 20
9.0
  9
$UNITMODE
 70
     0
  9
$VISRETAIN
 70
     0
  9
$PLINEGEN
 70
     0
  9
$PSLTSCALE
 70
     0
  9
$TREEDEPTH
 70
  3020
  9
$CMLSTYLE
  2
Standard
  9
$CMLJUST
 70
     0
  9
$CMLSCALE
 40
1.0
  9
$PROXYGRAPHICS
 70
     1
  9
$MEASUREMENT
 70
     0
  9
$CELWEIGHT
370
    -1
  9
$ENDCAPS
280
     0
  9
$JOINSTYLE
280
     0
  9
$LWDISPLAY
290
     0
  9
$INSUNITS
 70
     0
  9
$HYPERLINKBASE
  1

  9
$STYLESHEET
  1
monochrome 1.ctb
  9
$XEDIT
290
     1
  9
$CEPSNTYPE
380
     0
  9
$PSTYLEMODE
290
     1
  9
$FINGERPRINTGUID
  2
{B1967A5B-7A0B-46B9-BF18-754BBA7BCBAB}
  9
$VERSIONGUID
  2
{75F86D47-C65D-4D89-A6C5-DC17E909767E}
  9
$EXTNAMES
290
     1
  9
$PSVPSCALE
 40
0.0
  9
$OLESTARTUP
290
     0
  9
$SORTENTS
280
   127
  9
$INDEXCTL
280
     0
  9
$HIDETEXT
280
     1
  9
$XCLIPFRAME
290
     0
  9
$HALOGAP
280
     0
  9
$OBSCOLOR
 70
   257
  9
$OBSLTYPE
280
     0
  9
$INTERSECTIONDISPLAY
280
     0
  9
$INTERSECTIONCOLOR
 70
   257
  9
$DIMASSOC
280
     2
  9
$PROJECTNAME
  1

  0
ENDSEC
  0
SECTION
  2
CLASSES
  0
CLASS
  1
ACDBDICTIONARYWDFLT
  2
AcDbDictionaryWithDefault
  3
ObjectDBX Classes
 90
        0
 91
        1
280
     0
281
     0
  0
CLASS
  1
DIMASSOC
  2
AcDbDimAssoc
  3
"AcDbDimAssoc|Product Desc:     AcDim ARX App For Dimension|Company:          Autodesk, Inc.|WEB Address:      www.autodesk.com"
 90
        0
 91
        0
280
     0
281
     0
  0
CLASS
  1
DICTIONARYVAR
  2
AcDbDictionaryVar
  3
ObjectDBX Classes
 90
        0
 91
        3
280
     0
281
     0
  0
ENDSEC
  0
SECTION
  2
TABLES
  0
TABLE
  2
VPORT
  5
8
330
0
100
AcDbSymbolTable
 70
     2
  0
VPORT
  5
7D2
330
8
100
AcDbSymbolTableRecord
100
AcDbViewportTableRecord
  2
*Active
 70
     0
 10
0.0
 20
0.0
 11
1.0
 21
1.0
 12
210.0000029338454
 22
297.0000041492955
 13
0.0
 23
0.0
 14
2.5
 24
2.5
 15
10.0
 25
10.0
 16
0.0
 26
0.0
 36
1.0
 17
0.0
 27
0.0
 37
0.0
 40
598.8150392175898
 41
1.336927223719676
 42
50.0
 43
0.0
 44
0.0
 50
0.0
 51
0.0
 71
     0
 72
   500
 73
     1
 74
     0
 75
     0
 76
     0
 77
     0
 78
     0
281
     0
 65
     1
110
0.0
120
0.0
130
0.0
111
1.0
121
0.0
131
0.0
112
0.0
122
1.0
132
0.0
 79
     0
146
0.0
  0
ENDTAB
  0
TABLE
  2
LTYPE
  5
5
330
0
100
AcDbSymbolTable
 70
     2
  0
LTYPE
  5
13
330
5
100
AcDbSymbolTableRecord
100
AcDbLinetypeTableRecord
  2
ByBlock
 70
     0
  3

 72
    65
 73
     0
 40
0.0
  0
LTYPE
  5
14
330
5
100
AcDbSymbolTableRecord
100
AcDbLinetypeTableRecord
  2
ByLayer
 70
     0
  3

 72
    65
 73
     0
 40
0.0
  0
LTYPE
  5
15
330
5
100
AcDbSymbolTableRecord
100
AcDbLinetypeTableRecord
  2
Continuous
 70
     0
  3
Solid line
 72
    65
 73
     0
 40
0.0
  0
LTYPE
  5
44
330
5
100
AcDbSymbolTableRecord
100
AcDbLinetypeTableRecord
  2
STRICHPUNKT
 70
     0
  3
__ . __ . __ . __ . __ . __ . __ . __ . __ . __
 72
    65
 73
     4
 40
1.0
 49
0.5
 74
     0
 49
-0.25
 74
     0
 49
0.0
 74
     0
 49
-0.25
 74
     0
  0
ENDTAB
  0
TABLE
  2
LAYER
  5
2
330
0
100
AcDbSymbolTable
 70
     9
  0
LAYER
  5
10
330
2
100
AcDbSymbolTableRecord
100
AcDbLayerTableRecord
  2
0
 70
     0
 62
     7
  6
Continuous
370
    -3
390
F
  0
LAYER
  5
47
330
2
100
AcDbSymbolTableRecord
100
AcDbLayerTableRecord
  2
VOLL
 70
     0
 62
     1
  6
Continuous
370
    -3
390
F
  0
LAYER
  5
48
330
2
100
AcDbSymbolTableRecord
100
AcDbLayerTableRecord
  2
MITTEL
 70
     0
 62
     2
  6
STRICHPUNKT
370
    -3
390
F
  0
LAYER
  5
49
330
2
100
AcDbSymbolTableRecord
100
AcDbLayerTableRecord
  2
BEM
 70
     0
 62
     7
  6
Continuous
370
    -3
390
F
  0
LAYER
  5
4A
330
2
100
AcDbSymbolTableRecord
100
AcDbLayerTableRecord
  2
HILF
 70
     0
 62
     2
  6
Continuous
370
    -3
390
F
  0
LAYER
  5
4B
330
2
100
AcDbSymbolTableRecord
100
AcDbLayerTableRecord
  2
SCHRAFF
 70
     0
 62
     7
  6
Continuous
370
    -3
390
F
  0
LAYER
  5
4C
330
2
100
AcDbSymbolTableRecord
100
AcDbLayerTableRecord
  2
STEMPEL
 70
     0
 62
     3
  6
Continuous
370
    -3
390
F
  0
LAYER
  5
4D
330
2
100
AcDbSymbolTableRecord
100
AcDbLayerTableRecord
  2
TEXT
 70
     0
 62
     7
  6
Continuous
370
    -3
390
F
  0
LAYER
  5
4E
330
2
100
AcDbSymbolTableRecord
100
AcDbLayerTableRecord
  2
DEFPOINTS
 70
     0
 62
     7
  6
Continuous
290
     0
370
    -3
390
F
  0
ENDTAB
  0
TABLE
  2
STYLE
  5
3
330
0
100
AcDbSymbolTable
 70
     2
  0
STYLE
  5
11
330
3
100
AcDbSymbolTableRecord
100
AcDbTextStyleTableRecord
  2
STANDARD
 70
     0
 40
0.0
 41
0.8
 50
0.0
 71
     0
 42
3.5
  3
simplex.shx
  4

  0
STYLE
  5
43
330
3
100
AcDbSymbolTableRecord
100
AcDbTextStyleTableRecord
  2
GREEKS
 70
     0
 40
0.0
 41
0.8
 50
0.0
 71
     0
 42
1.8
  3
SIMPLEX.shx
  4

  0
ENDTAB
  0
TABLE
  2
VIEW
  5
6
330
0
100
AcDbSymbolTable
 70
     0
  0
ENDTAB
  0
TABLE
  2
UCS
  5
7
330
0
100
AcDbSymbolTable
 70
     0
  0
ENDTAB
  0
TABLE
  2
APPID
  5
9
330
0
100
AcDbSymbolTable
 70
     1
  0
APPID
  5
12
330
9
100
AcDbSymbolTableRecord
100
AcDbRegAppTableRecord
  2
ACAD
 70
     0
  0
ENDTAB
  0
TABLE
  2
DIMSTYLE
  5
A
330
0
100
AcDbSymbolTable
 70
     1
100
AcDbDimStyleTable
 71
     1
340
5E7
  0
DIMSTYLE
105
5E7
102
{ACAD_REACTORS
330
5E5
330
5E3
330
5E2
102
}
330
A
100
AcDbSymbolTableRecord
100
AcDbDimStyleTableRecord
  2
Standard
 70
     0
340
11
  0
ENDTAB
  0
TABLE
  2
BLOCK_RECORD
  5
1
330
0
100
AcDbSymbolTable
 70
     4
  0
BLOCK_RECORD
  5
20
330
1
100
AcDbSymbolTableRecord
100
AcDbBlockTableRecord
  2
*Model_Space
340
23
  0
BLOCK_RECORD
  5
1C
330
1
100
AcDbSymbolTableRecord
100
AcDbBlockTableRecord
  2
*Paper_Space
340
1F
  0
BLOCK_RECORD
  5
24
330
1
100
AcDbSymbolTableRecord
100
AcDbBlockTableRecord
  2
LOGO
340
0
102
{BLKREFS
331
4F4
102
}
  0
BLOCK_RECORD
  5
5F4
330
1
100
AcDbSymbolTableRecord
100
AcDbBlockTableRecord
  2
*D1
340
0
  0
BLOCK_RECORD
  5
600
330
1
100
AcDbSymbolTableRecord
100
AcDbBlockTableRecord
  2
*D2
340
0
  0
BLOCK_RECORD
  5
60C
330
1
100
AcDbSymbolTableRecord
100
AcDbBlockTableRecord
  2
*D3
340
0
  0
ENDTAB
  0
ENDSEC
  0
SECTION
  2
BLOCKS
  0
BLOCK
  5
52
330
20
100
AcDbEntity
  8
0
100
AcDbBlockBegin
  2
*Model_Space
 70
     0
 10
0.0
 20
0.0
 30
0.0
  3
*Model_Space
  1

  0
ENDBLK
  5
53
330
20
100
AcDbEntity
  8
0
100
AcDbBlockEnd
  0
BLOCK
  5
50
330
1C
100
AcDbEntity
 67
     1
  8
0
100
AcDbBlockBegin
  2
*Paper_Space
 70
     0
 10
0.0
 20
0.0
 30
0.0
  3
*Paper_Space
  1

  0
ENDBLK
  5
51
330
1C
100
AcDbEntity
 67
     1
  8
0
100
AcDbBlockEnd
  0
BLOCK
  5
54
330
24
100
AcDbEntity
  8
0
100
AcDbBlockBegin
  2
LOGO
 70
     0
 10
0.0
 20
0.0
 30
0.0
  3
LOGO
  1

  0
ARC
  5
55
330
24
100
AcDbEntity
  8
0
100
AcDbCircle
 10
11.59973089678112
 20
-9.271599258481501
 30
0.0
 40
4.5
100
AcDbArc
 50
270.0
 51
231.0575587310159
  0
LINE
  5
56
330
24
100
AcDbEntity
  8
0
100
AcDbLine
 10
3.599730896781125
 20
-4.771599258481529
 30
0.0
 11
3.599730896781153
 21
-11.77159925848133
 31
0.0
  0
LINE
  5
57
330
24
100
AcDbEntity
  8
0
100
AcDbLine
 10
2.599730896781125
 20
-4.771599258481529
 30
0.0
 11
2.599730896781153
 21
-11.77159925848133
 31
0.0
  0
CIRCLE
  5
58
330
24
100
AcDbEntity
  8
0
100
AcDbCircle
 10
11.59973089678112
 20
-9.271599258481501
 30
0.0
 40
3.5
  0
ARC
  5
59
330
24
100
AcDbEntity
  8
0
100
AcDbCircle
 10
31.59973089678115
 20
-9.271599258481472
 30
0.0
 40
4.5
100
AcDbArc
 50
270.0
 51
231.0575587310182
  0
LINE
  5
5A
330
24
100
AcDbEntity
  8
0
100
AcDbLine
 10
17.59973089678112
 20
-4.771599258481472
 30
0.0
 11
17.59973089678115
 21
-13.77159925848147
 31
0.0
  0
ARC
  5
5B
330
24
100
AcDbEntity
  8
0
100
AcDbCircle
 10
22.59973089678116
 20
-7.271599258481472
 30
0.0
 40
2.5
100
AcDbArc
 50
293.1161887722295
 51
90.0
  0
CIRCLE
  5
5C
330
24
100
AcDbEntity
  8
0
100
AcDbCircle
 10
31.59973089678115
 20
-9.271599258481472
 30
0.0
 40
3.5
  0
ARC
  5
5D
330
24
100
AcDbEntity
  8
0
100
AcDbCircle
 10
4.599730896781153
 20
-11.77159925848133
 30
0.0
 40
1.0
100
AcDbArc
 50
180.0
 51
270.0
  0
ARC
  5
5E
330
24
100
AcDbEntity
  8
0
100
AcDbCircle
 10
4.599730896781153
 20
-11.77159925848133
 30
0.0
 40
2.0
100
AcDbArc
 50
179.9999999999992
 51
270.0
  0
LINE
  5
5F
330
24
100
AcDbEntity
  8
0
100
AcDbLine
 10
11.59973089678115
 20
-13.77159925848144
 30
0.0
 11
4.599730896781153
 21
-13.77159925848147
 31
0.0
  0
LINE
  5
60
330
24
100
AcDbEntity
  8
0
100
AcDbLine
 10
8.771303772034769
 20
-12.77159925848136
 30
0.0
 11
4.599730896781153
 21
-12.77159925848133
 31
0.0
  0
LINE
  5
61
330
24
100
AcDbEntity
  8
0
100
AcDbLine
 10
31.59973089678115
 20
-13.77159925848147
 30
0.0
 11
23.6715276665056
 21
-13.77159925848144
 31
0.0
  0
LINE
  5
62
330
24
100
AcDbEntity
  8
0
100
AcDbLine
 10
23.56565672307022
 20
-9.51278021337896
 30
0.0
 11
24.4388546544846
 21
-12.77159925848144
 31
0.0
  0
LINE
  5
63
330
24
100
AcDbEntity
  8
0
100
AcDbLine
 10
22.59973089678116
 20
-9.771599258481472
 30
0.0
 11
18.59973089678112
 21
-9.771599258481472
 31
0.0
  0
LINE
  5
64
330
24
100
AcDbEntity
  8
0
100
AcDbLine
 10
18.59973089678115
 20
-13.77159925848144
 30
0.0
 11
17.59973089678115
 21
-13.77159925848144
 31
0.0
  0
LINE
  5
65
330
24
100
AcDbEntity
  8
0
100
AcDbLine
 10
18.59973089678115
 20
-9.771599258481472
 30
0.0
 11
18.59973089678115
 21
-13.77159925848144
 31
0.0
  0
LINE
  5
66
330
24
100
AcDbEntity
  8
0
100
AcDbLine
 10
22.59973089678116
 20
-9.771599258481472
 30
0.0
 11
23.67152766650562
 21
-13.77159925848147
 31
0.0
  0
ARC
  5
67
330
24
100
AcDbEntity
  8
0
100
AcDbCircle
 10
22.59973089678116
 20
-7.271599258481472
 30
0.0
 40
2.5
100
AcDbArc
 50
270.0
 51
270.0000000000007
  0
LINE
  5
68
330
24
100
AcDbEntity
  8
0
100
AcDbLine
 10
28.77130377203494
 20
-12.77159925848147
 30
0.0
 11
24.43885465448463
 21
-12.77159925848144
 31
0.0
  0
LINE
  5
69
330
24
100
AcDbEntity
  8
0
100
AcDbLine
 10
3.599730896781125
 20
-4.771599258481472
 30
0.0
 11
2.599730896781125
 21
-4.771599258481472
 31
0.0
  0
LINE
  5
6A
330
24
100
AcDbEntity
  8
0
100
AcDbLine
 10
22.59973089678116
 20
-8.771599258481472
 30
0.0
 11
18.59973089678115
 21
-8.771599258481472
 31
0.0
  0
LINE
  5
6B
330
24
100
AcDbEntity
  8
0
100
AcDbLine
 10
22.59973089678116
 20
-5.771599258481472
 30
0.0
 11
18.59973089678115
 21
-5.771599258481472
 31
0.0
  0
LINE
  5
6C
330
24
100
AcDbEntity
  8
0
100
AcDbLine
 10
22.59973089678116
 20
-4.771599258481472
 30
0.0
 11
17.59973089678115
 21
-4.771599258481472
 31
0.0
  0
LINE
  5
6D
330
24
100
AcDbEntity
  8
0
100
AcDbLine
 10
18.59973089678115
 20
-5.771599258481472
 30
0.0
 11
18.59973089678115
 21
-8.771599258481472
 31
0.0
  0
ARC
  5
6E
330
24
100
AcDbEntity
  8
0
100
AcDbCircle
 10
22.59973089678116
 20
-7.271599258481472
 30
0.0
 40
1.5
100
AcDbArc
 50
270.0
 51
90.0
  0
ENDBLK
  5
6F
330
24
100
AcDbEntity
  8
0
100
AcDbBlockEnd
  0
BLOCK
  5
5FE
330
5F4
100
AcDbEntity
  8
0
100
AcDbBlockBegin
  2
*D1
 70
     1
 10
0.0
 20
0.0
 30
0.0
  3
*D1
  1

  0
LINE
  5
710
330
5F4
100
AcDbEntity
  8
BEM
 62
     0
370
    -2
100
AcDbLine
 10
217.849712639333
 20
215.1274943198389
 30
0.0
 11
217.849712639333
 21
186.5783605285986
 31
0.0
  0
LINE
  5
711
330
5F4
100
AcDbEntity
  8
BEM
 62
     0
370
    -2
100
AcDbLine
 10
270.849712639333
 20
215.127494319839
 30
0.0
 11
270.849712639333
 21
186.5783605285986
 31
0.0
  0
LINE
  5
712
330
5F4
100
AcDbEntity
  8
BEM
 62
     0
370
    -2
100
AcDbLine
 10
224.849712639333
 20
188.5783605285986
 30
0.0
 11
263.849712639333
 21
188.5783605285986
 31
0.0
  0
SOLID
  5
713
330
5F4
100
AcDbEntity
  8
BEM
 62
     0
100
AcDbTrace
 10
224.849712639333
 20
189.7450271952653
 30
0.0
 11
224.849712639333
 21
187.4116938619319
 31
0.0
 12
217.849712639333
 22
188.5783605285986
 32
0.0
 13
217.849712639333
 23
188.5783605285986
 33
0.0
  0
SOLID
  5
714
330
5F4
100
AcDbEntity
  8
BEM
 62
     0
100
AcDbTrace
 10
263.849712639333
 20
189.7450271952653
 30
0.0
 11
263.849712639333
 21
187.4116938619319
 31
0.0
 12
270.849712639333
 22
188.5783605285986
 32
0.0
 13
270.849712639333
 23
188.5783605285986
 33
0.0
  0
MTEXT
  5
715
330
5F4
100
AcDbEntity
  8
BEM
 62
     1
100
AcDbMText
 10
244.349712639333
 20
195.0783605285986
 30
0.0
 40
7.0
 41
0.0
 71
     5
 72
     1
  1
\A1;%%c53
 73
     1
 44
1.0
  0
POINT
  5
716
330
5F4
100
AcDbEntity
  8
DEFPOINTS
 62
     0
100
AcDbPoint
 10
217.849712639333
 20
217.1274943198389
 30
0.0
  0
POINT
  5
717
330
5F4
100
AcDbEntity
  8
DEFPOINTS
 62
     0
100
AcDbPoint
 10
270.849712639333
 20
217.127494319839
 30
0.0
  0
POINT
  5
718
330
5F4
100
AcDbEntity
  8
DEFPOINTS
 62
     0
100
AcDbPoint
 10
270.849712639333
 20
188.5783605285986
 30
0.0
  0
ENDBLK
  5
5FF
330
5F4
100
AcDbEntity
  8
0
100
AcDbBlockEnd
  0
BLOCK
  5
60A
330
600
100
AcDbEntity
  8
0
100
AcDbBlockBegin
  2
*D2
 70
     1
 10
0.0
 20
0.0
 30
0.0
  3
*D2
  1

  0
LINE
  5
719
330
600
100
AcDbEntity
  8
BEM
 62
     0
370
    -2
100
AcDbLine
 10
207.8497126393328
 20
427.6823440898576
 30
0.0
 11
207.8497126393328
 21
390.7701178976863
 31
0.0
  0
LINE
  5
71A
330
600
100
AcDbEntity
  8
BEM
 62
     0
370
    -2
100
AcDbLine
 10
280.849712639333
 20
427.6823440898576
 30
0.0
 11
280.849712639333
 21
390.7701178976863
 31
0.0
  0
LINE
  5
71B
330
600
100
AcDbEntity
  8
BEM
 62
     0
370
    -2
100
AcDbLine
 10
214.8497126393328
 20
392.7701178976863
 30
0.0
 11
273.849712639333
 21
392.7701178976863
 31
0.0
  0
SOLID
  5
71C
330
600
100
AcDbEntity
  8
BEM
 62
     0
100
AcDbTrace
 10
214.8497126393328
 20
393.936784564353
 30
0.0
 11
214.8497126393328
 21
391.6034512310196
 31
0.0
 12
207.8497126393328
 22
392.7701178976863
 32
0.0
 13
207.8497126393328
 23
392.7701178976863
 33
0.0
  0
SOLID
  5
71D
330
600
100
AcDbEntity
  8
BEM
 62
     0
100
AcDbTrace
 10
273.849712639333
 20
393.936784564353
 30
0.0
 11
273.849712639333
 21
391.6034512310196
 31
0.0
 12
280.849712639333
 22
392.7701178976863
 32
0.0
 13
280.849712639333
 23
392.7701178976863
 33
0.0
  0
MTEXT
  5
71E
330
600
100
AcDbEntity
  8
BEM
 62
     1
100
AcDbMText
 10
244.3497126393329
 20
399.2701178976863
 30
0.0
 40
7.0
 41
0.0
 71
     5
 72
     1
  1
\A1;%%c73
 73
     1
 44
1.0
  0
POINT
  5
71F
330
600
100
AcDbEntity
  8
DEFPOINTS
 62
     0
100
AcDbPoint
 10
207.8497126393328
 20
429.6823440898576
 30
0.0
  0
POINT
  5
720
330
600
100
AcDbEntity
  8
DEFPOINTS
 62
     0
100
AcDbPoint
 10
280.849712639333
 20
429.6823440898576
 30
0.0
  0
POINT
  5
721
330
600
100
AcDbEntity
  8
DEFPOINTS
 62
     0
100
AcDbPoint
 10
280.849712639333
 20
392.7701178976863
 30
0.0
  0
ENDBLK
  5
60B
330
600
100
AcDbEntity
  8
0
100
AcDbBlockEnd
  0
BLOCK
  5
616
330
60C
100
AcDbEntity
  8
0
100
AcDbBlockBegin
  2
*D3
 70
     1
 10
0.0
 20
0.0
 30
0.0
  3
*D3
  1

  0
LINE
  5
7BF
330
60C
100
AcDbEntity
  8
BEM
 62
     0
370
    -2
100
AcDbLine
 10
202.5843153110575
 20
515.1929857342016
 30
0.0
 11
179.0950065162047
 21
515.1929857342016
 31
0.0
  0
LINE
  5
7C0
330
60C
100
AcDbEntity
  8
BEM
 62
     0
370
    -2
100
AcDbLine
 10
216.4564035276995
 20
210.1929857342016
 30
0.0
 11
179.0950065162047
 21
210.1929857342016
 31
0.0
  0
LINE
  5
7C1
330
60C
100
AcDbEntity
  8
BEM
 62
     0
370
    -2
100
AcDbLine
 10
181.0950065162047
 20
508.1929857342014
 30
0.0
 11
181.0950065162047
 21
217.1929857342016
 31
0.0
  0
SOLID
  5
7C2
330
60C
100
AcDbEntity
  8
BEM
 62
     0
100
AcDbTrace
 10
179.9283398495381
 20
508.1929857342014
 30
0.0
 11
182.2616731828714
 21
508.1929857342014
 31
0.0
 12
181.0950065162047
 22
515.1929857342016
 32
0.0
 13
181.0950065162047
 23
515.1929857342016
 33
0.0
  0
SOLID
  5
7C3
330
60C
100
AcDbEntity
  8
BEM
 62
     0
100
AcDbTrace
 10
179.928339849538
 20
217.1929857342016
 30
0.0
 11
182.2616731828713
 21
217.1929857342016
 31
0.0
 12
181.0950065162047
 22
210.1929857342016
 32
0.0
 13
181.0950065162047
 23
210.1929857342016
 33
0.0
  0
MTEXT
  5
7C4
330
60C
100
AcDbEntity
  8
BEM
 62
     1
100
AcDbMText
 10
174.5950065162046
 20
362.6929857342016
 30
0.0
 40
7.0
 41
0.0
 71
     5
 72
     1
  1
\A1;305
 11
0.0000000000000001
 21
1.0
 31
0.0
 73
     1
 44
1.0
  0
POINT
  5
7C5
330
60C
100
AcDbEntity
  8
DEFPOINTS
 62
     0
100
AcDbPoint
 10
204.5843153110575
 20
515.1929857342016
 30
0.0
  0
POINT
  5
7C6
330
60C
100
AcDbEntity
  8
DEFPOINTS
 62
     0
100
AcDbPoint
 10
218.4564035276995
 20
210.1929857342016
 30
0.0
  0
POINT
  5
7C7
330
60C
100
AcDbEntity
  8
DEFPOINTS
 62
     0
100
AcDbPoint
 10
181.0950065162047
 20
210.1929857342016
 30
0.0
  0
ENDBLK
  5
617
330
60C
100
AcDbEntity
  8
0
100
AcDbBlockEnd
  0
ENDSEC
  0
SECTION
  2
ENTITIES
  0
TEXT
  5
4B8
330
20
100
AcDbEntity
  8
TEXT
 62
     1
100
AcDbText
 10
234.9791173409949
 20
86.99412083985322
 30
0.0
 40
7.0
  1
LORO-Anschlußstück
 41
0.8
  7
GREEKS
100
AcDbText
  0
LINE
  5
4B9
330
20
100
AcDbEntity
  8
STEMPEL
100
AcDbLine
 10
410.0
 20
110.0
 30
0.0
 11
49.99999999999989
 21
110.0
 31
0.0
  0
LINE
  5
4BA
330
20
100
AcDbEntity
  8
STEMPEL
100
AcDbLine
 10
50.00000000000063
 20
584.0
 30
0.0
 11
49.99999999999971
 21
10.0
 31
0.0
  0
LINE
  5
4BB
330
20
100
AcDbEntity
  8
STEMPEL
100
AcDbLine
 10
146.0
 20
109.9999999999999
 30
0.0
 11
145.9999999999998
 21
9.999999999999886
 31
0.0
  0
LINE
  5
4BC
330
20
100
AcDbEntity
  8
STEMPEL
100
AcDbLine
 10
229.9999999999998
 20
110.0
 30
0.0
 11
229.9999999999998
 21
10.0
 31
0.0
  0
LINE
  5
4BD
330
20
100
AcDbEntity
  8
STEMPEL
100
AcDbLine
 10
332.0
 20
109.9999999999996
 30
0.0
 11
332.0
 21
40.0
 31
0.0
  0
LINE
  5
4BE
330
20
100
AcDbEntity
  8
STEMPEL
100
AcDbLine
 10
145.9999999999998
 20
30.0
 30
0.0
 11
49.99999999999977
 21
30.0
 31
0.0
  0
LINE
  5
4BF
330
20
100
AcDbEntity
  8
STEMPEL
100
AcDbLine
 10
410.0
 20
40.0
 30
0.0
 11
145.9999999999998
 21
40.0
 31
0.0
  0
LINE
  5
4C0
330
20
100
AcDbEntity
  8
STEMPEL
100
AcDbLine
 10
410.0
 20
80.0
 30
0.0
 11
146.0
 21
80.0
 31
0.0
  0
LINE
  5
4C1
330
20
100
AcDbEntity
  8
VOLL
100
AcDbLine
 10
63.99999999999988
 20
110.0
 30
0.0
 11
63.99999999999977
 21
10.0
 31
0.0
  0
LINE
  5
4C2
330
20
100
AcDbEntity
  8
VOLL
100
AcDbLine
 10
104.0
 20
109.9999999999999
 30
0.0
 11
103.9999999999998
 21
9.999999999999943
 31
0.0
  0
LINE
  5
4C3
330
20
100
AcDbEntity
  8
VOLL
100
AcDbLine
 10
124.0
 20
109.9999999999999
 30
0.0
 11
123.9999999999997
 21
9.999999999999886
 31
0.0
  0
LINE
  5
4C4
330
20
100
AcDbEntity
  8
VOLL
100
AcDbLine
 10
164.0
 20
80.0
 30
0.0
 11
164.0
 21
40.0
 31
0.0
  0
LINE
  5
4C5
330
20
100
AcDbEntity
  8
VOLL
100
AcDbLine
 10
190.0
 20
109.9999999999998
 30
0.0
 11
189.9999999999997
 21
40.0
 31
0.0
  0
LINE
  5
4C6
330
20
100
AcDbEntity
  8
HILF
100
AcDbLine
 10
49.99999999999989
 20
100.0
 30
0.0
 11
146.0
 21
100.0
 31
0.0
  0
LINE
  5
4C7
330
20
100
AcDbEntity
  8
HILF
100
AcDbLine
 10
49.99999999999989
 20
90.0
 30
0.0
 11
146.0
 21
90.0
 31
0.0
  0
LINE
  5
4C8
330
20
100
AcDbEntity
  8
HILF
100
AcDbLine
 10
49.99999999999989
 20
80.0
 30
0.0
 11
146.0
 21
80.0
 31
0.0
  0
LINE
  5
4C9
330
20
100
AcDbEntity
  8
HILF
100
AcDbLine
 10
49.99999999999989
 20
70.0
 30
0.0
 11
146.0
 21
70.0
 31
0.0
  0
LINE
  5
4CA
330
20
100
AcDbEntity
  8
HILF
100
AcDbLine
 10
49.99999999999989
 20
60.0
 30
0.0
 11
146.0
 21
60.0
 31
0.0
  0
LINE
  5
4CB
330
20
100
AcDbEntity
  8
HILF
100
AcDbLine
 10
49.99999999999989
 20
50.0
 30
0.0
 11
146.0
 21
50.0
 31
0.0
  0
LINE
  5
4CC
330
20
100
AcDbEntity
  8
HILF
100
AcDbLine
 10
49.99999999999989
 20
40.0
 30
0.0
 11
146.0
 21
40.0
 31
0.0
  0
LINE
  5
4CD
330
20
100
AcDbEntity
  8
HILF
100
AcDbLine
 10
146.0
 20
70.0
 30
0.0
 11
229.9999999999998
 21
70.0
 31
0.0
  0
LINE
  5
4CE
330
20
100
AcDbEntity
  8
HILF
100
AcDbLine
 10
146.0
 20
60.0
 30
0.0
 11
229.9999999999998
 21
60.0
 31
0.0
  0
LINE
  5
4CF
330
20
100
AcDbEntity
  8
HILF
100
AcDbLine
 10
146.0
 20
50.0
 30
0.0
 11
229.9999999999998
 21
50.0
 31
0.0
  0
LINE
  5
4D0
330
20
100
AcDbEntity
  8
HILF
100
AcDbLine
 10
234.7736801096946
 20
84.03758247564132
 30
0.0
 11
326.629784251481
 21
84.03758247564132
 31
0.0
  0
LINE
  5
4D1
330
20
100
AcDbEntity
  8
HILF
100
AcDbLine
 10
234.7736801096946
 20
70.0
 30
0.0
 11
326.629784251481
 21
70.0
 31
0.0
  0
LINE
  5
4D2
330
20
100
AcDbEntity
  8
HILF
100
AcDbLine
 10
234.7736801096946
 20
60.0
 30
0.0
 11
326.629784251481
 21
60.0
 31
0.0
  0
LINE
  5
4D3
330
20
100
AcDbEntity
  8
HILF
100
AcDbLine
 10
234.7736801096946
 20
50.0
 30
0.0
 11
326.629784251481
 21
50.0
 31
0.0
  0
LINE
  5
4D4
330
20
100
AcDbEntity
  8
VOLL
100
AcDbLine
 10
332.0
 20
60.0
 30
0.0
 11
410.0
 21
60.0
 31
0.0
  0
LINE
  5
4D5
330
20
100
AcDbEntity
  8
HILF
100
AcDbLine
 10
336.7238616296993
 20
83.77983636955821
 30
0.0
 11
404.8588839326728
 21
83.77983636955821
 31
0.0
  0
LINE
  5
4D6
330
20
100
AcDbEntity
  8
HILF
100
AcDbLine
 10
234.7736801096946
 20
14.89398258028302
 30
0.0
 11
404.8588839326728
 21
14.89398258028302
 31
0.0
  0
TEXT
  5
4D7
330
20
100
AcDbEntity
  8
TEXT
100
AcDbText
 10
71.78904558489721
 20
18.67381894984129
 30
0.0
 40
4.0
  1
Änderung
 41
0.8
  7
GREEKS
 72
     1
 11
82.53190272775436
 21
18.67381894984129
 31
0.0
100
AcDbText
  0
TEXT
  5
4D8
330
20
100
AcDbEntity
  8
TEXT
100
AcDbText
 10
153.5163572150375
 20
102.4620895087088
 30
0.0
 40
5.0
  1
Maßstab
 41
0.8
  7
GREEKS
100
AcDbText
  0
TEXT
  5
4D9
330
20
100
AcDbEntity
  8
TEXT
100
AcDbText
 10
197.9646614905596
 20
102.4184168434818
 30
0.0
 40
5.0
  1
zul.Abw.
 41
0.8
  7
GREEKS
100
AcDbText
  0
TEXT
  5
4DA
330
20
100
AcDbEntity
  8
TEXT
100
AcDbText
 10
234.8779403809008
 20
102.5489328011779
 30
0.0
 40
5.0
  1
Benennung
 41
0.8
  7
GREEKS
100
AcDbText
  0
TEXT
  5
4DB
330
20
100
AcDbEntity
  8
TEXT
100
AcDbText
 10
336.178754957634
 20
102.3132034537135
 30
0.0
 40
5.0
  1
Zeichnungs Nr.
 41
0.8
  7
GREEKS
100
AcDbText
  0
TEXT
  5
4DC
330
20
100
AcDbEntity
  8
TEXT
100
AcDbText
 10
234.7422383911357
 20
30.84560570193054
 30
0.0
 40
5.0
  1
Bauvorhaben
 41
0.8
  7
GREEKS
100
AcDbText
  0
TEXT
  5
4DD
330
20
100
AcDbEntity
  8
TEXT
100
AcDbText
 10
336.7238616296993
 20
73.18118237099963
 30
0.0
 40
5.0
  1
Ersatz für:
 41
0.8
  7
GREEKS
100
AcDbText
  0
TEXT
  5
4DE
330
20
100
AcDbEntity
  8
TEXT
100
AcDbText
 10
58.26641107045737
 20
13.65465846027189
 30
0.0
 40
4.0
  1
Index
 50
90.0
 41
0.8
  7
GREEKS
100
AcDbText
  0
TEXT
  5
4DF
330
20
100
AcDbEntity
  8
TEXT
100
AcDbText
 10
110.3656441143612
 20
18.67156269339807
 30
0.0
 40
4.0
  1
Tag
 41
0.8
  7
GREEKS
 72
     1
 11
114.0989774476945
 21
18.67156269339807
 31
0.0
100
AcDbText
  0
TEXT
  5
4E0
330
20
100
AcDbEntity
  8
TEXT
100
AcDbText
 10
129.2093898367219
 20
18.59324216966405
 30
0.0
 40
4.0
  1
Name
 41
0.8
  7
GREEKS
 72
     1
 11
135.5331993605314
 21
18.59324216966405
 31
0.0
100
AcDbText
  0
TEXT
  5
4E1
330
20
100
AcDbEntity
  8
TEXT
100
AcDbText
 10
172.3311673153648
 20
73.31880501229921
 30
0.0
 40
4.0
  1
Tag
 41
0.8
  7
GREEKS
100
AcDbText
  0
TEXT
  5
4E2
330
20
100
AcDbEntity
  8
TEXT
100
AcDbText
 10
202.4626584226294
 20
73.30961091915219
 30
0.0
 40
4.0
  1
Name
 41
0.8
  7
GREEKS
100
AcDbText
  0
TEXT
  5
4E3
330
20
100
AcDbEntity
  8
TEXT
100
AcDbText
 10
147.5836127167613
 20
63.62990369617961
 30
0.0
 40
4.0
  1
Gez.
 41
0.8
  7
GREEKS
100
AcDbText
  0
TEXT
  5
4E4
330
20
100
AcDbEntity
  8
TEXT
100
AcDbText
 10
147.551508657167
 20
53.68926291428374
 30
0.0
 40
4.0
  1
Gepr.
 41
0.8
  7
GREEKS
100
AcDbText
  0
TEXT
  5
4E5
330
20
100
AcDbEntity
  8
TEXT
100
AcDbText
 10
147.6006777387301
 20
43.52946389649804
 30
0.0
 40
4.0
  1
Norm.
 41
0.8
  7
GREEKS
100
AcDbText
  0
TEXT
  5
4E6
330
20
100
AcDbEntity
  8
TEXT
100
AcDbText
 10
337.2400861497006
 20
52.07416177878599
 30
0.0
 40
5.0
  1
ersetzt durch:
 41
0.8
  7
GREEKS
100
AcDbText
  0
LINE
  5
4E7
330
20
100
AcDbEntity
  8
HILF
100
AcDbLine
 10
0.0
 20
0.0
 30
0.0
 11
420.0
 21
0.0
 31
0.0
  0
LINE
  5
4E8
330
20
100
AcDbEntity
  8
HILF
100
AcDbLine
 10
420.0
 20
0.0
 30
0.0
 11
420.0
 21
594.0
 31
0.0
  0
LINE
  5
4E9
330
20
100
AcDbEntity
  8
HILF
100
AcDbLine
 10
420.0
 20
594.0
 30
0.0
 11
0.0
 21
594.0
 31
0.0
  0
LINE
  5
4EA
330
20
100
AcDbEntity
  8
STEMPEL
100
AcDbLine
 10
410.0
 20
584.0
 30
0.0
 11
50.00000000000063
 21
584.0
 31
0.0
  0
LINE
  5
4EB
330
20
100
AcDbEntity
  8
STEMPEL
100
AcDbLine
 10
49.99999999999971
 20
10.0
 30
0.0
 11
410.0
 21
10.0
 31
0.0
  0
LINE
  5
4EC
330
20
100
AcDbEntity
  8
STEMPEL
100
AcDbLine
 10
410.0
 20
10.0
 30
0.0
 11
410.0
 21
584.0
 31
0.0
  0
TEXT
  5
4ED
330
20
100
AcDbEntity
  8
TEXT
100
AcDbText
 10
149.2485198313463
 20
73.14583683904146
 30
0.0
 40
4.0
  1
2008
 41
0.8
  7
GREEKS
100
AcDbText
  0
TEXT
  5
4EE
330
20
100
AcDbEntity
  8
TEXT
 62
     1
100
AcDbText
 10
158.8064310364448
 20
86.22410504373215
 30
0.0
 40
7.0
  1
1:2
 41
0.8
  7
GREEKS
100
AcDbText
  0
TEXT
  5
4EF
330
20
100
AcDbEntity
  8
TEXT
100
AcDbText
 10
234.862987254257
 20
72.29651127304094
 30
0.0
 40
5.0
  1
DN 70/50
 41
0.8
  7
GREEKS
100
AcDbText
  0
TEXT
  5
4F0
330
20
100
AcDbEntity
  8
TEXT
100
AcDbText
 10
235.162303158329
 20
52.75131145345461
 30
0.0
 40
5.0
  1
EDV-Art.Nr. 05043.CB0X
 41
0.8
  7
GREEKS
100
AcDbText
  0
TEXT
  5
4F2
330
20
100
AcDbEntity
  8
TEXT
 62
     1
100
AcDbText
 10
346.1044394842363
 20
87.01863741763572
 30
0.0
 40
7.0
  1
05043CB0W
 41
0.8
  7
GREEKS
 72
     1
 11
370.371106150903
 21
87.01863741763572
 31
0.0
100
AcDbText
  0
TEXT
  5
4F3
330
20
100
AcDbEntity
  8
TEXT
100
AcDbText
 10
234.9713400534563
 20
42.1950457301354
 30
0.0
 40
4.0
  1
05043CB0W.DWG
 41
0.8
  7
GREEKS
100
AcDbText
  0
INSERT
  5
4F4
330
20
100
AcDbEntity
  8
STEMPEL
100
AcDbBlockReference
  2
LOGO
 10
148.9705276546528
 20
44.32391971867144
 30
0.0
 41
2.0
 42
2.0
 43
2.0
  0
TEXT
  5
4F5
330
20
100
AcDbEntity
  8
TEXT
100
AcDbText
 10
169.3685946607658
 20
63.66472427925334
 30
0.0
 40
4.0
  1
16.05.
 41
0.8
  7
GREEKS
 72
     1
 11
176.0733565655278
 21
63.66472427925334
 31
0.0
100
AcDbText
  0
TEXT
  5
4F6
330
20
100
AcDbEntity
  8
TEXT
100
AcDbText
 10
204.2889439602947
 20
63.65553018610632
 30
0.0
 40
4.0
  1
Koeh
 41
0.8
  7
GREEKS
 72
     1
 11
209.5460868174375
 21
63.65553018610632
 31
0.0
100
AcDbText
  0
TEXT
  5
4F7
330
20
100
AcDbEntity
  8
VOLL
100
AcDbText
 10
624.2181993280528
 20
153.5301393177705
 30
0.0
 40
1.8
  1

  7
GREEKS
100
AcDbText
  0
TEXT
  5
4F8
330
20
100
AcDbEntity
  8
VOLL
100
AcDbText
 10
713.8843732537259
 20
158.8222560334898
 30
0.0
 40
1.8
  1

  7
GREEKS
100
AcDbText
  0
TEXT
  5
4F9
330
20
100
AcDbEntity
  8
TEXT
100
AcDbText
 10
1045.716641457319
 20
164.3804915667154
 30
0.0
 40
2.5
  1
  
  7
GREEKS
 72
     1
 11
1047.978546219224
 21
164.3804915667154
 31
0.0
100
AcDbText
  0
TEXT
  5
4FA
330
20
100
AcDbEntity
  8
BEM
100
AcDbText
 10
1289.836358769801
 20
299.9393735971176
 30
0.0
 40
2.5
  1
 
 72
     4
 11
1290.967311150753
 21
299.9393735971176
 31
0.0
100
AcDbText
  0
TEXT
  5
4FC
330
20
100
AcDbEntity
  8
BEM
100
AcDbText
 10
855.5257028996505
 20
182.4589702246512
 30
0.0
 40
2.5
  1

  7
GREEKS
100
AcDbText
  0
TEXT
  5
4FD
330
20
100
AcDbEntity
  8
VOLL
100
AcDbText
 10
841.459509879929
 20
162.2757095676161
 30
0.0
 40
1.8
  1

  7
GREEKS
100
AcDbText
  0
TEXT
  5
4FE
330
20
100
AcDbEntity
  8
BEM
100
AcDbText
 10
875.9475747192137
 20
167.0014338908367
 30
0.0
 40
2.5
  1

 41
0.8
  7
GREEKS
100
AcDbText
  0
TEXT
  5
4FF
330
20
100
AcDbEntity
  8
BEM
100
AcDbText
 10
875.9475747192137
 20
162.3076653367846
 30
0.0
 40
2.5
  1

 41
0.8
  7
GREEKS
100
AcDbText
  0
TEXT
  5
500
330
20
100
AcDbEntity
  8
BEM
100
AcDbText
 10
875.9475747192137
 20
157.0698215181211
 30
0.0
 40
2.5
  1

 41
0.8
  7
GREEKS
100
AcDbText
  0
TEXT
  5
501
330
20
100
AcDbEntity
  8
BEM
100
AcDbText
 10
875.8746302418392
 20
152.5646325680234
 30
0.0
 40
1.8
  1

 41
0.8
  7
GREEKS
100
AcDbText
  0
TEXT
  5
502
330
20
100
AcDbEntity
  8
BEM
100
AcDbText
 10
863.1910593622281
 20
178.1562216642487
 30
0.0
 40
2.0
  1

 41
0.8
  7
GREEKS
 72
     1
 11
863.1910593622281
 21
178.1562216642487
 31
0.0
100
AcDbText
  0
TEXT
  5
503
330
20
100
AcDbEntity
  8
TEXT
100
AcDbText
 10
1173.291778083522
 20
167.8339451008417
 30
0.0
 40
2.5
  1
  
  7
GREEKS
 72
     1
 11
1175.553682845426
 21
167.8339451008417
 31
0.0
100
AcDbText
  0
TEXT
  5
504
330
20
100
AcDbEntity
  8
BEM
100
AcDbText
 10
1417.411495396004
 20
303.3928271312439
 30
0.0
 40
2.5
  1
 
 72
     4
 11
1418.542447776956
 21
303.3928271312439
 31
0.0
100
AcDbText
  0
TEXT
  5
505
330
20
100
AcDbEntity
  8
VOLL
100
AcDbText
 10
766.1762742752141
 20
169.7272236296053
 30
0.0
 40
1.8
  1

  7
GREEKS
100
AcDbText
  0
TEXT
  5
506
330
20
100
AcDbEntity
  8
TEXT
100
AcDbText
 10
1098.008542478807
 20
175.2854591628308
 30
0.0
 40
2.5
  1
  
  7
GREEKS
 72
     1
 11
1100.270447240712
 21
175.2854591628308
 31
0.0
100
AcDbText
  0
TEXT
  5
507
330
20
100
AcDbEntity
  8
BEM
100
AcDbText
 10
1342.128259791289
 20
310.8443411932331
 30
0.0
 40
2.5
  1
 
 72
     4
 11
1343.259212172241
 21
310.8443411932331
 31
0.0
100
AcDbText
  0
TEXT
  5
508
330
20
100
AcDbEntity
  8
BEM
100
AcDbText
 10
921.31587643201
 20
190.0606345192818
 30
0.0
 40
2.5
  1

  7
GREEKS
100
AcDbText
  0
TEXT
  5
509
330
20
100
AcDbEntity
  8
VOLL
100
AcDbText
 10
907.2496834122887
 20
169.8773738622467
 30
0.0
 40
1.8
  1

  7
GREEKS
100
AcDbText
  0
TEXT
  5
50A
330
20
100
AcDbEntity
  8
BEM
100
AcDbText
 10
941.7377482515732
 20
174.6030981854673
 30
0.0
 40
2.5
  1

 41
0.8
  7
GREEKS
100
AcDbText
  0
TEXT
  5
50B
330
20
100
AcDbEntity
  8
BEM
100
AcDbText
 10
941.7377482515732
 20
169.9093296314152
 30
0.0
 40
2.5
  1

 41
0.8
  7
GREEKS
100
AcDbText
  0
TEXT
  5
50C
330
20
100
AcDbEntity
  8
BEM
100
AcDbText
 10
941.7377482515732
 20
164.6714858127516
 30
0.0
 40
2.5
  1

 41
0.8
  7
GREEKS
100
AcDbText
  0
TEXT
  5
50D
330
20
100
AcDbEntity
  8
BEM
100
AcDbText
 10
941.6648037741989
 20
160.166296862654
 30
0.0
 40
1.8
  1

 41
0.8
  7
GREEKS
100
AcDbText
  0
TEXT
  5
50E
330
20
100
AcDbEntity
  8
BEM
100
AcDbText
 10
928.9812328945878
 20
185.7578859588793
 30
0.0
 40
2.0
  1

 41
0.8
  7
GREEKS
 72
     1
 11
928.9812328945878
 21
185.7578859588793
 31
0.0
100
AcDbText
  0
TEXT
  5
50F
330
20
100
AcDbEntity
  8
TEXT
100
AcDbText
 10
1239.081951615881
 20
175.4356093954723
 30
0.0
 40
2.5
  1
  
  7
GREEKS
 72
     1
 11
1241.343856377786
 21
175.4356093954723
 31
0.0
100
AcDbText
  0
TEXT
  5
510
330
20
100
AcDbEntity
  8
BEM
100
AcDbText
 10
1483.201668928364
 20
310.9944914258745
 30
0.0
 40
2.5
  1
 
 72
     4
 11
1484.332621309316
 21
310.9944914258745
 31
0.0
100
AcDbText
  0
TEXT
  5
511
330
20
100
AcDbEntity
  8
VOLL
100
AcDbText
 10
702.1540628484578
 20
157.9115141038568
 30
0.0
 40
1.8
  1

  7
GREEKS
100
AcDbText
  0
TEXT
  5
512
330
20
100
AcDbEntity
  8
TEXT
100
AcDbText
 10
1033.98633105205
 20
163.4697496370823
 30
0.0
 40
2.5
  1
  
  7
GREEKS
 72
     1
 11
1036.248235813955
 21
163.4697496370823
 31
0.0
100
AcDbText
  0
TEXT
  5
513
330
20
100
AcDbEntity
  8
BEM
100
AcDbText
 10
1278.106048364533
 20
299.0286316674846
 30
0.0
 40
2.5
  1
 
 72
     4
 11
1279.237000745485
 21
299.0286316674846
 31
0.0
100
AcDbText
  0
TEXT
  5
514
330
20
100
AcDbEntity
  8
BEM
100
AcDbText
 10
867.4996759281077
 20
198.0647448024424
 30
0.0
 40
2.5
  1

  7
GREEKS
100
AcDbText
  0
TEXT
  5
515
330
20
100
AcDbEntity
  8
VOLL
100
AcDbText
 10
853.4334829083862
 20
177.8814841454073
 30
0.0
 40
1.8
  1

  7
GREEKS
100
AcDbText
  0
TEXT
  5
516
330
20
100
AcDbEntity
  8
BEM
100
AcDbText
 10
887.9215477476709
 20
182.6072084686279
 30
0.0
 40
2.5
  1

 41
0.8
  7
GREEKS
100
AcDbText
  0
TEXT
  5
517
330
20
100
AcDbEntity
  8
BEM
100
AcDbText
 10
887.9215477476709
 20
177.9134399145758
 30
0.0
 40
2.5
  1

 41
0.8
  7
GREEKS
100
AcDbText
  0
TEXT
  5
518
330
20
100
AcDbEntity
  8
BEM
100
AcDbText
 10
887.9215477476709
 20
172.6755960959122
 30
0.0
 40
2.5
  1

 41
0.8
  7
GREEKS
100
AcDbText
  0
TEXT
  5
519
330
20
100
AcDbEntity
  8
BEM
100
AcDbText
 10
887.8486032702964
 20
168.1704071458146
 30
0.0
 40
1.8
  1

 41
0.8
  7
GREEKS
100
AcDbText
  0
TEXT
  5
51A
330
20
100
AcDbEntity
  8
BEM
100
AcDbText
 10
875.1650323906853
 20
193.7619962420399
 30
0.0
 40
2.0
  1

 41
0.8
  7
GREEKS
 72
     1
 11
875.1650323906853
 21
193.7619962420399
 31
0.0
100
AcDbText
  0
TEXT
  5
51B
330
20
100
AcDbEntity
  8
TEXT
100
AcDbText
 10
1185.265751111979
 20
183.4397196786328
 30
0.0
 40
2.5
  1
  
  7
GREEKS
 72
     1
 11
1187.527655873884
 21
183.4397196786328
 31
0.0
100
AcDbText
  0
TEXT
  5
51C
330
20
100
AcDbEntity
  8
BEM
100
AcDbText
 10
1429.385468424461
 20
318.9986017090352
 30
0.0
 40
2.5
  1
 
 72
     4
 11
1430.516420805413
 21
318.9986017090352
 31
0.0
100
AcDbText
  0
TEXT
  5
51D
330
20
100
AcDbEntity
  8
VOLL
100
AcDbText
 10
1029.735639101569
 20
163.0299574813593
 30
0.0
 40
1.8
  1

  7
GREEKS
100
AcDbText
  0
TEXT
  5
51E
330
20
100
AcDbEntity
  8
VOLL
100
AcDbText
 10
1119.401813027242
 20
168.3220741970786
 30
0.0
 40
1.8
  1

  7
GREEKS
100
AcDbText
  0
TEXT
  5
51F
330
20
100
AcDbEntity
  8
TEXT
100
AcDbText
 10
1451.234081230835
 20
173.8803097303042
 30
0.0
 40
2.5
  1
  
  7
GREEKS
 72
     1
 11
1453.49598599274
 21
173.8803097303042
 31
0.0
100
AcDbText
  0
TEXT
  5
520
330
20
100
AcDbEntity
  8
BEM
100
AcDbText
 10
1695.353798543317
 20
309.4391917607064
 30
0.0
 40
2.5
  1
 
 72
     4
 11
1696.484750924269
 21
309.4391917607064
 31
0.0
100
AcDbText
  0
TEXT
  5
521
330
20
100
AcDbEntity
  8
BEM
100
AcDbText
 10
1261.043142673166
 20
191.95878838824
 30
0.0
 40
2.5
  1

  7
GREEKS
100
AcDbText
  0
TEXT
  5
522
330
20
100
AcDbEntity
  8
VOLL
100
AcDbText
 10
1246.976949653445
 20
171.7755277312049
 30
0.0
 40
1.8
  1

  7
GREEKS
100
AcDbText
  0
TEXT
  5
523
330
20
100
AcDbEntity
  8
BEM
100
AcDbText
 10
1281.46501449273
 20
176.5012520544255
 30
0.0
 40
2.5
  1

 41
0.8
  7
GREEKS
100
AcDbText
  0
TEXT
  5
524
330
20
100
AcDbEntity
  8
BEM
100
AcDbText
 10
1281.46501449273
 20
171.8074835003733
 30
0.0
 40
2.5
  1

 41
0.8
  7
GREEKS
100
AcDbText
  0
TEXT
  5
525
330
20
100
AcDbEntity
  8
BEM
100
AcDbText
 10
1281.46501449273
 20
166.5696396817098
 30
0.0
 40
2.5
  1

 41
0.8
  7
GREEKS
100
AcDbText
  0
TEXT
  5
526
330
20
100
AcDbEntity
  8
BEM
100
AcDbText
 10
1281.392070015355
 20
162.0644507316122
 30
0.0
 40
1.8
  1

 41
0.8
  7
GREEKS
100
AcDbText
  0
TEXT
  5
527
330
20
100
AcDbEntity
  8
BEM
100
AcDbText
 10
1268.708499135744
 20
187.6560398278375
 30
0.0
 40
2.0
  1

 41
0.8
  7
GREEKS
 72
     1
 11
1268.708499135744
 21
187.6560398278375
 31
0.0
100
AcDbText
  0
TEXT
  5
528
330
20
100
AcDbEntity
  8
TEXT
100
AcDbText
 10
1578.809217857038
 20
177.3337632644304
 30
0.0
 40
2.5
  1
  
  7
GREEKS
 72
     1
 11
1581.071122618943
 21
177.3337632644304
 31
0.0
100
AcDbText
  0
TEXT
  5
529
330
20
100
AcDbEntity
  8
BEM
100
AcDbText
 10
1822.928935169521
 20
312.8926452948327
 30
0.0
 40
2.5
  1
 
 72
     4
 11
1824.059887550473
 21
312.8926452948327
 31
0.0
100
AcDbText
  0
TEXT
  5
52A
330
20
100
AcDbEntity
  8
VOLL
100
AcDbText
 10
1037.648953793352
 20
140.0808845888587
 30
0.0
 40
1.8
  1

  7
GREEKS
100
AcDbText
  0
TEXT
  5
52B
330
20
100
AcDbEntity
  8
VOLL
100
AcDbText
 10
1127.315127719025
 20
145.3730013045781
 30
0.0
 40
1.8
  1

  7
GREEKS
100
AcDbText
  0
TEXT
  5
52C
330
20
100
AcDbEntity
  8
TEXT
100
AcDbText
 10
1459.147395922618
 20
150.9312368378036
 30
0.0
 40
2.5
  1
  
  7
GREEKS
 72
     1
 11
1461.409300684523
 21
150.9312368378036
 31
0.0
100
AcDbText
  0
TEXT
  5
52D
330
20
100
AcDbEntity
  8
BEM
100
AcDbText
 10
1703.2671132351
 20
286.4901188682059
 30
0.0
 40
2.5
  1
 
 72
     4
 11
1704.398065616053
 21
286.4901188682059
 31
0.0
100
AcDbText
  0
TEXT
  5
52E
330
20
100
AcDbEntity
  8
BEM
100
AcDbText
 10
1268.95645736495
 20
169.0097154957395
 30
0.0
 40
2.5
  1

  7
GREEKS
100
AcDbText
  0
TEXT
  5
52F
330
20
100
AcDbEntity
  8
VOLL
100
AcDbText
 10
1254.890264345229
 20
148.8264548387044
 30
0.0
 40
1.8
  1

  7
GREEKS
100
AcDbText
  0
TEXT
  5
530
330
20
100
AcDbEntity
  8
BEM
100
AcDbText
 10
1289.378329184513
 20
153.552179161925
 30
0.0
 40
2.5
  1

 41
0.8
  7
GREEKS
100
AcDbText
  0
TEXT
  5
531
330
20
100
AcDbEntity
  8
BEM
100
AcDbText
 10
1289.378329184513
 20
148.8584106078728
 30
0.0
 40
2.5
  1

 41
0.8
  7
GREEKS
100
AcDbText
  0
TEXT
  5
532
330
20
100
AcDbEntity
  8
BEM
100
AcDbText
 10
1289.378329184513
 20
143.6205667892093
 30
0.0
 40
2.5
  1

 41
0.8
  7
GREEKS
100
AcDbText
  0
TEXT
  5
533
330
20
100
AcDbEntity
  8
BEM
100
AcDbText
 10
1289.305384707138
 20
139.1153778391117
 30
0.0
 40
1.8
  1

 41
0.8
  7
GREEKS
100
AcDbText
  0
TEXT
  5
534
330
20
100
AcDbEntity
  8
BEM
100
AcDbText
 10
1276.621813827527
 20
164.706966935337
 30
0.0
 40
2.0
  1

 41
0.8
  7
GREEKS
 72
     1
 11
1276.621813827527
 21
164.706966935337
 31
0.0
100
AcDbText
  0
TEXT
  5
535
330
20
100
AcDbEntity
  8
TEXT
100
AcDbText
 10
1586.722532548821
 20
154.3846903719299
 30
0.0
 40
2.5
  1
  
  7
GREEKS
 72
     1
 11
1588.984437310726
 21
154.3846903719299
 31
0.0
100
AcDbText
  0
TEXT
  5
536
330
20
100
AcDbEntity
  8
BEM
100
AcDbText
 10
1830.842249861303
 20
289.9435724023322
 30
0.0
 40
2.5
  1
 
 72
     4
 11
1831.973202242256
 21
289.9435724023322
 31
0.0
100
AcDbText
  0
TEXT
  5
537
330
20
100
AcDbEntity
  8
VOLL
100
AcDbText
 10
1179.607028740513
 20
156.2779689006935
 30
0.0
 40
1.8
  1

  7
GREEKS
100
AcDbText
  0
TEXT
  5
538
330
20
100
AcDbEntity
  8
TEXT
100
AcDbText
 10
1511.439296944107
 20
161.8362044339191
 30
0.0
 40
2.5
  1
  
  7
GREEKS
 72
     1
 11
1513.701201706011
 21
161.8362044339191
 31
0.0
100
AcDbText
  0
TEXT
  5
539
330
20
100
AcDbEntity
  8
BEM
100
AcDbText
 10
1755.559014256589
 20
297.3950864643213
 30
0.0
 40
2.5
  1
 
 72
     4
 11
1756.689966637541
 21
297.3950864643213
 31
0.0
100
AcDbText
  0
TEXT
  5
53A
330
20
100
AcDbEntity
  8
BEM
100
AcDbText
 10
1334.74663089731
 20
176.6113797903701
 30
0.0
 40
2.5
  1

  7
GREEKS
100
AcDbText
  0
TEXT
  5
53B
330
20
100
AcDbEntity
  8
VOLL
100
AcDbText
 10
1320.680437877588
 20
156.428119133335
 30
0.0
 40
1.8
  1

  7
GREEKS
100
AcDbText
  0
TEXT
  5
53C
330
20
100
AcDbEntity
  8
BEM
100
AcDbText
 10
1355.168502716873
 20
161.1538434565556
 30
0.0
 40
2.5
  1

 41
0.8
  7
GREEKS
100
AcDbText
  0
TEXT
  5
53D
330
20
100
AcDbEntity
  8
BEM
100
AcDbText
 10
1355.168502716873
 20
156.4600749025034
 30
0.0
 40
2.5
  1

 41
0.8
  7
GREEKS
100
AcDbText
  0
TEXT
  5
53E
330
20
100
AcDbEntity
  8
BEM
100
AcDbText
 10
1355.168502716873
 20
151.2222310838399
 30
0.0
 40
2.5
  1

 41
0.8
  7
GREEKS
100
AcDbText
  0
TEXT
  5
53F
330
20
100
AcDbEntity
  8
BEM
100
AcDbText
 10
1355.095558239498
 20
146.7170421337423
 30
0.0
 40
1.8
  1

 41
0.8
  7
GREEKS
100
AcDbText
  0
TEXT
  5
540
330
20
100
AcDbEntity
  8
BEM
100
AcDbText
 10
1342.411987359887
 20
172.3086312299676
 30
0.0
 40
2.0
  1

 41
0.8
  7
GREEKS
 72
     1
 11
1342.411987359887
 21
172.3086312299676
 31
0.0
100
AcDbText
  0
TEXT
  5
541
330
20
100
AcDbEntity
  8
TEXT
100
AcDbText
 10
1652.512706081181
 20
161.9863546665605
 30
0.0
 40
2.5
  1
  
  7
GREEKS
 72
     1
 11
1654.774610843086
 21
161.9863546665605
 31
0.0
100
AcDbText
  0
TEXT
  5
542
330
20
100
AcDbEntity
  8
BEM
100
AcDbText
 10
1896.632423393663
 20
297.5452366969627
 30
0.0
 40
2.5
  1
 
 72
     4
 11
1897.763375774616
 21
297.5452366969627
 31
0.0
100
AcDbText
  0
TEXT
  5
543
330
20
100
AcDbEntity
  8
VOLL
100
AcDbText
 10
810.2241690536295
 20
350.9401983804995
 30
0.0
 40
1.8
  1

  7
GREEKS
100
AcDbText
  0
TEXT
  5
544
330
20
100
AcDbEntity
  8
VOLL
100
AcDbText
 10
899.8903429793026
 20
356.2323150962188
 30
0.0
 40
1.8
  1

  7
GREEKS
100
AcDbText
  0
TEXT
  5
545
330
20
100
AcDbEntity
  8
TEXT
100
AcDbText
 10
1231.722611182896
 20
361.7905506294444
 30
0.0
 40
2.5
  1
  
  7
GREEKS
 72
     1
 11
1233.9845159448
 21
361.7905506294444
 31
0.0
100
AcDbText
  0
TEXT
  5
546
330
20
100
AcDbEntity
  8
BEM
100
AcDbText
 10
1475.842328495378
 20
497.3494326598465
 30
0.0
 40
2.5
  1
 
 72
     4
 11
1476.97328087633
 21
497.3494326598465
 31
0.0
100
AcDbText
  0
TEXT
  5
547
330
20
100
AcDbEntity
  8
BEM
100
AcDbText
 10
1041.531672625227
 20
379.8690292873802
 30
0.0
 40
2.5
  1

  7
GREEKS
100
AcDbText
  0
TEXT
  5
548
330
20
100
AcDbEntity
  8
VOLL
100
AcDbText
 10
1027.465479605506
 20
359.6857686303451
 30
0.0
 40
1.8
  1

  7
GREEKS
100
AcDbText
  0
TEXT
  5
549
330
20
100
AcDbEntity
  8
BEM
100
AcDbText
 10
1061.95354444479
 20
364.4114929535656
 30
0.0
 40
2.5
  1

 41
0.8
  7
GREEKS
100
AcDbText
  0
TEXT
  5
54A
330
20
100
AcDbEntity
  8
BEM
100
AcDbText
 10
1061.95354444479
 20
359.7177243995135
 30
0.0
 40
2.5
  1

 41
0.8
  7
GREEKS
100
AcDbText
  0
TEXT
  5
54B
330
20
100
AcDbEntity
  8
BEM
100
AcDbText
 10
1061.95354444479
 20
354.47988058085
 30
0.0
 40
2.5
  1

 41
0.8
  7
GREEKS
100
AcDbText
  0
TEXT
  5
54C
330
20
100
AcDbEntity
  8
BEM
100
AcDbText
 10
1061.880599967416
 20
349.9746916307524
 30
0.0
 40
1.8
  1

 41
0.8
  7
GREEKS
100
AcDbText
  0
TEXT
  5
54D
330
20
100
AcDbEntity
  8
BEM
100
AcDbText
 10
1049.197029087805
 20
375.5662807269776
 30
0.0
 40
2.0
  1

 41
0.8
  7
GREEKS
 72
     1
 11
1049.197029087805
 21
375.5662807269776
 31
0.0
100
AcDbText
  0
TEXT
  5
54E
330
20
100
AcDbEntity
  8
TEXT
100
AcDbText
 10
1359.297747809099
 20
365.2440041635706
 30
0.0
 40
2.5
  1
  
  7
GREEKS
 72
     1
 11
1361.559652571003
 21
365.2440041635706
 31
0.0
100
AcDbText
  0
TEXT
  5
54F
330
20
100
AcDbEntity
  8
BEM
100
AcDbText
 10
1603.41746512158
 20
500.8028861939727
 30
0.0
 40
2.5
  1
 
 72
     4
 11
1604.548417502533
 21
500.8028861939727
 31
0.0
100
AcDbText
  0
TEXT
  5
550
330
20
100
AcDbEntity
  8
VOLL
100
AcDbText
 10
952.1822440007909
 20
367.1372826923342
 30
0.0
 40
1.8
  1

  7
GREEKS
100
AcDbText
  0
TEXT
  5
551
330
20
100
AcDbEntity
  8
TEXT
100
AcDbText
 10
1284.014512204384
 20
372.6955182255597
 30
0.0
 40
2.5
  1
  
  7
GREEKS
 72
     1
 11
1286.276416966289
 21
372.6955182255597
 31
0.0
100
AcDbText
  0
TEXT
  5
552
330
20
100
AcDbEntity
  8
BEM
100
AcDbText
 10
1528.134229516866
 20
508.2544002559619
 30
0.0
 40
2.5
  1
 
 72
     4
 11
1529.265181897818
 21
508.2544002559619
 31
0.0
100
AcDbText
  0
TEXT
  5
553
330
20
100
AcDbEntity
  8
BEM
100
AcDbText
 10
1107.321846157587
 20
387.4706935820108
 30
0.0
 40
2.5
  1

  7
GREEKS
100
AcDbText
  0
TEXT
  5
554
330
20
100
AcDbEntity
  8
VOLL
100
AcDbText
 10
1093.255653137865
 20
367.2874329249756
 30
0.0
 40
1.8
  1

  7
GREEKS
100
AcDbText
  0
TEXT
  5
555
330
20
100
AcDbEntity
  8
BEM
100
AcDbText
 10
1127.74371797715
 20
372.0131572481963
 30
0.0
 40
2.5
  1

 41
0.8
  7
GREEKS
100
AcDbText
  0
TEXT
  5
556
330
20
100
AcDbEntity
  8
BEM
100
AcDbText
 10
1127.74371797715
 20
367.3193886941441
 30
0.0
 40
2.5
  1

 41
0.8
  7
GREEKS
100
AcDbText
  0
TEXT
  5
557
330
20
100
AcDbEntity
  8
BEM
100
AcDbText
 10
1127.74371797715
 20
362.0815448754806
 30
0.0
 40
2.5
  1

 41
0.8
  7
GREEKS
100
AcDbText
  0
TEXT
  5
558
330
20
100
AcDbEntity
  8
BEM
100
AcDbText
 10
1127.670773499775
 20
357.576355925383
 30
0.0
 40
1.8
  1

 41
0.8
  7
GREEKS
100
AcDbText
  0
TEXT
  5
559
330
20
100
AcDbEntity
  8
BEM
100
AcDbText
 10
1114.987202620164
 20
383.1679450216082
 30
0.0
 40
2.0
  1

 41
0.8
  7
GREEKS
 72
     1
 11
1114.987202620164
 21
383.1679450216082
 31
0.0
100
AcDbText
  0
TEXT
  5
55A
330
20
100
AcDbEntity
  8
TEXT
100
AcDbText
 10
1425.087921341458
 20
372.8456684582012
 30
0.0
 40
2.5
  1
  
  7
GREEKS
 72
     1
 11
1427.349826103363
 21
372.8456684582012
 31
0.0
100
AcDbText
  0
TEXT
  5
55B
330
20
100
AcDbEntity
  8
BEM
100
AcDbText
 10
1669.20763865394
 20
508.4045504886034
 30
0.0
 40
2.5
  1
 
 72
     4
 11
1670.338591034893
 21
508.4045504886034
 31
0.0
100
AcDbText
  0
TEXT
  5
55C
330
20
100
AcDbEntity
  8
VOLL
100
AcDbText
 10
888.1600325740345
 20
355.3215731665857
 30
0.0
 40
1.8
  1

  7
GREEKS
100
AcDbText
  0
TEXT
  5
55D
330
20
100
AcDbEntity
  8
TEXT
100
AcDbText
 10
1219.992300777627
 20
360.8798086998112
 30
0.0
 40
2.5
  1
  
  7
GREEKS
 72
     1
 11
1222.254205539532
 21
360.8798086998112
 31
0.0
100
AcDbText
  0
TEXT
  5
55E
330
20
100
AcDbEntity
  8
BEM
100
AcDbText
 10
1464.112018090109
 20
496.4386907302134
 30
0.0
 40
2.5
  1
 
 72
     4
 11
1465.242970471062
 21
496.4386907302134
 31
0.0
100
AcDbText
  0
TEXT
  5
55F
330
20
100
AcDbEntity
  8
BEM
100
AcDbText
 10
1053.505645653684
 20
395.4748038651714
 30
0.0
 40
2.5
  1

  7
GREEKS
100
AcDbText
  0
TEXT
  5
560
330
20
100
AcDbEntity
  8
VOLL
100
AcDbText
 10
1039.439452633963
 20
375.2915432081362
 30
0.0
 40
1.8
  1

  7
GREEKS
100
AcDbText
  0
TEXT
  5
561
330
20
100
AcDbEntity
  8
BEM
100
AcDbText
 10
1073.927517473247
 20
380.0172675313568
 30
0.0
 40
2.5
  1

 41
0.8
  7
GREEKS
100
AcDbText
  0
TEXT
  5
562
330
20
100
AcDbEntity
  8
BEM
100
AcDbText
 10
1073.927517473247
 20
375.3234989773047
 30
0.0
 40
2.5
  1

 41
0.8
  7
GREEKS
100
AcDbText
  0
TEXT
  5
563
330
20
100
AcDbEntity
  8
BEM
100
AcDbText
 10
1073.927517473247
 20
370.0856551586412
 30
0.0
 40
2.5
  1

 41
0.8
  7
GREEKS
100
AcDbText
  0
TEXT
  5
564
330
20
100
AcDbEntity
  8
BEM
100
AcDbText
 10
1073.854572995873
 20
365.5804662085436
 30
0.0
 40
1.8
  1

 41
0.8
  7
GREEKS
100
AcDbText
  0
TEXT
  5
565
330
20
100
AcDbEntity
  8
BEM
100
AcDbText
 10
1061.171002116262
 20
391.1720553047689
 30
0.0
 40
2.0
  1

 41
0.8
  7
GREEKS
 72
     1
 11
1061.171002116262
 21
391.1720553047689
 31
0.0
100
AcDbText
  0
TEXT
  5
566
330
20
100
AcDbEntity
  8
TEXT
100
AcDbText
 10
1371.271720837556
 20
380.8497787413618
 30
0.0
 40
2.5
  1
  
  7
GREEKS
 72
     1
 11
1373.533625599461
 21
380.8497787413618
 31
0.0
100
AcDbText
  0
TEXT
  5
567
330
20
100
AcDbEntity
  8
BEM
100
AcDbText
 10
1615.391438150038
 20
516.408660771764
 30
0.0
 40
2.5
  1
 
 72
     4
 11
1616.52239053099
 21
516.408660771764
 31
0.0
100
AcDbText
  0
TEXT
  5
568
330
20
100
AcDbEntity
  8
VOLL
100
AcDbText
 10
816.6255219861703
 20
329.2841013719355
 30
0.0
 40
1.8
  1

  7
GREEKS
100
AcDbText
  0
TEXT
  5
569
330
20
100
AcDbEntity
  8
VOLL
100
AcDbText
 10
906.2916959118433
 20
334.5762180876548
 30
0.0
 40
1.8
  1

  7
GREEKS
100
AcDbText
  0
TEXT
  5
56A
330
20
100
AcDbEntity
  8
TEXT
100
AcDbText
 10
1238.123964115436
 20
340.1344536208804
 30
0.0
 40
2.5
  1
  
  7
GREEKS
 72
     1
 11
1240.385868877341
 21
340.1344536208804
 31
0.0
100
AcDbText
  0
TEXT
  5
56B
330
20
100
AcDbEntity
  8
BEM
100
AcDbText
 10
1482.243681427918
 20
475.6933356512825
 30
0.0
 40
2.5
  1
 
 72
     4
 11
1483.37463380887
 21
475.6933356512825
 31
0.0
100
AcDbText
  0
TEXT
  5
56C
330
20
100
AcDbEntity
  8
BEM
100
AcDbText
 10
1047.933025557768
 20
358.2129322788162
 30
0.0
 40
2.5
  1

  7
GREEKS
100
AcDbText
  0
TEXT
  5
56D
330
20
100
AcDbEntity
  8
VOLL
100
AcDbText
 10
1033.866832538046
 20
338.0296716217811
 30
0.0
 40
1.8
  1

  7
GREEKS
100
AcDbText
  0
TEXT
  5
56E
330
20
100
AcDbEntity
  8
BEM
100
AcDbText
 10
1068.354897377331
 20
342.7553959450017
 30
0.0
 40
2.5
  1

 41
0.8
  7
GREEKS
100
AcDbText
  0
TEXT
  5
56F
330
20
100
AcDbEntity
  8
BEM
100
AcDbText
 10
1068.354897377331
 20
338.0616273909496
 30
0.0
 40
2.5
  1

 41
0.8
  7
GREEKS
100
AcDbText
  0
TEXT
  5
570
330
20
100
AcDbEntity
  8
BEM
100
AcDbText
 10
1068.354897377331
 20
332.8237835722861
 30
0.0
 40
2.5
  1

 41
0.8
  7
GREEKS
100
AcDbText
  0
TEXT
  5
571
330
20
100
AcDbEntity
  8
BEM
100
AcDbText
 10
1068.281952899956
 20
328.3185946221884
 30
0.0
 40
1.8
  1

 41
0.8
  7
GREEKS
100
AcDbText
  0
TEXT
  5
572
330
20
100
AcDbEntity
  8
BEM
100
AcDbText
 10
1055.598382020345
 20
353.9101837184137
 30
0.0
 40
2.0
  1

 41
0.8
  7
GREEKS
 72
     1
 11
1055.598382020345
 21
353.9101837184137
 31
0.0
100
AcDbText
  0
TEXT
  5
573
330
20
100
AcDbEntity
  8
TEXT
100
AcDbText
 10
1365.699100741639
 20
343.5879071550066
 30
0.0
 40
2.5
  1
  
  7
GREEKS
 72
     1
 11
1367.961005503544
 21
343.5879071550066
 31
0.0
100
AcDbText
  0
TEXT
  5
574
330
20
100
AcDbEntity
  8
BEM
100
AcDbText
 10
1609.818818054121
 20
479.1467891854089
 30
0.0
 40
2.5
  1
 
 72
     4
 11
1610.949770435073
 21
479.1467891854089
 31
0.0
100
AcDbText
  0
TEXT
  5
575
330
20
100
AcDbEntity
  8
VOLL
100
AcDbText
 10
958.5835969333315
 20
345.4811856837702
 30
0.0
 40
1.8
  1

  7
GREEKS
100
AcDbText
  0
TEXT
  5
576
330
20
100
AcDbEntity
  8
TEXT
100
AcDbText
 10
1290.415865136924
 20
351.0394212169958
 30
0.0
 40
2.5
  1
  
  7
GREEKS
 72
     1
 11
1292.677769898829
 21
351.0394212169958
 31
0.0
100
AcDbText
  0
TEXT
  5
577
330
20
100
AcDbEntity
  8
BEM
100
AcDbText
 10
1534.535582449406
 20
486.5983032473979
 30
0.0
 40
2.5
  1
 
 72
     4
 11
1535.666534830359
 21
486.5983032473979
 31
0.0
100
AcDbText
  0
TEXT
  5
578
330
20
100
AcDbEntity
  8
BEM
100
AcDbText
 10
1113.723199090127
 20
365.8145965734468
 30
0.0
 40
2.5
  1

  7
GREEKS
100
AcDbText
  0
TEXT
  5
579
330
20
100
AcDbEntity
  8
VOLL
100
AcDbText
 10
1099.657006070406
 20
345.6313359164117
 30
0.0
 40
1.8
  1

  7
GREEKS
100
AcDbText
  0
TEXT
  5
57A
330
20
100
AcDbEntity
  8
BEM
100
AcDbText
 10
1134.14507090969
 20
350.3570602396323
 30
0.0
 40
2.5
  1

 41
0.8
  7
GREEKS
100
AcDbText
  0
TEXT
  5
57B
330
20
100
AcDbEntity
  8
BEM
100
AcDbText
 10
1134.14507090969
 20
345.6632916855801
 30
0.0
 40
2.5
  1

 41
0.8
  7
GREEKS
100
AcDbText
  0
TEXT
  5
57C
330
20
100
AcDbEntity
  8
BEM
100
AcDbText
 10
1134.14507090969
 20
340.4254478669166
 30
0.0
 40
2.5
  1

 41
0.8
  7
GREEKS
100
AcDbText
  0
TEXT
  5
57D
330
20
100
AcDbEntity
  8
BEM
100
AcDbText
 10
1134.072126432316
 20
335.920258916819
 30
0.0
 40
1.8
  1

 41
0.8
  7
GREEKS
100
AcDbText
  0
TEXT
  5
57E
330
20
100
AcDbEntity
  8
BEM
100
AcDbText
 10
1121.388555552705
 20
361.5118480130443
 30
0.0
 40
2.0
  1

 41
0.8
  7
GREEKS
 72
     1
 11
1121.388555552705
 21
361.5118480130443
 31
0.0
100
AcDbText
  0
TEXT
  5
57F
330
20
100
AcDbEntity
  8
TEXT
100
AcDbText
 10
1431.489274273999
 20
351.1895714496372
 30
0.0
 40
2.5
  1
  
  7
GREEKS
 72
     1
 11
1433.751179035904
 21
351.1895714496372
 31
0.0
100
AcDbText
  0
TEXT
  5
580
330
20
100
AcDbEntity
  8
BEM
100
AcDbText
 10
1675.608991586481
 20
486.7484534800395
 30
0.0
 40
2.5
  1
 
 72
     4
 11
1676.739943967433
 21
486.7484534800395
 31
0.0
100
AcDbText
  0
TEXT
  5
581
330
20
100
AcDbEntity
  8
VOLL
100
AcDbText
 10
894.5613855065753
 20
333.6654761580217
 30
0.0
 40
1.8
  1

  7
GREEKS
100
AcDbText
  0
TEXT
  5
582
330
20
100
AcDbEntity
  8
TEXT
100
AcDbText
 10
1226.393653710168
 20
339.2237116912473
 30
0.0
 40
2.5
  1
  
  7
GREEKS
 72
     1
 11
1228.655558472073
 21
339.2237116912473
 31
0.0
100
AcDbText
  0
TEXT
  5
583
330
20
100
AcDbEntity
  8
BEM
100
AcDbText
 10
1470.51337102265
 20
474.7825937216495
 30
0.0
 40
2.5
  1
 
 72
     4
 11
1471.644323403602
 21
474.7825937216495
 31
0.0
100
AcDbText
  0
TEXT
  5
584
330
20
100
AcDbEntity
  8
BEM
100
AcDbText
 10
1059.906998586225
 20
373.8187068566074
 30
0.0
 40
2.5
  1

  7
GREEKS
100
AcDbText
  0
TEXT
  5
585
330
20
100
AcDbEntity
  8
VOLL
100
AcDbText
 10
1045.840805566503
 20
353.6354461995723
 30
0.0
 40
1.8
  1

  7
GREEKS
100
AcDbText
  0
TEXT
  5
586
330
20
100
AcDbEntity
  8
BEM
100
AcDbText
 10
1080.328870405788
 20
358.3611705227929
 30
0.0
 40
2.5
  1

 41
0.8
  7
GREEKS
100
AcDbText
  0
TEXT
  5
587
330
20
100
AcDbEntity
  8
BEM
100
AcDbText
 10
1080.328870405788
 20
353.6674019687408
 30
0.0
 40
2.5
  1

 41
0.8
  7
GREEKS
100
AcDbText
  0
TEXT
  5
588
330
20
100
AcDbEntity
  8
BEM
100
AcDbText
 10
1080.328870405788
 20
348.4295581500772
 30
0.0
 40
2.5
  1

 41
0.8
  7
GREEKS
100
AcDbText
  0
TEXT
  5
589
330
20
100
AcDbEntity
  8
BEM
100
AcDbText
 10
1080.255925928414
 20
343.9243691999796
 30
0.0
 40
1.8
  1

 41
0.8
  7
GREEKS
100
AcDbText
  0
TEXT
  5
58A
330
20
100
AcDbEntity
  8
BEM
100
AcDbText
 10
1067.572355048802
 20
369.5159582962049
 30
0.0
 40
2.0
  1

 41
0.8
  7
GREEKS
 72
     1
 11
1067.572355048802
 21
369.5159582962049
 31
0.0
100
AcDbText
  0
TEXT
  5
58B
330
20
100
AcDbEntity
  8
TEXT
100
AcDbText
 10
1377.673073770096
 20
359.1936817327979
 30
0.0
 40
2.5
  1
  
  7
GREEKS
 72
     1
 11
1379.934978532001
 21
359.1936817327979
 31
0.0
100
AcDbText
  0
TEXT
  5
58C
330
20
100
AcDbEntity
  8
BEM
100
AcDbText
 10
1621.792791082579
 20
494.7525637632001
 30
0.0
 40
2.5
  1
 
 72
     4
 11
1622.923743463531
 21
494.7525637632001
 31
0.0
100
AcDbText
  0
TEXT
  5
58D
330
20
100
AcDbEntity
  8
VOLL
100
AcDbText
 10
1172.962524362321
 20
314.0748864249834
 30
0.0
 40
1.8
  1

  7
GREEKS
100
AcDbText
  0
TEXT
  5
58E
330
20
100
AcDbEntity
  8
TEXT
100
AcDbText
 10
1504.794792565914
 20
319.633121958209
 30
0.0
 40
2.5
  1
  
  7
GREEKS
 72
     1
 11
1507.056697327819
 21
319.633121958209
 31
0.0
100
AcDbText
  0
TEXT
  5
58F
330
20
100
AcDbEntity
  8
BEM
100
AcDbText
 10
1748.914509878397
 20
455.1920039886112
 30
0.0
 40
2.5
  1
 
 72
     4
 11
1750.045462259349
 21
455.1920039886112
 31
0.0
100
AcDbText
  0
TEXT
  5
590
330
20
100
AcDbEntity
  8
VOLL
100
AcDbText
 10
1330.497241439483
 20
319.6304420600546
 30
0.0
 40
1.8
  1

  7
GREEKS
100
AcDbText
  0
TEXT
  5
591
330
20
100
AcDbEntity
  8
BEM
100
AcDbText
 10
1364.985306278768
 20
324.3561663832752
 30
0.0
 40
2.5
  1

 41
0.8
  7
GREEKS
100
AcDbText
  0
TEXT
  5
592
330
20
100
AcDbEntity
  8
BEM
100
AcDbText
 10
1364.985306278768
 20
319.6623978292231
 30
0.0
 40
2.5
  1

 41
0.8
  7
GREEKS
100
AcDbText
  0
TEXT
  5
593
330
20
100
AcDbEntity
  8
BEM
100
AcDbText
 10
1364.985306278768
 20
314.4245540105596
 30
0.0
 40
2.5
  1

 41
0.8
  7
GREEKS
100
AcDbText
  0
TEXT
  5
594
330
20
100
AcDbEntity
  8
BEM
100
AcDbText
 10
1364.912361801393
 20
309.919365060462
 30
0.0
 40
1.8
  1

 41
0.8
  7
GREEKS
100
AcDbText
  0
TEXT
  5
595
330
20
100
AcDbEntity
  8
TEXT
100
AcDbText
 10
1662.329509643076
 20
325.1886775932801
 30
0.0
 40
2.5
  1
  
  7
GREEKS
 72
     1
 11
1664.591414404981
 21
325.1886775932801
 31
0.0
100
AcDbText
  0
TEXT
  5
596
330
20
100
AcDbEntity
  8
BEM
100
AcDbText
 10
1906.449226955558
 20
460.7475596236824
 30
0.0
 40
2.5
  1
 
 72
     4
 11
1907.580179336511
 21
460.7475596236824
 31
0.0
100
AcDbText
  0
LINE
  5
597
330
20
100
AcDbEntity
  8
MITTEL
100
AcDbLine
 10
244.349712639333
 20
205.1929857342015
 30
0.0
 11
244.3497126393328
 21
520.1929857342015
 31
0.0
  0
LINE
  5
598
102
{ACAD_REACTORS
330
78C
102
}
330
20
100
AcDbEntity
  8
STEMPEL
  6
Continuous
100
AcDbLine
 10
202.2497126393329
 20
504.6440633270829
 30
0.0
 11
202.2497126393329
 21
495.6312657823952
 31
0.0
  0
LINE
  5
599
102
{ACAD_REACTORS
330
78C
102
}
330
20
100
AcDbEntity
  8
STEMPEL
  6
Continuous
100
AcDbLine
 10
284.1151099676083
 20
515.1929857342016
 30
0.0
 11
204.5843153110575
 21
515.1929857342016
 31
0.0
  0
ARC
  5
59A
102
{ACAD_REACTORS
330
78C
102
}
330
20
100
AcDbEntity
  8
STEMPEL
  6
Continuous
100
AcDbCircle
 10
227.2497126393329
 20
504.6440633270829
 30
0.0
 40
25.0
100
AcDbArc
 50
155.0418036876845
 51
180.0
  0
LINE
  5
59C
330
20
100
AcDbEntity
  8
HILF
100
AcDbLine
 10
277.8439894073936
 20
456.963416676522
 30
0.0
 11
210.8554358712721
 21
456.963416676522
 31
0.0
  0
LINE
  5
59D
330
20
100
AcDbEntity
  8
HILF
100
AcDbLine
 10
280.6794126172409
 20
464.4716048163964
 30
0.0
 11
208.0200126614248
 21
464.4716048163964
 31
0.0
  0
LINE
  5
59E
330
20
100
AcDbEntity
  8
HILF
100
AcDbLine
 10
280.8395062133357
 20
483.8427317036632
 30
0.0
 11
207.85991906533
 21
483.8427317036632
 31
0.0
  0
LINE
  5
59F
102
{ACAD_REACTORS
330
78C
102
}
330
20
100
AcDbEntity
  8
STEMPEL
  6
Continuous
100
AcDbLine
 10
204.7497126393329
 20
482.1929857342015
 30
0.0
 11
204.7497126393329
 21
465.5817121516186
 31
0.0
  0
ARC
  5
5A0
102
{ACAD_REACTORS
330
78C
102
}
330
20
100
AcDbEntity
  8
STEMPEL
  6
Continuous
100
AcDbCircle
 10
192.7497126393328
 20
482.1929857342015
 30
0.0
 40
12.0
100
AcDbArc
 50
0.0
 51
21.18315439303543
  0
ARC
  5
5A1
102
{ACAD_REACTORS
330
78C
102
}
330
20
100
AcDbEntity
  8
STEMPEL
  6
Continuous
100
AcDbCircle
 10
227.2497126393329
 20
495.5629857342014
 30
0.0
 40
25.00009324312574
100
AcDbArc
 50
179.8435140456417
 51
201.1831543930354
  0
ARC
  5
5A2
102
{ACAD_REACTORS
330
78C
102
}
330
20
100
AcDbEntity
  8
STEMPEL
  6
Continuous
100
AcDbCircle
 10
216.7497126393329
 20
465.5817121516186
 30
0.0
 40
12.0
100
AcDbArc
 50
180.0
 51
212.3280641221628
  0
ARC
  5
5A3
102
{ACAD_REACTORS
330
78C
102
}
330
20
100
AcDbEntity
  8
STEMPEL
  6
Continuous
100
AcDbCircle
 10
199.8497126393328
 20
454.8863860696328
 30
0.0
 40
8.0
100
AcDbArc
 50
0.0
 51
32.32806412216284
  0
ARC
  5
5A4
102
{ACAD_REACTORS
330
78C
102
}
330
20
100
AcDbEntity
  8
STEMPEL
  6
Continuous
100
AcDbCircle
 10
227.2497126393329
 20
504.6440633270829
 30
0.0
 40
23.4
100
AcDbArc
 50
153.2044220687676
 51
180.0
  0
LINE
  5
5A5
102
{ACAD_REACTORS
330
78C
102
}
330
20
100
AcDbEntity
  8
STEMPEL
  6
Continuous
100
AcDbLine
 10
203.8497126393328
 20
504.6440633270829
 30
0.0
 11
203.8497126393328
 21
495.629044700122
 31
0.0
  0
ARC
  5
5A6
102
{ACAD_REACTORS
330
78C
102
}
330
20
100
AcDbEntity
  8
STEMPEL
  6
Continuous
100
AcDbCircle
 10
227.2497126393329
 20
495.5629857342014
 30
0.0
 40
23.40009324312573
100
AcDbArc
 50
179.8382525687313
 51
201.1831543930354
  0
ARC
  5
5A7
102
{ACAD_REACTORS
330
78C
102
}
330
20
100
AcDbEntity
  8
STEMPEL
  6
Continuous
100
AcDbCircle
 10
192.7497126393328
 20
482.1929857342015
 30
0.0
 40
13.6
100
AcDbArc
 50
0.0
 51
21.18315439303557
  0
LINE
  5
5A8
102
{ACAD_REACTORS
330
78C
102
}
330
20
100
AcDbEntity
  8
STEMPEL
  6
Continuous
100
AcDbLine
 10
206.3497126393329
 20
482.1929857342015
 30
0.0
 11
206.3497126393329
 21
465.5817121516186
 31
0.0
  0
ARC
  5
5A9
102
{ACAD_REACTORS
330
78C
102
}
330
20
100
AcDbEntity
  8
STEMPEL
  6
Continuous
100
AcDbCircle
 10
216.7497126393329
 20
465.5817121516186
 30
0.0
 40
10.4
100
AcDbArc
 50
180.0
 51
212.3280641221628
  0
ARC
  5
5AA
102
{ACAD_REACTORS
330
78C
102
}
330
20
100
AcDbEntity
  8
STEMPEL
  6
Continuous
100
AcDbCircle
 10
199.8497126393328
 20
454.8863860696328
 30
0.0
 40
9.599999999999999
100
AcDbArc
 50
0.0
 51
32.32806412216266
  0
ARC
  5
5AC
102
{ACAD_REACTORS
330
78C
102
}
330
20
100
AcDbEntity
  8
STEMPEL
  6
Continuous
100
AcDbCircle
 10
261.449712639333
 20
495.5629857342014
 30
0.0
 40
25.00009324312574
100
AcDbArc
 50
338.8168456069645
 51
0.1564859543701224
  0
ARC
  5
5AD
102
{ACAD_REACTORS
330
78C
102
}
330
20
100
AcDbEntity
  8
STEMPEL
  6
Continuous
100
AcDbCircle
 10
261.449712639333
 20
504.6440633270829
 30
0.0
 40
25.0
100
AcDbArc
 50
0.0
 51
24.95819631231538
  0
LINE
  5
5AE
102
{ACAD_REACTORS
330
78C
102
}
330
20
100
AcDbEntity
  8
STEMPEL
  6
Continuous
100
AcDbLine
 10
286.4497126393331
 20
504.6440633270829
 30
0.0
 11
286.4497126393331
 21
495.6312657824002
 31
0.0
  0
LINE
  5
5AF
102
{ACAD_REACTORS
330
78C
102
}
330
20
100
AcDbEntity
  8
STEMPEL
  6
Continuous
100
AcDbLine
 10
282.3497126393329
 20
482.1929857342015
 30
0.0
 11
282.3497126393329
 21
465.5817121516186
 31
0.0
  0
LINE
  5
5B0
102
{ACAD_REACTORS
330
78C
102
}
330
20
100
AcDbEntity
  8
STEMPEL
  6
Continuous
100
AcDbLine
 10
283.9497126393329
 20
482.1929857342015
 30
0.0
 11
283.9497126393329
 21
465.5817121516186
 31
0.0
  0
ARC
  5
5B1
102
{ACAD_REACTORS
330
78C
102
}
330
20
100
AcDbEntity
  8
STEMPEL
  6
Continuous
100
AcDbCircle
 10
261.449712639333
 20
504.6440633270829
 30
0.0
 40
23.4
100
AcDbArc
 50
0.0
 51
26.79557793123232
  0
ARC
  5
5B2
102
{ACAD_REACTORS
330
78C
102
}
330
20
100
AcDbEntity
  8
STEMPEL
  6
Continuous
100
AcDbCircle
 10
261.449712639333
 20
495.5629857342014
 30
0.0
 40
23.40009324312573
100
AcDbArc
 50
338.8168456069645
 51
0.1617474313041451
  0
LINE
  5
5B3
102
{ACAD_REACTORS
330
78C
102
}
330
20
100
AcDbEntity
  8
STEMPEL
  6
Continuous
100
AcDbLine
 10
284.849712639333
 20
504.6440633270829
 30
0.0
 11
284.849712639333
 21
495.6290447001364
 31
0.0
  0
ARC
  5
5B4
102
{ACAD_REACTORS
330
78C
102
}
330
20
100
AcDbEntity
  8
STEMPEL
  6
Continuous
100
AcDbCircle
 10
295.9497126393329
 20
482.1929857342015
 30
0.0
 40
13.6
100
AcDbArc
 50
158.8168456069645
 51
179.9999999999999
  0
ARC
  5
5B5
102
{ACAD_REACTORS
330
78C
102
}
330
20
100
AcDbEntity
  8
STEMPEL
  6
Continuous
100
AcDbCircle
 10
295.9497126393329
 20
482.1929857342015
 30
0.0
 40
12.0
100
AcDbArc
 50
158.8168456069644
 51
179.9999999999999
  0
ARC
  5
5B6
102
{ACAD_REACTORS
330
78C
102
}
330
20
100
AcDbEntity
  8
STEMPEL
  6
Continuous
100
AcDbCircle
 10
288.849712639333
 20
454.8863860696328
 30
0.0
 40
9.599999999999999
100
AcDbArc
 50
147.6719358778371
 51
180.0
  0
ARC
  5
5B7
102
{ACAD_REACTORS
330
78C
102
}
330
20
100
AcDbEntity
  8
STEMPEL
  6
Continuous
100
AcDbCircle
 10
288.849712639333
 20
454.8863860696328
 30
0.0
 40
8.0
100
AcDbArc
 50
147.6719358778371
 51
180.0
  0
ARC
  5
5B8
102
{ACAD_REACTORS
330
78C
102
}
330
20
100
AcDbEntity
  8
STEMPEL
  6
Continuous
100
AcDbCircle
 10
271.9497126393329
 20
465.5817121516186
 30
0.0
 40
10.4
100
AcDbArc
 50
327.6719358778372
 51
359.9999999999998
  0
ARC
  5
5B9
102
{ACAD_REACTORS
330
78C
102
}
330
20
100
AcDbEntity
  8
STEMPEL
  6
Continuous
100
AcDbCircle
 10
271.9497126393329
 20
465.5817121516186
 30
0.0
 40
12.0
100
AcDbArc
 50
327.6719358778371
 51
359.9999999999998
  0
LINE
  5
5BA
102
{ACAD_REACTORS
330
78C
102
}
330
20
100
AcDbEntity
  8
STEMPEL
  6
Continuous
100
AcDbLine
 10
279.2497126393329
 20
429.6823440898576
 30
0.0
 11
279.249712639333
 21
454.8863860696328
 31
0.0
  0
LINE
  5
5BB
102
{ACAD_REACTORS
330
78C
102
}
330
20
100
AcDbEntity
  8
STEMPEL
  6
Continuous
100
AcDbLine
 10
280.849712639333
 20
429.6823440898576
 30
0.0
 11
280.849712639333
 21
454.8863860696328
 31
0.0
  0
LINE
  5
5BC
102
{ACAD_REACTORS
330
79F
102
}
330
20
100
AcDbEntity
  8
STEMPEL
100
AcDbLine
 10
218.4564035276995
 20
210.1929857342016
 30
0.0
 11
270.2430217509665
 21
210.1929857342016
 31
0.0
  0
TEXT
  5
5C2
330
20
100
AcDbEntity
  8
TEXT
100
AcDbText
 10
53.09722290388373
 20
113.2854817854125
 30
0.0
 40
5.0
  1
Erstellt mit AUTOCAD 2004
 41
0.8
  7
GREEKS
100
AcDbText
  0
LINE
  5
5C6
102
{ACAD_REACTORS
330
79F
330
7AD
102
}
330
20
100
AcDbEntity
  8
STEMPEL
100
AcDbLine
 10
270.849712639333
 20
217.127494319839
 30
0.0
 11
270.8497126393331
 21
412.1929857342015
 31
0.0
  0
LINE
  5
5C7
102
{ACAD_REACTORS
330
79F
330
7AD
102
}
330
20
100
AcDbEntity
  8
STEMPEL
100
AcDbLine
 10
217.849712639333
 20
217.1274943198389
 30
0.0
 11
217.849712639333
 21
412.1929857342015
 31
0.0
  0
LINE
  5
5C8
330
20
100
AcDbEntity
  8
HILF
100
AcDbLine
 10
220.849712639333
 20
217.1929857342017
 30
0.0
 11
267.849712639333
 21
217.1929857342017
 31
0.0
  0
LINE
  5
5C9
102
{ACAD_REACTORS
330
79F
102
}
330
20
100
AcDbEntity
  8
STEMPEL
100
AcDbLine
 10
219.349712639333
 20
217.1929857342017
 30
0.0
 11
219.349712639333
 21
412.1929857342015
 31
0.0
  0
LINE
  5
5CA
102
{ACAD_REACTORS
330
79F
102
}
330
20
100
AcDbEntity
  8
STEMPEL
100
AcDbLine
 10
269.349712639333
 20
217.1929857342017
 30
0.0
 11
269.3497126393331
 21
412.1929857342015
 31
0.0
  0
LINE
  5
5CB
102
{ACAD_REACTORS
330
79F
102
}
330
20
100
AcDbEntity
  8
STEMPEL
100
AcDbLine
 10
269.349712639333
 20
217.1929857342017
 30
0.0
 11
268.7372919946516
 21
210.1929857342016
 31
0.0
  0
LINE
  5
5CC
102
{ACAD_REACTORS
330
79F
102
}
330
20
100
AcDbEntity
  8
STEMPEL
100
AcDbLine
 10
219.349712639333
 20
217.1929857342017
 30
0.0
 11
219.9621332840146
 21
210.1929857342016
 31
0.0
  0
LINE
  5
5CD
102
{ACAD_REACTORS
330
79F
102
}
330
20
100
AcDbEntity
  8
STEMPEL
100
AcDbLine
 10
270.849712639333
 20
217.127494319839
 30
0.0
 11
270.2430217509665
 21
210.1929857342016
 31
0.0
  0
LINE
  5
5CE
102
{ACAD_REACTORS
330
79F
102
}
330
20
100
AcDbEntity
  8
STEMPEL
100
AcDbLine
 10
217.849712639333
 20
217.1274943198389
 30
0.0
 11
218.4564035276995
 21
210.1929857342016
 31
0.0
  0
LINE
  5
5CF
102
{ACAD_REACTORS
330
78C
330
79F
102
}
330
20
100
AcDbEntity
  8
STEMPEL
100
AcDbLine
 10
217.849712639333
 20
412.1929857342015
 30
0.0
 11
270.849712639333
 21
412.1929857342015
 31
0.0
  0
LINE
  5
5D0
330
20
100
AcDbEntity
  8
HILF
100
AcDbLine
 10
211.7213930624432
 20
426.8281621010871
 30
0.0
 11
276.9780322162225
 21
426.828162101087
 31
0.0
  0
LINE
  5
5E1
330
20
100
AcDbEntity
  8
HILF
100
AcDbLine
 10
0.0
 20
0.0
 30
0.0
 11
0.0
 21
594.0
 31
0.0
  0
DIMENSION
  5
5E2
330
20
100
AcDbEntity
  8
BEM
100
AcDbDimension
  2
*D3
 10
181.0950065162047
 20
210.1929857342016
 30
0.0
 11
174.5950065162046
 21
362.6929857342016
 31
0.0
 70
    32
 71
     5
 42
304.9999999999999
  3
Standard
100
AcDbAlignedDimension
 13
204.5843153110575
 23
515.1929857342016
 33
0.0
 14
218.4564035276995
 24
210.1929857342016
 34
0.0
 50
90.0
100
AcDbRotatedDimension
1001
ACAD
1000
DSTYLE
1002
{
1070
    40
1040
2.0
1070
    41
1040
3.5
1070
    42
1040
1.0
1070
    43
1040
7.0
1070
    44
1040
1.0
1070
    47
1040
0.15
1070
    48
1040
0.15
1070
    73
1070
     0
1070
    74
1070
     0
1070
    77
1070
     1
1070
    78
1070
     8
1070
    79
1070
     2
1070
   140
1040
3.5
1070
   141
1040
1.5
1070
   145
1040
0.5714285714285714
1070
   146
1040
0.5
1070
   147
1040
1.5
1070
   172
1070
     1
1070
   178
1070
     1
1070
   179
1070
     2
1070
   271
1070
     2
1070
   272
1070
     2
1070
   284
1070
     8
1070
   285
1070
     8
1070
   286
1070
     8
1002
}
  0
DIMENSION
  5
5E3
330
20
100
AcDbEntity
  8
BEM
100
AcDbDimension
  2
*D2
 10
280.849712639333
 20
392.7701178976863
 30
0.0
 11
244.3497126393329
 21
399.2701178976863
 31
0.0
 70
    32
  1
%%c<>
 71
     5
 42
73.00000000000022
  3
Standard
100
AcDbAlignedDimension
 13
207.8497126393328
 23
429.6823440898576
 33
0.0
 14
280.849712639333
 24
429.6823440898576
 34
0.0
100
AcDbRotatedDimension
1001
ACAD
1000
DSTYLE
1002
{
1070
    40
1040
2.0
1070
    41
1040
3.5
1070
    42
1040
1.0
1070
    43
1040
7.0
1070
    44
1040
1.0
1070
    47
1040
0.15
1070
    48
1040
0.15
1070
    73
1070
     0
1070
    74
1070
     0
1070
    77
1070
     1
1070
    78
1070
     8
1070
    79
1070
     2
1070
   140
1040
3.5
1070
   141
1040
1.5
1070
   145
1040
0.5714285714285714
1070
   146
1040
0.5
1070
   147
1040
1.5
1070
   172
1070
     1
1070
   178
1070
     1
1070
   179
1070
     2
1070
   271
1070
     2
1070
   272
1070
     2
1070
   284
1070
     8
1070
   285
1070
     8
1070
   286
1070
     8
1002
}
  0
DIMENSION
  5
5E5
330
20
100
AcDbEntity
  8
BEM
100
AcDbDimension
  2
*D1
 10
270.849712639333
 20
188.5783605285986
 30
0.0
 11
244.349712639333
 21
195.0783605285986
 31
0.0
 70
    32
  1
%%c<>
 71
     5
 42
53.0
  3
Standard
100
AcDbAlignedDimension
 13
217.849712639333
 23
217.1274943198389
 33
0.0
 14
270.849712639333
 24
217.127494319839
 34
0.0
100
AcDbRotatedDimension
1001
ACAD
1000
DSTYLE
1002
{
1070
    40
1040
2.0
1070
    41
1040
3.5
1070
    42
1040
1.0
1070
    43
1040
7.0
1070
    44
1040
1.0
1070
    47
1040
0.15
1070
    48
1040
0.15
1070
    73
1070
     0
1070
    74
1070
     0
1070
    77
1070
     1
1070
    78
1070
     8
1070
    79
1070
     2
1070
   140
1040
3.5
1070
   141
1040
1.5
1070
   145
1040
0.5714285714285714
1070
   146
1040
0.5
1070
   147
1040
1.5
1070
   172
1070
     1
1070
   178
1070
     1
1070
   179
1070
     2
1070
   271
1070
     2
1070
   272
1070
     2
1070
   284
1070
     8
1070
   285
1070
     8
1070
   286
1070
     8
1002
}
  0
LINE
  5
696
102
{ACAD_REACTORS
330
78C
330
7AD
102
}
330
20
100
AcDbEntity
  8
STEMPEL
100
AcDbLine
 10
279.1525553841199
 20
424.2321077141425
 30
0.0
 11
270.8497126393331
 21
412.1929857342015
 31
0.0
  0
LINE
  5
697
102
{ACAD_REACTORS
330
78C
102
}
330
20
100
AcDbEntity
  8
STEMPEL
100
AcDbLine
 10
277.8354149266553
 20
425.1404804434284
 30
0.0
 11
268.906108230637
 21
412.1929857342015
 31
0.0
  0
ARC
  5
698
102
{ACAD_REACTORS
330
78C
102
}
330
20
100
AcDbEntity
  8
STEMPEL
100
AcDbCircle
 10
271.2497126393329
 20
429.6823440898577
 30
0.0
 40
8.0
100
AcDbArc
 50
325.4077113124904
 51
359.9999999999998
  0
ARC
  5
69B
102
{ACAD_REACTORS
330
78C
102
}
330
20
100
AcDbEntity
  8
STEMPEL
100
AcDbCircle
 10
271.249712639333
 20
429.6823440898576
 30
0.0
 40
9.599999999999999
100
AcDbArc
 50
325.4077113124903
 51
359.9999999999999
  0
ARC
  5
69C
102
{ACAD_REACTORS
330
78C
102
}
330
20
100
AcDbEntity
  8
STEMPEL
100
AcDbCircle
 10
217.4497126393328
 20
429.6823440898575
 30
0.0
 40
9.599999999999999
100
AcDbArc
 50
180.0000000000003
 51
214.59228868751
  0
ARC
  5
69E
102
{ACAD_REACTORS
330
78C
102
}
330
20
100
AcDbEntity
  8
STEMPEL
100
AcDbCircle
 10
217.4497126393329
 20
429.6823440898576
 30
0.0
 40
8.0
100
AcDbArc
 50
180.0000000000004
 51
214.5922886875098
  0
LINE
  5
69F
102
{ACAD_REACTORS
330
78C
102
}
330
20
100
AcDbEntity
  8
STEMPEL
  6
Continuous
100
AcDbLine
 10
207.8497126393328
 20
429.6823440898575
 30
0.0
 11
207.8497126393326
 21
454.8863860696327
 31
0.0
  0
LINE
  5
6A0
102
{ACAD_REACTORS
330
78C
102
}
330
20
100
AcDbEntity
  8
STEMPEL
  6
Continuous
100
AcDbLine
 10
209.4497126393329
 20
429.6823440898575
 30
0.0
 11
209.4497126393327
 21
454.8863860696327
 31
0.0
  0
LINE
  5
6A1
102
{ACAD_REACTORS
330
78C
102
}
330
20
100
AcDbEntity
  8
STEMPEL
100
AcDbLine
 10
210.8640103520104
 20
425.1404804434283
 30
0.0
 11
219.7933170480288
 21
412.1929857342015
 31
0.0
  0
LINE
  5
6A2
102
{ACAD_REACTORS
330
78C
330
7AD
102
}
330
20
100
AcDbEntity
  8
STEMPEL
100
AcDbLine
 10
209.5468698945459
 20
424.2321077141424
 30
0.0
 11
217.8497126393327
 21
412.1929857342014
 31
0.0
  0
TEXT
  5
6B5
330
20
100
AcDbEntity
  8
TEXT
 62
     1
100
AcDbText
 10
237.2020255440558
 20
489.0464980512161
 30
0.0
 40
7.0
  1
DN70
 50
90.0
 41
0.8
  7
GREEKS
100
AcDbText
  0
TEXT
  5
6FE
330
20
100
AcDbEntity
  8
TEXT
 62
     1
100
AcDbText
 10
244.6057658946466
 20
129.0783465745482
 30
0.0
 40
7.0
  1
und innen beschichtet
 41
0.8
  7
GREEKS
100
AcDbText
  0
TEXT
  5
6FF
330
20
100
AcDbEntity
  8
TEXT
 62
     1
100
AcDbText
 10
196.6560484572488
 20
139.8004583895517
 30
0.0
 40
7.0
  1
Werkstoff: E195 EN10305 feuerverzinkt
 41
0.8
  7
GREEKS
100
AcDbText
  0
TEXT
  5
705
330
20
100
AcDbEntity
  8
TEXT
100
AcDbText
 10
417.3022923857165
 20
10.16790107998861
 30
0.0
 40
4.0
  1
Diese Zeichnung ist urheberrechtlich geschützt und bleibt unser Eigentum. Sie darf weder ganz noch teilweise verfielfältigt und nicht an Dritte weitergegeben werden.
 50
90.0
 41
0.8
  7
GREEKS
100
AcDbText
  0
TEXT
  5
747
330
20
100
AcDbEntity
  8
TEXT
100
AcDbText
 10
192.5556106269613
 20
88.77404111887841
 30
0.0
 40
4.0
  1
DIN EN1123-2
 41
0.8
  7
GREEKS
 72
     1
 11
209.5460868174375
 21
88.77404111887841
 31
0.0
100
AcDbText
  0
HATCH
  5
78C
330
20
100
AcDbEntity
  8
SCHRAFF
100
AcDbHatch
 10
0.0
 20
0.0
 30
0.0
210
0.0
220
0.0
230
1.0
  2
_USER
 70
     0
 71
     1
 91
        2
 92
        7
 72
     1
 73
     1
 93
       22
 10
282.3497126393329
 20
465.5817121516186
 42
-0.1420008527982326
 10
280.7377126393329
 20
460.020142588986
 42
0.1420008527982323
 10
279.249712639333
 20
454.8863860696328
 42
0.0
 10
279.2497126393329
 20
429.6823440898576
 42
-0.1520940979589571
 10
277.8354149266553
 20
425.1404804434284
 42
0.0
 10
268.906108230637
 20
412.1929857342016
 42
0.0
 10
270.8497126393331
 20
412.1929857342014
 42
0.0
 10
279.1525553841199
 20
424.2321077141425
 42
0.1520940979589594
 10
280.849712639333
 20
429.6823440898577
 42
0.0
 10
280.849712639333
 20
454.8863860696328
 42
-0.1420008527982322
 10
282.0897126393331
 20
459.1645165024271
 42
0.1420008527982313
 10
283.9497126393329
 20
465.5817121516186
 42
0.0
 10
283.9497126393329
 20
482.1929857342015
 42
-0.0926930603363572
 10
284.7605516477747
 20
486.5291910228141
 42
0.0933817694259916
 10
286.4497126393331
 20
495.6312657824002
 42
0.0
 10
286.4497126393331
 20
504.6440633270829
 42
0.1093332246020751
 10
284.1151099676083
 20
515.1929857342016
 42
0.0
 10
282.3370350155638
 20
515.1929857342016
 42
-0.1174534402570128
 10
284.849712639333
 20
504.6440633270831
 42
0.0
 10
284.849712639333
 20
495.6290447001364
 42
-0.0934049271928111
 10
283.268663515567
 20
487.1073517279624
 42
0.0926930603363643
 10
282.3497126393329
 20
482.1929857342011
 42
0.0
 97
       22
330
5B5
330
5AC
330
5AE
330
5AD
330
599
330
5B1
330
5B3
330
5B2
330
5B4
330
5AF
330
5B8
330
5B6
330
5BA
330
698
330
697
330
5CF
330
696
330
69B
330
5BB
330
5B7
330
5B9
330
5B0
 92
        7
 72
     1
 73
     1
 93
       22
 10
206.3497126393329
 20
482.1929857342015
 42
0.0926930603363564
 10
205.4307617630989
 20
487.1073517279624
 42
-0.0934049271926556
 10
203.8497126393328
 20
495.629044700122
 42
0.0
 10
203.8497126393328
 20
504.6440633270829
 42
-0.1174534402570159
 10
206.3623902631022
 20
515.1929857342016
 42
0.0
 10
204.5843153110575
 20
515.1929857342016
 42
0.1093332246020735
 10
202.2497126393329
 20
504.644063327083
 42
0.0
 10
202.2497126393329
 20
495.6312657823952
 42
0.0933817694259403
 10
203.9388736308911
 20
486.529191022814
 42
-0.0926930603363582
 10
204.7497126393329
 20
482.1929857342015
 42
0.0
 10
204.7497126393329
 20
465.5817121516186
 42
0.1420008527982315
 10
206.6097126393329
 20
459.1645165024272
 42
-0.1420008527982354
 10
207.8497126393326
 20
454.8863860696327
 42
0.0
 10
207.8497126393328
 20
429.6823440898575
 42
0.1520940979589581
 10
209.5468698945458
 20
424.2321077141424
 42
0.0
 10
217.8497126393327
 20
412.1929857342015
 42
0.0
 10
219.7933170480288
 20
412.1929857342015
 42
0.0
 10
210.8640103520104
 20
425.1404804434283
 42
-0.1520940979589568
 10
209.4497126393329
 20
429.6823440898575
 42
0.0
 10
209.4497126393327
 20
454.8863860696327
 42
0.1420008527982365
 10
207.9617126393328
 20
460.020142588986
 42
-0.1420008527982307
 10
206.3497126393329
 20
465.5817121516186
 42
0.0
 97
       22
330
5A7
330
5A6
330
5A5
330
5A4
330
599
330
59A
330
598
330
5A1
330
5A0
330
59F
330
5A2
330
5A3
330
69F
330
69C
330
6A2
330
5CF
330
6A1
330
69E
330
6A0
330
5AA
330
5A9
330
5A8
 75
     0
 76
     0
 52
45.0
 41
2.0
 77
     0
 78
     1
 53
45.0
 43
0.0
 44
0.0
 45
-1.414213562373094
 46
1.414213562373095
 79
     0
 47
0.3196467609019764
 98
        2
 10
283.0856235184754
 20
473.3305145817168
 10
205.6744481725307
 20
472.6912204978912
  0
HATCH
  5
79F
330
20
100
AcDbEntity
  8
SCHRAFF
100
AcDbHatch
 10
0.0
 20
0.0
 30
0.0
210
0.0
220
0.0
230
1.0
  2
_USER
 70
     0
 71
     1
 91
        2
 92
        7
 72
     0
 73
     1
 93
        6
 10
269.349712639333
 20
217.1929857342021
 10
268.7372919946516
 20
210.1929857342016
 10
270.2430217509665
 20
210.1929857342016
 10
270.849712639333
 20
217.1274943198391
 10
270.8497126393332
 20
412.1929857342016
 10
269.3497126393331
 20
412.1929857342016
 97
        6
330
5CF
330
5CA
330
5CB
330
5BC
330
5CD
330
5C6
 92
        7
 72
     0
 73
     1
 93
        6
 10
219.349712639333
 20
412.1929857342015
 10
217.849712639333
 20
412.1929857342015
 10
217.8497126393331
 20
217.1274943198395
 10
218.4564035276995
 20
210.1929857342016
 10
219.9621332840146
 20
210.1929857342015
 10
219.349712639333
 20
217.1929857342012
 97
        6
330
5CF
330
5C7
330
5CE
330
5BC
330
5CC
330
5C9
 75
     0
 76
     0
 52
135.0
 41
2.0
 77
     0
 78
     1
 53
135.0
 43
0.0
 44
0.0
 45
-1.414213562373095
 46
-1.414213562373094
 79
     0
 47
0.4794701454854767
 98
        2
 10
269.6100446732901
 20
322.8758832964822
 10
218.7489813065129
 20
320.4785335939178
  0
ARC
  5
7A2
102
{ACAD_REACTORS
330
7AD
102
}
330
20
100
AcDbEntity
  8
SCHRAFF
100
AcDbCircle
 10
267.9154436657751
 20
413.5615208142631
 30
0.0
 40
5.262512057460241
100
AcDbArc
 50
303.8885705008831
 51
18.06021742397979
  0
ARC
  5
7A3
102
{ACAD_REACTORS
330
7AD
102
}
330
20
100
AcDbEntity
  8
SCHRAFF
100
AcDbCircle
 10
220.7839816128907
 20
413.5615208142631
 30
0.0
 40
5.262512057460241
100
AcDbArc
 50
161.9397825760202
 51
236.1114294991169
  0
HATCH
  5
7AD
330
20
100
AcDbEntity
  8
SCHRAFF
100
AcDbHatch
 10
0.0
 20
0.0
 30
0.0
210
0.0
220
0.0
230
1.0
  2
_USER
 70
     0
 71
     1
 91
        2
 92
        7
 72
     1
 73
     1
 93
        3
 10
272.9186781565745
 20
415.1929857342016
 42
0.0
 10
270.8497126393331
 20
412.1929857342016
 42
0.0
 10
270.8497126393331
 20
409.1929857342015
 42
0.3354283274755644
 97
        3
330
696
330
5C6
330
7A2
 92
        7
 72
     1
 73
     1
 93
        3
 10
217.8497126393331
 20
412.1929857342011
 42
0.0
 10
215.7807471220913
 20
415.1929857342016
 42
0.3354283274755776
 10
217.849712639333
 20
409.1929857342013
 42
0.0
 97
        3
330
6A2
330
7A3
330
5C7
 75
     0
 76
     0
 52
0.0
 41
0.1
 77
     0
 78
     1
 53
0.0
 43
0.0
 44
0.0
 45
0.0
 46
0.1
 79
     0
 47
0.1058099316435239
 98
        2
 10
271.9568116399689
 20
411.5826987988159
 10
216.7894578029543
 20
411.9001281777403
  0
TEXT
  5
7AE
330
20
100
AcDbEntity
  8
TEXT
 62
     1
100
AcDbText
 10
237.2020255440558
 20
283.0794817370896
 30
0.0
 40
7.0
  1
DN50
 50
90.0
 41
0.8
  7
GREEKS
100
AcDbText
  0
ENDSEC
  0
SECTION
  2
OBJECTS
  0
DICTIONARY
  5
C
330
0
100
AcDbDictionary
281
     1
  3
ACAD_COLOR
350
1B
  3
ACAD_GROUP
350
D
  3
ACAD_LAYOUT
350
19
  3
ACAD_MATERIAL
350
1A
  3
ACAD_MLINESTYLE
350
16
  3
ACAD_PLOTSETTINGS
350
18
  3
ACAD_PLOTSTYLENAME
350
E
  3
AcDbVariableDictionary
350
7B9
  0
DICTIONARY
  5
1B
102
{ACAD_REACTORS
330
C
102
}
330
C
100
AcDbDictionary
281
     1
  0
DICTIONARY
  5
D
102
{ACAD_REACTORS
330
C
102
}
330
C
100
AcDbDictionary
281
     1
  0
DICTIONARY
  5
19
102
{ACAD_REACTORS
330
C
102
}
330
C
100
AcDbDictionary
281
     1
  3
Layout1
350
1F
  3
Model
350
23
  0
DICTIONARY
  5
1A
102
{ACAD_REACTORS
330
C
102
}
330
C
100
AcDbDictionary
281
     1
  0
DICTIONARY
  5
16
102
{ACAD_REACTORS
330
C
102
}
330
C
100
AcDbDictionary
281
     1
  3
Standard
350
17
  0
DICTIONARY
  5
18
102
{ACAD_REACTORS
330
C
102
}
330
C
100
AcDbDictionary
281
     1
  0
ACDBDICTIONARYWDFLT
  5
E
102
{ACAD_REACTORS
330
C
102
}
330
C
100
AcDbDictionary
281
     1
  3
Normal
350
F
100
AcDbDictionaryWithDefault
340
F
  0
DICTIONARY
  5
7B9
102
{ACAD_REACTORS
330
C
102
}
330
C
100
AcDbDictionary
281
     1
  3
DIMASSOC
350
7BB
  3
HIDETEXT
350
7BA
  3
PROJECTNAME
350
7BC
  0
LAYOUT
  5
1F
102
{ACAD_REACTORS
330
19
102
}
330
19
100
AcDbPlotSettings
  1

  2
RICOH Aficio 2027 PCL 6
  4

  6

 40
0.0
 41
0.0
 42
0.0
 43
0.0
 44
0.0
 45
0.0
 46
0.0
 47
0.0
 48
0.0
 49
0.0
140
0.0
141
0.0
142
1.0
143
1.0
 70
   688
 72
     0
 73
     0
 74
     5
  7
monochrome1.ctb
 75
    16
147
1.0
 76
     0
 77
     2
 78
   300
148
0.0
149
0.0
100
AcDbLayout
  1
Layout1
 70
     0
 71
     1
 10
0.0
 20
0.0
 11
12.0
 21
9.0
 12
0.0
 22
0.0
 32
0.0
 14
1.000000000000000E+20
 24
1.000000000000000E+20
 34
1.000000000000000E+20
 15
-1.000000000000000E+20
 25
-1.000000000000000E+20
 35
-1.000000000000000E+20
146
0.0
 13
0.0
 23
0.0
 33
0.0
 16
1.0
 26
0.0
 36
0.0
 17
0.0
 27
1.0
 37
0.0
 76
     0
330
1C
  0
LAYOUT
  5
23
102
{ACAD_REACTORS
330
19
102
}
330
19
100
AcDbPlotSettings
  1

  2
RICOH Aficio 2027 PCL 6
  4
A4
  6

 40
5.027083396911621
 41
5.027085304260253
 42
5.027084350585937
 43
5.027069091796875
 44
209.9733276367187
 45
296.9259948730469
 46
0.0
 47
0.0
 48
0.0
 49
0.0
140
0.0
141
0.0
142
1.0
143
1.0
 70
 11952
 72
     0
 73
     1
 74
     0
  7
monochrome1.ctb
 75
     0
147
1.0
 76
     0
 77
     2
 78
   300
148
2300.430855644145
149
90.63084535396582
100
AcDbLayout
  1
Model
 70
     1
 71
     0
 10
0.0
 20
0.0
 11
12.0
 21
9.0
 12
0.0
 22
0.0
 32
0.0
 14
0.0
 24
0.0
 34
0.0
 15
0.0
 25
0.0
 35
0.0
146
0.0
 13
0.0
 23
0.0
 33
0.0
 16
1.0
 26
0.0
 36
0.0
 17
0.0
 27
1.0
 37
0.0
 76
     0
330
20
  0
MLINESTYLE
  5
17
102
{ACAD_REACTORS
330
16
102
}
330
16
100
AcDbMlineStyle
  2
STANDARD
 70
     0
  3

 62
   256
 51
90.0
 52
90.0
 71
     2
 49
0.5
 62
   256
  6
BYLAYER
 49
-0.5
 62
   256
  6
BYLAYER
  0
ACDBPLACEHOLDER
  5
F
102
{ACAD_REACTORS
330
E
102
}
330
E
  0
DICTIONARYVAR
  5
7BB
102
{ACAD_REACTORS
330
7B9
102
}
330
7B9
100
DictionaryVariables
280
     0
  1
2
  0
DICTIONARYVAR
  5
7BA
102
{ACAD_REACTORS
330
7B9
102
}
330
7B9
100
DictionaryVariables
280
     0
  1
1
  0
DICTIONARYVAR
  5
7BC
102
{ACAD_REACTORS
330
7B9
102
}
330
7B9
100
DictionaryVariables
280
     0
  1

  0
ENDSEC
  0
EOF
