  0
SECTION
  2
HEADER
  9
$ACADVER
  1
AC1018
  9
$ACADMAINTVER
 70
     2
  9
$DWGCODEPAGE
  3
ANSI_1252
  9
$INSBASE
 10
0.0
 20
0.0
 30
0.0
  9
$EXTMIN
 10
-0.056588200991655
 20
-0.0400234682504106
 30
-0.0000000000000129
  9
$EXTMAX
 10
840.0534257360584
 20
594.0279683013659
 30
0.0000000000000023
  9
$LIMMIN
 10
0.0
 20
0.0
  9
$LIMMAX
 10
840.0
 20
594.0
  9
$ORTHOMODE
 70
     1
  9
$REGENMODE
 70
     1
  9
$FILLMODE
 70
     1
  9
$QTEXTMODE
 70
     0
  9
$MIRRTEXT
 70
     1
  9
$LTSCALE
 40
20.0
  9
$ATTMODE
 70
     1
  9
$TEXTSIZE
 40
3.5
  9
$TRACEWID
 40
1.0
  9
$TEXTSTYLE
  7
STANDARD
  9
$CLAYER
  8
BEM
  9
$CELTYPE
  6
ByLayer
  9
$CECOLOR
 62
   256
  9
$CELTSCALE
 40
1.0
  9
$DISPSILH
 70
     0
  9
$DIMSCALE
 40
2.0
  9
$DIMASZ
 40
3.5
  9
$DIMEXO
 40
1.0
  9
$DIMDLI
 40
7.0
  9
$DIMRND
 40
0.0
  9
$DIMDLE
 40
0.0
  9
$DIMEXE
 40
1.0
  9
$DIMTP
 40
0.0
  9
$DIMTM
 40
0.0
  9
$DIMTXT
 40
3.5
  9
$DIMCEN
 40
1.5
  9
$DIMTSZ
 40
0.0
  9
$DIMTOL
 70
     0
  9
$DIMLIM
 70
     0
  9
$DIMTIH
 70
     0
  9
$DIMTOH
 70
     0
  9
$DIMSE1
 70
     0
  9
$DIMSE2
 70
     0
  9
$DIMTAD
 70
     1
  9
$DIMZIN
 70
     8
  9
$DIMBLK
  1

  9
$DIMASO
 70
     1
  9
$DIMSHO
 70
     0
  9
$DIMPOST
  1

  9
$DIMAPOST
  1

  9
$DIMALT
 70
     0
  9
$DIMALTD
 70
     2
  9
$DIMALTF
 40
25.4
  9
$DIMLFAC
 40
1.0
  9
$DIMTOFL
 70
     1
  9
$DIMTVP
 40
0.0
  9
$DIMTIX
 70
     0
  9
$DIMSOXD
 70
     0
  9
$DIMSAH
 70
     0
  9
$DIMBLK1
  1

  9
$DIMBLK2
  1

  9
$DIMSTYLE
  2
Standard
  9
$DIMCLRD
 70
     0
  9
$DIMCLRE
 70
     0
  9
$DIMCLRT
 70
     1
  9
$DIMTFAC
 40
0.5142857142857144
  9
$DIMGAP
 40
1.5
  9
$DIMJUST
 70
     0
  9
$DIMSD1
 70
     0
  9
$DIMSD2
 70
     0
  9
$DIMTOLJ
 70
     1
  9
$DIMTZIN
 70
     8
  9
$DIMALTZ
 70
     8
  9
$DIMALTTZ
 70
     8
  9
$DIMUPT
 70
     0
  9
$DIMDEC
 70
     2
  9
$DIMTDEC
 70
     2
  9
$DIMALTU
 70
     2
  9
$DIMALTTD
 70
     2
  9
$DIMTXSTY
  7
STANDARD
  9
$DIMAUNIT
 70
     0
  9
$DIMADEC
 70
     2
  9
$DIMALTRND
 40
0.0
  9
$DIMAZIN
 70
     2
  9
$DIMDSEP
 70
    46
  9
$DIMATFIT
 70
     3
  9
$DIMFRAC
 70
     0
  9
$DIMLDRBLK
  1

  9
$DIMLUNIT
 70
     2
  9
$DIMLWD
 70
    -2
  9
$DIMLWE
 70
    -2
  9
$DIMTMOVE
 70
     0
  9
$LUNITS
 70
     2
  9
$LUPREC
 70
     2
  9
$SKETCHINC
 40
1.0
  9
$FILLETRAD
 40
0.0
  9
$AUNITS
 70
     0
  9
$AUPREC
 70
     0
  9
$MENU
  1
ACAD
  9
$ELEVATION
 40
0.0
  9
$PELEVATION
 40
0.0
  9
$THICKNESS
 40
0.0
  9
$LIMCHECK
 70
     0
  9
$CHAMFERA
 40
0.0
  9
$CHAMFERB
 40
0.0
  9
$CHAMFERC
 40
0.0
  9
$CHAMFERD
 40
0.0
  9
$SKPOLY
 70
     0
  9
$TDCREATE
 40
2455397.867059838
  9
$TDUCREATE
 40
2455397.783726505
  9
$TDUPDATE
 40
2455454.591215151
  9
$TDUUPDATE
 40
2455454.507881817
  9
$TDINDWG
 40
0.0863859838
  9
$TDUSRTIMER
 40
0.0863859838
  9
$USRTIMER
 70
     1
  9
$ANGBASE
 50
0.0
  9
$ANGDIR
 70
     0
  9
$PDMODE
 70
     0
  9
$PDSIZE
 40
0.0
  9
$PLINEWID
 40
0.0
  9
$SPLFRAME
 70
     0
  9
$SPLINETYPE
 70
     6
  9
$SPLINESEGS
 70
     8
  9
$HANDSEED
  5
1BF6
  9
$SURFTAB1
 70
     6
  9
$SURFTAB2
 70
     6
  9
$SURFTYPE
 70
     6
  9
$SURFU
 70
     6
  9
$SURFV
 70
     6
  9
$UCSBASE
  2

  9
$UCSNAME
  2

  9
$UCSORG
 10
0.0
 20
0.0
 30
0.0
  9
$UCSXDIR
 10
1.0
 20
0.0
 30
0.0
  9
$UCSYDIR
 10
0.0
 20
1.0
 30
0.0
  9
$UCSORTHOREF
  2

  9
$UCSORTHOVIEW
 70
     0
  9
$UCSORGTOP
 10
0.0
 20
0.0
 30
0.0
  9
$UCSORGBOTTOM
 10
0.0
 20
0.0
 30
0.0
  9
$UCSORGLEFT
 10
0.0
 20
0.0
 30
0.0
  9
$UCSORGRIGHT
 10
0.0
 20
0.0
 30
0.0
  9
$UCSORGFRONT
 10
0.0
 20
0.0
 30
0.0
  9
$UCSORGBACK
 10
0.0
 20
0.0
 30
0.0
  9
$PUCSBASE
  2

  9
$PUCSNAME
  2

  9
$PUCSORG
 10
0.0
 20
0.0
 30
0.0
  9
$PUCSXDIR
 10
1.0
 20
0.0
 30
0.0
  9
$PUCSYDIR
 10
0.0
 20
1.0
 30
0.0
  9
$PUCSORTHOREF
  2

  9
$PUCSORTHOVIEW
 70
     0
  9
$PUCSORGTOP
 10
0.0
 20
0.0
 30
0.0
  9
$PUCSORGBOTTOM
 10
0.0
 20
0.0
 30
0.0
  9
$PUCSORGLEFT
 10
0.0
 20
0.0
 30
0.0
  9
$PUCSORGRIGHT
 10
0.0
 20
0.0
 30
0.0
  9
$PUCSORGFRONT
 10
0.0
 20
0.0
 30
0.0
  9
$PUCSORGBACK
 10
0.0
 20
0.0
 30
0.0
  9
$USERI1
 70
     0
  9
$USERI2
 70
     0
  9
$USERI3
 70
     0
  9
$USERI4
 70
     0
  9
$USERI5
 70
     0
  9
$USERR1
 40
0.0
  9
$USERR2
 40
0.0
  9
$USERR3
 40
0.0
  9
$USERR4
 40
0.0
  9
$USERR5
 40
0.0
  9
$WORLDVIEW
 70
     1
  9
$SHADEDGE
 70
     3
  9
$SHADEDIF
 70
    70
  9
$TILEMODE
 70
     1
  9
$MAXACTVP
 70
    16
  9
$PINSBASE
 10
0.0
 20
0.0
 30
0.0
  9
$PLIMCHECK
 70
     0
  9
$PEXTMIN
 10
1.000000000000000E+20
 20
1.000000000000000E+20
 30
1.000000000000000E+20
  9
$PEXTMAX
 10
-1.000000000000000E+20
 20
-1.000000000000000E+20
 30
-1.000000000000000E+20
  9
$PLIMMIN
 10
0.0
 20
0.0
  9
$PLIMMAX
 10
12.0
 20
9.0
  9
$UNITMODE
 70
     0
  9
$VISRETAIN
 70
     0
  9
$PLINEGEN
 70
     0
  9
$PSLTSCALE
 70
     0
  9
$TREEDEPTH
 70
  3020
  9
$CMLSTYLE
  2
Standard
  9
$CMLJUST
 70
     0
  9
$CMLSCALE
 40
1.0
  9
$PROXYGRAPHICS
 70
     1
  9
$MEASUREMENT
 70
     0
  9
$CELWEIGHT
370
    -1
  9
$ENDCAPS
280
     0
  9
$JOINSTYLE
280
     0
  9
$LWDISPLAY
290
     0
  9
$INSUNITS
 70
     0
  9
$HYPERLINKBASE
  1

  9
$STYLESHEET
  1
monochrome 1.ctb
  9
$XEDIT
290
     1
  9
$CEPSNTYPE
380
     0
  9
$PSTYLEMODE
290
     1
  9
$FINGERPRINTGUID
  2
{D68B0D0D-A558-11D7-B632-000102183313}
  9
$VERSIONGUID
  2
{1F13DBAA-73A9-4305-8E02-9A97CF3A4C11}
  9
$EXTNAMES
290
     1
  9
$PSVPSCALE
 40
0.0
  9
$OLESTARTUP
290
     0
  9
$SORTENTS
280
   127
  9
$INDEXCTL
280
     0
  9
$HIDETEXT
280
     0
  9
$XCLIPFRAME
290
     0
  9
$HALOGAP
280
     0
  9
$OBSCOLOR
 70
   257
  9
$OBSLTYPE
280
     0
  9
$INTERSECTIONDISPLAY
280
     0
  9
$INTERSECTIONCOLOR
 70
   257
  9
$DIMASSOC
280
     1
  9
$PROJECTNAME
  1

  0
ENDSEC
  0
SECTION
  2
CLASSES
  0
CLASS
  1
ACDBDICTIONARYWDFLT
  2
AcDbDictionaryWithDefault
  3
ObjectDBX Classes
 90
        0
 91
        1
280
     0
281
     0
  0
CLASS
  1
DICTIONARYVAR
  2
AcDbDictionaryVar
  3
ObjectDBX Classes
 90
        0
 91
        2
280
     0
281
     0
  0
ENDSEC
  0
SECTION
  2
TABLES
  0
TABLE
  2
VPORT
  5
8
330
0
100
AcDbSymbolTable
 70
     2
  0
VPORT
  5
1BF5
330
8
100
AcDbSymbolTableRecord
100
AcDbViewportTableRecord
  2
*Active
 70
     0
 10
0.0
 20
0.0
 11
1.0
 21
1.0
 12
419.9984187675335
 22
296.9939724165578
 13
0.0
 23
0.0
 14
1.0
 24
1.0
 15
10.0
 25
10.0
 16
0.0
 26
0.0
 36
1.0
 17
0.0
 27
0.0
 37
0.0
 40
632.1843632169496
 41
1.336927223719676
 42
50.0
 43
0.0
 44
0.0
 50
0.0
 51
0.0
 71
     0
 72
  1500
 73
     1
 74
     0
 75
     0
 76
     0
 77
     0
 78
     0
281
     0
 65
     1
110
0.0
120
0.0
130
0.0
111
1.0
121
0.0
131
0.0
112
0.0
122
1.0
132
0.0
 79
     0
146
0.0
  0
ENDTAB
  0
TABLE
  2
LTYPE
  5
5
330
0
100
AcDbSymbolTable
 70
     2
  0
LTYPE
  5
13
330
5
100
AcDbSymbolTableRecord
100
AcDbLinetypeTableRecord
  2
ByBlock
 70
     0
  3

 72
    65
 73
     0
 40
0.0
  0
LTYPE
  5
14
330
5
100
AcDbSymbolTableRecord
100
AcDbLinetypeTableRecord
  2
ByLayer
 70
     0
  3

 72
    65
 73
     0
 40
0.0
  0
LTYPE
  5
15
330
5
100
AcDbSymbolTableRecord
100
AcDbLinetypeTableRecord
  2
Continuous
 70
     0
  3
Solid line
 72
    65
 73
     0
 40
0.0
  0
LTYPE
  5
25
330
5
100
AcDbSymbolTableRecord
100
AcDbLinetypeTableRecord
  2
STRICHPUNKT
 70
     0
  3
__ . __ . __ . __ . __ . __ . __ . __ . __ . __
 72
    65
 73
     4
 40
1.0
 49
0.5
 74
     0
 49
-0.25
 74
     0
 49
0.0
 74
     0
 49
-0.25
 74
     0
  0
ENDTAB
  0
TABLE
  2
LAYER
  5
2
330
0
100
AcDbSymbolTable
 70
     9
  0
LAYER
  5
10
330
2
100
AcDbSymbolTableRecord
100
AcDbLayerTableRecord
  2
0
 70
     0
 62
     7
  6
Continuous
370
    -3
390
F
  0
LAYER
  5
2B
330
2
100
AcDbSymbolTableRecord
100
AcDbLayerTableRecord
  2
VOLL
 70
     0
 62
     1
  6
Continuous
370
    -3
390
F
  0
LAYER
  5
2C
330
2
100
AcDbSymbolTableRecord
100
AcDbLayerTableRecord
  2
HILF
 70
     0
 62
     2
  6
Continuous
370
    -3
390
F
  0
LAYER
  5
2D
330
2
100
AcDbSymbolTableRecord
100
AcDbLayerTableRecord
  2
MITTEL
 70
     0
 62
     2
  6
STRICHPUNKT
370
    -3
390
F
  0
LAYER
  5
2F
330
2
100
AcDbSymbolTableRecord
100
AcDbLayerTableRecord
  2
BEM
 70
     0
 62
     7
  6
Continuous
370
    -3
390
F
  0
LAYER
  5
30
330
2
100
AcDbSymbolTableRecord
100
AcDbLayerTableRecord
  2
STEMPEL
 70
     0
 62
     3
  6
Continuous
370
    -3
390
F
  0
LAYER
  5
33
330
2
100
AcDbSymbolTableRecord
100
AcDbLayerTableRecord
  2
TEXT
 70
     0
 62
     7
  6
Continuous
370
    -3
390
F
  0
LAYER
  5
53E
330
2
100
AcDbSymbolTableRecord
100
AcDbLayerTableRecord
  2
SCHRAFF
 70
     0
 62
     7
  6
Continuous
370
    -3
390
F
  0
LAYER
  5
53F
330
2
100
AcDbSymbolTableRecord
100
AcDbLayerTableRecord
  2
DEFPOINTS
 70
     0
 62
     7
  6
Continuous
290
     0
370
    -3
390
F
  0
ENDTAB
  0
TABLE
  2
STYLE
  5
3
330
0
100
AcDbSymbolTable
 70
     2
  0
STYLE
  5
11
330
3
100
AcDbSymbolTableRecord
100
AcDbTextStyleTableRecord
  2
STANDARD
 70
     0
 40
0.0
 41
0.8
 50
0.0
 71
     0
 42
3.5
  3
simplex.shx
  4

  0
STYLE
  5
24
330
3
100
AcDbSymbolTableRecord
100
AcDbTextStyleTableRecord
  2
GREEKS
 70
     0
 40
0.0
 41
0.8
 50
0.0
 71
     0
 42
2.5
  3
SIMPLEX.shx
  4

  0
ENDTAB
  0
TABLE
  2
VIEW
  5
6
330
0
100
AcDbSymbolTable
 70
     0
  0
ENDTAB
  0
TABLE
  2
UCS
  5
7
330
0
100
AcDbSymbolTable
 70
     0
  0
ENDTAB
  0
TABLE
  2
APPID
  5
9
330
0
100
AcDbSymbolTable
 70
     1
  0
APPID
  5
12
330
9
100
AcDbSymbolTableRecord
100
AcDbRegAppTableRecord
  2
ACAD
 70
     0
  0
ENDTAB
  0
TABLE
  2
DIMSTYLE
  5
A
330
0
100
AcDbSymbolTable
 70
     1
100
AcDbDimStyleTable
 71
     1
340
A2
  0
DIMSTYLE
105
A2
102
{ACAD_REACTORS
330
1B3C
330
1B65
330
1B8C
330
1B99
330
1BBD
102
}
330
A
100
AcDbSymbolTableRecord
100
AcDbDimStyleTableRecord
  2
Standard
 70
     0
340
11
  0
ENDTAB
  0
TABLE
  2
BLOCK_RECORD
  5
1
330
0
100
AcDbSymbolTable
 70
     6
  0
BLOCK_RECORD
  5
1E
102
{ACAD_XDICTIONARY
360
DB
102
}
330
1
100
AcDbSymbolTableRecord
100
AcDbBlockTableRecord
  2
*Model_Space
340
21
  0
BLOCK_RECORD
  5
1A
102
{ACAD_XDICTIONARY
360
DD
102
}
330
1
100
AcDbSymbolTableRecord
100
AcDbBlockTableRecord
  2
*Paper_Space
340
1D
  0
BLOCK_RECORD
  5
22
330
1
100
AcDbSymbolTableRecord
100
AcDbBlockTableRecord
  2
LOGO
340
0
102
{BLKREFS
331
66D
102
}
  0
BLOCK_RECORD
  5
1B3D
330
1
100
AcDbSymbolTableRecord
100
AcDbBlockTableRecord
  2
*D1
340
0
  0
BLOCK_RECORD
  5
1B66
330
1
100
AcDbSymbolTableRecord
100
AcDbBlockTableRecord
  2
*D2
340
0
  0
BLOCK_RECORD
  5
1B8D
330
1
100
AcDbSymbolTableRecord
100
AcDbBlockTableRecord
  2
*D3
340
0
  0
BLOCK_RECORD
  5
1B9A
330
1
100
AcDbSymbolTableRecord
100
AcDbBlockTableRecord
  2
*D4
340
0
  0
BLOCK_RECORD
  5
1BBE
330
1
100
AcDbSymbolTableRecord
100
AcDbBlockTableRecord
  2
*D5
340
0
  0
ENDTAB
  0
ENDSEC
  0
SECTION
  2
BLOCKS
  0
BLOCK
  5
37
330
1E
100
AcDbEntity
  8
0
100
AcDbBlockBegin
  2
*Model_Space
 70
     0
 10
0.0
 20
0.0
 30
0.0
  3
*Model_Space
  1

  0
ENDBLK
  5
38
330
1E
100
AcDbEntity
  8
0
100
AcDbBlockEnd
  0
BLOCK
  5
35
330
1A
100
AcDbEntity
 67
     1
  8
0
100
AcDbBlockBegin
  2
*Paper_Space
 70
     0
 10
0.0
 20
0.0
 30
0.0
  3
*Paper_Space
  1

  0
ENDBLK
  5
36
330
1A
100
AcDbEntity
 67
     1
  8
0
100
AcDbBlockEnd
  0
BLOCK
  5
39
330
22
100
AcDbEntity
  8
0
100
AcDbBlockBegin
  2
LOGO
 70
     0
 10
0.0
 20
0.0
 30
0.0
  3
LOGO
  1

  0
ARC
  5
3A
330
22
100
AcDbEntity
  8
0
100
AcDbCircle
 10
11.59973089678112
 20
-9.271599258481501
 30
0.0
 40
4.5
100
AcDbArc
 50
270.0
 51
231.0575587310159
  0
LINE
  5
3B
330
22
100
AcDbEntity
  8
0
100
AcDbLine
 10
3.599730896781125
 20
-4.771599258481529
 30
0.0
 11
3.599730896781153
 21
-11.77159925848133
 31
0.0
  0
LINE
  5
3C
330
22
100
AcDbEntity
  8
0
100
AcDbLine
 10
2.599730896781125
 20
-4.771599258481529
 30
0.0
 11
2.599730896781153
 21
-11.77159925848133
 31
0.0
  0
CIRCLE
  5
3D
330
22
100
AcDbEntity
  8
0
100
AcDbCircle
 10
11.59973089678112
 20
-9.271599258481501
 30
0.0
 40
3.5
  0
ARC
  5
3E
330
22
100
AcDbEntity
  8
0
100
AcDbCircle
 10
31.59973089678115
 20
-9.271599258481472
 30
0.0
 40
4.5
100
AcDbArc
 50
270.0
 51
231.0575587310182
  0
LINE
  5
3F
330
22
100
AcDbEntity
  8
0
100
AcDbLine
 10
17.59973089678112
 20
-4.771599258481472
 30
0.0
 11
17.59973089678115
 21
-13.77159925848147
 31
0.0
  0
ARC
  5
40
330
22
100
AcDbEntity
  8
0
100
AcDbCircle
 10
22.59973089678116
 20
-7.271599258481472
 30
0.0
 40
2.5
100
AcDbArc
 50
293.1161887722295
 51
90.0
  0
CIRCLE
  5
41
330
22
100
AcDbEntity
  8
0
100
AcDbCircle
 10
31.59973089678115
 20
-9.271599258481472
 30
0.0
 40
3.5
  0
ARC
  5
42
330
22
100
AcDbEntity
  8
0
100
AcDbCircle
 10
4.599730896781153
 20
-11.77159925848133
 30
0.0
 40
1.0
100
AcDbArc
 50
180.0
 51
270.0
  0
ARC
  5
43
330
22
100
AcDbEntity
  8
0
100
AcDbCircle
 10
4.599730896781153
 20
-11.77159925848133
 30
0.0
 40
2.0
100
AcDbArc
 50
179.9999999999992
 51
270.0
  0
LINE
  5
44
330
22
100
AcDbEntity
  8
0
100
AcDbLine
 10
11.59973089678115
 20
-13.77159925848144
 30
0.0
 11
4.599730896781153
 21
-13.77159925848147
 31
0.0
  0
LINE
  5
45
330
22
100
AcDbEntity
  8
0
100
AcDbLine
 10
8.771303772034769
 20
-12.77159925848136
 30
0.0
 11
4.599730896781153
 21
-12.77159925848133
 31
0.0
  0
LINE
  5
46
330
22
100
AcDbEntity
  8
0
100
AcDbLine
 10
31.59973089678115
 20
-13.77159925848147
 30
0.0
 11
23.6715276665056
 21
-13.77159925848144
 31
0.0
  0
LINE
  5
47
330
22
100
AcDbEntity
  8
0
100
AcDbLine
 10
23.56565672307022
 20
-9.51278021337896
 30
0.0
 11
24.4388546544846
 21
-12.77159925848144
 31
0.0
  0
LINE
  5
48
330
22
100
AcDbEntity
  8
0
100
AcDbLine
 10
22.59973089678116
 20
-9.771599258481472
 30
0.0
 11
18.59973089678112
 21
-9.771599258481472
 31
0.0
  0
LINE
  5
49
330
22
100
AcDbEntity
  8
0
100
AcDbLine
 10
18.59973089678115
 20
-13.77159925848144
 30
0.0
 11
17.59973089678115
 21
-13.77159925848144
 31
0.0
  0
LINE
  5
4A
330
22
100
AcDbEntity
  8
0
100
AcDbLine
 10
18.59973089678115
 20
-9.771599258481472
 30
0.0
 11
18.59973089678115
 21
-13.77159925848144
 31
0.0
  0
LINE
  5
4B
330
22
100
AcDbEntity
  8
0
100
AcDbLine
 10
22.59973089678116
 20
-9.771599258481472
 30
0.0
 11
23.67152766650562
 21
-13.77159925848147
 31
0.0
  0
ARC
  5
4C
330
22
100
AcDbEntity
  8
0
100
AcDbCircle
 10
22.59973089678116
 20
-7.271599258481472
 30
0.0
 40
2.5
100
AcDbArc
 50
270.0
 51
270.0000000000007
  0
LINE
  5
4D
330
22
100
AcDbEntity
  8
0
100
AcDbLine
 10
28.77130377203494
 20
-12.77159925848147
 30
0.0
 11
24.43885465448463
 21
-12.77159925848144
 31
0.0
  0
LINE
  5
4E
330
22
100
AcDbEntity
  8
0
100
AcDbLine
 10
3.599730896781125
 20
-4.771599258481472
 30
0.0
 11
2.599730896781125
 21
-4.771599258481472
 31
0.0
  0
LINE
  5
4F
330
22
100
AcDbEntity
  8
0
100
AcDbLine
 10
22.59973089678116
 20
-8.771599258481472
 30
0.0
 11
18.59973089678115
 21
-8.771599258481472
 31
0.0
  0
LINE
  5
50
330
22
100
AcDbEntity
  8
0
100
AcDbLine
 10
22.59973089678116
 20
-5.771599258481472
 30
0.0
 11
18.59973089678115
 21
-5.771599258481472
 31
0.0
  0
LINE
  5
51
330
22
100
AcDbEntity
  8
0
100
AcDbLine
 10
22.59973089678116
 20
-4.771599258481472
 30
0.0
 11
17.59973089678115
 21
-4.771599258481472
 31
0.0
  0
LINE
  5
52
330
22
100
AcDbEntity
  8
0
100
AcDbLine
 10
18.59973089678115
 20
-5.771599258481472
 30
0.0
 11
18.59973089678115
 21
-8.771599258481472
 31
0.0
  0
ARC
  5
53
330
22
100
AcDbEntity
  8
0
100
AcDbCircle
 10
22.59973089678116
 20
-7.271599258481472
 30
0.0
 40
1.5
100
AcDbArc
 50
270.0
 51
90.0
  0
ENDBLK
  5
54
330
22
100
AcDbEntity
  8
0
100
AcDbBlockEnd
  0
BLOCK
  5
1B49
330
1B3D
100
AcDbEntity
  8
0
100
AcDbBlockBegin
  2
*D1
 70
     1
 10
0.0
 20
0.0
 30
0.0
  3
*D1
  1

  0
LINE
  5
1B3E
330
1B3D
100
AcDbEntity
  8
BEM
 62
     0
370
    -2
100
AcDbLine
 10
205.7197382541682
 20
308.4802852769063
 30
0.0
 11
127.9047343876535
 21
308.4802852769063
 31
0.0
  0
LINE
  5
1B3F
330
1B3D
100
AcDbEntity
  8
BEM
 62
     0
370
    -2
100
AcDbLine
 10
207.7197382541682
 20
306.4802852769063
 30
0.0
 11
207.7197382541682
 21
228.6652814103916
 31
0.0
  0
ARC
  5
1B40
330
1B3D
100
AcDbEntity
  8
BEM
 62
     0
370
    -2
100
AcDbCircle
 10
207.7197382541682
 20
308.4802852769063
 30
0.0
 40
77.81500386651472
100
AcDbArc
 50
185.1558927162542
 51
264.8441072837457
  0
SOLID
  5
1B41
330
1B3D
100
AcDbEntity
  8
BEM
 62
     0
100
AcDbTrace
 10
129.0540977449902
 20
301.4348946977213
 30
0.0
 11
131.3850696432482
 21
301.5398444665432
 31
0.0
 12
129.9047343876535
 22
308.4802852769063
 32
0.0
 13
129.9047343876535
 23
308.4802852769063
 33
0.0
  0
SOLID
  5
1B42
330
1B3D
100
AcDbEntity
  8
BEM
 62
     0
100
AcDbTrace
 10
200.779297443805
 20
232.1456166659863
 30
0.0
 11
200.6743476749831
 21
229.8146447677283
 31
0.0
 12
207.7197382541682
 22
230.6652814103916
 32
0.0
 13
207.7197382541682
 23
230.6652814103916
 33
0.0
  0
MTEXT
  5
1B43
330
1B3D
100
AcDbEntity
  8
BEM
 62
     1
100
AcDbMText
 10
157.2924154198107
 20
258.0529624425489
 30
0.0
 40
7.0
 41
0.0
 71
     5
 72
     1
  1
\A1;90°
 11
0.7071067811865476
 21
-0.7071067811865475
 31
0.0
 73
     1
 44
1.0
  0
POINT
  5
1B44
330
1B3D
100
AcDbEntity
  8
DEFPOINTS
 62
     0
100
AcDbPoint
 10
140.3299681101821
 20
269.572783343649
 30
0.0
  0
POINT
  5
1B45
330
1B3D
100
AcDbEntity
  8
DEFPOINTS
 62
     0
100
AcDbPoint
 10
207.7197382541683
 20
368.4802852769063
 30
0.0
  0
POINT
  5
1B46
330
1B3D
100
AcDbEntity
  8
DEFPOINTS
 62
     0
100
AcDbPoint
 10
712.7197382541684
 20
308.4802852769063
 30
0.0
  0
POINT
  5
1B47
330
1B3D
100
AcDbEntity
  8
DEFPOINTS
 62
     0
100
AcDbPoint
 10
267.7197382541683
 20
308.4802852769063
 30
0.0
  0
POINT
  5
1B48
330
1B3D
100
AcDbEntity
  8
DEFPOINTS
 62
     0
100
AcDbPoint
 10
207.7197382541683
 20
458.4802852769063
 30
0.0
  0
ENDBLK
  5
1B4A
330
1B3D
100
AcDbEntity
  8
0
100
AcDbBlockEnd
  0
BLOCK
  5
1B70
330
1B66
100
AcDbEntity
  8
0
100
AcDbBlockBegin
  2
*D2
 70
     1
 10
0.0
 20
0.0
 30
0.0
  3
*D2
  1

  0
LINE
  5
1BE2
330
1B66
100
AcDbEntity
  8
BEM
 62
     0
370
    -2
100
AcDbLine
 10
150.0129824162433
 20
453.4802852769063
 30
0.0
 11
127.9047343876535
 21
453.4802852769064
 31
0.0
  0
LINE
  5
1BE3
330
1B66
100
AcDbEntity
  8
BEM
 62
     0
370
    -2
100
AcDbLine
 10
265.7197382541683
 20
308.4802852769063
 30
0.0
 11
127.9047343876535
 21
308.4802852769064
 31
0.0
  0
LINE
  5
1BE4
330
1B66
100
AcDbEntity
  8
BEM
 62
     0
370
    -2
100
AcDbLine
 10
129.9047343876535
 20
446.4802852769063
 30
0.0
 11
129.9047343876535
 21
315.4802852769063
 31
0.0
  0
SOLID
  5
1BE5
330
1B66
100
AcDbEntity
  8
BEM
 62
     0
100
AcDbTrace
 10
128.7380677209869
 20
446.4802852769063
 30
0.0
 11
131.0714010543202
 21
446.4802852769063
 31
0.0
 12
129.9047343876535
 22
453.4802852769063
 32
0.0
 13
129.9047343876535
 23
453.4802852769063
 33
0.0
  0
SOLID
  5
1BE6
330
1B66
100
AcDbEntity
  8
BEM
 62
     0
100
AcDbTrace
 10
128.7380677209868
 20
315.4802852769063
 30
0.0
 11
131.0714010543202
 21
315.4802852769063
 31
0.0
 12
129.9047343876535
 22
308.4802852769063
 32
0.0
 13
129.9047343876535
 23
308.4802852769063
 33
0.0
  0
MTEXT
  5
1BE7
330
1B66
100
AcDbEntity
  8
BEM
 62
     1
100
AcDbMText
 10
123.4047343876535
 20
380.9802852769064
 30
0.0
 40
7.0
 41
0.0
 71
     5
 72
     1
  1
\A1;145
 11
0.0000000000000001
 21
1.0
 31
0.0
 73
     1
 44
1.0
  0
POINT
  5
1BE8
330
1B66
100
AcDbEntity
  8
DEFPOINTS
 62
     0
100
AcDbPoint
 10
152.0129824162433
 20
453.4802852769063
 30
0.0
  0
POINT
  5
1BE9
330
1B66
100
AcDbEntity
  8
DEFPOINTS
 62
     0
100
AcDbPoint
 10
267.7197382541683
 20
308.4802852769063
 30
0.0
  0
POINT
  5
1BEA
330
1B66
100
AcDbEntity
  8
DEFPOINTS
 62
     0
100
AcDbPoint
 10
129.9047343876535
 20
308.4802852769063
 30
0.0
  0
ENDBLK
  5
1B71
330
1B66
100
AcDbEntity
  8
0
100
AcDbBlockEnd
  0
BLOCK
  5
1B97
330
1B8D
100
AcDbEntity
  8
0
100
AcDbBlockBegin
  2
*D3
 70
     1
 10
0.0
 20
0.0
 30
0.0
  3
*D3
  1

  0
LINE
  5
1BD9
330
1B8D
100
AcDbEntity
  8
BEM
 62
     0
370
    -2
100
AcDbLine
 10
707.7197382541681
 20
262.8551719121655
 30
0.0
 11
707.7197382541681
 21
228.6652814103916
 31
0.0
  0
LINE
  5
1BDA
330
1B8D
100
AcDbEntity
  8
BEM
 62
     0
370
    -2
100
AcDbLine
 10
207.7197382541683
 20
366.4802852769063
 30
0.0
 11
207.7197382541683
 21
228.6652814103916
 31
0.0
  0
LINE
  5
1BDB
330
1B8D
100
AcDbEntity
  8
BEM
 62
     0
370
    -2
100
AcDbLine
 10
700.7197382541682
 20
230.6652814103916
 30
0.0
 11
214.7197382541683
 21
230.6652814103916
 31
0.0
  0
SOLID
  5
1BDC
330
1B8D
100
AcDbEntity
  8
BEM
 62
     0
100
AcDbTrace
 10
700.7197382541682
 20
231.8319480770582
 30
0.0
 11
700.7197382541682
 21
229.4986147437249
 31
0.0
 12
707.7197382541681
 22
230.6652814103916
 32
0.0
 13
707.7197382541681
 23
230.6652814103916
 33
0.0
  0
SOLID
  5
1BDD
330
1B8D
100
AcDbEntity
  8
BEM
 62
     0
100
AcDbTrace
 10
214.7197382541683
 20
231.8319480770582
 30
0.0
 11
214.7197382541683
 21
229.4986147437249
 31
0.0
 12
207.7197382541683
 22
230.6652814103916
 32
0.0
 13
207.7197382541683
 23
230.6652814103916
 33
0.0
  0
MTEXT
  5
1BDE
330
1B8D
100
AcDbEntity
  8
BEM
 62
     1
100
AcDbMText
 10
457.7197382541682
 20
237.1652814103916
 30
0.0
 40
7.0
 41
0.0
 71
     5
 72
     1
  1
\A1;500
 73
     1
 44
1.0
  0
POINT
  5
1BDF
330
1B8D
100
AcDbEntity
  8
DEFPOINTS
 62
     0
100
AcDbPoint
 10
707.7197382541681
 20
264.8551719121655
 30
0.0
  0
POINT
  5
1BE0
330
1B8D
100
AcDbEntity
  8
DEFPOINTS
 62
     0
100
AcDbPoint
 10
207.7197382541683
 20
368.4802852769063
 30
0.0
  0
POINT
  5
1BE1
330
1B8D
100
AcDbEntity
  8
DEFPOINTS
 62
     0
100
AcDbPoint
 10
207.7197382541683
 20
230.6652814103916
 30
0.0
  0
ENDBLK
  5
1B98
330
1B8D
100
AcDbEntity
  8
0
100
AcDbBlockEnd
  0
BLOCK
  5
1BA4
330
1B9A
100
AcDbEntity
  8
0
100
AcDbBlockBegin
  2
*D4
 70
     1
 10
0.0
 20
0.0
 30
0.0
  3
*D4
  1

  0
LINE
  5
1BA6
330
1B9A
100
AcDbEntity
  8
BEM
 62
     0
370
    -2
100
AcDbLine
 10
699.719738254168
 20
352.9802852769063
 30
0.0
 11
729.0770133970793
 21
352.9802852769063
 31
0.0
  0
LINE
  5
1BA7
330
1B9A
100
AcDbEntity
  8
BEM
 62
     0
370
    -2
100
AcDbLine
 10
699.7197382541685
 20
263.9802852769063
 30
0.0
 11
729.0770133970793
 21
263.9802852769063
 31
0.0
  0
LINE
  5
1BA8
330
1B9A
100
AcDbEntity
  8
BEM
 62
     0
370
    -2
100
AcDbLine
 10
727.0770133970793
 20
345.9802852769063
 30
0.0
 11
727.0770133970793
 21
270.9802852769063
 31
0.0
  0
SOLID
  5
1BA9
330
1B9A
100
AcDbEntity
  8
BEM
 62
     0
100
AcDbTrace
 10
725.9103467304127
 20
345.9802852769063
 30
0.0
 11
728.243680063746
 21
345.9802852769063
 31
0.0
 12
727.0770133970793
 22
352.9802852769063
 32
0.0
 13
727.0770133970793
 23
352.9802852769063
 33
0.0
  0
SOLID
  5
1BAA
330
1B9A
100
AcDbEntity
  8
BEM
 62
     0
100
AcDbTrace
 10
725.9103467304127
 20
270.9802852769063
 30
0.0
 11
728.243680063746
 21
270.9802852769063
 31
0.0
 12
727.0770133970793
 22
263.9802852769063
 32
0.0
 13
727.0770133970793
 23
263.9802852769063
 33
0.0
  0
MTEXT
  5
1BAB
330
1B9A
100
AcDbEntity
  8
BEM
 62
     1
100
AcDbMText
 10
720.5770133970792
 20
308.4802852769064
 30
0.0
 40
7.0
 41
0.0
 71
     5
 72
     1
  1
\A1;%%c89
 11
0.0000000000000001
 21
1.0
 31
0.0
 73
     1
 44
1.0
  0
POINT
  5
1BAC
330
1B9A
100
AcDbEntity
  8
DEFPOINTS
 62
     0
100
AcDbPoint
 10
697.7197382541681
 20
352.9802852769063
 30
0.0
  0
POINT
  5
1BAD
330
1B9A
100
AcDbEntity
  8
DEFPOINTS
 62
     0
100
AcDbPoint
 10
697.7197382541685
 20
263.9802852769063
 30
0.0
  0
POINT
  5
1BAE
330
1B9A
100
AcDbEntity
  8
DEFPOINTS
 62
     0
100
AcDbPoint
 10
727.0770133970793
 20
263.9802852769063
 30
0.0
  0
ENDBLK
  5
1BA5
330
1B9A
100
AcDbEntity
  8
0
100
AcDbBlockEnd
  0
BLOCK
  5
1BC4
330
1BBE
100
AcDbEntity
  8
0
100
AcDbBlockBegin
  2
*D5
 70
     1
 10
0.0
 20
0.0
 30
0.0
  3
*D5
  1

  0
LINE
  5
1BBF
330
1BBE
100
AcDbEntity
  8
BEM
 62
     0
370
    -2
100
AcDbLine
 10
250.5025420756751
 20
349.8967997715159
 30
0.0
 11
231.6995515123207
 21
329.6016774432606
 31
0.0
  0
MTEXT
  5
1BC0
330
1BBE
100
AcDbEntity
  8
BEM
 62
     1
100
AcDbMText
 10
238.7116072218803
 20
346.734263913799
 30
0.0
 40
7.0
 41
0.0
 71
     5
 72
     1
  1
\A1;R60
 11
0.6796261649405201
 21
0.7335586383706766
 31
0.0
 73
     1
 44
1.0
  0
SOLID
  5
1BC1
330
1BBE
100
AcDbEntity
  8
BEM
 62
     0
100
AcDbTrace
 10
230.8437331008883
 20
330.3945746356912
 30
0.0
 11
232.5553699237531
 21
328.80878025083
 31
0.0
 12
226.9421683577371
 22
324.4667669746659
 32
0.0
 13
226.9421683577371
 23
324.4667669746659
 33
0.0
  0
POINT
  5
1BC2
330
1BBE
100
AcDbEntity
  8
DEFPOINTS
 62
     0
100
AcDbPoint
 10
226.9421683577371
 20
324.4667669746659
 30
0.0
  0
POINT
  5
1BC3
330
1BBE
100
AcDbEntity
  8
DEFPOINTS
 62
     0
100
AcDbPoint
 10
267.7197382541685
 20
368.4802852769065
 30
0.0
  0
ENDBLK
  5
1BC5
330
1BBE
100
AcDbEntity
  8
0
100
AcDbBlockEnd
  0
ENDSEC
  0
SECTION
  2
ENTITIES
  0
TEXT
  5
65F
330
1E
100
AcDbEntity
  8
TEXT
100
AcDbText
 10
470.6189005955859
 20
113.2854817854125
 30
0.0
 40
5.0
  1
Erstellt mit AUTO-CAD 12.0
 41
0.8
  7
GREEKS
100
AcDbText
  0
TEXT
  5
669
330
1E
100
AcDbEntity
  8
TEXT
100
AcDbText
 10
624.2889439602947
 20
62.81253886044971
 30
0.0
 40
4.0
  1
Koeh
 41
0.8
  7
GREEKS
 72
     1
 11
629.5460868174376
 21
62.81253886044971
 31
0.0
100
AcDbText
  0
TEXT
  5
66A
330
1E
100
AcDbEntity
  8
TEXT
100
AcDbText
 10
589.368594660766
 20
62.82173295359672
 30
0.0
 40
4.0
  1
16.05.
 41
0.8
  7
GREEKS
 72
     1
 11
596.0733565655279
 21
62.82173295359672
 31
0.0
100
AcDbText
  0
LINE
  5
66B
330
1E
100
AcDbEntity
  8
BEM
100
AcDbLine
 10
460.0000000000001
 20
584.0
 30
0.0
 11
460.0000000000001
 21
594.0
 31
0.0
  0
LINE
  5
66C
330
1E
100
AcDbEntity
  8
BEM
100
AcDbLine
 10
460.0000000000001
 20
0.0
 30
0.0
 11
460.0000000000001
 21
10.0
 31
0.0
  0
INSERT
  5
66D
330
1E
100
AcDbEntity
  8
STEMPEL
100
AcDbBlockReference
  2
LOGO
 10
568.9705276546529
 20
44.32391971867144
 30
0.0
 41
2.0
 42
2.0
 43
2.0
  0
TEXT
  5
66E
330
1E
100
AcDbEntity
  8
TEXT
100
AcDbText
 10
654.9713400534564
 20
42.1950457301354
 30
0.0
 40
4.0
  1
05042DM0W.DWG
 41
0.8
  7
GREEKS
100
AcDbText
  0
TEXT
  5
66F
330
1E
100
AcDbEntity
  8
TEXT
 62
     1
100
AcDbText
 10
765.7044394842364
 20
87.01863741763572
 30
0.0
 40
7.0
  1
05042DM0W
 41
0.8
  7
GREEKS
 72
     1
 11
790.3711061509031
 21
87.01863741763572
 31
0.0
100
AcDbText
  0
TEXT
  5
670
330
1E
100
AcDbEntity
  8
TEXT
100
AcDbText
 10
836.4132055378062
 20
10.5537806176784
 30
0.0
 40
4.0
  1
Diese Zeichnung ist urheberrechtlich geschützt und bleibt unser Eigentum. Sie darf weder ganz noch teilweise vervielfältigt und nicht an Dritte weitegegeben werden.
 50
90.0
  7
GREEKS
100
AcDbText
  0
TEXT
  5
671
330
1E
100
AcDbEntity
  8
TEXT
100
AcDbText
 10
655.162303158329
 20
52.75131145345461
 30
0.0
 40
5.0
  1
EDV-Art.Nr. 05042.DM0X
 41
0.8
  7
GREEKS
100
AcDbText
  0
TEXT
  5
672
330
1E
100
AcDbEntity
  8
TEXT
100
AcDbText
 10
654.862987254257
 20
72.29651127304094
 30
0.0
 40
5.0
  1
DN 100/80
 41
0.8
  7
GREEKS
100
AcDbText
  0
TEXT
  5
673
330
1E
100
AcDbEntity
  8
TEXT
 62
     1
100
AcDbText
 10
578.8064310364449
 20
86.22410504373215
 30
0.0
 40
7.0
  1
1:2
 41
0.8
  7
GREEKS
100
AcDbText
  0
TEXT
  5
674
330
1E
100
AcDbEntity
  8
TEXT
100
AcDbText
 10
570.7299860699794
 20
73.14583683904146
 30
0.0
 40
4.0
  1
2008
 41
0.8
  7
GREEKS
100
AcDbText
  0
LINE
  5
675
330
1E
100
AcDbEntity
  8
STEMPEL
100
AcDbLine
 10
40.0
 20
584.0
 30
0.0
 11
40.0
 21
10.0
 31
0.0
  0
LINE
  5
676
330
1E
100
AcDbEntity
  8
STEMPEL
100
AcDbLine
 10
830.0
 20
10.0
 30
0.0
 11
830.0
 21
584.0
 31
0.0
  0
LINE
  5
677
330
1E
100
AcDbEntity
  8
STEMPEL
100
AcDbLine
 10
40.0
 20
10.0
 30
0.0
 11
830.0
 21
10.0
 31
0.0
  0
LINE
  5
678
330
1E
100
AcDbEntity
  8
STEMPEL
100
AcDbLine
 10
830.0
 20
584.0
 30
0.0
 11
40.0
 21
584.0
 31
0.0
  0
LINE
  5
679
330
1E
100
AcDbEntity
  8
HILF
100
AcDbLine
 10
0.0
 20
594.0
 30
0.0
 11
0.0
 21
0.0
 31
0.0
  0
LINE
  5
67A
330
1E
100
AcDbEntity
  8
HILF
100
AcDbLine
 10
840.0000000000002
 20
594.0
 30
0.0
 11
0.0
 21
594.0
 31
0.0
  0
LINE
  5
67B
330
1E
100
AcDbEntity
  8
HILF
100
AcDbLine
 10
840.0000000000002
 20
0.0
 30
0.0
 11
840.0000000000002
 21
594.0
 31
0.0
  0
LINE
  5
67C
330
1E
100
AcDbEntity
  8
HILF
100
AcDbLine
 10
0.0
 20
0.0
 30
0.0
 11
840.0000000000002
 21
0.0
 31
0.0
  0
TEXT
  5
67D
330
1E
100
AcDbEntity
  8
TEXT
100
AcDbText
 10
757.2400861497007
 20
52.07416177878599
 30
0.0
 40
5.0
  1
ersetzt durch:
 41
0.8
  7
GREEKS
100
AcDbText
  0
TEXT
  5
67E
330
1E
100
AcDbEntity
  8
TEXT
100
AcDbText
 10
567.6006777387303
 20
43.52946389649804
 30
0.0
 40
4.0
  1
Norm.
 41
0.8
  7
GREEKS
100
AcDbText
  0
TEXT
  5
67F
330
1E
100
AcDbEntity
  8
TEXT
100
AcDbText
 10
567.5515086571671
 20
53.68926291428374
 30
0.0
 40
4.0
  1
Gepr.
 41
0.8
  7
GREEKS
100
AcDbText
  0
TEXT
  5
680
330
1E
100
AcDbEntity
  8
TEXT
100
AcDbText
 10
567.5836127167614
 20
63.62990369617961
 30
0.0
 40
4.0
  1
Gez.
 41
0.8
  7
GREEKS
100
AcDbText
  0
TEXT
  5
681
330
1E
100
AcDbEntity
  8
TEXT
100
AcDbText
 10
622.4626584226294
 20
73.30961091915219
 30
0.0
 40
4.0
  1
Name
 41
0.8
  7
GREEKS
100
AcDbText
  0
TEXT
  5
682
330
1E
100
AcDbEntity
  8
TEXT
100
AcDbText
 10
592.3311673153649
 20
73.31880501229921
 30
0.0
 40
4.0
  1
Tag
 41
0.8
  7
GREEKS
100
AcDbText
  0
TEXT
  5
683
330
1E
100
AcDbEntity
  8
TEXT
100
AcDbText
 10
548.220150471768
 20
18.59324216966405
 30
0.0
 40
4.0
  1
Name
 41
0.8
  7
GREEKS
100
AcDbText
  0
TEXT
  5
684
330
1E
100
AcDbEntity
  8
TEXT
100
AcDbText
 10
529.4723536997202
 20
18.67156269339807
 30
0.0
 40
4.0
  1
Tag
 41
0.8
  7
GREEKS
100
AcDbText
  0
TEXT
  5
685
330
1E
100
AcDbEntity
  8
TEXT
100
AcDbText
 10
478.2664110704574
 20
13.65465846027189
 30
0.0
 40
4.0
  1
Index
 50
90.0
 41
0.8
  7
GREEKS
100
AcDbText
  0
TEXT
  5
686
330
1E
100
AcDbEntity
  8
TEXT
100
AcDbText
 10
756.7238616296994
 20
73.18118237099963
 30
0.0
 40
5.0
  1
Ersatz für:
 41
0.8
  7
GREEKS
100
AcDbText
  0
TEXT
  5
687
330
1E
100
AcDbEntity
  8
TEXT
100
AcDbText
 10
654.7422383911358
 20
30.84560570193054
 30
0.0
 40
5.0
  1
Bauvorhaben
 41
0.8
  7
GREEKS
100
AcDbText
  0
TEXT
  5
688
330
1E
100
AcDbEntity
  8
TEXT
100
AcDbText
 10
756.1787549576341
 20
102.3132034537135
 30
0.0
 40
5.0
  1
Zeichnungs Nr.
 41
0.8
  7
GREEKS
100
AcDbText
  0
TEXT
  5
689
330
1E
100
AcDbEntity
  8
TEXT
100
AcDbText
 10
654.8779403809009
 20
102.5489328011779
 30
0.0
 40
5.0
  1
Benennung
 41
0.8
  7
GREEKS
100
AcDbText
  0
TEXT
  5
68A
330
1E
100
AcDbEntity
  8
TEXT
100
AcDbText
 10
617.9646614905597
 20
102.4184168434818
 30
0.0
 40
5.0
  1
zul.Abw.
 41
0.8
  7
GREEKS
100
AcDbText
  0
TEXT
  5
68B
330
1E
100
AcDbEntity
  8
TEXT
100
AcDbText
 10
573.5163572150375
 20
102.4620895087088
 30
0.0
 40
5.0
  1
Maßstab
 41
0.8
  7
GREEKS
100
AcDbText
  0
TEXT
  5
68C
330
1E
100
AcDbEntity
  8
TEXT
100
AcDbText
 10
492.3831816424238
 20
18.67381894984129
 30
0.0
 40
4.0
  1
Änderung
 41
0.8
  7
GREEKS
100
AcDbText
  0
LINE
  5
68D
330
1E
100
AcDbEntity
  8
HILF
100
AcDbLine
 10
654.7736801096947
 20
14.89398258028302
 30
0.0
 11
824.8588839326728
 21
14.89398258028302
 31
0.0
  0
LINE
  5
68E
330
1E
100
AcDbEntity
  8
HILF
100
AcDbLine
 10
756.7238616296994
 20
83.77983636955821
 30
0.0
 11
824.8588839326728
 21
83.77983636955821
 31
0.0
  0
LINE
  5
68F
330
1E
100
AcDbEntity
  8
VOLL
100
AcDbLine
 10
752.0000000000001
 20
60.0
 30
0.0
 11
830.0
 21
60.0
 31
0.0
  0
LINE
  5
690
330
1E
100
AcDbEntity
  8
HILF
100
AcDbLine
 10
654.7736801096947
 20
50.0
 30
0.0
 11
746.629784251481
 21
50.0
 31
0.0
  0
LINE
  5
691
330
1E
100
AcDbEntity
  8
HILF
100
AcDbLine
 10
654.7736801096947
 20
60.0
 30
0.0
 11
746.629784251481
 21
60.0
 31
0.0
  0
LINE
  5
692
330
1E
100
AcDbEntity
  8
HILF
100
AcDbLine
 10
654.7736801096947
 20
70.0
 30
0.0
 11
746.629784251481
 21
70.0
 31
0.0
  0
LINE
  5
693
330
1E
100
AcDbEntity
  8
HILF
100
AcDbLine
 10
654.7736801096947
 20
84.03758247564132
 30
0.0
 11
746.629784251481
 21
84.03758247564132
 31
0.0
  0
LINE
  5
694
330
1E
100
AcDbEntity
  8
HILF
100
AcDbLine
 10
566.0000000000001
 20
50.0
 30
0.0
 11
649.9999999999999
 21
50.0
 31
0.0
  0
LINE
  5
695
330
1E
100
AcDbEntity
  8
HILF
100
AcDbLine
 10
566.0000000000001
 20
60.0
 30
0.0
 11
649.9999999999999
 21
60.0
 31
0.0
  0
LINE
  5
696
330
1E
100
AcDbEntity
  8
HILF
100
AcDbLine
 10
566.0000000000001
 20
70.0
 30
0.0
 11
649.9999999999999
 21
70.0
 31
0.0
  0
LINE
  5
697
330
1E
100
AcDbEntity
  8
HILF
100
AcDbLine
 10
470.0
 20
40.0
 30
0.0
 11
566.0000000000001
 21
40.0
 31
0.0
  0
LINE
  5
698
330
1E
100
AcDbEntity
  8
HILF
100
AcDbLine
 10
470.0
 20
50.0
 30
0.0
 11
566.0000000000001
 21
50.0
 31
0.0
  0
LINE
  5
699
330
1E
100
AcDbEntity
  8
HILF
100
AcDbLine
 10
470.0
 20
60.0
 30
0.0
 11
566.0000000000001
 21
60.0
 31
0.0
  0
LINE
  5
69A
330
1E
100
AcDbEntity
  8
HILF
100
AcDbLine
 10
470.0
 20
70.0
 30
0.0
 11
566.0000000000001
 21
70.0
 31
0.0
  0
LINE
  5
69B
330
1E
100
AcDbEntity
  8
HILF
100
AcDbLine
 10
470.0
 20
80.0
 30
0.0
 11
566.0000000000001
 21
80.0
 31
0.0
  0
LINE
  5
69C
330
1E
100
AcDbEntity
  8
HILF
100
AcDbLine
 10
470.0
 20
90.0
 30
0.0
 11
566.0000000000001
 21
90.0
 31
0.0
  0
LINE
  5
69D
330
1E
100
AcDbEntity
  8
HILF
100
AcDbLine
 10
470.0
 20
100.0
 30
0.0
 11
566.0000000000001
 21
100.0
 31
0.0
  0
LINE
  5
69E
330
1E
100
AcDbEntity
  8
VOLL
100
AcDbLine
 10
610.0000000000001
 20
109.9999999999998
 30
0.0
 11
609.9999999999998
 21
40.0
 31
0.0
  0
LINE
  5
69F
330
1E
100
AcDbEntity
  8
VOLL
100
AcDbLine
 10
584.0000000000001
 20
80.0
 30
0.0
 11
584.0000000000001
 21
40.0
 31
0.0
  0
LINE
  5
6A0
330
1E
100
AcDbEntity
  8
VOLL
100
AcDbLine
 10
544.0000000000001
 20
109.9999999999999
 30
0.0
 11
543.9999999999998
 21
9.999999999999886
 31
0.0
  0
LINE
  5
6A1
330
1E
100
AcDbEntity
  8
VOLL
100
AcDbLine
 10
524.0000000000001
 20
109.9999999999999
 30
0.0
 11
523.9999999999999
 21
9.999999999999943
 31
0.0
  0
LINE
  5
6A2
330
1E
100
AcDbEntity
  8
VOLL
100
AcDbLine
 10
484.0
 20
110.0
 30
0.0
 11
483.9999999999998
 21
10.0
 31
0.0
  0
LINE
  5
6A3
330
1E
100
AcDbEntity
  8
STEMPEL
100
AcDbLine
 10
830.0
 20
80.0
 30
0.0
 11
566.0000000000001
 21
80.0
 31
0.0
  0
LINE
  5
6A4
330
1E
100
AcDbEntity
  8
STEMPEL
100
AcDbLine
 10
830.0
 20
40.0
 30
0.0
 11
565.9999999999999
 21
40.0
 31
0.0
  0
LINE
  5
6A5
330
1E
100
AcDbEntity
  8
STEMPEL
100
AcDbLine
 10
565.9999999999999
 20
30.0
 30
0.0
 11
469.9999999999999
 21
30.0
 31
0.0
  0
LINE
  5
6A6
330
1E
100
AcDbEntity
  8
STEMPEL
100
AcDbLine
 10
752.0000000000001
 20
109.9999999999996
 30
0.0
 11
752.0000000000001
 21
40.0
 31
0.0
  0
LINE
  5
6A7
330
1E
100
AcDbEntity
  8
STEMPEL
100
AcDbLine
 10
649.9999999999999
 20
110.0
 30
0.0
 11
649.9999999999999
 21
10.0
 31
0.0
  0
LINE
  5
6A8
330
1E
100
AcDbEntity
  8
STEMPEL
100
AcDbLine
 10
566.0000000000001
 20
109.9999999999999
 30
0.0
 11
565.9999999999999
 21
9.999999999999886
 31
0.0
  0
LINE
  5
6A9
330
1E
100
AcDbEntity
  8
STEMPEL
100
AcDbLine
 10
470.0
 20
110.0
 30
0.0
 11
469.9999999999999
 21
10.0
 31
0.0
  0
LINE
  5
6AA
330
1E
100
AcDbEntity
  8
STEMPEL
100
AcDbLine
 10
830.0
 20
110.0
 30
0.0
 11
470.0
 21
110.0
 31
0.0
  0
TEXT
  5
6AB
330
1E
100
AcDbEntity
  8
TEXT
 62
     1
100
AcDbText
 10
654.979117340995
 20
86.99412083985322
 30
0.0
 40
7.0
  1
LORO-Anschlußbogen
 41
0.8
  7
GREEKS
100
AcDbText
  0
TEXT
  5
A44
330
1E
100
AcDbEntity
  8
TEXT
 62
     1
100
AcDbText
 10
532.7243095424602
 20
318.5078726668365
 30
0.0
 40
7.0
  1
DN80
 41
0.8
  7
GREEKS
100
AcDbText
  0
TEXT
  5
A45
330
1E
100
AcDbEntity
  8
TEXT
 62
     1
100
AcDbText
 10
202.1682640599526
 20
418.5927566732299
 30
0.0
 40
7.0
  1
DN100
 50
90.0
 41
0.8
  7
GREEKS
100
AcDbText
  0
TEXT
  5
A46
330
1E
100
AcDbEntity
  8
TEXT
100
AcDbText
 10
613.0623689738784
 20
88.90224593904305
 30
0.0
 40
4.0
  1
DIN EN1123-2
 41
0.8
  7
GREEKS
 72
     1
 11
630.0528451643546
 21
88.90224593904305
 31
0.0
100
AcDbText
  0
TEXT
  5
A50
330
1E
100
AcDbEntity
  8
TEXT
 62
     1
100
AcDbText
 10
664.6057658946467
 20
129.0783465745482
 30
0.0
 40
7.0
  1
und innen beschichtet
 41
0.8
  7
GREEKS
100
AcDbText
  0
TEXT
  5
A51
330
1E
100
AcDbEntity
  8
TEXT
 62
     1
100
AcDbText
 10
616.656048457249
 20
139.8004583895517
 30
0.0
 40
7.0
  1
Werkstoff: E195 EN10305 feuerverzinkt
 41
0.8
  7
GREEKS
100
AcDbText
  0
HATCH
  5
1A5C
330
1E
100
AcDbEntity
  8
SCHRAFF
100
AcDbHatch
 10
0.0
 20
0.0
 30
0.0
210
0.0
220
0.0
230
1.0
  2
_USER
 70
     0
 71
     1
 91
        2
 92
        7
 72
     0
 73
     1
 93
        6
 10
697.6498807455159
 20
351.3802852769061
 10
707.7197382541684
 20
350.4992869015776
 10
707.7197382541683
 20
352.1053986416471
 10
697.7197382541686
 20
352.9802852769063
 10
347.7197382541685
 20
352.9802852769063
 10
347.7197382541685
 20
351.3802852769063
 97
        6
330
1AA9
330
1A60
330
1A66
330
1A5D
330
1AA8
330
1AA5
 92
        7
 72
     0
 73
     1
 93
        6
 10
347.7197382541683
 20
265.5802852769062
 10
347.7197382541684
 20
263.9802852769063
 10
697.7197382541681
 20
263.9802852769063
 10
707.7197382541683
 20
264.8551719121656
 10
707.7197382541683
 20
266.4612836522348
 10
697.6498807455148
 20
265.5802852769062
 97
        6
330
1AA6
330
1A5E
330
1A66
330
1A5F
330
1AA7
330
1AA5
 75
     0
 76
     0
 52
135.0
 41
2.0
 77
     0
 78
     1
 53
135.0
 43
-19.01998711964685
 44
12.81727607366673
 45
-1.414213562373095
 46
-1.414213562373094
 79
     0
 47
0.5570999331984034
 98
        2
 10
475.0741969001849
 20
351.9889922045256
 10
477.3041788917932
 20
265.0814017344332
  0
LINE
  5
1A5D
102
{ACAD_REACTORS
330
1A62
330
1A5C
102
}
330
1E
100
AcDbEntity
  8
STEMPEL
100
AcDbLine
 10
267.7197382541684
 20
351.3802852769063
 30
0.0
 11
697.6498807455153
 21
351.3802852769062
 31
0.0
  0
LINE
  5
1A5E
102
{ACAD_REACTORS
330
1A62
330
1A5C
102
}
330
1E
100
AcDbEntity
  8
STEMPEL
100
AcDbLine
 10
267.7197382541684
 20
265.5802852769062
 30
0.0
 11
697.6498807455144
 21
265.5802852769062
 31
0.0
  0
LINE
  5
1A5F
102
{ACAD_REACTORS
330
1A62
330
1A5C
330
1A67
102
}
330
1E
100
AcDbEntity
  8
STEMPEL
100
AcDbLine
 10
267.7197382541684
 20
263.9802852769063
 30
0.0
 11
697.7197382541685
 21
263.9802852769063
 31
0.0
  0
LINE
  5
1A60
102
{ACAD_REACTORS
330
1A62
330
1A5C
330
1AA2
102
}
330
1E
100
AcDbEntity
  8
STEMPEL
100
AcDbLine
 10
267.7197382541684
 20
352.9802852769063
 30
0.0
 11
697.7197382541681
 21
352.9802852769063
 31
0.0
  0
LINE
  5
1A61
330
1E
100
AcDbEntity
  8
MITTEL
100
AcDbLine
 10
712.7197382541684
 20
308.4802852769063
 30
0.0
 11
267.7197382541683
 21
308.4802852769063
 31
0.0
  0
HATCH
  5
1A62
330
1E
100
AcDbEntity
  8
SCHRAFF
100
AcDbHatch
 10
0.0
 20
0.0
 30
0.0
210
0.0
220
0.0
230
1.0
  2
_USER
 70
     0
 71
     1
 91
        2
 92
        7
 72
     1
 73
     1
 93
        6
 10
267.7197382541683
 20
352.9802852769063
 42
-0.4142135623730973
 10
252.2197382541683
 20
368.4802852769064
 42
0.0
 10
250.6197382541683
 20
368.4802852769064
 42
0.4142135623730972
 10
267.7197382541683
 20
351.3802852769063
 42
0.0
 10
347.7197382541685
 20
351.3802852769063
 42
0.0
 10
347.7197382541685
 20
352.9802852769063
 42
0.0
 97
        6
330
1A60
330
1A80
330
1A71
330
1A7F
330
1A5D
330
1A66
 92
        7
 72
     1
 73
     1
 93
        6
 10
164.8197382541683
 20
368.4802852769063
 42
0.0
 10
163.2197382541683
 20
368.4802852769063
 42
0.4142135623730954
 10
267.7197382541683
 20
263.9802852769063
 42
0.0
 10
347.7197382541684
 20
263.9802852769063
 42
0.0
 10
347.7197382541684
 20
265.5802852769062
 42
0.0
 10
267.7197382541682
 20
265.5802852769062
 42
-0.4142135623730951
 97
        6
330
1A5E
330
1A63
330
1A71
330
1A64
330
1A5F
330
1A66
 75
     0
 76
     0
 52
45.0
 41
2.0
 77
     0
 78
     1
 53
45.0
 43
-19.01998711964685
 44
12.81727607366673
 45
-1.414213562373094
 46
1.414213562373095
 79
     0
 47
0.3286895550823292
 98
        2
 10
273.4824098687138
 20
352.521095732814
 10
265.9171816201904
 20
265.4183630592149
  0
ARC
  5
1A63
102
{ACAD_REACTORS
330
1A62
102
}
330
1E
100
AcDbEntity
  8
STEMPEL
100
AcDbCircle
 10
267.7197382541683
 20
368.4802852769063
 30
0.0
 40
102.9
100
AcDbArc
 50
180.0
 51
270.0
  0
ARC
  5
1A64
102
{ACAD_REACTORS
330
1A62
330
1A76
102
}
330
1E
100
AcDbEntity
  8
STEMPEL
100
AcDbCircle
 10
267.7197382541683
 20
368.4802852769063
 30
0.0
 40
104.5
100
AcDbArc
 50
180.0
 51
270.0
  0
ARC
  5
1A65
330
1E
100
AcDbEntity
  8
MITTEL
100
AcDbCircle
 10
267.7197382541683
 20
368.4802852769063
 30
0.0
 40
60.0
100
AcDbArc
 50
180.0
 51
270.0
  0
LINE
  5
1A66
102
{ACAD_REACTORS
330
1A62
330
1A5C
102
}
330
1E
100
AcDbEntity
  8
STEMPEL
100
AcDbLine
 10
347.7197382541685
 20
352.9802852769063
 30
0.0
 11
347.7197382541684
 21
263.9802852769063
 31
0.0
  0
HATCH
  5
1A67
330
1E
100
AcDbEntity
  8
SCHRAFF
100
AcDbHatch
 10
0.0
 20
0.0
 30
0.0
210
0.0
220
0.0
230
1.0
  2
_USER
 70
     0
 71
     1
 91
        1
 92
        7
 72
     1
 73
     1
 93
        2
 10
350.7197382541683
 20
263.9802852769063
 42
0.0
 10
344.7197382541684
 20
263.9802852769063
 42
0.5269622432872382
 97
        2
330
1A5F
330
1A68
 75
     0
 76
     0
 52
0.0
 41
0.1
 77
     0
 78
     1
 53
0.0
 43
-19.01998711964685
 44
12.81727607366673
 45
0.0
 46
0.1
 79
     0
 47
0.0704334751127982
 98
        1
 10
347.9764228648912
 20
263.5706589905087
  0
ARC
  5
1A68
102
{ACAD_REACTORS
330
1A67
102
}
330
1E
100
AcDbEntity
  8
SCHRAFF
100
AcDbCircle
 10
347.7197382541684
 20
266.0363456588906
 30
0.0
 40
3.636947111846101
100
AcDbArc
 50
214.4249251170938
 51
325.5750748829062
  0
LINE
  5
1A6E
330
1E
100
AcDbEntity
  8
MITTEL
100
AcDbLine
 10
207.7197382541683
 20
368.4802852769063
 30
0.0
 11
207.7197382541683
 21
458.4802852769063
 31
0.0
  0
LINE
  5
1A6F
330
1E
100
AcDbEntity
  8
STEMPEL
100
AcDbLine
 10
164.7719662544008
 20
369.7414705270952
 30
0.0
 11
250.6675102539358
 21
369.7414705270952
 31
0.0
  0
LINE
  5
1A71
102
{ACAD_REACTORS
330
1A62
102
}
330
1E
100
AcDbEntity
  8
STEMPEL
100
AcDbLine
 10
163.2197382541683
 20
368.4802852769063
 30
0.0
 11
252.2197382541683
 21
368.4802852769064
 31
0.0
  0
ARC
  5
1A74
102
{ACAD_REACTORS
330
1B3B
102
}
330
1E
100
AcDbEntity
  8
STEMPEL
100
AcDbCircle
 10
148.7197382541684
 20
377.4462927570382
 30
0.0
 40
8.0
100
AcDbArc
 50
5.044334289438896
 51
34.30115275679173
  0
ARC
  5
1A75
102
{ACAD_REACTORS
330
1B3B
102
}
330
1E
100
AcDbEntity
  8
STEMPEL
100
AcDbCircle
 10
148.7197382541684
 20
377.4462927570382
 30
0.0
 40
10.0
100
AcDbArc
 50
5.044334289438896
 51
34.3011527567916
  0
HATCH
  5
1A76
330
1E
100
AcDbEntity
  8
SCHRAFF
100
AcDbHatch
 10
0.0
 20
0.0
 30
0.0
210
0.0
220
0.0
230
1.0
  2
_USER
 70
     0
 71
     1
 91
        1
 92
        7
 72
     1
 73
     1
 93
        3
 10
163.2197382541683
 20
368.4802852769063
 42
0.0
 10
161.3279603788849
 20
370.8086272772551
 42
0.3343705509867658
 10
163.2628004551252
 20
365.480594351686
 42
-0.0071774032185431
 97
        3
330
1A78
330
1A77
330
1A64
 75
     0
 76
     0
 52
0.0
 41
0.1
 77
     0
 78
     1
 53
0.0
 43
-19.01998711964685
 44
12.81727607366673
 45
0.0
 46
0.1
 79
     0
 47
0.0522685228479819
 98
        1
 10
162.3666892767685
 20
367.2504190732645
  0
ARC
  5
1A77
102
{ACAD_REACTORS
330
1A76
102
}
330
1E
100
AcDbEntity
  8
SCHRAFF
100
AcDbCircle
 10
165.8336251138898
 20
369.4295010797361
 30
0.0
 40
4.71200634262633
100
AcDbArc
 50
162.981322205283
 51
236.9349923827446
  0
LINE
  5
1A78
102
{ACAD_REACTORS
330
1A76
330
1B3B
102
}
330
1E
100
AcDbEntity
  8
STEMPEL
100
AcDbLine
 10
163.2197382541683
 20
368.4802852769063
 30
0.0
 11
158.0088317012952
 21
374.8937087265962
 31
0.0
  0
LINE
  5
1A79
102
{ACAD_REACTORS
330
1B3B
102
}
330
1E
100
AcDbEntity
  8
STEMPEL
100
AcDbLine
 10
164.7719662544008
 20
369.7414705270952
 30
0.0
 11
159.5610597015277
 21
376.1548939767852
 31
0.0
  0
ARC
  5
1A7A
102
{ACAD_REACTORS
330
1B3B
102
}
330
1E
100
AcDbEntity
  8
STEMPEL
100
AcDbCircle
 10
162.6655157019927
 20
378.6772644771631
 30
0.0
 40
6.0
100
AcDbArc
 50
185.0443342894389
 51
219.0938588862312
  0
ARC
  5
1A7B
102
{ACAD_REACTORS
330
1B3B
102
}
330
1E
100
AcDbEntity
  8
STEMPEL
100
AcDbCircle
 10
162.6655157019927
 20
378.6772644771631
 30
0.0
 40
4.0
100
AcDbArc
 50
185.0443342894389
 51
219.0938588862312
  0
LINE
  5
1A7C
102
{ACAD_REACTORS
330
1B3B
102
}
330
1E
100
AcDbEntity
  8
STEMPEL
100
AcDbLine
 10
164.7719662544008
 20
369.7414705270952
 30
0.0
 11
163.2197382541683
 21
368.4802852769063
 31
0.0
  0
ARC
  5
1A7F
102
{ACAD_REACTORS
330
1A62
102
}
330
1E
100
AcDbEntity
  8
STEMPEL
100
AcDbCircle
 10
267.7197382541683
 20
368.4802852769063
 30
0.0
 40
17.1
100
AcDbArc
 50
180.0
 51
270.0
  0
ARC
  5
1A80
102
{ACAD_REACTORS
330
1A62
330
1A83
102
}
330
1E
100
AcDbEntity
  8
STEMPEL
100
AcDbCircle
 10
267.7197382541683
 20
368.4802852769063
 30
0.0
 40
15.5
100
AcDbArc
 50
180.0
 51
270.0
  0
ARC
  5
1A81
102
{ACAD_REACTORS
330
1B3B
102
}
330
1E
100
AcDbEntity
  8
STEMPEL
100
AcDbCircle
 10
266.7197382541684
 20
377.4462927570382
 30
0.0
 40
10.0
100
AcDbArc
 50
145.6988472432088
 51
174.9556657105611
  0
ARC
  5
1A82
102
{ACAD_REACTORS
330
1B3B
102
}
330
1E
100
AcDbEntity
  8
STEMPEL
100
AcDbCircle
 10
266.7197382541684
 20
377.4462927570382
 30
0.0
 40
8.0
100
AcDbArc
 50
145.6988472432087
 51
174.9556657105611
  0
HATCH
  5
1A83
330
1E
100
AcDbEntity
  8
SCHRAFF
100
AcDbHatch
 10
0.0
 20
0.0
 30
0.0
210
0.0
220
0.0
230
1.0
  2
_USER
 70
     0
 71
     1
 91
        1
 92
        7
 72
     1
 73
     1
 93
        3
 10
254.1115161294517
 20
370.8086272772551
 42
0.0
 10
252.2197382541683
 20
368.4802852769063
 42
0.0452799582942185
 10
252.4729330055529
 20
365.6901365871775
 42
0.3130945988083795
 97
        3
330
1A86
330
1A80
330
1A84
 75
     0
 76
     0
 52
0.0
 41
0.1
 77
     0
 78
     1
 53
0.0
 43
-19.01998711964685
 44
12.81727607366673
 45
0.0
 46
0.1
 79
     0
 47
0.0327588571599183
 98
        1
 10
253.2547064529265
 20
367.5305053022439
  0
ARC
  5
1A84
102
{ACAD_REACTORS
330
1A83
102
}
330
1E
100
AcDbEntity
  8
SCHRAFF
100
AcDbCircle
 10
249.6058513944467
 20
369.4295010797361
 30
0.0
 40
4.71200634262633
100
AcDbArc
 50
307.4784521094642
 51
17.01867779471697
  0
LINE
  5
1A85
102
{ACAD_REACTORS
330
1B3B
102
}
330
1E
100
AcDbEntity
  8
STEMPEL
100
AcDbLine
 10
250.6675102539358
 20
369.7414705270952
 30
0.0
 11
255.8784168068089
 21
376.1548939767852
 31
0.0
  0
LINE
  5
1A86
102
{ACAD_REACTORS
330
1A83
330
1B3B
102
}
330
1E
100
AcDbEntity
  8
STEMPEL
100
AcDbLine
 10
252.2197382541683
 20
368.4802852769063
 30
0.0
 11
257.4306448070414
 21
374.8937087265962
 31
0.0
  0
LINE
  5
1A87
102
{ACAD_REACTORS
330
1B3B
102
}
330
1E
100
AcDbEntity
  8
STEMPEL
100
AcDbLine
 10
250.6675102539358
 20
369.7414705270952
 30
0.0
 11
252.2197382541683
 21
368.4802852769063
 31
0.0
  0
ARC
  5
1A88
102
{ACAD_REACTORS
330
1B3B
102
}
330
1E
100
AcDbEntity
  8
STEMPEL
100
AcDbCircle
 10
252.7739608063438
 20
378.6772644771631
 30
0.0
 40
6.0
100
AcDbArc
 50
320.9061411137688
 51
354.9556657105611
  0
ARC
  5
1A89
102
{ACAD_REACTORS
330
1B3B
102
}
330
1E
100
AcDbEntity
  8
STEMPEL
100
AcDbCircle
 10
252.7739608063438
 20
378.6772644771631
 30
0.0
 40
4.0
100
AcDbArc
 50
320.9061411137688
 51
354.9556657105611
  0
LINE
  5
1A8C
102
{ACAD_REACTORS
330
1B3B
102
}
330
1E
100
AcDbEntity
  8
STEMPEL
100
AcDbLine
 10
152.0129824162433
 20
453.4802852769063
 30
0.0
 11
263.4264940920933
 21
453.4802852769063
 31
0.0
  0
HATCH
  5
1AA2
330
1E
100
AcDbEntity
  8
SCHRAFF
100
AcDbHatch
 10
0.0
 20
0.0
 30
0.0
210
0.0
220
0.0
230
1.0
  2
_USER
 70
     0
 71
     1
 91
        1
 92
        7
 72
     1
 73
     1
 93
        2
 10
344.7197382541684
 20
352.9802852769063
 42
0.0
 10
350.7197382541686
 20
352.9802852769063
 42
0.3931748009213928
 97
        2
330
1A60
330
1AA3
 75
     0
 76
     0
 52
0.0
 41
0.1
 77
     0
 78
     1
 53
0.0
 43
-19.01998711964685
 44
12.81727607366673
 45
0.0
 46
0.1
 79
     0
 47
0.0770691609136296
 98
        1
 10
346.9207164119036
 20
353.2804506713978
  0
ARC
  5
1AA3
102
{ACAD_REACTORS
330
1AA2
102
}
330
1E
100
AcDbEntity
  8
SCHRAFF
100
AcDbCircle
 10
347.7197382541684
 20
349.7549504871159
 30
0.0
 40
4.404859192554539
100
AcDbArc
 50
47.07299668756631
 51
132.9270033124337
  0
LINE
  5
1AA4
330
1E
100
AcDbEntity
  8
HILF
100
AcDbLine
 10
697.7197382541685
 20
267.192508757045
 30
0.0
 11
697.7197382541682
 21
349.7680617967676
 31
0.0
  0
LINE
  5
1AA5
102
{ACAD_REACTORS
330
1A5C
102
}
330
1E
100
AcDbEntity
  8
STEMPEL
100
AcDbLine
 10
707.7197382541681
 20
264.8551719121655
 30
0.0
 11
707.7197382541683
 21
352.105398641647
 31
0.0
  0
LINE
  5
1AA6
102
{ACAD_REACTORS
330
1A5C
102
}
330
1E
100
AcDbEntity
  8
STEMPEL
100
AcDbLine
 10
697.6498807455144
 20
265.5802852769062
 30
0.0
 11
707.719738254168
 21
266.4612836522348
 31
0.0
  0
LINE
  5
1AA7
102
{ACAD_REACTORS
330
1A5C
102
}
330
1E
100
AcDbEntity
  8
STEMPEL
100
AcDbLine
 10
697.7197382541683
 20
263.9802852769063
 30
0.0
 11
707.7197382541681
 21
264.8551719121656
 31
0.0
  0
LINE
  5
1AA8
102
{ACAD_REACTORS
330
1A5C
102
}
330
1E
100
AcDbEntity
  8
STEMPEL
100
AcDbLine
 10
697.6498807455153
 20
351.3802852769062
 30
0.0
 11
707.719738254168
 21
350.4992869015777
 31
0.0
  0
LINE
  5
1AA9
102
{ACAD_REACTORS
330
1A5C
102
}
330
1E
100
AcDbEntity
  8
STEMPEL
100
AcDbLine
 10
697.7197382541681
 20
352.9802852769063
 30
0.0
 11
707.7197382541681
 21
352.105398641647
 31
0.0
  0
LINE
  5
1ADD
330
1E
100
AcDbEntity
  8
HILF
100
AcDbLine
 10
156.3811396492465
 20
409.2545037091801
 30
0.0
 11
259.0583368590901
 21
409.2545037091801
 31
0.0
  0
LINE
  5
1AE3
102
{ACAD_REACTORS
330
1B3B
102
}
330
1E
100
AcDbEntity
  8
STEMPEL
100
AcDbLine
 10
260.7197382541683
 20
405.9800847462248
 30
0.0
 11
260.7197382541683
 21
390.4077741538539
 31
0.0
  0
LINE
  5
1AE4
102
{ACAD_REACTORS
330
1B3B
102
}
330
1E
100
AcDbEntity
  8
STEMPEL
100
AcDbLine
 10
262.7197382541683
 20
405.9802852769063
 30
0.0
 11
262.7197382541683
 21
390.4077741538539
 31
0.0
  0
LINE
  5
1AE5
102
{ACAD_REACTORS
330
1B3B
102
}
330
1E
100
AcDbEntity
  8
STEMPEL
100
AcDbLine
 10
264.7197382541683
 20
440.8755338143352
 30
0.0
 11
264.7197382541683
 21
422.7132852769062
 31
0.0
  0
LINE
  5
1AE6
102
{ACAD_REACTORS
330
1B3B
102
}
330
1E
100
AcDbEntity
  8
STEMPEL
100
AcDbLine
 10
266.7197382541683
 20
440.8755338143352
 30
0.0
 11
266.7197382541683
 21
422.7134858075879
 31
0.0
  0
LINE
  5
1AE7
102
{ACAD_REACTORS
330
1B3B
102
}
330
1E
100
AcDbEntity
  8
STEMPEL
100
AcDbLine
 10
261.2197382541683
 20
453.4802852769063
 30
0.0
 11
262.5648173560112
 21
450.5957538343714
 31
0.0
  0
LINE
  5
1AE8
102
{ACAD_REACTORS
330
1B3B
102
}
330
1E
100
AcDbEntity
  8
STEMPEL
100
AcDbLine
 10
263.4264940920933
 20
453.4802852769064
 30
0.0
 11
264.3774329300846
 21
451.4409903578523
 31
0.0
  0
ARC
  5
1AEB
102
{ACAD_REACTORS
330
1B3B
102
}
330
1E
100
AcDbEntity
  8
STEMPEL
100
AcDbCircle
 10
247.7197382541683
 20
390.4077741538539
 30
0.0
 40
13.0
100
AcDbArc
 50
325.6988472432086
 51
0.0
  0
ARC
  5
1AEC
102
{ACAD_REACTORS
330
1B3B
102
}
330
1E
100
AcDbEntity
  8
STEMPEL
100
AcDbCircle
 10
247.7197382541683
 20
390.4077741538539
 30
0.0
 40
15.0
100
AcDbArc
 50
325.6988472432086
 51
0.0
  0
ARC
  5
1AED
102
{ACAD_REACTORS
330
1B3B
102
}
330
1E
100
AcDbEntity
  8
STEMPEL
100
AcDbCircle
 10
274.7197382541683
 20
405.9802852769063
 30
0.0
 40
12.0
100
AcDbArc
 50
153.1119523822753
 51
180.0
  0
ARC
  5
1AEE
102
{ACAD_REACTORS
330
1B3B
102
}
330
1E
100
AcDbEntity
  8
STEMPEL
100
AcDbCircle
 10
274.7197382541683
 20
405.9800847462248
 30
0.0
 40
14.0
100
AcDbArc
 50
153.1119523822753
 51
180.0
  0
ARC
  5
1AEF
102
{ACAD_REACTORS
330
1B3B
102
}
330
1E
100
AcDbEntity
  8
STEMPEL
100
AcDbCircle
 10
241.7197382541683
 20
422.7132852769062
 30
0.0
 40
23.0
100
AcDbArc
 50
333.1119523822754
 51
0.0
  0
ARC
  5
1AF0
102
{ACAD_REACTORS
330
1B3B
102
}
330
1E
100
AcDbEntity
  8
STEMPEL
100
AcDbCircle
 10
241.7197382541683
 20
422.7134858075879
 30
0.0
 40
25.0
100
AcDbArc
 50
333.1119523822754
 51
0.0
  0
ARC
  5
1AF1
102
{ACAD_REACTORS
330
1B3B
102
}
330
1E
100
AcDbEntity
  8
STEMPEL
100
AcDbCircle
 10
241.7197382541683
 20
440.8755338143352
 30
0.0
 40
25.0
100
AcDbArc
 50
0.0
 51
24.99999999999935
  0
ARC
  5
1AF2
102
{ACAD_REACTORS
330
1B3B
102
}
330
1E
100
AcDbEntity
  8
STEMPEL
100
AcDbCircle
 10
241.7197382541683
 20
440.8755338143352
 30
0.0
 40
23.0
100
AcDbArc
 50
0.0
 51
24.99999999999935
  0
ARC
  5
1AF3
102
{ACAD_REACTORS
330
1B3B
102
}
330
1E
100
AcDbEntity
  8
STEMPEL
100
AcDbCircle
 10
173.7197382541683
 20
440.8755338143352
 30
0.0
 40
23.0
100
AcDbArc
 50
155.0000000000006
 51
180.0
  0
ARC
  5
1AF4
102
{ACAD_REACTORS
330
1B3B
102
}
330
1E
100
AcDbEntity
  8
STEMPEL
100
AcDbCircle
 10
173.7197382541683
 20
440.8755338143352
 30
0.0
 40
25.0
100
AcDbArc
 50
155.0000000000006
 51
180.0
  0
ARC
  5
1AF5
102
{ACAD_REACTORS
330
1B3B
102
}
330
1E
100
AcDbEntity
  8
STEMPEL
100
AcDbCircle
 10
173.7197382541683
 20
422.7134858075879
 30
0.0
 40
25.0
100
AcDbArc
 50
180.0
 51
206.8880476177246
  0
ARC
  5
1AF6
102
{ACAD_REACTORS
330
1B3B
102
}
330
1E
100
AcDbEntity
  8
STEMPEL
100
AcDbCircle
 10
173.7197382541683
 20
422.7132852769062
 30
0.0
 40
23.0
100
AcDbArc
 50
180.0
 51
206.8880476177246
  0
ARC
  5
1AF7
102
{ACAD_REACTORS
330
1B3B
102
}
330
1E
100
AcDbEntity
  8
STEMPEL
100
AcDbCircle
 10
140.7197382541682
 20
405.9800847462248
 30
0.0
 40
14.0
100
AcDbArc
 50
0.0
 51
26.88804761772463
  0
ARC
  5
1AF8
102
{ACAD_REACTORS
330
1B3B
102
}
330
1E
100
AcDbEntity
  8
STEMPEL
100
AcDbCircle
 10
140.7197382541683
 20
405.9802852769063
 30
0.0
 40
12.0
100
AcDbArc
 50
0.0
 51
26.88804761772463
  0
ARC
  5
1AF9
102
{ACAD_REACTORS
330
1B3B
102
}
330
1E
100
AcDbEntity
  8
STEMPEL
100
AcDbCircle
 10
167.7197382541683
 20
390.4077741538539
 30
0.0
 40
15.0
100
AcDbArc
 50
180.0
 51
214.3011527567915
  0
ARC
  5
1AFA
102
{ACAD_REACTORS
330
1B3B
102
}
330
1E
100
AcDbEntity
  8
STEMPEL
100
AcDbCircle
 10
167.7197382541683
 20
390.4077741538539
 30
0.0
 40
13.0
100
AcDbArc
 50
180.0
 51
214.3011527567918
  0
LINE
  5
1AFD
102
{ACAD_REACTORS
330
1B3B
102
}
330
1E
100
AcDbEntity
  8
STEMPEL
100
AcDbLine
 10
152.0129824162433
 20
453.4802852769064
 30
0.0
 11
151.0620435782518
 21
451.4409903578523
 31
0.0
  0
LINE
  5
1AFE
102
{ACAD_REACTORS
330
1B3B
102
}
330
1E
100
AcDbEntity
  8
STEMPEL
100
AcDbLine
 10
154.2197382541683
 20
453.4802852769063
 30
0.0
 11
152.8746591523253
 21
450.5957538343714
 31
0.0
  0
LINE
  5
1AFF
102
{ACAD_REACTORS
330
1B3B
102
}
330
1E
100
AcDbEntity
  8
STEMPEL
100
AcDbLine
 10
148.7197382541683
 20
440.8755338143352
 30
0.0
 11
148.7197382541683
 21
422.7134858075879
 31
0.0
  0
LINE
  5
1B00
102
{ACAD_REACTORS
330
1B3B
102
}
330
1E
100
AcDbEntity
  8
STEMPEL
100
AcDbLine
 10
150.7197382541683
 20
440.8755338143352
 30
0.0
 11
150.7197382541683
 21
422.7132852769062
 31
0.0
  0
LINE
  5
1B01
102
{ACAD_REACTORS
330
1B3B
102
}
330
1E
100
AcDbEntity
  8
STEMPEL
100
AcDbLine
 10
152.7197382541683
 20
405.9802852769063
 30
0.0
 11
152.7197382541683
 21
390.4077741538539
 31
0.0
  0
LINE
  5
1B02
102
{ACAD_REACTORS
330
1B3B
102
}
330
1E
100
AcDbEntity
  8
STEMPEL
100
AcDbLine
 10
154.7197382541683
 20
405.9800847462248
 30
0.0
 11
154.7197382541683
 21
390.4077741538539
 31
0.0
  0
LINE
  5
1B05
330
1E
100
AcDbEntity
  8
HILF
100
AcDbLine
 10
258.0301382379753
 20
386.5742832938266
 30
0.0
 11
157.4093382703613
 21
386.5742832938266
 31
0.0
  0
LINE
  5
1B06
330
1E
100
AcDbEntity
  8
HILF
100
AcDbLine
 10
255.2016283275207
 20
380.8127662409172
 30
0.0
 11
160.237848180816
 21
380.8127662409172
 31
0.0
  0
LINE
  5
1B07
330
1E
100
AcDbEntity
  8
HILF
100
AcDbLine
 10
254.1297972944443
 20
377.1743665966576
 30
0.0
 11
161.3096792138923
 21
377.1743665966576
 31
0.0
  0
HATCH
  5
1B3B
330
1E
100
AcDbEntity
  8
SCHRAFF
100
AcDbHatch
 10
0.0
 20
0.0
 30
0.0
210
0.0
220
0.0
230
1.0
  2
_USER
 70
     0
 71
     1
 91
        2
 92
        7
 72
     1
 73
     1
 93
       22
 10
266.7197382541683
 20
440.8755338143352
 42
0.109517811683238
 10
264.3774329300846
 20
451.4409903578523
 42
0.0
 10
263.4264940920933
 20
453.4802852769063
 42
0.0
 10
261.2197382541684
 20
453.4802852769062
 42
0.0
 10
262.5648173560112
 20
450.5957538343714
 42
-0.1095178116832433
 10
264.7197382541683
 20
440.8755338143351
 42
0.0
 10
264.7197382541683
 20
422.7132852769062
 42
-0.1178625008509383
 10
262.2332517676817
 20
412.3115660281039
 42
0.11786250085093
 10
260.7197382541683
 20
405.9800847462247
 42
0.0
 10
260.7197382541683
 20
390.4077741538539
 42
-0.1507946423587034
 10
258.4588686889509
 20
383.0817194513059
 42
0.1283549482084807
 10
256.7584686485794
 20
378.3255582714132
 42
-0.149671926846883
 10
255.8784168068089
 20
376.1548939767852
 42
0.0
 10
250.6675102539358
 20
369.7414705270952
 42
0.0
 10
252.2197382541683
 20
368.4802852769063
 42
0.0
 10
257.4306448070414
 20
374.8937087265962
 42
0.1496719268468774
 10
258.7507225696972
 20
378.1497051685381
 42
-0.1283549482084828
 10
260.1110426019945
 20
381.9546341124523
 42
0.1507946423587029
 10
262.7197382541683
 20
390.4077741538539
 42
0.0
 10
262.7197382541683
 20
405.9802852769063
 42
-0.1178625008509379
 10
264.0170355514656
 20
411.4072692328031
 42
0.117862500850935
 10
266.7197382541683
 20
422.7134858075879
 42
0.0
 97
       22
330
1AF1
330
1AE8
330
1A8C
330
1AE7
330
1AF2
330
1AE5
330
1AEF
330
1AEE
330
1AE3
330
1AEB
330
1A81
330
1A89
330
1A85
330
1A87
330
1A86
330
1A88
330
1A82
330
1AEC
330
1AE4
330
1AED
330
1AF0
330
1AE6
 92
        7
 72
     1
 73
     1
 93
       22
 10
148.7197382541683
 20
422.7134858075879
 42
0.1178625008509361
 10
151.422440956871
 20
411.407269232803
 42
-0.1178625008509355
 10
152.7197382541683
 20
405.9802852769063
 42
0.0
 10
152.7197382541683
 20
390.4077741538539
 42
0.1507946423587026
 10
155.3284339063422
 20
381.9546341124524
 42
-0.1283549482084883
 10
156.6887539386396
 20
378.149705168538
 42
0.1496719268468689
 10
158.0088317012952
 20
374.8937087265962
 42
0.0
 10
163.2197382541683
 20
368.4802852769064
 42
0.0
 10
164.7719662544008
 20
369.7414705270953
 42
0.0
 10
159.5610597015277
 20
376.1548939767852
 42
-0.1496719268468831
 10
158.6810078597571
 20
378.3255582714132
 42
0.1283549482084866
 10
156.9806078193855
 20
383.0817194513061
 42
-0.1507946423586983
 10
154.7197382541683
 20
390.4077741538539
 42
0.0
 10
154.7197382541683
 20
405.9800847462248
 42
0.117862500850934
 10
153.2062247406547
 20
412.3115660281042
 42
-0.1178625008509353
 10
150.7197382541683
 20
422.7132852769062
 42
0.0
 10
150.7197382541683
 20
440.8755338143352
 42
-0.1095178116832426
 10
152.8746591523253
 20
450.5957538343714
 42
0.0
 10
154.2197382541683
 20
453.4802852769063
 42
0.0
 10
152.0129824162432
 20
453.4802852769063
 42
0.0
 10
151.0620435782518
 20
451.4409903578523
 42
0.1095178116832367
 10
148.7197382541683
 20
440.8755338143353
 42
0.0
 97
       22
330
1AF3
330
1AFE
330
1A8C
330
1AFD
330
1AF4
330
1AFF
330
1AF5
330
1AF8
330
1B01
330
1AF9
330
1A74
330
1A7A
330
1A78
330
1A7C
330
1A79
330
1A7B
330
1A75
330
1AFA
330
1B02
330
1AF7
330
1AF6
330
1B00
 75
     0
 76
     0
 52
135.0
 41
2.0
 77
     0
 78
     1
 53
135.0
 43
0.0
 44
0.0
 45
-1.414213562373095
 46
-1.414213562373094
 79
     0
 47
0.2078803946492952
 98
        2
 10
265.8746364800588
 20
426.083725658407
 10
149.5993363096313
 20
432.9437785905611
  0
DIMENSION
  5
1B3C
330
1E
100
AcDbEntity
  8
BEM
100
AcDbDimension
  2
*D1
 10
207.7197382541683
 20
458.4802852769063
 30
0.0
 11
157.2924154198107
 21
258.0529624425489
 31
0.0
 70
    34
 71
     5
 42
1.570796326794895
  3
Standard
100
AcDb2LineAngularDimension
 13
712.7197382541684
 23
308.4802852769063
 33
0.0
 14
267.7197382541683
 24
308.4802852769063
 34
0.0
 15
207.7197382541683
 25
368.4802852769063
 35
0.0
 16
140.3299681101821
 26
269.572783343649
 36
0.0
1001
ACAD
1000
DSTYLE
1002
{
1070
    40
1040
2.0
1070
    41
1040
3.5
1070
    42
1040
1.0
1070
    43
1040
7.0
1070
    44
1040
1.0
1070
    73
1070
     0
1070
    74
1070
     0
1070
    77
1070
     1
1070
    78
1070
     8
1070
    79
1070
     2
1070
   140
1040
3.5
1070
   141
1040
1.5
1070
   146
1040
0.5142857142857144
1070
   147
1040
1.5
1070
   172
1070
     1
1070
   178
1070
     1
1070
   179
1070
     2
1070
   271
1070
     2
1070
   272
1070
     2
1070
   284
1070
     8
1070
   285
1070
     8
1070
   286
1070
     8
1002
}
  0
DIMENSION
  5
1B65
330
1E
100
AcDbEntity
  8
BEM
100
AcDbDimension
  2
*D2
 10
129.9047343876535
 20
308.4802852769063
 30
0.0
 11
123.4047343876535
 21
380.9802852769064
 31
0.0
 70
    32
 71
     5
 42
145.0
  3
Standard
100
AcDbAlignedDimension
 13
152.0129824162433
 23
453.4802852769063
 33
0.0
 14
267.7197382541683
 24
308.4802852769063
 34
0.0
 50
90.0
100
AcDbRotatedDimension
1001
ACAD
1000
DSTYLE
1002
{
1070
    40
1040
2.0
1070
    41
1040
3.5
1070
    42
1040
1.0
1070
    43
1040
7.0
1070
    44
1040
1.0
1070
    73
1070
     0
1070
    74
1070
     0
1070
    77
1070
     1
1070
    78
1070
     8
1070
    79
1070
     2
1070
   140
1040
3.5
1070
   141
1040
1.5
1070
   146
1040
0.5142857142857144
1070
   147
1040
1.5
1070
   172
1070
     1
1070
   178
1070
     1
1070
   179
1070
     2
1070
   271
1070
     2
1070
   272
1070
     2
1070
   284
1070
     8
1070
   285
1070
     8
1070
   286
1070
     8
1002
}
  0
DIMENSION
  5
1B8C
330
1E
100
AcDbEntity
  8
BEM
100
AcDbDimension
  2
*D3
 10
207.7197382541683
 20
230.6652814103916
 30
0.0
 11
457.7197382541682
 21
237.1652814103916
 31
0.0
 70
    32
 71
     5
 42
499.9999999999999
  3
Standard
100
AcDbAlignedDimension
 13
707.7197382541681
 23
264.8551719121655
 33
0.0
 14
207.7197382541683
 24
368.4802852769063
 34
0.0
100
AcDbRotatedDimension
1001
ACAD
1000
DSTYLE
1002
{
1070
    40
1040
2.0
1070
    41
1040
3.5
1070
    42
1040
1.0
1070
    43
1040
7.0
1070
    44
1040
1.0
1070
    73
1070
     0
1070
    74
1070
     0
1070
    77
1070
     1
1070
    78
1070
     8
1070
    79
1070
     2
1070
   140
1040
3.5
1070
   141
1040
1.5
1070
   146
1040
0.5142857142857144
1070
   147
1040
1.5
1070
   172
1070
     1
1070
   178
1070
     1
1070
   179
1070
     2
1070
   271
1070
     2
1070
   272
1070
     2
1070
   284
1070
     8
1070
   285
1070
     8
1070
   286
1070
     8
1002
}
  0
DIMENSION
  5
1B99
330
1E
100
AcDbEntity
  8
BEM
100
AcDbDimension
  2
*D4
 10
727.0770133970793
 20
263.9802852769063
 30
0.0
 11
720.5770133970792
 21
308.4802852769064
 31
0.0
 70
    32
  1
%%c<>
 71
     5
 42
89.0
  3
Standard
100
AcDbAlignedDimension
 13
697.7197382541681
 23
352.9802852769063
 33
0.0
 14
697.7197382541685
 24
263.9802852769063
 34
0.0
 50
90.0
100
AcDbRotatedDimension
1001
ACAD
1000
DSTYLE
1002
{
1070
    40
1040
2.0
1070
    41
1040
3.5
1070
    42
1040
1.0
1070
    43
1040
7.0
1070
    44
1040
1.0
1070
    73
1070
     0
1070
    74
1070
     0
1070
    77
1070
     1
1070
    78
1070
     8
1070
    79
1070
     2
1070
   140
1040
3.5
1070
   141
1040
1.5
1070
   146
1040
0.5142857142857144
1070
   147
1040
1.5
1070
   172
1070
     1
1070
   178
1070
     1
1070
   179
1070
     2
1070
   271
1070
     2
1070
   272
1070
     2
1070
   284
1070
     8
1070
   285
1070
     8
1070
   286
1070
     8
1002
}
  0
DIMENSION
  5
1BBD
330
1E
100
AcDbEntity
  8
BEM
100
AcDbDimension
  2
*D5
 10
267.7197382541685
 20
368.4802852769065
 30
0.0
 11
243.4797383712897
 21
342.3166938416856
 31
0.0
 70
   164
 71
     5
 42
60.00000000000023
  3
Standard
100
AcDbRadialDimension
 15
226.9421683577371
 25
324.4667669746659
 35
0.0
 40
0.0
1001
ACAD
1000
DSTYLE
1002
{
1070
    40
1040
2.0
1070
    41
1040
3.5
1070
    42
1040
1.0
1070
    43
1040
7.0
1070
    44
1040
1.0
1070
    73
1070
     0
1070
    74
1070
     0
1070
    77
1070
     1
1070
    78
1070
     8
1070
    79
1070
     2
1070
   140
1040
3.5
1070
   141
1040
1.5
1070
   146
1040
0.5142857142857144
1070
   147
1040
1.5
1070
   172
1070
     1
1070
   178
1070
     1
1070
   179
1070
     2
1070
   271
1070
     2
1070
   272
1070
     2
1070
   284
1070
     8
1070
   285
1070
     8
1070
   286
1070
     8
1070
   288
1070
     1
1002
}
  0
ENDSEC
  0
SECTION
  2
OBJECTS
  0
DICTIONARY
  5
C
330
0
100
AcDbDictionary
281
     1
  3
ACAD_COLOR
350
11A
  3
ACAD_GROUP
350
D
  3
ACAD_LAYOUT
350
19
  3
ACAD_MATERIAL
350
119
  3
ACAD_MLINESTYLE
350
16
  3
ACAD_PLOTSETTINGS
350
18
  3
ACAD_PLOTSTYLENAME
350
E
  3
AcDbVariableDictionary
350
125
  0
DICTIONARY
  5
DB
330
1E
100
AcDbDictionary
280
     1
281
     1
  3
ACAD_LAYOUTSELFREF
360
10F
  0
DICTIONARY
  5
DD
330
1A
100
AcDbDictionary
280
     1
281
     1
  3
ACAD_LAYOUTSELFREF
360
10E
  0
DICTIONARY
  5
11A
102
{ACAD_REACTORS
330
C
102
}
330
C
100
AcDbDictionary
281
     1
  0
DICTIONARY
  5
D
102
{ACAD_REACTORS
330
C
102
}
330
C
100
AcDbDictionary
281
     1
  0
DICTIONARY
  5
19
102
{ACAD_REACTORS
330
C
102
}
330
C
100
AcDbDictionary
281
     1
  3
Layout1
350
1D
  3
Model
350
21
  0
DICTIONARY
  5
119
102
{ACAD_REACTORS
330
C
102
}
330
C
100
AcDbDictionary
281
     1
  0
DICTIONARY
  5
16
102
{ACAD_REACTORS
330
C
102
}
330
C
100
AcDbDictionary
281
     1
  3
Standard
350
17
  0
DICTIONARY
  5
18
102
{ACAD_REACTORS
330
C
102
}
330
C
100
AcDbDictionary
281
     1
  0
ACDBDICTIONARYWDFLT
  5
E
102
{ACAD_REACTORS
330
C
102
}
330
C
100
AcDbDictionary
281
     1
  3
Normal
350
F
100
AcDbDictionaryWithDefault
340
F
  0
DICTIONARY
  5
125
102
{ACAD_REACTORS
330
C
102
}
330
C
100
AcDbDictionary
281
     1
  3
DIMASSOC
350
126
  3
PROJECTNAME
350
127
  0
XRECORD
  5
10F
102
{ACAD_REACTORS
330
DB
102
}
330
DB
100
AcDbXrecord
280
     1
340
1E
  0
XRECORD
  5
10E
102
{ACAD_REACTORS
330
DD
102
}
330
DD
100
AcDbXrecord
280
     1
340
1A
  0
LAYOUT
  5
1D
102
{ACAD_REACTORS
330
19
102
}
330
19
100
AcDbPlotSettings
  1

  2
\\NT_WORK01\HP LaserJet 5000 PCL 6
  4

  6

 40
0.0
 41
0.0
 42
0.0
 43
0.0
 44
0.0
 45
0.0
 46
0.0
 47
0.0
 48
0.0
 49
0.0
140
0.0
141
0.0
142
1.0
143
1.0
 70
   688
 72
     0
 73
     0
 74
     5
  7

 75
    16
147
1.0
 76
     0
 77
     2
 78
   300
148
0.0
149
0.0
100
AcDbLayout
  1
Layout1
 70
     0
 71
     1
 10
0.0
 20
0.0
 11
12.0
 21
9.0
 12
0.0
 22
0.0
 32
0.0
 14
1.000000000000000E+20
 24
1.000000000000000E+20
 34
1.000000000000000E+20
 15
-1.000000000000000E+20
 25
-1.000000000000000E+20
 35
-1.000000000000000E+20
146
0.0
 13
0.0
 23
0.0
 33
0.0
 16
1.0
 26
0.0
 36
0.0
 17
0.0
 27
1.0
 37
0.0
 76
     0
330
1A
  0
LAYOUT
  5
21
102
{ACAD_REACTORS
330
19
102
}
330
19
100
AcDbPlotSettings
  1

  2
none_device
  4
Letter_(8.50_x_11.00_Inches)
  6

 40
6.349999904632568
 41
6.349999904632568
 42
6.350006103515625
 43
6.350006103515625
 44
215.8999938964844
 45
279.3999938964844
 46
0.0
 47
0.0
 48
0.0
 49
0.0
140
0.0
141
0.0
142
1.0
143
1.0
 70
 11952
 72
     0
 73
     1
 74
     0
  7

 75
     0
147
1.0
 76
     0
 77
     2
 78
   300
148
-2639.21842384009
149
485.0945134746923
100
AcDbLayout
  1
Model
 70
     1
 71
     0
 10
0.0
 20
0.0
 11
12.0
 21
9.0
 12
0.0
 22
0.0
 32
0.0
 14
0.0
 24
0.0
 34
0.0
 15
0.0
 25
0.0
 35
0.0
146
0.0
 13
0.0
 23
0.0
 33
0.0
 16
1.0
 26
0.0
 36
0.0
 17
0.0
 27
1.0
 37
0.0
 76
     0
330
1E
  0
MLINESTYLE
  5
17
102
{ACAD_REACTORS
330
16
102
}
330
16
100
AcDbMlineStyle
  2
STANDARD
 70
     0
  3

 62
   256
 51
90.0
 52
90.0
 71
     2
 49
0.5
 62
   256
  6
BYLAYER
 49
-0.5
 62
   256
  6
BYLAYER
  0
ACDBPLACEHOLDER
  5
F
102
{ACAD_REACTORS
330
E
102
}
330
E
  0
DICTIONARYVAR
  5
126
102
{ACAD_REACTORS
330
125
102
}
330
125
100
DictionaryVariables
280
     0
  1
1
  0
DICTIONARYVAR
  5
127
102
{ACAD_REACTORS
330
125
102
}
330
125
100
DictionaryVariables
280
     0
  1

  0
ENDSEC
  0
EOF
