  0
SECTION
  2
HEADER
  9
$ACADVER
  1
AC1018
  9
$ACADMAINTVER
 70
     2
  9
$DWGCODEPAGE
  3
ANSI_1252
  9
$INSBASE
 10
0.0
 20
0.0
 30
0.0
  9
$EXTMIN
 10
-0.0309535986232277
 20
-0.021896441437093
 30
-0.0000000000000053
  9
$EXTMAX
 10
840.0277872218619
 20
594.009838508377
 30
0.0000000000000099
  9
$LIMMIN
 10
0.0
 20
0.0
  9
$LIMMAX
 10
840.0
 20
594.0
  9
$ORTHOMODE
 70
     1
  9
$REGENMODE
 70
     1
  9
$FILLMODE
 70
     1
  9
$QTEXTMODE
 70
     0
  9
$MIRRTEXT
 70
     1
  9
$LTSCALE
 40
20.0
  9
$ATTMODE
 70
     1
  9
$TEXTSIZE
 40
3.5
  9
$TRACEWID
 40
1.0
  9
$TEXTSTYLE
  7
STANDARD
  9
$CLAYER
  8
BEM
  9
$CELTYPE
  6
ByLayer
  9
$CECOLOR
 62
   256
  9
$CELTSCALE
 40
1.0
  9
$DISPSILH
 70
     0
  9
$DIMSCALE
 40
2.0
  9
$DIMASZ
 40
3.5
  9
$DIMEXO
 40
1.0
  9
$DIMDLI
 40
7.0
  9
$DIMRND
 40
0.0
  9
$DIMDLE
 40
0.0
  9
$DIMEXE
 40
1.0
  9
$DIMTP
 40
0.0
  9
$DIMTM
 40
0.0
  9
$DIMTXT
 40
3.5
  9
$DIMCEN
 40
1.5
  9
$DIMTSZ
 40
0.0
  9
$DIMTOL
 70
     0
  9
$DIMLIM
 70
     0
  9
$DIMTIH
 70
     0
  9
$DIMTOH
 70
     0
  9
$DIMSE1
 70
     0
  9
$DIMSE2
 70
     0
  9
$DIMTAD
 70
     1
  9
$DIMZIN
 70
     8
  9
$DIMBLK
  1

  9
$DIMASO
 70
     1
  9
$DIMSHO
 70
     0
  9
$DIMPOST
  1

  9
$DIMAPOST
  1

  9
$DIMALT
 70
     0
  9
$DIMALTD
 70
     2
  9
$DIMALTF
 40
25.4
  9
$DIMLFAC
 40
1.0
  9
$DIMTOFL
 70
     1
  9
$DIMTVP
 40
0.0
  9
$DIMTIX
 70
     0
  9
$DIMSOXD
 70
     0
  9
$DIMSAH
 70
     0
  9
$DIMBLK1
  1

  9
$DIMBLK2
  1

  9
$DIMSTYLE
  2
Standard
  9
$DIMCLRD
 70
     0
  9
$DIMCLRE
 70
     0
  9
$DIMCLRT
 70
     1
  9
$DIMTFAC
 40
0.5142857142857144
  9
$DIMGAP
 40
1.5
  9
$DIMJUST
 70
     0
  9
$DIMSD1
 70
     0
  9
$DIMSD2
 70
     0
  9
$DIMTOLJ
 70
     1
  9
$DIMTZIN
 70
     8
  9
$DIMALTZ
 70
     8
  9
$DIMALTTZ
 70
     8
  9
$DIMUPT
 70
     0
  9
$DIMDEC
 70
     2
  9
$DIMTDEC
 70
     2
  9
$DIMALTU
 70
     2
  9
$DIMALTTD
 70
     2
  9
$DIMTXSTY
  7
STANDARD
  9
$DIMAUNIT
 70
     0
  9
$DIMADEC
 70
     2
  9
$DIMALTRND
 40
0.0
  9
$DIMAZIN
 70
     2
  9
$DIMDSEP
 70
    46
  9
$DIMATFIT
 70
     3
  9
$DIMFRAC
 70
     0
  9
$DIMLDRBLK
  1

  9
$DIMLUNIT
 70
     2
  9
$DIMLWD
 70
    -2
  9
$DIMLWE
 70
    -2
  9
$DIMTMOVE
 70
     0
  9
$LUNITS
 70
     2
  9
$LUPREC
 70
     2
  9
$SKETCHINC
 40
1.0
  9
$FILLETRAD
 40
0.0
  9
$AUNITS
 70
     0
  9
$AUPREC
 70
     0
  9
$MENU
  1
ACAD
  9
$ELEVATION
 40
0.0
  9
$PELEVATION
 40
0.0
  9
$THICKNESS
 40
0.0
  9
$LIMCHECK
 70
     0
  9
$CHAMFERA
 40
0.0
  9
$CHAMFERB
 40
0.0
  9
$CHAMFERC
 40
0.0
  9
$CHAMFERD
 40
0.0
  9
$SKPOLY
 70
     0
  9
$TDCREATE
 40
2455397.867059838
  9
$TDUCREATE
 40
2455397.783726505
  9
$TDUPDATE
 40
2455454.591553657
  9
$TDUUPDATE
 40
2455454.508220324
  9
$TDINDWG
 40
0.0628294444
  9
$TDUSRTIMER
 40
0.0628294444
  9
$USRTIMER
 70
     1
  9
$ANGBASE
 50
0.0
  9
$ANGDIR
 70
     0
  9
$PDMODE
 70
     0
  9
$PDSIZE
 40
0.0
  9
$PLINEWID
 40
0.0
  9
$SPLFRAME
 70
     0
  9
$SPLINETYPE
 70
     6
  9
$SPLINESEGS
 70
     8
  9
$HANDSEED
  5
1848
  9
$SURFTAB1
 70
     6
  9
$SURFTAB2
 70
     6
  9
$SURFTYPE
 70
     6
  9
$SURFU
 70
     6
  9
$SURFV
 70
     6
  9
$UCSBASE
  2

  9
$UCSNAME
  2

  9
$UCSORG
 10
0.0
 20
0.0
 30
0.0
  9
$UCSXDIR
 10
1.0
 20
0.0
 30
0.0
  9
$UCSYDIR
 10
0.0
 20
1.0
 30
0.0
  9
$UCSORTHOREF
  2

  9
$UCSORTHOVIEW
 70
     0
  9
$UCSORGTOP
 10
0.0
 20
0.0
 30
0.0
  9
$UCSORGBOTTOM
 10
0.0
 20
0.0
 30
0.0
  9
$UCSORGLEFT
 10
0.0
 20
0.0
 30
0.0
  9
$UCSORGRIGHT
 10
0.0
 20
0.0
 30
0.0
  9
$UCSORGFRONT
 10
0.0
 20
0.0
 30
0.0
  9
$UCSORGBACK
 10
0.0
 20
0.0
 30
0.0
  9
$PUCSBASE
  2

  9
$PUCSNAME
  2

  9
$PUCSORG
 10
0.0
 20
0.0
 30
0.0
  9
$PUCSXDIR
 10
1.0
 20
0.0
 30
0.0
  9
$PUCSYDIR
 10
0.0
 20
1.0
 30
0.0
  9
$PUCSORTHOREF
  2

  9
$PUCSORTHOVIEW
 70
     0
  9
$PUCSORGTOP
 10
0.0
 20
0.0
 30
0.0
  9
$PUCSORGBOTTOM
 10
0.0
 20
0.0
 30
0.0
  9
$PUCSORGLEFT
 10
0.0
 20
0.0
 30
0.0
  9
$PUCSORGRIGHT
 10
0.0
 20
0.0
 30
0.0
  9
$PUCSORGFRONT
 10
0.0
 20
0.0
 30
0.0
  9
$PUCSORGBACK
 10
0.0
 20
0.0
 30
0.0
  9
$USERI1
 70
     0
  9
$USERI2
 70
     0
  9
$USERI3
 70
     0
  9
$USERI4
 70
     0
  9
$USERI5
 70
     0
  9
$USERR1
 40
0.0
  9
$USERR2
 40
0.0
  9
$USERR3
 40
0.0
  9
$USERR4
 40
0.0
  9
$USERR5
 40
0.0
  9
$WORLDVIEW
 70
     1
  9
$SHADEDGE
 70
     3
  9
$SHADEDIF
 70
    70
  9
$TILEMODE
 70
     1
  9
$MAXACTVP
 70
    16
  9
$PINSBASE
 10
0.0
 20
0.0
 30
0.0
  9
$PLIMCHECK
 70
     0
  9
$PEXTMIN
 10
1.000000000000000E+20
 20
1.000000000000000E+20
 30
1.000000000000000E+20
  9
$PEXTMAX
 10
-1.000000000000000E+20
 20
-1.000000000000000E+20
 30
-1.000000000000000E+20
  9
$PLIMMIN
 10
0.0
 20
0.0
  9
$PLIMMAX
 10
12.0
 20
9.0
  9
$UNITMODE
 70
     0
  9
$VISRETAIN
 70
     0
  9
$PLINEGEN
 70
     0
  9
$PSLTSCALE
 70
     0
  9
$TREEDEPTH
 70
  3020
  9
$CMLSTYLE
  2
Standard
  9
$CMLJUST
 70
     0
  9
$CMLSCALE
 40
1.0
  9
$PROXYGRAPHICS
 70
     1
  9
$MEASUREMENT
 70
     0
  9
$CELWEIGHT
370
    -1
  9
$ENDCAPS
280
     0
  9
$JOINSTYLE
280
     0
  9
$LWDISPLAY
290
     0
  9
$INSUNITS
 70
     0
  9
$HYPERLINKBASE
  1

  9
$STYLESHEET
  1
monochrome 1.ctb
  9
$XEDIT
290
     1
  9
$CEPSNTYPE
380
     0
  9
$PSTYLEMODE
290
     1
  9
$FINGERPRINTGUID
  2
{D68B0D0D-A558-11D7-B632-000102183313}
  9
$VERSIONGUID
  2
{0FDC6429-8721-495C-8AB7-00E76B49F6EE}
  9
$EXTNAMES
290
     1
  9
$PSVPSCALE
 40
0.0
  9
$OLESTARTUP
290
     0
  9
$SORTENTS
280
   127
  9
$INDEXCTL
280
     0
  9
$HIDETEXT
280
     0
  9
$XCLIPFRAME
290
     0
  9
$HALOGAP
280
     0
  9
$OBSCOLOR
 70
   257
  9
$OBSLTYPE
280
     0
  9
$INTERSECTIONDISPLAY
280
     0
  9
$INTERSECTIONCOLOR
 70
   257
  9
$DIMASSOC
280
     1
  9
$PROJECTNAME
  1

  0
ENDSEC
  0
SECTION
  2
CLASSES
  0
CLASS
  1
ACDBDICTIONARYWDFLT
  2
AcDbDictionaryWithDefault
  3
ObjectDBX Classes
 90
        0
 91
        1
280
     0
281
     0
  0
CLASS
  1
DICTIONARYVAR
  2
AcDbDictionaryVar
  3
ObjectDBX Classes
 90
        0
 91
        2
280
     0
281
     0
  0
ENDSEC
  0
SECTION
  2
TABLES
  0
TABLE
  2
VPORT
  5
8
330
0
100
AcDbSymbolTable
 70
     2
  0
VPORT
  5
1847
330
8
100
AcDbSymbolTableRecord
100
AcDbViewportTableRecord
  2
*Active
 70
     0
 10
0.0
 20
0.0
 11
1.0
 21
1.0
 12
419.9984168116193
 22
296.9939710334699
 13
0.0
 23
0.0
 14
1.0
 24
1.0
 15
10.0
 25
10.0
 16
0.0
 26
0.0
 36
1.0
 17
0.0
 27
0.0
 37
0.0
 40
632.1457801004433
 41
1.336927223719676
 42
50.0
 43
0.0
 44
0.0
 50
0.0
 51
0.0
 71
     0
 72
  1500
 73
     1
 74
     0
 75
     0
 76
     0
 77
     0
 78
     0
281
     0
 65
     1
110
0.0
120
0.0
130
0.0
111
1.0
121
0.0
131
0.0
112
0.0
122
1.0
132
0.0
 79
     0
146
0.0
  0
ENDTAB
  0
TABLE
  2
LTYPE
  5
5
330
0
100
AcDbSymbolTable
 70
     2
  0
LTYPE
  5
13
330
5
100
AcDbSymbolTableRecord
100
AcDbLinetypeTableRecord
  2
ByBlock
 70
     0
  3

 72
    65
 73
     0
 40
0.0
  0
LTYPE
  5
14
330
5
100
AcDbSymbolTableRecord
100
AcDbLinetypeTableRecord
  2
ByLayer
 70
     0
  3

 72
    65
 73
     0
 40
0.0
  0
LTYPE
  5
15
330
5
100
AcDbSymbolTableRecord
100
AcDbLinetypeTableRecord
  2
Continuous
 70
     0
  3
Solid line
 72
    65
 73
     0
 40
0.0
  0
LTYPE
  5
25
330
5
100
AcDbSymbolTableRecord
100
AcDbLinetypeTableRecord
  2
STRICHPUNKT
 70
     0
  3
__ . __ . __ . __ . __ . __ . __ . __ . __ . __
 72
    65
 73
     4
 40
1.0
 49
0.5
 74
     0
 49
-0.25
 74
     0
 49
0.0
 74
     0
 49
-0.25
 74
     0
  0
ENDTAB
  0
TABLE
  2
LAYER
  5
2
330
0
100
AcDbSymbolTable
 70
     9
  0
LAYER
  5
10
330
2
100
AcDbSymbolTableRecord
100
AcDbLayerTableRecord
  2
0
 70
     0
 62
     7
  6
Continuous
370
    -3
390
F
  0
LAYER
  5
2B
330
2
100
AcDbSymbolTableRecord
100
AcDbLayerTableRecord
  2
VOLL
 70
     0
 62
     1
  6
Continuous
370
    -3
390
F
  0
LAYER
  5
2C
330
2
100
AcDbSymbolTableRecord
100
AcDbLayerTableRecord
  2
HILF
 70
     0
 62
     2
  6
Continuous
370
    -3
390
F
  0
LAYER
  5
2D
330
2
100
AcDbSymbolTableRecord
100
AcDbLayerTableRecord
  2
MITTEL
 70
     0
 62
     2
  6
STRICHPUNKT
370
    -3
390
F
  0
LAYER
  5
2F
330
2
100
AcDbSymbolTableRecord
100
AcDbLayerTableRecord
  2
BEM
 70
     0
 62
     7
  6
Continuous
370
    -3
390
F
  0
LAYER
  5
30
330
2
100
AcDbSymbolTableRecord
100
AcDbLayerTableRecord
  2
STEMPEL
 70
     0
 62
     3
  6
Continuous
370
    -3
390
F
  0
LAYER
  5
33
330
2
100
AcDbSymbolTableRecord
100
AcDbLayerTableRecord
  2
TEXT
 70
     0
 62
     7
  6
Continuous
370
    -3
390
F
  0
LAYER
  5
53E
330
2
100
AcDbSymbolTableRecord
100
AcDbLayerTableRecord
  2
SCHRAFF
 70
     0
 62
     7
  6
Continuous
370
    -3
390
F
  0
LAYER
  5
53F
330
2
100
AcDbSymbolTableRecord
100
AcDbLayerTableRecord
  2
DEFPOINTS
 70
     0
 62
     7
  6
Continuous
290
     0
370
    -3
390
F
  0
ENDTAB
  0
TABLE
  2
STYLE
  5
3
330
0
100
AcDbSymbolTable
 70
     2
  0
STYLE
  5
11
330
3
100
AcDbSymbolTableRecord
100
AcDbTextStyleTableRecord
  2
STANDARD
 70
     0
 40
0.0
 41
0.8
 50
0.0
 71
     0
 42
3.5
  3
simplex.shx
  4

  0
STYLE
  5
24
330
3
100
AcDbSymbolTableRecord
100
AcDbTextStyleTableRecord
  2
GREEKS
 70
     0
 40
0.0
 41
0.8
 50
0.0
 71
     0
 42
2.5
  3
SIMPLEX.shx
  4

  0
ENDTAB
  0
TABLE
  2
VIEW
  5
6
330
0
100
AcDbSymbolTable
 70
     0
  0
ENDTAB
  0
TABLE
  2
UCS
  5
7
330
0
100
AcDbSymbolTable
 70
     0
  0
ENDTAB
  0
TABLE
  2
APPID
  5
9
330
0
100
AcDbSymbolTable
 70
     1
  0
APPID
  5
12
330
9
100
AcDbSymbolTableRecord
100
AcDbRegAppTableRecord
  2
ACAD
 70
     0
  0
ENDTAB
  0
TABLE
  2
DIMSTYLE
  5
A
330
0
100
AcDbSymbolTable
 70
     1
100
AcDbDimStyleTable
 71
     1
340
A2
  0
DIMSTYLE
105
A2
102
{ACAD_REACTORS
330
1731
330
1796
330
17A3
330
17AC
330
17E1
102
}
330
A
100
AcDbSymbolTableRecord
100
AcDbDimStyleTableRecord
  2
Standard
 70
     0
340
11
  0
ENDTAB
  0
TABLE
  2
BLOCK_RECORD
  5
1
330
0
100
AcDbSymbolTable
 70
     6
  0
BLOCK_RECORD
  5
1E
102
{ACAD_XDICTIONARY
360
DB
102
}
330
1
100
AcDbSymbolTableRecord
100
AcDbBlockTableRecord
  2
*Model_Space
340
21
  0
BLOCK_RECORD
  5
1A
102
{ACAD_XDICTIONARY
360
DD
102
}
330
1
100
AcDbSymbolTableRecord
100
AcDbBlockTableRecord
  2
*Paper_Space
340
1D
  0
BLOCK_RECORD
  5
22
330
1
100
AcDbSymbolTableRecord
100
AcDbBlockTableRecord
  2
LOGO
340
0
102
{BLKREFS
331
66D
102
}
  0
BLOCK_RECORD
  5
1732
330
1
100
AcDbSymbolTableRecord
100
AcDbBlockTableRecord
  2
*D1
340
0
  0
BLOCK_RECORD
  5
1797
330
1
100
AcDbSymbolTableRecord
100
AcDbBlockTableRecord
  2
*D2
340
0
  0
BLOCK_RECORD
  5
17A4
330
1
100
AcDbSymbolTableRecord
100
AcDbBlockTableRecord
  2
*D3
340
0
  0
BLOCK_RECORD
  5
17AD
330
1
100
AcDbSymbolTableRecord
100
AcDbBlockTableRecord
  2
*D4
340
0
  0
BLOCK_RECORD
  5
17E2
330
1
100
AcDbSymbolTableRecord
100
AcDbBlockTableRecord
  2
*D5
340
0
  0
ENDTAB
  0
ENDSEC
  0
SECTION
  2
BLOCKS
  0
BLOCK
  5
37
330
1E
100
AcDbEntity
  8
0
100
AcDbBlockBegin
  2
*Model_Space
 70
     0
 10
0.0
 20
0.0
 30
0.0
  3
*Model_Space
  1

  0
ENDBLK
  5
38
330
1E
100
AcDbEntity
  8
0
100
AcDbBlockEnd
  0
BLOCK
  5
35
330
1A
100
AcDbEntity
 67
     1
  8
0
100
AcDbBlockBegin
  2
*Paper_Space
 70
     0
 10
0.0
 20
0.0
 30
0.0
  3
*Paper_Space
  1

  0
ENDBLK
  5
36
330
1A
100
AcDbEntity
 67
     1
  8
0
100
AcDbBlockEnd
  0
BLOCK
  5
39
330
22
100
AcDbEntity
  8
0
100
AcDbBlockBegin
  2
LOGO
 70
     0
 10
0.0
 20
0.0
 30
0.0
  3
LOGO
  1

  0
ARC
  5
3A
330
22
100
AcDbEntity
  8
0
100
AcDbCircle
 10
11.59973089678112
 20
-9.271599258481501
 30
0.0
 40
4.5
100
AcDbArc
 50
270.0
 51
231.0575587310159
  0
LINE
  5
3B
330
22
100
AcDbEntity
  8
0
100
AcDbLine
 10
3.599730896781125
 20
-4.771599258481529
 30
0.0
 11
3.599730896781153
 21
-11.77159925848133
 31
0.0
  0
LINE
  5
3C
330
22
100
AcDbEntity
  8
0
100
AcDbLine
 10
2.599730896781125
 20
-4.771599258481529
 30
0.0
 11
2.599730896781153
 21
-11.77159925848133
 31
0.0
  0
CIRCLE
  5
3D
330
22
100
AcDbEntity
  8
0
100
AcDbCircle
 10
11.59973089678112
 20
-9.271599258481501
 30
0.0
 40
3.5
  0
ARC
  5
3E
330
22
100
AcDbEntity
  8
0
100
AcDbCircle
 10
31.59973089678115
 20
-9.271599258481472
 30
0.0
 40
4.5
100
AcDbArc
 50
270.0
 51
231.0575587310182
  0
LINE
  5
3F
330
22
100
AcDbEntity
  8
0
100
AcDbLine
 10
17.59973089678112
 20
-4.771599258481472
 30
0.0
 11
17.59973089678115
 21
-13.77159925848147
 31
0.0
  0
ARC
  5
40
330
22
100
AcDbEntity
  8
0
100
AcDbCircle
 10
22.59973089678116
 20
-7.271599258481472
 30
0.0
 40
2.5
100
AcDbArc
 50
293.1161887722295
 51
90.0
  0
CIRCLE
  5
41
330
22
100
AcDbEntity
  8
0
100
AcDbCircle
 10
31.59973089678115
 20
-9.271599258481472
 30
0.0
 40
3.5
  0
ARC
  5
42
330
22
100
AcDbEntity
  8
0
100
AcDbCircle
 10
4.599730896781153
 20
-11.77159925848133
 30
0.0
 40
1.0
100
AcDbArc
 50
180.0
 51
270.0
  0
ARC
  5
43
330
22
100
AcDbEntity
  8
0
100
AcDbCircle
 10
4.599730896781153
 20
-11.77159925848133
 30
0.0
 40
2.0
100
AcDbArc
 50
179.9999999999992
 51
270.0
  0
LINE
  5
44
330
22
100
AcDbEntity
  8
0
100
AcDbLine
 10
11.59973089678115
 20
-13.77159925848144
 30
0.0
 11
4.599730896781153
 21
-13.77159925848147
 31
0.0
  0
LINE
  5
45
330
22
100
AcDbEntity
  8
0
100
AcDbLine
 10
8.771303772034769
 20
-12.77159925848136
 30
0.0
 11
4.599730896781153
 21
-12.77159925848133
 31
0.0
  0
LINE
  5
46
330
22
100
AcDbEntity
  8
0
100
AcDbLine
 10
31.59973089678115
 20
-13.77159925848147
 30
0.0
 11
23.6715276665056
 21
-13.77159925848144
 31
0.0
  0
LINE
  5
47
330
22
100
AcDbEntity
  8
0
100
AcDbLine
 10
23.56565672307022
 20
-9.51278021337896
 30
0.0
 11
24.4388546544846
 21
-12.77159925848144
 31
0.0
  0
LINE
  5
48
330
22
100
AcDbEntity
  8
0
100
AcDbLine
 10
22.59973089678116
 20
-9.771599258481472
 30
0.0
 11
18.59973089678112
 21
-9.771599258481472
 31
0.0
  0
LINE
  5
49
330
22
100
AcDbEntity
  8
0
100
AcDbLine
 10
18.59973089678115
 20
-13.77159925848144
 30
0.0
 11
17.59973089678115
 21
-13.77159925848144
 31
0.0
  0
LINE
  5
4A
330
22
100
AcDbEntity
  8
0
100
AcDbLine
 10
18.59973089678115
 20
-9.771599258481472
 30
0.0
 11
18.59973089678115
 21
-13.77159925848144
 31
0.0
  0
LINE
  5
4B
330
22
100
AcDbEntity
  8
0
100
AcDbLine
 10
22.59973089678116
 20
-9.771599258481472
 30
0.0
 11
23.67152766650562
 21
-13.77159925848147
 31
0.0
  0
ARC
  5
4C
330
22
100
AcDbEntity
  8
0
100
AcDbCircle
 10
22.59973089678116
 20
-7.271599258481472
 30
0.0
 40
2.5
100
AcDbArc
 50
270.0
 51
270.0000000000007
  0
LINE
  5
4D
330
22
100
AcDbEntity
  8
0
100
AcDbLine
 10
28.77130377203494
 20
-12.77159925848147
 30
0.0
 11
24.43885465448463
 21
-12.77159925848144
 31
0.0
  0
LINE
  5
4E
330
22
100
AcDbEntity
  8
0
100
AcDbLine
 10
3.599730896781125
 20
-4.771599258481472
 30
0.0
 11
2.599730896781125
 21
-4.771599258481472
 31
0.0
  0
LINE
  5
4F
330
22
100
AcDbEntity
  8
0
100
AcDbLine
 10
22.59973089678116
 20
-8.771599258481472
 30
0.0
 11
18.59973089678115
 21
-8.771599258481472
 31
0.0
  0
LINE
  5
50
330
22
100
AcDbEntity
  8
0
100
AcDbLine
 10
22.59973089678116
 20
-5.771599258481472
 30
0.0
 11
18.59973089678115
 21
-5.771599258481472
 31
0.0
  0
LINE
  5
51
330
22
100
AcDbEntity
  8
0
100
AcDbLine
 10
22.59973089678116
 20
-4.771599258481472
 30
0.0
 11
17.59973089678115
 21
-4.771599258481472
 31
0.0
  0
LINE
  5
52
330
22
100
AcDbEntity
  8
0
100
AcDbLine
 10
18.59973089678115
 20
-5.771599258481472
 30
0.0
 11
18.59973089678115
 21
-8.771599258481472
 31
0.0
  0
ARC
  5
53
330
22
100
AcDbEntity
  8
0
100
AcDbCircle
 10
22.59973089678116
 20
-7.271599258481472
 30
0.0
 40
1.5
100
AcDbArc
 50
270.0
 51
90.0
  0
ENDBLK
  5
54
330
22
100
AcDbEntity
  8
0
100
AcDbBlockEnd
  0
BLOCK
  5
173C
330
1732
100
AcDbEntity
  8
0
100
AcDbBlockBegin
  2
*D1
 70
     1
 10
0.0
 20
0.0
 30
0.0
  3
*D1
  1

  0
LINE
  5
1733
330
1732
100
AcDbEntity
  8
BEM
 62
     0
370
    -2
100
AcDbLine
 10
707.7197382541683
 20
270.8490601720961
 30
0.0
 11
707.7197382541683
 21
230.9872494465908
 31
0.0
  0
LINE
  5
1734
330
1732
100
AcDbEntity
  8
BEM
 62
     0
370
    -2
100
AcDbLine
 10
207.7197382541683
 20
356.4802852769063
 30
0.0
 11
207.7197382541683
 21
230.9872494465908
 31
0.0
  0
LINE
  5
1735
330
1732
100
AcDbEntity
  8
BEM
 62
     0
370
    -2
100
AcDbLine
 10
700.7197382541683
 20
232.9872494465908
 30
0.0
 11
214.7197382541683
 21
232.9872494465908
 31
0.0
  0
SOLID
  5
1736
330
1732
100
AcDbEntity
  8
BEM
 62
     0
100
AcDbTrace
 10
700.7197382541683
 20
234.1539161132574
 30
0.0
 11
700.7197382541683
 21
231.8205827799241
 31
0.0
 12
707.7197382541683
 22
232.9872494465908
 32
0.0
 13
707.7197382541683
 23
232.9872494465908
 33
0.0
  0
SOLID
  5
1737
330
1732
100
AcDbEntity
  8
BEM
 62
     0
100
AcDbTrace
 10
214.7197382541683
 20
234.1539161132574
 30
0.0
 11
214.7197382541683
 21
231.8205827799241
 31
0.0
 12
207.7197382541683
 22
232.9872494465908
 32
0.0
 13
207.7197382541683
 23
232.9872494465908
 33
0.0
  0
MTEXT
  5
1738
330
1732
100
AcDbEntity
  8
BEM
 62
     1
100
AcDbMText
 10
457.7197382541682
 20
239.4872494465908
 30
0.0
 40
7.0
 41
0.0
 71
     5
 72
     1
  1
\A1;500
 73
     1
 44
1.0
  0
POINT
  5
1739
330
1732
100
AcDbEntity
  8
DEFPOINTS
 62
     0
100
AcDbPoint
 10
707.7197382541683
 20
272.8490601720961
 30
0.0
  0
POINT
  5
173A
330
1732
100
AcDbEntity
  8
DEFPOINTS
 62
     0
100
AcDbPoint
 10
207.7197382541683
 20
358.4802852769063
 30
0.0
  0
POINT
  5
173B
330
1732
100
AcDbEntity
  8
DEFPOINTS
 62
     0
100
AcDbPoint
 10
207.7197382541683
 20
232.9872494465908
 30
0.0
  0
ENDBLK
  5
173D
330
1732
100
AcDbEntity
  8
0
100
AcDbBlockEnd
  0
BLOCK
  5
17A1
330
1797
100
AcDbEntity
  8
0
100
AcDbBlockBegin
  2
*D2
 70
     1
 10
0.0
 20
0.0
 30
0.0
  3
*D2
  1

  0
LINE
  5
1834
330
1797
100
AcDbEntity
  8
BEM
 62
     0
370
    -2
100
AcDbLine
 10
150.0129824162433
 20
453.4802852769063
 30
0.0
 11
130.2267024238529
 21
453.4802852769063
 31
0.0
  0
LINE
  5
1835
330
1797
100
AcDbEntity
  8
BEM
 62
     0
370
    -2
100
AcDbLine
 10
255.7197382541683
 20
308.4802852769063
 30
0.0
 11
130.2267024238528
 21
308.4802852769063
 31
0.0
  0
LINE
  5
1836
330
1797
100
AcDbEntity
  8
BEM
 62
     0
370
    -2
100
AcDbLine
 10
132.2267024238529
 20
446.4802852769063
 30
0.0
 11
132.2267024238528
 21
315.4802852769063
 31
0.0
  0
SOLID
  5
1837
330
1797
100
AcDbEntity
  8
BEM
 62
     0
100
AcDbTrace
 10
131.0600357571862
 20
446.4802852769063
 30
0.0
 11
133.3933690905195
 21
446.4802852769063
 31
0.0
 12
132.2267024238529
 22
453.4802852769063
 32
0.0
 13
132.2267024238529
 23
453.4802852769063
 33
0.0
  0
SOLID
  5
1838
330
1797
100
AcDbEntity
  8
BEM
 62
     0
100
AcDbTrace
 10
131.0600357571862
 20
315.4802852769063
 30
0.0
 11
133.3933690905195
 21
315.4802852769063
 31
0.0
 12
132.2267024238528
 22
308.4802852769063
 32
0.0
 13
132.2267024238528
 23
308.4802852769063
 33
0.0
  0
MTEXT
  5
1839
330
1797
100
AcDbEntity
  8
BEM
 62
     1
100
AcDbMText
 10
125.7267024238528
 20
380.9802852769063
 30
0.0
 40
7.0
 41
0.0
 71
     5
 72
     1
  1
\A1;145
 11
0.0000000000000001
 21
1.0
 31
0.0
 73
     1
 44
1.0
  0
POINT
  5
183A
330
1797
100
AcDbEntity
  8
DEFPOINTS
 62
     0
100
AcDbPoint
 10
152.0129824162433
 20
453.4802852769063
 30
0.0
  0
POINT
  5
183B
330
1797
100
AcDbEntity
  8
DEFPOINTS
 62
     0
100
AcDbPoint
 10
257.7197382541683
 20
308.4802852769063
 30
0.0
  0
POINT
  5
183C
330
1797
100
AcDbEntity
  8
DEFPOINTS
 62
     0
100
AcDbPoint
 10
132.2267024238528
 20
308.4802852769063
 30
0.0
  0
ENDBLK
  5
17A2
330
1797
100
AcDbEntity
  8
0
100
AcDbBlockEnd
  0
BLOCK
  5
17AA
330
17A4
100
AcDbEntity
  8
0
100
AcDbBlockBegin
  2
*D3
 70
     1
 10
0.0
 20
0.0
 30
0.0
  3
*D3
  1

  0
LINE
  5
17A5
330
17A4
100
AcDbEntity
  8
BEM
 62
     0
370
    -2
100
AcDbLine
 10
249.3503384471015
 20
345.6325517032139
 30
0.0
 11
234.2490300995681
 21
322.4507715593777
 31
0.0
  0
MTEXT
  5
17A6
330
17A4
100
AcDbEntity
  8
BEM
 62
     1
100
AcDbMText
 10
238.263768910013
 20
340.5221942130691
 30
0.0
 40
7.0
 41
0.0
 71
     5
 72
     1
  1
\A1;R50
 11
0.5458304222000058
 21
0.8378956678495022
 31
0.0
 73
     1
 44
1.0
  0
SOLID
  5
17A7
330
17A4
100
AcDbEntity
  8
BEM
 62
     0
100
AcDbTrace
 10
233.2714851537436
 20
323.087573718611
 30
0.0
 11
235.2265750453925
 21
321.8139694001444
 31
0.0
 12
230.4282171441681
 22
316.5855018844312
 32
0.0
 13
230.4282171441681
 23
316.5855018844312
 33
0.0
  0
POINT
  5
17A8
330
17A4
100
AcDbEntity
  8
DEFPOINTS
 62
     0
100
AcDbPoint
 10
230.4282171441681
 20
316.5855018844312
 30
0.0
  0
POINT
  5
17A9
330
17A4
100
AcDbEntity
  8
DEFPOINTS
 62
     0
100
AcDbPoint
 10
257.7197382541684
 20
358.4802852769064
 30
0.0
  0
ENDBLK
  5
17AB
330
17A4
100
AcDbEntity
  8
0
100
AcDbBlockEnd
  0
BLOCK
  5
17B9
330
17AD
100
AcDbEntity
  8
0
100
AcDbBlockBegin
  2
*D4
 70
     1
 10
0.0
 20
0.0
 30
0.0
  3
*D4
  1

  0
LINE
  5
17AE
330
17AD
100
AcDbEntity
  8
BEM
 62
     0
370
    -2
100
AcDbLine
 10
205.7197382541683
 20
308.4802852769063
 30
0.0
 11
130.2267024238528
 21
308.4802852769063
 31
0.0
  0
LINE
  5
17AF
330
17AD
100
AcDbEntity
  8
BEM
 62
     0
370
    -2
100
AcDbLine
 10
207.7197382541683
 20
306.4802852769063
 30
0.0
 11
207.7197382541683
 21
230.9872494465908
 31
0.0
  0
ARC
  5
17B0
330
17AD
100
AcDbEntity
  8
BEM
 62
     0
370
    -2
100
AcDbCircle
 10
207.7197382541683
 20
308.4802852769063
 30
0.0
 40
75.49303583031548
100
AcDbArc
 50
185.3145865682899
 51
264.6854134317101
  0
SOLID
  5
17B1
330
17AD
100
AcDbEntity
  8
BEM
 62
     0
100
AcDbTrace
 10
131.3858235093699
 20
301.4337234370947
 30
0.0
 11
133.7166478311727
 21
301.5419011859008
 31
0.0
 12
132.2267024238528
 22
308.4802852769063
 32
0.0
 13
132.2267024238528
 23
308.4802852769063
 33
0.0
  0
SOLID
  5
17B2
330
17AD
100
AcDbEntity
  8
BEM
 62
     0
100
AcDbTrace
 10
200.7813541631628
 20
234.4771948539107
 30
0.0
 11
200.6731764143567
 21
232.1463705321079
 31
0.0
 12
207.7197382541683
 22
232.9872494465908
 32
0.0
 13
207.7197382541683
 23
232.9872494465908
 33
0.0
  0
MTEXT
  5
17B3
330
17AD
100
AcDbEntity
  8
BEM
 62
     1
100
AcDbMText
 10
158.9342947639057
 20
259.6948417866438
 30
0.0
 40
7.0
 41
0.0
 71
     5
 72
     1
  1
\A1;90°
 11
0.7071067811865476
 21
-0.7071067811865475
 31
0.0
 73
     1
 44
1.0
  0
POINT
  5
17B4
330
17AD
100
AcDbEntity
  8
DEFPOINTS
 62
     0
100
AcDbPoint
 10
142.3408514163063
 20
270.7337673617486
 30
0.0
  0
POINT
  5
17B5
330
17AD
100
AcDbEntity
  8
DEFPOINTS
 62
     0
100
AcDbPoint
 10
207.7197382541683
 20
358.4802852769063
 30
0.0
  0
POINT
  5
17B6
330
17AD
100
AcDbEntity
  8
DEFPOINTS
 62
     0
100
AcDbPoint
 10
712.7197382541684
 20
308.4802852769063
 30
0.0
  0
POINT
  5
17B7
330
17AD
100
AcDbEntity
  8
DEFPOINTS
 62
     0
100
AcDbPoint
 10
257.7197382541683
 20
308.4802852769063
 30
0.0
  0
POINT
  5
17B8
330
17AD
100
AcDbEntity
  8
DEFPOINTS
 62
     0
100
AcDbPoint
 10
207.7197382541683
 20
458.4802852769063
 30
0.0
  0
ENDBLK
  5
17BA
330
17AD
100
AcDbEntity
  8
0
100
AcDbBlockEnd
  0
BLOCK
  5
17EC
330
17E2
100
AcDbEntity
  8
0
100
AcDbBlockBegin
  2
*D5
 70
     1
 10
0.0
 20
0.0
 30
0.0
  3
*D5
  1

  0
LINE
  5
17EE
330
17E2
100
AcDbEntity
  8
BEM
 62
     0
370
    -2
100
AcDbLine
 10
699.7895957628211
 20
271.9802852769063
 30
0.0
 11
731.4816455441509
 21
271.9802852769063
 31
0.0
  0
LINE
  5
17EF
330
17E2
100
AcDbEntity
  8
BEM
 62
     0
370
    -2
100
AcDbLine
 10
699.7895957628218
 20
344.9802852769063
 30
0.0
 11
731.4816455441509
 21
344.9802852769063
 31
0.0
  0
LINE
  5
17F0
330
17E2
100
AcDbEntity
  8
BEM
 62
     0
370
    -2
100
AcDbLine
 10
729.481645544151
 20
278.9802852769063
 30
0.0
 11
729.481645544151
 21
337.9802852769063
 31
0.0
  0
SOLID
  5
17F1
330
17E2
100
AcDbEntity
  8
BEM
 62
     0
100
AcDbTrace
 10
728.3149788774843
 20
278.9802852769063
 30
0.0
 11
730.6483122108176
 21
278.9802852769063
 31
0.0
 12
729.481645544151
 22
271.9802852769063
 32
0.0
 13
729.481645544151
 23
271.9802852769063
 33
0.0
  0
SOLID
  5
17F2
330
17E2
100
AcDbEntity
  8
BEM
 62
     0
100
AcDbTrace
 10
728.3149788774843
 20
337.9802852769063
 30
0.0
 11
730.6483122108176
 21
337.9802852769063
 31
0.0
 12
729.481645544151
 22
344.9802852769063
 32
0.0
 13
729.481645544151
 23
344.9802852769063
 33
0.0
  0
MTEXT
  5
17F3
330
17E2
100
AcDbEntity
  8
BEM
 62
     1
100
AcDbMText
 10
722.9816455441508
 20
308.4802852769064
 30
0.0
 40
7.0
 41
0.0
 71
     5
 72
     1
  1
\A1;%%c73
 11
0.0000000000000001
 21
1.0
 31
0.0
 73
     1
 44
1.0
  0
POINT
  5
17F4
330
17E2
100
AcDbEntity
  8
DEFPOINTS
 62
     0
100
AcDbPoint
 10
697.7895957628211
 20
271.9802852769063
 30
0.0
  0
POINT
  5
17F5
330
17E2
100
AcDbEntity
  8
DEFPOINTS
 62
     0
100
AcDbPoint
 10
697.7895957628218
 20
344.9802852769063
 30
0.0
  0
POINT
  5
17F6
330
17E2
100
AcDbEntity
  8
DEFPOINTS
 62
     0
100
AcDbPoint
 10
729.481645544151
 20
344.9802852769063
 30
0.0
  0
ENDBLK
  5
17ED
330
17E2
100
AcDbEntity
  8
0
100
AcDbBlockEnd
  0
ENDSEC
  0
SECTION
  2
ENTITIES
  0
TEXT
  5
65F
330
1E
100
AcDbEntity
  8
TEXT
100
AcDbText
 10
470.6189005955859
 20
113.2854817854125
 30
0.0
 40
5.0
  1
Erstellt mit AUTO-CAD 12.0
 41
0.8
  7
GREEKS
100
AcDbText
  0
TEXT
  5
669
330
1E
100
AcDbEntity
  8
TEXT
100
AcDbText
 10
624.2889439602947
 20
62.81253886044971
 30
0.0
 40
4.0
  1
Koeh
 41
0.8
  7
GREEKS
 72
     1
 11
629.5460868174376
 21
62.81253886044971
 31
0.0
100
AcDbText
  0
TEXT
  5
66A
330
1E
100
AcDbEntity
  8
TEXT
100
AcDbText
 10
589.368594660766
 20
62.82173295359672
 30
0.0
 40
4.0
  1
16.05.
 41
0.8
  7
GREEKS
 72
     1
 11
596.0733565655279
 21
62.82173295359672
 31
0.0
100
AcDbText
  0
LINE
  5
66B
330
1E
100
AcDbEntity
  8
BEM
100
AcDbLine
 10
460.0000000000001
 20
584.0
 30
0.0
 11
460.0000000000001
 21
594.0
 31
0.0
  0
LINE
  5
66C
330
1E
100
AcDbEntity
  8
BEM
100
AcDbLine
 10
460.0000000000001
 20
0.0
 30
0.0
 11
460.0000000000001
 21
10.0
 31
0.0
  0
INSERT
  5
66D
330
1E
100
AcDbEntity
  8
STEMPEL
100
AcDbBlockReference
  2
LOGO
 10
568.9705276546529
 20
44.32391971867144
 30
0.0
 41
2.0
 42
2.0
 43
2.0
  0
TEXT
  5
66E
330
1E
100
AcDbEntity
  8
TEXT
100
AcDbText
 10
654.9713400534564
 20
42.1950457301354
 30
0.0
 40
4.0
  1
05042DC0W.DWG
 41
0.8
  7
GREEKS
100
AcDbText
  0
TEXT
  5
66F
330
1E
100
AcDbEntity
  8
TEXT
 62
     1
100
AcDbText
 10
766.1044394842364
 20
87.01863741763572
 30
0.0
 40
7.0
  1
05042DC0W
 41
0.8
  7
GREEKS
 72
     1
 11
790.3711061509031
 21
87.01863741763572
 31
0.0
100
AcDbText
  0
TEXT
  5
670
330
1E
100
AcDbEntity
  8
TEXT
100
AcDbText
 10
836.4132055378062
 20
10.5537806176784
 30
0.0
 40
3.6
  1
Diese Zeichnung ist urheberrechtlich geschuetzt und bleibt unser Eigentum. Sie darf weder ganz noch teilweise vervielfaeltigt und nicht an Dritte weitegegeben werden.
 50
90.0
  7
GREEKS
100
AcDbText
  0
TEXT
  5
671
330
1E
100
AcDbEntity
  8
TEXT
100
AcDbText
 10
655.162303158329
 20
52.75131145345461
 30
0.0
 40
5.0
  1
EDV-Art.Nr. 05042.DC0X
 41
0.8
  7
GREEKS
100
AcDbText
  0
TEXT
  5
672
330
1E
100
AcDbEntity
  8
TEXT
100
AcDbText
 10
654.862987254257
 20
72.29651127304094
 30
0.0
 40
5.0
  1
DN 100/70
 41
0.8
  7
GREEKS
100
AcDbText
  0
TEXT
  5
673
330
1E
100
AcDbEntity
  8
TEXT
 62
     1
100
AcDbText
 10
578.8064310364449
 20
86.22410504373215
 30
0.0
 40
7.0
  1
1:2
 41
0.8
  7
GREEKS
100
AcDbText
  0
TEXT
  5
674
330
1E
100
AcDbEntity
  8
TEXT
100
AcDbText
 10
570.7299860699794
 20
73.14583683904146
 30
0.0
 40
4.0
  1
2008
 41
0.8
  7
GREEKS
100
AcDbText
  0
LINE
  5
675
330
1E
100
AcDbEntity
  8
STEMPEL
100
AcDbLine
 10
40.0
 20
584.0
 30
0.0
 11
40.0
 21
10.0
 31
0.0
  0
LINE
  5
676
330
1E
100
AcDbEntity
  8
STEMPEL
100
AcDbLine
 10
830.0
 20
10.0
 30
0.0
 11
830.0
 21
584.0
 31
0.0
  0
LINE
  5
677
330
1E
100
AcDbEntity
  8
STEMPEL
100
AcDbLine
 10
40.0
 20
10.0
 30
0.0
 11
830.0
 21
10.0
 31
0.0
  0
LINE
  5
678
330
1E
100
AcDbEntity
  8
STEMPEL
100
AcDbLine
 10
830.0
 20
584.0
 30
0.0
 11
40.0
 21
584.0
 31
0.0
  0
LINE
  5
679
330
1E
100
AcDbEntity
  8
HILF
100
AcDbLine
 10
0.0
 20
594.0
 30
0.0
 11
0.0
 21
0.0
 31
0.0
  0
LINE
  5
67A
330
1E
100
AcDbEntity
  8
HILF
100
AcDbLine
 10
840.0000000000002
 20
594.0
 30
0.0
 11
0.0
 21
594.0
 31
0.0
  0
LINE
  5
67B
330
1E
100
AcDbEntity
  8
HILF
100
AcDbLine
 10
840.0000000000002
 20
0.0
 30
0.0
 11
840.0000000000002
 21
594.0
 31
0.0
  0
LINE
  5
67C
330
1E
100
AcDbEntity
  8
HILF
100
AcDbLine
 10
0.0
 20
0.0
 30
0.0
 11
840.0000000000002
 21
0.0
 31
0.0
  0
TEXT
  5
67D
330
1E
100
AcDbEntity
  8
TEXT
100
AcDbText
 10
757.2400861497007
 20
52.07416177878599
 30
0.0
 40
5.0
  1
ersetzt durch:
 41
0.8
  7
GREEKS
100
AcDbText
  0
TEXT
  5
67E
330
1E
100
AcDbEntity
  8
TEXT
100
AcDbText
 10
567.6006777387303
 20
43.52946389649804
 30
0.0
 40
4.0
  1
Norm.
 41
0.8
  7
GREEKS
100
AcDbText
  0
TEXT
  5
67F
330
1E
100
AcDbEntity
  8
TEXT
100
AcDbText
 10
567.5515086571671
 20
53.68926291428374
 30
0.0
 40
4.0
  1
Gepr.
 41
0.8
  7
GREEKS
100
AcDbText
  0
TEXT
  5
680
330
1E
100
AcDbEntity
  8
TEXT
100
AcDbText
 10
567.5836127167614
 20
63.62990369617961
 30
0.0
 40
4.0
  1
Gez.
 41
0.8
  7
GREEKS
100
AcDbText
  0
TEXT
  5
681
330
1E
100
AcDbEntity
  8
TEXT
100
AcDbText
 10
622.4626584226294
 20
73.30961091915219
 30
0.0
 40
4.0
  1
Name
 41
0.8
  7
GREEKS
100
AcDbText
  0
TEXT
  5
682
330
1E
100
AcDbEntity
  8
TEXT
100
AcDbText
 10
592.3311673153649
 20
73.31880501229921
 30
0.0
 40
4.0
  1
Tag
 41
0.8
  7
GREEKS
100
AcDbText
  0
TEXT
  5
683
330
1E
100
AcDbEntity
  8
TEXT
100
AcDbText
 10
548.220150471768
 20
18.59324216966405
 30
0.0
 40
4.0
  1
Name
 41
0.8
  7
GREEKS
100
AcDbText
  0
TEXT
  5
684
330
1E
100
AcDbEntity
  8
TEXT
100
AcDbText
 10
529.4723536997202
 20
18.67156269339807
 30
0.0
 40
4.0
  1
Tag
 41
0.8
  7
GREEKS
100
AcDbText
  0
TEXT
  5
685
330
1E
100
AcDbEntity
  8
TEXT
100
AcDbText
 10
478.2664110704574
 20
13.65465846027189
 30
0.0
 40
4.0
  1
Index
 50
90.0
 41
0.8
  7
GREEKS
100
AcDbText
  0
TEXT
  5
686
330
1E
100
AcDbEntity
  8
TEXT
100
AcDbText
 10
756.7238616296994
 20
73.18118237099963
 30
0.0
 40
5.0
  1
Ersatz für:
 41
0.8
  7
GREEKS
100
AcDbText
  0
TEXT
  5
687
330
1E
100
AcDbEntity
  8
TEXT
100
AcDbText
 10
654.7422383911358
 20
30.84560570193054
 30
0.0
 40
5.0
  1
Bauvorhaben
 41
0.8
  7
GREEKS
100
AcDbText
  0
TEXT
  5
688
330
1E
100
AcDbEntity
  8
TEXT
100
AcDbText
 10
756.1787549576341
 20
102.3132034537135
 30
0.0
 40
5.0
  1
Zeichnungs Nr.
 41
0.8
  7
GREEKS
100
AcDbText
  0
TEXT
  5
689
330
1E
100
AcDbEntity
  8
TEXT
100
AcDbText
 10
654.8779403809009
 20
102.5489328011779
 30
0.0
 40
5.0
  1
Benennung
 41
0.8
  7
GREEKS
100
AcDbText
  0
TEXT
  5
68A
330
1E
100
AcDbEntity
  8
TEXT
100
AcDbText
 10
617.9646614905597
 20
102.4184168434818
 30
0.0
 40
5.0
  1
zul.Abw.
 41
0.8
  7
GREEKS
100
AcDbText
  0
TEXT
  5
68B
330
1E
100
AcDbEntity
  8
TEXT
100
AcDbText
 10
573.5163572150375
 20
102.4620895087088
 30
0.0
 40
5.0
  1
Maßstab
 41
0.8
  7
GREEKS
100
AcDbText
  0
TEXT
  5
68C
330
1E
100
AcDbEntity
  8
TEXT
100
AcDbText
 10
492.3831816424238
 20
18.67381894984129
 30
0.0
 40
4.0
  1
Änderung
 41
0.8
  7
GREEKS
100
AcDbText
  0
LINE
  5
68D
330
1E
100
AcDbEntity
  8
HILF
100
AcDbLine
 10
654.7736801096947
 20
14.89398258028302
 30
0.0
 11
824.8588839326728
 21
14.89398258028302
 31
0.0
  0
LINE
  5
68E
330
1E
100
AcDbEntity
  8
HILF
100
AcDbLine
 10
756.7238616296994
 20
83.77983636955821
 30
0.0
 11
824.8588839326728
 21
83.77983636955821
 31
0.0
  0
LINE
  5
68F
330
1E
100
AcDbEntity
  8
VOLL
100
AcDbLine
 10
752.0000000000001
 20
60.0
 30
0.0
 11
830.0
 21
60.0
 31
0.0
  0
LINE
  5
690
330
1E
100
AcDbEntity
  8
HILF
100
AcDbLine
 10
654.7736801096947
 20
50.0
 30
0.0
 11
746.629784251481
 21
50.0
 31
0.0
  0
LINE
  5
691
330
1E
100
AcDbEntity
  8
HILF
100
AcDbLine
 10
654.7736801096947
 20
60.0
 30
0.0
 11
746.629784251481
 21
60.0
 31
0.0
  0
LINE
  5
692
330
1E
100
AcDbEntity
  8
HILF
100
AcDbLine
 10
654.7736801096947
 20
70.0
 30
0.0
 11
746.629784251481
 21
70.0
 31
0.0
  0
LINE
  5
693
330
1E
100
AcDbEntity
  8
HILF
100
AcDbLine
 10
654.7736801096947
 20
84.03758247564132
 30
0.0
 11
746.629784251481
 21
84.03758247564132
 31
0.0
  0
LINE
  5
694
330
1E
100
AcDbEntity
  8
HILF
100
AcDbLine
 10
566.0000000000001
 20
50.0
 30
0.0
 11
649.9999999999999
 21
50.0
 31
0.0
  0
LINE
  5
695
330
1E
100
AcDbEntity
  8
HILF
100
AcDbLine
 10
566.0000000000001
 20
60.0
 30
0.0
 11
649.9999999999999
 21
60.0
 31
0.0
  0
LINE
  5
696
330
1E
100
AcDbEntity
  8
HILF
100
AcDbLine
 10
566.0000000000001
 20
70.0
 30
0.0
 11
649.9999999999999
 21
70.0
 31
0.0
  0
LINE
  5
697
330
1E
100
AcDbEntity
  8
HILF
100
AcDbLine
 10
470.0
 20
40.0
 30
0.0
 11
566.0000000000001
 21
40.0
 31
0.0
  0
LINE
  5
698
330
1E
100
AcDbEntity
  8
HILF
100
AcDbLine
 10
470.0
 20
50.0
 30
0.0
 11
566.0000000000001
 21
50.0
 31
0.0
  0
LINE
  5
699
330
1E
100
AcDbEntity
  8
HILF
100
AcDbLine
 10
470.0
 20
60.0
 30
0.0
 11
566.0000000000001
 21
60.0
 31
0.0
  0
LINE
  5
69A
330
1E
100
AcDbEntity
  8
HILF
100
AcDbLine
 10
470.0
 20
70.0
 30
0.0
 11
566.0000000000001
 21
70.0
 31
0.0
  0
LINE
  5
69B
330
1E
100
AcDbEntity
  8
HILF
100
AcDbLine
 10
470.0
 20
80.0
 30
0.0
 11
566.0000000000001
 21
80.0
 31
0.0
  0
LINE
  5
69C
330
1E
100
AcDbEntity
  8
HILF
100
AcDbLine
 10
470.0
 20
90.0
 30
0.0
 11
566.0000000000001
 21
90.0
 31
0.0
  0
LINE
  5
69D
330
1E
100
AcDbEntity
  8
HILF
100
AcDbLine
 10
470.0
 20
100.0
 30
0.0
 11
566.0000000000001
 21
100.0
 31
0.0
  0
LINE
  5
69E
330
1E
100
AcDbEntity
  8
VOLL
100
AcDbLine
 10
610.0000000000001
 20
109.9999999999998
 30
0.0
 11
609.9999999999998
 21
40.0
 31
0.0
  0
LINE
  5
69F
330
1E
100
AcDbEntity
  8
VOLL
100
AcDbLine
 10
584.0000000000001
 20
80.0
 30
0.0
 11
584.0000000000001
 21
40.0
 31
0.0
  0
LINE
  5
6A0
330
1E
100
AcDbEntity
  8
VOLL
100
AcDbLine
 10
544.0000000000001
 20
109.9999999999999
 30
0.0
 11
543.9999999999998
 21
9.999999999999886
 31
0.0
  0
LINE
  5
6A1
330
1E
100
AcDbEntity
  8
VOLL
100
AcDbLine
 10
524.0000000000001
 20
109.9999999999999
 30
0.0
 11
523.9999999999999
 21
9.999999999999943
 31
0.0
  0
LINE
  5
6A2
330
1E
100
AcDbEntity
  8
VOLL
100
AcDbLine
 10
484.0
 20
110.0
 30
0.0
 11
483.9999999999998
 21
10.0
 31
0.0
  0
LINE
  5
6A3
330
1E
100
AcDbEntity
  8
STEMPEL
100
AcDbLine
 10
830.0
 20
80.0
 30
0.0
 11
566.0000000000001
 21
80.0
 31
0.0
  0
LINE
  5
6A4
330
1E
100
AcDbEntity
  8
STEMPEL
100
AcDbLine
 10
830.0
 20
40.0
 30
0.0
 11
565.9999999999999
 21
40.0
 31
0.0
  0
LINE
  5
6A5
330
1E
100
AcDbEntity
  8
STEMPEL
100
AcDbLine
 10
565.9999999999999
 20
30.0
 30
0.0
 11
469.9999999999999
 21
30.0
 31
0.0
  0
LINE
  5
6A6
330
1E
100
AcDbEntity
  8
STEMPEL
100
AcDbLine
 10
752.0000000000001
 20
109.9999999999996
 30
0.0
 11
752.0000000000001
 21
40.0
 31
0.0
  0
LINE
  5
6A7
330
1E
100
AcDbEntity
  8
STEMPEL
100
AcDbLine
 10
649.9999999999999
 20
110.0
 30
0.0
 11
649.9999999999999
 21
10.0
 31
0.0
  0
LINE
  5
6A8
330
1E
100
AcDbEntity
  8
STEMPEL
100
AcDbLine
 10
566.0000000000001
 20
109.9999999999999
 30
0.0
 11
565.9999999999999
 21
9.999999999999886
 31
0.0
  0
LINE
  5
6A9
330
1E
100
AcDbEntity
  8
STEMPEL
100
AcDbLine
 10
470.0
 20
110.0
 30
0.0
 11
469.9999999999999
 21
10.0
 31
0.0
  0
LINE
  5
6AA
330
1E
100
AcDbEntity
  8
STEMPEL
100
AcDbLine
 10
830.0
 20
110.0
 30
0.0
 11
470.0
 21
110.0
 31
0.0
  0
TEXT
  5
6AB
330
1E
100
AcDbEntity
  8
TEXT
 62
     1
100
AcDbText
 10
654.979117340995
 20
86.99412083985322
 30
0.0
 40
7.0
  1
LORO-Anschlußbogen
 41
0.8
  7
GREEKS
100
AcDbText
  0
TEXT
  5
A44
330
1E
100
AcDbEntity
  8
TEXT
 62
     1
100
AcDbText
 10
512.404743977696
 20
320.535242576043
 30
0.0
 40
7.0
  1
DN70
 41
0.8
  7
GREEKS
100
AcDbText
  0
TEXT
  5
A45
330
1E
100
AcDbEntity
  8
TEXT
 62
     1
100
AcDbText
 10
202.1682640599526
 20
421.1800938229015
 30
0.0
 40
7.0
  1
DN100
 50
90.0
 41
0.8
  7
GREEKS
100
AcDbText
  0
TEXT
  5
A46
330
1E
100
AcDbEntity
  8
TEXT
100
AcDbText
 10
613.0623689738784
 20
88.90224593904305
 30
0.0
 40
4.0
  1
DIN EN1123-2
 41
0.8
  7
GREEKS
 72
     1
 11
630.0528451643546
 21
88.90224593904305
 31
0.0
100
AcDbText
  0
TEXT
  5
A50
330
1E
100
AcDbEntity
  8
TEXT
 62
     1
100
AcDbText
 10
664.6057658946467
 20
129.0783465745482
 30
0.0
 40
7.0
  1
und innen beschichtet
 41
0.8
  7
GREEKS
100
AcDbText
  0
TEXT
  5
A51
330
1E
100
AcDbEntity
  8
TEXT
 62
     1
100
AcDbText
 10
616.656048457249
 20
139.8004583895517
 30
0.0
 40
7.0
  1
Werkstoff: E195 EN10305 feuerverzinkt
 41
0.8
  7
GREEKS
100
AcDbText
  0
LINE
  5
161F
102
{ACAD_REACTORS
330
167F
330
1711
102
}
330
1E
100
AcDbEntity
  8
STEMPEL
  6
Continuous
100
AcDbLine
 10
697.7197382541683
 20
273.5802852769063
 30
0.0
 11
257.7197382541683
 21
273.5802852769063
 31
0.0
  0
LINE
  5
1620
102
{ACAD_REACTORS
330
167F
330
1711
102
}
330
1E
100
AcDbEntity
  8
STEMPEL
  6
Continuous
100
AcDbLine
 10
697.7197382541685
 20
343.3802852769062
 30
0.0
 11
257.7197382541683
 21
343.3802852769062
 31
0.0
  0
LINE
  5
1621
102
{ACAD_REACTORS
330
167F
330
1711
330
1716
102
}
330
1E
100
AcDbEntity
  8
STEMPEL
  6
Continuous
100
AcDbLine
 10
697.7895957628211
 20
271.9802852769063
 30
0.0
 11
257.7197382541683
 21
271.9802852769063
 31
0.0
  0
LINE
  5
1622
102
{ACAD_REACTORS
330
167F
330
1711
330
1716
102
}
330
1E
100
AcDbEntity
  8
STEMPEL
  6
Continuous
100
AcDbLine
 10
697.7895957628218
 20
344.9802852769063
 30
0.0
 11
257.7197382541683
 21
344.9802852769063
 31
0.0
  0
LINE
  5
1623
330
1E
100
AcDbEntity
  8
MITTEL
100
AcDbLine
 10
712.7197382541684
 20
308.4802852769063
 30
0.0
 11
257.7197382541683
 21
308.4802852769063
 31
0.0
  0
LINE
  5
1626
102
{ACAD_REACTORS
330
167F
330
1711
102
}
330
1E
100
AcDbEntity
  8
STEMPEL
100
AcDbLine
 10
327.7197382541684
 20
271.9802852769063
 30
0.0
 11
327.7197382541684
 21
344.9802852769063
 31
0.0
  0
ARC
  5
1627
102
{ACAD_REACTORS
330
167F
102
}
330
1E
100
AcDbEntity
  8
STEMPEL
100
AcDbCircle
 10
257.7197382541683
 20
358.4802852769063
 30
0.0
 40
84.9
100
AcDbArc
 50
180.0
 51
270.0
  0
ARC
  5
1628
102
{ACAD_REACTORS
330
1636
330
167F
102
}
330
1E
100
AcDbEntity
  8
STEMPEL
100
AcDbCircle
 10
257.7197382541683
 20
358.4802852769063
 30
0.0
 40
86.5
100
AcDbArc
 50
180.0
 51
270.0
  0
ARC
  5
1629
330
1E
100
AcDbEntity
  8
MITTEL
100
AcDbCircle
 10
257.7197382541683
 20
358.4802852769063
 30
0.0
 40
50.0
100
AcDbArc
 50
180.0
 51
270.0
  0
ARC
  5
162A
102
{ACAD_REACTORS
330
1716
102
}
330
1E
100
AcDbEntity
  8
SCHRAFF
100
AcDbCircle
 10
327.7197382541684
 20
274.1094897905191
 30
0.0
 40
3.678792174177443
100
AcDbArc
 50
215.3646497412264
 51
324.6353502587735
  0
LINE
  5
1630
330
1E
100
AcDbEntity
  8
MITTEL
100
AcDbLine
 10
207.7197382541683
 20
358.4802852769063
 30
0.0
 11
207.7197382541684
 21
458.4802852769062
 31
0.0
  0
LINE
  5
1631
330
1E
100
AcDbEntity
  8
STEMPEL
100
AcDbLine
 10
173.6060541936945
 20
360.319227158328
 30
0.0
 11
241.8334223146421
 21
360.319227158328
 31
0.0
  0
LINE
  5
1632
102
{ACAD_REACTORS
330
1704
102
}
330
1E
100
AcDbEntity
  8
STEMPEL
100
AcDbLine
 10
156.7197382541684
 20
368.4802852769063
 30
0.0
 11
258.7197382541684
 21
368.4802852769063
 31
0.0
  0
LINE
  5
1635
102
{ACAD_REACTORS
330
1636
330
1645
330
167F
102
}
330
1E
100
AcDbEntity
  8
STEMPEL
100
AcDbLine
 10
171.2197382541683
 20
358.4802852769063
 30
0.0
 11
244.2197382541683
 21
358.4802852769063
 31
0.0
  0
HATCH
  5
1636
330
1E
100
AcDbEntity
  8
SCHRAFF
100
AcDbHatch
 10
0.0
 20
0.0
 30
0.0
210
0.0
220
0.0
230
1.0
  2
_USER
 70
     0
 71
     1
 91
        1
 92
        7
 72
     1
 73
     1
 93
        4
 10
171.2197382541683
 20
358.4802852769063
 42
0.0
 10
172.8197382541683
 20
358.4802852769063
 42
-0.0123388022626035
 10
168.8357019065557
 20
360.3013757999891
 42
0.3968987179505321
 10
171.2717613755556
 20
355.4807363783482
 42
-0.0086711721609246
 97
        4
330
1635
330
163A
330
1637
330
1628
 75
     0
 76
     0
 52
0.0
 41
0.1
 77
     0
 78
     1
 53
0.0
 43
-19.01998711964685
 44
12.81727607366673
 45
0.0
 46
0.1
 79
     0
 47
0.0232355999990063
 98
        1
 10
170.5406000365924
 20
357.3946998145265
  0
ARC
  5
1637
102
{ACAD_REACTORS
330
1636
102
}
330
1E
100
AcDbEntity
  8
SCHRAFF
100
AcDbCircle
 10
172.6118470341231
 20
359.1837728184267
 30
0.0
 40
3.938058969701709
100
AcDbArc
 50
163.5131432861808
 51
250.1054013189638
  0
HATCH
  5
1638
330
1E
100
AcDbEntity
  8
SCHRAFF
100
AcDbHatch
 10
0.0
 20
0.0
 30
0.0
210
0.0
220
0.0
230
1.0
  2
_USER
 70
     0
 71
     1
 91
        1
 92
       33
 93
        4
 72
     1
 10
172.8197382541683
 20
358.4802852769063
 11
173.6060541936945
 21
360.319227158328
 72
     2
 10
207.7197382541683
 20
440.100240355383
 40
86.76839002151927
 50
235.7490696967115
 51
246.8488592270083
 73
     1
 72
     1
 10
157.7592595531486
 20
366.7260103084686
 11
158.7197382541684
 21
368.4802852769063
 72
     2
 10
207.7197382541683
 20
440.100240355383
 40
88.76839002151927
 50
235.7490696967115
 51
246.8488592270083
 73
     1
 97
        4
330
1644
330
1639
330
163F
330
163A
 75
     0
 76
     0
 52
135.0
 41
2.0
 77
     0
 78
     1
 53
135.0
 43
-19.01998711964685
 44
12.81727607366673
 45
-1.414213562373095
 46
-1.414213562373094
 79
     0
 98
        1
 10
-19.01998711964685
 20
12.81727607366673
  0
ARC
  5
1639
102
{ACAD_REACTORS
330
1638
102
}
330
1E
100
AcDbEntity
  8
STEMPEL
100
AcDbCircle
 10
207.7197382541683
 20
440.100240355383
 30
0.0
 40
86.76839002151927
100
AcDbArc
 50
235.6306171117605
 51
246.8488592270081
  0
ARC
  5
163A
102
{ACAD_REACTORS
330
1638
330
1636
102
}
330
1E
100
AcDbEntity
  8
STEMPEL
100
AcDbCircle
 10
207.7197382541683
 20
440.100240355383
 30
0.0
 40
88.76839002151927
100
AcDbArc
 50
235.7490696967122
 51
246.8488592270081
  0
HATCH
  5
163D
330
1E
100
AcDbEntity
  8
SCHRAFF
100
AcDbHatch
 10
0.0
 20
0.0
 30
0.0
210
0.0
220
0.0
230
1.0
  2
_USER
 70
     0
 71
     0
 91
        1
 92
        7
 72
     1
 73
     1
 93
        5
 10
158.7197382541684
 20
368.4802852769063
 42
0.0
 10
156.7197382541684
 20
368.4802852769063
 42
0.0
 10
156.7197382541684
 20
371.944386892044
 42
0.9734671428161835
 10
160.5306515796979
 20
364.9136912535531
 42
-0.0093266573069767
 10
157.7592595531486
 20
366.7260103084686
 42
0.0
 97
        0
 75
     0
 76
     0
 52
0.0
 41
0.1
 77
     0
 78
     1
 53
0.0
 43
-19.01998711964685
 44
12.81727607366673
 45
0.0
 46
0.1
 79
     0
 47
0.030215295966209
 98
        1
 10
157.0348250964014
 20
367.4791809192374
  0
ARC
  5
163E
330
1E
100
AcDbEntity
  8
SCHRAFF
100
AcDbCircle
 10
158.7197382541684
 20
368.4802852769063
 30
0.0
 40
4.0
100
AcDbArc
 50
120.0000000000005
 51
296.9188660659552
  0
LINE
  5
163F
102
{ACAD_REACTORS
330
1638
102
}
330
1E
100
AcDbEntity
  8
STEMPEL
100
AcDbLine
 10
157.7592595531486
 20
366.7260103084686
 30
0.0
 11
158.7197382541684
 21
368.4802852769063
 31
0.0
  0
LINE
  5
1644
102
{ACAD_REACTORS
330
1638
102
}
330
1E
100
AcDbEntity
  8
STEMPEL
100
AcDbLine
 10
172.8197382541683
 20
358.4802852769063
 30
0.0
 11
173.6060541936945
 21
360.319227158328
 31
0.0
  0
HATCH
  5
1645
330
1E
100
AcDbEntity
  8
SCHRAFF
100
AcDbHatch
 10
0.0
 20
0.0
 30
0.0
210
0.0
220
0.0
230
1.0
  2
_USER
 70
     0
 71
     1
 91
        1
 92
        7
 72
     1
 73
     1
 93
        4
 10
246.6037746017809
 20
360.3013757999891
 42
-0.0123388022626037
 10
242.6197382541682
 20
358.4802852769063
 42
0.0
 10
244.2197382541683
 20
358.4802852769063
 42
0.0557280900008397
 10
244.5530715875016
 20
355.4988613069066
 42
0.3844889949875154
 97
        4
330
164D
330
1635
330
1648
330
1646
 75
     0
 76
     0
 52
0.0
 41
0.1
 77
     0
 78
     1
 53
0.0
 43
-19.01998711964685
 44
12.81727607366673
 45
0.0
 46
0.1
 79
     0
 47
0.0190003366464074
 98
        1
 10
244.6779696860233
 20
358.2254303492934
  0
ARC
  5
1646
102
{ACAD_REACTORS
330
1645
102
}
330
1E
100
AcDbEntity
  8
SCHRAFF
100
AcDbCircle
 10
242.9173910198938
 20
359.0363954985021
 30
0.0
 40
3.897383619296046
100
AcDbArc
 50
294.8148171967451
 51
18.93962664042626
  0
ARC
  5
1647
102
{ACAD_REACTORS
330
167F
102
}
330
1E
100
AcDbEntity
  8
STEMPEL
100
AcDbCircle
 10
257.7197382541683
 20
358.4802852769063
 30
0.0
 40
15.1
100
AcDbArc
 50
180.0
 51
270.0
  0
ARC
  5
1648
102
{ACAD_REACTORS
330
1645
330
167F
102
}
330
1E
100
AcDbEntity
  8
STEMPEL
100
AcDbCircle
 10
257.7197382541683
 20
358.4802852769063
 30
0.0
 40
13.5
100
AcDbArc
 50
180.0
 51
270.0
  0
HATCH
  5
164B
330
1E
100
AcDbEntity
  8
SCHRAFF
100
AcDbHatch
 10
0.0
 20
0.0
 30
0.0
210
0.0
220
0.0
230
1.0
  2
_USER
 70
     0
 71
     1
 91
        1
 92
       33
 93
        4
 72
     2
 10
207.7197382541683
 20
440.100240355383
 40
86.76839002151927
 50
293.1511407729918
 51
304.2509303032885
 73
     1
 72
     2
 10
207.7197382541683
 20
440.100240355383
 40
88.76839002151927
 50
293.1511407729917
 51
304.2509303032885
 73
     1
 72
     1
 10
257.680216955188
 20
366.7260103084686
 11
256.7197382541682
 21
368.4802852769063
 72
     1
 10
242.6197382541683
 20
358.4802852769063
 11
241.8334223146421
 21
360.319227158328
 97
        4
330
164C
330
164D
330
1651
330
164E
 75
     0
 76
     0
 52
135.0
 41
2.0
 77
     0
 78
     1
 53
135.0
 43
-19.01998711964685
 44
12.81727607366673
 45
-1.414213562373095
 46
-1.414213562373094
 79
     0
 98
        1
 10
-19.01998711964685
 20
12.81727607366673
  0
ARC
  5
164C
102
{ACAD_REACTORS
330
164B
102
}
330
1E
100
AcDbEntity
  8
STEMPEL
100
AcDbCircle
 10
207.7197382541683
 20
440.100240355383
 30
0.0
 40
86.76839002151927
100
AcDbArc
 50
293.1511407729919
 51
304.3693828882394
  0
ARC
  5
164D
102
{ACAD_REACTORS
330
164B
330
1645
102
}
330
1E
100
AcDbEntity
  8
STEMPEL
100
AcDbCircle
 10
207.7197382541683
 20
440.100240355383
 30
0.0
 40
88.76839002151927
100
AcDbArc
 50
293.1511407729919
 51
304.2509303032878
  0
LINE
  5
164E
102
{ACAD_REACTORS
330
164B
102
}
330
1E
100
AcDbEntity
  8
STEMPEL
100
AcDbLine
 10
242.6197382541683
 20
358.4802852769063
 30
0.0
 11
241.8334223146421
 21
360.319227158328
 31
0.0
  0
ARC
  5
164F
330
1E
100
AcDbEntity
  8
SCHRAFF
100
AcDbCircle
 10
256.7197382541683
 20
368.4802852769063
 30
0.0
 40
4.0
100
AcDbArc
 50
243.0811339340448
 51
59.99999999999946
  0
HATCH
  5
1650
330
1E
100
AcDbEntity
  8
SCHRAFF
100
AcDbHatch
 10
0.0
 20
0.0
 30
0.0
210
0.0
220
0.0
230
1.0
  2
_USER
 70
     0
 71
     0
 91
        1
 92
        7
 72
     1
 73
     1
 93
        5
 10
256.7197382541683
 20
368.4802852769063
 42
0.0
 10
258.7197382541683
 20
368.4802852769063
 42
0.0
 10
258.7197382541683
 20
371.944386892044
 42
-0.9734671428161835
 10
254.9088249286387
 20
364.9136912535531
 42
0.0093266573069767
 10
257.680216955188
 20
366.7260103084686
 42
0.0
 97
        0
 75
     0
 76
     0
 52
0.0
 41
0.1
 77
     0
 78
     1
 53
180.0
 43
434.4594636279834
 44
12.81727607366673
 45
0.0
 46
0.1
 79
     0
 47
0.030215295966209
 98
        1
 10
258.4046514119352
 20
367.4791809192374
  0
LINE
  5
1651
102
{ACAD_REACTORS
330
164B
102
}
330
1E
100
AcDbEntity
  8
STEMPEL
100
AcDbLine
 10
257.680216955188
 20
366.7260103084686
 30
0.0
 11
256.7197382541683
 21
368.4802852769063
 31
0.0
  0
ARC
  5
166C
102
{ACAD_REACTORS
330
1716
102
}
330
1E
100
AcDbEntity
  8
SCHRAFF
100
AcDbCircle
 10
327.7197382541684
 20
342.8510807632934
 30
0.0
 40
3.678792174177443
100
AcDbArc
 50
35.36464974122646
 51
144.6353502587735
  0
LINE
  5
166D
330
1E
100
AcDbEntity
  8
HILF
100
AcDbLine
 10
697.7197382541683
 20
275.1802852769064
 30
0.0
 11
697.7197382541683
 21
341.7802852769063
 31
0.0
  0
LINE
  5
166E
102
{ACAD_REACTORS
330
1711
102
}
330
1E
100
AcDbEntity
  8
STEMPEL
100
AcDbLine
 10
707.7197382541683
 20
272.8490601720961
 30
0.0
 11
707.7197382541683
 21
344.1115103817163
 31
0.0
  0
LINE
  5
166F
102
{ACAD_REACTORS
330
1711
102
}
330
1E
100
AcDbEntity
  8
STEMPEL
100
AcDbLine
 10
697.7895957628211
 20
271.9802852769063
 30
0.0
 11
707.7197382541683
 21
272.8490601720961
 31
0.0
  0
LINE
  5
1670
102
{ACAD_REACTORS
330
1711
102
}
330
1E
100
AcDbEntity
  8
STEMPEL
100
AcDbLine
 10
697.7197382541683
 20
273.5802852769063
 30
0.0
 11
707.7197382541683
 21
274.4551719121655
 31
0.0
  0
LINE
  5
1671
102
{ACAD_REACTORS
330
1711
102
}
330
1E
100
AcDbEntity
  8
STEMPEL
100
AcDbLine
 10
697.7895957628218
 20
344.9802852769063
 30
0.0
 11
707.7197382541683
 21
344.1115103817163
 31
0.0
  0
LINE
  5
1672
102
{ACAD_REACTORS
330
1711
102
}
330
1E
100
AcDbEntity
  8
STEMPEL
100
AcDbLine
 10
697.7197382541685
 20
343.3802852769062
 30
0.0
 11
707.7197382541683
 21
342.5053986416471
 31
0.0
  0
HATCH
  5
167F
330
1E
100
AcDbEntity
  8
SCHRAFF
100
AcDbHatch
 10
0.0
 20
0.0
 30
0.0
210
0.0
220
0.0
230
1.0
  2
_USER
 70
     0
 71
     1
 91
        2
 92
        7
 72
     1
 73
     1
 93
        6
 10
327.7197382541684
 20
344.9802852769063
 42
0.0
 10
257.7197382541683
 20
344.9802852769063
 42
-0.4142135623730945
 10
244.2197382541683
 20
358.4802852769063
 42
0.0
 10
242.6197382541683
 20
358.4802852769063
 42
0.4142135623730951
 10
257.7197382541683
 20
343.3802852769062
 42
0.0
 10
327.7197382541685
 20
343.3802852769063
 42
0.0
 97
        6
330
1622
330
1648
330
1635
330
1647
330
1620
330
1626
 92
        7
 72
     1
 73
     1
 93
        6
 10
327.7197382541684
 20
273.5802852769063
 42
0.0
 10
257.7197382541683
 20
273.5802852769063
 42
-0.414213562373095
 10
172.8197382541683
 20
358.4802852769063
 42
0.0
 10
171.2197382541683
 20
358.4802852769063
 42
0.4142135623730951
 10
257.7197382541683
 20
271.9802852769063
 42
0.0
 10
327.7197382541684
 20
271.9802852769063
 42
0.0
 97
        6
330
161F
330
1627
330
1635
330
1628
330
1621
330
1626
 75
     0
 76
     0
 52
45.0
 41
2.0
 77
     0
 78
     1
 53
45.0
 43
0.0
 44
0.0
 45
-1.414213562373094
 46
1.414213562373095
 79
     0
 47
0.6215738707242392
 98
        2
 10
294.5527909089496
 20
343.7761278358796
 10
262.211433695788
 20
272.9167063676539
  0
LINE
  5
16B2
330
1E
100
AcDbEntity
  8
HILF
100
AcDbLine
 10
160.3517779646442
 20
380.3951318801361
 30
0.0
 11
255.0876985436924
 21
380.3951318801361
 31
0.0
  0
LINE
  5
16B3
330
1E
100
AcDbEntity
  8
HILF
100
AcDbLine
 10
258.0301382379752
 20
386.5742832938266
 30
0.0
 11
157.4093382703613
 21
386.5742832938266
 31
0.0
  0
LINE
  5
16B4
330
1E
100
AcDbEntity
  8
HILF
100
AcDbLine
 10
156.3811396492465
 20
409.2545037091801
 30
0.0
 11
259.0583368590901
 21
409.2545037091801
 31
0.0
  0
LINE
  5
16B6
102
{ACAD_REACTORS
330
1704
102
}
330
1E
100
AcDbEntity
  8
STEMPEL
100
AcDbLine
 10
152.0129824162433
 20
453.4802852769063
 30
0.0
 11
263.4264940920933
 21
453.4802852769063
 31
0.0
  0
LINE
  5
16B8
102
{ACAD_REACTORS
330
1704
102
}
330
1E
100
AcDbEntity
  8
STEMPEL
100
AcDbLine
 10
256.7197382541683
 20
377.4462927570382
 30
0.0
 11
256.7197382541683
 21
368.4802852769063
 31
0.0
  0
LINE
  5
16B9
102
{ACAD_REACTORS
330
1704
102
}
330
1E
100
AcDbEntity
  8
STEMPEL
100
AcDbLine
 10
258.7197382541683
 20
377.4462927570382
 30
0.0
 11
258.7197382541683
 21
368.4802852769063
 31
0.0
  0
LINE
  5
16BA
102
{ACAD_REACTORS
330
1704
102
}
330
1E
100
AcDbEntity
  8
STEMPEL
100
AcDbLine
 10
260.7197382541683
 20
405.9800847462248
 30
0.0
 11
260.7197382541683
 21
390.4077741538539
 31
0.0
  0
LINE
  5
16BB
102
{ACAD_REACTORS
330
1704
102
}
330
1E
100
AcDbEntity
  8
STEMPEL
100
AcDbLine
 10
262.7197382541683
 20
405.9802852769063
 30
0.0
 11
262.7197382541683
 21
390.4077741538539
 31
0.0
  0
LINE
  5
16BC
102
{ACAD_REACTORS
330
1704
102
}
330
1E
100
AcDbEntity
  8
STEMPEL
100
AcDbLine
 10
264.7197382541683
 20
440.8755338143352
 30
0.0
 11
264.7197382541683
 21
422.7132852769062
 31
0.0
  0
LINE
  5
16BD
102
{ACAD_REACTORS
330
1704
102
}
330
1E
100
AcDbEntity
  8
STEMPEL
100
AcDbLine
 10
266.7197382541683
 20
440.8755338143352
 30
0.0
 11
266.7197382541683
 21
422.7134858075879
 31
0.0
  0
LINE
  5
16BE
102
{ACAD_REACTORS
330
1704
102
}
330
1E
100
AcDbEntity
  8
STEMPEL
100
AcDbLine
 10
261.2197382541683
 20
453.4802852769063
 30
0.0
 11
262.5648173560112
 21
450.5957538343714
 31
0.0
  0
LINE
  5
16BF
102
{ACAD_REACTORS
330
1704
102
}
330
1E
100
AcDbEntity
  8
STEMPEL
100
AcDbLine
 10
263.4264940920933
 20
453.4802852769064
 30
0.0
 11
264.3774329300846
 21
451.4409903578523
 31
0.0
  0
ARC
  5
16C0
102
{ACAD_REACTORS
330
1704
102
}
330
1E
100
AcDbEntity
  8
STEMPEL
100
AcDbCircle
 10
266.7197382541683
 20
377.4462927570382
 30
0.0
 40
8.0
100
AcDbArc
 50
145.6988472432076
 51
180.0
  0
ARC
  5
16C1
102
{ACAD_REACTORS
330
1704
102
}
330
1E
100
AcDbEntity
  8
STEMPEL
100
AcDbCircle
 10
266.7197382541683
 20
377.4462927570382
 30
0.0
 40
10.0
100
AcDbArc
 50
145.6988472432076
 51
180.0
  0
ARC
  5
16C2
102
{ACAD_REACTORS
330
1704
102
}
330
1E
100
AcDbEntity
  8
STEMPEL
100
AcDbCircle
 10
247.7197382541683
 20
390.4077741538539
 30
0.0
 40
13.0
100
AcDbArc
 50
325.6988472432076
 51
0.0
  0
ARC
  5
16C3
102
{ACAD_REACTORS
330
1704
102
}
330
1E
100
AcDbEntity
  8
STEMPEL
100
AcDbCircle
 10
247.7197382541683
 20
390.4077741538539
 30
0.0
 40
15.0
100
AcDbArc
 50
325.6988472432076
 51
0.0
  0
ARC
  5
16C4
102
{ACAD_REACTORS
330
1704
102
}
330
1E
100
AcDbEntity
  8
STEMPEL
100
AcDbCircle
 10
274.7197382541683
 20
405.9802852769063
 30
0.0
 40
12.0
100
AcDbArc
 50
153.1119523822753
 51
180.0
  0
ARC
  5
16C5
102
{ACAD_REACTORS
330
1704
102
}
330
1E
100
AcDbEntity
  8
STEMPEL
100
AcDbCircle
 10
274.7197382541683
 20
405.9800847462248
 30
0.0
 40
14.0
100
AcDbArc
 50
153.1119523822753
 51
180.0
  0
ARC
  5
16C6
102
{ACAD_REACTORS
330
1704
102
}
330
1E
100
AcDbEntity
  8
STEMPEL
100
AcDbCircle
 10
241.7197382541683
 20
422.7132852769062
 30
0.0
 40
23.0
100
AcDbArc
 50
333.1119523822754
 51
0.0
  0
ARC
  5
16C7
102
{ACAD_REACTORS
330
1704
102
}
330
1E
100
AcDbEntity
  8
STEMPEL
100
AcDbCircle
 10
241.7197382541683
 20
422.7134858075879
 30
0.0
 40
25.0
100
AcDbArc
 50
333.1119523822754
 51
0.0
  0
ARC
  5
16C8
102
{ACAD_REACTORS
330
1704
102
}
330
1E
100
AcDbEntity
  8
STEMPEL
100
AcDbCircle
 10
241.7197382541683
 20
440.8755338143352
 30
0.0
 40
25.0
100
AcDbArc
 50
0.0
 51
24.99999999999935
  0
ARC
  5
16C9
102
{ACAD_REACTORS
330
1704
102
}
330
1E
100
AcDbEntity
  8
STEMPEL
100
AcDbCircle
 10
241.7197382541683
 20
440.8755338143352
 30
0.0
 40
23.0
100
AcDbArc
 50
0.0
 51
24.99999999999935
  0
ARC
  5
16CA
102
{ACAD_REACTORS
330
1704
102
}
330
1E
100
AcDbEntity
  8
STEMPEL
100
AcDbCircle
 10
173.7197382541683
 20
440.8755338143352
 30
0.0
 40
23.0
100
AcDbArc
 50
155.0000000000006
 51
180.0
  0
ARC
  5
16CB
102
{ACAD_REACTORS
330
1704
102
}
330
1E
100
AcDbEntity
  8
STEMPEL
100
AcDbCircle
 10
173.7197382541683
 20
440.8755338143352
 30
0.0
 40
25.0
100
AcDbArc
 50
155.0000000000006
 51
180.0
  0
ARC
  5
16CC
102
{ACAD_REACTORS
330
1704
102
}
330
1E
100
AcDbEntity
  8
STEMPEL
100
AcDbCircle
 10
173.7197382541683
 20
422.7134858075879
 30
0.0
 40
25.0
100
AcDbArc
 50
180.0
 51
206.8880476177246
  0
ARC
  5
16CD
102
{ACAD_REACTORS
330
1704
102
}
330
1E
100
AcDbEntity
  8
STEMPEL
100
AcDbCircle
 10
173.7197382541683
 20
422.7132852769062
 30
0.0
 40
23.0
100
AcDbArc
 50
180.0
 51
206.8880476177246
  0
ARC
  5
16CE
102
{ACAD_REACTORS
330
1704
102
}
330
1E
100
AcDbEntity
  8
STEMPEL
100
AcDbCircle
 10
140.7197382541682
 20
405.9800847462248
 30
0.0
 40
14.0
100
AcDbArc
 50
0.0
 51
26.88804761772463
  0
ARC
  5
16CF
102
{ACAD_REACTORS
330
1704
102
}
330
1E
100
AcDbEntity
  8
STEMPEL
100
AcDbCircle
 10
140.7197382541683
 20
405.9802852769063
 30
0.0
 40
12.0
100
AcDbArc
 50
0.0
 51
26.88804761772463
  0
ARC
  5
16D0
102
{ACAD_REACTORS
330
1704
102
}
330
1E
100
AcDbEntity
  8
STEMPEL
100
AcDbCircle
 10
167.7197382541683
 20
390.4077741538539
 30
0.0
 40
15.0
100
AcDbArc
 50
180.0
 51
214.3011527567924
  0
ARC
  5
16D1
102
{ACAD_REACTORS
330
1704
102
}
330
1E
100
AcDbEntity
  8
STEMPEL
100
AcDbCircle
 10
167.7197382541683
 20
390.4077741538539
 30
0.0
 40
13.0
100
AcDbArc
 50
180.0
 51
214.3011527567924
  0
ARC
  5
16D2
102
{ACAD_REACTORS
330
1704
102
}
330
1E
100
AcDbEntity
  8
STEMPEL
100
AcDbCircle
 10
148.7197382541683
 20
377.4462927570382
 30
0.0
 40
10.0
100
AcDbArc
 50
0.0
 51
34.3011527567924
  0
ARC
  5
16D3
102
{ACAD_REACTORS
330
1704
102
}
330
1E
100
AcDbEntity
  8
STEMPEL
100
AcDbCircle
 10
148.7197382541682
 20
377.4462927570382
 30
0.0
 40
8.0
100
AcDbArc
 50
0.0
 51
34.3011527567924
  0
LINE
  5
16D4
102
{ACAD_REACTORS
330
1704
102
}
330
1E
100
AcDbEntity
  8
STEMPEL
100
AcDbLine
 10
152.0129824162433
 20
453.4802852769064
 30
0.0
 11
151.0620435782518
 21
451.4409903578523
 31
0.0
  0
LINE
  5
16D5
102
{ACAD_REACTORS
330
1704
102
}
330
1E
100
AcDbEntity
  8
STEMPEL
100
AcDbLine
 10
154.2197382541683
 20
453.4802852769063
 30
0.0
 11
152.8746591523253
 21
450.5957538343714
 31
0.0
  0
LINE
  5
16D6
102
{ACAD_REACTORS
330
1704
102
}
330
1E
100
AcDbEntity
  8
STEMPEL
100
AcDbLine
 10
148.7197382541683
 20
440.8755338143352
 30
0.0
 11
148.7197382541683
 21
422.7134858075879
 31
0.0
  0
LINE
  5
16D7
102
{ACAD_REACTORS
330
1704
102
}
330
1E
100
AcDbEntity
  8
STEMPEL
100
AcDbLine
 10
150.7197382541683
 20
440.8755338143352
 30
0.0
 11
150.7197382541683
 21
422.7132852769062
 31
0.0
  0
LINE
  5
16D8
102
{ACAD_REACTORS
330
1704
102
}
330
1E
100
AcDbEntity
  8
STEMPEL
100
AcDbLine
 10
152.7197382541683
 20
405.9802852769063
 30
0.0
 11
152.7197382541683
 21
390.4077741538539
 31
0.0
  0
LINE
  5
16D9
102
{ACAD_REACTORS
330
1704
102
}
330
1E
100
AcDbEntity
  8
STEMPEL
100
AcDbLine
 10
154.7197382541683
 20
405.9800847462248
 30
0.0
 11
154.7197382541683
 21
390.4077741538539
 31
0.0
  0
LINE
  5
16DA
102
{ACAD_REACTORS
330
1704
102
}
330
1E
100
AcDbEntity
  8
STEMPEL
100
AcDbLine
 10
156.7197382541683
 20
377.4462927570382
 30
0.0
 11
156.7197382541683
 21
368.4802852769063
 31
0.0
  0
LINE
  5
16DB
102
{ACAD_REACTORS
330
1704
102
}
330
1E
100
AcDbEntity
  8
STEMPEL
100
AcDbLine
 10
158.7197382541683
 20
377.4462927570382
 30
0.0
 11
158.7197382541683
 21
368.4802852769063
 31
0.0
  0
HATCH
  5
1704
330
1E
100
AcDbEntity
  8
SCHRAFF
100
AcDbHatch
 10
0.0
 20
0.0
 30
0.0
210
0.0
220
0.0
230
1.0
  2
_USER
 70
     0
 71
     1
 91
        2
 92
        7
 72
     1
 73
     1
 93
       20
 10
262.7197382541683
 20
405.9802852769063
 42
-0.1178625008509379
 10
264.0170355514656
 20
411.4072692328031
 42
0.117862500850935
 10
266.7197382541683
 20
422.7134858075879
 42
0.0
 10
266.7197382541683
 20
440.8755338143352
 42
0.109517811683238
 10
264.3774329300846
 20
451.4409903578523
 42
0.0
 10
263.4264940920934
 20
453.4802852769064
 42
0.0
 10
261.2197382541684
 20
453.4802852769064
 42
0.0
 10
262.5648173560112
 20
450.5957538343714
 42
-0.1095178116832433
 10
264.7197382541683
 20
440.8755338143351
 42
0.0
 10
264.7197382541683
 20
422.7132852769062
 42
-0.1178625008509383
 10
262.2332517676817
 20
412.3115660281039
 42
0.11786250085093
 10
260.7197382541683
 20
405.9800847462247
 42
0.0
 10
260.7197382541683
 20
390.4077741538539
 42
-0.1507946423587077
 10
258.4588686889508
 20
383.0817194513057
 42
0.1507946423586991
 10
256.7197382541683
 20
377.4462927570382
 42
0.0
 10
256.7197382541683
 20
368.4802852769063
 42
0.0
 10
258.7197382541683
 20
368.4802852769063
 42
0.0
 10
258.7197382541683
 20
377.4462927570382
 42
-0.1507946423587077
 10
260.1110426019945
 20
381.9546341124524
 42
0.1507946423587007
 10
262.7197382541683
 20
390.4077741538539
 42
0.0
 97
       20
330
16C4
330
16C7
330
16BD
330
16C8
330
16BF
330
16B6
330
16BE
330
16C9
330
16BC
330
16C6
330
16C5
330
16BA
330
16C2
330
16C1
330
16B8
330
1632
330
16B9
330
16C0
330
16C3
330
16BB
 92
        7
 72
     1
 73
     1
 93
       20
 10
154.7197382541683
 20
405.9800847462248
 42
0.117862500850934
 10
153.2062247406547
 20
412.3115660281042
 42
-0.1178625008509353
 10
150.7197382541683
 20
422.7132852769062
 42
0.0
 10
150.7197382541683
 20
440.8755338143352
 42
-0.1095178116832426
 10
152.8746591523253
 20
450.5957538343714
 42
0.0
 10
154.2197382541683
 20
453.4802852769063
 42
0.0
 10
152.0129824162432
 20
453.4802852769062
 42
0.0
 10
151.0620435782518
 20
451.4409903578523
 42
0.1095178116832367
 10
148.7197382541683
 20
440.8755338143353
 42
0.0
 10
148.7197382541683
 20
422.7134858075879
 42
0.1178625008509361
 10
151.422440956871
 20
411.407269232803
 42
-0.1178625008509355
 10
152.7197382541683
 20
405.9802852769063
 42
0.0
 10
152.7197382541683
 20
390.4077741538539
 42
0.1507946423587038
 10
155.3284339063421
 20
381.9546341124523
 42
-0.150794642358704
 10
156.7197382541683
 20
377.4462927570381
 42
0.0
 10
156.7197382541683
 20
368.4802852769064
 42
0.0
 10
158.7197382541683
 20
368.4802852769065
 42
0.0
 10
158.7197382541683
 20
377.4462927570382
 42
0.1507946423587041
 10
156.9806078193857
 20
383.0817194513059
 42
-0.1507946423587038
 10
154.7197382541683
 20
390.4077741538539
 42
0.0
 97
       20
330
16CE
330
16CD
330
16D7
330
16CA
330
16D5
330
16B6
330
16D4
330
16CB
330
16D6
330
16CC
330
16CF
330
16D8
330
16D0
330
16D3
330
16DA
330
1632
330
16DB
330
16D2
330
16D1
330
16D9
 75
     0
 76
     0
 52
45.0
 41
2.0
 77
     0
 78
     1
 53
45.0
 43
0.0
 44
0.0
 45
-1.414213562373094
 46
1.414213562373095
 79
     0
 47
0.4444240894789075
 98
        2
 10
261.8158645335443
 20
391.4871429785867
 10
154.2003008054721
 20
397.2646570519282
  0
HATCH
  5
1711
330
1E
100
AcDbEntity
  8
SCHRAFF
100
AcDbHatch
 10
0.0
 20
0.0
 30
0.0
210
0.0
220
0.0
230
1.0
  2
_USER
 70
     0
 71
     1
 91
        2
 92
        7
 72
     0
 73
     1
 93
        6
 10
697.7895957628213
 20
344.9802852769062
 10
327.7197382541684
 20
344.9802852769062
 10
327.7197382541684
 20
343.3802852769062
 10
697.7197382541685
 20
343.3802852769062
 10
707.7197382541683
 20
342.505398641647
 10
707.7197382541683
 20
344.1115103817163
 97
        6
330
1622
330
1626
330
1620
330
1672
330
166E
330
1671
 92
        7
 72
     0
 73
     1
 93
        6
 10
707.7197382541683
 20
272.8490601720961
 10
707.7197382541683
 20
274.4551719121655
 10
697.7197382541682
 20
273.5802852769063
 10
327.7197382541684
 20
273.5802852769063
 10
327.7197382541684
 20
271.9802852769063
 10
697.7895957628208
 20
271.9802852769063
 97
        6
330
166E
330
1670
330
161F
330
1626
330
1621
330
166F
 75
     0
 76
     0
 52
45.0
 41
2.0
 77
     0
 78
     1
 53
45.0
 43
0.0
 44
0.0
 45
-1.414213562373094
 46
1.414213562373095
 79
     0
 47
0.4619850620960798
 98
        2
 10
589.317856949699
 20
344.1147160086389
 10
579.1480473654678
 20
272.5070316252779
  0
HATCH
  5
1716
330
1E
100
AcDbEntity
  8
SCHRAFF
100
AcDbHatch
 10
0.0
 20
0.0
 30
0.0
210
0.0
220
0.0
230
1.0
  2
_USER
 70
     0
 71
     1
 91
        2
 92
        7
 72
     1
 73
     1
 93
        2
 10
324.7197382541684
 20
344.9802852769063
 42
0.0
 10
330.7197382541684
 20
344.9802852769063
 42
0.5165292201882056
 97
        2
330
1622
330
166C
 92
        7
 72
     1
 73
     1
 93
        2
 10
330.7197382541685
 20
271.9802852769063
 42
0.0
 10
324.7197382541684
 20
271.9802852769063
 42
0.5165292201882142
 97
        2
330
1621
330
162A
 75
     0
 76
     0
 52
0.0
 41
0.1
 77
     0
 78
     1
 53
0.0
 43
0.0
 44
0.0
 45
0.0
 46
0.1
 79
     0
 47
0.2461589253688646
 98
        2
 10
328.1946573916857
 20
345.487276931699
 10
327.702040917477
 20
271.1472805909173
  0
DIMENSION
  5
1731
330
1E
100
AcDbEntity
  8
BEM
100
AcDbDimension
  2
*D1
 10
207.7197382541683
 20
232.9872494465908
 30
0.0
 11
457.7197382541682
 21
239.4872494465908
 31
0.0
 70
    32
 71
     5
 42
500.0
  3
Standard
100
AcDbAlignedDimension
 13
707.7197382541683
 23
272.8490601720961
 33
0.0
 14
207.7197382541683
 24
358.4802852769063
 34
0.0
100
AcDbRotatedDimension
1001
ACAD
1000
DSTYLE
1002
{
1070
    40
1040
2.0
1070
    41
1040
3.5
1070
    42
1040
1.0
1070
    43
1040
7.0
1070
    44
1040
1.0
1070
    73
1070
     0
1070
    74
1070
     0
1070
    77
1070
     1
1070
    78
1070
     8
1070
    79
1070
     2
1070
   140
1040
3.5
1070
   141
1040
1.5
1070
   146
1040
0.5142857142857144
1070
   147
1040
1.5
1070
   172
1070
     1
1070
   178
1070
     1
1070
   179
1070
     2
1070
   271
1070
     2
1070
   272
1070
     2
1070
   284
1070
     8
1070
   285
1070
     8
1070
   286
1070
     8
1002
}
  0
DIMENSION
  5
1796
330
1E
100
AcDbEntity
  8
BEM
100
AcDbDimension
  2
*D2
 10
132.2267024238528
 20
308.4802852769063
 30
0.0
 11
125.7267024238528
 21
380.9802852769063
 31
0.0
 70
    32
 71
     5
 42
145.0
  3
Standard
100
AcDbAlignedDimension
 13
152.0129824162433
 23
453.4802852769063
 33
0.0
 14
257.7197382541683
 24
308.4802852769063
 34
0.0
 50
90.0
100
AcDbRotatedDimension
1001
ACAD
1000
DSTYLE
1002
{
1070
    40
1040
2.0
1070
    41
1040
3.5
1070
    42
1040
1.0
1070
    43
1040
7.0
1070
    44
1040
1.0
1070
    73
1070
     0
1070
    74
1070
     0
1070
    77
1070
     1
1070
    78
1070
     8
1070
    79
1070
     2
1070
   140
1040
3.5
1070
   141
1040
1.5
1070
   146
1040
0.5142857142857144
1070
   147
1040
1.5
1070
   172
1070
     1
1070
   178
1070
     1
1070
   179
1070
     2
1070
   271
1070
     2
1070
   272
1070
     2
1070
   284
1070
     8
1070
   285
1070
     8
1070
   286
1070
     8
1002
}
  0
DIMENSION
  5
17A3
330
1E
100
AcDbEntity
  8
BEM
100
AcDbDimension
  2
*D3
 10
257.7197382541684
 20
358.4802852769064
 30
0.0
 11
243.7100907510348
 21
336.9742964687691
 31
0.0
 70
   164
 71
     5
 42
50.00000000000017
  3
Standard
100
AcDbRadialDimension
 15
230.4282171441681
 25
316.5855018844312
 35
0.0
 40
0.0
1001
ACAD
1000
DSTYLE
1002
{
1070
    40
1040
2.0
1070
    41
1040
3.5
1070
    42
1040
1.0
1070
    43
1040
7.0
1070
    44
1040
1.0
1070
    73
1070
     0
1070
    74
1070
     0
1070
    77
1070
     1
1070
    78
1070
     8
1070
    79
1070
     2
1070
   140
1040
3.5
1070
   141
1040
1.5
1070
   146
1040
0.5142857142857144
1070
   147
1040
1.5
1070
   172
1070
     1
1070
   178
1070
     1
1070
   179
1070
     2
1070
   271
1070
     2
1070
   272
1070
     2
1070
   284
1070
     8
1070
   285
1070
     8
1070
   286
1070
     8
1070
   288
1070
     1
1002
}
  0
DIMENSION
  5
17AC
330
1E
100
AcDbEntity
  8
BEM
100
AcDbDimension
  2
*D4
 10
207.7197382541683
 20
458.4802852769063
 30
0.0
 11
158.9342947639058
 21
259.6948417866438
 31
0.0
 70
    34
 71
     5
 42
1.570796326794896
  3
Standard
100
AcDb2LineAngularDimension
 13
712.7197382541684
 23
308.4802852769063
 33
0.0
 14
257.7197382541683
 24
308.4802852769063
 34
0.0
 15
207.7197382541683
 25
358.4802852769063
 35
0.0
 16
142.3408514163063
 26
270.7337673617486
 36
0.0
1001
ACAD
1000
DSTYLE
1002
{
1070
    40
1040
2.0
1070
    41
1040
3.5
1070
    42
1040
1.0
1070
    43
1040
7.0
1070
    44
1040
1.0
1070
    73
1070
     0
1070
    74
1070
     0
1070
    77
1070
     1
1070
    78
1070
     8
1070
    79
1070
     2
1070
   140
1040
3.5
1070
   141
1040
1.5
1070
   146
1040
0.5142857142857144
1070
   147
1040
1.5
1070
   172
1070
     1
1070
   178
1070
     1
1070
   179
1070
     2
1070
   271
1070
     2
1070
   272
1070
     2
1070
   284
1070
     8
1070
   285
1070
     8
1070
   286
1070
     8
1002
}
  0
DIMENSION
  5
17E1
330
1E
100
AcDbEntity
  8
BEM
100
AcDbDimension
  2
*D5
 10
729.481645544151
 20
344.9802852769063
 30
0.0
 11
722.9816455441508
 21
308.4802852769064
 31
0.0
 70
    32
  1
%%c<>
 71
     5
 42
73.0
  3
Standard
100
AcDbAlignedDimension
 13
697.7895957628211
 23
271.9802852769063
 33
0.0
 14
697.7895957628218
 24
344.9802852769063
 34
0.0
 50
90.0
100
AcDbRotatedDimension
1001
ACAD
1000
DSTYLE
1002
{
1070
    40
1040
2.0
1070
    41
1040
3.5
1070
    42
1040
1.0
1070
    43
1040
7.0
1070
    44
1040
1.0
1070
    73
1070
     0
1070
    74
1070
     0
1070
    77
1070
     1
1070
    78
1070
     8
1070
    79
1070
     2
1070
   140
1040
3.5
1070
   141
1040
1.5
1070
   146
1040
0.5142857142857144
1070
   147
1040
1.5
1070
   172
1070
     1
1070
   178
1070
     1
1070
   179
1070
     2
1070
   271
1070
     2
1070
   272
1070
     2
1070
   284
1070
     8
1070
   285
1070
     8
1070
   286
1070
     8
1002
}
  0
ENDSEC
  0
SECTION
  2
OBJECTS
  0
DICTIONARY
  5
C
330
0
100
AcDbDictionary
281
     1
  3
ACAD_COLOR
350
11A
  3
ACAD_GROUP
350
D
  3
ACAD_LAYOUT
350
19
  3
ACAD_MATERIAL
350
119
  3
ACAD_MLINESTYLE
350
16
  3
ACAD_PLOTSETTINGS
350
18
  3
ACAD_PLOTSTYLENAME
350
E
  3
AcDbVariableDictionary
350
125
  0
DICTIONARY
  5
DB
330
1E
100
AcDbDictionary
280
     1
281
     1
  3
ACAD_LAYOUTSELFREF
360
10F
  0
DICTIONARY
  5
DD
330
1A
100
AcDbDictionary
280
     1
281
     1
  3
ACAD_LAYOUTSELFREF
360
10E
  0
DICTIONARY
  5
11A
102
{ACAD_REACTORS
330
C
102
}
330
C
100
AcDbDictionary
281
     1
  0
DICTIONARY
  5
D
102
{ACAD_REACTORS
330
C
102
}
330
C
100
AcDbDictionary
281
     1
  0
DICTIONARY
  5
19
102
{ACAD_REACTORS
330
C
102
}
330
C
100
AcDbDictionary
281
     1
  3
Layout1
350
1D
  3
Model
350
21
  0
DICTIONARY
  5
119
102
{ACAD_REACTORS
330
C
102
}
330
C
100
AcDbDictionary
281
     1
  0
DICTIONARY
  5
16
102
{ACAD_REACTORS
330
C
102
}
330
C
100
AcDbDictionary
281
     1
  3
Standard
350
17
  0
DICTIONARY
  5
18
102
{ACAD_REACTORS
330
C
102
}
330
C
100
AcDbDictionary
281
     1
  0
ACDBDICTIONARYWDFLT
  5
E
102
{ACAD_REACTORS
330
C
102
}
330
C
100
AcDbDictionary
281
     1
  3
Normal
350
F
100
AcDbDictionaryWithDefault
340
F
  0
DICTIONARY
  5
125
102
{ACAD_REACTORS
330
C
102
}
330
C
100
AcDbDictionary
281
     1
  3
DIMASSOC
350
126
  3
PROJECTNAME
350
127
  0
XRECORD
  5
10F
102
{ACAD_REACTORS
330
DB
102
}
330
DB
100
AcDbXrecord
280
     1
340
1E
  0
XRECORD
  5
10E
102
{ACAD_REACTORS
330
DD
102
}
330
DD
100
AcDbXrecord
280
     1
340
1A
  0
LAYOUT
  5
1D
102
{ACAD_REACTORS
330
19
102
}
330
19
100
AcDbPlotSettings
  1

  2
\\NT_WORK01\HP LaserJet 5000 PCL 6
  4

  6

 40
0.0
 41
0.0
 42
0.0
 43
0.0
 44
0.0
 45
0.0
 46
0.0
 47
0.0
 48
0.0
 49
0.0
140
0.0
141
0.0
142
1.0
143
1.0
 70
   688
 72
     0
 73
     0
 74
     5
  7

 75
    16
147
1.0
 76
     0
 77
     2
 78
   300
148
0.0
149
0.0
100
AcDbLayout
  1
Layout1
 70
     0
 71
     1
 10
0.0
 20
0.0
 11
12.0
 21
9.0
 12
0.0
 22
0.0
 32
0.0
 14
1.000000000000000E+20
 24
1.000000000000000E+20
 34
1.000000000000000E+20
 15
-1.000000000000000E+20
 25
-1.000000000000000E+20
 35
-1.000000000000000E+20
146
0.0
 13
0.0
 23
0.0
 33
0.0
 16
1.0
 26
0.0
 36
0.0
 17
0.0
 27
1.0
 37
0.0
 76
     0
330
1A
  0
LAYOUT
  5
21
102
{ACAD_REACTORS
330
19
102
}
330
19
100
AcDbPlotSettings
  1

  2
none_device
  4
Letter_(8.50_x_11.00_Inches)
  6

 40
6.349999904632568
 41
6.349999904632568
 42
6.350006103515625
 43
6.350006103515625
 44
215.8999938964844
 45
279.3999938964844
 46
0.0
 47
0.0
 48
0.0
 49
0.0
140
0.0
141
0.0
142
1.0
143
1.0
 70
 11952
 72
     0
 73
     1
 74
     0
  7

 75
     0
147
1.0
 76
     0
 77
     2
 78
   300
148
-2639.7083797395
149
484.6045430254942
100
AcDbLayout
  1
Model
 70
     1
 71
     0
 10
0.0
 20
0.0
 11
12.0
 21
9.0
 12
0.0
 22
0.0
 32
0.0
 14
0.0
 24
0.0
 34
0.0
 15
0.0
 25
0.0
 35
0.0
146
0.0
 13
0.0
 23
0.0
 33
0.0
 16
1.0
 26
0.0
 36
0.0
 17
0.0
 27
1.0
 37
0.0
 76
     0
330
1E
  0
MLINESTYLE
  5
17
102
{ACAD_REACTORS
330
16
102
}
330
16
100
AcDbMlineStyle
  2
STANDARD
 70
     0
  3

 62
   256
 51
90.0
 52
90.0
 71
     2
 49
0.5
 62
   256
  6
BYLAYER
 49
-0.5
 62
   256
  6
BYLAYER
  0
ACDBPLACEHOLDER
  5
F
102
{ACAD_REACTORS
330
E
102
}
330
E
  0
DICTIONARYVAR
  5
126
102
{ACAD_REACTORS
330
125
102
}
330
125
100
DictionaryVariables
280
     0
  1
1
  0
DICTIONARYVAR
  5
127
102
{ACAD_REACTORS
330
125
102
}
330
125
100
DictionaryVariables
280
     0
  1

  0
ENDSEC
  0
EOF
