  0
SECTION
  2
HEADER
  9
$ACADVER
  1
AC1018
  9
$ACADMAINTVER
 70
     2
  9
$DWGCODEPAGE
  3
ANSI_1252
  9
$INSBASE
 10
0.0
 20
0.0
 30
0.0
  9
$EXTMIN
 10
-0.0309535986232277
 20
-0.021896441437093
 30
-0.0000000000000053
  9
$EXTMAX
 10
840.0277872218619
 20
594.009838508377
 30
0.0000000000000099
  9
$LIMMIN
 10
0.0
 20
0.0
  9
$LIMMAX
 10
840.0
 20
594.0
  9
$ORTHOMODE
 70
     1
  9
$REGENMODE
 70
     1
  9
$FILLMODE
 70
     1
  9
$QTEXTMODE
 70
     0
  9
$MIRRTEXT
 70
     1
  9
$LTSCALE
 40
20.0
  9
$ATTMODE
 70
     1
  9
$TEXTSIZE
 40
3.5
  9
$TRACEWID
 40
1.0
  9
$TEXTSTYLE
  7
STANDARD
  9
$CLAYER
  8
SCHRAFF
  9
$CELTYPE
  6
ByLayer
  9
$CECOLOR
 62
   256
  9
$CELTSCALE
 40
1.0
  9
$DISPSILH
 70
     0
  9
$DIMSCALE
 40
2.0
  9
$DIMASZ
 40
3.5
  9
$DIMEXO
 40
1.0
  9
$DIMDLI
 40
7.0
  9
$DIMRND
 40
0.0
  9
$DIMDLE
 40
0.0
  9
$DIMEXE
 40
1.0
  9
$DIMTP
 40
0.0
  9
$DIMTM
 40
0.0
  9
$DIMTXT
 40
3.5
  9
$DIMCEN
 40
1.5
  9
$DIMTSZ
 40
0.0
  9
$DIMTOL
 70
     0
  9
$DIMLIM
 70
     0
  9
$DIMTIH
 70
     0
  9
$DIMTOH
 70
     0
  9
$DIMSE1
 70
     0
  9
$DIMSE2
 70
     0
  9
$DIMTAD
 70
     1
  9
$DIMZIN
 70
     8
  9
$DIMBLK
  1

  9
$DIMASO
 70
     1
  9
$DIMSHO
 70
     0
  9
$DIMPOST
  1

  9
$DIMAPOST
  1

  9
$DIMALT
 70
     0
  9
$DIMALTD
 70
     2
  9
$DIMALTF
 40
25.4
  9
$DIMLFAC
 40
1.0
  9
$DIMTOFL
 70
     1
  9
$DIMTVP
 40
0.0
  9
$DIMTIX
 70
     0
  9
$DIMSOXD
 70
     0
  9
$DIMSAH
 70
     0
  9
$DIMBLK1
  1

  9
$DIMBLK2
  1

  9
$DIMSTYLE
  2
Standard
  9
$DIMCLRD
 70
     0
  9
$DIMCLRE
 70
     0
  9
$DIMCLRT
 70
     1
  9
$DIMTFAC
 40
0.5142857142857144
  9
$DIMGAP
 40
1.5
  9
$DIMJUST
 70
     0
  9
$DIMSD1
 70
     0
  9
$DIMSD2
 70
     0
  9
$DIMTOLJ
 70
     1
  9
$DIMTZIN
 70
     8
  9
$DIMALTZ
 70
     8
  9
$DIMALTTZ
 70
     8
  9
$DIMUPT
 70
     0
  9
$DIMDEC
 70
     2
  9
$DIMTDEC
 70
     2
  9
$DIMALTU
 70
     2
  9
$DIMALTTD
 70
     2
  9
$DIMTXSTY
  7
STANDARD
  9
$DIMAUNIT
 70
     0
  9
$DIMADEC
 70
     2
  9
$DIMALTRND
 40
0.0
  9
$DIMAZIN
 70
     2
  9
$DIMDSEP
 70
    46
  9
$DIMATFIT
 70
     3
  9
$DIMFRAC
 70
     0
  9
$DIMLDRBLK
  1

  9
$DIMLUNIT
 70
     2
  9
$DIMLWD
 70
    -2
  9
$DIMLWE
 70
    -2
  9
$DIMTMOVE
 70
     0
  9
$LUNITS
 70
     2
  9
$LUPREC
 70
     2
  9
$SKETCHINC
 40
1.0
  9
$FILLETRAD
 40
0.0
  9
$AUNITS
 70
     0
  9
$AUPREC
 70
     0
  9
$MENU
  1
ACAD
  9
$ELEVATION
 40
0.0
  9
$PELEVATION
 40
0.0
  9
$THICKNESS
 40
0.0
  9
$LIMCHECK
 70
     0
  9
$CHAMFERA
 40
0.0
  9
$CHAMFERB
 40
0.0
  9
$CHAMFERC
 40
0.0
  9
$CHAMFERD
 40
0.0
  9
$SKPOLY
 70
     0
  9
$TDCREATE
 40
2455397.867059838
  9
$TDUCREATE
 40
2455397.783726505
  9
$TDUPDATE
 40
2456181.553994618
  9
$TDUUPDATE
 40
2456181.470661285
  9
$TDINDWG
 40
0.0606207755
  9
$TDUSRTIMER
 40
0.0606207755
  9
$USRTIMER
 70
     1
  9
$ANGBASE
 50
0.0
  9
$ANGDIR
 70
     0
  9
$PDMODE
 70
     0
  9
$PDSIZE
 40
0.0
  9
$PLINEWID
 40
0.0
  9
$SPLFRAME
 70
     0
  9
$SPLINETYPE
 70
     6
  9
$SPLINESEGS
 70
     8
  9
$HANDSEED
  5
1453
  9
$SURFTAB1
 70
     6
  9
$SURFTAB2
 70
     6
  9
$SURFTYPE
 70
     6
  9
$SURFU
 70
     6
  9
$SURFV
 70
     6
  9
$UCSBASE
  2

  9
$UCSNAME
  2

  9
$UCSORG
 10
0.0
 20
0.0
 30
0.0
  9
$UCSXDIR
 10
1.0
 20
0.0
 30
0.0
  9
$UCSYDIR
 10
0.0
 20
1.0
 30
0.0
  9
$UCSORTHOREF
  2

  9
$UCSORTHOVIEW
 70
     0
  9
$UCSORGTOP
 10
0.0
 20
0.0
 30
0.0
  9
$UCSORGBOTTOM
 10
0.0
 20
0.0
 30
0.0
  9
$UCSORGLEFT
 10
0.0
 20
0.0
 30
0.0
  9
$UCSORGRIGHT
 10
0.0
 20
0.0
 30
0.0
  9
$UCSORGFRONT
 10
0.0
 20
0.0
 30
0.0
  9
$UCSORGBACK
 10
0.0
 20
0.0
 30
0.0
  9
$PUCSBASE
  2

  9
$PUCSNAME
  2

  9
$PUCSORG
 10
0.0
 20
0.0
 30
0.0
  9
$PUCSXDIR
 10
1.0
 20
0.0
 30
0.0
  9
$PUCSYDIR
 10
0.0
 20
1.0
 30
0.0
  9
$PUCSORTHOREF
  2

  9
$PUCSORTHOVIEW
 70
     0
  9
$PUCSORGTOP
 10
0.0
 20
0.0
 30
0.0
  9
$PUCSORGBOTTOM
 10
0.0
 20
0.0
 30
0.0
  9
$PUCSORGLEFT
 10
0.0
 20
0.0
 30
0.0
  9
$PUCSORGRIGHT
 10
0.0
 20
0.0
 30
0.0
  9
$PUCSORGFRONT
 10
0.0
 20
0.0
 30
0.0
  9
$PUCSORGBACK
 10
0.0
 20
0.0
 30
0.0
  9
$USERI1
 70
     0
  9
$USERI2
 70
     0
  9
$USERI3
 70
     0
  9
$USERI4
 70
     0
  9
$USERI5
 70
     0
  9
$USERR1
 40
0.0
  9
$USERR2
 40
0.0
  9
$USERR3
 40
0.0
  9
$USERR4
 40
0.0
  9
$USERR5
 40
0.0
  9
$WORLDVIEW
 70
     1
  9
$SHADEDGE
 70
     3
  9
$SHADEDIF
 70
    70
  9
$TILEMODE
 70
     1
  9
$MAXACTVP
 70
    16
  9
$PINSBASE
 10
0.0
 20
0.0
 30
0.0
  9
$PLIMCHECK
 70
     0
  9
$PEXTMIN
 10
1.000000000000000E+20
 20
1.000000000000000E+20
 30
1.000000000000000E+20
  9
$PEXTMAX
 10
-1.000000000000000E+20
 20
-1.000000000000000E+20
 30
-1.000000000000000E+20
  9
$PLIMMIN
 10
0.0
 20
0.0
  9
$PLIMMAX
 10
12.0
 20
9.0
  9
$UNITMODE
 70
     0
  9
$VISRETAIN
 70
     0
  9
$PLINEGEN
 70
     0
  9
$PSLTSCALE
 70
     0
  9
$TREEDEPTH
 70
  3020
  9
$CMLSTYLE
  2
Standard
  9
$CMLJUST
 70
     0
  9
$CMLSCALE
 40
1.0
  9
$PROXYGRAPHICS
 70
     1
  9
$MEASUREMENT
 70
     0
  9
$CELWEIGHT
370
    -1
  9
$ENDCAPS
280
     0
  9
$JOINSTYLE
280
     0
  9
$LWDISPLAY
290
     0
  9
$INSUNITS
 70
     0
  9
$HYPERLINKBASE
  1

  9
$STYLESHEET
  1
monochrome 1.ctb
  9
$XEDIT
290
     1
  9
$CEPSNTYPE
380
     0
  9
$PSTYLEMODE
290
     1
  9
$FINGERPRINTGUID
  2
{D68B0D0D-A558-11D7-B632-000102183313}
  9
$VERSIONGUID
  2
{28F08003-5928-43C8-B402-0FC63708DF18}
  9
$EXTNAMES
290
     1
  9
$PSVPSCALE
 40
0.0
  9
$OLESTARTUP
290
     0
  9
$SORTENTS
280
   127
  9
$INDEXCTL
280
     0
  9
$HIDETEXT
280
     0
  9
$XCLIPFRAME
290
     0
  9
$HALOGAP
280
     0
  9
$OBSCOLOR
 70
   257
  9
$OBSLTYPE
280
     0
  9
$INTERSECTIONDISPLAY
280
     0
  9
$INTERSECTIONCOLOR
 70
   257
  9
$DIMASSOC
280
     1
  9
$PROJECTNAME
  1

  0
ENDSEC
  0
SECTION
  2
CLASSES
  0
CLASS
  1
ACDBDICTIONARYWDFLT
  2
AcDbDictionaryWithDefault
  3
ObjectDBX Classes
 90
        0
 91
        1
280
     0
281
     0
  0
CLASS
  1
DICTIONARYVAR
  2
AcDbDictionaryVar
  3
ObjectDBX Classes
 90
        0
 91
        2
280
     0
281
     0
  0
ENDSEC
  0
SECTION
  2
TABLES
  0
TABLE
  2
VPORT
  5
8
330
0
100
AcDbSymbolTable
 70
     3
  0
VPORT
  5
1452
330
8
100
AcDbSymbolTableRecord
100
AcDbViewportTableRecord
  2
*Active
 70
     0
 10
0.0
 20
0.0
 11
1.0
 21
1.0
 12
420.0000000000001
 22
297.0
 13
0.0
 23
0.0
 14
1.0
 24
1.0
 15
10.0
 25
10.0
 16
0.0
 26
0.0
 36
1.0
 17
0.0
 27
0.0
 37
0.0
 40
597.9250720461095
 41
1.404858299595141
 42
50.0
 43
0.0
 44
0.0
 50
0.0
 51
0.0
 71
     0
 72
  1500
 73
     1
 74
     0
 75
     0
 76
     0
 77
     0
 78
     0
281
     0
 65
     1
110
0.0
120
0.0
130
0.0
111
1.0
121
0.0
131
0.0
112
0.0
122
1.0
132
0.0
 79
     0
146
0.0
  0
ENDTAB
  0
TABLE
  2
LTYPE
  5
5
330
0
100
AcDbSymbolTable
 70
     2
  0
LTYPE
  5
13
330
5
100
AcDbSymbolTableRecord
100
AcDbLinetypeTableRecord
  2
ByBlock
 70
     0
  3

 72
    65
 73
     0
 40
0.0
  0
LTYPE
  5
14
330
5
100
AcDbSymbolTableRecord
100
AcDbLinetypeTableRecord
  2
ByLayer
 70
     0
  3

 72
    65
 73
     0
 40
0.0
  0
LTYPE
  5
15
330
5
100
AcDbSymbolTableRecord
100
AcDbLinetypeTableRecord
  2
Continuous
 70
     0
  3
Solid line
 72
    65
 73
     0
 40
0.0
  0
LTYPE
  5
25
330
5
100
AcDbSymbolTableRecord
100
AcDbLinetypeTableRecord
  2
STRICHPUNKT
 70
     0
  3
__ . __ . __ . __ . __ . __ . __ . __ . __ . __
 72
    65
 73
     4
 40
1.0
 49
0.5
 74
     0
 49
-0.25
 74
     0
 49
0.0
 74
     0
 49
-0.25
 74
     0
  0
ENDTAB
  0
TABLE
  2
LAYER
  5
2
330
0
100
AcDbSymbolTable
 70
     9
  0
LAYER
  5
10
330
2
100
AcDbSymbolTableRecord
100
AcDbLayerTableRecord
  2
0
 70
     0
 62
     7
  6
Continuous
370
    -3
390
F
  0
LAYER
  5
2B
330
2
100
AcDbSymbolTableRecord
100
AcDbLayerTableRecord
  2
VOLL
 70
     0
 62
     1
  6
Continuous
370
    -3
390
F
  0
LAYER
  5
2C
330
2
100
AcDbSymbolTableRecord
100
AcDbLayerTableRecord
  2
HILF
 70
     0
 62
     2
  6
Continuous
370
    -3
390
F
  0
LAYER
  5
2D
330
2
100
AcDbSymbolTableRecord
100
AcDbLayerTableRecord
  2
MITTEL
 70
     0
 62
     2
  6
STRICHPUNKT
370
    -3
390
F
  0
LAYER
  5
2F
330
2
100
AcDbSymbolTableRecord
100
AcDbLayerTableRecord
  2
BEM
 70
     0
 62
     7
  6
Continuous
370
    -3
390
F
  0
LAYER
  5
30
330
2
100
AcDbSymbolTableRecord
100
AcDbLayerTableRecord
  2
STEMPEL
 70
     0
 62
     3
  6
Continuous
370
    -3
390
F
  0
LAYER
  5
33
330
2
100
AcDbSymbolTableRecord
100
AcDbLayerTableRecord
  2
TEXT
 70
     0
 62
     7
  6
Continuous
370
    -3
390
F
  0
LAYER
  5
53E
330
2
100
AcDbSymbolTableRecord
100
AcDbLayerTableRecord
  2
SCHRAFF
 70
     0
 62
     7
  6
Continuous
370
    -3
390
F
  0
LAYER
  5
53F
330
2
100
AcDbSymbolTableRecord
100
AcDbLayerTableRecord
  2
DEFPOINTS
 70
     0
 62
     7
  6
Continuous
290
     0
370
    -3
390
F
  0
ENDTAB
  0
TABLE
  2
STYLE
  5
3
330
0
100
AcDbSymbolTable
 70
     2
  0
STYLE
  5
11
330
3
100
AcDbSymbolTableRecord
100
AcDbTextStyleTableRecord
  2
STANDARD
 70
     0
 40
0.0
 41
0.8
 50
0.0
 71
     0
 42
3.5
  3
simplex.shx
  4

  0
STYLE
  5
24
330
3
100
AcDbSymbolTableRecord
100
AcDbTextStyleTableRecord
  2
GREEKS
 70
     0
 40
0.0
 41
0.8
 50
0.0
 71
     0
 42
2.5
  3
SIMPLEX.shx
  4

  0
ENDTAB
  0
TABLE
  2
VIEW
  5
6
330
0
100
AcDbSymbolTable
 70
     0
  0
ENDTAB
  0
TABLE
  2
UCS
  5
7
330
0
100
AcDbSymbolTable
 70
     0
  0
ENDTAB
  0
TABLE
  2
APPID
  5
9
330
0
100
AcDbSymbolTable
 70
     1
  0
APPID
  5
12
330
9
100
AcDbSymbolTableRecord
100
AcDbRegAppTableRecord
  2
ACAD
 70
     0
  0
ENDTAB
  0
TABLE
  2
DIMSTYLE
  5
A
330
0
100
AcDbSymbolTable
 70
     1
100
AcDbDimStyleTable
 71
     1
340
A2
  0
DIMSTYLE
105
A2
102
{ACAD_REACTORS
330
12E2
330
1309
330
1316
330
13A4
330
13CE
102
}
330
A
100
AcDbSymbolTableRecord
100
AcDbDimStyleTableRecord
  2
Standard
 70
     0
340
11
  0
ENDTAB
  0
TABLE
  2
BLOCK_RECORD
  5
1
330
0
100
AcDbSymbolTable
 70
     9
  0
BLOCK_RECORD
  5
1E
102
{ACAD_XDICTIONARY
360
DB
102
}
330
1
100
AcDbSymbolTableRecord
100
AcDbBlockTableRecord
  2
*Model_Space
340
21
  0
BLOCK_RECORD
  5
1A
102
{ACAD_XDICTIONARY
360
DD
102
}
330
1
100
AcDbSymbolTableRecord
100
AcDbBlockTableRecord
  2
*Paper_Space
340
1D
  0
BLOCK_RECORD
  5
22
330
1
100
AcDbSymbolTableRecord
100
AcDbBlockTableRecord
  2
LOGO
340
0
102
{BLKREFS
331
66D
102
}
  0
BLOCK_RECORD
  5
12E3
330
1
100
AcDbSymbolTableRecord
100
AcDbBlockTableRecord
  2
*D1
340
0
  0
BLOCK_RECORD
  5
130A
330
1
100
AcDbSymbolTableRecord
100
AcDbBlockTableRecord
  2
*D4
340
0
  0
BLOCK_RECORD
  5
1317
330
1
100
AcDbSymbolTableRecord
100
AcDbBlockTableRecord
  2
*D5
340
0
  0
BLOCK_RECORD
  5
13A5
330
1
100
AcDbSymbolTableRecord
100
AcDbBlockTableRecord
  2
*D7
340
0
  0
BLOCK_RECORD
  5
13CF
330
1
100
AcDbSymbolTableRecord
100
AcDbBlockTableRecord
  2
*D8
340
0
  0
ENDTAB
  0
ENDSEC
  0
SECTION
  2
BLOCKS
  0
BLOCK
  5
37
330
1E
100
AcDbEntity
  8
0
100
AcDbBlockBegin
  2
*Model_Space
 70
     0
 10
0.0
 20
0.0
 30
0.0
  3
*Model_Space
  1

  0
ENDBLK
  5
38
330
1E
100
AcDbEntity
  8
0
100
AcDbBlockEnd
  0
BLOCK
  5
35
330
1A
100
AcDbEntity
 67
     1
  8
0
100
AcDbBlockBegin
  2
*Paper_Space
 70
     0
 10
0.0
 20
0.0
 30
0.0
  3
*Paper_Space
  1

  0
ENDBLK
  5
36
330
1A
100
AcDbEntity
 67
     1
  8
0
100
AcDbBlockEnd
  0
BLOCK
  5
39
330
22
100
AcDbEntity
  8
0
100
AcDbBlockBegin
  2
LOGO
 70
     0
 10
0.0
 20
0.0
 30
0.0
  3
LOGO
  1

  0
ARC
  5
3A
330
22
100
AcDbEntity
  8
0
100
AcDbCircle
 10
11.59973089678112
 20
-9.271599258481501
 30
0.0
 40
4.5
100
AcDbArc
 50
270.0
 51
231.0575587310159
  0
LINE
  5
3B
330
22
100
AcDbEntity
  8
0
100
AcDbLine
 10
3.599730896781125
 20
-4.771599258481529
 30
0.0
 11
3.599730896781153
 21
-11.77159925848133
 31
0.0
  0
LINE
  5
3C
330
22
100
AcDbEntity
  8
0
100
AcDbLine
 10
2.599730896781125
 20
-4.771599258481529
 30
0.0
 11
2.599730896781153
 21
-11.77159925848133
 31
0.0
  0
CIRCLE
  5
3D
330
22
100
AcDbEntity
  8
0
100
AcDbCircle
 10
11.59973089678112
 20
-9.271599258481501
 30
0.0
 40
3.5
  0
ARC
  5
3E
330
22
100
AcDbEntity
  8
0
100
AcDbCircle
 10
31.59973089678115
 20
-9.271599258481472
 30
0.0
 40
4.5
100
AcDbArc
 50
270.0
 51
231.0575587310182
  0
LINE
  5
3F
330
22
100
AcDbEntity
  8
0
100
AcDbLine
 10
17.59973089678112
 20
-4.771599258481472
 30
0.0
 11
17.59973089678115
 21
-13.77159925848147
 31
0.0
  0
ARC
  5
40
330
22
100
AcDbEntity
  8
0
100
AcDbCircle
 10
22.59973089678116
 20
-7.271599258481472
 30
0.0
 40
2.5
100
AcDbArc
 50
293.1161887722295
 51
90.0
  0
CIRCLE
  5
41
330
22
100
AcDbEntity
  8
0
100
AcDbCircle
 10
31.59973089678115
 20
-9.271599258481472
 30
0.0
 40
3.5
  0
ARC
  5
42
330
22
100
AcDbEntity
  8
0
100
AcDbCircle
 10
4.599730896781153
 20
-11.77159925848133
 30
0.0
 40
1.0
100
AcDbArc
 50
180.0
 51
270.0
  0
ARC
  5
43
330
22
100
AcDbEntity
  8
0
100
AcDbCircle
 10
4.599730896781153
 20
-11.77159925848133
 30
0.0
 40
2.0
100
AcDbArc
 50
179.9999999999992
 51
270.0
  0
LINE
  5
44
330
22
100
AcDbEntity
  8
0
100
AcDbLine
 10
11.59973089678115
 20
-13.77159925848144
 30
0.0
 11
4.599730896781153
 21
-13.77159925848147
 31
0.0
  0
LINE
  5
45
330
22
100
AcDbEntity
  8
0
100
AcDbLine
 10
8.771303772034769
 20
-12.77159925848136
 30
0.0
 11
4.599730896781153
 21
-12.77159925848133
 31
0.0
  0
LINE
  5
46
330
22
100
AcDbEntity
  8
0
100
AcDbLine
 10
31.59973089678115
 20
-13.77159925848147
 30
0.0
 11
23.6715276665056
 21
-13.77159925848144
 31
0.0
  0
LINE
  5
47
330
22
100
AcDbEntity
  8
0
100
AcDbLine
 10
23.56565672307022
 20
-9.51278021337896
 30
0.0
 11
24.4388546544846
 21
-12.77159925848144
 31
0.0
  0
LINE
  5
48
330
22
100
AcDbEntity
  8
0
100
AcDbLine
 10
22.59973089678116
 20
-9.771599258481472
 30
0.0
 11
18.59973089678112
 21
-9.771599258481472
 31
0.0
  0
LINE
  5
49
330
22
100
AcDbEntity
  8
0
100
AcDbLine
 10
18.59973089678115
 20
-13.77159925848144
 30
0.0
 11
17.59973089678115
 21
-13.77159925848144
 31
0.0
  0
LINE
  5
4A
330
22
100
AcDbEntity
  8
0
100
AcDbLine
 10
18.59973089678115
 20
-9.771599258481472
 30
0.0
 11
18.59973089678115
 21
-13.77159925848144
 31
0.0
  0
LINE
  5
4B
330
22
100
AcDbEntity
  8
0
100
AcDbLine
 10
22.59973089678116
 20
-9.771599258481472
 30
0.0
 11
23.67152766650562
 21
-13.77159925848147
 31
0.0
  0
ARC
  5
4C
330
22
100
AcDbEntity
  8
0
100
AcDbCircle
 10
22.59973089678116
 20
-7.271599258481472
 30
0.0
 40
2.5
100
AcDbArc
 50
270.0
 51
270.0000000000007
  0
LINE
  5
4D
330
22
100
AcDbEntity
  8
0
100
AcDbLine
 10
28.77130377203494
 20
-12.77159925848147
 30
0.0
 11
24.43885465448463
 21
-12.77159925848144
 31
0.0
  0
LINE
  5
4E
330
22
100
AcDbEntity
  8
0
100
AcDbLine
 10
3.599730896781125
 20
-4.771599258481472
 30
0.0
 11
2.599730896781125
 21
-4.771599258481472
 31
0.0
  0
LINE
  5
4F
330
22
100
AcDbEntity
  8
0
100
AcDbLine
 10
22.59973089678116
 20
-8.771599258481472
 30
0.0
 11
18.59973089678115
 21
-8.771599258481472
 31
0.0
  0
LINE
  5
50
330
22
100
AcDbEntity
  8
0
100
AcDbLine
 10
22.59973089678116
 20
-5.771599258481472
 30
0.0
 11
18.59973089678115
 21
-5.771599258481472
 31
0.0
  0
LINE
  5
51
330
22
100
AcDbEntity
  8
0
100
AcDbLine
 10
22.59973089678116
 20
-4.771599258481472
 30
0.0
 11
17.59973089678115
 21
-4.771599258481472
 31
0.0
  0
LINE
  5
52
330
22
100
AcDbEntity
  8
0
100
AcDbLine
 10
18.59973089678115
 20
-5.771599258481472
 30
0.0
 11
18.59973089678115
 21
-8.771599258481472
 31
0.0
  0
ARC
  5
53
330
22
100
AcDbEntity
  8
0
100
AcDbCircle
 10
22.59973089678116
 20
-7.271599258481472
 30
0.0
 40
1.5
100
AcDbArc
 50
270.0
 51
90.0
  0
ENDBLK
  5
54
330
22
100
AcDbEntity
  8
0
100
AcDbBlockEnd
  0
BLOCK
  5
12ED
330
12E3
100
AcDbEntity
  8
0
100
AcDbBlockBegin
  2
*D1
 70
     1
 10
0.0
 20
0.0
 30
0.0
  3
*D1
  1

  0
LINE
  5
13E5
330
12E3
100
AcDbEntity
  8
BEM
 62
     0
370
    -2
100
AcDbLine
 10
165.9543409258929
 20
453.4802852769063
 30
0.0
 11
147.9300136658238
 21
453.4802852769063
 31
0.0
  0
LINE
  5
13E6
330
12E3
100
AcDbEntity
  8
BEM
 62
     0
370
    -2
100
AcDbLine
 10
255.7197382541683
 20
313.4802852769063
 30
0.0
 11
147.9300136658237
 21
313.4802852769063
 31
0.0
  0
LINE
  5
13E7
330
12E3
100
AcDbEntity
  8
BEM
 62
     0
370
    -2
100
AcDbLine
 10
149.9300136658238
 20
446.4802852769063
 30
0.0
 11
149.9300136658238
 21
320.4802852769063
 31
0.0
  0
SOLID
  5
13E8
330
12E3
100
AcDbEntity
  8
BEM
 62
     0
100
AcDbTrace
 10
148.7633469991571
 20
446.4802852769063
 30
0.0
 11
151.0966803324904
 21
446.4802852769063
 31
0.0
 12
149.9300136658238
 22
453.4802852769063
 32
0.0
 13
149.9300136658238
 23
453.4802852769063
 33
0.0
  0
SOLID
  5
13E9
330
12E3
100
AcDbEntity
  8
BEM
 62
     0
100
AcDbTrace
 10
148.7633469991571
 20
320.4802852769063
 30
0.0
 11
151.0966803324904
 21
320.4802852769063
 31
0.0
 12
149.9300136658237
 22
313.4802852769063
 32
0.0
 13
149.9300136658237
 23
313.4802852769063
 33
0.0
  0
MTEXT
  5
13EA
330
12E3
100
AcDbEntity
  8
BEM
 62
     1
100
AcDbMText
 10
143.4300136658237
 20
383.4802852769064
 30
0.0
 40
7.0
 41
0.0
 71
     5
 72
     1
  1
\A1;140
 11
0.0000000000000001
 21
1.0
 31
0.0
 73
     1
 44
1.0
  0
POINT
  5
13EB
330
12E3
100
AcDbEntity
  8
DEFPOINTS
 62
     0
100
AcDbPoint
 10
167.9543409258929
 20
453.4802852769063
 30
0.0
  0
POINT
  5
13EC
330
12E3
100
AcDbEntity
  8
DEFPOINTS
 62
     0
100
AcDbPoint
 10
257.7197382541683
 20
313.4802852769063
 30
0.0
  0
POINT
  5
13ED
330
12E3
100
AcDbEntity
  8
DEFPOINTS
 62
     0
100
AcDbPoint
 10
149.9300136658237
 20
313.4802852769063
 30
0.0
  0
ENDBLK
  5
12EE
330
12E3
100
AcDbEntity
  8
0
100
AcDbBlockEnd
  0
BLOCK
  5
1314
330
130A
100
AcDbEntity
  8
0
100
AcDbBlockBegin
  2
*D4
 70
     1
 10
0.0
 20
0.0
 30
0.0
  3
*D4
  1

  0
LINE
  5
1448
330
130A
100
AcDbEntity
  8
BEM
 62
     0
370
    -2
100
AcDbLine
 10
707.7197382541683
 20
275.8490601720962
 30
0.0
 11
707.7197382541683
 21
253.6905606885619
 31
0.0
  0
LINE
  5
1449
330
130A
100
AcDbEntity
  8
BEM
 62
     0
370
    -2
100
AcDbLine
 10
207.7197382541683
 20
361.4802852769063
 30
0.0
 11
207.7197382541683
 21
253.6905606885619
 31
0.0
  0
LINE
  5
144A
330
130A
100
AcDbEntity
  8
BEM
 62
     0
370
    -2
100
AcDbLine
 10
700.7197382541683
 20
255.6905606885619
 30
0.0
 11
214.7197382541683
 21
255.6905606885619
 31
0.0
  0
SOLID
  5
144B
330
130A
100
AcDbEntity
  8
BEM
 62
     0
100
AcDbTrace
 10
700.7197382541683
 20
256.8572273552285
 30
0.0
 11
700.7197382541683
 21
254.5238940218952
 31
0.0
 12
707.7197382541683
 22
255.6905606885619
 32
0.0
 13
707.7197382541683
 23
255.6905606885619
 33
0.0
  0
SOLID
  5
144C
330
130A
100
AcDbEntity
  8
BEM
 62
     0
100
AcDbTrace
 10
214.7197382541683
 20
256.8572273552285
 30
0.0
 11
214.7197382541683
 21
254.5238940218952
 31
0.0
 12
207.7197382541683
 22
255.6905606885619
 32
0.0
 13
207.7197382541683
 23
255.6905606885619
 33
0.0
  0
MTEXT
  5
144D
330
130A
100
AcDbEntity
  8
BEM
 62
     1
100
AcDbMText
 10
457.7197382541682
 20
262.1905606885619
 30
0.0
 40
7.0
 41
0.0
 71
     5
 72
     1
  1
\A1;500
 73
     1
 44
1.0
  0
POINT
  5
144E
330
130A
100
AcDbEntity
  8
DEFPOINTS
 62
     0
100
AcDbPoint
 10
707.7197382541683
 20
277.8490601720962
 30
0.0
  0
POINT
  5
144F
330
130A
100
AcDbEntity
  8
DEFPOINTS
 62
     0
100
AcDbPoint
 10
207.7197382541683
 20
363.4802852769063
 30
0.0
  0
POINT
  5
1450
330
130A
100
AcDbEntity
  8
DEFPOINTS
 62
     0
100
AcDbPoint
 10
207.7197382541683
 20
255.6905606885619
 30
0.0
  0
ENDBLK
  5
1315
330
130A
100
AcDbEntity
  8
0
100
AcDbBlockEnd
  0
BLOCK
  5
1321
330
1317
100
AcDbEntity
  8
0
100
AcDbBlockBegin
  2
*D5
 70
     1
 10
0.0
 20
0.0
 30
0.0
  3
*D5
  1

  0
LINE
  5
1323
330
1317
100
AcDbEntity
  8
BEM
 62
     0
370
    -2
100
AcDbLine
 10
699.7895957628211
 20
276.9802852769063
 30
0.0
 11
731.5585294556044
 21
276.9802852769063
 31
0.0
  0
LINE
  5
1324
330
1317
100
AcDbEntity
  8
BEM
 62
     0
370
    -2
100
AcDbLine
 10
699.7895957628218
 20
349.9802852769063
 30
0.0
 11
731.5585294556044
 21
349.9802852769063
 31
0.0
  0
LINE
  5
1325
330
1317
100
AcDbEntity
  8
BEM
 62
     0
370
    -2
100
AcDbLine
 10
729.5585294556044
 20
283.9802852769063
 30
0.0
 11
729.5585294556044
 21
342.9802852769063
 31
0.0
  0
SOLID
  5
1326
330
1317
100
AcDbEntity
  8
BEM
 62
     0
100
AcDbTrace
 10
728.3918627889378
 20
283.9802852769063
 30
0.0
 11
730.7251961222711
 21
283.9802852769063
 31
0.0
 12
729.5585294556044
 22
276.9802852769063
 32
0.0
 13
729.5585294556044
 23
276.9802852769063
 33
0.0
  0
SOLID
  5
1327
330
1317
100
AcDbEntity
  8
BEM
 62
     0
100
AcDbTrace
 10
728.3918627889378
 20
342.9802852769063
 30
0.0
 11
730.7251961222711
 21
342.9802852769063
 31
0.0
 12
729.5585294556044
 22
349.9802852769063
 32
0.0
 13
729.5585294556044
 23
349.9802852769063
 33
0.0
  0
MTEXT
  5
1328
330
1317
100
AcDbEntity
  8
BEM
 62
     1
100
AcDbMText
 10
723.0585294556043
 20
313.4802852769064
 30
0.0
 40
7.0
 41
0.0
 71
     5
 72
     1
  1
\A1;%%c73
 11
0.0000000000000001
 21
1.0
 31
0.0
 73
     1
 44
1.0
  0
POINT
  5
1329
330
1317
100
AcDbEntity
  8
DEFPOINTS
 62
     0
100
AcDbPoint
 10
697.7895957628211
 20
276.9802852769063
 30
0.0
  0
POINT
  5
132A
330
1317
100
AcDbEntity
  8
DEFPOINTS
 62
     0
100
AcDbPoint
 10
697.7895957628218
 20
349.9802852769063
 30
0.0
  0
POINT
  5
132B
330
1317
100
AcDbEntity
  8
DEFPOINTS
 62
     0
100
AcDbPoint
 10
729.5585294556044
 20
349.9802852769063
 30
0.0
  0
ENDBLK
  5
1322
330
1317
100
AcDbEntity
  8
0
100
AcDbBlockEnd
  0
BLOCK
  5
13B1
330
13A5
100
AcDbEntity
  8
0
100
AcDbBlockBegin
  2
*D7
 70
     1
 10
0.0
 20
0.0
 30
0.0
  3
*D7
  1

  0
LINE
  5
13A6
330
13A5
100
AcDbEntity
  8
SCHRAFF
 62
     0
370
    -2
100
AcDbLine
 10
205.7197382541683
 20
313.4802852769064
 30
0.0
 11
147.9300136658237
 21
313.4802852769063
 31
0.0
  0
LINE
  5
13A7
330
13A5
100
AcDbEntity
  8
SCHRAFF
 62
     0
370
    -2
100
AcDbLine
 10
207.7197382541683
 20
311.4802852769064
 30
0.0
 11
207.7197382541683
 21
253.6905606885619
 31
0.0
  0
ARC
  5
13A8
330
13A5
100
AcDbEntity
  8
SCHRAFF
 62
     0
370
    -2
100
AcDbCircle
 10
207.7197382541683
 20
313.4802852769064
 30
0.0
 40
57.78972458834451
100
AcDbArc
 50
186.9444188548131
 51
263.0555811451869
  0
SOLID
  5
13A9
330
13A5
100
AcDbEntity
  8
SCHRAFF
 62
     0
100
AcDbTrace
 10
149.1894394592141
 20
306.4224767674882
 30
0.0
 11
151.5184894734368
 21
306.5637937009888
 31
0.0
 12
149.9300136658237
 22
313.4802852769063
 32
0.0
 13
149.9300136658237
 23
313.4802852769063
 33
0.0
  0
SOLID
  5
13AA
330
13A5
100
AcDbEntity
  8
SCHRAFF
 62
     0
100
AcDbTrace
 10
200.8032466782507
 20
257.2790364961749
 30
0.0
 11
200.6619297447501
 21
254.9499864819522
 31
0.0
 12
207.7197382541683
 22
255.6905606885619
 32
0.0
 13
207.7197382541683
 23
255.6905606885619
 33
0.0
  0
MTEXT
  5
13AB
330
13A5
100
AcDbEntity
  8
SCHRAFF
 62
     1
100
AcDbMText
 10
171.4524261925594
 20
277.2129732152976
 30
0.0
 40
7.0
 41
0.0
 71
     5
 72
     1
  1
\A1;90°
 11
0.7071067811865476
 21
-0.7071067811865475
 31
0.0
 73
     1
 44
1.0
  0
POINT
  5
13AC
330
13A5
100
AcDbEntity
  8
DEFPOINTS
 62
     0
100
AcDbPoint
 10
157.6723686829557
 20
284.5854229827341
 30
0.0
  0
POINT
  5
13AD
330
13A5
100
AcDbEntity
  8
DEFPOINTS
 62
     0
100
AcDbPoint
 10
207.7197382541683
 20
363.4802852769064
 30
0.0
  0
POINT
  5
13AE
330
13A5
100
AcDbEntity
  8
DEFPOINTS
 62
     0
100
AcDbPoint
 10
712.7197382541685
 20
313.4802852769063
 30
0.0
  0
POINT
  5
13AF
330
13A5
100
AcDbEntity
  8
DEFPOINTS
 62
     0
100
AcDbPoint
 10
257.7197382541684
 20
313.4802852769063
 30
0.0
  0
POINT
  5
13B0
330
13A5
100
AcDbEntity
  8
DEFPOINTS
 62
     0
100
AcDbPoint
 10
207.7197382541683
 20
458.4802852769063
 30
0.0
  0
ENDBLK
  5
13B2
330
13A5
100
AcDbEntity
  8
0
100
AcDbBlockEnd
  0
BLOCK
  5
13D5
330
13CF
100
AcDbEntity
  8
0
100
AcDbBlockBegin
  2
*D8
 70
     1
 10
0.0
 20
0.0
 30
0.0
  3
*D8
  1

  0
LINE
  5
13D0
330
13CF
100
AcDbEntity
  8
SCHRAFF
 62
     0
370
    -2
100
AcDbLine
 10
249.1819601125596
 20
350.7438236208661
 30
0.0
 11
233.7768386831353
 21
327.7628167197503
 31
0.0
  0
MTEXT
  5
13D1
330
13CF
100
AcDbEntity
  8
SCHRAFF
 62
     1
100
AcDbMText
 10
238.0290878368498
 20
345.7798314996515
 30
0.0
 40
7.0
 41
0.0
 71
     5
 72
     1
  1
\A1;R50
 11
0.5568116179309995
 21
0.8306388036547913
 31
0.0
 73
     1
 44
1.0
  0
SOLID
  5
13D2
330
13CF
100
AcDbEntity
  8
SCHRAFF
 62
     0
100
AcDbTrace
 10
232.8077600788713
 20
328.4124302740031
 30
0.0
 11
234.7459172873992
 21
327.1132031654975
 31
0.0
 12
229.8791573576183
 22
321.9483450941668
 32
0.0
 13
229.8791573576183
 23
321.9483450941668
 33
0.0
  0
POINT
  5
13D3
330
13CF
100
AcDbEntity
  8
DEFPOINTS
 62
     0
100
AcDbPoint
 10
229.8791573576183
 20
321.9483450941668
 30
0.0
  0
POINT
  5
13D4
330
13CF
100
AcDbEntity
  8
DEFPOINTS
 62
     0
100
AcDbPoint
 10
257.719738254168
 20
363.4802852769059
 30
0.0
  0
ENDBLK
  5
13D6
330
13CF
100
AcDbEntity
  8
0
100
AcDbBlockEnd
  0
ENDSEC
  0
SECTION
  2
ENTITIES
  0
TEXT
  5
65F
330
1E
100
AcDbEntity
  8
TEXT
100
AcDbText
 10
470.6189005955859
 20
113.2854817854125
 30
0.0
 40
5.0
  1
Erstellt mit AUTO-CAD 12.0
 41
0.8
  7
GREEKS
100
AcDbText
  0
TEXT
  5
669
330
1E
100
AcDbEntity
  8
TEXT
100
AcDbText
 10
624.2889439602947
 20
62.81253886044971
 30
0.0
 40
4.0
  1
Koeh
 41
0.8
  7
GREEKS
 72
     1
 11
629.5460868174376
 21
62.81253886044971
 31
0.0
100
AcDbText
  0
TEXT
  5
66A
330
1E
100
AcDbEntity
  8
TEXT
100
AcDbText
 10
589.368594660766
 20
62.82173295359672
 30
0.0
 40
4.0
  1
10.09.
 41
0.8
  7
GREEKS
 72
     1
 11
596.0733565655279
 21
62.82173295359672
 31
0.0
100
AcDbText
  0
LINE
  5
66B
330
1E
100
AcDbEntity
  8
BEM
100
AcDbLine
 10
460.0000000000001
 20
584.0
 30
0.0
 11
460.0000000000001
 21
594.0
 31
0.0
  0
LINE
  5
66C
330
1E
100
AcDbEntity
  8
BEM
100
AcDbLine
 10
460.0000000000001
 20
0.0
 30
0.0
 11
460.0000000000001
 21
10.0
 31
0.0
  0
INSERT
  5
66D
330
1E
100
AcDbEntity
  8
STEMPEL
100
AcDbBlockReference
  2
LOGO
 10
568.9705276546529
 20
44.32391971867144
 30
0.0
 41
2.0
 42
2.0
 43
2.0
  0
TEXT
  5
66E
330
1E
100
AcDbEntity
  8
TEXT
100
AcDbText
 10
654.9713400534564
 20
42.1950457301354
 30
0.0
 40
4.0
  1
05042CC0W.DWG
 41
0.8
  7
GREEKS
100
AcDbText
  0
TEXT
  5
66F
330
1E
100
AcDbEntity
  8
TEXT
 62
     1
100
AcDbText
 10
766.1044394842364
 20
87.01863741763572
 30
0.0
 40
7.0
  1
05042CC0W
 41
0.8
  7
GREEKS
 72
     1
 11
790.3711061509031
 21
87.01863741763572
 31
0.0
100
AcDbText
  0
TEXT
  5
670
330
1E
100
AcDbEntity
  8
TEXT
100
AcDbText
 10
836.4132055378062
 20
10.5537806176784
 30
0.0
 40
3.6
  1
Diese Zeichnung ist urheberrechtlich geschuetzt und bleibt unser Eigentum. Sie darf weder ganz noch teilweise vervielfaeltigt und nicht an Dritte weitegegeben werden.
 50
90.0
  7
GREEKS
100
AcDbText
  0
TEXT
  5
671
330
1E
100
AcDbEntity
  8
TEXT
100
AcDbText
 10
655.162303158329
 20
52.75131145345461
 30
0.0
 40
5.0
  1
EDV-Art.Nr. 05042.CC0X
 41
0.8
  7
GREEKS
100
AcDbText
  0
TEXT
  5
672
330
1E
100
AcDbEntity
  8
TEXT
100
AcDbText
 10
654.862987254257
 20
72.29651127304094
 30
0.0
 40
5.0
  1
DN 70/70
 41
0.8
  7
GREEKS
100
AcDbText
  0
TEXT
  5
673
330
1E
100
AcDbEntity
  8
TEXT
 62
     1
100
AcDbText
 10
578.8064310364449
 20
86.22410504373215
 30
0.0
 40
7.0
  1
1:2
 41
0.8
  7
GREEKS
100
AcDbText
  0
TEXT
  5
674
330
1E
100
AcDbEntity
  8
TEXT
100
AcDbText
 10
570.7299860699794
 20
73.14583683904146
 30
0.0
 40
4.0
  1
2012
 41
0.8
  7
GREEKS
100
AcDbText
  0
LINE
  5
675
330
1E
100
AcDbEntity
  8
STEMPEL
100
AcDbLine
 10
40.0
 20
584.0
 30
0.0
 11
40.0
 21
10.0
 31
0.0
  0
LINE
  5
676
330
1E
100
AcDbEntity
  8
STEMPEL
100
AcDbLine
 10
830.0
 20
10.0
 30
0.0
 11
830.0
 21
584.0
 31
0.0
  0
LINE
  5
677
330
1E
100
AcDbEntity
  8
STEMPEL
100
AcDbLine
 10
40.0
 20
10.0
 30
0.0
 11
830.0
 21
10.0
 31
0.0
  0
LINE
  5
678
330
1E
100
AcDbEntity
  8
STEMPEL
100
AcDbLine
 10
830.0
 20
584.0
 30
0.0
 11
40.0
 21
584.0
 31
0.0
  0
LINE
  5
679
330
1E
100
AcDbEntity
  8
HILF
100
AcDbLine
 10
0.0
 20
594.0
 30
0.0
 11
0.0
 21
0.0
 31
0.0
  0
LINE
  5
67A
330
1E
100
AcDbEntity
  8
HILF
100
AcDbLine
 10
840.0000000000002
 20
594.0
 30
0.0
 11
0.0
 21
594.0
 31
0.0
  0
LINE
  5
67B
330
1E
100
AcDbEntity
  8
HILF
100
AcDbLine
 10
840.0000000000002
 20
0.0
 30
0.0
 11
840.0000000000002
 21
594.0
 31
0.0
  0
LINE
  5
67C
330
1E
100
AcDbEntity
  8
HILF
100
AcDbLine
 10
0.0
 20
0.0
 30
0.0
 11
840.0000000000002
 21
0.0
 31
0.0
  0
TEXT
  5
67D
330
1E
100
AcDbEntity
  8
TEXT
100
AcDbText
 10
757.2400861497007
 20
52.07416177878599
 30
0.0
 40
5.0
  1
ersetzt durch:
 41
0.8
  7
GREEKS
100
AcDbText
  0
TEXT
  5
67E
330
1E
100
AcDbEntity
  8
TEXT
100
AcDbText
 10
567.6006777387303
 20
43.52946389649804
 30
0.0
 40
4.0
  1
Norm.
 41
0.8
  7
GREEKS
100
AcDbText
  0
TEXT
  5
67F
330
1E
100
AcDbEntity
  8
TEXT
100
AcDbText
 10
567.5515086571671
 20
53.68926291428374
 30
0.0
 40
4.0
  1
Gepr.
 41
0.8
  7
GREEKS
100
AcDbText
  0
TEXT
  5
680
330
1E
100
AcDbEntity
  8
TEXT
100
AcDbText
 10
567.5836127167614
 20
63.62990369617961
 30
0.0
 40
4.0
  1
Gez.
 41
0.8
  7
GREEKS
100
AcDbText
  0
TEXT
  5
681
330
1E
100
AcDbEntity
  8
TEXT
100
AcDbText
 10
622.4626584226294
 20
73.30961091915219
 30
0.0
 40
4.0
  1
Name
 41
0.8
  7
GREEKS
100
AcDbText
  0
TEXT
  5
682
330
1E
100
AcDbEntity
  8
TEXT
100
AcDbText
 10
592.3311673153649
 20
73.31880501229921
 30
0.0
 40
4.0
  1
Tag
 41
0.8
  7
GREEKS
100
AcDbText
  0
TEXT
  5
683
330
1E
100
AcDbEntity
  8
TEXT
100
AcDbText
 10
548.220150471768
 20
18.59324216966405
 30
0.0
 40
4.0
  1
Name
 41
0.8
  7
GREEKS
100
AcDbText
  0
TEXT
  5
684
330
1E
100
AcDbEntity
  8
TEXT
100
AcDbText
 10
529.4723536997202
 20
18.67156269339807
 30
0.0
 40
4.0
  1
Tag
 41
0.8
  7
GREEKS
100
AcDbText
  0
TEXT
  5
685
330
1E
100
AcDbEntity
  8
TEXT
100
AcDbText
 10
478.2664110704574
 20
13.65465846027189
 30
0.0
 40
4.0
  1
Index
 50
90.0
 41
0.8
  7
GREEKS
100
AcDbText
  0
TEXT
  5
686
330
1E
100
AcDbEntity
  8
TEXT
100
AcDbText
 10
756.7238616296994
 20
73.18118237099963
 30
0.0
 40
5.0
  1
Ersatz für:
 41
0.8
  7
GREEKS
100
AcDbText
  0
TEXT
  5
687
330
1E
100
AcDbEntity
  8
TEXT
100
AcDbText
 10
654.7422383911358
 20
30.84560570193054
 30
0.0
 40
5.0
  1
Bauvorhaben
 41
0.8
  7
GREEKS
100
AcDbText
  0
TEXT
  5
688
330
1E
100
AcDbEntity
  8
TEXT
100
AcDbText
 10
756.1787549576341
 20
102.3132034537135
 30
0.0
 40
5.0
  1
Zeichnungs Nr.
 41
0.8
  7
GREEKS
100
AcDbText
  0
TEXT
  5
689
330
1E
100
AcDbEntity
  8
TEXT
100
AcDbText
 10
654.8779403809009
 20
102.5489328011779
 30
0.0
 40
5.0
  1
Benennung
 41
0.8
  7
GREEKS
100
AcDbText
  0
TEXT
  5
68A
330
1E
100
AcDbEntity
  8
TEXT
100
AcDbText
 10
617.9646614905597
 20
102.4184168434818
 30
0.0
 40
5.0
  1
zul.Abw.
 41
0.8
  7
GREEKS
100
AcDbText
  0
TEXT
  5
68B
330
1E
100
AcDbEntity
  8
TEXT
100
AcDbText
 10
573.5163572150375
 20
102.4620895087088
 30
0.0
 40
5.0
  1
Maßstab
 41
0.8
  7
GREEKS
100
AcDbText
  0
TEXT
  5
68C
330
1E
100
AcDbEntity
  8
TEXT
100
AcDbText
 10
492.3831816424238
 20
18.67381894984129
 30
0.0
 40
4.0
  1
Änderung
 41
0.8
  7
GREEKS
100
AcDbText
  0
LINE
  5
68D
330
1E
100
AcDbEntity
  8
HILF
100
AcDbLine
 10
654.7736801096947
 20
14.89398258028302
 30
0.0
 11
824.8588839326728
 21
14.89398258028302
 31
0.0
  0
LINE
  5
68E
330
1E
100
AcDbEntity
  8
HILF
100
AcDbLine
 10
756.7238616296994
 20
83.77983636955821
 30
0.0
 11
824.8588839326728
 21
83.77983636955821
 31
0.0
  0
LINE
  5
68F
330
1E
100
AcDbEntity
  8
VOLL
100
AcDbLine
 10
752.0000000000001
 20
60.0
 30
0.0
 11
830.0
 21
60.0
 31
0.0
  0
LINE
  5
690
330
1E
100
AcDbEntity
  8
HILF
100
AcDbLine
 10
654.7736801096947
 20
50.0
 30
0.0
 11
746.629784251481
 21
50.0
 31
0.0
  0
LINE
  5
691
330
1E
100
AcDbEntity
  8
HILF
100
AcDbLine
 10
654.7736801096947
 20
60.0
 30
0.0
 11
746.629784251481
 21
60.0
 31
0.0
  0
LINE
  5
692
330
1E
100
AcDbEntity
  8
HILF
100
AcDbLine
 10
654.7736801096947
 20
70.0
 30
0.0
 11
746.629784251481
 21
70.0
 31
0.0
  0
LINE
  5
693
330
1E
100
AcDbEntity
  8
HILF
100
AcDbLine
 10
654.7736801096947
 20
84.03758247564132
 30
0.0
 11
746.629784251481
 21
84.03758247564132
 31
0.0
  0
LINE
  5
694
330
1E
100
AcDbEntity
  8
HILF
100
AcDbLine
 10
566.0000000000001
 20
50.0
 30
0.0
 11
649.9999999999999
 21
50.0
 31
0.0
  0
LINE
  5
695
330
1E
100
AcDbEntity
  8
HILF
100
AcDbLine
 10
566.0000000000001
 20
60.0
 30
0.0
 11
649.9999999999999
 21
60.0
 31
0.0
  0
LINE
  5
696
330
1E
100
AcDbEntity
  8
HILF
100
AcDbLine
 10
566.0000000000001
 20
70.0
 30
0.0
 11
649.9999999999999
 21
70.0
 31
0.0
  0
LINE
  5
697
330
1E
100
AcDbEntity
  8
HILF
100
AcDbLine
 10
470.0
 20
40.0
 30
0.0
 11
566.0000000000001
 21
40.0
 31
0.0
  0
LINE
  5
698
330
1E
100
AcDbEntity
  8
HILF
100
AcDbLine
 10
470.0
 20
50.0
 30
0.0
 11
566.0000000000001
 21
50.0
 31
0.0
  0
LINE
  5
699
330
1E
100
AcDbEntity
  8
HILF
100
AcDbLine
 10
470.0
 20
60.0
 30
0.0
 11
566.0000000000001
 21
60.0
 31
0.0
  0
LINE
  5
69A
330
1E
100
AcDbEntity
  8
HILF
100
AcDbLine
 10
470.0
 20
70.0
 30
0.0
 11
566.0000000000001
 21
70.0
 31
0.0
  0
LINE
  5
69B
330
1E
100
AcDbEntity
  8
HILF
100
AcDbLine
 10
470.0
 20
80.0
 30
0.0
 11
566.0000000000001
 21
80.0
 31
0.0
  0
LINE
  5
69C
330
1E
100
AcDbEntity
  8
HILF
100
AcDbLine
 10
470.0
 20
90.0
 30
0.0
 11
566.0000000000001
 21
90.0
 31
0.0
  0
LINE
  5
69D
330
1E
100
AcDbEntity
  8
HILF
100
AcDbLine
 10
470.0
 20
100.0
 30
0.0
 11
566.0000000000001
 21
100.0
 31
0.0
  0
LINE
  5
69E
330
1E
100
AcDbEntity
  8
VOLL
100
AcDbLine
 10
610.0000000000001
 20
109.9999999999998
 30
0.0
 11
609.9999999999998
 21
40.0
 31
0.0
  0
LINE
  5
69F
330
1E
100
AcDbEntity
  8
VOLL
100
AcDbLine
 10
584.0000000000001
 20
80.0
 30
0.0
 11
584.0000000000001
 21
40.0
 31
0.0
  0
LINE
  5
6A0
330
1E
100
AcDbEntity
  8
VOLL
100
AcDbLine
 10
544.0000000000001
 20
109.9999999999999
 30
0.0
 11
543.9999999999998
 21
9.999999999999886
 31
0.0
  0
LINE
  5
6A1
330
1E
100
AcDbEntity
  8
VOLL
100
AcDbLine
 10
524.0000000000001
 20
109.9999999999999
 30
0.0
 11
523.9999999999999
 21
9.999999999999943
 31
0.0
  0
LINE
  5
6A2
330
1E
100
AcDbEntity
  8
VOLL
100
AcDbLine
 10
484.0
 20
110.0
 30
0.0
 11
483.9999999999998
 21
10.0
 31
0.0
  0
LINE
  5
6A3
330
1E
100
AcDbEntity
  8
STEMPEL
100
AcDbLine
 10
830.0
 20
80.0
 30
0.0
 11
566.0000000000001
 21
80.0
 31
0.0
  0
LINE
  5
6A4
330
1E
100
AcDbEntity
  8
STEMPEL
100
AcDbLine
 10
830.0
 20
40.0
 30
0.0
 11
565.9999999999999
 21
40.0
 31
0.0
  0
LINE
  5
6A5
330
1E
100
AcDbEntity
  8
STEMPEL
100
AcDbLine
 10
565.9999999999999
 20
30.0
 30
0.0
 11
469.9999999999999
 21
30.0
 31
0.0
  0
LINE
  5
6A6
330
1E
100
AcDbEntity
  8
STEMPEL
100
AcDbLine
 10
752.0000000000001
 20
109.9999999999996
 30
0.0
 11
752.0000000000001
 21
40.0
 31
0.0
  0
LINE
  5
6A7
330
1E
100
AcDbEntity
  8
STEMPEL
100
AcDbLine
 10
649.9999999999999
 20
110.0
 30
0.0
 11
649.9999999999999
 21
10.0
 31
0.0
  0
LINE
  5
6A8
330
1E
100
AcDbEntity
  8
STEMPEL
100
AcDbLine
 10
566.0000000000001
 20
109.9999999999999
 30
0.0
 11
565.9999999999999
 21
9.999999999999886
 31
0.0
  0
LINE
  5
6A9
330
1E
100
AcDbEntity
  8
STEMPEL
100
AcDbLine
 10
470.0
 20
110.0
 30
0.0
 11
469.9999999999999
 21
10.0
 31
0.0
  0
LINE
  5
6AA
330
1E
100
AcDbEntity
  8
STEMPEL
100
AcDbLine
 10
830.0
 20
110.0
 30
0.0
 11
470.0
 21
110.0
 31
0.0
  0
TEXT
  5
6AB
330
1E
100
AcDbEntity
  8
TEXT
 62
     1
100
AcDbText
 10
654.979117340995
 20
86.99412083985322
 30
0.0
 40
7.0
  1
LORO-Anschlußbogen
 41
0.8
  7
GREEKS
100
AcDbText
  0
TEXT
  5
A44
330
1E
100
AcDbEntity
  8
TEXT
 62
     1
100
AcDbText
 10
512.404743977696
 20
320.535242576043
 30
0.0
 40
7.0
  1
DN70
 41
0.8
  7
GREEKS
100
AcDbText
  0
TEXT
  5
A45
330
1E
100
AcDbEntity
  8
TEXT
 62
     1
100
AcDbText
 10
203.5023423981081
 20
425.6243344505654
 30
0.0
 40
7.0
  1
DN70
 50
90.0
 41
0.8
  7
GREEKS
100
AcDbText
  0
TEXT
  5
A46
330
1E
100
AcDbEntity
  8
TEXT
100
AcDbText
 10
613.0623689738784
 20
88.90224593904305
 30
0.0
 40
4.0
  1
DIN EN1123-2
 41
0.8
  7
GREEKS
 72
     1
 11
630.0528451643546
 21
88.90224593904305
 31
0.0
100
AcDbText
  0
TEXT
  5
A50
330
1E
100
AcDbEntity
  8
TEXT
 62
     1
100
AcDbText
 10
664.6057658946467
 20
129.0783465745482
 30
0.0
 40
7.0
  1
und innen beschichtet
 41
0.8
  7
GREEKS
100
AcDbText
  0
TEXT
  5
A51
330
1E
100
AcDbEntity
  8
TEXT
 62
     1
100
AcDbText
 10
616.656048457249
 20
139.8004583895517
 30
0.0
 40
7.0
  1
Werkstoff: E195 EN10305 feuerverzinkt
 41
0.8
  7
GREEKS
100
AcDbText
  0
ARC
  5
1286
102
{ACAD_REACTORS
330
142E
102
}
330
1E
100
AcDbEntity
  8
STEMPEL
100
AcDbCircle
 10
257.7197382541683
 20
363.4802852769063
 30
0.0
 40
84.9
100
AcDbArc
 50
180.0
 51
270.0
  0
ARC
  5
1287
102
{ACAD_REACTORS
330
142E
102
}
330
1E
100
AcDbEntity
  8
STEMPEL
100
AcDbCircle
 10
257.7197382541683
 20
363.4802852769063
 30
0.0
 40
15.1
100
AcDbArc
 50
180.0
 51
270.0
  0
ARC
  5
1288
102
{ACAD_REACTORS
330
142E
102
}
330
1E
100
AcDbEntity
  8
STEMPEL
100
AcDbCircle
 10
257.7197382541683
 20
363.4802852769063
 30
0.0
 40
86.5
100
AcDbArc
 50
180.0
 51
270.0
  0
ARC
  5
1289
102
{ACAD_REACTORS
330
142E
102
}
330
1E
100
AcDbEntity
  8
STEMPEL
100
AcDbCircle
 10
257.7197382541683
 20
363.4802852769063
 30
0.0
 40
13.5
100
AcDbArc
 50
180.0
 51
270.0
  0
ARC
  5
128A
330
1E
100
AcDbEntity
  8
MITTEL
100
AcDbCircle
 10
257.7197382541683
 20
363.4802852769063
 30
0.0
 40
50.0
100
AcDbArc
 50
180.0
 51
270.0
  0
LINE
  5
128B
102
{ACAD_REACTORS
330
1443
102
}
330
1E
100
AcDbEntity
  8
STEMPEL
100
AcDbLine
 10
697.7895957628211
 20
276.9802852769063
 30
0.0
 11
707.7197382541683
 21
277.8490601720962
 31
0.0
  0
LINE
  5
128C
102
{ACAD_REACTORS
330
1443
102
}
330
1E
100
AcDbEntity
  8
STEMPEL
100
AcDbLine
 10
697.7895957628218
 20
349.9802852769063
 30
0.0
 11
707.7197382541683
 21
349.1115103817163
 31
0.0
  0
LINE
  5
128D
102
{ACAD_REACTORS
330
1443
102
}
330
1E
100
AcDbEntity
  8
STEMPEL
100
AcDbLine
 10
697.7197382541685
 20
348.3802852769063
 30
0.0
 11
707.7197382541683
 21
347.5053986416472
 31
0.0
  0
LINE
  5
128E
102
{ACAD_REACTORS
330
1443
102
}
330
1E
100
AcDbEntity
  8
STEMPEL
100
AcDbLine
 10
697.7197382541683
 20
278.5802852769064
 30
0.0
 11
707.7197382541683
 21
279.4551719121656
 31
0.0
  0
LINE
  5
128F
102
{ACAD_REACTORS
330
1443
102
}
330
1E
100
AcDbEntity
  8
STEMPEL
  6
Continuous
100
AcDbLine
 10
697.7197382541683
 20
278.5802852769064
 30
0.0
 11
257.7197382541683
 21
278.5802852769064
 31
0.0
  0
LINE
  5
1290
102
{ACAD_REACTORS
330
1443
102
}
330
1E
100
AcDbEntity
  8
STEMPEL
  6
Continuous
100
AcDbLine
 10
697.7197382541685
 20
348.3802852769063
 30
0.0
 11
257.7197382541683
 21
348.3802852769063
 31
0.0
  0
LINE
  5
1291
330
1E
100
AcDbEntity
  8
HILF
100
AcDbLine
 10
697.7197382541683
 20
280.1802852769065
 30
0.0
 11
697.7197382541683
 21
346.7802852769064
 31
0.0
  0
LINE
  5
1292
102
{ACAD_REACTORS
330
1443
102
}
330
1E
100
AcDbEntity
  8
STEMPEL
  6
Continuous
100
AcDbLine
 10
697.7895957628211
 20
276.9802852769063
 30
0.0
 11
257.7197382541683
 21
276.9802852769063
 31
0.0
  0
LINE
  5
1293
102
{ACAD_REACTORS
330
1443
102
}
330
1E
100
AcDbEntity
  8
STEMPEL
  6
Continuous
100
AcDbLine
 10
697.7895957628218
 20
349.9802852769063
 30
0.0
 11
257.7197382541683
 21
349.9802852769063
 31
0.0
  0
LINE
  5
1294
102
{ACAD_REACTORS
330
1443
102
}
330
1E
100
AcDbEntity
  8
STEMPEL
100
AcDbLine
 10
707.7197382541683
 20
277.8490601720962
 30
0.0
 11
707.7197382541683
 21
349.1115103817163
 31
0.0
  0
LINE
  5
1295
330
1E
100
AcDbEntity
  8
MITTEL
100
AcDbLine
 10
712.7197382541684
 20
313.4802852769063
 30
0.0
 11
257.7197382541683
 21
313.4802852769063
 31
0.0
  0
LINE
  5
1296
102
{ACAD_REACTORS
330
142E
102
}
330
1E
100
AcDbEntity
  8
STEMPEL
  6
Continuous
100
AcDbLine
 10
244.2197382541684
 20
363.4802852769063
 30
0.0
 11
244.2197382541684
 21
393.1736856123377
 31
0.0
  0
LINE
  5
1297
102
{ACAD_REACTORS
330
142E
102
}
330
1E
100
AcDbEntity
  8
STEMPEL
  6
Continuous
100
AcDbLine
 10
242.6197382541684
 20
363.4802852769063
 30
0.0
 11
242.6197382541684
 21
393.1736856123377
 31
0.0
  0
ARC
  5
1298
102
{ACAD_REACTORS
330
142E
102
}
330
1E
100
AcDbEntity
  8
STEMPEL
  6
Continuous
100
AcDbCircle
 10
235.3197382541684
 20
403.8690116943233
 30
0.0
 40
12.0
100
AcDbArc
 50
327.6719358778383
 51
0.0
  0
ARC
  5
1299
102
{ACAD_REACTORS
330
142E
102
}
330
1E
100
AcDbEntity
  8
STEMPEL
  6
Continuous
100
AcDbCircle
 10
235.3197382541684
 20
403.8690116943233
 30
0.0
 40
10.4
100
AcDbArc
 50
327.6719358778383
 51
0.0
  0
ARC
  5
129A
102
{ACAD_REACTORS
330
142E
102
}
330
1E
100
AcDbEntity
  8
STEMPEL
  6
Continuous
100
AcDbCircle
 10
252.2197382541683
 20
393.1736856123377
 30
0.0
 40
8.0
100
AcDbArc
 50
147.6719358778383
 51
180.0
  0
ARC
  5
129B
102
{ACAD_REACTORS
330
142E
102
}
330
1E
100
AcDbEntity
  8
STEMPEL
  6
Continuous
100
AcDbCircle
 10
252.2197382541683
 20
393.1736856123377
 30
0.0
 40
9.599999999999999
100
AcDbArc
 50
147.6719358778383
 51
180.0
  0
ARC
  5
129C
102
{ACAD_REACTORS
330
142E
102
}
330
1E
100
AcDbEntity
  8
STEMPEL
  6
Continuous
100
AcDbCircle
 10
259.3197382541683
 20
420.4802852769063
 30
0.0
 40
12.0
100
AcDbArc
 50
158.8168456069635
 51
180.0
  0
ARC
  5
129D
102
{ACAD_REACTORS
330
142E
102
}
330
1E
100
AcDbEntity
  8
STEMPEL
  6
Continuous
100
AcDbCircle
 10
259.3197382541683
 20
420.4802852769063
 30
0.0
 40
13.6
100
AcDbArc
 50
158.8168456069635
 51
180.0
  0
LINE
  5
129E
102
{ACAD_REACTORS
330
142E
102
}
330
1E
100
AcDbEntity
  8
STEMPEL
  6
Continuous
100
AcDbLine
 10
248.2197382541684
 20
442.9313628697876
 30
0.0
 11
248.2197382541684
 21
433.9163442428412
 31
0.0
  0
ARC
  5
129F
102
{ACAD_REACTORS
330
142E
102
}
330
1E
100
AcDbEntity
  8
STEMPEL
  6
Continuous
100
AcDbCircle
 10
224.8197382541684
 20
433.8502852769062
 30
0.0
 40
23.40009324312573
100
AcDbArc
 50
338.8168456069636
 51
0.1617474313028234
  0
ARC
  5
12A0
102
{ACAD_REACTORS
330
142E
102
}
330
1E
100
AcDbEntity
  8
STEMPEL
  6
Continuous
100
AcDbCircle
 10
224.8197382541684
 20
442.9313628697876
 30
0.0
 40
23.4
100
AcDbArc
 50
0.0
 51
26.79557793123278
  0
LINE
  5
12A1
102
{ACAD_REACTORS
330
142E
102
}
330
1E
100
AcDbEntity
  8
STEMPEL
  6
Continuous
100
AcDbLine
 10
247.3197382541683
 20
420.4802852769063
 30
0.0
 11
247.3197382541683
 21
403.8690116943233
 31
0.0
  0
LINE
  5
12A2
102
{ACAD_REACTORS
330
142E
102
}
330
1E
100
AcDbEntity
  8
STEMPEL
  6
Continuous
100
AcDbLine
 10
245.7197382541683
 20
420.4802852769063
 30
0.0
 11
245.7197382541683
 21
403.8690116943233
 31
0.0
  0
LINE
  5
12A3
102
{ACAD_REACTORS
330
142E
102
}
330
1E
100
AcDbEntity
  8
STEMPEL
  6
Continuous
100
AcDbLine
 10
249.8197382541684
 20
442.9313628697876
 30
0.0
 11
249.8197382541684
 21
433.9185653251051
 31
0.0
  0
ARC
  5
12A4
102
{ACAD_REACTORS
330
142E
102
}
330
1E
100
AcDbEntity
  8
STEMPEL
  6
Continuous
100
AcDbCircle
 10
224.8197382541684
 20
442.9313628697876
 30
0.0
 40
25.0
100
AcDbArc
 50
0.0
 51
24.95819631231679
  0
ARC
  5
12A5
102
{ACAD_REACTORS
330
142E
102
}
330
1E
100
AcDbEntity
  8
STEMPEL
  6
Continuous
100
AcDbCircle
 10
224.8197382541684
 20
433.8502852769062
 30
0.0
 40
25.00009324312574
100
AcDbArc
 50
338.8168456069636
 51
0.1564859543701707
  0
LINE
  5
12A6
102
{ACAD_REACTORS
330
142E
102
}
330
1E
100
AcDbEntity
  8
STEMPEL
  6
Continuous
100
AcDbLine
 10
172.8197382541682
 20
363.4802852769063
 30
0.0
 11
172.8197382541682
 21
393.1736856123377
 31
0.0
  0
ARC
  5
12A7
102
{ACAD_REACTORS
330
142E
102
}
330
1E
100
AcDbEntity
  8
STEMPEL
  6
Continuous
100
AcDbCircle
 10
163.2197382541682
 20
393.1736856123377
 30
0.0
 40
9.599999999999999
100
AcDbArc
 50
0.0
 51
32.32806412216171
  0
ARC
  5
12A8
102
{ACAD_REACTORS
330
142E
102
}
330
1E
100
AcDbEntity
  8
STEMPEL
  6
Continuous
100
AcDbCircle
 10
180.1197382541682
 20
403.8690116943233
 30
0.0
 40
10.4
100
AcDbArc
 50
180.0
 51
212.3280641221617
  0
LINE
  5
12A9
102
{ACAD_REACTORS
330
142E
102
}
330
1E
100
AcDbEntity
  8
STEMPEL
  6
Continuous
100
AcDbLine
 10
169.7197382541683
 20
420.4802852769063
 30
0.0
 11
169.7197382541683
 21
403.8690116943233
 31
0.0
  0
ARC
  5
12AA
102
{ACAD_REACTORS
330
142E
102
}
330
1E
100
AcDbEntity
  8
STEMPEL
  6
Continuous
100
AcDbCircle
 10
156.1197382541683
 20
420.4802852769063
 30
0.0
 40
13.6
100
AcDbArc
 50
0.0
 51
21.18315439303641
  0
ARC
  5
12AB
102
{ACAD_REACTORS
330
142E
102
}
330
1E
100
AcDbEntity
  8
STEMPEL
  6
Continuous
100
AcDbCircle
 10
190.6197382541682
 20
433.8502852769062
 30
0.0
 40
23.40009324312573
100
AcDbArc
 50
179.8382525687297
 51
201.1831543930364
  0
LINE
  5
12AC
102
{ACAD_REACTORS
330
142E
102
}
330
1E
100
AcDbEntity
  8
STEMPEL
  6
Continuous
100
AcDbLine
 10
167.2197382541682
 20
442.9313628697876
 30
0.0
 11
167.2197382541682
 21
433.9163442428267
 31
0.0
  0
ARC
  5
12AD
102
{ACAD_REACTORS
330
142E
102
}
330
1E
100
AcDbEntity
  8
STEMPEL
  6
Continuous
100
AcDbCircle
 10
190.6197382541682
 20
442.9313628697876
 30
0.0
 40
23.4
100
AcDbArc
 50
153.2044220687672
 51
180.0
  0
ARC
  5
12AE
102
{ACAD_REACTORS
330
142E
102
}
330
1E
100
AcDbEntity
  8
STEMPEL
  6
Continuous
100
AcDbCircle
 10
163.2197382541682
 20
393.1736856123377
 30
0.0
 40
8.0
100
AcDbArc
 50
0.0
 51
32.32806412216171
  0
ARC
  5
12AF
102
{ACAD_REACTORS
330
142E
102
}
330
1E
100
AcDbEntity
  8
STEMPEL
  6
Continuous
100
AcDbCircle
 10
180.1197382541682
 20
403.8690116943233
 30
0.0
 40
12.0
100
AcDbArc
 50
180.0
 51
212.3280641221617
  0
ARC
  5
12B0
102
{ACAD_REACTORS
330
142E
102
}
330
1E
100
AcDbEntity
  8
STEMPEL
  6
Continuous
100
AcDbCircle
 10
190.6197382541682
 20
433.8502852769062
 30
0.0
 40
25.00009324312574
100
AcDbArc
 50
179.8435140456428
 51
201.1831543930364
  0
ARC
  5
12B1
102
{ACAD_REACTORS
330
142E
102
}
330
1E
100
AcDbEntity
  8
STEMPEL
  6
Continuous
100
AcDbCircle
 10
156.1197382541683
 20
420.4802852769063
 30
0.0
 40
12.0
100
AcDbArc
 50
0.0
 51
21.18315439303641
  0
LINE
  5
12B2
102
{ACAD_REACTORS
330
142E
102
}
330
1E
100
AcDbEntity
  8
STEMPEL
  6
Continuous
100
AcDbLine
 10
168.1197382541683
 20
420.4802852769063
 30
0.0
 11
168.1197382541683
 21
403.8690116943233
 31
0.0
  0
LINE
  5
12B3
330
1E
100
AcDbEntity
  8
HILF
100
AcDbLine
 10
244.2095318281711
 20
422.130031246368
 30
0.0
 11
171.2299446801654
 21
422.130031246368
 31
0.0
  0
LINE
  5
12B4
330
1E
100
AcDbEntity
  8
HILF
100
AcDbLine
 10
244.0494382320764
 20
402.7589043591011
 30
0.0
 11
171.3900382762601
 21
402.7589043591011
 31
0.0
  0
LINE
  5
12B5
330
1E
100
AcDbEntity
  8
HILF
100
AcDbLine
 10
241.214015022229
 20
395.2507162192268
 30
0.0
 11
174.2254614861074
 21
395.2507162192268
 31
0.0
  0
LINE
  5
12B6
102
{ACAD_REACTORS
330
142E
102
}
330
1E
100
AcDbEntity
  8
STEMPEL
  6
Continuous
100
AcDbLine
 10
171.2197382541682
 20
363.4802852769063
 30
0.0
 11
171.2197382541682
 21
393.1736856123377
 31
0.0
  0
ARC
  5
12B7
102
{ACAD_REACTORS
330
142E
102
}
330
1E
100
AcDbEntity
  8
STEMPEL
  6
Continuous
100
AcDbCircle
 10
190.6197382541682
 20
442.9313628697876
 30
0.0
 40
25.0
100
AcDbArc
 50
155.0418036876832
 51
180.0
  0
LINE
  5
12B8
102
{ACAD_REACTORS
330
142E
102
}
330
1E
100
AcDbEntity
  8
STEMPEL
  6
Continuous
100
AcDbLine
 10
247.4851355824437
 20
453.4802852769063
 30
0.0
 11
167.9543409258929
 21
453.4802852769063
 31
0.0
  0
LINE
  5
12B9
102
{ACAD_REACTORS
330
142E
102
}
330
1E
100
AcDbEntity
  8
STEMPEL
  6
Continuous
100
AcDbLine
 10
165.6197382541682
 20
442.9313628697876
 30
0.0
 11
165.6197382541682
 21
433.9185653250999
 31
0.0
  0
LINE
  5
12BA
330
1E
100
AcDbEntity
  8
MITTEL
100
AcDbLine
 10
207.7197382541683
 20
363.4802852769063
 30
0.0
 11
207.7197382541683
 21
458.4802852769063
 31
0.0
  0
DIMENSION
  5
12E2
330
1E
100
AcDbEntity
  8
BEM
100
AcDbDimension
  2
*D1
 10
149.9300136658237
 20
313.4802852769063
 30
0.0
 11
143.4300136658237
 21
383.4802852769064
 31
0.0
 70
    32
 71
     5
 42
140.0
  3
Standard
100
AcDbAlignedDimension
 13
167.9543409258929
 23
453.4802852769063
 33
0.0
 14
257.7197382541683
 24
313.4802852769063
 34
0.0
 50
90.0
100
AcDbRotatedDimension
1001
ACAD
1000
DSTYLE
1002
{
1070
    40
1040
2.0
1070
    41
1040
3.5
1070
    42
1040
1.0
1070
    43
1040
7.0
1070
    44
1040
1.0
1070
    73
1070
     0
1070
    74
1070
     0
1070
    77
1070
     1
1070
    78
1070
     8
1070
    79
1070
     2
1070
   140
1040
3.5
1070
   141
1040
1.5
1070
   146
1040
0.5142857142857144
1070
   147
1040
1.5
1070
   172
1070
     1
1070
   178
1070
     1
1070
   179
1070
     2
1070
   271
1070
     2
1070
   272
1070
     2
1070
   284
1070
     8
1070
   285
1070
     8
1070
   286
1070
     8
1002
}
  0
DIMENSION
  5
1309
330
1E
100
AcDbEntity
  8
BEM
100
AcDbDimension
  2
*D4
 10
207.7197382541683
 20
255.6905606885619
 30
0.0
 11
457.7197382541682
 21
262.1905606885619
 31
0.0
 70
    32
 71
     5
 42
500.0
  3
Standard
100
AcDbAlignedDimension
 13
707.7197382541683
 23
277.8490601720962
 33
0.0
 14
207.7197382541683
 24
363.4802852769063
 34
0.0
100
AcDbRotatedDimension
1001
ACAD
1000
DSTYLE
1002
{
1070
    40
1040
2.0
1070
    41
1040
3.5
1070
    42
1040
1.0
1070
    43
1040
7.0
1070
    44
1040
1.0
1070
    73
1070
     0
1070
    74
1070
     0
1070
    77
1070
     1
1070
    78
1070
     8
1070
    79
1070
     2
1070
   140
1040
3.5
1070
   141
1040
1.5
1070
   146
1040
0.5142857142857144
1070
   147
1040
1.5
1070
   172
1070
     1
1070
   178
1070
     1
1070
   179
1070
     2
1070
   271
1070
     2
1070
   272
1070
     2
1070
   284
1070
     8
1070
   285
1070
     8
1070
   286
1070
     8
1002
}
  0
DIMENSION
  5
1316
330
1E
100
AcDbEntity
  8
BEM
100
AcDbDimension
  2
*D5
 10
729.5585294556044
 20
349.9802852769063
 30
0.0
 11
723.0585294556043
 21
313.4802852769064
 31
0.0
 70
    32
  1
%%c<>
 71
     5
 42
73.0
  3
Standard
100
AcDbAlignedDimension
 13
697.7895957628211
 23
276.9802852769063
 33
0.0
 14
697.7895957628218
 24
349.9802852769063
 34
0.0
 50
90.0
100
AcDbRotatedDimension
1001
ACAD
1000
DSTYLE
1002
{
1070
    40
1040
2.0
1070
    41
1040
3.5
1070
    42
1040
1.0
1070
    43
1040
7.0
1070
    44
1040
1.0
1070
    73
1070
     0
1070
    74
1070
     0
1070
    77
1070
     1
1070
    78
1070
     8
1070
    79
1070
     2
1070
   140
1040
3.5
1070
   141
1040
1.5
1070
   146
1040
0.5142857142857144
1070
   147
1040
1.5
1070
   172
1070
     1
1070
   178
1070
     1
1070
   179
1070
     2
1070
   271
1070
     2
1070
   272
1070
     2
1070
   284
1070
     8
1070
   285
1070
     8
1070
   286
1070
     8
1002
}
  0
DIMENSION
  5
13A4
330
1E
100
AcDbEntity
  8
SCHRAFF
100
AcDbDimension
  2
*D7
 10
207.7197382541683
 20
458.4802852769063
 30
0.0
 11
171.4524261925594
 21
277.2129732152976
 31
0.0
 70
    34
 71
     5
 42
1.570796326794896
  3
Standard
100
AcDb2LineAngularDimension
 13
712.7197382541684
 23
313.4802852769063
 33
0.0
 14
257.7197382541683
 24
313.4802852769063
 34
0.0
 15
207.7197382541683
 25
363.4802852769063
 35
0.0
 16
157.6723686829557
 26
284.5854229827341
 36
0.0
1001
ACAD
1000
DSTYLE
1002
{
1070
    40
1040
2.0
1070
    41
1040
3.5
1070
    42
1040
1.0
1070
    43
1040
7.0
1070
    44
1040
1.0
1070
    73
1070
     0
1070
    74
1070
     0
1070
    77
1070
     1
1070
    78
1070
     8
1070
    79
1070
     2
1070
   140
1040
3.5
1070
   141
1040
1.5
1070
   146
1040
0.5142857142857144
1070
   147
1040
1.5
1070
   172
1070
     1
1070
   178
1070
     1
1070
   179
1070
     2
1070
   271
1070
     2
1070
   272
1070
     2
1070
   284
1070
     8
1070
   285
1070
     8
1070
   286
1070
     8
1002
}
  0
DIMENSION
  5
13CE
330
1E
100
AcDbEntity
  8
SCHRAFF
100
AcDbDimension
  2
*D8
 10
257.719738254168
 20
363.4802852769059
 30
0.0
 11
243.4282400606059
 21
342.1605559831001
 31
0.0
 70
   164
 71
     5
 42
49.99999999999954
  3
Standard
100
AcDbRadialDimension
 15
229.8791573576183
 25
321.9483450941668
 35
0.0
 40
0.0
1001
ACAD
1000
DSTYLE
1002
{
1070
    40
1040
2.0
1070
    41
1040
3.5
1070
    42
1040
1.0
1070
    43
1040
7.0
1070
    44
1040
1.0
1070
    73
1070
     0
1070
    74
1070
     0
1070
    77
1070
     1
1070
    78
1070
     8
1070
    79
1070
     2
1070
   140
1040
3.5
1070
   141
1040
1.5
1070
   146
1040
0.5142857142857144
1070
   147
1040
1.5
1070
   172
1070
     1
1070
   178
1070
     1
1070
   179
1070
     2
1070
   271
1070
     2
1070
   272
1070
     2
1070
   284
1070
     8
1070
   285
1070
     8
1070
   286
1070
     8
1070
   288
1070
     1
1002
}
  0
HATCH
  5
13E1
330
1E
100
AcDbEntity
  8
SCHRAFF
100
AcDbHatch
 10
0.0
 20
0.0
 30
0.0
210
0.0
220
0.0
230
1.0
  2
_USER
 70
     0
 71
     0
 91
        2
 92
        7
 72
     1
 73
     1
 93
        3
 10
260.7197382541682
 20
349.9802852769063
 42
0.0
 10
257.7197382541683
 20
349.9802852769063
 42
-0.0560819584339181
 10
254.7197382541686
 20
350.3178386958181
 42
-0.446114482193589
 97
        0
 92
        7
 72
     1
 73
     1
 93
        3
 10
257.7197382541697
 20
276.9802852769062
 42
0.0
 10
260.7197382541682
 20
276.9802852769062
 42
-0.4966503781177641
 10
254.7197382541682
 20
277.0323240516698
 42
0.0086724768051268
 97
        0
 75
     0
 76
     0
 52
0.0
 41
0.1
 77
     0
 78
     1
 53
90.0
 43
-105.7605470227383
 44
105.7605470227384
 45
0.1
 46
-0.0000000000000001
 79
     0
 47
0.2535208966343204
 98
        2
 10
257.6827682090981
 20
351.0179384475276
 10
257.4292472533783
 20
276.6914666550609
  0
LINE
  5
13E2
102
{ACAD_REACTORS
330
142E
330
1443
102
}
330
1E
100
AcDbEntity
  8
STEMPEL
100
AcDbLine
 10
257.7197382541683
 20
276.9802852769063
 30
0.0
 11
257.7197382541683
 21
349.9802852769063
 31
0.0
  0
ARC
  5
13E3
330
1E
100
AcDbEntity
  8
SCHRAFF
100
AcDbCircle
 10
257.5682221192503
 20
347.4558680840754
 30
0.0
 40
4.03791234576843
100
AcDbArc
 50
38.69531206499174
 51
134.8646811336224
  0
ARC
  5
13E4
330
1E
100
AcDbEntity
  8
SCHRAFF
100
AcDbCircle
 10
257.7394718581003
 20
279.2815623760727
 30
0.0
 40
3.765350458945282
100
AcDbArc
 50
216.6804583686766
 51
322.3256991624877
  0
HATCH
  5
142E
330
1E
100
AcDbEntity
  8
SCHRAFF
100
AcDbHatch
 10
0.0
 20
0.0
 30
0.0
210
0.0
220
0.0
230
1.0
  2
_USER
 70
     0
 71
     1
 91
        2
 92
        7
 72
     1
 73
     1
 93
       20
 10
244.2197382541684
 20
393.1736856123377
 42
-0.142000852798227
 10
245.4597382541683
 20
397.4518160451318
 42
0.1420008527982344
 10
247.3197382541683
 20
403.8690116943233
 42
0.0
 10
247.3197382541683
 20
420.4802852769063
 42
-0.0926930603363611
 10
248.1305772626101
 20
424.816490565519
 42
0.092004438419085
 10
249.8197382541684
 20
433.7820052287169
 42
0.0
 10
249.8197382541684
 20
442.9313628697876
 42
0.109333224602075
 10
247.4851355824438
 20
453.4802852769063
 42
0.0
 10
245.7070606303992
 20
453.4802852769063
 42
-0.1174534402570152
 10
248.2197382541684
 20
442.9313628697876
 42
0.0
 10
248.2197382541684
 20
433.9163442428412
 42
-0.0934049271928156
 10
246.6386891304023
 20
425.3946512706668
 42
0.0926930603363578
 10
245.7197382541683
 20
420.4802852769058
 42
0.0
 10
245.7197382541683
 20
403.8690116943233
 42
-0.1420008527982264
 10
244.1077382541684
 20
398.307442131691
 42
0.1420008527982384
 10
242.6197382541684
 20
393.1736856123377
 42
0.0
 10
242.6197382541684
 20
363.4802852769063
 42
0.414213562373094
 10
257.7197382541683
 20
348.3802852769063
 42
0.0
 10
257.7197382541683
 20
349.9802852769063
 42
-0.4142135623730938
 10
244.2197382541684
 20
363.4802852769063
 42
0.0
 97
       20
330
129A
330
1298
330
12A1
330
129C
330
12A5
330
12A3
330
12A4
330
12B8
330
12A0
330
129E
330
129F
330
129D
330
12A2
330
1299
330
129B
330
1297
330
1287
330
13E2
330
1289
330
1296
 92
        7
 72
     1
 73
     1
 93
       20
 10
172.8197382541682
 20
393.1736856123377
 42
0.1420008527982335
 10
171.3317382541682
 20
398.3074421316908
 42
-0.1420008527982309
 10
169.7197382541683
 20
403.8690116943233
 42
0.0
 10
169.7197382541683
 20
420.4802852769063
 42
0.0926930603363581
 10
168.8007873779342
 20
425.3946512706672
 42
-0.0934049271926543
 10
167.2197382541682
 20
433.9163442428267
 42
0.0
 10
167.2197382541682
 20
442.9313628697876
 42
-0.1174534402570155
 10
169.7324158779375
 20
453.4802852769063
 42
0.0
 10
167.9543409258929
 20
453.4802852769063
 42
0.1093332246020749
 10
165.6197382541682
 20
442.9313628697876
 42
0.0
 10
165.6197382541682
 20
433.782005228714
 42
0.0920044384190579
 10
167.3088992457265
 20
424.8164905655188
 42
-0.0926930603363612
 10
168.1197382541683
 20
420.4802852769061
 42
0.0
 10
168.1197382541683
 20
403.8690116943233
 42
0.1420008527982331
 10
169.9797382541683
 20
397.4518160451319
 42
-0.1420008527982288
 10
171.2197382541682
 20
393.1736856123377
 42
0.0
 10
171.2197382541682
 20
363.4802852769063
 42
0.4142135623730952
 10
257.7197382541683
 20
276.9802852769063
 42
0.0
 10
257.7197382541683
 20
278.5802852769064
 42
-0.4142135623730953
 10
172.8197382541682
 20
363.4802852769063
 42
0.0
 97
       20
330
12A7
330
12A8
330
12A9
330
12AA
330
12AB
330
12AC
330
12AD
330
12B8
330
12B7
330
12B9
330
12B0
330
12B1
330
12B2
330
12AF
330
12AE
330
12B6
330
1288
330
13E2
330
1286
330
12A6
 75
     0
 76
     0
 52
45.0
 41
2.0
 77
     0
 78
     1
 53
45.0
 43
0.0
 44
0.0
 45
-1.414213562373094
 46
1.414213562373095
 79
     0
 47
0.3683195507642003
 98
        2
 10
242.9900415363584
 20
378.3355075060883
 10
171.8767486602398
 20
379.0721470242565
  0
HATCH
  5
1443
330
1E
100
AcDbEntity
  8
SCHRAFF
100
AcDbHatch
 10
0.0
 20
0.0
 30
0.0
210
0.0
220
0.0
230
1.0
  2
_USER
 70
     0
 71
     1
 91
        2
 92
        7
 72
     0
 73
     1
 93
        6
 10
697.7895957628219
 20
349.9802852769063
 10
257.7197382541684
 20
349.9802852769064
 10
257.7197382541684
 20
348.3802852769064
 10
697.7197382541677
 20
348.3802852769064
 10
707.7197382541683
 20
347.5053986416472
 10
707.7197382541683
 20
349.1115103817163
 97
        6
330
1293
330
13E2
330
1290
330
128D
330
1294
330
128C
 92
        7
 72
     0
 73
     1
 93
        6
 10
707.7197382541683
 20
279.4551719121656
 10
697.7197382541683
 20
278.5802852769063
 10
257.7197382541683
 20
278.5802852769063
 10
257.7197382541683
 20
276.9802852769064
 10
697.7895957628213
 20
276.9802852769063
 10
707.7197382541683
 20
277.8490601720962
 97
        6
330
128E
330
128F
330
13E2
330
1292
330
128B
330
1294
 75
     0
 76
     0
 52
135.0
 41
2.0
 77
     0
 78
     1
 53
135.0
 43
0.0
 44
0.0
 45
-1.414213562373095
 46
-1.414213562373094
 79
     0
 47
0.659934657239948
 98
        2
 10
437.6792954578711
 20
349.1764797902354
 10
426.4560479081349
 20
277.903536966644
  0
ENDSEC
  0
SECTION
  2
OBJECTS
  0
DICTIONARY
  5
C
330
0
100
AcDbDictionary
281
     1
  3
ACAD_COLOR
350
11A
  3
ACAD_GROUP
350
D
  3
ACAD_LAYOUT
350
19
  3
ACAD_MATERIAL
350
119
  3
ACAD_MLINESTYLE
350
16
  3
ACAD_PLOTSETTINGS
350
18
  3
ACAD_PLOTSTYLENAME
350
E
  3
AcDbVariableDictionary
350
125
  0
DICTIONARY
  5
DB
330
1E
100
AcDbDictionary
280
     1
281
     1
  3
ACAD_LAYOUTSELFREF
360
10F
  0
DICTIONARY
  5
DD
330
1A
100
AcDbDictionary
280
     1
281
     1
  3
ACAD_LAYOUTSELFREF
360
10E
  0
DICTIONARY
  5
11A
102
{ACAD_REACTORS
330
C
102
}
330
C
100
AcDbDictionary
281
     1
  0
DICTIONARY
  5
D
102
{ACAD_REACTORS
330
C
102
}
330
C
100
AcDbDictionary
281
     1
  0
DICTIONARY
  5
19
102
{ACAD_REACTORS
330
C
102
}
330
C
100
AcDbDictionary
281
     1
  3
Layout1
350
1D
  3
Model
350
21
  0
DICTIONARY
  5
119
102
{ACAD_REACTORS
330
C
102
}
330
C
100
AcDbDictionary
281
     1
  0
DICTIONARY
  5
16
102
{ACAD_REACTORS
330
C
102
}
330
C
100
AcDbDictionary
281
     1
  3
Standard
350
17
  0
DICTIONARY
  5
18
102
{ACAD_REACTORS
330
C
102
}
330
C
100
AcDbDictionary
281
     1
  0
ACDBDICTIONARYWDFLT
  5
E
102
{ACAD_REACTORS
330
C
102
}
330
C
100
AcDbDictionary
281
     1
  3
Normal
350
F
100
AcDbDictionaryWithDefault
340
F
  0
DICTIONARY
  5
125
102
{ACAD_REACTORS
330
C
102
}
330
C
100
AcDbDictionary
281
     1
  3
DIMASSOC
350
126
  3
PROJECTNAME
350
127
  0
XRECORD
  5
10F
102
{ACAD_REACTORS
330
DB
102
}
330
DB
100
AcDbXrecord
280
     1
340
1E
  0
XRECORD
  5
10E
102
{ACAD_REACTORS
330
DD
102
}
330
DD
100
AcDbXrecord
280
     1
340
1A
  0
LAYOUT
  5
1D
102
{ACAD_REACTORS
330
19
102
}
330
19
100
AcDbPlotSettings
  1

  2
\\NT_WORK01\HP LaserJet 5000 PCL 6
  4

  6

 40
0.0
 41
0.0
 42
0.0
 43
0.0
 44
0.0
 45
0.0
 46
0.0
 47
0.0
 48
0.0
 49
0.0
140
0.0
141
0.0
142
1.0
143
1.0
 70
   688
 72
     0
 73
     0
 74
     5
  7

 75
    16
147
1.0
 76
     0
 77
     2
 78
   300
148
0.0
149
0.0
100
AcDbLayout
  1
Layout1
 70
     0
 71
     1
 10
0.0
 20
0.0
 11
12.0
 21
9.0
 12
0.0
 22
0.0
 32
0.0
 14
1.000000000000000E+20
 24
1.000000000000000E+20
 34
1.000000000000000E+20
 15
-1.000000000000000E+20
 25
-1.000000000000000E+20
 35
-1.000000000000000E+20
146
0.0
 13
0.0
 23
0.0
 33
0.0
 16
1.0
 26
0.0
 36
0.0
 17
0.0
 27
1.0
 37
0.0
 76
     0
330
1A
  0
LAYOUT
  5
21
102
{ACAD_REACTORS
330
19
102
}
330
19
100
AcDbPlotSettings
  1

  2
none_device
  4
Letter_(8.50_x_11.00_Inches)
  6

 40
6.349999904632568
 41
6.349999904632568
 42
6.350006103515625
 43
6.350006103515625
 44
215.8999938964844
 45
279.3999938964844
 46
0.0
 47
0.0
 48
0.0
 49
0.0
140
0.0
141
0.0
142
1.0
143
1.0
 70
 11952
 72
     0
 73
     1
 74
     0
  7

 75
     0
147
1.0
 76
     0
 77
     2
 78
   300
148
-3074.35158501441
149
49.84841498559144
100
AcDbLayout
  1
Model
 70
     1
 71
     0
 10
0.0
 20
0.0
 11
12.0
 21
9.0
 12
0.0
 22
0.0
 32
0.0
 14
0.0
 24
0.0
 34
0.0
 15
0.0
 25
0.0
 35
0.0
146
0.0
 13
0.0
 23
0.0
 33
0.0
 16
1.0
 26
0.0
 36
0.0
 17
0.0
 27
1.0
 37
0.0
 76
     0
330
1E
  0
MLINESTYLE
  5
17
102
{ACAD_REACTORS
330
16
102
}
330
16
100
AcDbMlineStyle
  2
STANDARD
 70
     0
  3

 62
   256
 51
90.0
 52
90.0
 71
     2
 49
0.5
 62
   256
  6
BYLAYER
 49
-0.5
 62
   256
  6
BYLAYER
  0
ACDBPLACEHOLDER
  5
F
102
{ACAD_REACTORS
330
E
102
}
330
E
  0
DICTIONARYVAR
  5
126
102
{ACAD_REACTORS
330
125
102
}
330
125
100
DictionaryVariables
280
     0
  1
1
  0
DICTIONARYVAR
  5
127
102
{ACAD_REACTORS
330
125
102
}
330
125
100
DictionaryVariables
280
     0
  1

  0
ENDSEC
  0
EOF
