  0
SECTION
  2
HEADER
  9
$ACADVER
  1
AC1018
  9
$ACADMAINTVER
 70
     2
  9
$DWGCODEPAGE
  3
ANSI_1252
  9
$INSBASE
 10
0.0
 20
0.0
 30
0.0
  9
$EXTMIN
 10
-0.0309535986232277
 20
-0.021896441437093
 30
-0.0000000000000053
  9
$EXTMAX
 10
840.0277872218619
 20
594.009838508377
 30
0.0000000000000099
  9
$LIMMIN
 10
0.0
 20
0.0
  9
$LIMMAX
 10
840.0
 20
594.0
  9
$ORTHOMODE
 70
     1
  9
$REGENMODE
 70
     1
  9
$FILLMODE
 70
     1
  9
$QTEXTMODE
 70
     0
  9
$MIRRTEXT
 70
     1
  9
$LTSCALE
 40
20.0
  9
$ATTMODE
 70
     1
  9
$TEXTSIZE
 40
3.5
  9
$TRACEWID
 40
1.0
  9
$TEXTSTYLE
  7
STANDARD
  9
$CLAYER
  8
SCHRAFF
  9
$CELTYPE
  6
ByLayer
  9
$CECOLOR
 62
   256
  9
$CELTSCALE
 40
1.0
  9
$DISPSILH
 70
     0
  9
$DIMSCALE
 40
2.0
  9
$DIMASZ
 40
3.5
  9
$DIMEXO
 40
1.0
  9
$DIMDLI
 40
7.0
  9
$DIMRND
 40
0.0
  9
$DIMDLE
 40
0.0
  9
$DIMEXE
 40
1.0
  9
$DIMTP
 40
0.0
  9
$DIMTM
 40
0.0
  9
$DIMTXT
 40
3.5
  9
$DIMCEN
 40
1.5
  9
$DIMTSZ
 40
0.0
  9
$DIMTOL
 70
     0
  9
$DIMLIM
 70
     0
  9
$DIMTIH
 70
     0
  9
$DIMTOH
 70
     0
  9
$DIMSE1
 70
     0
  9
$DIMSE2
 70
     0
  9
$DIMTAD
 70
     1
  9
$DIMZIN
 70
     8
  9
$DIMBLK
  1

  9
$DIMASO
 70
     1
  9
$DIMSHO
 70
     0
  9
$DIMPOST
  1

  9
$DIMAPOST
  1

  9
$DIMALT
 70
     0
  9
$DIMALTD
 70
     2
  9
$DIMALTF
 40
25.4
  9
$DIMLFAC
 40
1.0
  9
$DIMTOFL
 70
     1
  9
$DIMTVP
 40
0.0
  9
$DIMTIX
 70
     0
  9
$DIMSOXD
 70
     0
  9
$DIMSAH
 70
     0
  9
$DIMBLK1
  1

  9
$DIMBLK2
  1

  9
$DIMSTYLE
  2
Standard
  9
$DIMCLRD
 70
     0
  9
$DIMCLRE
 70
     0
  9
$DIMCLRT
 70
     1
  9
$DIMTFAC
 40
0.5142857142857144
  9
$DIMGAP
 40
1.5
  9
$DIMJUST
 70
     0
  9
$DIMSD1
 70
     0
  9
$DIMSD2
 70
     0
  9
$DIMTOLJ
 70
     1
  9
$DIMTZIN
 70
     8
  9
$DIMALTZ
 70
     8
  9
$DIMALTTZ
 70
     8
  9
$DIMUPT
 70
     0
  9
$DIMDEC
 70
     2
  9
$DIMTDEC
 70
     2
  9
$DIMALTU
 70
     2
  9
$DIMALTTD
 70
     2
  9
$DIMTXSTY
  7
STANDARD
  9
$DIMAUNIT
 70
     0
  9
$DIMADEC
 70
     2
  9
$DIMALTRND
 40
0.0
  9
$DIMAZIN
 70
     2
  9
$DIMDSEP
 70
    46
  9
$DIMATFIT
 70
     3
  9
$DIMFRAC
 70
     0
  9
$DIMLDRBLK
  1

  9
$DIMLUNIT
 70
     2
  9
$DIMLWD
 70
    -2
  9
$DIMLWE
 70
    -2
  9
$DIMTMOVE
 70
     0
  9
$LUNITS
 70
     2
  9
$LUPREC
 70
     2
  9
$SKETCHINC
 40
1.0
  9
$FILLETRAD
 40
0.0
  9
$AUNITS
 70
     0
  9
$AUPREC
 70
     0
  9
$MENU
  1
ACAD
  9
$ELEVATION
 40
0.0
  9
$PELEVATION
 40
0.0
  9
$THICKNESS
 40
0.0
  9
$LIMCHECK
 70
     0
  9
$CHAMFERA
 40
0.0
  9
$CHAMFERB
 40
0.0
  9
$CHAMFERC
 40
0.0
  9
$CHAMFERD
 40
0.0
  9
$SKPOLY
 70
     0
  9
$TDCREATE
 40
2455397.867059838
  9
$TDUCREATE
 40
2455397.783726505
  9
$TDUPDATE
 40
2455454.587309005
  9
$TDUUPDATE
 40
2455454.503975671
  9
$TDINDWG
 40
0.0516024074
  9
$TDUSRTIMER
 40
0.0516024074
  9
$USRTIMER
 70
     1
  9
$ANGBASE
 50
0.0
  9
$ANGDIR
 70
     0
  9
$PDMODE
 70
     0
  9
$PDSIZE
 40
0.0
  9
$PLINEWID
 40
0.0
  9
$SPLFRAME
 70
     0
  9
$SPLINETYPE
 70
     6
  9
$SPLINESEGS
 70
     8
  9
$HANDSEED
  5
F67
  9
$SURFTAB1
 70
     6
  9
$SURFTAB2
 70
     6
  9
$SURFTYPE
 70
     6
  9
$SURFU
 70
     6
  9
$SURFV
 70
     6
  9
$UCSBASE
  2

  9
$UCSNAME
  2

  9
$UCSORG
 10
0.0
 20
0.0
 30
0.0
  9
$UCSXDIR
 10
1.0
 20
0.0
 30
0.0
  9
$UCSYDIR
 10
0.0
 20
1.0
 30
0.0
  9
$UCSORTHOREF
  2

  9
$UCSORTHOVIEW
 70
     0
  9
$UCSORGTOP
 10
0.0
 20
0.0
 30
0.0
  9
$UCSORGBOTTOM
 10
0.0
 20
0.0
 30
0.0
  9
$UCSORGLEFT
 10
0.0
 20
0.0
 30
0.0
  9
$UCSORGRIGHT
 10
0.0
 20
0.0
 30
0.0
  9
$UCSORGFRONT
 10
0.0
 20
0.0
 30
0.0
  9
$UCSORGBACK
 10
0.0
 20
0.0
 30
0.0
  9
$PUCSBASE
  2

  9
$PUCSNAME
  2

  9
$PUCSORG
 10
0.0
 20
0.0
 30
0.0
  9
$PUCSXDIR
 10
1.0
 20
0.0
 30
0.0
  9
$PUCSYDIR
 10
0.0
 20
1.0
 30
0.0
  9
$PUCSORTHOREF
  2

  9
$PUCSORTHOVIEW
 70
     0
  9
$PUCSORGTOP
 10
0.0
 20
0.0
 30
0.0
  9
$PUCSORGBOTTOM
 10
0.0
 20
0.0
 30
0.0
  9
$PUCSORGLEFT
 10
0.0
 20
0.0
 30
0.0
  9
$PUCSORGRIGHT
 10
0.0
 20
0.0
 30
0.0
  9
$PUCSORGFRONT
 10
0.0
 20
0.0
 30
0.0
  9
$PUCSORGBACK
 10
0.0
 20
0.0
 30
0.0
  9
$USERI1
 70
     0
  9
$USERI2
 70
     0
  9
$USERI3
 70
     0
  9
$USERI4
 70
     0
  9
$USERI5
 70
     0
  9
$USERR1
 40
0.0
  9
$USERR2
 40
0.0
  9
$USERR3
 40
0.0
  9
$USERR4
 40
0.0
  9
$USERR5
 40
0.0
  9
$WORLDVIEW
 70
     1
  9
$SHADEDGE
 70
     3
  9
$SHADEDIF
 70
    70
  9
$TILEMODE
 70
     1
  9
$MAXACTVP
 70
    16
  9
$PINSBASE
 10
0.0
 20
0.0
 30
0.0
  9
$PLIMCHECK
 70
     0
  9
$PEXTMIN
 10
1.000000000000000E+20
 20
1.000000000000000E+20
 30
1.000000000000000E+20
  9
$PEXTMAX
 10
-1.000000000000000E+20
 20
-1.000000000000000E+20
 30
-1.000000000000000E+20
  9
$PLIMMIN
 10
0.0
 20
0.0
  9
$PLIMMAX
 10
12.0
 20
9.0
  9
$UNITMODE
 70
     0
  9
$VISRETAIN
 70
     0
  9
$PLINEGEN
 70
     0
  9
$PSLTSCALE
 70
     0
  9
$TREEDEPTH
 70
  3020
  9
$CMLSTYLE
  2
Standard
  9
$CMLJUST
 70
     0
  9
$CMLSCALE
 40
1.0
  9
$PROXYGRAPHICS
 70
     1
  9
$MEASUREMENT
 70
     0
  9
$CELWEIGHT
370
    -1
  9
$ENDCAPS
280
     0
  9
$JOINSTYLE
280
     0
  9
$LWDISPLAY
290
     0
  9
$INSUNITS
 70
     0
  9
$HYPERLINKBASE
  1

  9
$STYLESHEET
  1
monochrome 1.ctb
  9
$XEDIT
290
     1
  9
$CEPSNTYPE
380
     0
  9
$PSTYLEMODE
290
     1
  9
$FINGERPRINTGUID
  2
{D68B0D0D-A558-11D7-B632-000102183313}
  9
$VERSIONGUID
  2
{A19EC8F3-5E7F-4DA9-A22C-05273E173102}
  9
$EXTNAMES
290
     1
  9
$PSVPSCALE
 40
0.0
  9
$OLESTARTUP
290
     0
  9
$SORTENTS
280
   127
  9
$INDEXCTL
280
     0
  9
$HIDETEXT
280
     0
  9
$XCLIPFRAME
290
     0
  9
$HALOGAP
280
     0
  9
$OBSCOLOR
 70
   257
  9
$OBSLTYPE
280
     0
  9
$INTERSECTIONDISPLAY
280
     0
  9
$INTERSECTIONCOLOR
 70
   257
  9
$DIMASSOC
280
     1
  9
$PROJECTNAME
  1

  0
ENDSEC
  0
SECTION
  2
CLASSES
  0
CLASS
  1
ACDBDICTIONARYWDFLT
  2
AcDbDictionaryWithDefault
  3
ObjectDBX Classes
 90
        0
 91
        1
280
     0
281
     0
  0
CLASS
  1
DICTIONARYVAR
  2
AcDbDictionaryVar
  3
ObjectDBX Classes
 90
        0
 91
        2
280
     0
281
     0
  0
ENDSEC
  0
SECTION
  2
TABLES
  0
TABLE
  2
VPORT
  5
8
330
0
100
AcDbSymbolTable
 70
     2
  0
VPORT
  5
F66
330
8
100
AcDbSymbolTableRecord
100
AcDbViewportTableRecord
  2
*Active
 70
     0
 10
0.0
 20
0.0
 11
1.0
 21
1.0
 12
419.9984168116193
 22
296.9939710334699
 13
0.0
 23
0.0
 14
1.0
 24
1.0
 15
10.0
 25
10.0
 16
0.0
 26
0.0
 36
1.0
 17
0.0
 27
0.0
 37
0.0
 40
632.1457801004433
 41
1.336927223719676
 42
50.0
 43
0.0
 44
0.0
 50
0.0
 51
0.0
 71
     0
 72
  1500
 73
     1
 74
     0
 75
     0
 76
     0
 77
     0
 78
     0
281
     0
 65
     1
110
0.0
120
0.0
130
0.0
111
1.0
121
0.0
131
0.0
112
0.0
122
1.0
132
0.0
 79
     0
146
0.0
  0
ENDTAB
  0
TABLE
  2
LTYPE
  5
5
330
0
100
AcDbSymbolTable
 70
     2
  0
LTYPE
  5
13
330
5
100
AcDbSymbolTableRecord
100
AcDbLinetypeTableRecord
  2
ByBlock
 70
     0
  3

 72
    65
 73
     0
 40
0.0
  0
LTYPE
  5
14
330
5
100
AcDbSymbolTableRecord
100
AcDbLinetypeTableRecord
  2
ByLayer
 70
     0
  3

 72
    65
 73
     0
 40
0.0
  0
LTYPE
  5
15
330
5
100
AcDbSymbolTableRecord
100
AcDbLinetypeTableRecord
  2
Continuous
 70
     0
  3
Solid line
 72
    65
 73
     0
 40
0.0
  0
LTYPE
  5
25
330
5
100
AcDbSymbolTableRecord
100
AcDbLinetypeTableRecord
  2
STRICHPUNKT
 70
     0
  3
__ . __ . __ . __ . __ . __ . __ . __ . __ . __
 72
    65
 73
     4
 40
1.0
 49
0.5
 74
     0
 49
-0.25
 74
     0
 49
0.0
 74
     0
 49
-0.25
 74
     0
  0
ENDTAB
  0
TABLE
  2
LAYER
  5
2
330
0
100
AcDbSymbolTable
 70
     9
  0
LAYER
  5
10
330
2
100
AcDbSymbolTableRecord
100
AcDbLayerTableRecord
  2
0
 70
     0
 62
     7
  6
Continuous
370
    -3
390
F
  0
LAYER
  5
2B
330
2
100
AcDbSymbolTableRecord
100
AcDbLayerTableRecord
  2
VOLL
 70
     0
 62
     1
  6
Continuous
370
    -3
390
F
  0
LAYER
  5
2C
330
2
100
AcDbSymbolTableRecord
100
AcDbLayerTableRecord
  2
HILF
 70
     0
 62
     2
  6
Continuous
370
    -3
390
F
  0
LAYER
  5
2D
330
2
100
AcDbSymbolTableRecord
100
AcDbLayerTableRecord
  2
MITTEL
 70
     0
 62
     2
  6
STRICHPUNKT
370
    -3
390
F
  0
LAYER
  5
2F
330
2
100
AcDbSymbolTableRecord
100
AcDbLayerTableRecord
  2
BEM
 70
     0
 62
     7
  6
Continuous
370
    -3
390
F
  0
LAYER
  5
30
330
2
100
AcDbSymbolTableRecord
100
AcDbLayerTableRecord
  2
STEMPEL
 70
     0
 62
     3
  6
Continuous
370
    -3
390
F
  0
LAYER
  5
33
330
2
100
AcDbSymbolTableRecord
100
AcDbLayerTableRecord
  2
TEXT
 70
     0
 62
     7
  6
Continuous
370
    -3
390
F
  0
LAYER
  5
53E
330
2
100
AcDbSymbolTableRecord
100
AcDbLayerTableRecord
  2
SCHRAFF
 70
     0
 62
     7
  6
Continuous
370
    -3
390
F
  0
LAYER
  5
53F
330
2
100
AcDbSymbolTableRecord
100
AcDbLayerTableRecord
  2
DEFPOINTS
 70
     0
 62
     7
  6
Continuous
290
     0
370
    -3
390
F
  0
ENDTAB
  0
TABLE
  2
STYLE
  5
3
330
0
100
AcDbSymbolTable
 70
     2
  0
STYLE
  5
11
330
3
100
AcDbSymbolTableRecord
100
AcDbTextStyleTableRecord
  2
STANDARD
 70
     0
 40
0.0
 41
0.8
 50
0.0
 71
     0
 42
3.5
  3
simplex.shx
  4

  0
STYLE
  5
24
330
3
100
AcDbSymbolTableRecord
100
AcDbTextStyleTableRecord
  2
GREEKS
 70
     0
 40
0.0
 41
0.8
 50
0.0
 71
     0
 42
2.5
  3
SIMPLEX.shx
  4

  0
ENDTAB
  0
TABLE
  2
VIEW
  5
6
330
0
100
AcDbSymbolTable
 70
     0
  0
ENDTAB
  0
TABLE
  2
UCS
  5
7
330
0
100
AcDbSymbolTable
 70
     0
  0
ENDTAB
  0
TABLE
  2
APPID
  5
9
330
0
100
AcDbSymbolTable
 70
     1
  0
APPID
  5
12
330
9
100
AcDbSymbolTableRecord
100
AcDbRegAppTableRecord
  2
ACAD
 70
     0
  0
ENDTAB
  0
TABLE
  2
DIMSTYLE
  5
A
330
0
100
AcDbSymbolTable
 70
     1
100
AcDbDimStyleTable
 71
     1
340
A2
  0
DIMSTYLE
105
A2
102
{ACAD_REACTORS
330
E0C
330
E33
330
E40
330
E56
330
E65
102
}
330
A
100
AcDbSymbolTableRecord
100
AcDbDimStyleTableRecord
  2
Standard
 70
     0
340
11
  0
ENDTAB
  0
TABLE
  2
BLOCK_RECORD
  5
1
330
0
100
AcDbSymbolTable
 70
     6
  0
BLOCK_RECORD
  5
1E
102
{ACAD_XDICTIONARY
360
DB
102
}
330
1
100
AcDbSymbolTableRecord
100
AcDbBlockTableRecord
  2
*Model_Space
340
21
  0
BLOCK_RECORD
  5
1A
102
{ACAD_XDICTIONARY
360
DD
102
}
330
1
100
AcDbSymbolTableRecord
100
AcDbBlockTableRecord
  2
*Paper_Space
340
1D
  0
BLOCK_RECORD
  5
22
330
1
100
AcDbSymbolTableRecord
100
AcDbBlockTableRecord
  2
LOGO
340
0
102
{BLKREFS
331
66D
102
}
  0
BLOCK_RECORD
  5
E0D
330
1
100
AcDbSymbolTableRecord
100
AcDbBlockTableRecord
  2
*D1
340
0
  0
BLOCK_RECORD
  5
E34
330
1
100
AcDbSymbolTableRecord
100
AcDbBlockTableRecord
  2
*D2
340
0
  0
BLOCK_RECORD
  5
E41
330
1
100
AcDbSymbolTableRecord
100
AcDbBlockTableRecord
  2
*D3
340
0
  0
BLOCK_RECORD
  5
E57
330
1
100
AcDbSymbolTableRecord
100
AcDbBlockTableRecord
  2
*D4
340
0
  0
BLOCK_RECORD
  5
E66
330
1
100
AcDbSymbolTableRecord
100
AcDbBlockTableRecord
  2
*D5
340
0
  0
ENDTAB
  0
ENDSEC
  0
SECTION
  2
BLOCKS
  0
BLOCK
  5
37
330
1E
100
AcDbEntity
  8
0
100
AcDbBlockBegin
  2
*Model_Space
 70
     0
 10
0.0
 20
0.0
 30
0.0
  3
*Model_Space
  1

  0
ENDBLK
  5
38
330
1E
100
AcDbEntity
  8
0
100
AcDbBlockEnd
  0
BLOCK
  5
35
330
1A
100
AcDbEntity
 67
     1
  8
0
100
AcDbBlockBegin
  2
*Paper_Space
 70
     0
 10
0.0
 20
0.0
 30
0.0
  3
*Paper_Space
  1

  0
ENDBLK
  5
36
330
1A
100
AcDbEntity
 67
     1
  8
0
100
AcDbBlockEnd
  0
BLOCK
  5
39
330
22
100
AcDbEntity
  8
0
100
AcDbBlockBegin
  2
LOGO
 70
     0
 10
0.0
 20
0.0
 30
0.0
  3
LOGO
  1

  0
ARC
  5
3A
330
22
100
AcDbEntity
  8
0
100
AcDbCircle
 10
11.59973089678112
 20
-9.271599258481501
 30
0.0
 40
4.5
100
AcDbArc
 50
270.0
 51
231.0575587310159
  0
LINE
  5
3B
330
22
100
AcDbEntity
  8
0
100
AcDbLine
 10
3.599730896781125
 20
-4.771599258481529
 30
0.0
 11
3.599730896781153
 21
-11.77159925848133
 31
0.0
  0
LINE
  5
3C
330
22
100
AcDbEntity
  8
0
100
AcDbLine
 10
2.599730896781125
 20
-4.771599258481529
 30
0.0
 11
2.599730896781153
 21
-11.77159925848133
 31
0.0
  0
CIRCLE
  5
3D
330
22
100
AcDbEntity
  8
0
100
AcDbCircle
 10
11.59973089678112
 20
-9.271599258481501
 30
0.0
 40
3.5
  0
ARC
  5
3E
330
22
100
AcDbEntity
  8
0
100
AcDbCircle
 10
31.59973089678115
 20
-9.271599258481472
 30
0.0
 40
4.5
100
AcDbArc
 50
270.0
 51
231.0575587310182
  0
LINE
  5
3F
330
22
100
AcDbEntity
  8
0
100
AcDbLine
 10
17.59973089678112
 20
-4.771599258481472
 30
0.0
 11
17.59973089678115
 21
-13.77159925848147
 31
0.0
  0
ARC
  5
40
330
22
100
AcDbEntity
  8
0
100
AcDbCircle
 10
22.59973089678116
 20
-7.271599258481472
 30
0.0
 40
2.5
100
AcDbArc
 50
293.1161887722295
 51
90.0
  0
CIRCLE
  5
41
330
22
100
AcDbEntity
  8
0
100
AcDbCircle
 10
31.59973089678115
 20
-9.271599258481472
 30
0.0
 40
3.5
  0
ARC
  5
42
330
22
100
AcDbEntity
  8
0
100
AcDbCircle
 10
4.599730896781153
 20
-11.77159925848133
 30
0.0
 40
1.0
100
AcDbArc
 50
180.0
 51
270.0
  0
ARC
  5
43
330
22
100
AcDbEntity
  8
0
100
AcDbCircle
 10
4.599730896781153
 20
-11.77159925848133
 30
0.0
 40
2.0
100
AcDbArc
 50
179.9999999999992
 51
270.0
  0
LINE
  5
44
330
22
100
AcDbEntity
  8
0
100
AcDbLine
 10
11.59973089678115
 20
-13.77159925848144
 30
0.0
 11
4.599730896781153
 21
-13.77159925848147
 31
0.0
  0
LINE
  5
45
330
22
100
AcDbEntity
  8
0
100
AcDbLine
 10
8.771303772034769
 20
-12.77159925848136
 30
0.0
 11
4.599730896781153
 21
-12.77159925848133
 31
0.0
  0
LINE
  5
46
330
22
100
AcDbEntity
  8
0
100
AcDbLine
 10
31.59973089678115
 20
-13.77159925848147
 30
0.0
 11
23.6715276665056
 21
-13.77159925848144
 31
0.0
  0
LINE
  5
47
330
22
100
AcDbEntity
  8
0
100
AcDbLine
 10
23.56565672307022
 20
-9.51278021337896
 30
0.0
 11
24.4388546544846
 21
-12.77159925848144
 31
0.0
  0
LINE
  5
48
330
22
100
AcDbEntity
  8
0
100
AcDbLine
 10
22.59973089678116
 20
-9.771599258481472
 30
0.0
 11
18.59973089678112
 21
-9.771599258481472
 31
0.0
  0
LINE
  5
49
330
22
100
AcDbEntity
  8
0
100
AcDbLine
 10
18.59973089678115
 20
-13.77159925848144
 30
0.0
 11
17.59973089678115
 21
-13.77159925848144
 31
0.0
  0
LINE
  5
4A
330
22
100
AcDbEntity
  8
0
100
AcDbLine
 10
18.59973089678115
 20
-9.771599258481472
 30
0.0
 11
18.59973089678115
 21
-13.77159925848144
 31
0.0
  0
LINE
  5
4B
330
22
100
AcDbEntity
  8
0
100
AcDbLine
 10
22.59973089678116
 20
-9.771599258481472
 30
0.0
 11
23.67152766650562
 21
-13.77159925848147
 31
0.0
  0
ARC
  5
4C
330
22
100
AcDbEntity
  8
0
100
AcDbCircle
 10
22.59973089678116
 20
-7.271599258481472
 30
0.0
 40
2.5
100
AcDbArc
 50
270.0
 51
270.0000000000007
  0
LINE
  5
4D
330
22
100
AcDbEntity
  8
0
100
AcDbLine
 10
28.77130377203494
 20
-12.77159925848147
 30
0.0
 11
24.43885465448463
 21
-12.77159925848144
 31
0.0
  0
LINE
  5
4E
330
22
100
AcDbEntity
  8
0
100
AcDbLine
 10
3.599730896781125
 20
-4.771599258481472
 30
0.0
 11
2.599730896781125
 21
-4.771599258481472
 31
0.0
  0
LINE
  5
4F
330
22
100
AcDbEntity
  8
0
100
AcDbLine
 10
22.59973089678116
 20
-8.771599258481472
 30
0.0
 11
18.59973089678115
 21
-8.771599258481472
 31
0.0
  0
LINE
  5
50
330
22
100
AcDbEntity
  8
0
100
AcDbLine
 10
22.59973089678116
 20
-5.771599258481472
 30
0.0
 11
18.59973089678115
 21
-5.771599258481472
 31
0.0
  0
LINE
  5
51
330
22
100
AcDbEntity
  8
0
100
AcDbLine
 10
22.59973089678116
 20
-4.771599258481472
 30
0.0
 11
17.59973089678115
 21
-4.771599258481472
 31
0.0
  0
LINE
  5
52
330
22
100
AcDbEntity
  8
0
100
AcDbLine
 10
18.59973089678115
 20
-5.771599258481472
 30
0.0
 11
18.59973089678115
 21
-8.771599258481472
 31
0.0
  0
ARC
  5
53
330
22
100
AcDbEntity
  8
0
100
AcDbCircle
 10
22.59973089678116
 20
-7.271599258481472
 30
0.0
 40
1.5
100
AcDbArc
 50
270.0
 51
90.0
  0
ENDBLK
  5
54
330
22
100
AcDbEntity
  8
0
100
AcDbBlockEnd
  0
BLOCK
  5
E17
330
E0D
100
AcDbEntity
  8
0
100
AcDbBlockBegin
  2
*D1
 70
     1
 10
0.0
 20
0.0
 30
0.0
  3
*D1
  1

  0
LINE
  5
F49
330
E0D
100
AcDbEntity
  8
BEM
 62
     0
370
    -2
100
AcDbLine
 10
165.9543409258929
 20
453.4802852769063
 30
0.0
 11
143.4615874097922
 21
453.4802852769063
 31
0.0
  0
LINE
  5
F4A
330
E0D
100
AcDbEntity
  8
BEM
 62
     0
370
    -2
100
AcDbLine
 10
242.2197382541684
 20
313.4802852769064
 30
0.0
 11
143.4615874097921
 21
313.4802852769064
 31
0.0
  0
LINE
  5
F4B
330
E0D
100
AcDbEntity
  8
BEM
 62
     0
370
    -2
100
AcDbLine
 10
145.4615874097921
 20
446.4802852769063
 30
0.0
 11
145.4615874097921
 21
320.4802852769064
 31
0.0
  0
SOLID
  5
F4C
330
E0D
100
AcDbEntity
  8
BEM
 62
     0
100
AcDbTrace
 10
144.2949207431255
 20
446.4802852769063
 30
0.0
 11
146.6282540764588
 21
446.4802852769063
 31
0.0
 12
145.4615874097922
 22
453.4802852769063
 32
0.0
 13
145.4615874097922
 23
453.4802852769063
 33
0.0
  0
SOLID
  5
F4D
330
E0D
100
AcDbEntity
  8
BEM
 62
     0
100
AcDbTrace
 10
144.2949207431255
 20
320.4802852769064
 30
0.0
 11
146.6282540764588
 21
320.4802852769064
 31
0.0
 12
145.4615874097921
 22
313.4802852769064
 32
0.0
 13
145.4615874097921
 23
313.4802852769064
 33
0.0
  0
MTEXT
  5
F4E
330
E0D
100
AcDbEntity
  8
BEM
 62
     1
100
AcDbMText
 10
138.9615874097921
 20
383.4802852769064
 30
0.0
 40
7.0
 41
0.0
 71
     5
 72
     1
  1
\A1;140
 11
0.0000000000000001
 21
1.0
 31
0.0
 73
     1
 44
1.0
  0
POINT
  5
F4F
330
E0D
100
AcDbEntity
  8
DEFPOINTS
 62
     0
100
AcDbPoint
 10
167.9543409258929
 20
453.4802852769063
 30
0.0
  0
POINT
  5
F50
330
E0D
100
AcDbEntity
  8
DEFPOINTS
 62
     0
100
AcDbPoint
 10
244.2197382541684
 20
313.4802852769064
 30
0.0
  0
POINT
  5
F51
330
E0D
100
AcDbEntity
  8
DEFPOINTS
 62
     0
100
AcDbPoint
 10
145.4615874097921
 20
313.4802852769064
 30
0.0
  0
ENDBLK
  5
E18
330
E0D
100
AcDbEntity
  8
0
100
AcDbBlockEnd
  0
BLOCK
  5
E3E
330
E34
100
AcDbEntity
  8
0
100
AcDbBlockBegin
  2
*D2
 70
     1
 10
0.0
 20
0.0
 30
0.0
  3
*D2
  1

  0
LINE
  5
E35
330
E34
100
AcDbEntity
  8
BEM
 62
     0
370
    -2
100
AcDbLine
 10
707.7197382541684
 20
285.5869761652728
 30
0.0
 11
707.7197382541684
 21
249.2221344325301
 31
0.0
  0
LINE
  5
E36
330
E34
100
AcDbEntity
  8
BEM
 62
     0
370
    -2
100
AcDbLine
 10
207.7197382541684
 20
347.9802852769064
 30
0.0
 11
207.7197382541684
 21
249.2221344325301
 31
0.0
  0
LINE
  5
E37
330
E34
100
AcDbEntity
  8
BEM
 62
     0
370
    -2
100
AcDbLine
 10
700.7197382541684
 20
251.2221344325301
 30
0.0
 11
214.7197382541683
 21
251.2221344325301
 31
0.0
  0
SOLID
  5
E38
330
E34
100
AcDbEntity
  8
BEM
 62
     0
100
AcDbTrace
 10
700.7197382541684
 20
252.3888010991967
 30
0.0
 11
700.7197382541684
 21
250.0554677658634
 31
0.0
 12
707.7197382541684
 22
251.2221344325301
 32
0.0
 13
707.7197382541684
 23
251.2221344325301
 33
0.0
  0
SOLID
  5
E39
330
E34
100
AcDbEntity
  8
BEM
 62
     0
100
AcDbTrace
 10
214.7197382541683
 20
252.3888010991967
 30
0.0
 11
214.7197382541683
 21
250.0554677658634
 31
0.0
 12
207.7197382541684
 22
251.2221344325301
 32
0.0
 13
207.7197382541684
 23
251.2221344325301
 33
0.0
  0
MTEXT
  5
E3A
330
E34
100
AcDbEntity
  8
BEM
 62
     1
100
AcDbMText
 10
457.7197382541684
 20
257.7221344325301
 30
0.0
 40
7.0
 41
0.0
 71
     5
 72
     1
  1
\A1;500
 73
     1
 44
1.0
  0
POINT
  5
E3B
330
E34
100
AcDbEntity
  8
DEFPOINTS
 62
     0
100
AcDbPoint
 10
707.7197382541684
 20
287.5869761652728
 30
0.0
  0
POINT
  5
E3C
330
E34
100
AcDbEntity
  8
DEFPOINTS
 62
     0
100
AcDbPoint
 10
207.7197382541684
 20
349.9802852769064
 30
0.0
  0
POINT
  5
E3D
330
E34
100
AcDbEntity
  8
DEFPOINTS
 62
     0
100
AcDbPoint
 10
207.7197382541684
 20
251.2221344325301
 30
0.0
  0
ENDBLK
  5
E3F
330
E34
100
AcDbEntity
  8
0
100
AcDbBlockEnd
  0
BLOCK
  5
E4B
330
E41
100
AcDbEntity
  8
0
100
AcDbBlockBegin
  2
*D3
 70
     1
 10
0.0
 20
0.0
 30
0.0
  3
*D3
  1

  0
LINE
  5
E4D
330
E41
100
AcDbEntity
  8
BEM
 62
     0
370
    -2
100
AcDbLine
 10
702.785229668531
 20
339.9802852769064
 30
0.0
 11
730.0914894347108
 21
339.9802852769064
 31
0.0
  0
LINE
  5
E4E
330
E41
100
AcDbEntity
  8
BEM
 62
     0
370
    -2
100
AcDbLine
 10
702.7852296685311
 20
286.9802852769063
 30
0.0
 11
730.0914894347108
 21
286.9802852769063
 31
0.0
  0
LINE
  5
E4F
330
E41
100
AcDbEntity
  8
BEM
 62
     0
370
    -2
100
AcDbLine
 10
728.0914894347108
 20
332.9802852769063
 30
0.0
 11
728.0914894347108
 21
293.9802852769063
 31
0.0
  0
SOLID
  5
E50
330
E41
100
AcDbEntity
  8
BEM
 62
     0
100
AcDbTrace
 10
726.9248227680442
 20
332.9802852769063
 30
0.0
 11
729.2581561013775
 21
332.9802852769063
 31
0.0
 12
728.0914894347108
 22
339.9802852769064
 32
0.0
 13
728.0914894347108
 23
339.9802852769064
 33
0.0
  0
SOLID
  5
E51
330
E41
100
AcDbEntity
  8
BEM
 62
     0
100
AcDbTrace
 10
726.9248227680442
 20
293.9802852769063
 30
0.0
 11
729.2581561013775
 21
293.9802852769063
 31
0.0
 12
728.0914894347108
 22
286.9802852769063
 32
0.0
 13
728.0914894347108
 23
286.9802852769063
 33
0.0
  0
MTEXT
  5
E52
330
E41
100
AcDbEntity
  8
BEM
 62
     1
100
AcDbMText
 10
721.5914894347108
 20
313.4802852769064
 30
0.0
 40
7.0
 41
0.0
 71
     5
 72
     1
  1
\A1;%%c53
 11
0.0000000000000001
 21
1.0
 31
0.0
 73
     1
 44
1.0
  0
POINT
  5
E53
330
E41
100
AcDbEntity
  8
DEFPOINTS
 62
     0
100
AcDbPoint
 10
700.7852296685309
 20
339.9802852769064
 30
0.0
  0
POINT
  5
E54
330
E41
100
AcDbEntity
  8
DEFPOINTS
 62
     0
100
AcDbPoint
 10
700.785229668531
 20
286.9802852769063
 30
0.0
  0
POINT
  5
E55
330
E41
100
AcDbEntity
  8
DEFPOINTS
 62
     0
100
AcDbPoint
 10
728.0914894347108
 20
286.9802852769063
 30
0.0
  0
ENDBLK
  5
E4C
330
E41
100
AcDbEntity
  8
0
100
AcDbBlockEnd
  0
BLOCK
  5
E63
330
E57
100
AcDbEntity
  8
0
100
AcDbBlockBegin
  2
*D4
 70
     1
 10
0.0
 20
0.0
 30
0.0
  3
*D4
  1

  0
LINE
  5
E58
330
E57
100
AcDbEntity
  8
BEM
 62
     0
370
    -2
100
AcDbLine
 10
205.7197382541684
 20
313.4802852769064
 30
0.0
 11
143.4615874097921
 21
313.4802852769064
 31
0.0
  0
LINE
  5
E59
330
E57
100
AcDbEntity
  8
BEM
 62
     0
370
    -2
100
AcDbLine
 10
207.7197382541684
 20
311.4802852769064
 30
0.0
 11
207.7197382541684
 21
249.2221344325301
 31
0.0
  0
ARC
  5
E5A
330
E57
100
AcDbEntity
  8
BEM
 62
     0
370
    -2
100
AcDbCircle
 10
207.7197382541684
 20
313.4802852769064
 30
0.0
 40
62.25815084437631
100
AcDbArc
 50
186.4454534887523
 51
263.5545465112477
  0
SOLID
  5
E5B
330
E57
100
AcDbEntity
  8
BEM
 62
     0
100
AcDbTrace
 10
144.6902885459025
 20
306.4257683427944
 30
0.0
 11
147.0199318144734
 21
306.556942599593
 31
0.0
 12
145.4615874097921
 22
313.4802852769064
 32
0.0
 13
145.4615874097921
 23
313.4802852769064
 33
0.0
  0
SOLID
  5
E5C
330
E57
100
AcDbEntity
  8
BEM
 62
     0
100
AcDbTrace
 10
200.796395576855
 20
252.7804788372114
 30
0.0
 11
200.6652213200564
 21
250.4508355686404
 31
0.0
 12
207.7197382541684
 22
251.2221344325301
 32
0.0
 13
207.7197382541684
 23
251.2221344325301
 33
0.0
  0
MTEXT
  5
E5D
330
E57
100
AcDbEntity
  8
BEM
 62
     1
100
AcDbMText
 10
168.2927716856875
 20
274.0533187084255
 30
0.0
 40
7.0
 41
0.0
 71
     5
 72
     1
  1
\A1;90°
 11
0.7071067811865476
 21
-0.7071067811865475
 31
0.0
 73
     1
 44
1.0
  0
POINT
  5
E5E
330
E57
100
AcDbEntity
  8
DEFPOINTS
 62
     0
100
AcDbPoint
 10
153.8025980302949
 20
282.3512098547183
 30
0.0
  0
POINT
  5
E5F
330
E57
100
AcDbEntity
  8
DEFPOINTS
 62
     0
100
AcDbPoint
 10
207.7197382541684
 20
349.9802852769064
 30
0.0
  0
POINT
  5
E60
330
E57
100
AcDbEntity
  8
DEFPOINTS
 62
     0
100
AcDbPoint
 10
712.7197382541685
 20
313.4802852769063
 30
0.0
  0
POINT
  5
E61
330
E57
100
AcDbEntity
  8
DEFPOINTS
 62
     0
100
AcDbPoint
 10
244.2197382541683
 20
313.4802852769064
 30
0.0
  0
POINT
  5
E62
330
E57
100
AcDbEntity
  8
DEFPOINTS
 62
     0
100
AcDbPoint
 10
207.7197382541683
 20
458.4802852769063
 30
0.0
  0
ENDBLK
  5
E64
330
E57
100
AcDbEntity
  8
0
100
AcDbBlockEnd
  0
BLOCK
  5
E6D
330
E66
100
AcDbEntity
  8
0
100
AcDbBlockBegin
  2
*D5
 70
     1
 10
0.0
 20
0.0
 30
0.0
  3
*D5
  1

  0
LINE
  5
E67
330
E66
100
AcDbEntity
  8
BEM
 62
     0
370
    -2
100
AcDbLine
 10
181.1370790003335
 20
285.0912265183283
 30
0.0
 11
213.8977982031399
 21
318.7900632266895
 31
0.0
  0
MTEXT
  5
E68
330
E66
100
AcDbEntity
  8
BEM
 62
     1
100
AcDbMText
 10
186.4676084425941
 20
299.8993290405841
 30
0.0
 40
7.0
 41
0.0
 71
     5
 72
     1
  1
\A1;R36.5
 11
0.697056093127095
 21
0.7170165988555571
 31
0.0
 73
     1
 44
1.0
  0
LINE
  5
E69
330
E66
100
AcDbEntity
  8
BEM
 62
     0
370
    -2
100
AcDbLine
 10
244.2197382541688
 20
349.9802852769065
 30
0.0
 11
218.7771908550296
 21
323.8091794186784
 31
0.0
  0
SOLID
  5
E6A
330
E66
100
AcDbEntity
  8
BEM
 62
     0
100
AcDbTrace
 10
213.0612788378085
 20
319.6032953353377
 30
0.0
 11
214.7343175684714
 21
317.9768311180412
 31
0.0
 12
218.7771908550296
 22
323.8091794186784
 32
0.0
 13
218.7771908550296
 23
323.8091794186784
 33
0.0
  0
POINT
  5
E6B
330
E66
100
AcDbEntity
  8
DEFPOINTS
 62
     0
100
AcDbPoint
 10
218.7771908550296
 20
323.8091794186784
 30
0.0
  0
POINT
  5
E6C
330
E66
100
AcDbEntity
  8
DEFPOINTS
 62
     0
100
AcDbPoint
 10
244.2197382541688
 20
349.9802852769065
 30
0.0
  0
ENDBLK
  5
E6E
330
E66
100
AcDbEntity
  8
0
100
AcDbBlockEnd
  0
ENDSEC
  0
SECTION
  2
ENTITIES
  0
TEXT
  5
65F
330
1E
100
AcDbEntity
  8
TEXT
100
AcDbText
 10
470.6189005955859
 20
113.2854817854125
 30
0.0
 40
5.0
  1
Erstellt mit AUTO-CAD 12.0
 41
0.8
  7
GREEKS
100
AcDbText
  0
TEXT
  5
669
330
1E
100
AcDbEntity
  8
TEXT
100
AcDbText
 10
624.2889439602947
 20
62.81253886044971
 30
0.0
 40
4.0
  1
Koeh
 41
0.8
  7
GREEKS
 72
     1
 11
629.5460868174376
 21
62.81253886044971
 31
0.0
100
AcDbText
  0
TEXT
  5
66A
330
1E
100
AcDbEntity
  8
TEXT
100
AcDbText
 10
589.368594660766
 20
62.82173295359672
 30
0.0
 40
4.0
  1
16.05.
 41
0.8
  7
GREEKS
 72
     1
 11
596.0733565655279
 21
62.82173295359672
 31
0.0
100
AcDbText
  0
LINE
  5
66B
330
1E
100
AcDbEntity
  8
BEM
100
AcDbLine
 10
460.0000000000001
 20
584.0
 30
0.0
 11
460.0000000000001
 21
594.0
 31
0.0
  0
LINE
  5
66C
330
1E
100
AcDbEntity
  8
BEM
100
AcDbLine
 10
460.0000000000001
 20
0.0
 30
0.0
 11
460.0000000000001
 21
10.0
 31
0.0
  0
INSERT
  5
66D
330
1E
100
AcDbEntity
  8
STEMPEL
100
AcDbBlockReference
  2
LOGO
 10
568.9705276546529
 20
44.32391971867144
 30
0.0
 41
2.0
 42
2.0
 43
2.0
  0
TEXT
  5
66E
330
1E
100
AcDbEntity
  8
TEXT
100
AcDbText
 10
654.9713400534564
 20
42.1950457301354
 30
0.0
 40
4.0
  1
05042CB0W.DWG
 41
0.8
  7
GREEKS
100
AcDbText
  0
TEXT
  5
66F
330
1E
100
AcDbEntity
  8
TEXT
 62
     1
100
AcDbText
 10
766.1044394842364
 20
87.01863741763572
 30
0.0
 40
7.0
  1
05042CB0W
 41
0.8
  7
GREEKS
 72
     1
 11
790.3711061509031
 21
87.01863741763572
 31
0.0
100
AcDbText
  0
TEXT
  5
670
330
1E
100
AcDbEntity
  8
TEXT
100
AcDbText
 10
836.4132055378062
 20
10.5537806176784
 30
0.0
 40
3.6
  1
Diese Zeichnung ist urheberrechtlich geschuetzt und bleibt unser Eigentum. Sie darf weder ganz noch teilweise vervielfaeltigt und nicht an Dritte weitegegeben werden.
 50
90.0
  7
GREEKS
100
AcDbText
  0
TEXT
  5
671
330
1E
100
AcDbEntity
  8
TEXT
100
AcDbText
 10
655.162303158329
 20
52.75131145345461
 30
0.0
 40
5.0
  1
EDV-Art.Nr. 05042.CB0X
 41
0.8
  7
GREEKS
100
AcDbText
  0
TEXT
  5
672
330
1E
100
AcDbEntity
  8
TEXT
100
AcDbText
 10
654.862987254257
 20
72.29651127304094
 30
0.0
 40
5.0
  1
DN 70/50
 41
0.8
  7
GREEKS
100
AcDbText
  0
TEXT
  5
673
330
1E
100
AcDbEntity
  8
TEXT
 62
     1
100
AcDbText
 10
578.8064310364449
 20
86.22410504373215
 30
0.0
 40
7.0
  1
1:2
 41
0.8
  7
GREEKS
100
AcDbText
  0
TEXT
  5
674
330
1E
100
AcDbEntity
  8
TEXT
100
AcDbText
 10
570.7299860699794
 20
73.14583683904146
 30
0.0
 40
4.0
  1
2008
 41
0.8
  7
GREEKS
100
AcDbText
  0
LINE
  5
675
330
1E
100
AcDbEntity
  8
STEMPEL
100
AcDbLine
 10
40.0
 20
584.0
 30
0.0
 11
40.0
 21
10.0
 31
0.0
  0
LINE
  5
676
330
1E
100
AcDbEntity
  8
STEMPEL
100
AcDbLine
 10
830.0
 20
10.0
 30
0.0
 11
830.0
 21
584.0
 31
0.0
  0
LINE
  5
677
330
1E
100
AcDbEntity
  8
STEMPEL
100
AcDbLine
 10
40.0
 20
10.0
 30
0.0
 11
830.0
 21
10.0
 31
0.0
  0
LINE
  5
678
330
1E
100
AcDbEntity
  8
STEMPEL
100
AcDbLine
 10
830.0
 20
584.0
 30
0.0
 11
40.0
 21
584.0
 31
0.0
  0
LINE
  5
679
330
1E
100
AcDbEntity
  8
HILF
100
AcDbLine
 10
0.0
 20
594.0
 30
0.0
 11
0.0
 21
0.0
 31
0.0
  0
LINE
  5
67A
330
1E
100
AcDbEntity
  8
HILF
100
AcDbLine
 10
840.0000000000002
 20
594.0
 30
0.0
 11
0.0
 21
594.0
 31
0.0
  0
LINE
  5
67B
330
1E
100
AcDbEntity
  8
HILF
100
AcDbLine
 10
840.0000000000002
 20
0.0
 30
0.0
 11
840.0000000000002
 21
594.0
 31
0.0
  0
LINE
  5
67C
330
1E
100
AcDbEntity
  8
HILF
100
AcDbLine
 10
0.0
 20
0.0
 30
0.0
 11
840.0000000000002
 21
0.0
 31
0.0
  0
TEXT
  5
67D
330
1E
100
AcDbEntity
  8
TEXT
100
AcDbText
 10
757.2400861497007
 20
52.07416177878599
 30
0.0
 40
5.0
  1
ersetzt durch:
 41
0.8
  7
GREEKS
100
AcDbText
  0
TEXT
  5
67E
330
1E
100
AcDbEntity
  8
TEXT
100
AcDbText
 10
567.6006777387303
 20
43.52946389649804
 30
0.0
 40
4.0
  1
Norm.
 41
0.8
  7
GREEKS
100
AcDbText
  0
TEXT
  5
67F
330
1E
100
AcDbEntity
  8
TEXT
100
AcDbText
 10
567.5515086571671
 20
53.68926291428374
 30
0.0
 40
4.0
  1
Gepr.
 41
0.8
  7
GREEKS
100
AcDbText
  0
TEXT
  5
680
330
1E
100
AcDbEntity
  8
TEXT
100
AcDbText
 10
567.5836127167614
 20
63.62990369617961
 30
0.0
 40
4.0
  1
Gez.
 41
0.8
  7
GREEKS
100
AcDbText
  0
TEXT
  5
681
330
1E
100
AcDbEntity
  8
TEXT
100
AcDbText
 10
622.4626584226294
 20
73.30961091915219
 30
0.0
 40
4.0
  1
Name
 41
0.8
  7
GREEKS
100
AcDbText
  0
TEXT
  5
682
330
1E
100
AcDbEntity
  8
TEXT
100
AcDbText
 10
592.3311673153649
 20
73.31880501229921
 30
0.0
 40
4.0
  1
Tag
 41
0.8
  7
GREEKS
100
AcDbText
  0
TEXT
  5
683
330
1E
100
AcDbEntity
  8
TEXT
100
AcDbText
 10
548.220150471768
 20
18.59324216966405
 30
0.0
 40
4.0
  1
Name
 41
0.8
  7
GREEKS
100
AcDbText
  0
TEXT
  5
684
330
1E
100
AcDbEntity
  8
TEXT
100
AcDbText
 10
529.4723536997202
 20
18.67156269339807
 30
0.0
 40
4.0
  1
Tag
 41
0.8
  7
GREEKS
100
AcDbText
  0
TEXT
  5
685
330
1E
100
AcDbEntity
  8
TEXT
100
AcDbText
 10
478.2664110704574
 20
13.65465846027189
 30
0.0
 40
4.0
  1
Index
 50
90.0
 41
0.8
  7
GREEKS
100
AcDbText
  0
TEXT
  5
686
330
1E
100
AcDbEntity
  8
TEXT
100
AcDbText
 10
756.7238616296994
 20
73.18118237099963
 30
0.0
 40
5.0
  1
Ersatz für:
 41
0.8
  7
GREEKS
100
AcDbText
  0
TEXT
  5
687
330
1E
100
AcDbEntity
  8
TEXT
100
AcDbText
 10
654.7422383911358
 20
30.84560570193054
 30
0.0
 40
5.0
  1
Bauvorhaben
 41
0.8
  7
GREEKS
100
AcDbText
  0
TEXT
  5
688
330
1E
100
AcDbEntity
  8
TEXT
100
AcDbText
 10
756.1787549576341
 20
102.3132034537135
 30
0.0
 40
5.0
  1
Zeichnungs Nr.
 41
0.8
  7
GREEKS
100
AcDbText
  0
TEXT
  5
689
330
1E
100
AcDbEntity
  8
TEXT
100
AcDbText
 10
654.8779403809009
 20
102.5489328011779
 30
0.0
 40
5.0
  1
Benennung
 41
0.8
  7
GREEKS
100
AcDbText
  0
TEXT
  5
68A
330
1E
100
AcDbEntity
  8
TEXT
100
AcDbText
 10
617.9646614905597
 20
102.4184168434818
 30
0.0
 40
5.0
  1
zul.Abw.
 41
0.8
  7
GREEKS
100
AcDbText
  0
TEXT
  5
68B
330
1E
100
AcDbEntity
  8
TEXT
100
AcDbText
 10
573.5163572150375
 20
102.4620895087088
 30
0.0
 40
5.0
  1
Maßstab
 41
0.8
  7
GREEKS
100
AcDbText
  0
TEXT
  5
68C
330
1E
100
AcDbEntity
  8
TEXT
100
AcDbText
 10
492.3831816424238
 20
18.67381894984129
 30
0.0
 40
4.0
  1
Änderung
 41
0.8
  7
GREEKS
100
AcDbText
  0
LINE
  5
68D
330
1E
100
AcDbEntity
  8
HILF
100
AcDbLine
 10
654.7736801096947
 20
14.89398258028302
 30
0.0
 11
824.8588839326728
 21
14.89398258028302
 31
0.0
  0
LINE
  5
68E
330
1E
100
AcDbEntity
  8
HILF
100
AcDbLine
 10
756.7238616296994
 20
83.77983636955821
 30
0.0
 11
824.8588839326728
 21
83.77983636955821
 31
0.0
  0
LINE
  5
68F
330
1E
100
AcDbEntity
  8
VOLL
100
AcDbLine
 10
752.0000000000001
 20
60.0
 30
0.0
 11
830.0
 21
60.0
 31
0.0
  0
LINE
  5
690
330
1E
100
AcDbEntity
  8
HILF
100
AcDbLine
 10
654.7736801096947
 20
50.0
 30
0.0
 11
746.629784251481
 21
50.0
 31
0.0
  0
LINE
  5
691
330
1E
100
AcDbEntity
  8
HILF
100
AcDbLine
 10
654.7736801096947
 20
60.0
 30
0.0
 11
746.629784251481
 21
60.0
 31
0.0
  0
LINE
  5
692
330
1E
100
AcDbEntity
  8
HILF
100
AcDbLine
 10
654.7736801096947
 20
70.0
 30
0.0
 11
746.629784251481
 21
70.0
 31
0.0
  0
LINE
  5
693
330
1E
100
AcDbEntity
  8
HILF
100
AcDbLine
 10
654.7736801096947
 20
84.03758247564132
 30
0.0
 11
746.629784251481
 21
84.03758247564132
 31
0.0
  0
LINE
  5
694
330
1E
100
AcDbEntity
  8
HILF
100
AcDbLine
 10
566.0000000000001
 20
50.0
 30
0.0
 11
649.9999999999999
 21
50.0
 31
0.0
  0
LINE
  5
695
330
1E
100
AcDbEntity
  8
HILF
100
AcDbLine
 10
566.0000000000001
 20
60.0
 30
0.0
 11
649.9999999999999
 21
60.0
 31
0.0
  0
LINE
  5
696
330
1E
100
AcDbEntity
  8
HILF
100
AcDbLine
 10
566.0000000000001
 20
70.0
 30
0.0
 11
649.9999999999999
 21
70.0
 31
0.0
  0
LINE
  5
697
330
1E
100
AcDbEntity
  8
HILF
100
AcDbLine
 10
470.0
 20
40.0
 30
0.0
 11
566.0000000000001
 21
40.0
 31
0.0
  0
LINE
  5
698
330
1E
100
AcDbEntity
  8
HILF
100
AcDbLine
 10
470.0
 20
50.0
 30
0.0
 11
566.0000000000001
 21
50.0
 31
0.0
  0
LINE
  5
699
330
1E
100
AcDbEntity
  8
HILF
100
AcDbLine
 10
470.0
 20
60.0
 30
0.0
 11
566.0000000000001
 21
60.0
 31
0.0
  0
LINE
  5
69A
330
1E
100
AcDbEntity
  8
HILF
100
AcDbLine
 10
470.0
 20
70.0
 30
0.0
 11
566.0000000000001
 21
70.0
 31
0.0
  0
LINE
  5
69B
330
1E
100
AcDbEntity
  8
HILF
100
AcDbLine
 10
470.0
 20
80.0
 30
0.0
 11
566.0000000000001
 21
80.0
 31
0.0
  0
LINE
  5
69C
330
1E
100
AcDbEntity
  8
HILF
100
AcDbLine
 10
470.0
 20
90.0
 30
0.0
 11
566.0000000000001
 21
90.0
 31
0.0
  0
LINE
  5
69D
330
1E
100
AcDbEntity
  8
HILF
100
AcDbLine
 10
470.0
 20
100.0
 30
0.0
 11
566.0000000000001
 21
100.0
 31
0.0
  0
LINE
  5
69E
330
1E
100
AcDbEntity
  8
VOLL
100
AcDbLine
 10
610.0000000000001
 20
109.9999999999998
 30
0.0
 11
609.9999999999998
 21
40.0
 31
0.0
  0
LINE
  5
69F
330
1E
100
AcDbEntity
  8
VOLL
100
AcDbLine
 10
584.0000000000001
 20
80.0
 30
0.0
 11
584.0000000000001
 21
40.0
 31
0.0
  0
LINE
  5
6A0
330
1E
100
AcDbEntity
  8
VOLL
100
AcDbLine
 10
544.0000000000001
 20
109.9999999999999
 30
0.0
 11
543.9999999999998
 21
9.999999999999886
 31
0.0
  0
LINE
  5
6A1
330
1E
100
AcDbEntity
  8
VOLL
100
AcDbLine
 10
524.0000000000001
 20
109.9999999999999
 30
0.0
 11
523.9999999999999
 21
9.999999999999943
 31
0.0
  0
LINE
  5
6A2
330
1E
100
AcDbEntity
  8
VOLL
100
AcDbLine
 10
484.0
 20
110.0
 30
0.0
 11
483.9999999999998
 21
10.0
 31
0.0
  0
LINE
  5
6A3
330
1E
100
AcDbEntity
  8
STEMPEL
100
AcDbLine
 10
830.0
 20
80.0
 30
0.0
 11
566.0000000000001
 21
80.0
 31
0.0
  0
LINE
  5
6A4
330
1E
100
AcDbEntity
  8
STEMPEL
100
AcDbLine
 10
830.0
 20
40.0
 30
0.0
 11
565.9999999999999
 21
40.0
 31
0.0
  0
LINE
  5
6A5
330
1E
100
AcDbEntity
  8
STEMPEL
100
AcDbLine
 10
565.9999999999999
 20
30.0
 30
0.0
 11
469.9999999999999
 21
30.0
 31
0.0
  0
LINE
  5
6A6
330
1E
100
AcDbEntity
  8
STEMPEL
100
AcDbLine
 10
752.0000000000001
 20
109.9999999999996
 30
0.0
 11
752.0000000000001
 21
40.0
 31
0.0
  0
LINE
  5
6A7
330
1E
100
AcDbEntity
  8
STEMPEL
100
AcDbLine
 10
649.9999999999999
 20
110.0
 30
0.0
 11
649.9999999999999
 21
10.0
 31
0.0
  0
LINE
  5
6A8
330
1E
100
AcDbEntity
  8
STEMPEL
100
AcDbLine
 10
566.0000000000001
 20
109.9999999999999
 30
0.0
 11
565.9999999999999
 21
9.999999999999886
 31
0.0
  0
LINE
  5
6A9
330
1E
100
AcDbEntity
  8
STEMPEL
100
AcDbLine
 10
470.0
 20
110.0
 30
0.0
 11
469.9999999999999
 21
10.0
 31
0.0
  0
LINE
  5
6AA
330
1E
100
AcDbEntity
  8
STEMPEL
100
AcDbLine
 10
830.0
 20
110.0
 30
0.0
 11
470.0
 21
110.0
 31
0.0
  0
TEXT
  5
6AB
330
1E
100
AcDbEntity
  8
TEXT
 62
     1
100
AcDbText
 10
654.979117340995
 20
86.99412083985322
 30
0.0
 40
7.0
  1
LORO-Anschlußbogen
 41
0.8
  7
GREEKS
100
AcDbText
  0
TEXT
  5
A44
330
1E
100
AcDbEntity
  8
TEXT
 62
     1
100
AcDbText
 10
497.4976881398184
 20
320.535242576043
 30
0.0
 40
7.0
  1
DN50
 41
0.8
  7
GREEKS
100
AcDbText
  0
TEXT
  5
A45
330
1E
100
AcDbEntity
  8
TEXT
 62
     1
100
AcDbText
 10
203.5023423981081
 20
425.6243344505654
 30
0.0
 40
7.0
  1
DN70
 50
90.0
 41
0.8
  7
GREEKS
100
AcDbText
  0
TEXT
  5
A46
330
1E
100
AcDbEntity
  8
TEXT
100
AcDbText
 10
613.0623689738784
 20
88.90224593904305
 30
0.0
 40
4.0
  1
DIN EN1123-2
 41
0.8
  7
GREEKS
 72
     1
 11
630.0528451643546
 21
88.90224593904305
 31
0.0
100
AcDbText
  0
TEXT
  5
A50
330
1E
100
AcDbEntity
  8
TEXT
 62
     1
100
AcDbText
 10
664.6057658946467
 20
129.0783465745482
 30
0.0
 40
7.0
  1
und innen beschichtet
 41
0.8
  7
GREEKS
100
AcDbText
  0
TEXT
  5
A51
330
1E
100
AcDbEntity
  8
TEXT
 62
     1
100
AcDbText
 10
616.656048457249
 20
139.8004583895517
 30
0.0
 40
7.0
  1
Werkstoff: E195 EN10305 feuerverzinkt
 41
0.8
  7
GREEKS
100
AcDbText
  0
ARC
  5
DAA
102
{ACAD_REACTORS
330
ECD
102
}
330
1E
100
AcDbEntity
  8
SCHRAFF
100
AcDbCircle
 10
307.7197382541684
 20
288.7346107007679
 30
0.0
 40
3.475292461478132
100
AcDbArc
 50
210.3180345975509
 51
329.6819654024491
  0
ARC
  5
DAB
102
{ACAD_REACTORS
330
ECD
102
}
330
1E
100
AcDbEntity
  8
SCHRAFF
100
AcDbCircle
 10
307.7197382541684
 20
338.2259598530449
 30
0.0
 40
3.475292461478132
100
AcDbArc
 50
30.31803459755086
 51
149.6819654024491
  0
LINE
  5
DAE
102
{ACAD_REACTORS
330
EE2
330
EFB
102
}
330
1E
100
AcDbEntity
  8
STEMPEL
100
AcDbLine
 10
307.7197382541684
 20
286.9802852769064
 30
0.0
 11
307.7197382541684
 21
339.9802852769064
 31
0.0
  0
ARC
  5
DB0
102
{ACAD_REACTORS
330
EC0
102
}
330
1E
100
AcDbEntity
  8
SCHRAFF
100
AcDbCircle
 10
233.1713254737089
 20
350.4939202545697
 30
0.0
 40
2.807489186122067
100
AcDbArc
 50
296.4488907686476
 51
31.96685462784611
  0
ARC
  5
DB1
102
{ACAD_REACTORS
330
EC0
102
}
330
1E
100
AcDbEntity
  8
SCHRAFF
100
AcDbCircle
 10
182.6747747625887
 20
350.6989444485555
 30
0.0
 40
3.068687128529161
100
AcDbArc
 50
155.3197787816178
 51
242.3668773127209
  0
LINE
  5
DB3
102
{ACAD_REACTORS
330
EC0
330
F34
102
}
330
1E
100
AcDbEntity
  8
STEMPEL
100
AcDbLine
 10
172.8320554285251
 20
362.5618095153712
 30
0.0
 11
181.2197382541684
 21
349.9802852769064
 31
0.0
  0
LINE
  5
DB4
102
{ACAD_REACTORS
330
F34
102
}
330
1E
100
AcDbEntity
  8
STEMPEL
100
AcDbLine
 10
174.1633358994656
 20
363.4493298293316
 30
0.0
 11
183.1426989344159
 21
349.9802852769063
 31
0.0
  0
ARC
  5
DB5
102
{ACAD_REACTORS
330
F34
102
}
330
1E
100
AcDbEntity
  8
STEMPEL
100
AcDbCircle
 10
180.8197382541684
 20
367.8869313991335
 30
0.0
 40
9.599999999999999
100
AcDbArc
 50
180.0
 51
213.6900675259789
  0
ARC
  5
DB6
102
{ACAD_REACTORS
330
F34
102
}
330
1E
100
AcDbEntity
  8
STEMPEL
100
AcDbCircle
 10
180.8197382541684
 20
367.8869313991335
 30
0.0
 40
8.0
100
AcDbArc
 50
180.0
 51
213.6900675259789
  0
ARC
  5
DB7
102
{ACAD_REACTORS
330
F34
102
}
330
1E
100
AcDbEntity
  8
STEMPEL
100
AcDbCircle
 10
234.6197382541683
 20
367.8869313991335
 30
0.0
 40
9.599999999999999
100
AcDbArc
 50
326.3099324740211
 51
0.0
  0
ARC
  5
DB8
102
{ACAD_REACTORS
330
F34
102
}
330
1E
100
AcDbEntity
  8
STEMPEL
100
AcDbCircle
 10
234.6197382541683
 20
367.8869313991335
 30
0.0
 40
8.0
100
AcDbArc
 50
326.3099324740211
 51
0.0
  0
LINE
  5
DB9
102
{ACAD_REACTORS
330
F34
102
}
330
1E
100
AcDbEntity
  8
STEMPEL
100
AcDbLine
 10
241.2761406088711
 20
363.4493298293316
 30
0.0
 11
232.2967775739208
 21
349.9802852769063
 31
0.0
  0
LINE
  5
DBA
102
{ACAD_REACTORS
330
EC0
330
F34
102
}
330
1E
100
AcDbEntity
  8
STEMPEL
100
AcDbLine
 10
242.6074210798116
 20
362.5618095153712
 30
0.0
 11
234.2197382541683
 21
349.9802852769064
 31
0.0
  0
LINE
  5
DBB
330
1E
100
AcDbEntity
  8
HILF
100
AcDbLine
 10
175.1178606405978
 20
364.9802852769064
 30
0.0
 11
240.3216158677395
 21
364.9802852769064
 31
0.0
  0
LINE
  5
DBC
102
{ACAD_REACTORS
330
EE2
330
F34
102
}
330
1E
100
AcDbEntity
  8
STEMPEL
100
AcDbLine
 10
181.2197382541683
 20
349.9802852769064
 30
0.0
 11
234.2197382541684
 21
349.9802852769064
 31
0.0
  0
ARC
  5
DBD
102
{ACAD_REACTORS
330
EE2
102
}
330
1E
100
AcDbEntity
  8
STEMPEL
100
AcDbCircle
 10
244.2197382541684
 20
349.9802852769064
 30
0.0
 40
61.5
100
AcDbArc
 50
180.0
 51
270.0
  0
ARC
  5
DBE
102
{ACAD_REACTORS
330
EE2
102
}
330
1E
100
AcDbEntity
  8
STEMPEL
100
AcDbCircle
 10
244.2197382541684
 20
349.9802852769064
 30
0.0
 40
11.5
100
AcDbArc
 50
180.0
 51
270.0
  0
ARC
  5
DBF
102
{ACAD_REACTORS
330
EC0
330
EE2
102
}
330
1E
100
AcDbEntity
  8
STEMPEL
100
AcDbCircle
 10
244.2197382541684
 20
349.9802852769064
 30
0.0
 40
63.0
100
AcDbArc
 50
180.0
 51
270.0
  0
ARC
  5
DC0
102
{ACAD_REACTORS
330
EC0
330
EE2
102
}
330
1E
100
AcDbEntity
  8
STEMPEL
100
AcDbCircle
 10
244.2197382541684
 20
349.9802852769064
 30
0.0
 40
10.0
100
AcDbArc
 50
180.0
 51
270.0
  0
ARC
  5
DC1
330
1E
100
AcDbEntity
  8
MITTEL
100
AcDbCircle
 10
244.2197382541684
 20
349.9802852769064
 30
0.0
 40
36.5
100
AcDbArc
 50
180.0
 51
270.0
  0
LINE
  5
DC2
102
{ACAD_REACTORS
330
EFB
102
}
330
1E
100
AcDbEntity
  8
STEMPEL
100
AcDbLine
 10
700.785229668531
 20
286.9802852769063
 30
0.0
 11
707.7197382541684
 21
287.5869761652728
 31
0.0
  0
LINE
  5
DC3
102
{ACAD_REACTORS
330
EFB
102
}
330
1E
100
AcDbEntity
  8
STEMPEL
100
AcDbLine
 10
700.7852296685309
 20
339.9802852769064
 30
0.0
 11
707.7197382541684
 21
339.3735943885398
 31
0.0
  0
LINE
  5
DC4
102
{ACAD_REACTORS
330
EFB
102
}
330
1E
100
AcDbEntity
  8
STEMPEL
100
AcDbLine
 10
700.7197382541683
 20
288.4802852769063
 30
0.0
 11
707.7197382541684
 21
289.0927059215878
 31
0.0
  0
LINE
  5
DC5
102
{ACAD_REACTORS
330
EFB
102
}
330
1E
100
AcDbEntity
  8
STEMPEL
100
AcDbLine
 10
700.7197382541683
 20
338.4802852769063
 30
0.0
 11
707.7197382541684
 21
337.8678646322248
 31
0.0
  0
LINE
  5
DC6
102
{ACAD_REACTORS
330
EE2
330
EFB
102
}
330
1E
100
AcDbEntity
  8
STEMPEL
100
AcDbLine
 10
700.7197382541683
 20
338.4802852769063
 30
0.0
 11
244.2197382541684
 21
338.4802852769064
 31
0.0
  0
LINE
  5
DC7
102
{ACAD_REACTORS
330
EE2
330
EFB
102
}
330
1E
100
AcDbEntity
  8
STEMPEL
100
AcDbLine
 10
700.7197382541683
 20
288.4802852769063
 30
0.0
 11
244.2197382541684
 21
288.4802852769064
 31
0.0
  0
LINE
  5
DC8
330
1E
100
AcDbEntity
  8
HILF
100
AcDbLine
 10
700.7197382541683
 20
289.9802852769063
 30
0.0
 11
700.7197382541683
 21
336.9802852769063
 31
0.0
  0
LINE
  5
DC9
102
{ACAD_REACTORS
330
ECD
330
EE2
330
EFB
102
}
330
1E
100
AcDbEntity
  8
STEMPEL
100
AcDbLine
 10
700.785229668531
 20
286.9802852769063
 30
0.0
 11
244.2197382541684
 21
286.9802852769064
 31
0.0
  0
LINE
  5
DCA
102
{ACAD_REACTORS
330
ECD
330
EE2
330
EFB
102
}
330
1E
100
AcDbEntity
  8
STEMPEL
100
AcDbLine
 10
700.7852296685309
 20
339.9802852769064
 30
0.0
 11
244.2197382541684
 21
339.9802852769064
 31
0.0
  0
LINE
  5
DCB
102
{ACAD_REACTORS
330
EFB
102
}
330
1E
100
AcDbEntity
  8
STEMPEL
100
AcDbLine
 10
707.7197382541684
 20
287.5869761652728
 30
0.0
 11
707.7197382541684
 21
339.3735943885398
 31
0.0
  0
LINE
  5
DCC
330
1E
100
AcDbEntity
  8
MITTEL
100
AcDbLine
 10
712.7197382541684
 20
313.4802852769063
 30
0.0
 11
244.2197382541684
 21
313.4802852769064
 31
0.0
  0
LINE
  5
DCD
102
{ACAD_REACTORS
330
F34
102
}
330
1E
100
AcDbEntity
  8
STEMPEL
  6
Continuous
100
AcDbLine
 10
244.2197382541684
 20
367.8869313991335
 30
0.0
 11
244.2197382541684
 21
393.1736856123377
 31
0.0
  0
LINE
  5
DCE
102
{ACAD_REACTORS
330
F34
102
}
330
1E
100
AcDbEntity
  8
STEMPEL
  6
Continuous
100
AcDbLine
 10
242.6197382541683
 20
367.8869313991335
 30
0.0
 11
242.6197382541684
 21
393.1736856123377
 31
0.0
  0
ARC
  5
DCF
102
{ACAD_REACTORS
330
F34
102
}
330
1E
100
AcDbEntity
  8
STEMPEL
  6
Continuous
100
AcDbCircle
 10
235.3197382541684
 20
403.8690116943233
 30
0.0
 40
12.0
100
AcDbArc
 50
327.6719358778383
 51
0.0
  0
ARC
  5
DD0
102
{ACAD_REACTORS
330
F34
102
}
330
1E
100
AcDbEntity
  8
STEMPEL
  6
Continuous
100
AcDbCircle
 10
235.3197382541684
 20
403.8690116943233
 30
0.0
 40
10.4
100
AcDbArc
 50
327.6719358778383
 51
0.0
  0
ARC
  5
DD1
102
{ACAD_REACTORS
330
F34
102
}
330
1E
100
AcDbEntity
  8
STEMPEL
  6
Continuous
100
AcDbCircle
 10
252.2197382541683
 20
393.1736856123377
 30
0.0
 40
8.0
100
AcDbArc
 50
147.6719358778383
 51
180.0
  0
ARC
  5
DD2
102
{ACAD_REACTORS
330
F34
102
}
330
1E
100
AcDbEntity
  8
STEMPEL
  6
Continuous
100
AcDbCircle
 10
252.2197382541683
 20
393.1736856123377
 30
0.0
 40
9.599999999999999
100
AcDbArc
 50
147.6719358778383
 51
180.0
  0
ARC
  5
DD3
102
{ACAD_REACTORS
330
F34
102
}
330
1E
100
AcDbEntity
  8
STEMPEL
  6
Continuous
100
AcDbCircle
 10
259.3197382541683
 20
420.4802852769063
 30
0.0
 40
12.0
100
AcDbArc
 50
158.8168456069635
 51
180.0
  0
ARC
  5
DD4
102
{ACAD_REACTORS
330
F34
102
}
330
1E
100
AcDbEntity
  8
STEMPEL
  6
Continuous
100
AcDbCircle
 10
259.3197382541683
 20
420.4802852769063
 30
0.0
 40
13.6
100
AcDbArc
 50
158.8168456069635
 51
180.0
  0
LINE
  5
DD5
102
{ACAD_REACTORS
330
F34
102
}
330
1E
100
AcDbEntity
  8
STEMPEL
  6
Continuous
100
AcDbLine
 10
248.2197382541684
 20
442.9313628697876
 30
0.0
 11
248.2197382541684
 21
433.9163442428412
 31
0.0
  0
ARC
  5
DD6
102
{ACAD_REACTORS
330
F34
102
}
330
1E
100
AcDbEntity
  8
STEMPEL
  6
Continuous
100
AcDbCircle
 10
224.8197382541684
 20
433.8502852769062
 30
0.0
 40
23.40009324312573
100
AcDbArc
 50
338.8168456069636
 51
0.1617474313028234
  0
ARC
  5
DD7
102
{ACAD_REACTORS
330
F34
102
}
330
1E
100
AcDbEntity
  8
STEMPEL
  6
Continuous
100
AcDbCircle
 10
224.8197382541684
 20
442.9313628697876
 30
0.0
 40
23.4
100
AcDbArc
 50
0.0
 51
26.79557793123278
  0
LINE
  5
DD8
102
{ACAD_REACTORS
330
F34
102
}
330
1E
100
AcDbEntity
  8
STEMPEL
  6
Continuous
100
AcDbLine
 10
247.3197382541683
 20
420.4802852769063
 30
0.0
 11
247.3197382541683
 21
403.8690116943233
 31
0.0
  0
LINE
  5
DD9
102
{ACAD_REACTORS
330
F34
102
}
330
1E
100
AcDbEntity
  8
STEMPEL
  6
Continuous
100
AcDbLine
 10
245.7197382541683
 20
420.4802852769063
 30
0.0
 11
245.7197382541683
 21
403.8690116943233
 31
0.0
  0
LINE
  5
DDA
102
{ACAD_REACTORS
330
F34
102
}
330
1E
100
AcDbEntity
  8
STEMPEL
  6
Continuous
100
AcDbLine
 10
249.8197382541684
 20
442.9313628697876
 30
0.0
 11
249.8197382541684
 21
433.9185653251051
 31
0.0
  0
ARC
  5
DDB
102
{ACAD_REACTORS
330
F34
102
}
330
1E
100
AcDbEntity
  8
STEMPEL
  6
Continuous
100
AcDbCircle
 10
224.8197382541684
 20
442.9313628697876
 30
0.0
 40
25.0
100
AcDbArc
 50
0.0
 51
24.95819631231679
  0
ARC
  5
DDC
102
{ACAD_REACTORS
330
F34
102
}
330
1E
100
AcDbEntity
  8
STEMPEL
  6
Continuous
100
AcDbCircle
 10
224.8197382541684
 20
433.8502852769062
 30
0.0
 40
25.00009324312574
100
AcDbArc
 50
338.8168456069636
 51
0.1564859543701707
  0
LINE
  5
DDD
102
{ACAD_REACTORS
330
F34
102
}
330
1E
100
AcDbEntity
  8
STEMPEL
  6
Continuous
100
AcDbLine
 10
172.8197382541682
 20
367.8869313991335
 30
0.0
 11
172.8197382541682
 21
393.1736856123377
 31
0.0
  0
ARC
  5
DDE
102
{ACAD_REACTORS
330
F34
102
}
330
1E
100
AcDbEntity
  8
STEMPEL
  6
Continuous
100
AcDbCircle
 10
163.2197382541682
 20
393.1736856123377
 30
0.0
 40
9.599999999999999
100
AcDbArc
 50
0.0
 51
32.32806412216171
  0
ARC
  5
DDF
102
{ACAD_REACTORS
330
F34
102
}
330
1E
100
AcDbEntity
  8
STEMPEL
  6
Continuous
100
AcDbCircle
 10
180.1197382541682
 20
403.8690116943233
 30
0.0
 40
10.4
100
AcDbArc
 50
180.0
 51
212.3280641221617
  0
LINE
  5
DE0
102
{ACAD_REACTORS
330
F34
102
}
330
1E
100
AcDbEntity
  8
STEMPEL
  6
Continuous
100
AcDbLine
 10
169.7197382541683
 20
420.4802852769063
 30
0.0
 11
169.7197382541683
 21
403.8690116943233
 31
0.0
  0
ARC
  5
DE1
102
{ACAD_REACTORS
330
F34
102
}
330
1E
100
AcDbEntity
  8
STEMPEL
  6
Continuous
100
AcDbCircle
 10
156.1197382541683
 20
420.4802852769063
 30
0.0
 40
13.6
100
AcDbArc
 50
0.0
 51
21.18315439303641
  0
ARC
  5
DE2
102
{ACAD_REACTORS
330
F34
102
}
330
1E
100
AcDbEntity
  8
STEMPEL
  6
Continuous
100
AcDbCircle
 10
190.6197382541682
 20
433.8502852769062
 30
0.0
 40
23.40009324312573
100
AcDbArc
 50
179.8382525687297
 51
201.1831543930364
  0
LINE
  5
DE3
102
{ACAD_REACTORS
330
F34
102
}
330
1E
100
AcDbEntity
  8
STEMPEL
  6
Continuous
100
AcDbLine
 10
167.2197382541682
 20
442.9313628697876
 30
0.0
 11
167.2197382541682
 21
433.9163442428267
 31
0.0
  0
ARC
  5
DE4
102
{ACAD_REACTORS
330
F34
102
}
330
1E
100
AcDbEntity
  8
STEMPEL
  6
Continuous
100
AcDbCircle
 10
190.6197382541682
 20
442.9313628697876
 30
0.0
 40
23.4
100
AcDbArc
 50
153.2044220687672
 51
180.0
  0
ARC
  5
DE5
102
{ACAD_REACTORS
330
F34
102
}
330
1E
100
AcDbEntity
  8
STEMPEL
  6
Continuous
100
AcDbCircle
 10
163.2197382541682
 20
393.1736856123377
 30
0.0
 40
8.0
100
AcDbArc
 50
0.0
 51
32.32806412216171
  0
ARC
  5
DE6
102
{ACAD_REACTORS
330
F34
102
}
330
1E
100
AcDbEntity
  8
STEMPEL
  6
Continuous
100
AcDbCircle
 10
180.1197382541682
 20
403.8690116943233
 30
0.0
 40
12.0
100
AcDbArc
 50
180.0
 51
212.3280641221617
  0
ARC
  5
DE7
102
{ACAD_REACTORS
330
F34
102
}
330
1E
100
AcDbEntity
  8
STEMPEL
  6
Continuous
100
AcDbCircle
 10
190.6197382541682
 20
433.8502852769062
 30
0.0
 40
25.00009324312574
100
AcDbArc
 50
179.8435140456428
 51
201.1831543930364
  0
ARC
  5
DE8
102
{ACAD_REACTORS
330
F34
102
}
330
1E
100
AcDbEntity
  8
STEMPEL
  6
Continuous
100
AcDbCircle
 10
156.1197382541683
 20
420.4802852769063
 30
0.0
 40
12.0
100
AcDbArc
 50
0.0
 51
21.18315439303641
  0
LINE
  5
DE9
102
{ACAD_REACTORS
330
F34
102
}
330
1E
100
AcDbEntity
  8
STEMPEL
  6
Continuous
100
AcDbLine
 10
168.1197382541683
 20
420.4802852769063
 30
0.0
 11
168.1197382541683
 21
403.8690116943233
 31
0.0
  0
LINE
  5
DEA
330
1E
100
AcDbEntity
  8
HILF
100
AcDbLine
 10
244.2095318281711
 20
422.130031246368
 30
0.0
 11
171.2299446801654
 21
422.130031246368
 31
0.0
  0
LINE
  5
DEB
330
1E
100
AcDbEntity
  8
HILF
100
AcDbLine
 10
244.0494382320764
 20
402.7589043591011
 30
0.0
 11
171.3900382762601
 21
402.7589043591011
 31
0.0
  0
LINE
  5
DEC
330
1E
100
AcDbEntity
  8
HILF
100
AcDbLine
 10
241.214015022229
 20
395.2507162192268
 30
0.0
 11
174.2254614861074
 21
395.2507162192268
 31
0.0
  0
LINE
  5
DED
102
{ACAD_REACTORS
330
F34
102
}
330
1E
100
AcDbEntity
  8
STEMPEL
  6
Continuous
100
AcDbLine
 10
171.2197382541682
 20
367.8869313991335
 30
0.0
 11
171.2197382541682
 21
393.1736856123377
 31
0.0
  0
ARC
  5
DEE
102
{ACAD_REACTORS
330
F34
102
}
330
1E
100
AcDbEntity
  8
STEMPEL
  6
Continuous
100
AcDbCircle
 10
190.6197382541682
 20
442.9313628697876
 30
0.0
 40
25.0
100
AcDbArc
 50
155.0418036876832
 51
180.0
  0
LINE
  5
DEF
102
{ACAD_REACTORS
330
F34
102
}
330
1E
100
AcDbEntity
  8
STEMPEL
  6
Continuous
100
AcDbLine
 10
247.4851355824437
 20
453.4802852769063
 30
0.0
 11
167.9543409258929
 21
453.4802852769063
 31
0.0
  0
LINE
  5
DF0
102
{ACAD_REACTORS
330
F34
102
}
330
1E
100
AcDbEntity
  8
STEMPEL
  6
Continuous
100
AcDbLine
 10
165.6197382541682
 20
442.9313628697876
 30
0.0
 11
165.6197382541682
 21
433.9185653250999
 31
0.0
  0
LINE
  5
DF1
330
1E
100
AcDbEntity
  8
MITTEL
100
AcDbLine
 10
207.7197382541684
 20
349.9802852769064
 30
0.0
 11
207.7197382541683
 21
458.480285276906
 31
0.0
  0
DIMENSION
  5
E0C
330
1E
100
AcDbEntity
  8
BEM
100
AcDbDimension
  2
*D1
 10
145.4615874097921
 20
313.4802852769064
 30
0.0
 11
138.9615874097921
 21
383.4802852769064
 31
0.0
 70
    32
 71
     5
 42
139.9999999999999
  3
Standard
100
AcDbAlignedDimension
 13
167.9543409258929
 23
453.4802852769063
 33
0.0
 14
244.2197382541684
 24
313.4802852769064
 34
0.0
 50
90.0
100
AcDbRotatedDimension
1001
ACAD
1000
DSTYLE
1002
{
1070
    40
1040
2.0
1070
    41
1040
3.5
1070
    42
1040
1.0
1070
    43
1040
7.0
1070
    44
1040
1.0
1070
    73
1070
     0
1070
    74
1070
     0
1070
    77
1070
     1
1070
    78
1070
     8
1070
    79
1070
     2
1070
   140
1040
3.5
1070
   141
1040
1.5
1070
   146
1040
0.5142857142857144
1070
   147
1040
1.5
1070
   172
1070
     1
1070
   178
1070
     1
1070
   179
1070
     2
1070
   271
1070
     2
1070
   272
1070
     2
1070
   284
1070
     8
1070
   285
1070
     8
1070
   286
1070
     8
1002
}
  0
DIMENSION
  5
E33
330
1E
100
AcDbEntity
  8
BEM
100
AcDbDimension
  2
*D2
 10
207.7197382541684
 20
251.2221344325301
 30
0.0
 11
457.7197382541684
 21
257.7221344325301
 31
0.0
 70
    32
 71
     5
 42
500.0
  3
Standard
100
AcDbAlignedDimension
 13
707.7197382541684
 23
287.5869761652728
 33
0.0
 14
207.7197382541684
 24
349.9802852769064
 34
0.0
100
AcDbRotatedDimension
1001
ACAD
1000
DSTYLE
1002
{
1070
    40
1040
2.0
1070
    41
1040
3.5
1070
    42
1040
1.0
1070
    43
1040
7.0
1070
    44
1040
1.0
1070
    73
1070
     0
1070
    74
1070
     0
1070
    77
1070
     1
1070
    78
1070
     8
1070
    79
1070
     2
1070
   140
1040
3.5
1070
   141
1040
1.5
1070
   146
1040
0.5142857142857144
1070
   147
1040
1.5
1070
   172
1070
     1
1070
   178
1070
     1
1070
   179
1070
     2
1070
   271
1070
     2
1070
   272
1070
     2
1070
   284
1070
     8
1070
   285
1070
     8
1070
   286
1070
     8
1002
}
  0
DIMENSION
  5
E40
330
1E
100
AcDbEntity
  8
BEM
100
AcDbDimension
  2
*D3
 10
728.0914894347108
 20
286.9802852769063
 30
0.0
 11
721.5914894347108
 21
313.4802852769064
 31
0.0
 70
    32
  1
%%c<>
 71
     5
 42
53.0
  3
Standard
100
AcDbAlignedDimension
 13
700.7852296685309
 23
339.9802852769064
 33
0.0
 14
700.785229668531
 24
286.9802852769063
 34
0.0
 50
90.0
100
AcDbRotatedDimension
1001
ACAD
1000
DSTYLE
1002
{
1070
    40
1040
2.0
1070
    41
1040
3.5
1070
    42
1040
1.0
1070
    43
1040
7.0
1070
    44
1040
1.0
1070
    73
1070
     0
1070
    74
1070
     0
1070
    77
1070
     1
1070
    78
1070
     8
1070
    79
1070
     2
1070
   140
1040
3.5
1070
   141
1040
1.5
1070
   146
1040
0.5142857142857144
1070
   147
1040
1.5
1070
   172
1070
     1
1070
   178
1070
     1
1070
   179
1070
     2
1070
   271
1070
     2
1070
   272
1070
     2
1070
   284
1070
     8
1070
   285
1070
     8
1070
   286
1070
     8
1002
}
  0
DIMENSION
  5
E56
330
1E
100
AcDbEntity
  8
BEM
100
AcDbDimension
  2
*D4
 10
207.7197382541683
 20
458.4802852769063
 30
0.0
 11
168.2927716856875
 21
274.0533187084254
 31
0.0
 70
    34
 71
     5
 42
1.570796326794897
  3
Standard
100
AcDb2LineAngularDimension
 13
712.7197382541684
 23
313.4802852769063
 33
0.0
 14
244.2197382541684
 24
313.4802852769064
 34
0.0
 15
207.7197382541684
 25
349.9802852769064
 35
0.0
 16
153.8025980302949
 26
282.3512098547183
 36
0.0
1001
ACAD
1000
DSTYLE
1002
{
1070
    40
1040
2.0
1070
    41
1040
3.5
1070
    42
1040
1.0
1070
    43
1040
7.0
1070
    44
1040
1.0
1070
    73
1070
     0
1070
    74
1070
     0
1070
    77
1070
     1
1070
    78
1070
     8
1070
    79
1070
     2
1070
   140
1040
3.5
1070
   141
1040
1.5
1070
   146
1040
0.5142857142857144
1070
   147
1040
1.5
1070
   172
1070
     1
1070
   178
1070
     1
1070
   179
1070
     2
1070
   271
1070
     2
1070
   272
1070
     2
1070
   284
1070
     8
1070
   285
1070
     8
1070
   286
1070
     8
1002
}
  0
DIMENSION
  5
E65
330
1E
100
AcDbEntity
  8
BEM
100
AcDbDimension
  2
*D5
 10
244.2197382541688
 20
349.9802852769065
 30
0.0
 11
191.1282163351552
 21
295.3684644352579
 31
0.0
 70
   164
 71
     5
 42
36.50000000000034
  3
Standard
100
AcDbRadialDimension
 15
218.7771908550296
 25
323.8091794186784
 35
0.0
 40
0.0
1001
ACAD
1000
DSTYLE
1002
{
1070
    40
1040
2.0
1070
    41
1040
3.5
1070
    42
1040
1.0
1070
    43
1040
7.0
1070
    44
1040
1.0
1070
    73
1070
     0
1070
    74
1070
     0
1070
    77
1070
     1
1070
    78
1070
     8
1070
    79
1070
     2
1070
   140
1040
3.5
1070
   141
1040
1.5
1070
   146
1040
0.5142857142857144
1070
   147
1040
1.5
1070
   172
1070
     1
1070
   178
1070
     1
1070
   179
1070
     2
1070
   271
1070
     2
1070
   272
1070
     2
1070
   284
1070
     8
1070
   285
1070
     8
1070
   286
1070
     8
1070
   288
1070
     1
1002
}
  0
HATCH
  5
EC0
330
1E
100
AcDbEntity
  8
SCHRAFF
100
AcDbHatch
 10
0.0
 20
0.0
 30
0.0
210
0.0
220
0.0
230
1.0
  2
_USER
 70
     0
 71
     1
 91
        2
 92
        7
 72
     1
 73
     1
 93
        3
 10
235.5530715875016
 20
351.9802852769063
 42
0.0
 10
234.2197382541683
 20
349.9802852769064
 42
0.0503820444848858
 10
234.4217792830356
 20
347.9802852769063
 42
0.4427108298725431
 97
        3
330
DBA
330
DC0
330
DB0
 92
        7
 72
     1
 73
     1
 93
        3
 10
179.8864049208351
 20
351.9802852769064
 42
0.3991977817642375
 10
181.2514922884437
 20
347.9802852769064
 42
-0.0079380083477192
 10
181.2197382541684
 20
349.9802852769064
 42
0.0
 97
        3
330
DB3
330
DB1
330
DBF
 75
     0
 76
     0
 52
0.0
 41
0.1
 77
     0
 78
     1
 53
0.0
 43
0.0
 44
0.0
 45
0.0
 46
0.1
 79
     0
 47
0.2113067628042538
 98
        2
 10
235.1454945558187
 20
349.4470055152854
 10
180.5954370672673
 20
349.8696196484811
  0
HATCH
  5
ECD
330
1E
100
AcDbEntity
  8
SCHRAFF
100
AcDbHatch
 10
0.0
 20
0.0
 30
0.0
210
0.0
220
0.0
230
1.0
  2
_USER
 70
     0
 71
     1
 91
        2
 92
        7
 72
     1
 73
     1
 93
        2
 10
304.7197382541684
 20
339.9802852769064
 42
0.0
 10
310.7197382541683
 20
339.9802852769064
 42
0.5736556792055408
 97
        2
330
DCA
330
DAB
 92
        7
 72
     1
 73
     1
 93
        2
 10
310.7197382541683
 20
286.9802852769064
 42
0.0
 10
304.7197382541684
 20
286.9802852769064
 42
0.5736556792055408
 97
        2
330
DC9
330
DAA
 75
     0
 76
     0
 52
0.0
 41
0.1
 77
     0
 78
     1
 53
0.0
 43
0.0
 44
0.0
 45
0.0
 46
0.1
 79
     0
 47
0.2113067628042538
 98
        2
 10
308.0903426848356
 20
340.783429058308
 10
308.5132102869873
 20
286.2662827228389
  0
HATCH
  5
EE2
330
1E
100
AcDbEntity
  8
SCHRAFF
100
AcDbHatch
 10
0.0
 20
0.0
 30
0.0
210
0.0
220
0.0
230
1.0
  2
_USER
 70
     0
 71
     1
 91
        2
 92
       23
 72
     1
 73
     1
 93
        6
 10
307.7197382541684
 20
339.9802852769063
 42
0.0
 10
244.2197382541684
 20
339.9802852769064
 42
-0.4142135623730951
 10
234.2197382541684
 20
349.9802852769064
 42
0.0
 10
232.7197382541684
 20
349.9802852769064
 42
0.4142135623730951
 10
244.2197382541684
 20
338.4802852769064
 42
0.0
 10
307.7197382541684
 20
338.4802852769063
 42
0.0
 97
        6
330
DCA
330
DC0
330
DBC
330
DBE
330
DC6
330
DAE
 92
        7
 72
     1
 73
     1
 93
        6
 10
307.7197382541684
 20
288.4802852769064
 42
0.0
 10
244.2197382541684
 20
288.4802852769064
 42
-0.4142135623730951
 10
182.7197382541683
 20
349.9802852769064
 42
0.0
 10
181.2197382541683
 20
349.9802852769064
 42
0.4142135623730951
 10
244.2197382541684
 20
286.9802852769064
 42
0.0
 10
307.7197382541684
 20
286.9802852769063
 42
0.0
 97
        6
330
DC7
330
DBD
330
DBC
330
DBF
330
DC9
330
DAE
 75
     0
 76
     0
 52
45.0
 41
2.0
 77
     0
 78
     1
 53
45.0
 43
0.0
 44
0.0
 45
-1.414213562373094
 46
1.414213562373095
 79
     0
 47
0.2113067628042538
 98
        2
 10
269.8207269679767
 20
339.0929739227388
 10
256.0774951524002
 20
287.7454300932027
  0
HATCH
  5
EFB
330
1E
100
AcDbEntity
  8
SCHRAFF
100
AcDbHatch
 10
0.0
 20
0.0
 30
0.0
210
0.0
220
0.0
230
1.0
  2
_USER
 70
     0
 71
     1
 91
        2
 92
        7
 72
     0
 73
     1
 93
        6
 10
700.7852296685316
 20
339.9802852769064
 10
307.7197382541684
 20
339.9802852769064
 10
307.7197382541684
 20
338.4802852769063
 10
700.7197382541684
 20
338.4802852769063
 10
707.7197382541684
 20
337.8678646322248
 10
707.7197382541684
 20
339.3735943885399
 97
        6
330
DCA
330
DAE
330
DC6
330
DC5
330
DCB
330
DC3
 92
        7
 72
     0
 73
     1
 93
        6
 10
707.7197382541683
 20
289.0927059215878
 10
700.7197382541682
 20
288.4802852769063
 10
307.7197382541684
 20
288.4802852769064
 10
307.7197382541684
 20
286.9802852769064
 10
700.7852296685309
 20
286.9802852769063
 10
707.7197382541685
 20
287.5869761652728
 97
        6
330
DC4
330
DC7
330
DAE
330
DC9
330
DC2
330
DCB
 75
     0
 76
     0
 52
135.0
 41
2.0
 77
     0
 78
     1
 53
135.0
 43
0.0
 44
0.0
 45
-1.414213562373095
 46
-1.414213562373094
 79
     0
 47
0.6370529998050443
 98
        2
 10
491.6205042992603
 20
339.5272086905975
 10
476.322000683747
 20
287.9259153021187
  0
HATCH
  5
F34
330
1E
100
AcDbEntity
  8
SCHRAFF
100
AcDbHatch
 10
0.0
 20
0.0
 30
0.0
210
0.0
220
0.0
230
1.0
  2
_USER
 70
     0
 71
     1
 91
        2
 92
        7
 72
     1
 73
     1
 93
       22
 10
249.8197382541684
 20
442.9313628697876
 42
0.109333224602075
 10
247.4851355824438
 20
453.4802852769063
 42
0.0
 10
245.7070606303992
 20
453.4802852769063
 42
-0.1174534402570152
 10
248.2197382541684
 20
442.9313628697876
 42
0.0
 10
248.2197382541684
 20
433.9163442428412
 42
-0.0934049271928156
 10
246.6386891304023
 20
425.3946512706668
 42
0.0926930603363578
 10
245.7197382541683
 20
420.4802852769058
 42
0.0
 10
245.7197382541683
 20
403.8690116943233
 42
-0.1420008527982264
 10
244.1077382541684
 20
398.307442131691
 42
0.1420008527982384
 10
242.6197382541684
 20
393.1736856123377
 42
0.0
 10
242.6197382541683
 20
367.8869313991335
 42
-0.1480687391120263
 10
241.2761406088711
 20
363.4493298293315
 42
0.0
 10
232.2967775739208
 20
349.9802852769064
 42
0.0
 10
234.2197382541683
 20
349.9802852769064
 42
0.0
 10
242.6074210798116
 20
362.5618095153712
 42
0.1480687391120258
 10
244.2197382541684
 20
367.8869313991335
 42
0.0
 10
244.2197382541684
 20
393.1736856123377
 42
-0.142000852798227
 10
245.4597382541683
 20
397.4518160451318
 42
0.1420008527982344
 10
247.3197382541683
 20
403.8690116943233
 42
0.0
 10
247.3197382541683
 20
420.4802852769063
 42
-0.0926930603363611
 10
248.1305772626101
 20
424.816490565519
 42
0.092004438419085
 10
249.8197382541684
 20
433.7820052287169
 42
0.0
 97
       22
330
DDB
330
DEF
330
DD7
330
DD5
330
DD6
330
DD4
330
DD9
330
DD0
330
DD2
330
DCE
330
DB8
330
DB9
330
DBC
330
DBA
330
DB7
330
DCD
330
DD1
330
DCF
330
DD8
330
DD3
330
DDC
330
DDA
 92
        7
 72
     1
 73
     1
 93
       22
 10
172.8197382541682
 20
393.1736856123377
 42
0.1420008527982335
 10
171.3317382541682
 20
398.3074421316908
 42
-0.1420008527982309
 10
169.7197382541683
 20
403.8690116943233
 42
0.0
 10
169.7197382541683
 20
420.4802852769063
 42
0.0926930603363581
 10
168.8007873779342
 20
425.3946512706672
 42
-0.0934049271926543
 10
167.2197382541682
 20
433.9163442428267
 42
0.0
 10
167.2197382541682
 20
442.9313628697876
 42
-0.1174534402570155
 10
169.7324158779375
 20
453.4802852769063
 42
0.0
 10
167.9543409258929
 20
453.4802852769063
 42
0.1093332246020749
 10
165.6197382541682
 20
442.9313628697876
 42
0.0
 10
165.6197382541682
 20
433.782005228714
 42
0.0920044384190579
 10
167.3088992457265
 20
424.8164905655188
 42
-0.0926930603363612
 10
168.1197382541683
 20
420.4802852769061
 42
0.0
 10
168.1197382541683
 20
403.8690116943233
 42
0.1420008527982331
 10
169.9797382541683
 20
397.4518160451319
 42
-0.1420008527982288
 10
171.2197382541682
 20
393.1736856123377
 42
0.0
 10
171.2197382541682
 20
367.8869313991335
 42
0.1480687391120192
 10
172.8320554285249
 20
362.5618095153715
 42
0.0
 10
181.2197382541684
 20
349.9802852769063
 42
0.0
 10
183.1426989344159
 20
349.9802852769063
 42
0.0
 10
174.1633358994656
 20
363.4493298293316
 42
-0.1480687391120261
 10
172.8197382541682
 20
367.8869313991334
 42
0.0
 97
       22
330
DDE
330
DDF
330
DE0
330
DE1
330
DE2
330
DE3
330
DE4
330
DEF
330
DEE
330
DF0
330
DE7
330
DE8
330
DE9
330
DE6
330
DE5
330
DED
330
DB5
330
DB3
330
DBC
330
DB4
330
DB6
330
DDD
 75
     0
 76
     0
 52
135.0
 41
2.0
 77
     0
 78
     1
 53
135.0
 43
0.0
 44
0.0
 45
-1.414213562373095
 46
-1.414213562373094
 79
     0
 47
0.6370529998050443
 98
        2
 10
248.7567710753526
 20
437.6333710151973
 10
172.2642573409923
 20
386.6691306832633
  0
ENDSEC
  0
SECTION
  2
OBJECTS
  0
DICTIONARY
  5
C
330
0
100
AcDbDictionary
281
     1
  3
ACAD_COLOR
350
11A
  3
ACAD_GROUP
350
D
  3
ACAD_LAYOUT
350
19
  3
ACAD_MATERIAL
350
119
  3
ACAD_MLINESTYLE
350
16
  3
ACAD_PLOTSETTINGS
350
18
  3
ACAD_PLOTSTYLENAME
350
E
  3
AcDbVariableDictionary
350
125
  0
DICTIONARY
  5
DB
330
1E
100
AcDbDictionary
280
     1
281
     1
  3
ACAD_LAYOUTSELFREF
360
10F
  0
DICTIONARY
  5
DD
330
1A
100
AcDbDictionary
280
     1
281
     1
  3
ACAD_LAYOUTSELFREF
360
10E
  0
DICTIONARY
  5
11A
102
{ACAD_REACTORS
330
C
102
}
330
C
100
AcDbDictionary
281
     1
  0
DICTIONARY
  5
D
102
{ACAD_REACTORS
330
C
102
}
330
C
100
AcDbDictionary
281
     1
  0
DICTIONARY
  5
19
102
{ACAD_REACTORS
330
C
102
}
330
C
100
AcDbDictionary
281
     1
  3
Layout1
350
1D
  3
Model
350
21
  0
DICTIONARY
  5
119
102
{ACAD_REACTORS
330
C
102
}
330
C
100
AcDbDictionary
281
     1
  0
DICTIONARY
  5
16
102
{ACAD_REACTORS
330
C
102
}
330
C
100
AcDbDictionary
281
     1
  3
Standard
350
17
  0
DICTIONARY
  5
18
102
{ACAD_REACTORS
330
C
102
}
330
C
100
AcDbDictionary
281
     1
  0
ACDBDICTIONARYWDFLT
  5
E
102
{ACAD_REACTORS
330
C
102
}
330
C
100
AcDbDictionary
281
     1
  3
Normal
350
F
100
AcDbDictionaryWithDefault
340
F
  0
DICTIONARY
  5
125
102
{ACAD_REACTORS
330
C
102
}
330
C
100
AcDbDictionary
281
     1
  3
DIMASSOC
350
126
  3
PROJECTNAME
350
127
  0
XRECORD
  5
10F
102
{ACAD_REACTORS
330
DB
102
}
330
DB
100
AcDbXrecord
280
     1
340
1E
  0
XRECORD
  5
10E
102
{ACAD_REACTORS
330
DD
102
}
330
DD
100
AcDbXrecord
280
     1
340
1A
  0
LAYOUT
  5
1D
102
{ACAD_REACTORS
330
19
102
}
330
19
100
AcDbPlotSettings
  1

  2
\\NT_WORK01\HP LaserJet 5000 PCL 6
  4

  6

 40
0.0
 41
0.0
 42
0.0
 43
0.0
 44
0.0
 45
0.0
 46
0.0
 47
0.0
 48
0.0
 49
0.0
140
0.0
141
0.0
142
1.0
143
1.0
 70
   688
 72
     0
 73
     0
 74
     5
  7

 75
    16
147
1.0
 76
     0
 77
     2
 78
   300
148
0.0
149
0.0
100
AcDbLayout
  1
Layout1
 70
     0
 71
     1
 10
0.0
 20
0.0
 11
12.0
 21
9.0
 12
0.0
 22
0.0
 32
0.0
 14
1.000000000000000E+20
 24
1.000000000000000E+20
 34
1.000000000000000E+20
 15
-1.000000000000000E+20
 25
-1.000000000000000E+20
 35
-1.000000000000000E+20
146
0.0
 13
0.0
 23
0.0
 33
0.0
 16
1.0
 26
0.0
 36
0.0
 17
0.0
 27
1.0
 37
0.0
 76
     0
330
1A
  0
LAYOUT
  5
21
102
{ACAD_REACTORS
330
19
102
}
330
19
100
AcDbPlotSettings
  1

  2
none_device
  4
Letter_(8.50_x_11.00_Inches)
  6

 40
6.349999904632568
 41
6.349999904632568
 42
6.350006103515625
 43
6.350006103515625
 44
215.8999938964844
 45
279.3999938964844
 46
0.0
 47
0.0
 48
0.0
 49
0.0
140
0.0
141
0.0
142
1.0
143
1.0
 70
 11952
 72
     0
 73
     1
 74
     0
  7

 75
     0
147
1.0
 76
     0
 77
     2
 78
   300
148
-2639.7083797395
149
484.6045430254942
100
AcDbLayout
  1
Model
 70
     1
 71
     0
 10
0.0
 20
0.0
 11
12.0
 21
9.0
 12
0.0
 22
0.0
 32
0.0
 14
0.0
 24
0.0
 34
0.0
 15
0.0
 25
0.0
 35
0.0
146
0.0
 13
0.0
 23
0.0
 33
0.0
 16
1.0
 26
0.0
 36
0.0
 17
0.0
 27
1.0
 37
0.0
 76
     0
330
1E
  0
MLINESTYLE
  5
17
102
{ACAD_REACTORS
330
16
102
}
330
16
100
AcDbMlineStyle
  2
STANDARD
 70
     0
  3

 62
   256
 51
90.0
 52
90.0
 71
     2
 49
0.5
 62
   256
  6
BYLAYER
 49
-0.5
 62
   256
  6
BYLAYER
  0
ACDBPLACEHOLDER
  5
F
102
{ACAD_REACTORS
330
E
102
}
330
E
  0
DICTIONARYVAR
  5
126
102
{ACAD_REACTORS
330
125
102
}
330
125
100
DictionaryVariables
280
     0
  1
1
  0
DICTIONARYVAR
  5
127
102
{ACAD_REACTORS
330
125
102
}
330
125
100
DictionaryVariables
280
     0
  1

  0
ENDSEC
  0
EOF
