  0
SECTION
  2
HEADER
  9
$ACADVER
  1
AC1018
  9
$ACADMAINTVER
 70
     2
  9
$DWGCODEPAGE
  3
ANSI_1252
  9
$INSBASE
 10
0.0
 20
0.0
 30
0.0
  9
$EXTMIN
 10
-0.0053205607716791
 20
-0.0037691380230172
 30
-0.0000000000000129
  9
$EXTMAX
 10
840.0021502724202
 20
594.0370301550524
 30
0.0000000000000023
  9
$LIMMIN
 10
0.0
 20
0.0
  9
$LIMMAX
 10
840.0
 20
594.0
  9
$ORTHOMODE
 70
     1
  9
$REGENMODE
 70
     1
  9
$FILLMODE
 70
     1
  9
$QTEXTMODE
 70
     0
  9
$MIRRTEXT
 70
     1
  9
$LTSCALE
 40
20.0
  9
$ATTMODE
 70
     1
  9
$TEXTSIZE
 40
3.5
  9
$TRACEWID
 40
1.0
  9
$TEXTSTYLE
  7
STANDARD
  9
$CLAYER
  8
VOLL
  9
$CELTYPE
  6
ByLayer
  9
$CECOLOR
 62
   256
  9
$CELTSCALE
 40
1.0
  9
$DISPSILH
 70
     0
  9
$DIMSCALE
 40
2.0
  9
$DIMASZ
 40
3.5
  9
$DIMEXO
 40
1.0
  9
$DIMDLI
 40
7.0
  9
$DIMRND
 40
0.0
  9
$DIMDLE
 40
0.0
  9
$DIMEXE
 40
1.0
  9
$DIMTP
 40
0.0
  9
$DIMTM
 40
0.0
  9
$DIMTXT
 40
3.5
  9
$DIMCEN
 40
1.5
  9
$DIMTSZ
 40
0.0
  9
$DIMTOL
 70
     0
  9
$DIMLIM
 70
     0
  9
$DIMTIH
 70
     0
  9
$DIMTOH
 70
     0
  9
$DIMSE1
 70
     0
  9
$DIMSE2
 70
     0
  9
$DIMTAD
 70
     1
  9
$DIMZIN
 70
     8
  9
$DIMBLK
  1

  9
$DIMASO
 70
     1
  9
$DIMSHO
 70
     0
  9
$DIMPOST
  1

  9
$DIMAPOST
  1

  9
$DIMALT
 70
     0
  9
$DIMALTD
 70
     2
  9
$DIMALTF
 40
25.4
  9
$DIMLFAC
 40
1.0
  9
$DIMTOFL
 70
     1
  9
$DIMTVP
 40
0.0
  9
$DIMTIX
 70
     0
  9
$DIMSOXD
 70
     0
  9
$DIMSAH
 70
     0
  9
$DIMBLK1
  1

  9
$DIMBLK2
  1

  9
$DIMSTYLE
  2
Standard
  9
$DIMCLRD
 70
     0
  9
$DIMCLRE
 70
     0
  9
$DIMCLRT
 70
     1
  9
$DIMTFAC
 40
0.5142857142857144
  9
$DIMGAP
 40
1.5
  9
$DIMJUST
 70
     0
  9
$DIMSD1
 70
     0
  9
$DIMSD2
 70
     0
  9
$DIMTOLJ
 70
     1
  9
$DIMTZIN
 70
     8
  9
$DIMALTZ
 70
     8
  9
$DIMALTTZ
 70
     8
  9
$DIMUPT
 70
     0
  9
$DIMDEC
 70
     2
  9
$DIMTDEC
 70
     2
  9
$DIMALTU
 70
     2
  9
$DIMALTTD
 70
     2
  9
$DIMTXSTY
  7
STANDARD
  9
$DIMAUNIT
 70
     0
  9
$DIMADEC
 70
     2
  9
$DIMALTRND
 40
0.0
  9
$DIMAZIN
 70
     2
  9
$DIMDSEP
 70
    46
  9
$DIMATFIT
 70
     3
  9
$DIMFRAC
 70
     0
  9
$DIMLDRBLK
  1

  9
$DIMLUNIT
 70
     2
  9
$DIMLWD
 70
    -2
  9
$DIMLWE
 70
    -2
  9
$DIMTMOVE
 70
     0
  9
$LUNITS
 70
     2
  9
$LUPREC
 70
     2
  9
$SKETCHINC
 40
1.0
  9
$FILLETRAD
 40
0.0
  9
$AUNITS
 70
     0
  9
$AUPREC
 70
     0
  9
$MENU
  1
ACAD
  9
$ELEVATION
 40
0.0
  9
$PELEVATION
 40
0.0
  9
$THICKNESS
 40
0.0
  9
$LIMCHECK
 70
     0
  9
$CHAMFERA
 40
0.0
  9
$CHAMFERB
 40
0.0
  9
$CHAMFERC
 40
0.0
  9
$CHAMFERD
 40
0.0
  9
$SKPOLY
 70
     0
  9
$TDCREATE
 40
2455397.867059838
  9
$TDUCREATE
 40
2455397.783726505
  9
$TDUPDATE
 40
2455454.586506551
  9
$TDUUPDATE
 40
2455454.503173218
  9
$TDINDWG
 40
0.0435607407
  9
$TDUSRTIMER
 40
0.0435607407
  9
$USRTIMER
 70
     1
  9
$ANGBASE
 50
0.0
  9
$ANGDIR
 70
     0
  9
$PDMODE
 70
     0
  9
$PDSIZE
 40
0.0
  9
$PLINEWID
 40
0.0
  9
$SPLFRAME
 70
     0
  9
$SPLINETYPE
 70
     6
  9
$SPLINESEGS
 70
     8
  9
$HANDSEED
  5
AD9
  9
$SURFTAB1
 70
     6
  9
$SURFTAB2
 70
     6
  9
$SURFTYPE
 70
     6
  9
$SURFU
 70
     6
  9
$SURFV
 70
     6
  9
$UCSBASE
  2

  9
$UCSNAME
  2

  9
$UCSORG
 10
0.0
 20
0.0
 30
0.0
  9
$UCSXDIR
 10
1.0
 20
0.0
 30
0.0
  9
$UCSYDIR
 10
0.0
 20
1.0
 30
0.0
  9
$UCSORTHOREF
  2

  9
$UCSORTHOVIEW
 70
     0
  9
$UCSORGTOP
 10
0.0
 20
0.0
 30
0.0
  9
$UCSORGBOTTOM
 10
0.0
 20
0.0
 30
0.0
  9
$UCSORGLEFT
 10
0.0
 20
0.0
 30
0.0
  9
$UCSORGRIGHT
 10
0.0
 20
0.0
 30
0.0
  9
$UCSORGFRONT
 10
0.0
 20
0.0
 30
0.0
  9
$UCSORGBACK
 10
0.0
 20
0.0
 30
0.0
  9
$PUCSBASE
  2

  9
$PUCSNAME
  2

  9
$PUCSORG
 10
0.0
 20
0.0
 30
0.0
  9
$PUCSXDIR
 10
1.0
 20
0.0
 30
0.0
  9
$PUCSYDIR
 10
0.0
 20
1.0
 30
0.0
  9
$PUCSORTHOREF
  2

  9
$PUCSORTHOVIEW
 70
     0
  9
$PUCSORGTOP
 10
0.0
 20
0.0
 30
0.0
  9
$PUCSORGBOTTOM
 10
0.0
 20
0.0
 30
0.0
  9
$PUCSORGLEFT
 10
0.0
 20
0.0
 30
0.0
  9
$PUCSORGRIGHT
 10
0.0
 20
0.0
 30
0.0
  9
$PUCSORGFRONT
 10
0.0
 20
0.0
 30
0.0
  9
$PUCSORGBACK
 10
0.0
 20
0.0
 30
0.0
  9
$USERI1
 70
     0
  9
$USERI2
 70
     0
  9
$USERI3
 70
     0
  9
$USERI4
 70
     0
  9
$USERI5
 70
     0
  9
$USERR1
 40
0.0
  9
$USERR2
 40
0.0
  9
$USERR3
 40
0.0
  9
$USERR4
 40
0.0
  9
$USERR5
 40
0.0
  9
$WORLDVIEW
 70
     1
  9
$SHADEDGE
 70
     3
  9
$SHADEDIF
 70
    70
  9
$TILEMODE
 70
     1
  9
$MAXACTVP
 70
    16
  9
$PINSBASE
 10
0.0
 20
0.0
 30
0.0
  9
$PLIMCHECK
 70
     0
  9
$PEXTMIN
 10
1.000000000000000E+20
 20
1.000000000000000E+20
 30
1.000000000000000E+20
  9
$PEXTMAX
 10
-1.000000000000000E+20
 20
-1.000000000000000E+20
 30
-1.000000000000000E+20
  9
$PLIMMIN
 10
0.0
 20
0.0
  9
$PLIMMAX
 10
12.0
 20
9.0
  9
$UNITMODE
 70
     0
  9
$VISRETAIN
 70
     0
  9
$PLINEGEN
 70
     0
  9
$PSLTSCALE
 70
     0
  9
$TREEDEPTH
 70
  3020
  9
$CMLSTYLE
  2
Standard
  9
$CMLJUST
 70
     0
  9
$CMLSCALE
 40
1.0
  9
$PROXYGRAPHICS
 70
     1
  9
$MEASUREMENT
 70
     0
  9
$CELWEIGHT
370
    -1
  9
$ENDCAPS
280
     0
  9
$JOINSTYLE
280
     0
  9
$LWDISPLAY
290
     0
  9
$INSUNITS
 70
     0
  9
$HYPERLINKBASE
  1

  9
$STYLESHEET
  1
monochrome 1.ctb
  9
$XEDIT
290
     1
  9
$CEPSNTYPE
380
     0
  9
$PSTYLEMODE
290
     1
  9
$FINGERPRINTGUID
  2
{D68B0D0D-A558-11D7-B632-000102183313}
  9
$VERSIONGUID
  2
{41BCDA9C-7414-4404-8F17-FE2344F80952}
  9
$EXTNAMES
290
     1
  9
$PSVPSCALE
 40
0.0
  9
$OLESTARTUP
290
     0
  9
$SORTENTS
280
   127
  9
$INDEXCTL
280
     0
  9
$HIDETEXT
280
     0
  9
$XCLIPFRAME
290
     0
  9
$HALOGAP
280
     0
  9
$OBSCOLOR
 70
   257
  9
$OBSLTYPE
280
     0
  9
$INTERSECTIONDISPLAY
280
     0
  9
$INTERSECTIONCOLOR
 70
   257
  9
$DIMASSOC
280
     1
  9
$PROJECTNAME
  1

  0
ENDSEC
  0
SECTION
  2
CLASSES
  0
CLASS
  1
ACDBDICTIONARYWDFLT
  2
AcDbDictionaryWithDefault
  3
ObjectDBX Classes
 90
        0
 91
        1
280
     0
281
     0
  0
CLASS
  1
DICTIONARYVAR
  2
AcDbDictionaryVar
  3
ObjectDBX Classes
 90
        0
 91
        2
280
     0
281
     0
  0
ENDSEC
  0
SECTION
  2
TABLES
  0
TABLE
  2
VPORT
  5
8
330
0
100
AcDbSymbolTable
 70
     2
  0
VPORT
  5
AD8
330
8
100
AcDbSymbolTableRecord
100
AcDbViewportTableRecord
  2
*Active
 70
     0
 10
0.0
 20
0.0
 11
1.0
 21
1.0
 12
419.9984148558242
 22
297.0166305085147
 13
0.0
 23
0.0
 14
1.0
 24
1.0
 15
10.0
 25
10.0
 16
0.0
 26
0.0
 36
1.0
 17
0.0
 27
0.0
 37
0.0
 40
632.10719933872
 41
1.336927223719676
 42
50.0
 43
0.0
 44
0.0
 50
0.0
 51
0.0
 71
     0
 72
  1500
 73
     1
 74
     0
 75
     0
 76
     0
 77
     0
 78
     0
281
     0
 65
     1
110
0.0
120
0.0
130
0.0
111
1.0
121
0.0
131
0.0
112
0.0
122
1.0
132
0.0
 79
     0
146
0.0
  0
ENDTAB
  0
TABLE
  2
LTYPE
  5
5
330
0
100
AcDbSymbolTable
 70
     2
  0
LTYPE
  5
13
330
5
100
AcDbSymbolTableRecord
100
AcDbLinetypeTableRecord
  2
ByBlock
 70
     0
  3

 72
    65
 73
     0
 40
0.0
  0
LTYPE
  5
14
330
5
100
AcDbSymbolTableRecord
100
AcDbLinetypeTableRecord
  2
ByLayer
 70
     0
  3

 72
    65
 73
     0
 40
0.0
  0
LTYPE
  5
15
330
5
100
AcDbSymbolTableRecord
100
AcDbLinetypeTableRecord
  2
Continuous
 70
     0
  3
Solid line
 72
    65
 73
     0
 40
0.0
  0
LTYPE
  5
25
330
5
100
AcDbSymbolTableRecord
100
AcDbLinetypeTableRecord
  2
STRICHPUNKT
 70
     0
  3
__ . __ . __ . __ . __ . __ . __ . __ . __ . __
 72
    65
 73
     4
 40
1.0
 49
0.5
 74
     0
 49
-0.25
 74
     0
 49
0.0
 74
     0
 49
-0.25
 74
     0
  0
ENDTAB
  0
TABLE
  2
LAYER
  5
2
330
0
100
AcDbSymbolTable
 70
     9
  0
LAYER
  5
10
330
2
100
AcDbSymbolTableRecord
100
AcDbLayerTableRecord
  2
0
 70
     0
 62
     7
  6
Continuous
370
    -3
390
F
  0
LAYER
  5
2B
330
2
100
AcDbSymbolTableRecord
100
AcDbLayerTableRecord
  2
VOLL
 70
     0
 62
     1
  6
Continuous
370
    -3
390
F
  0
LAYER
  5
2C
330
2
100
AcDbSymbolTableRecord
100
AcDbLayerTableRecord
  2
HILF
 70
     0
 62
     2
  6
Continuous
370
    -3
390
F
  0
LAYER
  5
2D
330
2
100
AcDbSymbolTableRecord
100
AcDbLayerTableRecord
  2
MITTEL
 70
     0
 62
     2
  6
STRICHPUNKT
370
    -3
390
F
  0
LAYER
  5
2F
330
2
100
AcDbSymbolTableRecord
100
AcDbLayerTableRecord
  2
BEM
 70
     0
 62
     7
  6
Continuous
370
    -3
390
F
  0
LAYER
  5
30
330
2
100
AcDbSymbolTableRecord
100
AcDbLayerTableRecord
  2
STEMPEL
 70
     0
 62
     3
  6
Continuous
370
    -3
390
F
  0
LAYER
  5
33
330
2
100
AcDbSymbolTableRecord
100
AcDbLayerTableRecord
  2
TEXT
 70
     0
 62
     7
  6
Continuous
370
    -3
390
F
  0
LAYER
  5
53E
330
2
100
AcDbSymbolTableRecord
100
AcDbLayerTableRecord
  2
SCHRAFF
 70
     0
 62
     7
  6
Continuous
370
    -3
390
F
  0
LAYER
  5
53F
330
2
100
AcDbSymbolTableRecord
100
AcDbLayerTableRecord
  2
DEFPOINTS
 70
     0
 62
     7
  6
Continuous
290
     0
370
    -3
390
F
  0
ENDTAB
  0
TABLE
  2
STYLE
  5
3
330
0
100
AcDbSymbolTable
 70
     2
  0
STYLE
  5
11
330
3
100
AcDbSymbolTableRecord
100
AcDbTextStyleTableRecord
  2
STANDARD
 70
     0
 40
0.0
 41
0.8
 50
0.0
 71
     0
 42
3.5
  3
simplex.shx
  4

  0
STYLE
  5
24
330
3
100
AcDbSymbolTableRecord
100
AcDbTextStyleTableRecord
  2
GREEKS
 70
     0
 40
0.0
 41
0.8
 50
0.0
 71
     0
 42
2.5
  3
SIMPLEX.shx
  4

  0
ENDTAB
  0
TABLE
  2
VIEW
  5
6
330
0
100
AcDbSymbolTable
 70
     0
  0
ENDTAB
  0
TABLE
  2
UCS
  5
7
330
0
100
AcDbSymbolTable
 70
     0
  0
ENDTAB
  0
TABLE
  2
APPID
  5
9
330
0
100
AcDbSymbolTable
 70
     1
  0
APPID
  5
12
330
9
100
AcDbSymbolTableRecord
100
AcDbRegAppTableRecord
  2
ACAD
 70
     0
  0
ENDTAB
  0
TABLE
  2
DIMSTYLE
  5
A
330
0
100
AcDbSymbolTable
 70
     1
100
AcDbDimStyleTable
 71
     1
340
A2
  0
DIMSTYLE
105
A2
102
{ACAD_REACTORS
330
64C
330
64B
330
649
330
932
330
AB8
102
}
330
A
100
AcDbSymbolTableRecord
100
AcDbDimStyleTableRecord
  2
Standard
 70
     0
340
11
  0
ENDTAB
  0
TABLE
  2
BLOCK_RECORD
  5
1
330
0
100
AcDbSymbolTable
 70
     6
  0
BLOCK_RECORD
  5
1E
102
{ACAD_XDICTIONARY
360
DB
102
}
330
1
100
AcDbSymbolTableRecord
100
AcDbBlockTableRecord
  2
*Model_Space
340
21
  0
BLOCK_RECORD
  5
1A
102
{ACAD_XDICTIONARY
360
DD
102
}
330
1
100
AcDbSymbolTableRecord
100
AcDbBlockTableRecord
  2
*Paper_Space
340
1D
  0
BLOCK_RECORD
  5
22
330
1
100
AcDbSymbolTableRecord
100
AcDbBlockTableRecord
  2
LOGO
340
0
102
{BLKREFS
331
66D
102
}
  0
BLOCK_RECORD
  5
709
330
1
100
AcDbSymbolTableRecord
100
AcDbBlockTableRecord
  2
*D1
340
0
  0
BLOCK_RECORD
  5
721
330
1
100
AcDbSymbolTableRecord
100
AcDbBlockTableRecord
  2
*D2
340
0
  0
BLOCK_RECORD
  5
72E
330
1
100
AcDbSymbolTableRecord
100
AcDbBlockTableRecord
  2
*D3
340
0
  0
BLOCK_RECORD
  5
933
330
1
100
AcDbSymbolTableRecord
100
AcDbBlockTableRecord
  2
*D4
340
0
  0
BLOCK_RECORD
  5
AB9
330
1
100
AcDbSymbolTableRecord
100
AcDbBlockTableRecord
  2
*D5
340
0
  0
ENDTAB
  0
ENDSEC
  0
SECTION
  2
BLOCKS
  0
BLOCK
  5
37
330
1E
100
AcDbEntity
  8
0
100
AcDbBlockBegin
  2
*Model_Space
 70
     0
 10
0.0
 20
0.0
 30
0.0
  3
*Model_Space
  1

  0
ENDBLK
  5
38
330
1E
100
AcDbEntity
  8
0
100
AcDbBlockEnd
  0
BLOCK
  5
35
330
1A
100
AcDbEntity
 67
     1
  8
0
100
AcDbBlockBegin
  2
*Paper_Space
 70
     0
 10
0.0
 20
0.0
 30
0.0
  3
*Paper_Space
  1

  0
ENDBLK
  5
36
330
1A
100
AcDbEntity
 67
     1
  8
0
100
AcDbBlockEnd
  0
BLOCK
  5
39
330
22
100
AcDbEntity
  8
0
100
AcDbBlockBegin
  2
LOGO
 70
     0
 10
0.0
 20
0.0
 30
0.0
  3
LOGO
  1

  0
ARC
  5
3A
330
22
100
AcDbEntity
  8
0
100
AcDbCircle
 10
11.59973089678112
 20
-9.271599258481501
 30
0.0
 40
4.5
100
AcDbArc
 50
270.0
 51
231.0575587310159
  0
LINE
  5
3B
330
22
100
AcDbEntity
  8
0
100
AcDbLine
 10
3.599730896781125
 20
-4.771599258481529
 30
0.0
 11
3.599730896781153
 21
-11.77159925848133
 31
0.0
  0
LINE
  5
3C
330
22
100
AcDbEntity
  8
0
100
AcDbLine
 10
2.599730896781125
 20
-4.771599258481529
 30
0.0
 11
2.599730896781153
 21
-11.77159925848133
 31
0.0
  0
CIRCLE
  5
3D
330
22
100
AcDbEntity
  8
0
100
AcDbCircle
 10
11.59973089678112
 20
-9.271599258481501
 30
0.0
 40
3.5
  0
ARC
  5
3E
330
22
100
AcDbEntity
  8
0
100
AcDbCircle
 10
31.59973089678115
 20
-9.271599258481472
 30
0.0
 40
4.5
100
AcDbArc
 50
270.0
 51
231.0575587310182
  0
LINE
  5
3F
330
22
100
AcDbEntity
  8
0
100
AcDbLine
 10
17.59973089678112
 20
-4.771599258481472
 30
0.0
 11
17.59973089678115
 21
-13.77159925848147
 31
0.0
  0
ARC
  5
40
330
22
100
AcDbEntity
  8
0
100
AcDbCircle
 10
22.59973089678116
 20
-7.271599258481472
 30
0.0
 40
2.5
100
AcDbArc
 50
293.1161887722295
 51
90.0
  0
CIRCLE
  5
41
330
22
100
AcDbEntity
  8
0
100
AcDbCircle
 10
31.59973089678115
 20
-9.271599258481472
 30
0.0
 40
3.5
  0
ARC
  5
42
330
22
100
AcDbEntity
  8
0
100
AcDbCircle
 10
4.599730896781153
 20
-11.77159925848133
 30
0.0
 40
1.0
100
AcDbArc
 50
180.0
 51
270.0
  0
ARC
  5
43
330
22
100
AcDbEntity
  8
0
100
AcDbCircle
 10
4.599730896781153
 20
-11.77159925848133
 30
0.0
 40
2.0
100
AcDbArc
 50
179.9999999999992
 51
270.0
  0
LINE
  5
44
330
22
100
AcDbEntity
  8
0
100
AcDbLine
 10
11.59973089678115
 20
-13.77159925848144
 30
0.0
 11
4.599730896781153
 21
-13.77159925848147
 31
0.0
  0
LINE
  5
45
330
22
100
AcDbEntity
  8
0
100
AcDbLine
 10
8.771303772034769
 20
-12.77159925848136
 30
0.0
 11
4.599730896781153
 21
-12.77159925848133
 31
0.0
  0
LINE
  5
46
330
22
100
AcDbEntity
  8
0
100
AcDbLine
 10
31.59973089678115
 20
-13.77159925848147
 30
0.0
 11
23.6715276665056
 21
-13.77159925848144
 31
0.0
  0
LINE
  5
47
330
22
100
AcDbEntity
  8
0
100
AcDbLine
 10
23.56565672307022
 20
-9.51278021337896
 30
0.0
 11
24.4388546544846
 21
-12.77159925848144
 31
0.0
  0
LINE
  5
48
330
22
100
AcDbEntity
  8
0
100
AcDbLine
 10
22.59973089678116
 20
-9.771599258481472
 30
0.0
 11
18.59973089678112
 21
-9.771599258481472
 31
0.0
  0
LINE
  5
49
330
22
100
AcDbEntity
  8
0
100
AcDbLine
 10
18.59973089678115
 20
-13.77159925848144
 30
0.0
 11
17.59973089678115
 21
-13.77159925848144
 31
0.0
  0
LINE
  5
4A
330
22
100
AcDbEntity
  8
0
100
AcDbLine
 10
18.59973089678115
 20
-9.771599258481472
 30
0.0
 11
18.59973089678115
 21
-13.77159925848144
 31
0.0
  0
LINE
  5
4B
330
22
100
AcDbEntity
  8
0
100
AcDbLine
 10
22.59973089678116
 20
-9.771599258481472
 30
0.0
 11
23.67152766650562
 21
-13.77159925848147
 31
0.0
  0
ARC
  5
4C
330
22
100
AcDbEntity
  8
0
100
AcDbCircle
 10
22.59973089678116
 20
-7.271599258481472
 30
0.0
 40
2.5
100
AcDbArc
 50
270.0
 51
270.0000000000007
  0
LINE
  5
4D
330
22
100
AcDbEntity
  8
0
100
AcDbLine
 10
28.77130377203494
 20
-12.77159925848147
 30
0.0
 11
24.43885465448463
 21
-12.77159925848144
 31
0.0
  0
LINE
  5
4E
330
22
100
AcDbEntity
  8
0
100
AcDbLine
 10
3.599730896781125
 20
-4.771599258481472
 30
0.0
 11
2.599730896781125
 21
-4.771599258481472
 31
0.0
  0
LINE
  5
4F
330
22
100
AcDbEntity
  8
0
100
AcDbLine
 10
22.59973089678116
 20
-8.771599258481472
 30
0.0
 11
18.59973089678115
 21
-8.771599258481472
 31
0.0
  0
LINE
  5
50
330
22
100
AcDbEntity
  8
0
100
AcDbLine
 10
22.59973089678116
 20
-5.771599258481472
 30
0.0
 11
18.59973089678115
 21
-5.771599258481472
 31
0.0
  0
LINE
  5
51
330
22
100
AcDbEntity
  8
0
100
AcDbLine
 10
22.59973089678116
 20
-4.771599258481472
 30
0.0
 11
17.59973089678115
 21
-4.771599258481472
 31
0.0
  0
LINE
  5
52
330
22
100
AcDbEntity
  8
0
100
AcDbLine
 10
18.59973089678115
 20
-5.771599258481472
 30
0.0
 11
18.59973089678115
 21
-8.771599258481472
 31
0.0
  0
ARC
  5
53
330
22
100
AcDbEntity
  8
0
100
AcDbCircle
 10
22.59973089678116
 20
-7.271599258481472
 30
0.0
 40
1.5
100
AcDbArc
 50
270.0
 51
90.0
  0
ENDBLK
  5
54
330
22
100
AcDbEntity
  8
0
100
AcDbBlockEnd
  0
BLOCK
  5
712
330
709
100
AcDbEntity
  8
0
100
AcDbBlockBegin
  2
*D1
 70
     1
 10
0.0
 20
0.0
 30
0.0
  3
*D1
  1

  0
LINE
  5
884
330
709
100
AcDbEntity
  8
BEM
 62
     0
370
    -2
100
AcDbLine
 10
191.9998813012816
 20
289.0633619771553
 30
0.0
 11
212.6813485506539
 21
314.0561597524546
 31
0.0
  0
MTEXT
  5
885
330
709
100
AcDbEntity
  8
BEM
 62
     1
100
AcDbMText
 10
193.494874000279
 20
301.065653292981
 30
0.0
 40
7.0
 41
0.0
 71
     5
 72
     1
  1
\A1;R26
 11
0.6375269607125548
 21
0.7704280461954985
 31
0.0
 73
     1
 44
1.0
  0
LINE
  5
886
330
709
100
AcDbEntity
  8
BEM
 62
     0
370
    -2
100
AcDbLine
 10
233.7197382541682
 20
339.4802852769061
 30
0.0
 11
217.1440372756418
 21
319.4491560758231
 31
0.0
  0
SOLID
  5
887
330
709
100
AcDbEntity
  8
BEM
 62
     0
100
AcDbTrace
 10
211.7825158300925
 20
314.7999412066193
 30
0.0
 11
213.5801812712153
 21
313.31237829829
 31
0.0
 12
217.1440372756418
 22
319.4491560758231
 32
0.0
 13
217.1440372756418
 23
319.4491560758231
 33
0.0
  0
POINT
  5
888
330
709
100
AcDbEntity
  8
DEFPOINTS
 62
     0
100
AcDbPoint
 10
217.1440372756418
 20
319.4491560758231
 30
0.0
  0
POINT
  5
889
330
709
100
AcDbEntity
  8
DEFPOINTS
 62
     0
100
AcDbPoint
 10
233.7197382541682
 20
339.4802852769061
 30
0.0
  0
ENDBLK
  5
713
330
709
100
AcDbEntity
  8
0
100
AcDbBlockEnd
  0
BLOCK
  5
72C
330
721
100
AcDbEntity
  8
0
100
AcDbBlockBegin
  2
*D2
 70
     1
 10
0.0
 20
0.0
 30
0.0
  3
*D2
  1

  0
LINE
  5
872
330
721
100
AcDbEntity
  8
BEM
 62
     0
370
    -2
100
AcDbLine
 10
702.7852296685312
 20
292.4802852769064
 30
0.0
 11
730.9768025426674
 21
292.4802852769064
 31
0.0
  0
LINE
  5
873
330
721
100
AcDbEntity
  8
BEM
 62
     0
370
    -2
100
AcDbLine
 10
702.785229668531
 20
334.4802852769063
 30
0.0
 11
730.9768025426674
 21
334.4802852769063
 31
0.0
  0
LINE
  5
874
330
721
100
AcDbEntity
  8
BEM
 62
     0
370
    -2
100
AcDbLine
 10
728.9768025426674
 20
299.4802852769064
 30
0.0
 11
728.9768025426674
 21
327.4802852769064
 31
0.0
  0
SOLID
  5
875
330
721
100
AcDbEntity
  8
BEM
 62
     0
100
AcDbTrace
 10
727.8101358760007
 20
299.4802852769064
 30
0.0
 11
730.143469209334
 21
299.4802852769064
 31
0.0
 12
728.9768025426674
 22
292.4802852769064
 32
0.0
 13
728.9768025426674
 23
292.4802852769064
 33
0.0
  0
SOLID
  5
876
330
721
100
AcDbEntity
  8
BEM
 62
     0
100
AcDbTrace
 10
727.8101358760007
 20
327.4802852769064
 30
0.0
 11
730.143469209334
 21
327.4802852769064
 31
0.0
 12
728.9768025426674
 22
334.4802852769063
 32
0.0
 13
728.9768025426674
 23
334.4802852769063
 33
0.0
  0
MTEXT
  5
877
330
721
100
AcDbEntity
  8
BEM
 62
     1
100
AcDbMText
 10
722.4768025426673
 20
313.4802852769065
 30
0.0
 40
7.0
 41
0.0
 71
     5
 72
     1
  1
\A1;%%c42
 11
0.0000000000000001
 21
1.0
 31
0.0
 73
     1
 44
1.0
  0
POINT
  5
878
330
721
100
AcDbEntity
  8
DEFPOINTS
 62
     0
100
AcDbPoint
 10
700.7852296685312
 20
292.4802852769064
 30
0.0
  0
POINT
  5
879
330
721
100
AcDbEntity
  8
DEFPOINTS
 62
     0
100
AcDbPoint
 10
700.7852296685309
 20
334.4802852769063
 30
0.0
  0
POINT
  5
87A
330
721
100
AcDbEntity
  8
DEFPOINTS
 62
     0
100
AcDbPoint
 10
728.9768025426674
 20
334.4802852769063
 30
0.0
  0
ENDBLK
  5
72D
330
721
100
AcDbEntity
  8
0
100
AcDbBlockEnd
  0
BLOCK
  5
739
330
72E
100
AcDbEntity
  8
0
100
AcDbBlockBegin
  2
*D3
 70
     1
 10
0.0
 20
0.0
 30
0.0
  3
*D3
  1

  0
LINE
  5
869
330
72E
100
AcDbEntity
  8
BEM
 62
     0
370
    -2
100
AcDbLine
 10
207.7197382541683
 20
337.4802852769063
 30
0.0
 11
207.7197382541683
 21
256.6472532363504
 31
0.0
  0
LINE
  5
86A
330
72E
100
AcDbEntity
  8
BEM
 62
     0
370
    -2
100
AcDbLine
 10
707.7197382541684
 20
291.0869761652729
 30
0.0
 11
707.7197382541684
 21
256.6472532363504
 31
0.0
  0
LINE
  5
86B
330
72E
100
AcDbEntity
  8
BEM
 62
     0
370
    -2
100
AcDbLine
 10
214.7197382541683
 20
258.6472532363504
 30
0.0
 11
700.7197382541684
 21
258.6472532363504
 31
0.0
  0
SOLID
  5
86C
330
72E
100
AcDbEntity
  8
BEM
 62
     0
100
AcDbTrace
 10
214.7197382541683
 20
259.8139199030171
 30
0.0
 11
214.7197382541683
 21
257.4805865696837
 31
0.0
 12
207.7197382541683
 22
258.6472532363504
 32
0.0
 13
207.7197382541683
 23
258.6472532363504
 33
0.0
  0
SOLID
  5
86D
330
72E
100
AcDbEntity
  8
BEM
 62
     0
100
AcDbTrace
 10
700.7197382541684
 20
259.8139199030171
 30
0.0
 11
700.7197382541684
 21
257.4805865696837
 31
0.0
 12
707.7197382541684
 22
258.6472532363504
 32
0.0
 13
707.7197382541684
 23
258.6472532363504
 33
0.0
  0
MTEXT
  5
86E
330
72E
100
AcDbEntity
  8
BEM
 62
     1
100
AcDbMText
 10
457.7197382541683
 20
265.1472532363503
 30
0.0
 40
7.0
 41
0.0
 71
     5
 72
     1
  1
\A1;500
 73
     1
 44
1.0
  0
POINT
  5
86F
330
72E
100
AcDbEntity
  8
DEFPOINTS
 62
     0
100
AcDbPoint
 10
207.7197382541683
 20
339.4802852769063
 30
0.0
  0
POINT
  5
870
330
72E
100
AcDbEntity
  8
DEFPOINTS
 62
     0
100
AcDbPoint
 10
707.7197382541684
 20
293.0869761652729
 30
0.0
  0
POINT
  5
871
330
72E
100
AcDbEntity
  8
DEFPOINTS
 62
     0
100
AcDbPoint
 10
707.7197382541684
 20
258.6472532363504
 30
0.0
  0
ENDBLK
  5
73A
330
72E
100
AcDbEntity
  8
0
100
AcDbBlockEnd
  0
BLOCK
  5
93F
330
933
100
AcDbEntity
  8
0
100
AcDbBlockBegin
  2
*D4
 70
     1
 10
0.0
 20
0.0
 30
0.0
  3
*D4
  1

  0
LINE
  5
934
330
933
100
AcDbEntity
  8
BEM
 62
     0
370
    -2
100
AcDbLine
 10
205.7197382541683
 20
313.4802852769063
 30
0.0
 11
150.7773626173871
 21
313.4802852769063
 31
0.0
  0
LINE
  5
935
330
933
100
AcDbEntity
  8
BEM
 62
     0
370
    -2
100
AcDbLine
 10
207.7197382541683
 20
311.4802852769063
 30
0.0
 11
207.7197382541683
 21
256.5379096401251
 31
0.0
  0
ARC
  5
936
330
933
100
AcDbEntity
  8
BEM
 62
     0
370
    -2
100
AcDbCircle
 10
207.7197382541683
 20
313.4802852769063
 30
0.0
 40
54.9423756367812
100
AcDbArc
 50
187.3047845411751
 51
262.6952154588249
  0
SOLID
  5
937
330
933
100
AcDbEntity
  8
BEM
 62
     0
100
AcDbTrace
 10
152.0589873185578
 20
306.4201827251622
 30
0.0
 11
154.3875814055467
 21
306.5688233067173
 31
0.0
 12
152.7773626173871
 22
313.4802852769063
 32
0.0
 13
152.7773626173871
 23
313.4802852769063
 33
0.0
  0
SOLID
  5
938
330
933
100
AcDbEntity
  8
BEM
 62
     0
100
AcDbTrace
 10
200.8082762839793
 20
260.1481284282846
 30
0.0
 11
200.6596357024243
 21
257.8195343412958
 31
0.0
 12
207.7197382541683
 22
258.5379096401251
 32
0.0
 13
207.7197382541683
 23
258.5379096401251
 33
0.0
  0
MTEXT
  5
939
330
933
100
AcDbEntity
  8
BEM
 62
     1
100
AcDbMText
 10
173.4658059446142
 20
279.2263529673523
 30
0.0
 40
7.0
 41
0.0
 71
     5
 72
     1
  1
\A1;90°
 11
0.7071067811865476
 21
-0.7071067811865475
 31
0.0
 73
     1
 44
1.0
  0
POINT
  5
93A
330
933
100
AcDbEntity
  8
DEFPOINTS
 62
     0
100
AcDbPoint
 10
160.1382452084486
 20
286.0090974585157
 30
0.0
  0
POINT
  5
93B
330
933
100
AcDbEntity
  8
DEFPOINTS
 62
     0
100
AcDbPoint
 10
207.7197382541683
 20
339.4802852769063
 30
0.0
  0
POINT
  5
93C
330
933
100
AcDbEntity
  8
DEFPOINTS
 62
     0
100
AcDbPoint
 10
712.7197382541685
 20
313.4802852769063
 30
0.0
  0
POINT
  5
93D
330
933
100
AcDbEntity
  8
DEFPOINTS
 62
     0
100
AcDbPoint
 10
233.7197382541683
 20
313.4802852769063
 30
0.0
  0
POINT
  5
93E
330
933
100
AcDbEntity
  8
DEFPOINTS
 62
     0
100
AcDbPoint
 10
207.7197382541683
 20
363.315010001673
 30
0.0
  0
ENDBLK
  5
940
330
933
100
AcDbEntity
  8
0
100
AcDbBlockEnd
  0
BLOCK
  5
AC3
330
AB9
100
AcDbEntity
  8
0
100
AcDbBlockBegin
  2
*D5
 70
     1
 10
0.0
 20
0.0
 30
0.0
  3
*D5
  1

  0
LINE
  5
AC5
330
AB9
100
AcDbEntity
  8
BEM
 62
     0
370
    -2
100
AcDbLine
 10
165.9543409258929
 20
453.4802852769063
 30
0.0
 11
150.7773626173871
 21
453.4802852769063
 31
0.0
  0
LINE
  5
AC6
330
AB9
100
AcDbEntity
  8
BEM
 62
     0
370
    -2
100
AcDbLine
 10
231.7197382541683
 20
313.4802852769063
 30
0.0
 11
150.7773626173871
 21
313.4802852769063
 31
0.0
  0
LINE
  5
AC7
330
AB9
100
AcDbEntity
  8
BEM
 62
     0
370
    -2
100
AcDbLine
 10
152.7773626173871
 20
446.4802852769063
 30
0.0
 11
152.7773626173871
 21
320.4802852769063
 31
0.0
  0
SOLID
  5
AC8
330
AB9
100
AcDbEntity
  8
BEM
 62
     0
100
AcDbTrace
 10
151.6106959507204
 20
446.4802852769063
 30
0.0
 11
153.9440292840538
 21
446.4802852769063
 31
0.0
 12
152.7773626173871
 22
453.4802852769063
 32
0.0
 13
152.7773626173871
 23
453.4802852769063
 33
0.0
  0
SOLID
  5
AC9
330
AB9
100
AcDbEntity
  8
BEM
 62
     0
100
AcDbTrace
 10
151.6106959507204
 20
320.4802852769063
 30
0.0
 11
153.9440292840538
 21
320.4802852769063
 31
0.0
 12
152.7773626173871
 22
313.4802852769063
 32
0.0
 13
152.7773626173871
 23
313.4802852769063
 33
0.0
  0
MTEXT
  5
ACA
330
AB9
100
AcDbEntity
  8
BEM
 62
     1
100
AcDbMText
 10
146.277362617387
 20
383.4802852769064
 30
0.0
 40
7.0
 41
0.0
 71
     5
 72
     1
  1
\A1;140
 11
0.0000000000000001
 21
1.0
 31
0.0
 73
     1
 44
1.0
  0
POINT
  5
ACB
330
AB9
100
AcDbEntity
  8
DEFPOINTS
 62
     0
100
AcDbPoint
 10
167.9543409258929
 20
453.4802852769063
 30
0.0
  0
POINT
  5
ACC
330
AB9
100
AcDbEntity
  8
DEFPOINTS
 62
     0
100
AcDbPoint
 10
233.7197382541683
 20
313.4802852769063
 30
0.0
  0
POINT
  5
ACD
330
AB9
100
AcDbEntity
  8
DEFPOINTS
 62
     0
100
AcDbPoint
 10
152.7773626173871
 20
313.4802852769063
 30
0.0
  0
ENDBLK
  5
AC4
330
AB9
100
AcDbEntity
  8
0
100
AcDbBlockEnd
  0
ENDSEC
  0
SECTION
  2
ENTITIES
  0
LINE
  5
5FD
102
{ACAD_REACTORS
330
968
330
996
102
}
330
1E
100
AcDbEntity
  8
STEMPEL
100
AcDbLine
 10
228.5984179106088
 20
339.4802852769063
 30
0.0
 11
230.0649105039784
 21
339.1650084563313
 31
0.0
  0
LINE
  5
5FE
102
{ACAD_REACTORS
330
968
330
996
102
}
330
1E
100
AcDbEntity
  8
STEMPEL
100
AcDbLine
 10
229.5420771223194
 20
336.7330780645848
 30
0.0
 11
230.0649105039784
 21
339.1650084563313
 31
0.0
  0
LINE
  5
5FF
102
{ACAD_REACTORS
330
996
102
}
330
1E
100
AcDbEntity
  8
STEMPEL
100
AcDbLine
 10
227.953456956833
 20
336.4802852769063
 30
0.0
 11
228.5984179106088
 21
339.4802852769063
 31
0.0
  0
LINE
  5
600
102
{ACAD_REACTORS
330
968
330
996
102
}
330
1E
100
AcDbEntity
  8
STEMPEL
100
AcDbLine
 10
185.4954386552569
 20
338.8174829153957
 30
0.0
 11
186.8410585977281
 21
339.4802852769063
 31
0.0
  0
LINE
  5
601
102
{ACAD_REACTORS
330
968
330
996
102
}
330
1E
100
AcDbEntity
  8
STEMPEL
100
AcDbLine
 10
186.8427398199276
 20
336.0821949608329
 30
0.0
 11
185.4954386552569
 21
338.8174829153957
 31
0.0
  0
LINE
  5
602
102
{ACAD_REACTORS
330
996
102
}
330
1E
100
AcDbEntity
  8
STEMPEL
100
AcDbLine
 10
188.3187470755609
 20
336.4802852769062
 30
0.0
 11
186.8410585977281
 21
339.4802852769063
 31
0.0
  0
LINE
  5
603
330
1E
100
AcDbEntity
  8
HILF
100
AcDbLine
 10
189.8221301188725
 20
336.4802852769063
 30
0.0
 11
226.4191839504961
 21
336.4802852769062
 31
0.0
  0
ARC
  5
607
102
{ACAD_REACTORS
330
968
102
}
330
1E
100
AcDbEntity
  8
SCHRAFF
100
AcDbCircle
 10
229.4664278424004
 20
340.7335956886746
 30
0.0
 40
3.337899635473309
100
AcDbArc
 50
273.773222575544
 51
12.926470620804
  0
ARC
  5
608
102
{ACAD_REACTORS
330
979
102
}
330
1E
100
AcDbEntity
  8
SCHRAFF
100
AcDbCircle
 10
240.3166707480939
 20
350.949876452768
 30
0.0
 40
2.540710329454549
100
AcDbArc
 50
256.4114961725138
 51
37.03872785781696
  0
ARC
  5
609
102
{ACAD_REACTORS
330
968
102
}
330
1E
100
AcDbEntity
  8
SCHRAFF
100
AcDbCircle
 10
185.9730486659366
 20
340.7335956886746
 30
0.0
 40
3.337899635473309
100
AcDbArc
 50
167.0735293791961
 51
273.7646646727709
  0
ARC
  5
60A
102
{ACAD_REACTORS
330
979
102
}
330
1E
100
AcDbEntity
  8
SCHRAFF
100
AcDbCircle
 10
175.1228057602432
 20
350.9498764527679
 30
0.0
 40
2.540710329454549
100
AcDbArc
 50
142.9612721421831
 51
283.5885038274863
  0
ARC
  5
60C
102
{ACAD_REACTORS
330
9F0
102
}
330
1E
100
AcDbEntity
  8
STEMPEL
100
AcDbCircle
 10
234.6197382541684
 20
359.9453501362471
 30
0.0
 40
9.599999999999999
100
AcDbArc
 50
342.6459753637382
 51
359.9999999999998
  0
ARC
  5
60D
102
{ACAD_REACTORS
330
9F0
102
}
330
1E
100
AcDbEntity
  8
STEMPEL
100
AcDbCircle
 10
180.8197382541682
 20
359.9453501362477
 30
0.0
 40
9.599999999999999
100
AcDbArc
 50
179.9999999999999
 51
197.3540246362622
  0
ARC
  5
60E
102
{ACAD_REACTORS
330
9F0
102
}
330
1E
100
AcDbEntity
  8
STEMPEL
100
AcDbCircle
 10
180.8197382541682
 20
359.9453501362477
 30
0.0
 40
8.0
100
AcDbArc
 50
179.9999999999999
 51
197.3540246362622
  0
ARC
  5
60F
102
{ACAD_REACTORS
330
9F0
102
}
330
1E
100
AcDbEntity
  8
STEMPEL
100
AcDbCircle
 10
234.6197382541684
 20
359.9453501362471
 30
0.0
 40
8.0
100
AcDbArc
 50
342.6459753637382
 51
359.9999999999998
  0
LINE
  5
610
102
{ACAD_REACTORS
330
9F0
102
}
330
1E
100
AcDbEntity
  8
STEMPEL
100
AcDbLine
 10
241.7197382541685
 20
350.4802852769064
 30
0.0
 11
240.1925702893125
 21
350.9575252659239
 31
0.0
  0
LINE
  5
611
102
{ACAD_REACTORS
330
979
330
9F0
102
}
330
1E
100
AcDbEntity
  8
STEMPEL
100
AcDbLine
 10
243.7827460433048
 20
357.0819102021418
 30
0.0
 11
241.7197382541685
 21
350.4802852769064
 31
0.0
  0
LINE
  5
612
102
{ACAD_REACTORS
330
9F0
102
}
330
1E
100
AcDbEntity
  8
STEMPEL
100
AcDbLine
 10
242.2555780784485
 20
357.5591501911594
 30
0.0
 11
240.1925702893125
 21
350.9575252659239
 31
0.0
  0
LINE
  5
613
102
{ACAD_REACTORS
330
9F0
102
}
330
1E
100
AcDbEntity
  8
STEMPEL
100
AcDbLine
 10
173.7197382541685
 20
350.4802852769063
 30
0.0
 11
175.2469062190246
 21
350.9575252659238
 31
0.0
  0
LINE
  5
614
102
{ACAD_REACTORS
330
9F0
102
}
330
1E
100
AcDbEntity
  8
STEMPEL
100
AcDbLine
 10
173.1838984298881
 20
357.55915019116
 30
0.0
 11
175.2469062190246
 21
350.9575252659238
 31
0.0
  0
LINE
  5
615
102
{ACAD_REACTORS
330
979
330
9F0
102
}
330
1E
100
AcDbEntity
  8
STEMPEL
100
AcDbLine
 10
171.656730465032
 20
357.0819102021425
 30
0.0
 11
173.7197382541685
 21
350.4802852769063
 31
0.0
  0
LINE
  5
616
330
1E
100
AcDbEntity
  8
HILF
100
AcDbLine
 10
174.5896832818641
 20
358.4802852769063
 30
0.0
 11
240.8497932264727
 21
358.4802852769063
 31
0.0
  0
LINE
  5
617
102
{ACAD_REACTORS
330
968
330
979
330
A43
102
}
330
1E
100
AcDbEntity
  8
STEMPEL
100
AcDbLine
 10
184.7197382541685
 20
339.4802852769063
 30
0.0
 11
173.7197382541685
 21
350.4802852769063
 31
0.0
  0
LINE
  5
618
102
{ACAD_REACTORS
330
A43
102
}
330
1E
100
AcDbEntity
  8
STEMPEL
100
AcDbLine
 10
186.8410585977281
 20
339.4802852769063
 30
0.0
 11
175.841058597728
 21
350.4802852769063
 31
0.0
  0
LINE
  5
619
102
{ACAD_REACTORS
330
A43
102
}
330
1E
100
AcDbEntity
  8
STEMPEL
100
AcDbLine
 10
228.5984179106088
 20
339.4802852769063
 30
0.0
 11
239.5984179106088
 21
350.4802852769063
 31
0.0
  0
LINE
  5
61A
102
{ACAD_REACTORS
330
968
330
979
330
A43
102
}
330
1E
100
AcDbEntity
  8
STEMPEL
100
AcDbLine
 10
230.7197382541685
 20
339.4802852769063
 30
0.0
 11
241.7197382541685
 21
350.4802852769063
 31
0.0
  0
LINE
  5
61B
102
{ACAD_REACTORS
330
968
330
A43
102
}
330
1E
100
AcDbEntity
  8
STEMPEL
100
AcDbLine
 10
184.7197382541685
 20
339.4802852769063
 30
0.0
 11
230.7197382541685
 21
339.4802852769063
 31
0.0
  0
LINE
  5
61C
102
{ACAD_REACTORS
330
A43
102
}
330
1E
100
AcDbEntity
  8
STEMPEL
100
AcDbLine
 10
173.7197382541685
 20
350.4802852769064
 30
0.0
 11
241.7197382541685
 21
350.4802852769064
 31
0.0
  0
LINE
  5
61D
102
{ACAD_REACTORS
330
9F0
102
}
330
1E
100
AcDbEntity
  8
STEMPEL
  6
Continuous
100
AcDbLine
 10
244.2197382541683
 20
359.945350136247
 30
0.0
 11
244.2197382541685
 21
393.1736856123377
 31
0.0
  0
LINE
  5
61E
102
{ACAD_REACTORS
330
9F0
102
}
330
1E
100
AcDbEntity
  8
STEMPEL
  6
Continuous
100
AcDbLine
 10
242.6197382541684
 20
359.945350136247
 30
0.0
 11
242.6197382541684
 21
393.1736856123377
 31
0.0
  0
ARC
  5
61F
102
{ACAD_REACTORS
330
9F0
102
}
330
1E
100
AcDbEntity
  8
STEMPEL
  6
Continuous
100
AcDbCircle
 10
235.3197382541684
 20
403.8690116943233
 30
0.0
 40
12.0
100
AcDbArc
 50
327.6719358778371
 51
359.9999999999998
  0
ARC
  5
620
102
{ACAD_REACTORS
330
9F0
102
}
330
1E
100
AcDbEntity
  8
STEMPEL
  6
Continuous
100
AcDbCircle
 10
235.3197382541684
 20
403.8690116943233
 30
0.0
 40
10.4
100
AcDbArc
 50
327.6719358778372
 51
359.9999999999998
  0
ARC
  5
621
102
{ACAD_REACTORS
330
9F0
102
}
330
1E
100
AcDbEntity
  8
STEMPEL
  6
Continuous
100
AcDbCircle
 10
252.2197382541685
 20
393.1736856123377
 30
0.0
 40
8.0
100
AcDbArc
 50
147.6719358778371
 51
180.0
  0
ARC
  5
622
102
{ACAD_REACTORS
330
9F0
102
}
330
1E
100
AcDbEntity
  8
STEMPEL
  6
Continuous
100
AcDbCircle
 10
252.2197382541685
 20
393.1736856123377
 30
0.0
 40
9.599999999999999
100
AcDbArc
 50
147.6719358778371
 51
180.0
  0
ARC
  5
623
102
{ACAD_REACTORS
330
9F0
102
}
330
1E
100
AcDbEntity
  8
STEMPEL
  6
Continuous
100
AcDbCircle
 10
259.3197382541684
 20
420.4802852769063
 30
0.0
 40
12.0
100
AcDbArc
 50
158.8168456069644
 51
179.9999999999999
  0
ARC
  5
624
102
{ACAD_REACTORS
330
9F0
102
}
330
1E
100
AcDbEntity
  8
STEMPEL
  6
Continuous
100
AcDbCircle
 10
259.3197382541684
 20
420.4802852769063
 30
0.0
 40
13.6
100
AcDbArc
 50
158.8168456069645
 51
179.9999999999999
  0
LINE
  5
625
102
{ACAD_REACTORS
330
9F0
102
}
330
1E
100
AcDbEntity
  8
STEMPEL
  6
Continuous
100
AcDbLine
 10
248.2197382541685
 20
442.9313628697876
 30
0.0
 11
248.2197382541685
 21
433.9163442428412
 31
0.0
  0
ARC
  5
626
102
{ACAD_REACTORS
330
9F0
102
}
330
1E
100
AcDbEntity
  8
STEMPEL
  6
Continuous
100
AcDbCircle
 10
224.8197382541686
 20
433.8502852769062
 30
0.0
 40
23.40009324312573
100
AcDbArc
 50
338.8168456069645
 51
0.1617474313041451
  0
ARC
  5
627
102
{ACAD_REACTORS
330
9F0
102
}
330
1E
100
AcDbEntity
  8
STEMPEL
  6
Continuous
100
AcDbCircle
 10
224.8197382541686
 20
442.9313628697876
 30
0.0
 40
23.4
100
AcDbArc
 50
0.0
 51
26.79557793123232
  0
LINE
  5
628
102
{ACAD_REACTORS
330
9F0
102
}
330
1E
100
AcDbEntity
  8
STEMPEL
  6
Continuous
100
AcDbLine
 10
247.3197382541684
 20
420.4802852769063
 30
0.0
 11
247.3197382541684
 21
403.8690116943233
 31
0.0
  0
LINE
  5
629
102
{ACAD_REACTORS
330
9F0
102
}
330
1E
100
AcDbEntity
  8
STEMPEL
  6
Continuous
100
AcDbLine
 10
245.7197382541683
 20
420.4802852769063
 30
0.0
 11
245.7197382541683
 21
403.8690116943233
 31
0.0
  0
LINE
  5
62A
102
{ACAD_REACTORS
330
9F0
102
}
330
1E
100
AcDbEntity
  8
STEMPEL
  6
Continuous
100
AcDbLine
 10
249.8197382541686
 20
442.9313628697876
 30
0.0
 11
249.8197382541686
 21
433.9185653251051
 31
0.0
  0
ARC
  5
62B
102
{ACAD_REACTORS
330
9F0
102
}
330
1E
100
AcDbEntity
  8
STEMPEL
  6
Continuous
100
AcDbCircle
 10
224.8197382541686
 20
442.9313628697876
 30
0.0
 40
25.0
100
AcDbArc
 50
0.0
 51
24.95819631231538
  0
ARC
  5
62C
102
{ACAD_REACTORS
330
9F0
102
}
330
1E
100
AcDbEntity
  8
STEMPEL
  6
Continuous
100
AcDbCircle
 10
224.8197382541686
 20
433.8502852769062
 30
0.0
 40
25.00009324312574
100
AcDbArc
 50
338.8168456069645
 51
0.1564859543701224
  0
LINE
  5
62D
102
{ACAD_REACTORS
330
9F0
102
}
330
1E
100
AcDbEntity
  8
STEMPEL
  6
Continuous
100
AcDbLine
 10
172.8197382541682
 20
359.9453501362477
 30
0.0
 11
172.8197382541682
 21
393.1736856123377
 31
0.0
  0
ARC
  5
62E
102
{ACAD_REACTORS
330
9F0
102
}
330
1E
100
AcDbEntity
  8
STEMPEL
  6
Continuous
100
AcDbCircle
 10
163.2197382541683
 20
393.1736856123377
 30
0.0
 40
9.599999999999999
100
AcDbArc
 50
0.0
 51
32.32806412216266
  0
ARC
  5
62F
102
{ACAD_REACTORS
330
9F0
102
}
330
1E
100
AcDbEntity
  8
STEMPEL
  6
Continuous
100
AcDbCircle
 10
180.1197382541684
 20
403.8690116943233
 30
0.0
 40
10.4
100
AcDbArc
 50
180.0
 51
212.3280641221628
  0
LINE
  5
630
102
{ACAD_REACTORS
330
9F0
102
}
330
1E
100
AcDbEntity
  8
STEMPEL
  6
Continuous
100
AcDbLine
 10
169.7197382541683
 20
420.4802852769063
 30
0.0
 11
169.7197382541683
 21
403.8690116943233
 31
0.0
  0
ARC
  5
631
102
{ACAD_REACTORS
330
9F0
102
}
330
1E
100
AcDbEntity
  8
STEMPEL
  6
Continuous
100
AcDbCircle
 10
156.1197382541684
 20
420.4802852769063
 30
0.0
 40
13.6
100
AcDbArc
 50
0.0
 51
21.18315439303557
  0
ARC
  5
632
102
{ACAD_REACTORS
330
9F0
102
}
330
1E
100
AcDbEntity
  8
STEMPEL
  6
Continuous
100
AcDbCircle
 10
190.6197382541684
 20
433.8502852769062
 30
0.0
 40
23.40009324312573
100
AcDbArc
 50
179.8382525687313
 51
201.1831543930354
  0
LINE
  5
633
102
{ACAD_REACTORS
330
9F0
102
}
330
1E
100
AcDbEntity
  8
STEMPEL
  6
Continuous
100
AcDbLine
 10
167.2197382541683
 20
442.9313628697876
 30
0.0
 11
167.2197382541683
 21
433.9163442428267
 31
0.0
  0
ARC
  5
634
102
{ACAD_REACTORS
330
9F0
102
}
330
1E
100
AcDbEntity
  8
STEMPEL
  6
Continuous
100
AcDbCircle
 10
190.6197382541684
 20
442.9313628697876
 30
0.0
 40
23.4
100
AcDbArc
 50
153.2044220687676
 51
180.0
  0
ARC
  5
635
102
{ACAD_REACTORS
330
9F0
102
}
330
1E
100
AcDbEntity
  8
STEMPEL
  6
Continuous
100
AcDbCircle
 10
163.2197382541683
 20
393.1736856123377
 30
0.0
 40
8.0
100
AcDbArc
 50
0.0
 51
32.32806412216284
  0
ARC
  5
636
102
{ACAD_REACTORS
330
9F0
102
}
330
1E
100
AcDbEntity
  8
STEMPEL
  6
Continuous
100
AcDbCircle
 10
180.1197382541684
 20
403.8690116943233
 30
0.0
 40
12.0
100
AcDbArc
 50
180.0
 51
212.3280641221628
  0
ARC
  5
637
102
{ACAD_REACTORS
330
9F0
102
}
330
1E
100
AcDbEntity
  8
STEMPEL
  6
Continuous
100
AcDbCircle
 10
190.6197382541684
 20
433.8502852769062
 30
0.0
 40
25.00009324312574
100
AcDbArc
 50
179.8435140456417
 51
201.1831543930354
  0
ARC
  5
638
102
{ACAD_REACTORS
330
9F0
102
}
330
1E
100
AcDbEntity
  8
STEMPEL
  6
Continuous
100
AcDbCircle
 10
156.1197382541684
 20
420.4802852769063
 30
0.0
 40
12.0
100
AcDbArc
 50
0.0
 51
21.18315439303543
  0
LINE
  5
639
102
{ACAD_REACTORS
330
9F0
102
}
330
1E
100
AcDbEntity
  8
STEMPEL
  6
Continuous
100
AcDbLine
 10
168.1197382541684
 20
420.4802852769063
 30
0.0
 11
168.1197382541684
 21
403.8690116943233
 31
0.0
  0
LINE
  5
63A
330
1E
100
AcDbEntity
  8
HILF
100
AcDbLine
 10
244.2095318281711
 20
422.130031246368
 30
0.0
 11
171.2299446801655
 21
422.130031246368
 31
0.0
  0
LINE
  5
63B
330
1E
100
AcDbEntity
  8
HILF
100
AcDbLine
 10
244.0494382320764
 20
402.7589043591011
 30
0.0
 11
171.3900382762601
 21
402.7589043591011
 31
0.0
  0
LINE
  5
63C
330
1E
100
AcDbEntity
  8
HILF
100
AcDbLine
 10
241.2140150222292
 20
395.2507162192268
 30
0.0
 11
174.2254614861076
 21
395.2507162192268
 31
0.0
  0
LINE
  5
63D
102
{ACAD_REACTORS
330
9F0
102
}
330
1E
100
AcDbEntity
  8
STEMPEL
  6
Continuous
100
AcDbLine
 10
171.2197382541683
 20
359.9453501362477
 30
0.0
 11
171.2197382541683
 21
393.1736856123377
 31
0.0
  0
ARC
  5
63E
102
{ACAD_REACTORS
330
9F0
102
}
330
1E
100
AcDbEntity
  8
STEMPEL
  6
Continuous
100
AcDbCircle
 10
190.6197382541684
 20
442.9313628697876
 30
0.0
 40
25.0
100
AcDbArc
 50
155.0418036876845
 51
180.0
  0
LINE
  5
63F
102
{ACAD_REACTORS
330
9F0
102
}
330
1E
100
AcDbEntity
  8
STEMPEL
  6
Continuous
100
AcDbLine
 10
165.6197382541684
 20
442.9313628697876
 30
0.0
 11
165.6197382541684
 21
433.9185653250999
 31
0.0
  0
ARC
  5
641
102
{ACAD_REACTORS
330
951
102
}
330
1E
100
AcDbEntity
  8
SCHRAFF
100
AcDbCircle
 10
287.7197382541683
 20
294.7319780442973
 30
0.0
 40
3.751015904887644
100
AcDbArc
 50
216.8905829069587
 51
323.1094170930406
  0
ARC
  5
642
102
{ACAD_REACTORS
330
951
102
}
330
1E
100
AcDbEntity
  8
SCHRAFF
100
AcDbCircle
 10
287.7197382541683
 20
332.2285925095155
 30
0.0
 40
3.751015904887644
100
AcDbArc
 50
36.89058290695943
 51
143.1094170930412
  0
LINE
  5
646
102
{ACAD_REACTORS
330
996
330
A2F
102
}
330
1E
100
AcDbEntity
  8
STEMPEL
100
AcDbLine
 10
287.7197382541683
 20
292.4802852769063
 30
0.0
 11
287.7197382541683
 21
334.4802852769063
 31
0.0
  0
DIMENSION
  5
649
330
1E
100
AcDbEntity
  8
BEM
100
AcDbDimension
  2
*D1
 10
233.7197382541682
 20
339.4802852769061
 30
0.0
 11
198.5026563005497
 21
296.9217280483494
 31
0.0
 70
   164
 71
     5
 42
26.0
  3
Standard
100
AcDbRadialDimension
 15
217.1440372756418
 25
319.4491560758231
 35
0.0
 40
0.0
1001
ACAD
1000
DSTYLE
1002
{
1070
    40
1040
2.0
1070
    41
1040
3.5
1070
    42
1040
1.0
1070
    43
1040
7.0
1070
    44
1040
1.0
1070
    73
1070
     0
1070
    74
1070
     0
1070
    77
1070
     1
1070
    78
1070
     8
1070
    79
1070
     2
1070
   140
1040
3.5
1070
   141
1040
1.5
1070
   146
1040
0.5142857142857144
1070
   147
1040
1.5
1070
   172
1070
     1
1070
   178
1070
     1
1070
   179
1070
     2
1070
   271
1070
     2
1070
   272
1070
     2
1070
   284
1070
     8
1070
   285
1070
     8
1070
   286
1070
     8
1002
}
  0
DIMENSION
  5
64B
330
1E
100
AcDbEntity
  8
BEM
100
AcDbDimension
  2
*D2
 10
728.9768025426674
 20
334.4802852769063
 30
0.0
 11
722.4768025426673
 21
313.4802852769065
 31
0.0
 70
    32
  1
%%c<>
 71
     5
 42
41.99999999999994
  3
Standard
100
AcDbAlignedDimension
 13
700.7852296685312
 23
292.4802852769064
 33
0.0
 14
700.7852296685309
 24
334.4802852769063
 34
0.0
 50
90.0
100
AcDbRotatedDimension
1001
ACAD
1000
DSTYLE
1002
{
1070
    40
1040
2.0
1070
    41
1040
3.5
1070
    42
1040
1.0
1070
    43
1040
7.0
1070
    44
1040
1.0
1070
    73
1070
     0
1070
    74
1070
     0
1070
    77
1070
     1
1070
    78
1070
     8
1070
    79
1070
     2
1070
   140
1040
3.5
1070
   141
1040
1.5
1070
   146
1040
0.5142857142857144
1070
   147
1040
1.5
1070
   172
1070
     1
1070
   178
1070
     1
1070
   179
1070
     2
1070
   271
1070
     2
1070
   272
1070
     2
1070
   284
1070
     8
1070
   285
1070
     8
1070
   286
1070
     8
1002
}
  0
DIMENSION
  5
64C
330
1E
100
AcDbEntity
  8
BEM
100
AcDbDimension
  2
*D3
 10
707.7197382541684
 20
258.6472532363504
 30
0.0
 11
457.7197382541683
 21
265.1472532363503
 31
0.0
 70
    32
 71
     5
 42
500.0
  3
Standard
100
AcDbAlignedDimension
 13
207.7197382541683
 23
339.4802852769063
 33
0.0
 14
707.7197382541684
 24
293.0869761652729
 34
0.0
100
AcDbRotatedDimension
1001
ACAD
1000
DSTYLE
1002
{
1070
    40
1040
2.0
1070
    41
1040
3.5
1070
    42
1040
1.0
1070
    43
1040
7.0
1070
    44
1040
1.0
1070
    73
1070
     0
1070
    74
1070
     0
1070
    77
1070
     1
1070
    78
1070
     8
1070
    79
1070
     2
1070
   140
1040
3.5
1070
   141
1040
1.5
1070
   146
1040
0.5142857142857144
1070
   147
1040
1.5
1070
   172
1070
     1
1070
   178
1070
     1
1070
   179
1070
     2
1070
   271
1070
     2
1070
   272
1070
     2
1070
   284
1070
     8
1070
   285
1070
     8
1070
   286
1070
     8
1002
}
  0
ARC
  5
64E
102
{ACAD_REACTORS
330
996
102
}
330
1E
100
AcDbEntity
  8
STEMPEL
100
AcDbCircle
 10
233.7197382541683
 20
339.4802852769063
 30
0.0
 40
45.49999999999999
100
AcDbArc
 50
183.780486237595
 51
270.0
  0
ARC
  5
64F
102
{ACAD_REACTORS
330
996
102
}
330
1E
100
AcDbEntity
  8
STEMPEL
100
AcDbCircle
 10
233.7197382541683
 20
339.4802852769063
 30
0.0
 40
6.5
100
AcDbArc
 50
207.4864262503819
 51
270.0
  0
ARC
  5
650
102
{ACAD_REACTORS
330
996
102
}
330
1E
100
AcDbEntity
  8
STEMPEL
100
AcDbCircle
 10
233.7197382541683
 20
339.4802852769063
 30
0.0
 40
47.0
100
AcDbArc
 50
184.1460905333639
 51
270.0
  0
ARC
  5
651
102
{ACAD_REACTORS
330
996
102
}
330
1E
100
AcDbEntity
  8
STEMPEL
100
AcDbCircle
 10
233.7197382541683
 20
339.4802852769063
 30
0.0
 40
5.0
100
AcDbArc
 50
213.3287020241629
 51
270.0
  0
LINE
  5
652
102
{ACAD_REACTORS
330
A2F
102
}
330
1E
100
AcDbEntity
  8
STEMPEL
100
AcDbLine
 10
700.7197382541683
 20
332.9802852769063
 30
0.0
 11
707.7197382541683
 21
332.3678646322247
 31
0.0
  0
LINE
  5
653
102
{ACAD_REACTORS
330
A2F
102
}
330
1E
100
AcDbEntity
  8
STEMPEL
100
AcDbLine
 10
700.7852296685309
 20
334.4802852769063
 30
0.0
 11
707.7197382541683
 21
333.8735943885398
 31
0.0
  0
LINE
  5
654
102
{ACAD_REACTORS
330
A2F
102
}
330
1E
100
AcDbEntity
  8
STEMPEL
100
AcDbLine
 10
700.7852296685317
 20
292.4802852769064
 30
0.0
 11
707.7197382541685
 21
293.0869761652729
 31
0.0
  0
LINE
  5
655
102
{ACAD_REACTORS
330
A2F
102
}
330
1E
100
AcDbEntity
  8
STEMPEL
100
AcDbLine
 10
700.7197382541684
 20
293.9802852769064
 30
0.0
 11
707.7197382541685
 21
294.5927059215879
 31
0.0
  0
LINE
  5
656
102
{ACAD_REACTORS
330
996
330
A2F
102
}
330
1E
100
AcDbEntity
  8
STEMPEL
100
AcDbLine
 10
700.7197382541684
 20
293.9802852769064
 30
0.0
 11
233.7197382541683
 21
293.9802852769063
 31
0.0
  0
LINE
  5
657
102
{ACAD_REACTORS
330
996
330
A2F
102
}
330
1E
100
AcDbEntity
  8
STEMPEL
100
AcDbLine
 10
700.7197382541683
 20
332.9802852769063
 30
0.0
 11
233.7197382541683
 21
332.9802852769063
 31
0.0
  0
LINE
  5
658
330
1E
100
AcDbEntity
  8
HILF
100
AcDbLine
 10
700.7197382541684
 20
295.4802852769064
 30
0.0
 11
700.7197382541683
 21
331.4802852769063
 31
0.0
  0
LINE
  5
659
102
{ACAD_REACTORS
330
951
330
996
330
A2F
102
}
330
1E
100
AcDbEntity
  8
STEMPEL
100
AcDbLine
 10
700.7852296685317
 20
292.4802852769064
 30
0.0
 11
233.7197382541683
 21
292.4802852769063
 31
0.0
  0
LINE
  5
65A
102
{ACAD_REACTORS
330
951
330
996
330
A2F
102
}
330
1E
100
AcDbEntity
  8
STEMPEL
100
AcDbLine
 10
700.7852296685309
 20
334.4802852769063
 30
0.0
 11
233.7197382541683
 21
334.4802852769063
 31
0.0
  0
ARC
  5
65B
330
1E
100
AcDbEntity
  8
MITTEL
100
AcDbCircle
 10
233.7197382541683
 20
339.4802852769063
 30
0.0
 40
26.0
100
AcDbArc
 50
180.0
 51
270.0
  0
TEXT
  5
65F
330
1E
100
AcDbEntity
  8
TEXT
100
AcDbText
 10
470.6189005955859
 20
113.2854817854125
 30
0.0
 40
5.0
  1
Erstellt mit AUTO-CAD 12.0
 41
0.8
  7
GREEKS
100
AcDbText
  0
LINE
  5
665
102
{ACAD_REACTORS
330
A2F
102
}
330
1E
100
AcDbEntity
  8
STEMPEL
100
AcDbLine
 10
707.7197382541685
 20
293.0869761652729
 30
0.0
 11
707.7197382541683
 21
333.8735943885398
 31
0.0
  0
LINE
  5
666
330
1E
100
AcDbEntity
  8
MITTEL
100
AcDbLine
 10
712.7197382541684
 20
313.4802852769063
 30
0.0
 11
233.7197382541683
 21
313.4802852769063
 31
0.0
  0
LINE
  5
667
102
{ACAD_REACTORS
330
9F0
102
}
330
1E
100
AcDbEntity
  8
STEMPEL
  6
Continuous
100
AcDbLine
 10
247.4851355824437
 20
453.4802852769063
 30
0.0
 11
167.9543409258929
 21
453.4802852769063
 31
0.0
  0
LINE
  5
668
330
1E
100
AcDbEntity
  8
MITTEL
100
AcDbLine
 10
207.7197382541683
 20
339.4802852769063
 30
0.0
 11
207.7197382541683
 21
458.4802852769063
 31
0.0
  0
TEXT
  5
669
330
1E
100
AcDbEntity
  8
TEXT
100
AcDbText
 10
624.2889439602947
 20
63.65553018610632
 30
0.0
 40
4.0
  1
Koeh
 41
0.8
  7
GREEKS
 72
     1
 11
629.5460868174376
 21
63.65553018610632
 31
0.0
100
AcDbText
  0
TEXT
  5
66A
330
1E
100
AcDbEntity
  8
TEXT
100
AcDbText
 10
589.368594660766
 20
63.66472427925334
 30
0.0
 40
4.0
  1
16.05.
 41
0.8
  7
GREEKS
 72
     1
 11
596.0733565655279
 21
63.66472427925334
 31
0.0
100
AcDbText
  0
LINE
  5
66B
330
1E
100
AcDbEntity
  8
BEM
100
AcDbLine
 10
460.0000000000001
 20
584.0
 30
0.0
 11
460.0000000000001
 21
594.0
 31
0.0
  0
LINE
  5
66C
330
1E
100
AcDbEntity
  8
BEM
100
AcDbLine
 10
460.0000000000001
 20
0.0
 30
0.0
 11
460.0000000000001
 21
10.0
 31
0.0
  0
INSERT
  5
66D
330
1E
100
AcDbEntity
  8
STEMPEL
100
AcDbBlockReference
  2
LOGO
 10
568.9705276546529
 20
44.32391971867144
 30
0.0
 41
2.0
 42
2.0
 43
2.0
  0
TEXT
  5
66E
330
1E
100
AcDbEntity
  8
TEXT
100
AcDbText
 10
654.9713400534564
 20
42.1950457301354
 30
0.0
 40
4.0
  1
05042CA0W.DWG
 41
0.8
  7
GREEKS
100
AcDbText
  0
TEXT
  5
66F
330
1E
100
AcDbEntity
  8
TEXT
 62
     1
100
AcDbText
 10
765.9711061509031
 20
87.01863741763572
 30
0.0
 40
7.0
  1
05042CA0W
 41
0.8
  7
GREEKS
 72
     1
 11
790.3711061509031
 21
87.01863741763572
 31
0.0
100
AcDbText
  0
TEXT
  5
670
330
1E
100
AcDbEntity
  8
TEXT
100
AcDbText
 10
836.4132055378062
 20
10.5537806176784
 30
0.0
 40
3.6
  1
Diese Zeichnung ist urheberrechtlich geschuetzt und bleibt unser Eigentum. Sie darf weder ganz noch teilweise vervielfaeltigt und nicht an Dritte weitegegeben werden.
 50
90.0
  7
GREEKS
100
AcDbText
  0
TEXT
  5
671
330
1E
100
AcDbEntity
  8
TEXT
100
AcDbText
 10
655.162303158329
 20
52.75131145345461
 30
0.0
 40
5.0
  1
EDV-Art.Nr. 05042.CA0X
 41
0.8
  7
GREEKS
100
AcDbText
  0
TEXT
  5
672
330
1E
100
AcDbEntity
  8
TEXT
100
AcDbText
 10
654.862987254257
 20
72.29651127304094
 30
0.0
 40
5.0
  1
DN 70/40
 41
0.8
  7
GREEKS
100
AcDbText
  0
TEXT
  5
673
330
1E
100
AcDbEntity
  8
TEXT
 62
     1
100
AcDbText
 10
578.8064310364449
 20
86.22410504373215
 30
0.0
 40
7.0
  1
1:2
 41
0.8
  7
GREEKS
100
AcDbText
  0
TEXT
  5
674
330
1E
100
AcDbEntity
  8
TEXT
100
AcDbText
 10
570.7299860699794
 20
73.14583683904146
 30
0.0
 40
4.0
  1
2008
 41
0.8
  7
GREEKS
100
AcDbText
  0
LINE
  5
675
330
1E
100
AcDbEntity
  8
STEMPEL
100
AcDbLine
 10
40.0
 20
584.0
 30
0.0
 11
40.0
 21
10.0
 31
0.0
  0
LINE
  5
676
330
1E
100
AcDbEntity
  8
STEMPEL
100
AcDbLine
 10
830.0
 20
10.0
 30
0.0
 11
830.0
 21
584.0
 31
0.0
  0
LINE
  5
677
330
1E
100
AcDbEntity
  8
STEMPEL
100
AcDbLine
 10
40.0
 20
10.0
 30
0.0
 11
830.0
 21
10.0
 31
0.0
  0
LINE
  5
678
330
1E
100
AcDbEntity
  8
STEMPEL
100
AcDbLine
 10
830.0
 20
584.0
 30
0.0
 11
40.0
 21
584.0
 31
0.0
  0
LINE
  5
679
330
1E
100
AcDbEntity
  8
HILF
100
AcDbLine
 10
0.0
 20
594.0
 30
0.0
 11
0.0
 21
0.0
 31
0.0
  0
LINE
  5
67A
330
1E
100
AcDbEntity
  8
HILF
100
AcDbLine
 10
840.0000000000002
 20
594.0
 30
0.0
 11
0.0
 21
594.0
 31
0.0
  0
LINE
  5
67B
330
1E
100
AcDbEntity
  8
HILF
100
AcDbLine
 10
840.0000000000002
 20
0.0
 30
0.0
 11
840.0000000000002
 21
594.0
 31
0.0
  0
LINE
  5
67C
330
1E
100
AcDbEntity
  8
HILF
100
AcDbLine
 10
0.0
 20
0.0
 30
0.0
 11
840.0000000000002
 21
0.0
 31
0.0
  0
TEXT
  5
67D
330
1E
100
AcDbEntity
  8
TEXT
100
AcDbText
 10
757.2400861497007
 20
52.07416177878599
 30
0.0
 40
5.0
  1
ersetzt durch:
 41
0.8
  7
GREEKS
100
AcDbText
  0
TEXT
  5
67E
330
1E
100
AcDbEntity
  8
TEXT
100
AcDbText
 10
567.6006777387303
 20
43.52946389649804
 30
0.0
 40
4.0
  1
Norm.
 41
0.8
  7
GREEKS
100
AcDbText
  0
TEXT
  5
67F
330
1E
100
AcDbEntity
  8
TEXT
100
AcDbText
 10
567.5515086571671
 20
53.68926291428374
 30
0.0
 40
4.0
  1
Gepr.
 41
0.8
  7
GREEKS
100
AcDbText
  0
TEXT
  5
680
330
1E
100
AcDbEntity
  8
TEXT
100
AcDbText
 10
567.5836127167614
 20
63.62990369617961
 30
0.0
 40
4.0
  1
Gez.
 41
0.8
  7
GREEKS
100
AcDbText
  0
TEXT
  5
681
330
1E
100
AcDbEntity
  8
TEXT
100
AcDbText
 10
622.4626584226294
 20
73.30961091915219
 30
0.0
 40
4.0
  1
Name
 41
0.8
  7
GREEKS
100
AcDbText
  0
TEXT
  5
682
330
1E
100
AcDbEntity
  8
TEXT
100
AcDbText
 10
592.3311673153649
 20
73.31880501229921
 30
0.0
 40
4.0
  1
Tag
 41
0.8
  7
GREEKS
100
AcDbText
  0
TEXT
  5
683
330
1E
100
AcDbEntity
  8
TEXT
100
AcDbText
 10
548.220150471768
 20
18.59324216966405
 30
0.0
 40
4.0
  1
Name
 41
0.8
  7
GREEKS
100
AcDbText
  0
TEXT
  5
684
330
1E
100
AcDbEntity
  8
TEXT
100
AcDbText
 10
529.4723536997202
 20
18.67156269339807
 30
0.0
 40
4.0
  1
Tag
 41
0.8
  7
GREEKS
100
AcDbText
  0
TEXT
  5
685
330
1E
100
AcDbEntity
  8
TEXT
100
AcDbText
 10
478.2664110704574
 20
13.65465846027189
 30
0.0
 40
4.0
  1
Index
 50
90.0
 41
0.8
  7
GREEKS
100
AcDbText
  0
TEXT
  5
686
330
1E
100
AcDbEntity
  8
TEXT
100
AcDbText
 10
756.7238616296994
 20
73.18118237099963
 30
0.0
 40
5.0
  1
Ersatz für:
 41
0.8
  7
GREEKS
100
AcDbText
  0
TEXT
  5
687
330
1E
100
AcDbEntity
  8
TEXT
100
AcDbText
 10
654.7422383911358
 20
30.84560570193054
 30
0.0
 40
5.0
  1
Bauvorhaben
 41
0.8
  7
GREEKS
100
AcDbText
  0
TEXT
  5
688
330
1E
100
AcDbEntity
  8
TEXT
100
AcDbText
 10
756.1787549576341
 20
102.3132034537135
 30
0.0
 40
5.0
  1
Zeichnungs Nr.
 41
0.8
  7
GREEKS
100
AcDbText
  0
TEXT
  5
689
330
1E
100
AcDbEntity
  8
TEXT
100
AcDbText
 10
654.8779403809009
 20
102.5489328011779
 30
0.0
 40
5.0
  1
Benennung
 41
0.8
  7
GREEKS
100
AcDbText
  0
TEXT
  5
68A
330
1E
100
AcDbEntity
  8
TEXT
100
AcDbText
 10
617.9646614905597
 20
102.4184168434818
 30
0.0
 40
5.0
  1
zul.Abw.
 41
0.8
  7
GREEKS
100
AcDbText
  0
TEXT
  5
68B
330
1E
100
AcDbEntity
  8
TEXT
100
AcDbText
 10
573.5163572150375
 20
102.4620895087088
 30
0.0
 40
5.0
  1
Maßstab
 41
0.8
  7
GREEKS
100
AcDbText
  0
TEXT
  5
68C
330
1E
100
AcDbEntity
  8
TEXT
100
AcDbText
 10
492.3831816424238
 20
18.67381894984129
 30
0.0
 40
4.0
  1
Änderung
 41
0.8
  7
GREEKS
100
AcDbText
  0
LINE
  5
68D
330
1E
100
AcDbEntity
  8
HILF
100
AcDbLine
 10
654.7736801096947
 20
14.89398258028302
 30
0.0
 11
824.8588839326728
 21
14.89398258028302
 31
0.0
  0
LINE
  5
68E
330
1E
100
AcDbEntity
  8
HILF
100
AcDbLine
 10
756.7238616296994
 20
83.77983636955821
 30
0.0
 11
824.8588839326728
 21
83.77983636955821
 31
0.0
  0
LINE
  5
68F
330
1E
100
AcDbEntity
  8
VOLL
100
AcDbLine
 10
752.0000000000001
 20
60.0
 30
0.0
 11
830.0
 21
60.0
 31
0.0
  0
LINE
  5
690
330
1E
100
AcDbEntity
  8
HILF
100
AcDbLine
 10
654.7736801096947
 20
50.0
 30
0.0
 11
746.629784251481
 21
50.0
 31
0.0
  0
LINE
  5
691
330
1E
100
AcDbEntity
  8
HILF
100
AcDbLine
 10
654.7736801096947
 20
60.0
 30
0.0
 11
746.629784251481
 21
60.0
 31
0.0
  0
LINE
  5
692
330
1E
100
AcDbEntity
  8
HILF
100
AcDbLine
 10
654.7736801096947
 20
70.0
 30
0.0
 11
746.629784251481
 21
70.0
 31
0.0
  0
LINE
  5
693
330
1E
100
AcDbEntity
  8
HILF
100
AcDbLine
 10
654.7736801096947
 20
84.03758247564132
 30
0.0
 11
746.629784251481
 21
84.03758247564132
 31
0.0
  0
LINE
  5
694
330
1E
100
AcDbEntity
  8
HILF
100
AcDbLine
 10
566.0000000000001
 20
50.0
 30
0.0
 11
649.9999999999999
 21
50.0
 31
0.0
  0
LINE
  5
695
330
1E
100
AcDbEntity
  8
HILF
100
AcDbLine
 10
566.0000000000001
 20
60.0
 30
0.0
 11
649.9999999999999
 21
60.0
 31
0.0
  0
LINE
  5
696
330
1E
100
AcDbEntity
  8
HILF
100
AcDbLine
 10
566.0000000000001
 20
70.0
 30
0.0
 11
649.9999999999999
 21
70.0
 31
0.0
  0
LINE
  5
697
330
1E
100
AcDbEntity
  8
HILF
100
AcDbLine
 10
470.0
 20
40.0
 30
0.0
 11
566.0000000000001
 21
40.0
 31
0.0
  0
LINE
  5
698
330
1E
100
AcDbEntity
  8
HILF
100
AcDbLine
 10
470.0
 20
50.0
 30
0.0
 11
566.0000000000001
 21
50.0
 31
0.0
  0
LINE
  5
699
330
1E
100
AcDbEntity
  8
HILF
100
AcDbLine
 10
470.0
 20
60.0
 30
0.0
 11
566.0000000000001
 21
60.0
 31
0.0
  0
LINE
  5
69A
330
1E
100
AcDbEntity
  8
HILF
100
AcDbLine
 10
470.0
 20
70.0
 30
0.0
 11
566.0000000000001
 21
70.0
 31
0.0
  0
LINE
  5
69B
330
1E
100
AcDbEntity
  8
HILF
100
AcDbLine
 10
470.0
 20
80.0
 30
0.0
 11
566.0000000000001
 21
80.0
 31
0.0
  0
LINE
  5
69C
330
1E
100
AcDbEntity
  8
HILF
100
AcDbLine
 10
470.0
 20
90.0
 30
0.0
 11
566.0000000000001
 21
90.0
 31
0.0
  0
LINE
  5
69D
330
1E
100
AcDbEntity
  8
HILF
100
AcDbLine
 10
470.0
 20
100.0
 30
0.0
 11
566.0000000000001
 21
100.0
 31
0.0
  0
LINE
  5
69E
330
1E
100
AcDbEntity
  8
VOLL
100
AcDbLine
 10
610.0000000000001
 20
109.9999999999998
 30
0.0
 11
609.9999999999998
 21
40.0
 31
0.0
  0
LINE
  5
69F
330
1E
100
AcDbEntity
  8
VOLL
100
AcDbLine
 10
584.0000000000001
 20
80.0
 30
0.0
 11
584.0000000000001
 21
40.0
 31
0.0
  0
LINE
  5
6A0
330
1E
100
AcDbEntity
  8
VOLL
100
AcDbLine
 10
544.0000000000001
 20
109.9999999999999
 30
0.0
 11
543.9999999999998
 21
9.999999999999886
 31
0.0
  0
LINE
  5
6A1
330
1E
100
AcDbEntity
  8
VOLL
100
AcDbLine
 10
524.0000000000001
 20
109.9999999999999
 30
0.0
 11
523.9999999999999
 21
9.999999999999943
 31
0.0
  0
LINE
  5
6A2
330
1E
100
AcDbEntity
  8
VOLL
100
AcDbLine
 10
484.0
 20
110.0
 30
0.0
 11
483.9999999999998
 21
10.0
 31
0.0
  0
LINE
  5
6A3
330
1E
100
AcDbEntity
  8
STEMPEL
100
AcDbLine
 10
830.0
 20
80.0
 30
0.0
 11
566.0000000000001
 21
80.0
 31
0.0
  0
LINE
  5
6A4
330
1E
100
AcDbEntity
  8
STEMPEL
100
AcDbLine
 10
830.0
 20
40.0
 30
0.0
 11
565.9999999999999
 21
40.0
 31
0.0
  0
LINE
  5
6A5
330
1E
100
AcDbEntity
  8
STEMPEL
100
AcDbLine
 10
565.9999999999999
 20
30.0
 30
0.0
 11
469.9999999999999
 21
30.0
 31
0.0
  0
LINE
  5
6A6
330
1E
100
AcDbEntity
  8
STEMPEL
100
AcDbLine
 10
752.0000000000001
 20
109.9999999999996
 30
0.0
 11
752.0000000000001
 21
40.0
 31
0.0
  0
LINE
  5
6A7
330
1E
100
AcDbEntity
  8
STEMPEL
100
AcDbLine
 10
649.9999999999999
 20
110.0
 30
0.0
 11
649.9999999999999
 21
10.0
 31
0.0
  0
LINE
  5
6A8
330
1E
100
AcDbEntity
  8
STEMPEL
100
AcDbLine
 10
566.0000000000001
 20
109.9999999999999
 30
0.0
 11
565.9999999999999
 21
9.999999999999886
 31
0.0
  0
LINE
  5
6A9
330
1E
100
AcDbEntity
  8
STEMPEL
100
AcDbLine
 10
470.0
 20
110.0
 30
0.0
 11
469.9999999999999
 21
10.0
 31
0.0
  0
LINE
  5
6AA
330
1E
100
AcDbEntity
  8
STEMPEL
100
AcDbLine
 10
830.0
 20
110.0
 30
0.0
 11
470.0
 21
110.0
 31
0.0
  0
TEXT
  5
6AB
330
1E
100
AcDbEntity
  8
TEXT
 62
     1
100
AcDbText
 10
654.979117340995
 20
86.99412083985322
 30
0.0
 40
7.0
  1
LORO-Anschlußbogen
 41
0.8
  7
GREEKS
100
AcDbText
  0
DIMENSION
  5
932
330
1E
100
AcDbEntity
  8
BEM
100
AcDbDimension
  2
*D4
 10
207.7197382541683
 20
363.315010001673
 30
0.0
 11
173.4658059446143
 21
279.2263529673523
 31
0.0
 70
    34
 71
     5
 42
1.570796326794896
  3
Standard
100
AcDb2LineAngularDimension
 13
712.7197382541684
 23
313.4802852769063
 33
0.0
 14
233.7197382541683
 24
313.4802852769063
 34
0.0
 15
207.7197382541683
 25
339.4802852769063
 35
0.0
 16
160.1382452084486
 26
286.0090974585157
 36
0.0
1001
ACAD
1000
DSTYLE
1002
{
1070
    40
1040
2.0
1070
    41
1040
3.5
1070
    42
1040
1.0
1070
    43
1040
7.0
1070
    44
1040
1.0
1070
    73
1070
     0
1070
    74
1070
     0
1070
    77
1070
     1
1070
    78
1070
     8
1070
    79
1070
     2
1070
   140
1040
3.5
1070
   141
1040
1.5
1070
   146
1040
0.5142857142857144
1070
   147
1040
1.5
1070
   172
1070
     1
1070
   178
1070
     1
1070
   179
1070
     2
1070
   271
1070
     2
1070
   272
1070
     2
1070
   284
1070
     8
1070
   285
1070
     8
1070
   286
1070
     8
1002
}
  0
HATCH
  5
951
330
1E
100
AcDbEntity
  8
SCHRAFF
100
AcDbHatch
 10
0.0
 20
0.0
 30
0.0
210
0.0
220
0.0
230
1.0
  2
_USER
 70
     0
 71
     1
 91
        2
 92
        7
 72
     1
 73
     1
 93
        2
 10
290.7197382541683
 20
334.4802852769063
 42
0.4997743791656085
 10
284.7197382541683
 20
334.4802852769063
 42
0.0
 97
        2
330
65A
330
642
 92
        7
 72
     1
 73
     1
 93
        2
 10
284.7197382541683
 20
292.4802852769064
 42
0.4997743791656088
 10
290.7197382541683
 20
292.4802852769063
 42
0.0
 97
        2
330
659
330
641
 75
     0
 76
     0
 52
0.0
 41
0.1
 77
     0
 78
     1
 53
0.0
 43
0.0
 44
0.0
 45
0.0
 46
0.1
 79
     0
 47
0.3273182598062359
 98
        2
 10
287.9430653441066
 20
335.2135268944699
 10
287.9430653441066
 20
292.007515940488
  0
HATCH
  5
968
330
1E
100
AcDbEntity
  8
SCHRAFF
100
AcDbHatch
 10
0.0
 20
0.0
 30
0.0
210
0.0
220
0.0
230
1.0
  2
_USER
 70
     0
 71
     1
 91
        2
 92
        7
 72
     1
 73
     1
 93
        5
 10
232.7197382541686
 20
341.4802852769064
 42
0.0
 10
230.7197382541686
 20
339.4802852769063
 42
0.0
 10
228.5984179106088
 20
339.4802852769062
 42
0.0
 10
230.0649105039785
 20
339.1650084563314
 42
0.0
 10
229.6860868944666
 20
337.4029315090645
 42
0.461817345765774
 97
        5
330
61A
330
61B
330
5FD
330
5FE
330
607
 92
        7
 72
     1
 73
     1
 93
        5
 10
182.7197382541685
 20
341.4802852769063
 42
0.5023525762722599
 10
186.1922102356273
 20
337.4028987371547
 42
0.0
 10
185.4954386552569
 20
338.8174829153957
 42
0.0
 10
186.8410585977282
 20
339.4802852769063
 42
0.0
 10
184.7197382541684
 20
339.4802852769063
 42
0.0
 97
        5
330
609
330
601
330
600
330
61B
330
617
 75
     0
 76
     0
 52
0.0
 41
0.1
 77
     0
 78
     1
 53
0.0
 43
0.0
 44
0.0
 45
0.0
 46
0.1
 79
     0
 47
0.3273182598062359
 98
        2
 10
230.9553022777834
 20
338.4867091402948
 10
183.4654997225145
 20
339.795981479773
  0
HATCH
  5
979
330
1E
100
AcDbEntity
  8
SCHRAFF
100
AcDbHatch
 10
0.0
 20
0.0
 30
0.0
210
0.0
220
0.0
230
1.0
  2
_USER
 70
     0
 71
     1
 91
        2
 92
        7
 72
     1
 73
     1
 93
        3
 10
242.3447382541686
 20
352.4802852769064
 42
0.0
 10
241.7197382541685
 20
350.4802852769062
 42
0.0
 10
239.7197382541687
 20
348.4802852769064
 42
0.7042940284539411
 97
        3
330
611
330
61A
330
608
 92
        7
 72
     1
 73
     1
 93
        3
 10
173.0947382541685
 20
352.4802852769064
 42
0.7042940284539484
 10
175.7197382541684
 20
348.4802852769063
 42
0.0
 10
173.7197382541685
 20
350.4802852769064
 42
0.0
 97
        3
330
60A
330
617
330
615
 75
     0
 76
     0
 52
0.0
 41
0.1
 77
     0
 78
     1
 53
0.0
 43
0.0
 44
0.0
 45
0.0
 46
0.1
 79
     0
 47
0.1130876603981479
 98
        2
 10
242.1003732212509
 20
349.9455301877456
 10
173.1884068560914
 20
350.9633194150099
  0
HATCH
  5
996
330
1E
100
AcDbEntity
  8
SCHRAFF
100
AcDbHatch
 10
0.0
 20
0.0
 30
0.0
210
0.0
220
0.0
230
1.0
  2
_USER
 70
     0
 71
     1
 91
        2
 92
       23
 72
     1
 73
     1
 93
        8
 10
287.7197382541683
 20
332.9802852769063
 42
0.0
 10
287.7197382541683
 20
334.4802852769063
 42
0.0
 10
233.7197382541683
 20
334.4802852769063
 42
-0.2524414607802596
 10
229.5420771223192
 20
336.7330780645838
 42
0.0
 10
230.0649105039784
 20
339.1650084563314
 42
0.0
 10
228.5984179106087
 20
339.4802852769063
 42
0.0
 10
227.953456956833
 20
336.4802852769063
 42
0.2797392812230322
 10
233.7197382541683
 20
332.9802852769063
 42
0.0
 97
        8
330
65A
330
651
330
5FE
330
5FD
330
5FF
330
64F
330
657
330
646
 92
        7
 72
     1
 73
     1
 93
        8
 10
287.7197382541683
 20
292.4802852769064
 42
0.0
 10
287.7197382541682
 20
293.9802852769063
 42
0.0
 10
233.7197382541683
 20
293.9802852769063
 42
-0.3950173219843981
 10
188.3187470755608
 20
336.4802852769063
 42
0.0
 10
186.8410585977281
 20
339.4802852769063
 42
0.0
 10
185.4954386552569
 20
338.8174829153958
 42
0.0
 10
186.8427398199276
 20
336.0821949608329
 42
0.3931743114544615
 10
233.7197382541683
 20
292.4802852769063
 42
0.0
 97
        8
330
656
330
64E
330
602
330
600
330
601
330
650
330
659
330
646
 75
     0
 76
     0
 52
45.0
 41
2.0
 77
     0
 78
     1
 53
45.0
 43
0.0
 44
0.0
 45
-1.414213562373094
 46
1.414213562373095
 79
     0
 47
0.3273182598062359
 98
        2
 10
246.0210329682279
 20
333.2496169881231
 10
241.1082955965164
 20
292.9894701950968
  0
HATCH
  5
9F0
330
1E
100
AcDbEntity
  8
SCHRAFF
100
AcDbHatch
 10
0.0
 20
0.0
 30
0.0
210
0.0
220
0.0
230
1.0
  2
_USER
 70
     0
 71
     1
 91
        2
 92
        7
 72
     1
 73
     1
 93
       22
 10
249.8197382541686
 20
433.9185653251051
 42
0.0
 10
249.8197382541686
 20
442.9313628697876
 42
0.109333224602075
 10
247.485135582444
 20
453.4802852769063
 42
0.0
 10
245.7070606303994
 20
453.4802852769063
 42
-0.1174534402570149
 10
248.2197382541685
 20
442.9313628697876
 42
0.0
 10
248.2197382541685
 20
433.9163442428412
 42
-0.093404927192811
 10
246.6386891304026
 20
425.3946512706671
 42
0.0926930603363694
 10
245.7197382541683
 20
420.4802852769056
 42
0.0
 10
245.7197382541683
 20
403.8690116943233
 42
-0.1420008527982316
 10
244.1077382541684
 20
398.3074421316908
 42
0.1420008527982332
 10
242.6197382541684
 20
393.1736856123377
 42
0.0
 10
242.6197382541684
 20
359.945350136247
 42
-0.0758662707634285
 10
242.2555780784485
 20
357.5591501911596
 42
0.0
 10
240.1925702893125
 20
350.9575252659239
 42
0.0
 10
241.7197382541686
 20
350.4802852769064
 42
0.0
 10
243.7827460433048
 20
357.0819102021418
 42
0.0758662707634255
 10
244.2197382541683
 20
359.9453501362465
 42
0.0
 10
244.2197382541685
 20
393.1736856123377
 42
-0.1420008527982322
 10
245.4597382541686
 20
397.4518160451319
 42
0.1420008527982314
 10
247.3197382541684
 20
403.8690116943233
 42
0.0
 10
247.3197382541684
 20
420.4802852769063
 42
-0.0926930603363572
 10
248.1305772626102
 20
424.8164905655189
 42
0.0933817694259918
 97
       22
330
62A
330
62B
330
667
330
627
330
625
330
626
330
624
330
629
330
620
330
622
330
61E
330
60F
330
612
330
610
330
611
330
60C
330
61D
330
621
330
61F
330
628
330
623
330
62C
 92
        7
 72
     1
 73
     1
 93
       22
 10
167.2197382541683
 20
442.9313628697876
 42
-0.1174534402570152
 10
169.7324158779376
 20
453.4802852769063
 42
0.0
 10
167.9543409258929
 20
453.4802852769063
 42
0.1093332246020709
 10
165.6197382541684
 20
442.931362869788
 42
0.0
 10
165.6197382541684
 20
433.9185653250999
 42
0.0933817694259403
 10
167.3088992457266
 20
424.8164905655188
 42
-0.0926930603363582
 10
168.1197382541684
 20
420.4802852769062
 42
0.0
 10
168.1197382541684
 20
403.8690116943233
 42
0.1420008527982315
 10
169.9797382541684
 20
397.451816045132
 42
-0.1420008527982328
 10
171.2197382541683
 20
393.1736856123377
 42
0.0
 10
171.2197382541683
 20
359.9453501362477
 42
0.0758662707634443
 10
171.6567304650321
 20
357.0819102021423
 42
0.0
 10
173.7197382541685
 20
350.4802852769062
 42
0.0
 10
175.2469062190246
 20
350.9575252659238
 42
0.0
 10
173.1838984298881
 20
357.55915019116
 42
-0.0758662707634494
 10
172.8197382541682
 20
359.9453501362481
 42
0.0
 10
172.8197382541682
 20
393.1736856123377
 42
0.1420008527982334
 10
171.3317382541683
 20
398.3074421316908
 42
-0.1420008527982315
 10
169.7197382541683
 20
403.8690116943233
 42
0.0
 10
169.7197382541683
 20
420.4802852769063
 42
0.0926930603363595
 10
168.8007873779343
 20
425.3946512706673
 42
-0.0934049271926537
 10
167.2197382541683
 20
433.9163442428267
 42
0.0
 97
       22
330
634
330
667
330
63E
330
63F
330
637
330
638
330
639
330
636
330
635
330
63D
330
60D
330
615
330
613
330
614
330
60E
330
62D
330
62E
330
62F
330
630
330
631
330
632
330
633
 75
     0
 76
     0
 52
45.0
 41
2.0
 77
     0
 78
     1
 53
45.0
 43
0.0
 44
0.0
 45
-1.414213562373094
 46
1.414213562373095
 79
     0
 47
0.2680233564742451
 98
        2
 10
249.1283488397337
 20
433.6755693580207
 10
166.7954995441253
 20
436.6238268016836
  0
HATCH
  5
A2F
330
1E
100
AcDbEntity
  8
SCHRAFF
100
AcDbHatch
 10
0.0
 20
0.0
 30
0.0
210
0.0
220
0.0
230
1.0
  2
_USER
 70
     0
 71
     1
 91
        2
 92
        7
 72
     0
 73
     1
 93
        6
 10
707.7197382541683
 20
333.8735943885398
 10
700.7852296685315
 20
334.4802852769063
 10
287.7197382541683
 20
334.4802852769063
 10
287.7197382541683
 20
332.9802852769063
 10
700.7197382541684
 20
332.9802852769063
 10
707.7197382541681
 20
332.3678646322248
 97
        6
330
653
330
65A
330
646
330
657
330
652
330
665
 92
        7
 72
     0
 73
     1
 93
        6
 10
707.7197382541684
 20
293.0869761652729
 10
707.7197382541684
 20
294.5927059215879
 10
700.7197382541684
 20
293.9802852769064
 10
287.7197382541682
 20
293.9802852769063
 10
287.7197382541684
 20
292.4802852769064
 10
700.7852296685318
 20
292.4802852769064
 97
        6
330
665
330
655
330
656
330
646
330
659
330
654
 75
     0
 76
     0
 52
135.0
 41
2.0
 77
     0
 78
     1
 53
135.0
 43
0.0
 44
0.0
 45
-1.414213562373095
 46
-1.414213562373094
 79
     0
 47
0.4953428529864145
 98
        2
 10
520.8593437696793
 20
333.5851473997605
 10
511.937789285512
 20
292.9670336936395
  0
HATCH
  5
A43
330
1E
100
AcDbEntity
  8
SCHRAFF
100
AcDbHatch
 10
0.0
 20
0.0
 30
0.0
210
0.0
220
0.0
230
1.0
  2
_USER
 70
     0
 71
     1
 91
        2
 92
        7
 72
     0
 73
     1
 93
        4
 10
241.7197382541686
 20
350.4802852769064
 10
239.5984179106088
 20
350.4802852769064
 10
228.5984179106087
 20
339.4802852769063
 10
230.7197382541686
 20
339.4802852769063
 97
        4
330
61C
330
619
330
61B
330
61A
 92
        7
 72
     0
 73
     1
 93
        4
 10
175.8410585977279
 20
350.4802852769064
 10
173.7197382541684
 20
350.4802852769064
 10
184.7197382541684
 20
339.4802852769063
 10
186.8410585977281
 20
339.4802852769063
 97
        4
330
61C
330
617
330
61B
330
618
 75
     0
 76
     0
 52
135.0
 41
2.0
 77
     0
 78
     1
 53
135.0
 43
0.0
 44
0.0
 45
-1.414213562373095
 46
-1.414213562373094
 79
     0
 47
0.1514757322379141
 98
        2
 10
237.1871146965834
 20
346.4715538978987
 10
181.5619581494841
 20
343.7449901573462
  0
TEXT
  5
A44
330
1E
100
AcDbEntity
  8
TEXT
 62
     1
100
AcDbText
 10
497.4976881398184
 20
320.535242576043
 30
0.0
 40
7.0
  1
DN40
 41
0.8
  7
GREEKS
100
AcDbText
  0
TEXT
  5
A45
330
1E
100
AcDbEntity
  8
TEXT
 62
     1
100
AcDbText
 10
203.5023423981081
 20
425.6243344505654
 30
0.0
 40
7.0
  1
DN70
 50
90.0
 41
0.8
  7
GREEKS
100
AcDbText
  0
TEXT
  5
A46
330
1E
100
AcDbEntity
  8
TEXT
100
AcDbText
 10
613.0623689738784
 20
88.90224593904305
 30
0.0
 40
4.0
  1
DIN EN1123-2
 41
0.8
  7
GREEKS
 72
     1
 11
630.0528451643546
 21
88.90224593904305
 31
0.0
100
AcDbText
  0
TEXT
  5
A50
330
1E
100
AcDbEntity
  8
TEXT
 62
     1
100
AcDbText
 10
664.6057658946467
 20
129.0783465745482
 30
0.0
 40
7.0
  1
und innen beschichtet
 41
0.8
  7
GREEKS
100
AcDbText
  0
TEXT
  5
A51
330
1E
100
AcDbEntity
  8
TEXT
 62
     1
100
AcDbText
 10
616.656048457249
 20
139.8004583895517
 30
0.0
 40
7.0
  1
Werkstoff: E195 EN10305 feuerverzinkt
 41
0.8
  7
GREEKS
100
AcDbText
  0
DIMENSION
  5
AB8
330
1E
100
AcDbEntity
  8
BEM
100
AcDbDimension
  2
*D5
 10
152.7773626173871
 20
313.4802852769063
 30
0.0
 11
146.277362617387
 21
383.4802852769064
 31
0.0
 70
    32
 71
     5
 42
140.0
  3
Standard
100
AcDbAlignedDimension
 13
167.9543409258929
 23
453.4802852769063
 33
0.0
 14
233.7197382541683
 24
313.4802852769063
 34
0.0
 50
90.0
100
AcDbRotatedDimension
1001
ACAD
1000
DSTYLE
1002
{
1070
    40
1040
2.0
1070
    41
1040
3.5
1070
    42
1040
1.0
1070
    43
1040
7.0
1070
    44
1040
1.0
1070
    73
1070
     0
1070
    74
1070
     0
1070
    77
1070
     1
1070
    78
1070
     8
1070
    79
1070
     2
1070
   140
1040
3.5
1070
   141
1040
1.5
1070
   146
1040
0.5142857142857144
1070
   147
1040
1.5
1070
   172
1070
     1
1070
   178
1070
     1
1070
   179
1070
     2
1070
   271
1070
     2
1070
   272
1070
     2
1070
   284
1070
     8
1070
   285
1070
     8
1070
   286
1070
     8
1002
}
  0
ENDSEC
  0
SECTION
  2
OBJECTS
  0
DICTIONARY
  5
C
330
0
100
AcDbDictionary
281
     1
  3
ACAD_COLOR
350
11A
  3
ACAD_GROUP
350
D
  3
ACAD_LAYOUT
350
19
  3
ACAD_MATERIAL
350
119
  3
ACAD_MLINESTYLE
350
16
  3
ACAD_PLOTSETTINGS
350
18
  3
ACAD_PLOTSTYLENAME
350
E
  3
AcDbVariableDictionary
350
125
  0
DICTIONARY
  5
DB
330
1E
100
AcDbDictionary
280
     1
281
     1
  3
ACAD_LAYOUTSELFREF
360
10F
  0
DICTIONARY
  5
DD
330
1A
100
AcDbDictionary
280
     1
281
     1
  3
ACAD_LAYOUTSELFREF
360
10E
  0
DICTIONARY
  5
11A
102
{ACAD_REACTORS
330
C
102
}
330
C
100
AcDbDictionary
281
     1
  0
DICTIONARY
  5
D
102
{ACAD_REACTORS
330
C
102
}
330
C
100
AcDbDictionary
281
     1
  0
DICTIONARY
  5
19
102
{ACAD_REACTORS
330
C
102
}
330
C
100
AcDbDictionary
281
     1
  3
Layout1
350
1D
  3
Model
350
21
  0
DICTIONARY
  5
119
102
{ACAD_REACTORS
330
C
102
}
330
C
100
AcDbDictionary
281
     1
  0
DICTIONARY
  5
16
102
{ACAD_REACTORS
330
C
102
}
330
C
100
AcDbDictionary
281
     1
  3
Standard
350
17
  0
DICTIONARY
  5
18
102
{ACAD_REACTORS
330
C
102
}
330
C
100
AcDbDictionary
281
     1
  0
ACDBDICTIONARYWDFLT
  5
E
102
{ACAD_REACTORS
330
C
102
}
330
C
100
AcDbDictionary
281
     1
  3
Normal
350
F
100
AcDbDictionaryWithDefault
340
F
  0
DICTIONARY
  5
125
102
{ACAD_REACTORS
330
C
102
}
330
C
100
AcDbDictionary
281
     1
  3
DIMASSOC
350
126
  3
PROJECTNAME
350
127
  0
XRECORD
  5
10F
102
{ACAD_REACTORS
330
DB
102
}
330
DB
100
AcDbXrecord
280
     1
340
1E
  0
XRECORD
  5
10E
102
{ACAD_REACTORS
330
DD
102
}
330
DD
100
AcDbXrecord
280
     1
340
1A
  0
LAYOUT
  5
1D
102
{ACAD_REACTORS
330
19
102
}
330
19
100
AcDbPlotSettings
  1

  2
\\NT_WORK01\HP LaserJet 5000 PCL 6
  4

  6

 40
0.0
 41
0.0
 42
0.0
 43
0.0
 44
0.0
 45
0.0
 46
0.0
 47
0.0
 48
0.0
 49
0.0
140
0.0
141
0.0
142
1.0
143
1.0
 70
   688
 72
     0
 73
     0
 74
     5
  7

 75
    16
147
1.0
 76
     0
 77
     2
 78
   300
148
0.0
149
0.0
100
AcDbLayout
  1
Layout1
 70
     0
 71
     1
 10
0.0
 20
0.0
 11
12.0
 21
9.0
 12
0.0
 22
0.0
 32
0.0
 14
1.000000000000000E+20
 24
1.000000000000000E+20
 34
1.000000000000000E+20
 15
-1.000000000000000E+20
 25
-1.000000000000000E+20
 35
-1.000000000000000E+20
146
0.0
 13
0.0
 23
0.0
 33
0.0
 16
1.0
 26
0.0
 36
0.0
 17
0.0
 27
1.0
 37
0.0
 76
     0
330
1A
  0
LAYOUT
  5
21
102
{ACAD_REACTORS
330
19
102
}
330
19
100
AcDbPlotSettings
  1

  2
none_device
  4
Letter_(8.50_x_11.00_Inches)
  6

 40
6.349999904632568
 41
6.349999904632568
 42
6.350006103515625
 43
6.350006103515625
 44
215.8999938964844
 45
279.3999938964844
 46
0.0
 47
0.0
 48
0.0
 49
0.0
140
0.0
141
0.0
142
1.0
143
1.0
 70
 11952
 72
     0
 73
     1
 74
     0
  7

 75
     0
147
1.0
 76
     0
 77
     2
 78
   300
148
-2640.198305736192
149
483.5390166854714
100
AcDbLayout
  1
Model
 70
     1
 71
     0
 10
0.0
 20
0.0
 11
12.0
 21
9.0
 12
0.0
 22
0.0
 32
0.0
 14
0.0
 24
0.0
 34
0.0
 15
0.0
 25
0.0
 35
0.0
146
0.0
 13
0.0
 23
0.0
 33
0.0
 16
1.0
 26
0.0
 36
0.0
 17
0.0
 27
1.0
 37
0.0
 76
     0
330
1E
  0
MLINESTYLE
  5
17
102
{ACAD_REACTORS
330
16
102
}
330
16
100
AcDbMlineStyle
  2
STANDARD
 70
     0
  3

 62
   256
 51
90.0
 52
90.0
 71
     2
 49
0.5
 62
   256
  6
BYLAYER
 49
-0.5
 62
   256
  6
BYLAYER
  0
ACDBPLACEHOLDER
  5
F
102
{ACAD_REACTORS
330
E
102
}
330
E
  0
DICTIONARYVAR
  5
126
102
{ACAD_REACTORS
330
125
102
}
330
125
100
DictionaryVariables
280
     0
  1
1
  0
DICTIONARYVAR
  5
127
102
{ACAD_REACTORS
330
125
102
}
330
125
100
DictionaryVariables
280
     0
  1

  0
ENDSEC
  0
EOF
