  0
SECTION
  2
HEADER
  9
$ACADVER
  1
AC1018
  9
$ACADMAINTVER
 70
     2
  9
$DWGCODEPAGE
  3
ANSI_1252
  9
$INSBASE
 10
0.0
 20
0.0
 30
0.0
  9
$EXTMIN
 10
-0.0640771341750224
 20
-0.045311687738149
 30
-0.000000000000013
  9
$EXTMAX
 10
840.000003912033
 20
594.0000027663659
 30
0.0000000000000023
  9
$LIMMIN
 10
0.0
 20
0.0
  9
$LIMMAX
 10
840.0
 20
594.0
  9
$ORTHOMODE
 70
     1
  9
$REGENMODE
 70
     1
  9
$FILLMODE
 70
     1
  9
$QTEXTMODE
 70
     0
  9
$MIRRTEXT
 70
     1
  9
$LTSCALE
 40
20.0
  9
$ATTMODE
 70
     1
  9
$TEXTSIZE
 40
3.5
  9
$TRACEWID
 40
1.0
  9
$TEXTSTYLE
  7
STANDARD
  9
$CLAYER
  8
VOLL
  9
$CELTYPE
  6
ByLayer
  9
$CECOLOR
 62
   256
  9
$CELTSCALE
 40
1.0
  9
$DISPSILH
 70
     0
  9
$DIMSCALE
 40
2.0
  9
$DIMASZ
 40
3.5
  9
$DIMEXO
 40
1.0
  9
$DIMDLI
 40
7.0
  9
$DIMRND
 40
0.0
  9
$DIMDLE
 40
0.0
  9
$DIMEXE
 40
1.0
  9
$DIMTP
 40
0.0
  9
$DIMTM
 40
0.0
  9
$DIMTXT
 40
3.5
  9
$DIMCEN
 40
1.5
  9
$DIMTSZ
 40
0.0
  9
$DIMTOL
 70
     0
  9
$DIMLIM
 70
     0
  9
$DIMTIH
 70
     0
  9
$DIMTOH
 70
     0
  9
$DIMSE1
 70
     0
  9
$DIMSE2
 70
     0
  9
$DIMTAD
 70
     1
  9
$DIMZIN
 70
     8
  9
$DIMBLK
  1

  9
$DIMASO
 70
     1
  9
$DIMSHO
 70
     0
  9
$DIMPOST
  1

  9
$DIMAPOST
  1

  9
$DIMALT
 70
     0
  9
$DIMALTD
 70
     2
  9
$DIMALTF
 40
25.4
  9
$DIMLFAC
 40
1.0
  9
$DIMTOFL
 70
     1
  9
$DIMTVP
 40
0.0
  9
$DIMTIX
 70
     0
  9
$DIMSOXD
 70
     0
  9
$DIMSAH
 70
     0
  9
$DIMBLK1
  1

  9
$DIMBLK2
  1

  9
$DIMSTYLE
  2
Standard
  9
$DIMCLRD
 70
     0
  9
$DIMCLRE
 70
     0
  9
$DIMCLRT
 70
     1
  9
$DIMTFAC
 40
0.5142857142857144
  9
$DIMGAP
 40
1.5
  9
$DIMJUST
 70
     0
  9
$DIMSD1
 70
     0
  9
$DIMSD2
 70
     0
  9
$DIMTOLJ
 70
     1
  9
$DIMTZIN
 70
     8
  9
$DIMALTZ
 70
     8
  9
$DIMALTTZ
 70
     8
  9
$DIMUPT
 70
     0
  9
$DIMDEC
 70
     2
  9
$DIMTDEC
 70
     2
  9
$DIMALTU
 70
     2
  9
$DIMALTTD
 70
     2
  9
$DIMTXSTY
  7
STANDARD
  9
$DIMAUNIT
 70
     0
  9
$DIMADEC
 70
     2
  9
$DIMALTRND
 40
0.0
  9
$DIMAZIN
 70
     2
  9
$DIMDSEP
 70
    46
  9
$DIMATFIT
 70
     3
  9
$DIMFRAC
 70
     0
  9
$DIMLDRBLK
  1

  9
$DIMLUNIT
 70
     2
  9
$DIMLWD
 70
    -2
  9
$DIMLWE
 70
    -2
  9
$DIMTMOVE
 70
     0
  9
$LUNITS
 70
     2
  9
$LUPREC
 70
     2
  9
$SKETCHINC
 40
1.0
  9
$FILLETRAD
 40
0.0
  9
$AUNITS
 70
     0
  9
$AUPREC
 70
     0
  9
$MENU
  1
ACAD
  9
$ELEVATION
 40
0.0
  9
$PELEVATION
 40
0.0
  9
$THICKNESS
 40
0.0
  9
$LIMCHECK
 70
     0
  9
$CHAMFERA
 40
0.0
  9
$CHAMFERB
 40
0.0
  9
$CHAMFERC
 40
0.0
  9
$CHAMFERD
 40
0.0
  9
$SKPOLY
 70
     0
  9
$TDCREATE
 40
2455397.825393172
  9
$TDUCREATE
 40
2455397.783726505
  9
$TDUPDATE
 40
2455944.328831412
  9
$TDUUPDATE
 40
2455944.287164745
  9
$TDINDWG
 40
0.1570460185
  9
$TDUSRTIMER
 40
0.1570460185
  9
$USRTIMER
 70
     1
  9
$ANGBASE
 50
0.0
  9
$ANGDIR
 70
     0
  9
$PDMODE
 70
     0
  9
$PDSIZE
 40
0.0
  9
$PLINEWID
 40
0.0
  9
$SPLFRAME
 70
     0
  9
$SPLINETYPE
 70
     6
  9
$SPLINESEGS
 70
     8
  9
$HANDSEED
  5
15EA
  9
$SURFTAB1
 70
     6
  9
$SURFTAB2
 70
     6
  9
$SURFTYPE
 70
     6
  9
$SURFU
 70
     6
  9
$SURFV
 70
     6
  9
$UCSBASE
  2

  9
$UCSNAME
  2

  9
$UCSORG
 10
0.0
 20
0.0
 30
0.0
  9
$UCSXDIR
 10
1.0
 20
0.0
 30
0.0
  9
$UCSYDIR
 10
0.0
 20
1.0
 30
0.0
  9
$UCSORTHOREF
  2

  9
$UCSORTHOVIEW
 70
     0
  9
$UCSORGTOP
 10
0.0
 20
0.0
 30
0.0
  9
$UCSORGBOTTOM
 10
0.0
 20
0.0
 30
0.0
  9
$UCSORGLEFT
 10
0.0
 20
0.0
 30
0.0
  9
$UCSORGRIGHT
 10
0.0
 20
0.0
 30
0.0
  9
$UCSORGFRONT
 10
0.0
 20
0.0
 30
0.0
  9
$UCSORGBACK
 10
0.0
 20
0.0
 30
0.0
  9
$PUCSBASE
  2

  9
$PUCSNAME
  2

  9
$PUCSORG
 10
0.0
 20
0.0
 30
0.0
  9
$PUCSXDIR
 10
1.0
 20
0.0
 30
0.0
  9
$PUCSYDIR
 10
0.0
 20
1.0
 30
0.0
  9
$PUCSORTHOREF
  2

  9
$PUCSORTHOVIEW
 70
     0
  9
$PUCSORGTOP
 10
0.0
 20
0.0
 30
0.0
  9
$PUCSORGBOTTOM
 10
0.0
 20
0.0
 30
0.0
  9
$PUCSORGLEFT
 10
0.0
 20
0.0
 30
0.0
  9
$PUCSORGRIGHT
 10
0.0
 20
0.0
 30
0.0
  9
$PUCSORGFRONT
 10
0.0
 20
0.0
 30
0.0
  9
$PUCSORGBACK
 10
0.0
 20
0.0
 30
0.0
  9
$USERI1
 70
     0
  9
$USERI2
 70
     0
  9
$USERI3
 70
     0
  9
$USERI4
 70
     0
  9
$USERI5
 70
     0
  9
$USERR1
 40
0.0
  9
$USERR2
 40
0.0
  9
$USERR3
 40
0.0
  9
$USERR4
 40
0.0
  9
$USERR5
 40
0.0
  9
$WORLDVIEW
 70
     1
  9
$SHADEDGE
 70
     3
  9
$SHADEDIF
 70
    70
  9
$TILEMODE
 70
     1
  9
$MAXACTVP
 70
    16
  9
$PINSBASE
 10
0.0
 20
0.0
 30
0.0
  9
$PLIMCHECK
 70
     0
  9
$PEXTMIN
 10
1.000000000000000E+20
 20
1.000000000000000E+20
 30
1.000000000000000E+20
  9
$PEXTMAX
 10
-1.000000000000000E+20
 20
-1.000000000000000E+20
 30
-1.000000000000000E+20
  9
$PLIMMIN
 10
0.0
 20
0.0
  9
$PLIMMAX
 10
12.0
 20
9.0
  9
$UNITMODE
 70
     0
  9
$VISRETAIN
 70
     0
  9
$PLINEGEN
 70
     0
  9
$PSLTSCALE
 70
     0
  9
$TREEDEPTH
 70
  3020
  9
$CMLSTYLE
  2
Standard
  9
$CMLJUST
 70
     0
  9
$CMLSCALE
 40
1.0
  9
$PROXYGRAPHICS
 70
     1
  9
$MEASUREMENT
 70
     0
  9
$CELWEIGHT
370
    -1
  9
$ENDCAPS
280
     0
  9
$JOINSTYLE
280
     0
  9
$LWDISPLAY
290
     0
  9
$INSUNITS
 70
     0
  9
$HYPERLINKBASE
  1

  9
$STYLESHEET
  1
monochrome 1.ctb
  9
$XEDIT
290
     1
  9
$CEPSNTYPE
380
     0
  9
$PSTYLEMODE
290
     1
  9
$FINGERPRINTGUID
  2
{D68B0D0D-A558-11D7-B632-000102183313}
  9
$VERSIONGUID
  2
{0A1385A1-B9CA-4FD6-970B-429F1AC9C660}
  9
$EXTNAMES
290
     1
  9
$PSVPSCALE
 40
0.0
  9
$OLESTARTUP
290
     0
  9
$SORTENTS
280
   127
  9
$INDEXCTL
280
     0
  9
$HIDETEXT
280
     0
  9
$XCLIPFRAME
290
     0
  9
$HALOGAP
280
     0
  9
$OBSCOLOR
 70
   257
  9
$OBSLTYPE
280
     0
  9
$INTERSECTIONDISPLAY
280
     0
  9
$INTERSECTIONCOLOR
 70
   257
  9
$DIMASSOC
280
     1
  9
$PROJECTNAME
  1

  0
ENDSEC
  0
SECTION
  2
CLASSES
  0
CLASS
  1
ACDBDICTIONARYWDFLT
  2
AcDbDictionaryWithDefault
  3
ObjectDBX Classes
 90
        0
 91
        1
280
     0
281
     0
  0
CLASS
  1
DICTIONARYVAR
  2
AcDbDictionaryVar
  3
ObjectDBX Classes
 90
        0
 91
        2
280
     0
281
     0
  0
ENDSEC
  0
SECTION
  2
TABLES
  0
TABLE
  2
VPORT
  5
8
330
0
100
AcDbSymbolTable
 70
     3
  0
VPORT
  5
15E9
330
8
100
AcDbSymbolTableRecord
100
AcDbViewportTableRecord
  2
*Active
 70
     0
 10
0.0
 20
0.0
 11
1.0
 21
1.0
 12
420.0
 22
297.0
 13
0.0
 23
0.0
 14
1.0
 24
1.0
 15
10.0
 25
10.0
 16
0.0
 26
0.0
 36
1.0
 17
0.0
 27
0.0
 37
0.0
 40
620.8695652173912
 41
1.352941176470588
 42
50.0
 43
0.0
 44
0.0
 50
0.0
 51
0.0
 71
     0
 72
  1500
 73
     1
 74
     0
 75
     0
 76
     0
 77
     0
 78
     0
281
     0
 65
     1
110
0.0
120
0.0
130
0.0
111
1.0
121
0.0
131
0.0
112
0.0
122
1.0
132
0.0
 79
     0
146
0.0
  0
ENDTAB
  0
TABLE
  2
LTYPE
  5
5
330
0
100
AcDbSymbolTable
 70
     3
  0
LTYPE
  5
13
330
5
100
AcDbSymbolTableRecord
100
AcDbLinetypeTableRecord
  2
ByBlock
 70
     0
  3

 72
    65
 73
     0
 40
0.0
  0
LTYPE
  5
14
330
5
100
AcDbSymbolTableRecord
100
AcDbLinetypeTableRecord
  2
ByLayer
 70
     0
  3

 72
    65
 73
     0
 40
0.0
  0
LTYPE
  5
15
330
5
100
AcDbSymbolTableRecord
100
AcDbLinetypeTableRecord
  2
Continuous
 70
     0
  3
Solid line
 72
    65
 73
     0
 40
0.0
  0
LTYPE
  5
25
330
5
100
AcDbSymbolTableRecord
100
AcDbLinetypeTableRecord
  2
STRICHPUNKT
 70
     0
  3
__ . __ . __ . __ . __ . __ . __ . __ . __ . __
 72
    65
 73
     4
 40
1.0
 49
0.5
 74
     0
 49
-0.25
 74
     0
 49
0.0
 74
     0
 49
-0.25
 74
     0
  0
LTYPE
  5
53F
330
5
100
AcDbSymbolTableRecord
100
AcDbLinetypeTableRecord
  2
VERDECKT
 70
     0
  3
_ _ _ _ _ _ _ _ _ _ _ _ _ _ _ _ _ _ _ _ _ _ _
 72
    65
 73
     2
 40
0.375
 49
0.25
 74
     0
 49
-0.125
 74
     0
  0
ENDTAB
  0
TABLE
  2
LAYER
  5
2
330
0
100
AcDbSymbolTable
 70
    10
  0
LAYER
  5
10
330
2
100
AcDbSymbolTableRecord
100
AcDbLayerTableRecord
  2
0
 70
     0
 62
     7
  6
Continuous
370
    -3
390
F
  0
LAYER
  5
2B
330
2
100
AcDbSymbolTableRecord
100
AcDbLayerTableRecord
  2
VOLL
 70
     0
 62
     1
  6
Continuous
370
    -3
390
F
  0
LAYER
  5
2C
330
2
100
AcDbSymbolTableRecord
100
AcDbLayerTableRecord
  2
HILF
 70
     0
 62
     2
  6
Continuous
370
    -3
390
F
  0
LAYER
  5
2D
330
2
100
AcDbSymbolTableRecord
100
AcDbLayerTableRecord
  2
MITTEL
 70
     0
 62
     2
  6
STRICHPUNKT
370
    -3
390
F
  0
LAYER
  5
2F
330
2
100
AcDbSymbolTableRecord
100
AcDbLayerTableRecord
  2
BEM
 70
     0
 62
     7
  6
Continuous
370
    -3
390
F
  0
LAYER
  5
30
330
2
100
AcDbSymbolTableRecord
100
AcDbLayerTableRecord
  2
STEMPEL
 70
     0
 62
     3
  6
Continuous
370
    -3
390
F
  0
LAYER
  5
33
330
2
100
AcDbSymbolTableRecord
100
AcDbLayerTableRecord
  2
TEXT
 70
     0
 62
     7
  6
Continuous
370
    -3
390
F
  0
LAYER
  5
540
330
2
100
AcDbSymbolTableRecord
100
AcDbLayerTableRecord
  2
SCHRAFF
 70
     0
 62
     7
  6
Continuous
370
    -3
390
F
  0
LAYER
  5
541
330
2
100
AcDbSymbolTableRecord
100
AcDbLayerTableRecord
  2
VERDECKT
 70
     0
 62
     6
  6
VERDECKT
370
    -3
390
F
  0
LAYER
  5
542
330
2
100
AcDbSymbolTableRecord
100
AcDbLayerTableRecord
  2
DEFPOINTS
 70
     0
 62
     7
  6
Continuous
290
     0
370
    -3
390
F
  0
ENDTAB
  0
TABLE
  2
STYLE
  5
3
330
0
100
AcDbSymbolTable
 70
     2
  0
STYLE
  5
11
330
3
100
AcDbSymbolTableRecord
100
AcDbTextStyleTableRecord
  2
STANDARD
 70
     0
 40
0.0
 41
0.8
 50
0.0
 71
     0
 42
3.5
  3
simplex.shx
  4

  0
STYLE
  5
24
330
3
100
AcDbSymbolTableRecord
100
AcDbTextStyleTableRecord
  2
GREEKS
 70
     0
 40
0.0
 41
0.8
 50
0.0
 71
     0
 42
2.5
  3
SIMPLEX.shx
  4

  0
ENDTAB
  0
TABLE
  2
VIEW
  5
6
330
0
100
AcDbSymbolTable
 70
     0
  0
ENDTAB
  0
TABLE
  2
UCS
  5
7
330
0
100
AcDbSymbolTable
 70
     0
  0
ENDTAB
  0
TABLE
  2
APPID
  5
9
330
0
100
AcDbSymbolTable
 70
     1
  0
APPID
  5
12
330
9
100
AcDbSymbolTableRecord
100
AcDbRegAppTableRecord
  2
ACAD
 70
     0
  0
ENDTAB
  0
TABLE
  2
DIMSTYLE
  5
A
330
0
100
AcDbSymbolTable
 70
     1
100
AcDbDimStyleTable
 71
     1
340
A2
  0
DIMSTYLE
105
A2
102
{ACAD_REACTORS
330
C82
330
C7C
330
C79
330
C67
330
C4A
330
C40
330
A34
330
9C7
330
CD2
330
C76
330
1089
330
10A0
330
127D
330
127F
330
1290
330
1294
330
1295
330
158E
330
15B6
102
}
330
A
100
AcDbSymbolTableRecord
100
AcDbDimStyleTableRecord
  2
Standard
 70
     0
340
11
  0
ENDTAB
  0
TABLE
  2
BLOCK_RECORD
  5
1
330
0
100
AcDbSymbolTable
 70
    24
  0
BLOCK_RECORD
  5
1E
102
{ACAD_XDICTIONARY
360
DB
102
}
330
1
100
AcDbSymbolTableRecord
100
AcDbBlockTableRecord
  2
*Model_Space
340
21
  0
BLOCK_RECORD
  5
1A
102
{ACAD_XDICTIONARY
360
DD
102
}
330
1
100
AcDbSymbolTableRecord
100
AcDbBlockTableRecord
  2
*Paper_Space
340
1D
  0
BLOCK_RECORD
  5
22
330
1
100
AcDbSymbolTableRecord
100
AcDbBlockTableRecord
  2
LOGO
340
0
102
{BLKREFS
331
56
102
}
  0
BLOCK_RECORD
  5
23
330
1
100
AcDbSymbolTableRecord
100
AcDbBlockTableRecord
  2
LORO
340
0
102
{BLKREFS
331
9B
102
}
  0
BLOCK_RECORD
  5
327
330
1
100
AcDbSymbolTableRecord
100
AcDbBlockTableRecord
  2
*X2
340
0
102
{BLKREFS
331
C8E
331
CC0
102
}
  0
BLOCK_RECORD
  5
503
330
1
100
AcDbSymbolTableRecord
100
AcDbBlockTableRecord
  2
*X3
340
0
102
{BLKREFS
331
A1E
331
B41
102
}
  0
BLOCK_RECORD
  5
CE6
330
1
100
AcDbSymbolTableRecord
100
AcDbBlockTableRecord
  2
*D4
340
0
  0
BLOCK_RECORD
  5
D34
330
1
100
AcDbSymbolTableRecord
100
AcDbBlockTableRecord
  2
*D5
340
0
  0
BLOCK_RECORD
  5
D4E
330
1
100
AcDbSymbolTableRecord
100
AcDbBlockTableRecord
  2
*D6
340
0
  0
BLOCK_RECORD
  5
D75
330
1
100
AcDbSymbolTableRecord
100
AcDbBlockTableRecord
  2
*D7
340
0
  0
BLOCK_RECORD
  5
D82
330
1
100
AcDbSymbolTableRecord
100
AcDbBlockTableRecord
  2
*D8
340
0
  0
BLOCK_RECORD
  5
D8F
330
1
100
AcDbSymbolTableRecord
100
AcDbBlockTableRecord
  2
*D9
340
0
  0
BLOCK_RECORD
  5
D9C
330
1
100
AcDbSymbolTableRecord
100
AcDbBlockTableRecord
  2
*D10
340
0
  0
BLOCK_RECORD
  5
DA9
330
1
100
AcDbSymbolTableRecord
100
AcDbBlockTableRecord
  2
*D11
340
0
  0
BLOCK_RECORD
  5
DB6
330
1
100
AcDbSymbolTableRecord
100
AcDbBlockTableRecord
  2
*D12
340
0
  0
BLOCK_RECORD
  5
DDD
330
1
100
AcDbSymbolTableRecord
100
AcDbBlockTableRecord
  2
*D13
340
0
  0
BLOCK_RECORD
  5
108A
330
1
100
AcDbSymbolTableRecord
100
AcDbBlockTableRecord
  2
*D14
340
0
  0
BLOCK_RECORD
  5
10A1
330
1
100
AcDbSymbolTableRecord
100
AcDbBlockTableRecord
  2
*D15
340
0
  0
BLOCK_RECORD
  5
11AF
330
1
100
AcDbSymbolTableRecord
100
AcDbBlockTableRecord
  2
*X16
340
0
102
{BLKREFS
331
120C
102
}
  0
BLOCK_RECORD
  5
1297
330
1
100
AcDbSymbolTableRecord
100
AcDbBlockTableRecord
  2
*D17
340
0
  0
BLOCK_RECORD
  5
12A3
330
1
100
AcDbSymbolTableRecord
100
AcDbBlockTableRecord
  2
*D18
340
0
  0
BLOCK_RECORD
  5
12AF
330
1
100
AcDbSymbolTableRecord
100
AcDbBlockTableRecord
  2
*D19
340
0
  0
BLOCK_RECORD
  5
12BB
330
1
100
AcDbSymbolTableRecord
100
AcDbBlockTableRecord
  2
*D20
340
0
  0
BLOCK_RECORD
  5
12C9
330
1
100
AcDbSymbolTableRecord
100
AcDbBlockTableRecord
  2
*D21
340
0
  0
BLOCK_RECORD
  5
158F
330
1
100
AcDbSymbolTableRecord
100
AcDbBlockTableRecord
  2
*D22
340
0
  0
BLOCK_RECORD
  5
15B7
330
1
100
AcDbSymbolTableRecord
100
AcDbBlockTableRecord
  2
*D23
340
0
  0
ENDTAB
  0
ENDSEC
  0
SECTION
  2
BLOCKS
  0
BLOCK
  5
37
330
1E
100
AcDbEntity
  8
0
100
AcDbBlockBegin
  2
*Model_Space
 70
     0
 10
0.0
 20
0.0
 30
0.0
  3
*Model_Space
  1

  0
ENDBLK
  5
38
330
1E
100
AcDbEntity
  8
0
100
AcDbBlockEnd
  0
BLOCK
  5
35
330
1A
100
AcDbEntity
 67
     1
  8
0
100
AcDbBlockBegin
  2
*Paper_Space
 70
     0
 10
0.0
 20
0.0
 30
0.0
  3
*Paper_Space
  1

  0
ENDBLK
  5
36
330
1A
100
AcDbEntity
 67
     1
  8
0
100
AcDbBlockEnd
  0
BLOCK
  5
39
330
22
100
AcDbEntity
  8
0
100
AcDbBlockBegin
  2
LOGO
 70
     0
 10
0.0
 20
0.0
 30
0.0
  3
LOGO
  1

  0
ARC
  5
3A
330
22
100
AcDbEntity
  8
0
100
AcDbCircle
 10
11.59973089678112
 20
-9.271599258481501
 30
0.0
 40
4.5
100
AcDbArc
 50
270.0
 51
231.0575587310159
  0
LINE
  5
3B
330
22
100
AcDbEntity
  8
0
100
AcDbLine
 10
3.599730896781125
 20
-4.771599258481529
 30
0.0
 11
3.599730896781153
 21
-11.77159925848133
 31
0.0
  0
LINE
  5
3C
330
22
100
AcDbEntity
  8
0
100
AcDbLine
 10
2.599730896781125
 20
-4.771599258481529
 30
0.0
 11
2.599730896781153
 21
-11.77159925848133
 31
0.0
  0
CIRCLE
  5
3D
330
22
100
AcDbEntity
  8
0
100
AcDbCircle
 10
11.59973089678112
 20
-9.271599258481501
 30
0.0
 40
3.5
  0
ARC
  5
3E
330
22
100
AcDbEntity
  8
0
100
AcDbCircle
 10
31.59973089678115
 20
-9.271599258481472
 30
0.0
 40
4.5
100
AcDbArc
 50
270.0
 51
231.0575587310182
  0
LINE
  5
3F
330
22
100
AcDbEntity
  8
0
100
AcDbLine
 10
17.59973089678112
 20
-4.771599258481472
 30
0.0
 11
17.59973089678115
 21
-13.77159925848147
 31
0.0
  0
ARC
  5
40
330
22
100
AcDbEntity
  8
0
100
AcDbCircle
 10
22.59973089678116
 20
-7.271599258481472
 30
0.0
 40
2.5
100
AcDbArc
 50
293.1161887722295
 51
90.0
  0
CIRCLE
  5
41
330
22
100
AcDbEntity
  8
0
100
AcDbCircle
 10
31.59973089678115
 20
-9.271599258481472
 30
0.0
 40
3.5
  0
ARC
  5
42
330
22
100
AcDbEntity
  8
0
100
AcDbCircle
 10
4.599730896781153
 20
-11.77159925848133
 30
0.0
 40
1.0
100
AcDbArc
 50
180.0
 51
270.0
  0
ARC
  5
43
330
22
100
AcDbEntity
  8
0
100
AcDbCircle
 10
4.599730896781153
 20
-11.77159925848133
 30
0.0
 40
2.0
100
AcDbArc
 50
179.9999999999992
 51
270.0
  0
LINE
  5
44
330
22
100
AcDbEntity
  8
0
100
AcDbLine
 10
11.59973089678115
 20
-13.77159925848144
 30
0.0
 11
4.599730896781153
 21
-13.77159925848147
 31
0.0
  0
LINE
  5
45
330
22
100
AcDbEntity
  8
0
100
AcDbLine
 10
8.771303772034769
 20
-12.77159925848136
 30
0.0
 11
4.599730896781153
 21
-12.77159925848133
 31
0.0
  0
LINE
  5
46
330
22
100
AcDbEntity
  8
0
100
AcDbLine
 10
31.59973089678115
 20
-13.77159925848147
 30
0.0
 11
23.6715276665056
 21
-13.77159925848144
 31
0.0
  0
LINE
  5
47
330
22
100
AcDbEntity
  8
0
100
AcDbLine
 10
23.56565672307022
 20
-9.51278021337896
 30
0.0
 11
24.4388546544846
 21
-12.77159925848144
 31
0.0
  0
LINE
  5
48
330
22
100
AcDbEntity
  8
0
100
AcDbLine
 10
22.59973089678116
 20
-9.771599258481472
 30
0.0
 11
18.59973089678112
 21
-9.771599258481472
 31
0.0
  0
LINE
  5
49
330
22
100
AcDbEntity
  8
0
100
AcDbLine
 10
18.59973089678115
 20
-13.77159925848144
 30
0.0
 11
17.59973089678115
 21
-13.77159925848144
 31
0.0
  0
LINE
  5
4A
330
22
100
AcDbEntity
  8
0
100
AcDbLine
 10
18.59973089678115
 20
-9.771599258481472
 30
0.0
 11
18.59973089678115
 21
-13.77159925848144
 31
0.0
  0
LINE
  5
4B
330
22
100
AcDbEntity
  8
0
100
AcDbLine
 10
22.59973089678116
 20
-9.771599258481472
 30
0.0
 11
23.67152766650562
 21
-13.77159925848147
 31
0.0
  0
ARC
  5
4C
330
22
100
AcDbEntity
  8
0
100
AcDbCircle
 10
22.59973089678116
 20
-7.271599258481472
 30
0.0
 40
2.5
100
AcDbArc
 50
270.0
 51
270.0000000000007
  0
LINE
  5
4D
330
22
100
AcDbEntity
  8
0
100
AcDbLine
 10
28.77130377203494
 20
-12.77159925848147
 30
0.0
 11
24.43885465448463
 21
-12.77159925848144
 31
0.0
  0
LINE
  5
4E
330
22
100
AcDbEntity
  8
0
100
AcDbLine
 10
3.599730896781125
 20
-4.771599258481472
 30
0.0
 11
2.599730896781125
 21
-4.771599258481472
 31
0.0
  0
LINE
  5
4F
330
22
100
AcDbEntity
  8
0
100
AcDbLine
 10
22.59973089678116
 20
-8.771599258481472
 30
0.0
 11
18.59973089678115
 21
-8.771599258481472
 31
0.0
  0
LINE
  5
50
330
22
100
AcDbEntity
  8
0
100
AcDbLine
 10
22.59973089678116
 20
-5.771599258481472
 30
0.0
 11
18.59973089678115
 21
-5.771599258481472
 31
0.0
  0
LINE
  5
51
330
22
100
AcDbEntity
  8
0
100
AcDbLine
 10
22.59973089678116
 20
-4.771599258481472
 30
0.0
 11
17.59973089678115
 21
-4.771599258481472
 31
0.0
  0
LINE
  5
52
330
22
100
AcDbEntity
  8
0
100
AcDbLine
 10
18.59973089678115
 20
-5.771599258481472
 30
0.0
 11
18.59973089678115
 21
-8.771599258481472
 31
0.0
  0
ARC
  5
53
330
22
100
AcDbEntity
  8
0
100
AcDbCircle
 10
22.59973089678116
 20
-7.271599258481472
 30
0.0
 40
1.5
100
AcDbArc
 50
270.0
 51
90.0
  0
ENDBLK
  5
54
330
22
100
AcDbEntity
  8
0
100
AcDbBlockEnd
  0
BLOCK
  5
55
330
23
100
AcDbEntity
  8
0
100
AcDbBlockBegin
  2
LORO
 70
     0
 10
0.0
 20
0.0
 30
0.0
  3
LORO
  1

  0
INSERT
  5
56
330
23
100
AcDbEntity
  8
STEMPEL
100
AcDbBlockReference
  2
LOGO
 10
-1.748032802467321
 20
3.771489518552062
 30
0.0
  0
ENDBLK
  5
57
330
23
100
AcDbEntity
  8
0
100
AcDbBlockEnd
  0
BLOCK
  5
328
330
327
100
AcDbEntity
  8
0
100
AcDbBlockBegin
  2
*X2
 70
     1
 10
0.0
 20
0.0
 30
0.0
  3
*X2
  1

  0
LINE
  5
329
330
327
100
AcDbEntity
  8
0
 62
     0
100
AcDbLine
 10
158.3117336682301
 20
185.3
 30
0.0
 11
160.6465569670959
 21
185.3
 31
0.0
  0
LINE
  5
32A
330
327
100
AcDbEntity
  8
0
 62
     0
100
AcDbLine
 10
158.317212080558
 20
185.4
 30
0.0
 11
160.5571142479959
 21
185.4
 31
0.0
  0
LINE
  5
32B
330
327
100
AcDbEntity
  8
0
 62
     0
100
AcDbLine
 10
158.3265079680293
 20
185.5
 30
0.0
 11
160.467671528896
 21
185.5
 31
0.0
  0
LINE
  5
32C
330
327
100
AcDbEntity
  8
0
 62
     0
100
AcDbLine
 10
158.3396620833678
 20
185.6
 30
0.0
 11
160.378228809796
 21
185.6
 31
0.0
  0
LINE
  5
32D
330
327
100
AcDbEntity
  8
0
 62
     0
100
AcDbLine
 10
158.3567330923596
 20
185.7
 30
0.0
 11
160.288786090696
 21
185.7
 31
0.0
  0
LINE
  5
32E
330
327
100
AcDbEntity
  8
0
 62
     0
100
AcDbLine
 10
158.3777989195452
 20
185.8
 30
0.0
 11
160.199343371596
 21
185.8
 31
0.0
  0
LINE
  5
32F
330
327
100
AcDbEntity
  8
0
 62
     0
100
AcDbLine
 10
158.4029586053603
 20
185.9
 30
0.0
 11
160.109900652496
 21
185.9
 31
0.0
  0
LINE
  5
330
330
327
100
AcDbEntity
  8
0
 62
     0
100
AcDbLine
 10
158.4323347827027
 20
186.0
 30
0.0
 11
160.020457933396
 21
186.0
 31
0.0
  0
LINE
  5
331
330
327
100
AcDbEntity
  8
0
 62
     0
100
AcDbLine
 10
158.4660769264236
 20
186.1
 30
0.0
 11
159.931015214296
 21
186.1
 31
0.0
  0
LINE
  5
332
330
327
100
AcDbEntity
  8
0
 62
     0
100
AcDbLine
 10
158.5043655929144
 20
186.2
 30
0.0
 11
159.841572495196
 21
186.2
 31
0.0
  0
LINE
  5
333
330
327
100
AcDbEntity
  8
0
 62
     0
100
AcDbLine
 10
158.5474179586587
 20
186.3
 30
0.0
 11
159.752129776096
 21
186.3
 31
0.0
  0
LINE
  5
334
330
327
100
AcDbEntity
  8
0
 62
     0
100
AcDbLine
 10
158.6489116811127
 20
186.5
 30
0.0
 11
159.7533739097916
 21
186.5
 31
0.0
  0
LINE
  5
335
330
327
100
AcDbEntity
  8
0
 62
     0
100
AcDbLine
 10
158.7080489746744
 20
186.6
 30
0.0
 11
159.8657399606132
 21
186.6
 31
0.0
  0
LINE
  5
336
330
327
100
AcDbEntity
  8
0
 62
     0
100
AcDbLine
 10
158.7733727888137
 20
186.7
 30
0.0
 11
159.9785124085862
 21
186.7
 31
0.0
  0
LINE
  5
337
330
327
100
AcDbEntity
  8
0
 62
     0
100
AcDbLine
 10
158.8454585783552
 20
186.8
 30
0.0
 11
160.0916937282859
 21
186.8
 31
0.0
  0
LINE
  5
338
330
327
100
AcDbEntity
  8
0
 62
     0
100
AcDbLine
 10
158.9250276513247
 20
186.9
 30
0.0
 11
160.2052864235008
 21
186.9
 31
0.0
  0
LINE
  5
339
330
327
100
AcDbEntity
  8
0
 62
     0
100
AcDbLine
 10
159.0130010476421
 20
187.0
 30
0.0
 11
160.3192930277168
 21
187.0
 31
0.0
  0
LINE
  5
33A
330
327
100
AcDbEntity
  8
0
 62
     0
100
AcDbLine
 10
159.1105829231986
 20
187.1
 30
0.0
 11
160.4337161046125
 21
187.1
 31
0.0
  0
LINE
  5
33B
330
327
100
AcDbEntity
  8
0
 62
     0
100
AcDbLine
 10
159.2193959995848
 20
187.2
 30
0.0
 11
160.5485582485638
 21
187.2
 31
0.0
  0
LINE
  5
33C
330
327
100
AcDbEntity
  8
0
 62
     0
100
AcDbLine
 10
159.3417154838227
 20
187.3
 30
0.0
 11
160.6638220851617
 21
187.3
 31
0.0
  0
LINE
  5
33D
330
327
100
AcDbEntity
  8
0
 62
     0
100
AcDbLine
 10
159.4809066615088
 20
187.4
 30
0.0
 11
160.7795102717386
 21
187.4
 31
0.0
  0
LINE
  5
33E
330
327
100
AcDbEntity
  8
0
 62
     0
100
AcDbLine
 10
159.6423379378895
 20
187.5
 30
0.0
 11
160.8956254979091
 21
187.5
 31
0.0
  0
LINE
  5
33F
330
327
100
AcDbEntity
  8
0
 62
     0
100
AcDbLine
 10
159.8356159170164
 20
187.6
 30
0.0
 11
161.01217048612
 21
187.6
 31
0.0
  0
LINE
  5
340
330
327
100
AcDbEntity
  8
0
 62
     0
100
AcDbLine
 10
160.0817061088609
 20
187.7
 30
0.0
 11
161.1291479922148
 21
187.7
 31
0.0
  0
LINE
  5
341
330
327
100
AcDbEntity
  8
0
 62
     0
100
AcDbLine
 10
160.4534943287838
 20
187.8
 30
0.0
 11
161.2465608060093
 21
187.8
 31
0.0
  0
LINE
  5
342
330
327
100
AcDbEntity
  8
0
 62
     0
100
AcDbLine
 10
158.3100489828611
 20
185.2
 30
0.0
 11
160.7359996861959
 21
185.2
 31
0.0
  0
LINE
  5
343
330
327
100
AcDbEntity
  8
0
 62
     0
100
AcDbLine
 10
158.3121507612402
 20
185.1
 30
0.0
 11
160.8254424052959
 21
185.1
 31
0.0
  0
LINE
  5
344
330
327
100
AcDbEntity
  8
0
 62
     0
100
AcDbLine
 10
158.3180480676707
 20
185.0
 30
0.0
 11
160.9148851243959
 21
185.0
 31
0.0
  0
LINE
  5
345
330
327
100
AcDbEntity
  8
0
 62
     0
100
AcDbLine
 10
158.3277664905806
 20
184.9
 30
0.0
 11
159.6532303939162
 21
184.9
 31
0.0
  0
LINE
  5
346
330
327
100
AcDbEntity
  8
0
 62
     0
100
AcDbLine
 10
158.3413487032435
 20
184.8
 30
0.0
 11
159.6532303939162
 21
184.8
 31
0.0
  0
LINE
  5
347
330
327
100
AcDbEntity
  8
0
 62
     0
100
AcDbLine
 10
158.3588554176553
 20
184.7
 30
0.0
 11
159.6532303939162
 21
184.7
 31
0.0
  0
LINE
  5
348
330
327
100
AcDbEntity
  8
0
 62
     0
100
AcDbLine
 10
158.3803667823717
 20
184.6
 30
0.0
 11
159.6532303939162
 21
184.6
 31
0.0
  0
LINE
  5
349
330
327
100
AcDbEntity
  8
0
 62
     0
100
AcDbLine
 10
158.4059843018613
 20
184.5
 30
0.0
 11
159.6532303939162
 21
184.5
 31
0.0
  0
LINE
  5
34A
330
327
100
AcDbEntity
  8
0
 62
     0
100
AcDbLine
 10
158.4358333896902
 20
184.4
 30
0.0
 11
159.6532303939162
 21
184.4
 31
0.0
  0
LINE
  5
34B
330
327
100
AcDbEntity
  8
0
 62
     0
100
AcDbLine
 10
158.4700667150211
 20
184.3
 30
0.0
 11
159.6532303939162
 21
184.3
 31
0.0
  0
LINE
  5
34C
330
327
100
AcDbEntity
  8
0
 62
     0
100
AcDbLine
 10
158.5088685680905
 20
184.2
 30
0.0
 11
159.6532303939162
 21
184.2
 31
0.0
  0
LINE
  5
34D
330
327
100
AcDbEntity
  8
0
 62
     0
100
AcDbLine
 10
158.5524605659563
 20
184.1
 30
0.0
 11
159.6532303939162
 21
184.1
 31
0.0
  0
LINE
  5
34E
330
327
100
AcDbEntity
  8
0
 62
     0
100
AcDbLine
 10
158.6011091617097
 20
184.0
 30
0.0
 11
159.6532303939162
 21
184.0
 31
0.0
  0
LINE
  5
34F
330
327
100
AcDbEntity
  8
0
 62
     0
100
AcDbLine
 10
158.6551356366553
 20
183.9
 30
0.0
 11
159.6532303939162
 21
183.9
 31
0.0
  0
LINE
  5
350
330
327
100
AcDbEntity
  8
0
 62
     0
100
AcDbLine
 10
158.7149295941472
 20
183.8
 30
0.0
 11
159.6532303939162
 21
183.8
 31
0.0
  0
LINE
  5
351
330
327
100
AcDbEntity
  8
0
 62
     0
100
AcDbLine
 10
158.7809675223635
 20
183.7
 30
0.0
 11
159.6532303939162
 21
183.7
 31
0.0
  0
LINE
  5
352
330
327
100
AcDbEntity
  8
0
 62
     0
100
AcDbLine
 10
158.8538389120991
 20
183.6
 30
0.0
 11
159.6532303939162
 21
183.6
 31
0.0
  0
LINE
  5
353
330
327
100
AcDbEntity
  8
0
 62
     0
100
AcDbLine
 10
158.9342840172928
 20
183.5
 30
0.0
 11
159.6532303939162
 21
183.5
 31
0.0
  0
LINE
  5
354
330
327
100
AcDbEntity
  8
0
 62
     0
100
AcDbLine
 10
159.0232502714847
 20
183.4
 30
0.0
 11
159.6532303939162
 21
183.4
 31
0.0
  0
LINE
  5
355
330
327
100
AcDbEntity
  8
0
 62
     0
100
AcDbLine
 10
159.1219800219111
 20
183.3
 30
0.0
 11
159.6532303939162
 21
183.3
 31
0.0
  0
LINE
  5
356
330
327
100
AcDbEntity
  8
0
 62
     0
100
AcDbLine
 10
159.2321539079042
 20
183.2
 30
0.0
 11
159.6532303939162
 21
183.2
 31
0.0
  0
LINE
  5
357
330
327
100
AcDbEntity
  8
0
 62
     0
100
AcDbLine
 10
159.3561403989742
 20
183.1
 30
0.0
 11
159.6532303939162
 21
183.1
 31
0.0
  0
LINE
  5
358
330
327
100
AcDbEntity
  8
0
 62
     0
100
AcDbLine
 10
159.4974674521774
 20
183.0
 30
0.0
 11
159.6532303939162
 21
183.0
 31
0.0
  0
ENDBLK
  5
359
330
327
100
AcDbEntity
  8
0
100
AcDbBlockEnd
  0
BLOCK
  5
504
330
503
100
AcDbEntity
  8
0
100
AcDbBlockBegin
  2
*X3
 70
     1
 10
0.0
 20
0.0
 30
0.0
  3
*X3
  1

  0
LINE
  5
505
330
503
100
AcDbEntity
  8
0
 62
     0
100
AcDbLine
 10
161.6532303939162
 20
434.7999999999999
 30
0.0
 11
164.2017502738596
 21
434.7999999999999
 31
0.0
  0
LINE
  5
506
330
503
100
AcDbEntity
  8
0
 62
     0
100
AcDbLine
 10
161.6532303939162
 20
434.9
 30
0.0
 11
164.2611990185939
 21
434.9
 31
0.0
  0
LINE
  5
507
330
503
100
AcDbEntity
  8
0
 62
     0
100
AcDbLine
 10
161.6532303939162
 20
435.0
 30
0.0
 11
164.3155690493355
 21
435.0
 31
0.0
  0
LINE
  5
508
330
503
100
AcDbEntity
  8
0
 62
     0
100
AcDbLine
 10
161.6532303939162
 20
435.0999999999999
 30
0.0
 11
164.365165843918
 21
435.0999999999999
 31
0.0
  0
LINE
  5
509
330
503
100
AcDbEntity
  8
0
 62
     0
100
AcDbLine
 10
161.6532303939162
 20
435.2
 30
0.0
 11
164.4102470158851
 21
435.2
 31
0.0
  0
LINE
  5
50A
330
503
100
AcDbEntity
  8
0
 62
     0
100
AcDbLine
 10
161.6532303939162
 20
435.3
 30
0.0
 11
164.3902218095487
 21
435.3
 31
0.0
  0
LINE
  5
50B
330
503
100
AcDbEntity
  8
0
 62
     0
100
AcDbLine
 10
161.6532303939162
 20
435.4
 30
0.0
 11
164.0925355443307
 21
435.4
 31
0.0
  0
LINE
  5
50C
330
503
100
AcDbEntity
  8
0
 62
     0
100
AcDbLine
 10
161.6532303939162
 20
435.5
 30
0.0
 11
163.8065874070472
 21
435.5
 31
0.0
  0
LINE
  5
50D
330
503
100
AcDbEntity
  8
0
 62
     0
100
AcDbLine
 10
161.6532303939162
 20
435.6
 30
0.0
 11
163.5312160281587
 21
435.6
 31
0.0
  0
LINE
  5
50E
330
503
100
AcDbEntity
  8
0
 62
     0
100
AcDbLine
 10
161.6532303939162
 20
435.7
 30
0.0
 11
163.2654436330184
 21
435.7
 31
0.0
  0
LINE
  5
50F
330
503
100
AcDbEntity
  8
0
 62
     0
100
AcDbLine
 10
161.6532303939162
 20
435.8
 30
0.0
 11
163.0084377201658
 21
435.8
 31
0.0
  0
LINE
  5
510
330
503
100
AcDbEntity
  8
0
 62
     0
100
AcDbLine
 10
161.6532303939162
 20
435.9
 30
0.0
 11
162.7594824571813
 21
435.9
 31
0.0
  0
LINE
  5
511
330
503
100
AcDbEntity
  8
0
 62
     0
100
AcDbLine
 10
161.6532303939162
 20
436.0
 30
0.0
 11
162.5179569409141
 21
436.0
 31
0.0
  0
LINE
  5
512
330
503
100
AcDbEntity
  8
0
 62
     0
100
AcDbLine
 10
161.6532303939162
 20
436.1
 30
0.0
 11
162.283318409249
 21
436.1
 31
0.0
  0
LINE
  5
513
330
503
100
AcDbEntity
  8
0
 62
     0
100
AcDbLine
 10
161.6532303939162
 20
436.2
 30
0.0
 11
162.0550890914602
 21
436.2
 31
0.0
  0
LINE
  5
514
330
503
100
AcDbEntity
  8
0
 62
     0
100
AcDbLine
 10
161.6532303939162
 20
436.3
 30
0.0
 11
161.8328457769056
 21
436.3
 31
0.0
  0
LINE
  5
515
330
503
100
AcDbEntity
  8
0
 62
     0
100
AcDbLine
 10
161.6532303939162
 20
434.7
 30
0.0
 11
164.1368581457402
 21
434.7
 31
0.0
  0
LINE
  5
516
330
503
100
AcDbEntity
  8
0
 62
     0
100
AcDbLine
 10
161.6532303939162
 20
434.6
 30
0.0
 11
164.0660834853401
 21
434.6
 31
0.0
  0
LINE
  5
517
330
503
100
AcDbEntity
  8
0
 62
     0
100
AcDbLine
 10
161.6532303939162
 20
434.4999999999999
 30
0.0
 11
163.9888916005036
 21
434.4999999999999
 31
0.0
  0
LINE
  5
518
330
503
100
AcDbEntity
  8
0
 62
     0
100
AcDbLine
 10
161.6532303939162
 20
434.4
 30
0.0
 11
163.9046225194957
 21
434.4
 31
0.0
  0
LINE
  5
519
330
503
100
AcDbEntity
  8
0
 62
     0
100
AcDbLine
 10
161.6532303939162
 20
434.2999999999999
 30
0.0
 11
163.812447783223
 21
434.2999999999999
 31
0.0
  0
LINE
  5
51A
330
503
100
AcDbEntity
  8
0
 62
     0
100
AcDbLine
 10
161.6532303939162
 20
434.2
 30
0.0
 11
163.7113054570391
 21
434.2
 31
0.0
  0
LINE
  5
51B
330
503
100
AcDbEntity
  8
0
 62
     0
100
AcDbLine
 10
161.6532303939162
 20
434.1
 30
0.0
 11
163.5997981930467
 21
434.1
 31
0.0
  0
LINE
  5
51C
330
503
100
AcDbEntity
  8
0
 62
     0
100
AcDbLine
 10
161.6532303939162
 20
434.0
 30
0.0
 11
163.4760247947676
 21
434.0
 31
0.0
  0
LINE
  5
51D
330
503
100
AcDbEntity
  8
0
 62
     0
100
AcDbLine
 10
161.6532303939162
 20
433.9
 30
0.0
 11
163.3372828452784
 21
433.9
 31
0.0
  0
LINE
  5
51E
330
503
100
AcDbEntity
  8
0
 62
     0
100
AcDbLine
 10
161.6532303939162
 20
433.8
 30
0.0
 11
163.179495734577
 21
433.8
 31
0.0
  0
LINE
  5
51F
330
503
100
AcDbEntity
  8
0
 62
     0
100
AcDbLine
 10
161.6532303939162
 20
433.7
 30
0.0
 11
162.9959660794724
 21
433.7
 31
0.0
  0
LINE
  5
520
330
503
100
AcDbEntity
  8
0
 62
     0
100
AcDbLine
 10
161.6532303939162
 20
433.6
 30
0.0
 11
162.7741194840716
 21
433.6
 31
0.0
  0
LINE
  5
521
330
503
100
AcDbEntity
  8
0
 62
     0
100
AcDbLine
 10
161.6532303939162
 20
433.4999999999999
 30
0.0
 11
162.4837998272527
 21
433.4999999999999
 31
0.0
  0
LINE
  5
522
330
503
100
AcDbEntity
  8
0
 62
     0
100
AcDbLine
 10
161.6532303939162
 20
433.4
 30
0.0
 11
161.974631723653
 21
433.4
 31
0.0
  0
ENDBLK
  5
523
330
503
100
AcDbEntity
  8
0
100
AcDbBlockEnd
  0
BLOCK
  5
CF1
330
CE6
100
AcDbEntity
  8
0
100
AcDbBlockBegin
  2
*D4
 70
     1
 10
0.0
 20
0.0
 30
0.0
  3
*D4
  1

  0
LINE
  5
157A
330
CE6
100
AcDbEntity
  8
BEM
 62
     0
370
    -2
100
AcDbLine
 10
478.9531753823184
 20
531.148131172458
 30
0.0
 11
469.8596886663286
 21
531.148131172458
 31
0.0
  0
LINE
  5
157B
330
CE6
100
AcDbEntity
  8
BEM
 62
     0
370
    -2
100
AcDbLine
 10
478.9531753823184
 20
533.1481311724579
 30
0.0
 11
469.8596886663286
 21
533.1481311724579
 31
0.0
  0
LINE
  5
157C
330
CE6
100
AcDbEntity
  8
BEM
 62
     0
370
    -2
100
AcDbLine
 10
471.8596886663286
 20
524.1481311724579
 30
0.0
 11
471.8596886663286
 21
517.1481311724579
 31
0.0
  0
LINE
  5
157D
330
CE6
100
AcDbEntity
  8
BEM
 62
     0
370
    -2
100
AcDbLine
 10
471.8596886663286
 20
540.1481311724579
 30
0.0
 11
471.8596886663286
 21
556.8814645057913
 31
0.0
  0
LINE
  5
157E
330
CE6
100
AcDbEntity
  8
BEM
 62
     0
370
    -2
100
AcDbLine
 10
471.8596886663286
 20
531.148131172458
 30
0.0
 11
471.8596886663286
 21
533.1481311724579
 31
0.0
  0
SOLID
  5
157F
330
CE6
100
AcDbEntity
  8
BEM
 62
     0
100
AcDbTrace
 10
470.6930219996619
 20
524.1481311724579
 30
0.0
 11
473.0263553329953
 21
524.1481311724579
 31
0.0
 12
471.8596886663286
 22
531.148131172458
 32
0.0
 13
471.8596886663286
 23
531.148131172458
 33
0.0
  0
SOLID
  5
1580
330
CE6
100
AcDbEntity
  8
BEM
 62
     0
100
AcDbTrace
 10
470.6930219996619
 20
540.1481311724579
 30
0.0
 11
473.0263553329953
 21
540.1481311724579
 31
0.0
 12
471.8596886663286
 22
533.1481311724579
 32
0.0
 13
471.8596886663286
 23
533.1481311724579
 33
0.0
  0
MTEXT
  5
1581
330
CE6
100
AcDbEntity
  8
BEM
 62
     1
100
AcDbMText
 10
465.3596886663286
 20
552.0147978391247
 30
0.0
 40
7.0
 41
0.0
 71
     5
 72
     1
  1
\A1;2
 11
0.0000000000000001
 21
1.0
 31
0.0
 73
     1
 44
1.0
  0
POINT
  5
1582
330
CE6
100
AcDbEntity
  8
DEFPOINTS
 62
     0
100
AcDbPoint
 10
480.9531753823184
 20
531.148131172458
 30
0.0
  0
POINT
  5
1583
330
CE6
100
AcDbEntity
  8
DEFPOINTS
 62
     0
100
AcDbPoint
 10
480.9531753823184
 20
533.1481311724579
 30
0.0
  0
POINT
  5
1584
330
CE6
100
AcDbEntity
  8
DEFPOINTS
 62
     0
100
AcDbPoint
 10
471.8596886663286
 20
533.1481311724579
 30
0.0
  0
ENDBLK
  5
CF2
330
CE6
100
AcDbEntity
  8
0
100
AcDbBlockEnd
  0
BLOCK
  5
D3F
330
D34
100
AcDbEntity
  8
0
100
AcDbBlockBegin
  2
*D5
 70
     1
 10
0.0
 20
0.0
 30
0.0
  3
*D5
  1

  0
LINE
  5
1585
330
D34
100
AcDbEntity
  8
BEM
 62
     0
370
    -2
100
AcDbLine
 10
480.9531753823184
 20
535.148131172458
 30
0.0
 11
480.9531753823184
 21
571.8855362565448
 31
0.0
  0
LINE
  5
1586
330
D34
100
AcDbEntity
  8
BEM
 62
     0
370
    -2
100
AcDbLine
 10
656.9531753823187
 20
535.1481311724578
 30
0.0
 11
656.9531753823187
 21
571.8855362565448
 31
0.0
  0
LINE
  5
1587
330
D34
100
AcDbEntity
  8
BEM
 62
     0
370
    -2
100
AcDbLine
 10
487.9531753823185
 20
569.8855362565447
 30
0.0
 11
649.9531753823187
 21
569.8855362565447
 31
0.0
  0
SOLID
  5
1588
330
D34
100
AcDbEntity
  8
BEM
 62
     0
100
AcDbTrace
 10
487.9531753823185
 20
571.0522029232114
 30
0.0
 11
487.9531753823185
 21
568.7188695898782
 31
0.0
 12
480.9531753823184
 22
569.8855362565447
 32
0.0
 13
480.9531753823184
 23
569.8855362565447
 33
0.0
  0
SOLID
  5
1589
330
D34
100
AcDbEntity
  8
BEM
 62
     0
100
AcDbTrace
 10
649.9531753823187
 20
571.0522029232114
 30
0.0
 11
649.9531753823187
 21
568.7188695898782
 31
0.0
 12
656.9531753823187
 22
569.8855362565447
 32
0.0
 13
656.9531753823187
 23
569.8855362565447
 33
0.0
  0
MTEXT
  5
158A
330
D34
100
AcDbEntity
  8
BEM
 62
     1
100
AcDbMText
 10
568.9531753823185
 20
576.3855362565448
 30
0.0
 40
7.0
 41
0.0
 71
     5
 72
     1
  1
\A1;%%c176
 73
     1
 44
1.0
  0
POINT
  5
158B
330
D34
100
AcDbEntity
  8
DEFPOINTS
 62
     0
100
AcDbPoint
 10
480.9531753823184
 20
533.1481311724579
 30
0.0
  0
POINT
  5
158C
330
D34
100
AcDbEntity
  8
DEFPOINTS
 62
     0
100
AcDbPoint
 10
656.9531753823187
 20
533.1481311724578
 30
0.0
  0
POINT
  5
158D
330
D34
100
AcDbEntity
  8
DEFPOINTS
 62
     0
100
AcDbPoint
 10
656.9531753823187
 20
569.8855362565447
 30
0.0
  0
ENDBLK
  5
D40
330
D34
100
AcDbEntity
  8
0
100
AcDbBlockEnd
  0
BLOCK
  5
D59
330
D4E
100
AcDbEntity
  8
0
100
AcDbBlockBegin
  2
*D6
 70
     1
 10
0.0
 20
0.0
 30
0.0
  3
*D6
  1

  0
LINE
  5
F04
330
D4E
100
AcDbEntity
  8
BEM
 62
     0
370
    -2
100
AcDbLine
 10
159.1532303939164
 20
330.1481311724578
 30
0.0
 11
112.7503493100738
 21
330.1481311724578
 31
0.0
  0
LINE
  5
F05
330
D4E
100
AcDbEntity
  8
BEM
 62
     0
370
    -2
100
AcDbLine
 10
157.6532303939162
 20
328.1481311724578
 30
0.0
 11
112.7503493100738
 21
328.1481311724578
 31
0.0
  0
LINE
  5
F06
330
D4E
100
AcDbEntity
  8
BEM
 62
     0
370
    -2
100
AcDbLine
 10
114.7503493100738
 20
337.1481311724578
 30
0.0
 11
114.7503493100738
 21
344.1481311724578
 31
0.0
  0
LINE
  5
F07
330
D4E
100
AcDbEntity
  8
BEM
 62
     0
370
    -2
100
AcDbLine
 10
114.7503493100738
 20
321.1481311724578
 30
0.0
 11
114.7503493100738
 21
304.4147978391245
 31
0.0
  0
LINE
  5
F08
330
D4E
100
AcDbEntity
  8
BEM
 62
     0
370
    -2
100
AcDbLine
 10
114.7503493100738
 20
330.1481311724578
 30
0.0
 11
114.7503493100738
 21
328.1481311724578
 31
0.0
  0
SOLID
  5
F09
330
D4E
100
AcDbEntity
  8
BEM
 62
     0
100
AcDbTrace
 10
113.5836826434071
 20
337.1481311724578
 30
0.0
 11
115.9170159767405
 21
337.1481311724578
 31
0.0
 12
114.7503493100738
 22
330.1481311724578
 32
0.0
 13
114.7503493100738
 23
330.1481311724578
 33
0.0
  0
SOLID
  5
F0A
330
D4E
100
AcDbEntity
  8
BEM
 62
     0
100
AcDbTrace
 10
113.5836826434071
 20
321.1481311724578
 30
0.0
 11
115.9170159767405
 21
321.1481311724578
 31
0.0
 12
114.7503493100738
 22
328.1481311724578
 32
0.0
 13
114.7503493100738
 23
328.1481311724578
 33
0.0
  0
MTEXT
  5
F0B
330
D4E
100
AcDbEntity
  8
BEM
 62
     1
100
AcDbMText
 10
108.2503493100738
 20
309.2814645057911
 30
0.0
 40
7.0
 41
0.0
 71
     5
 72
     1
  1
\A1;2
 11
0.0000000000000001
 21
1.0
 31
0.0
 73
     1
 44
1.0
  0
POINT
  5
F0C
330
D4E
100
AcDbEntity
  8
DEFPOINTS
 62
     0
100
AcDbPoint
 10
161.1532303939164
 20
330.1481311724578
 30
0.0
  0
POINT
  5
F0D
330
D4E
100
AcDbEntity
  8
DEFPOINTS
 62
     0
100
AcDbPoint
 10
159.6532303939162
 20
328.1481311724578
 30
0.0
  0
POINT
  5
F0E
330
D4E
100
AcDbEntity
  8
DEFPOINTS
 62
     0
100
AcDbPoint
 10
114.7503493100738
 20
328.1481311724578
 30
0.0
  0
ENDBLK
  5
D5A
330
D4E
100
AcDbEntity
  8
0
100
AcDbBlockEnd
  0
BLOCK
  5
D80
330
D75
100
AcDbEntity
  8
0
100
AcDbBlockBegin
  2
*D7
 70
     1
 10
0.0
 20
0.0
 30
0.0
  3
*D7
  1

  0
LINE
  5
EE9
330
D75
100
AcDbEntity
  8
BEM
 62
     0
370
    -2
100
AcDbLine
 10
157.6532303939162
 20
531.1481311724577
 30
0.0
 11
112.7503493100739
 21
531.1481311724577
 31
0.0
  0
LINE
  5
EEA
330
D75
100
AcDbEntity
  8
BEM
 62
     0
370
    -2
100
AcDbLine
 10
159.1532303939164
 20
330.1481311724578
 30
0.0
 11
112.7503493100738
 21
330.1481311724578
 31
0.0
  0
LINE
  5
EEB
330
D75
100
AcDbEntity
  8
BEM
 62
     0
370
    -2
100
AcDbLine
 10
114.7503493100739
 20
524.1481311724577
 30
0.0
 11
114.7503493100738
 21
337.1481311724578
 31
0.0
  0
SOLID
  5
EEC
330
D75
100
AcDbEntity
  8
BEM
 62
     0
100
AcDbTrace
 10
113.5836826434072
 20
524.1481311724577
 30
0.0
 11
115.9170159767405
 21
524.1481311724577
 31
0.0
 12
114.7503493100739
 22
531.1481311724577
 32
0.0
 13
114.7503493100739
 23
531.1481311724577
 33
0.0
  0
SOLID
  5
EED
330
D75
100
AcDbEntity
  8
BEM
 62
     0
100
AcDbTrace
 10
113.5836826434071
 20
337.1481311724578
 30
0.0
 11
115.9170159767405
 21
337.1481311724578
 31
0.0
 12
114.7503493100738
 22
330.1481311724578
 32
0.0
 13
114.7503493100738
 23
330.1481311724578
 33
0.0
  0
MTEXT
  5
EEE
330
D75
100
AcDbEntity
  8
BEM
 62
     1
100
AcDbMText
 10
108.2503493100738
 20
430.6481311724577
 30
0.0
 40
7.0
 41
0.0
 71
     5
 72
     1
  1
\A1;201
 11
0.0000000000000001
 21
1.0
 31
0.0
 73
     1
 44
1.0
  0
POINT
  5
EEF
330
D75
100
AcDbEntity
  8
DEFPOINTS
 62
     0
100
AcDbPoint
 10
159.6532303939162
 20
531.1481311724577
 30
0.0
  0
POINT
  5
EF0
330
D75
100
AcDbEntity
  8
DEFPOINTS
 62
     0
100
AcDbPoint
 10
161.1532303939164
 20
330.1481311724578
 30
0.0
  0
POINT
  5
EF1
330
D75
100
AcDbEntity
  8
DEFPOINTS
 62
     0
100
AcDbPoint
 10
114.7503493100738
 20
330.1481311724578
 30
0.0
  0
ENDBLK
  5
D81
330
D75
100
AcDbEntity
  8
0
100
AcDbBlockEnd
  0
BLOCK
  5
D8D
330
D82
100
AcDbEntity
  8
0
100
AcDbBlockBegin
  2
*D8
 70
     1
 10
0.0
 20
0.0
 30
0.0
  3
*D8
  1

  0
LINE
  5
EE0
330
D82
100
AcDbEntity
  8
BEM
 62
     0
370
    -2
100
AcDbLine
 10
532.4531753823184
 20
263.0782736638039
 30
0.0
 11
532.4531753823184
 21
232.9930089818945
 31
0.0
  0
LINE
  5
EE1
330
D82
100
AcDbEntity
  8
BEM
 62
     0
370
    -2
100
AcDbLine
 10
605.4531753823185
 20
263.0782736638035
 30
0.0
 11
605.4531753823185
 21
232.9930089818945
 31
0.0
  0
LINE
  5
EE2
330
D82
100
AcDbEntity
  8
BEM
 62
     0
370
    -2
100
AcDbLine
 10
539.4531753823184
 20
234.9930089818945
 30
0.0
 11
598.4531753823184
 21
234.9930089818945
 31
0.0
  0
SOLID
  5
EE3
330
D82
100
AcDbEntity
  8
BEM
 62
     0
100
AcDbTrace
 10
539.4531753823184
 20
236.1596756485611
 30
0.0
 11
539.4531753823184
 21
233.8263423152278
 31
0.0
 12
532.4531753823184
 22
234.9930089818945
 32
0.0
 13
532.4531753823184
 23
234.9930089818945
 33
0.0
  0
SOLID
  5
EE4
330
D82
100
AcDbEntity
  8
BEM
 62
     0
100
AcDbTrace
 10
598.4531753823184
 20
236.1596756485611
 30
0.0
 11
598.4531753823184
 21
233.8263423152278
 31
0.0
 12
605.4531753823185
 22
234.9930089818945
 32
0.0
 13
605.4531753823185
 23
234.9930089818945
 33
0.0
  0
MTEXT
  5
EE5
330
D82
100
AcDbEntity
  8
BEM
 62
     1
100
AcDbMText
 10
568.9531753823184
 20
241.4930089818945
 30
0.0
 40
7.0
 41
0.0
 71
     5
 72
     1
  1
\A1;%%c73
 73
     1
 44
1.0
  0
POINT
  5
EE6
330
D82
100
AcDbEntity
  8
DEFPOINTS
 62
     0
100
AcDbPoint
 10
532.4531753823184
 20
265.0782736638039
 30
0.0
  0
POINT
  5
EE7
330
D82
100
AcDbEntity
  8
DEFPOINTS
 62
     0
100
AcDbPoint
 10
605.4531753823185
 20
265.0782736638035
 30
0.0
  0
POINT
  5
EE8
330
D82
100
AcDbEntity
  8
DEFPOINTS
 62
     0
100
AcDbPoint
 10
605.4531753823185
 20
234.9930089818945
 30
0.0
  0
ENDBLK
  5
D8E
330
D82
100
AcDbEntity
  8
0
100
AcDbBlockEnd
  0
BLOCK
  5
D9A
330
D8F
100
AcDbEntity
  8
0
100
AcDbBlockBegin
  2
*D9
 70
     1
 10
0.0
 20
0.0
 30
0.0
  3
*D9
  1

  0
LINE
  5
15A4
330
D8F
100
AcDbEntity
  8
BEM
 62
     0
370
    -2
100
AcDbLine
 10
217.6532303939163
 20
211.8006695007493
 30
0.0
 11
369.4722544572967
 21
211.8006695007493
 31
0.0
  0
LINE
  5
15A5
330
D8F
100
AcDbEntity
  8
BEM
 62
     0
370
    -2
100
AcDbLine
 10
217.6532303939163
 20
35.80066950074928
 30
0.0
 11
369.4722544572966
 21
35.80066950074924
 31
0.0
  0
LINE
  5
15A6
330
D8F
100
AcDbEntity
  8
BEM
 62
     0
370
    -2
100
AcDbLine
 10
367.4722544572967
 20
204.8006695007492
 30
0.0
 11
367.4722544572966
 21
42.80066950074924
 31
0.0
  0
SOLID
  5
15A7
330
D8F
100
AcDbEntity
  8
BEM
 62
     0
100
AcDbTrace
 10
366.30558779063
 20
204.8006695007492
 30
0.0
 11
368.6389211239634
 21
204.8006695007492
 31
0.0
 12
367.4722544572967
 22
211.8006695007493
 32
0.0
 13
367.4722544572967
 23
211.8006695007493
 33
0.0
  0
SOLID
  5
15A8
330
D8F
100
AcDbEntity
  8
BEM
 62
     0
100
AcDbTrace
 10
366.30558779063
 20
42.80066950074924
 30
0.0
 11
368.6389211239633
 21
42.80066950074924
 31
0.0
 12
367.4722544572966
 22
35.80066950074924
 32
0.0
 13
367.4722544572966
 23
35.80066950074924
 33
0.0
  0
MTEXT
  5
15A9
330
D8F
100
AcDbEntity
  8
BEM
 62
     1
100
AcDbMText
 10
360.9722544572966
 20
123.8006695007493
 30
0.0
 40
7.0
 41
0.0
 71
     5
 72
     1
  1
\A1;176
 11
0.0000000000000001
 21
1.0
 31
0.0
 73
     1
 44
1.0
  0
POINT
  5
15AA
330
D8F
100
AcDbEntity
  8
DEFPOINTS
 62
     0
100
AcDbPoint
 10
215.6532303939163
 20
211.8006695007493
 30
0.0
  0
POINT
  5
15AB
330
D8F
100
AcDbEntity
  8
DEFPOINTS
 62
     0
100
AcDbPoint
 10
215.6532303939163
 20
35.80066950074928
 30
0.0
  0
POINT
  5
15AC
330
D8F
100
AcDbEntity
  8
DEFPOINTS
 62
     0
100
AcDbPoint
 10
367.4722544572966
 20
35.80066950074924
 30
0.0
  0
ENDBLK
  5
D9B
330
D8F
100
AcDbEntity
  8
0
100
AcDbBlockEnd
  0
BLOCK
  5
DA7
330
D9C
100
AcDbEntity
  8
0
100
AcDbBlockBegin
  2
*D10
 70
     1
 10
0.0
 20
0.0
 30
0.0
  3
*D10
  1

  0
LINE
  5
ED7
330
D9C
100
AcDbEntity
  8
BEM
 62
     0
370
    -2
100
AcDbLine
 10
159.6532303939162
 20
326.1481311724578
 30
0.0
 11
159.6532303939162
 21
236.7239506205309
 31
0.0
  0
LINE
  5
ED8
330
D9C
100
AcDbEntity
  8
BEM
 62
     0
370
    -2
100
AcDbLine
 10
209.6532303939163
 20
251.1481311724578
 30
0.0
 11
209.6532303939163
 21
236.7239506205309
 31
0.0
  0
LINE
  5
ED9
330
D9C
100
AcDbEntity
  8
BEM
 62
     0
370
    -2
100
AcDbLine
 10
166.6532303939162
 20
238.7239506205309
 30
0.0
 11
202.6532303939163
 21
238.7239506205309
 31
0.0
  0
SOLID
  5
EDA
330
D9C
100
AcDbEntity
  8
BEM
 62
     0
100
AcDbTrace
 10
166.6532303939162
 20
239.8906172871976
 30
0.0
 11
166.6532303939162
 21
237.5572839538643
 31
0.0
 12
159.6532303939162
 22
238.7239506205309
 32
0.0
 13
159.6532303939162
 23
238.7239506205309
 33
0.0
  0
SOLID
  5
EDB
330
D9C
100
AcDbEntity
  8
BEM
 62
     0
100
AcDbTrace
 10
202.6532303939163
 20
239.8906172871976
 30
0.0
 11
202.6532303939163
 21
237.5572839538643
 31
0.0
 12
209.6532303939163
 22
238.7239506205309
 32
0.0
 13
209.6532303939163
 23
238.7239506205309
 33
0.0
  0
MTEXT
  5
EDC
330
D9C
100
AcDbEntity
  8
BEM
 62
     1
100
AcDbMText
 10
184.6532303939162
 20
245.2239506205309
 30
0.0
 40
7.0
 41
0.0
 71
     5
 72
     1
  1
\A1;50
 73
     1
 44
1.0
  0
POINT
  5
EDD
330
D9C
100
AcDbEntity
  8
DEFPOINTS
 62
     0
100
AcDbPoint
 10
159.6532303939162
 20
328.1481311724578
 30
0.0
  0
POINT
  5
EDE
330
D9C
100
AcDbEntity
  8
DEFPOINTS
 62
     0
100
AcDbPoint
 10
209.6532303939163
 20
253.1481311724578
 30
0.0
  0
POINT
  5
EDF
330
D9C
100
AcDbEntity
  8
DEFPOINTS
 62
     0
100
AcDbPoint
 10
209.6532303939163
 20
238.7239506205309
 30
0.0
  0
ENDBLK
  5
DA8
330
D9C
100
AcDbEntity
  8
0
100
AcDbBlockEnd
  0
BLOCK
  5
DB4
330
DA9
100
AcDbEntity
  8
0
100
AcDbBlockBegin
  2
*D11
 70
     1
 10
0.0
 20
0.0
 30
0.0
  3
*D11
  1

  0
LINE
  5
ECE
330
DA9
100
AcDbEntity
  8
BEM
 62
     0
370
    -2
100
AcDbLine
 10
157.6532303939162
 20
328.1481311724578
 30
0.0
 11
126.8977295180293
 21
328.1481311724578
 31
0.0
  0
LINE
  5
ECF
330
DA9
100
AcDbEntity
  8
BEM
 62
     0
370
    -2
100
AcDbLine
 10
171.7595392985283
 20
258.1481311724577
 30
0.0
 11
126.8977295180293
 21
258.1481311724578
 31
0.0
  0
LINE
  5
ED0
330
DA9
100
AcDbEntity
  8
BEM
 62
     0
370
    -2
100
AcDbLine
 10
128.8977295180293
 20
321.1481311724577
 30
0.0
 11
128.8977295180293
 21
265.1481311724577
 31
0.0
  0
SOLID
  5
ED1
330
DA9
100
AcDbEntity
  8
BEM
 62
     0
100
AcDbTrace
 10
127.7310628513627
 20
321.1481311724578
 30
0.0
 11
130.064396184696
 21
321.1481311724577
 31
0.0
 12
128.8977295180293
 22
328.1481311724578
 32
0.0
 13
128.8977295180293
 23
328.1481311724578
 33
0.0
  0
SOLID
  5
ED2
330
DA9
100
AcDbEntity
  8
BEM
 62
     0
100
AcDbTrace
 10
127.7310628513626
 20
265.1481311724578
 30
0.0
 11
130.064396184696
 21
265.1481311724577
 31
0.0
 12
128.8977295180293
 22
258.1481311724577
 32
0.0
 13
128.8977295180293
 23
258.1481311724577
 33
0.0
  0
MTEXT
  5
ED3
330
DA9
100
AcDbEntity
  8
BEM
 62
     1
100
AcDbMText
 10
122.3977295180293
 20
293.1481311724578
 30
0.0
 40
7.0
 41
0.0
 71
     5
 72
     1
  1
\A1;70
 11
0.0000000000000001
 21
1.0
 31
0.0
 73
     1
 44
1.0
  0
POINT
  5
ED4
330
DA9
100
AcDbEntity
  8
DEFPOINTS
 62
     0
100
AcDbPoint
 10
159.6532303939162
 20
328.1481311724578
 30
0.0
  0
POINT
  5
ED5
330
DA9
100
AcDbEntity
  8
DEFPOINTS
 62
     0
100
AcDbPoint
 10
173.7595392985283
 20
258.1481311724577
 30
0.0
  0
POINT
  5
ED6
330
DA9
100
AcDbEntity
  8
DEFPOINTS
 62
     0
100
AcDbPoint
 10
128.8977295180293
 20
258.1481311724577
 30
0.0
  0
ENDBLK
  5
DB5
330
DA9
100
AcDbEntity
  8
0
100
AcDbBlockEnd
  0
BLOCK
  5
DC1
330
DB6
100
AcDbEntity
  8
0
100
AcDbBlockBegin
  2
*D12
 70
     1
 10
0.0
 20
0.0
 30
0.0
  3
*D12
  1

  0
LINE
  5
1568
330
DB6
100
AcDbEntity
  8
BEM
 62
     0
370
    -2
100
AcDbLine
 10
478.9531753823184
 20
533.1481311724579
 30
0.0
 11
457.1193942568054
 21
533.1481311724579
 31
0.0
  0
LINE
  5
1569
330
DB6
100
AcDbEntity
  8
BEM
 62
     0
370
    -2
100
AcDbLine
 10
531.0594842869305
 20
258.1481311724577
 30
0.0
 11
457.1193942568054
 21
258.1481311724577
 31
0.0
  0
LINE
  5
156A
330
DB6
100
AcDbEntity
  8
BEM
 62
     0
370
    -2
100
AcDbLine
 10
459.1193942568055
 20
526.1481311724579
 30
0.0
 11
459.1193942568054
 21
265.1481311724577
 31
0.0
  0
SOLID
  5
156B
330
DB6
100
AcDbEntity
  8
BEM
 62
     0
100
AcDbTrace
 10
457.9527275901388
 20
526.1481311724579
 30
0.0
 11
460.2860609234721
 21
526.1481311724579
 31
0.0
 12
459.1193942568055
 22
533.1481311724579
 32
0.0
 13
459.1193942568055
 23
533.1481311724579
 33
0.0
  0
SOLID
  5
156C
330
DB6
100
AcDbEntity
  8
BEM
 62
     0
100
AcDbTrace
 10
457.9527275901387
 20
265.1481311724577
 30
0.0
 11
460.2860609234721
 21
265.1481311724577
 31
0.0
 12
459.1193942568054
 22
258.1481311724577
 32
0.0
 13
459.1193942568054
 23
258.1481311724577
 33
0.0
  0
MTEXT
  5
156D
330
DB6
100
AcDbEntity
  8
BEM
 62
     1
100
AcDbMText
 10
452.6193942568053
 20
395.648131172458
 30
0.0
 40
7.0
 41
0.0
 71
     5
 72
     1
  1
\A1;275
 11
0.0000000000000001
 21
1.0
 31
0.0
 73
     1
 44
1.0
  0
POINT
  5
156E
330
DB6
100
AcDbEntity
  8
DEFPOINTS
 62
     0
100
AcDbPoint
 10
480.9531753823184
 20
533.1481311724579
 30
0.0
  0
POINT
  5
156F
330
DB6
100
AcDbEntity
  8
DEFPOINTS
 62
     0
100
AcDbPoint
 10
533.0594842869305
 20
258.1481311724577
 30
0.0
  0
POINT
  5
1570
330
DB6
100
AcDbEntity
  8
DEFPOINTS
 62
     0
100
AcDbPoint
 10
459.1193942568054
 20
258.1481311724577
 30
0.0
  0
ENDBLK
  5
DC2
330
DB6
100
AcDbEntity
  8
0
100
AcDbBlockEnd
  0
BLOCK
  5
DE8
330
DDD
100
AcDbEntity
  8
0
100
AcDbBlockBegin
  2
*D13
 70
     1
 10
0.0
 20
0.0
 30
0.0
  3
*D13
  1

  0
LINE
  5
F81
330
DDD
100
AcDbEntity
  8
BEM
 62
     0
370
    -2
100
AcDbLine
 10
157.6532303939162
 20
62.68147811575511
 30
0.0
 11
147.0903425820013
 21
62.68147811575511
 31
0.0
  0
LINE
  5
F82
330
DDD
100
AcDbEntity
  8
BEM
 62
     0
370
    -2
100
AcDbLine
 10
157.6532303939162
 20
184.9198608857435
 30
0.0
 11
147.0903425820013
 21
184.9198608857435
 31
0.0
  0
LINE
  5
F83
330
DDD
100
AcDbEntity
  8
BEM
 62
     0
370
    -2
100
AcDbLine
 10
149.0903425820013
 20
69.68147811575511
 30
0.0
 11
149.0903425820013
 21
177.9198608857435
 31
0.0
  0
SOLID
  5
F84
330
DDD
100
AcDbEntity
  8
BEM
 62
     0
100
AcDbTrace
 10
147.9236759153346
 20
69.68147811575511
 30
0.0
 11
150.257009248668
 21
69.68147811575511
 31
0.0
 12
149.0903425820013
 22
62.68147811575511
 32
0.0
 13
149.0903425820013
 23
62.68147811575511
 33
0.0
  0
SOLID
  5
F85
330
DDD
100
AcDbEntity
  8
BEM
 62
     0
100
AcDbTrace
 10
147.9236759153346
 20
177.9198608857435
 30
0.0
 11
150.257009248668
 21
177.9198608857435
 31
0.0
 12
149.0903425820013
 22
184.9198608857435
 32
0.0
 13
149.0903425820013
 23
184.9198608857435
 33
0.0
  0
MTEXT
  5
F86
330
DDD
100
AcDbEntity
  8
BEM
 62
     1
100
AcDbMText
 10
142.5903425820013
 20
123.8006695007493
 30
0.0
 40
7.0
 41
0.0
 71
     5
 72
     1
  1
\A1;122
 11
0.0000000000000001
 21
1.0
 31
0.0
 73
     1
 44
1.0
  0
POINT
  5
F87
330
DDD
100
AcDbEntity
  8
DEFPOINTS
 62
     0
100
AcDbPoint
 10
159.6532303939162
 20
62.68147811575511
 30
0.0
  0
POINT
  5
F88
330
DDD
100
AcDbEntity
  8
DEFPOINTS
 62
     0
100
AcDbPoint
 10
159.6532303939162
 20
184.9198608857435
 30
0.0
  0
POINT
  5
F89
330
DDD
100
AcDbEntity
  8
DEFPOINTS
 62
     0
100
AcDbPoint
 10
149.0903425820013
 20
184.9198608857435
 30
0.0
  0
ENDBLK
  5
DE9
330
DDD
100
AcDbEntity
  8
0
100
AcDbBlockEnd
  0
BLOCK
  5
1094
330
108A
100
AcDbEntity
  8
0
100
AcDbBlockBegin
  2
*D14
 70
     1
 10
0.0
 20
0.0
 30
0.0
  3
*D14
  1

  0
LINE
  5
135E
330
108A
100
AcDbEntity
  8
BEM
 62
     0
370
    -2
100
AcDbLine
 10
528.9531753823186
 20
533.148131172458
 30
0.0
 11
528.9531753823186
 21
557.9326580419483
 31
0.0
  0
LINE
  5
135F
330
108A
100
AcDbEntity
  8
BEM
 62
     0
370
    -2
100
AcDbLine
 10
608.9531753823182
 20
533.148131172458
 30
0.0
 11
608.9531753823182
 21
557.9326580419483
 31
0.0
  0
LINE
  5
1360
330
108A
100
AcDbEntity
  8
BEM
 62
     0
370
    -2
100
AcDbLine
 10
535.9531753823185
 20
555.9326580419483
 30
0.0
 11
601.9531753823182
 21
555.9326580419483
 31
0.0
  0
SOLID
  5
1361
330
108A
100
AcDbEntity
  8
BEM
 62
     0
100
AcDbTrace
 10
535.9531753823185
 20
557.0993247086149
 30
0.0
 11
535.9531753823185
 21
554.7659913752816
 31
0.0
 12
528.9531753823186
 22
555.9326580419483
 32
0.0
 13
528.9531753823186
 23
555.9326580419483
 33
0.0
  0
SOLID
  5
1362
330
108A
100
AcDbEntity
  8
BEM
 62
     0
100
AcDbTrace
 10
601.9531753823182
 20
557.0993247086149
 30
0.0
 11
601.9531753823182
 21
554.7659913752816
 31
0.0
 12
608.9531753823182
 22
555.9326580419483
 32
0.0
 13
608.9531753823182
 23
555.9326580419483
 33
0.0
  0
MTEXT
  5
1363
330
108A
100
AcDbEntity
  8
BEM
 62
     1
100
AcDbMText
 10
568.9531753823184
 20
562.4326580419483
 30
0.0
 40
7.0
 41
0.0
 71
     5
 72
     1
  1
\A1;80
 73
     1
 44
1.0
  0
POINT
  5
1364
330
108A
100
AcDbEntity
  8
DEFPOINTS
 62
     0
100
AcDbPoint
 10
528.9531753823186
 20
531.148131172458
 30
0.0
  0
POINT
  5
1365
330
108A
100
AcDbEntity
  8
DEFPOINTS
 62
     0
100
AcDbPoint
 10
608.9531753823182
 20
531.148131172458
 30
0.0
  0
POINT
  5
1366
330
108A
100
AcDbEntity
  8
DEFPOINTS
 62
     0
100
AcDbPoint
 10
608.9531753823182
 20
555.9326580419483
 30
0.0
  0
ENDBLK
  5
1095
330
108A
100
AcDbEntity
  8
0
100
AcDbBlockEnd
  0
BLOCK
  5
10AB
330
10A1
100
AcDbEntity
  8
0
100
AcDbBlockBegin
  2
*D15
 70
     1
 10
0.0
 20
0.0
 30
0.0
  3
*D15
  1

  0
LINE
  5
1343
330
10A1
100
AcDbEntity
  8
BEM
 62
     0
370
    -2
100
AcDbLine
 10
157.6532303939162
 20
531.1481311724577
 30
0.0
 11
140.2944276896069
 21
531.1481311724577
 31
0.0
  0
LINE
  5
1344
330
10A1
100
AcDbEntity
  8
BEM
 62
     0
370
    -2
100
AcDbLine
 10
152.6532303939162
 20
476.1481311724576
 30
0.0
 11
140.2944276896069
 21
476.1481311724576
 31
0.0
  0
LINE
  5
1345
330
10A1
100
AcDbEntity
  8
BEM
 62
     0
370
    -2
100
AcDbLine
 10
142.2944276896069
 20
524.1481311724577
 30
0.0
 11
142.2944276896069
 21
483.1481311724576
 31
0.0
  0
SOLID
  5
1346
330
10A1
100
AcDbEntity
  8
BEM
 62
     0
100
AcDbTrace
 10
141.1277610229402
 20
524.1481311724577
 30
0.0
 11
143.4610943562735
 21
524.1481311724577
 31
0.0
 12
142.2944276896069
 22
531.1481311724577
 32
0.0
 13
142.2944276896069
 23
531.1481311724577
 33
0.0
  0
SOLID
  5
1347
330
10A1
100
AcDbEntity
  8
BEM
 62
     0
100
AcDbTrace
 10
141.1277610229402
 20
483.1481311724576
 30
0.0
 11
143.4610943562735
 21
483.1481311724576
 31
0.0
 12
142.2944276896069
 22
476.1481311724576
 32
0.0
 13
142.2944276896069
 23
476.1481311724576
 33
0.0
  0
MTEXT
  5
1348
330
10A1
100
AcDbEntity
  8
BEM
 62
     1
100
AcDbMText
 10
135.7944276896068
 20
503.6481311724577
 30
0.0
 40
7.0
 41
0.0
 71
     5
 72
     1
  1
\A1;55
 11
0.0000000000000001
 21
1.0
 31
0.0
 73
     1
 44
1.0
  0
POINT
  5
1349
330
10A1
100
AcDbEntity
  8
DEFPOINTS
 62
     0
100
AcDbPoint
 10
159.6532303939162
 20
531.1481311724577
 30
0.0
  0
POINT
  5
134A
330
10A1
100
AcDbEntity
  8
DEFPOINTS
 62
     0
100
AcDbPoint
 10
154.6532303939162
 20
476.1481311724576
 30
0.0
  0
POINT
  5
134B
330
10A1
100
AcDbEntity
  8
DEFPOINTS
 62
     0
100
AcDbPoint
 10
142.2944276896069
 20
476.1481311724576
 30
0.0
  0
ENDBLK
  5
10AC
330
10A1
100
AcDbEntity
  8
0
100
AcDbBlockEnd
  0
BLOCK
  5
11B0
330
11AF
100
AcDbEntity
  8
0
100
AcDbBlockBegin
  2
*X16
 70
     1
 10
0.0
 20
0.0
 30
0.0
  3
*X16
  1

  0
LINE
  5
11B1
330
11AF
100
AcDbEntity
  8
0
 62
     0
100
AcDbLine
 10
298.0960078669969
 20
139.9
 30
0.0
 11
301.146111383185
 21
139.9
 31
0.0
  0
LINE
  5
11B2
330
11AF
100
AcDbEntity
  8
0
 62
     0
100
AcDbLine
 10
298.0764170065196
 20
140.0
 30
0.0
 11
301.1199013409694
 21
140.0
 31
0.0
  0
LINE
  5
11B3
330
11AF
100
AcDbEntity
  8
0
 62
     0
100
AcDbLine
 10
298.0567001344326
 20
140.1
 30
0.0
 11
301.0907658659435
 21
140.1
 31
0.0
  0
LINE
  5
11B4
330
11AF
100
AcDbEntity
  8
0
 62
     0
100
AcDbLine
 10
298.0368571602607
 20
140.2
 30
0.0
 11
301.0586343137953
 21
140.2
 31
0.0
  0
LINE
  5
11B5
330
11AF
100
AcDbEntity
  8
0
 62
     0
100
AcDbLine
 10
298.0168879928627
 20
140.3
 30
0.0
 11
301.0234261106571
 21
140.3
 31
0.0
  0
LINE
  5
11B6
330
11AF
100
AcDbEntity
  8
0
 62
     0
100
AcDbLine
 10
297.9967925404292
 20
140.4
 30
0.0
 11
300.9850496121478
 21
140.4
 31
0.0
  0
LINE
  5
11B7
330
11AF
100
AcDbEntity
  8
0
 62
     0
100
AcDbLine
 10
297.9765707104801
 20
140.5
 30
0.0
 11
300.9434007291996
 21
140.5
 31
0.0
  0
LINE
  5
11B8
330
11AF
100
AcDbEntity
  8
0
 62
     0
100
AcDbLine
 10
297.9562224098627
 20
140.6
 30
0.0
 11
300.8983612668874
 21
140.6
 31
0.0
  0
LINE
  5
11B9
330
11AF
100
AcDbEntity
  8
0
 62
     0
100
AcDbLine
 10
297.9357475447491
 20
140.7
 30
0.0
 11
300.8497969062327
 21
140.7
 31
0.0
  0
LINE
  5
11BA
330
11AF
100
AcDbEntity
  8
0
 62
     0
100
AcDbLine
 10
297.9151460206341
 20
140.8
 30
0.0
 11
300.7975547368991
 21
140.8
 31
0.0
  0
LINE
  5
11BB
330
11AF
100
AcDbEntity
  8
0
 62
     0
100
AcDbLine
 10
297.8944177423331
 20
140.9
 30
0.0
 11
300.7414602183188
 21
140.9
 31
0.0
  0
LINE
  5
11BC
330
11AF
100
AcDbEntity
  8
0
 62
     0
100
AcDbLine
 10
297.8735626139794
 20
141.0
 30
0.0
 11
300.6813134043297
 21
141.0
 31
0.0
  0
LINE
  5
11BD
330
11AF
100
AcDbEntity
  8
0
 62
     0
100
AcDbLine
 10
297.852580539022
 20
141.1
 30
0.0
 11
300.616884206069
 21
141.1
 31
0.0
  0
LINE
  5
11BE
330
11AF
100
AcDbEntity
  8
0
 62
     0
100
AcDbLine
 10
297.8314714202235
 20
141.2
 30
0.0
 11
300.5479063805932
 21
141.2
 31
0.0
  0
LINE
  5
11BF
330
11AF
100
AcDbEntity
  8
0
 62
     0
100
AcDbLine
 10
297.8102351596573
 20
141.3
 30
0.0
 11
300.4740698039473
 21
141.3
 31
0.0
  0
LINE
  5
11C0
330
11AF
100
AcDbEntity
  8
0
 62
     0
100
AcDbLine
 10
297.7888716587055
 20
141.4
 30
0.0
 11
300.3950103932542
 21
141.4
 31
0.0
  0
LINE
  5
11C1
330
11AF
100
AcDbEntity
  8
0
 62
     0
100
AcDbLine
 10
297.7673808180563
 20
141.5
 30
0.0
 11
300.3102967423976
 21
141.5
 31
0.0
  0
LINE
  5
11C2
330
11AF
100
AcDbEntity
  8
0
 62
     0
100
AcDbLine
 10
297.7457625377017
 20
141.6
 30
0.0
 11
300.2194120592973
 21
141.6
 31
0.0
  0
LINE
  5
11C3
330
11AF
100
AcDbEntity
  8
0
 62
     0
100
AcDbLine
 10
297.724016716935
 20
141.7
 30
0.0
 11
300.1217292115549
 21
141.7
 31
0.0
  0
LINE
  5
11C4
330
11AF
100
AcDbEntity
  8
0
 62
     0
100
AcDbLine
 10
297.7021432543481
 20
141.8
 30
0.0
 11
300.0164753595461
 21
141.8
 31
0.0
  0
LINE
  5
11C5
330
11AF
100
AcDbEntity
  8
0
 62
     0
100
AcDbLine
 10
297.6801420478295
 20
141.9
 30
0.0
 11
299.9026803028212
 21
141.9
 31
0.0
  0
LINE
  5
11C6
330
11AF
100
AcDbEntity
  8
0
 62
     0
100
AcDbLine
 10
297.6580129945612
 20
142.0
 30
0.0
 11
299.7790982834405
 21
142.0
 31
0.0
  0
LINE
  5
11C7
330
11AF
100
AcDbEntity
  8
0
 62
     0
100
AcDbLine
 10
297.6357559910165
 20
142.1
 30
0.0
 11
299.6440843310736
 21
142.1
 31
0.0
  0
LINE
  5
11C8
330
11AF
100
AcDbEntity
  8
0
 62
     0
100
AcDbLine
 10
297.6133709329572
 20
142.2
 30
0.0
 11
299.495387841064
 21
142.2
 31
0.0
  0
LINE
  5
11C9
330
11AF
100
AcDbEntity
  8
0
 62
     0
100
AcDbLine
 10
297.5908577154313
 20
142.3
 30
0.0
 11
299.32978328562
 21
142.3
 31
0.0
  0
LINE
  5
11CA
330
11AF
100
AcDbEntity
  8
0
 62
     0
100
AcDbLine
 10
297.5682162327702
 20
142.4
 30
0.0
 11
299.1423459160044
 21
142.4
 31
0.0
  0
LINE
  5
11CB
330
11AF
100
AcDbEntity
  8
0
 62
     0
100
AcDbLine
 10
297.545446378586
 20
142.5
 30
0.0
 11
298.9248354028607
 21
142.5
 31
0.0
  0
LINE
  5
11CC
330
11AF
100
AcDbEntity
  8
0
 62
     0
100
AcDbLine
 10
297.5225480457689
 20
142.6
 30
0.0
 11
298.6612997479492
 21
142.6
 31
0.0
  0
LINE
  5
11CD
330
11AF
100
AcDbEntity
  8
0
 62
     0
100
AcDbLine
 10
297.4995211264845
 20
142.7
 30
0.0
 11
298.3109565344978
 21
142.7
 31
0.0
  0
LINE
  5
11CE
330
11AF
100
AcDbEntity
  8
0
 62
     0
100
AcDbLine
 10
298.0957463770402
 20
107.7
 30
0.0
 11
301.1407278857005
 21
107.7
 31
0.0
  0
LINE
  5
11CF
330
11AF
100
AcDbEntity
  8
0
 62
     0
100
AcDbLine
 10
298.0761538298603
 20
107.6
 30
0.0
 11
301.1095320855778
 21
107.6
 31
0.0
  0
LINE
  5
11D0
330
11AF
100
AcDbEntity
  8
0
 62
     0
100
AcDbLine
 10
298.0564352698635
 20
107.5
 30
0.0
 11
301.0754742557221
 21
107.5
 31
0.0
  0
LINE
  5
11D1
330
11AF
100
AcDbEntity
  8
0
 62
     0
100
AcDbLine
 10
298.0365906065659
 20
107.4
 30
0.0
 11
301.0384773546777
 21
107.4
 31
0.0
  0
LINE
  5
11D2
330
11AF
100
AcDbEntity
  8
0
 62
     0
100
AcDbLine
 10
298.0166197488174
 20
107.3
 30
0.0
 11
300.9984545240248
 21
107.3
 31
0.0
  0
LINE
  5
11D3
330
11AF
100
AcDbEntity
  8
0
 62
     0
100
AcDbLine
 10
297.9965226047994
 20
107.2
 30
0.0
 11
300.9553079002719
 21
107.2
 31
0.0
  0
LINE
  5
11D4
330
11AF
100
AcDbEntity
  8
0
 62
     0
100
AcDbLine
 10
297.976299082023
 20
107.1
 30
0.0
 11
300.9089271918567
 21
107.1
 31
0.0
  0
LINE
  5
11D5
330
11AF
100
AcDbEntity
  8
0
 62
     0
100
AcDbLine
 10
297.9559490873263
 20
107.0
 30
0.0
 11
300.859187966336
 21
107.0
 31
0.0
  0
LINE
  5
11D6
330
11AF
100
AcDbEntity
  8
0
 62
     0
100
AcDbLine
 10
297.9354725268726
 20
106.9
 30
0.0
 11
300.805949576409
 21
106.9
 31
0.0
  0
LINE
  5
11D7
330
11AF
100
AcDbEntity
  8
0
 62
     0
100
AcDbLine
 10
297.9148693061473
 20
106.8
 30
0.0
 11
300.7490526310996
 21
106.8
 31
0.0
  0
LINE
  5
11D8
330
11AF
100
AcDbEntity
  8
0
 62
     0
100
AcDbLine
 10
297.894139329957
 20
106.7
 30
0.0
 11
300.6883158876924
 21
106.7
 31
0.0
  0
LINE
  5
11D9
330
11AF
100
AcDbEntity
  8
0
 62
     0
100
AcDbLine
 10
297.8732825024256
 20
106.6
 30
0.0
 11
300.6235323970686
 21
106.6
 31
0.0
  0
LINE
  5
11DA
330
11AF
100
AcDbEntity
  8
0
 62
     0
100
AcDbLine
 10
297.8522987269931
 20
106.5
 30
0.0
 11
300.5544646741054
 21
106.5
 31
0.0
  0
LINE
  5
11DB
330
11AF
100
AcDbEntity
  8
0
 62
     0
100
AcDbLine
 10
297.8311879064128
 20
106.4
 30
0.0
 11
300.4808385766517
 21
106.4
 31
0.0
  0
LINE
  5
11DC
330
11AF
100
AcDbEntity
  8
0
 62
     0
100
AcDbLine
 10
297.809949942749
 20
106.3
 30
0.0
 11
300.4023354466637
 21
106.3
 31
0.0
  0
LINE
  5
11DD
330
11AF
100
AcDbEntity
  8
0
 62
     0
100
AcDbLine
 10
297.7885847373742
 20
106.2
 30
0.0
 11
300.3185818713807
 21
106.2
 31
0.0
  0
LINE
  5
11DE
330
11AF
100
AcDbEntity
  8
0
 62
     0
100
AcDbLine
 10
297.7670921909675
 20
106.1
 30
0.0
 11
300.2291361203638
 21
106.1
 31
0.0
  0
LINE
  5
11DF
330
11AF
100
AcDbEntity
  8
0
 62
     0
100
AcDbLine
 10
297.7454722035117
 20
106.0
 30
0.0
 11
300.1334698350881
 21
106.0
 31
0.0
  0
LINE
  5
11E0
330
11AF
100
AcDbEntity
  8
0
 62
     0
100
AcDbLine
 10
297.7237246742905
 20
105.9
 30
0.0
 11
300.0309427636306
 21
105.9
 31
0.0
  0
LINE
  5
11E1
330
11AF
100
AcDbEntity
  8
0
 62
     0
100
AcDbLine
 10
297.7018495018866
 20
105.8
 30
0.0
 11
299.9207670028696
 21
105.8
 31
0.0
  0
LINE
  5
11E2
330
11AF
100
AcDbEntity
  8
0
 62
     0
100
AcDbLine
 10
297.6798465841788
 20
105.7
 30
0.0
 11
299.8019548584239
 21
105.7
 31
0.0
  0
LINE
  5
11E3
330
11AF
100
AcDbEntity
  8
0
 62
     0
100
AcDbLine
 10
297.6577158183399
 20
105.6
 30
0.0
 11
299.6732400639777
 21
105.6
 31
0.0
  0
LINE
  5
11E4
330
11AF
100
AcDbEntity
  8
0
 62
     0
100
AcDbLine
 10
297.6354571008333
 20
105.5
 30
0.0
 11
299.5329534980252
 21
105.5
 31
0.0
  0
LINE
  5
11E5
330
11AF
100
AcDbEntity
  8
0
 62
     0
100
AcDbLine
 10
297.6130703274117
 20
105.4
 30
0.0
 11
299.3788163336778
 21
105.4
 31
0.0
  0
LINE
  5
11E6
330
11AF
100
AcDbEntity
  8
0
 62
     0
100
AcDbLine
 10
297.5905553931133
 20
105.3
 30
0.0
 11
299.2075714303314
 21
105.3
 31
0.0
  0
LINE
  5
11E7
330
11AF
100
AcDbEntity
  8
0
 62
     0
100
AcDbLine
 10
297.5679121922599
 20
105.2
 30
0.0
 11
299.0142642328993
 21
105.2
 31
0.0
  0
LINE
  5
11E8
330
11AF
100
AcDbEntity
  8
0
 62
     0
100
AcDbLine
 10
297.5451406184539
 20
105.1
 30
0.0
 11
298.7906505113269
 21
105.1
 31
0.0
  0
LINE
  5
11E9
330
11AF
100
AcDbEntity
  8
0
 62
     0
100
AcDbLine
 10
297.5222405645761
 20
105.0
 30
0.0
 11
298.5209205728285
 21
105.0
 31
0.0
  0
LINE
  5
11EA
330
11AF
100
AcDbEntity
  8
0
 62
     0
100
AcDbLine
 10
297.4992119227821
 20
104.9
 30
0.0
 11
298.1654778889277
 21
104.9
 31
0.0
  0
ENDBLK
  5
11EB
330
11AF
100
AcDbEntity
  8
0
100
AcDbBlockEnd
  0
BLOCK
  5
12A1
330
1297
100
AcDbEntity
  8
0
100
AcDbBlockBegin
  2
*D17
 70
     1
 10
0.0
 20
0.0
 30
0.0
  3
*D17
  1

  0
LINE
  5
12D9
330
1297
100
AcDbEntity
  8
BEM
 62
     0
370
    -2
100
AcDbLine
 10
346.6520120479545
 20
493.4971448431433
 30
0.0
 11
388.6690992270195
 21
492.0298758270483
 31
0.0
  0
LINE
  5
12DA
330
1297
100
AcDbEntity
  8
BEM
 62
     0
370
    -2
100
AcDbLine
 10
348.3969868830797
 20
543.4666861940979
 30
0.0
 11
390.4140740621447
 21
541.999417178003
 31
0.0
  0
LINE
  5
12DB
330
1297
100
AcDbEntity
  8
BEM
 62
     0
370
    -2
100
AcDbLine
 10
386.9146140498988
 20
499.0954106095871
 30
0.0
 11
388.1709959311889
 21
535.0734803822744
 31
0.0
  0
SOLID
  5
12DC
330
1297
100
AcDbEntity
  8
BEM
 62
     0
100
AcDbTrace
 10
385.7486580850432
 20
499.1361266890733
 30
0.0
 11
388.0805700147545
 21
499.0546945301008
 31
0.0
 12
386.6703175729813
 22
492.0996748204534
 32
0.0
 13
386.6703175729813
 23
492.0996748204534
 33
0.0
  0
SOLID
  5
12DD
330
1297
100
AcDbEntity
  8
BEM
 62
     0
100
AcDbTrace
 10
387.0050399663334
 20
535.1141964617607
 30
0.0
 11
389.3369518960446
 21
535.032764302788
 31
0.0
 12
388.4152924081065
 22
542.069216171408
 32
0.0
 13
388.4152924081065
 23
542.069216171408
 33
0.0
  0
MTEXT
  5
12DE
330
1297
100
AcDbEntity
  8
BEM
 62
     1
100
AcDbMText
 10
381.0467646149198
 20
517.3112922244971
 30
0.0
 40
7.0
 41
0.0
 71
     5
 72
     1
  1
\A1;50
 11
0.0348994967025044
 21
0.9993908270190956
 31
0.0
 73
     1
 44
1.0
  0
POINT
  5
12DF
330
1297
100
AcDbEntity
  8
DEFPOINTS
 62
     0
100
AcDbPoint
 10
344.6532303939163
 20
493.5669438365484
 30
0.0
  0
POINT
  5
12E0
330
1297
100
AcDbEntity
  8
DEFPOINTS
 62
     0
100
AcDbPoint
 10
346.3982052290415
 20
543.5364851875029
 30
0.0
  0
POINT
  5
12E1
330
1297
100
AcDbEntity
  8
DEFPOINTS
 62
     0
100
AcDbPoint
 10
388.4152924081065
 20
542.069216171408
 30
0.0
  0
ENDBLK
  5
12A2
330
1297
100
AcDbEntity
  8
0
100
AcDbBlockEnd
  0
BLOCK
  5
12AD
330
12A3
100
AcDbEntity
  8
0
100
AcDbBlockBegin
  2
*D18
 70
     1
 10
0.0
 20
0.0
 30
0.0
  3
*D18
  1

  0
LINE
  5
12E2
330
12A3
100
AcDbEntity
  8
BEM
 62
     0
370
    -2
100
AcDbLine
 10
314.4874977578356
 20
546.6520507360214
 30
0.0
 11
314.8403785514168
 21
556.757234519692
 31
0.0
  0
LINE
  5
12E3
330
12A3
100
AcDbEntity
  8
BEM
 62
     0
370
    -2
100
AcDbLine
 10
346.4680042224464
 20
545.5352668415414
 30
0.0
 11
346.8208850160277
 21
555.6404506252119
 31
0.0
  0
LINE
  5
12E4
330
12A3
100
AcDbEntity
  8
BEM
 62
     0
370
    -2
100
AcDbLine
 10
321.7663153471456
 20
554.5141563887362
 30
0.0
 11
339.755350233489
 21
553.8859654480912
 31
0.0
  0
SOLID
  5
12E5
330
12A3
100
AcDbEntity
  8
BEM
 62
     0
100
AcDbTrace
 10
321.8070314266318
 20
555.6801123535918
 30
0.0
 11
321.7255992676593
 21
553.3482004238806
 31
0.0
 12
314.7705795580119
 22
554.7584528656537
 32
0.0
 13
314.7705795580119
 23
554.7584528656537
 33
0.0
  0
SOLID
  5
12E6
330
12A3
100
AcDbEntity
  8
BEM
 62
     0
100
AcDbTrace
 10
339.7960663129753
 20
555.0519214129468
 30
0.0
 11
339.7146341540028
 21
552.7200094832356
 31
0.0
 12
346.7510860226227
 22
553.6416689711737
 32
0.0
 13
346.7510860226227
 23
553.6416689711737
 33
0.0
  0
MTEXT
  5
12E7
330
12A3
100
AcDbEntity
  8
BEM
 62
     1
100
AcDbMText
 10
330.9876795188835
 20
560.6961012940379
 30
0.0
 40
7.0
 41
0.0
 71
     5
 72
     1
  1
\A1;%%c32
 11
0.9993908270190956
 21
-0.0348994967025015
 31
0.0
 73
     1
 44
1.0
  0
POINT
  5
12E8
330
12A3
100
AcDbEntity
  8
DEFPOINTS
 62
     0
100
AcDbPoint
 10
314.4176987644306
 20
544.6532690819832
 30
0.0
  0
POINT
  5
12E9
330
12A3
100
AcDbEntity
  8
DEFPOINTS
 62
     0
100
AcDbPoint
 10
346.3982052290414
 20
543.5364851875032
 30
0.0
  0
POINT
  5
12EA
330
12A3
100
AcDbEntity
  8
DEFPOINTS
 62
     0
100
AcDbPoint
 10
346.7510860226227
 20
553.6416689711737
 30
0.0
  0
ENDBLK
  5
12AE
330
12A3
100
AcDbEntity
  8
0
100
AcDbBlockEnd
  0
BLOCK
  5
12B9
330
12AF
100
AcDbEntity
  8
0
100
AcDbBlockBegin
  2
*D19
 70
     1
 10
0.0
 20
0.0
 30
0.0
  3
*D19
  1

  0
LINE
  5
12EB
330
12AF
100
AcDbEntity
  8
BEM
 62
     0
370
    -2
100
AcDbLine
 10
299.6017751197421
 20
509.148793193336
 30
0.0
 11
298.7447337937781
 21
475.8477312482803
 31
0.0
  0
LINE
  5
12EC
330
12AF
100
AcDbEntity
  8
BEM
 62
     0
370
    -2
100
AcDbLine
 10
344.6017751197421
 20
491.5676058574264
 30
0.0
 11
344.1671204687247
 21
474.6787336178571
 31
0.0
  0
LINE
  5
12ED
330
12AF
100
AcDbEntity
  8
BEM
 62
     0
370
    -2
100
AcDbLine
 10
305.7938719948793
 20
477.6669757677924
 30
0.0
 11
337.2208928159719
 21
476.858165056589
 31
0.0
  0
SOLID
  5
12EE
330
12AF
100
AcDbEntity
  8
BEM
 62
     0
100
AcDbTrace
 10
305.823887571481
 20
478.8332562556135
 30
0.0
 11
305.7638564182777
 21
476.5006952799711
 31
0.0
 12
298.7961890679524
 22
477.8470692274023
 32
0.0
 13
298.7961890679524
 23
477.8470692274023
 33
0.0
  0
SOLID
  5
12EF
330
12AF
100
AcDbEntity
  8
BEM
 62
     0
100
AcDbTrace
 10
337.2509083925735
 20
478.0244455444101
 30
0.0
 11
337.1908772393703
 21
475.6918845687677
 31
0.0
 12
344.2185757428989
 22
476.6780715969791
 32
0.0
 13
344.2185757428989
 23
476.6780715969791
 33
0.0
  0
MTEXT
  5
12F0
330
12AF
100
AcDbEntity
  8
BEM
 62
     1
100
AcDbMText
 10
321.674612046492
 20
483.7604188443371
 30
0.0
 40
7.0
 41
0.0
 71
     5
 72
     1
  1
\A1;45
 11
0.9996689895610012
 21
-0.0257276370871307
 31
0.0
 73
     1
 44
1.0
  0
POINT
  5
12F1
330
12AF
100
AcDbEntity
  8
DEFPOINTS
 62
     0
100
AcDbPoint
 10
299.6532303939163
 20
511.148131172458
 30
0.0
  0
POINT
  5
12F2
330
12AF
100
AcDbEntity
  8
DEFPOINTS
 62
     0
100
AcDbPoint
 10
344.6532303939163
 20
493.5669438365484
 30
0.0
  0
POINT
  5
12F3
330
12AF
100
AcDbEntity
  8
DEFPOINTS
 62
     0
100
AcDbPoint
 10
344.2185757428989
 20
476.6780715969791
 30
0.0
  0
ENDBLK
  5
12BA
330
12AF
100
AcDbEntity
  8
0
100
AcDbBlockEnd
  0
BLOCK
  5
12C7
330
12BB
100
AcDbEntity
  8
0
100
AcDbBlockBegin
  2
*D20
 70
     1
 10
0.0
 20
0.0
 30
0.0
  3
*D20
  1

  0
LINE
  5
15D5
330
12BB
100
AcDbEntity
  8
BEM
 62
     0
370
    -2
100
AcDbLine
 10
305.6532303939164
 20
531.1481311724578
 30
0.0
 11
377.0825567465856
 21
531.1481311724578
 31
0.0
  0
LINE
  5
15D6
330
12BB
100
AcDbEntity
  8
BEM
 62
     0
370
    -2
100
AcDbLine
 10
303.6532303939164
 20
511.1481311724581
 30
0.0
 11
377.0825567465856
 21
511.1481311724581
 31
0.0
  0
LINE
  5
15D7
330
12BB
100
AcDbEntity
  8
BEM
 62
     0
370
    -2
100
AcDbLine
 10
375.0825567465856
 20
538.1481311724578
 30
0.0
 11
375.0825567465856
 21
545.1481311724578
 31
0.0
  0
LINE
  5
15D8
330
12BB
100
AcDbEntity
  8
BEM
 62
     0
370
    -2
100
AcDbLine
 10
375.0825567465856
 20
504.1481311724582
 30
0.0
 11
375.0825567465856
 21
497.1481311724581
 31
0.0
  0
LINE
  5
15D9
330
12BB
100
AcDbEntity
  8
BEM
 62
     0
370
    -2
100
AcDbLine
 10
375.0825567465856
 20
531.1481311724578
 30
0.0
 11
375.0825567465856
 21
511.1481311724581
 31
0.0
  0
SOLID
  5
15DA
330
12BB
100
AcDbEntity
  8
BEM
 62
     0
100
AcDbTrace
 10
373.915890079919
 20
538.1481311724578
 30
0.0
 11
376.2492234132523
 21
538.1481311724578
 31
0.0
 12
375.0825567465856
 22
531.1481311724578
 32
0.0
 13
375.0825567465856
 23
531.1481311724578
 33
0.0
  0
SOLID
  5
15DB
330
12BB
100
AcDbEntity
  8
BEM
 62
     0
100
AcDbTrace
 10
373.915890079919
 20
504.1481311724582
 30
0.0
 11
376.2492234132523
 21
504.1481311724582
 31
0.0
 12
375.0825567465856
 22
511.1481311724581
 32
0.0
 13
375.0825567465856
 23
511.1481311724581
 33
0.0
  0
MTEXT
  5
15DC
330
12BB
100
AcDbEntity
  8
BEM
 62
     1
100
AcDbMText
 10
368.5825567465855
 20
521.1481311724581
 30
0.0
 40
7.0
 41
0.0
 71
     5
 72
     1
  1
\A1;20
 11
0.0000000000000001
 21
1.0
 31
0.0
 73
     1
 44
1.0
  0
POINT
  5
15DD
330
12BB
100
AcDbEntity
  8
DEFPOINTS
 62
     0
100
AcDbPoint
 10
303.6532303939164
 20
531.1481311724578
 30
0.0
  0
POINT
  5
15DE
330
12BB
100
AcDbEntity
  8
DEFPOINTS
 62
     0
100
AcDbPoint
 10
301.6532303939164
 20
511.1481311724581
 30
0.0
  0
POINT
  5
15DF
330
12BB
100
AcDbEntity
  8
DEFPOINTS
 62
     0
100
AcDbPoint
 10
375.0825567465856
 20
511.1481311724581
 30
0.0
  0
ENDBLK
  5
12C8
330
12BB
100
AcDbEntity
  8
0
100
AcDbBlockEnd
  0
BLOCK
  5
12D7
330
12C9
100
AcDbEntity
  8
0
100
AcDbBlockBegin
  2
*D21
 70
     1
 10
0.0
 20
0.0
 30
0.0
  3
*D21
  1

  0
LINE
  5
12FF
330
12C9
100
AcDbEntity
  8
BEM
 62
     0
370
    -2
100
AcDbLine
 10
331.220150762889
 20
510.0457900226889
 30
0.0
 11
363.9270250070069
 21
508.9036408064144
 31
0.0
  0
LINE
  5
1300
330
12C9
100
AcDbEntity
  8
BEM
 62
     0
370
    -2
100
AcDbLine
 10
301.6532303939164
 20
511.1481311724581
 30
0.0
 11
363.966202732077
 21
511.1481311724587
 31
0.0
  0
ARC
  5
1301
330
12C9
100
AcDbEntity
  8
BEM
 62
     0
370
    -2
100
AcDbCircle
 10
299.6532303939164
 20
511.148131172458
 30
0.0
 40
62.31297233816058
100
AcDbArc
 50
345.1204461000357
 51
351.5602230500178
  0
ARC
  5
1302
330
12C9
100
AcDbEntity
  8
BEM
 62
     0
370
    -2
100
AcDbCircle
 10
299.6532303939164
 20
511.148131172458
 30
0.0
 40
62.31297233816058
100
AcDbArc
 50
6.439776949982727
 51
12.87955389996489
  0
ARC
  5
1303
330
12C9
100
AcDbEntity
  8
BEM
 62
     0
370
    -2
100
AcDbCircle
 10
299.6532303939164
 20
511.148131172458
 30
0.0
 40
62.31297233816058
100
AcDbArc
 50
358.0
 51
0.0000000000006395
  0
SOLID
  5
1304
330
12C9
100
AcDbEntity
  8
BEM
 62
     0
100
AcDbTrace
 10
360.1295671364767
 20
502.1086109615062
 30
0.0
 11
362.4532238524968
 21
501.8963283420122
 31
0.0
 12
361.9282433529687
 22
508.9734397998194
 32
0.0
 13
361.9282433529687
 23
508.9734397998194
 33
0.0
  0
SOLID
  5
1305
330
12C9
100
AcDbEntity
  8
BEM
 62
     0
100
AcDbTrace
 10
362.7378510556541
 20
518.202609889971
 30
0.0
 11
360.4082012919433
 21
518.0715510372115
 31
0.0
 12
361.966202732077
 22
511.1481311724587
 32
0.0
 13
361.966202732077
 23
511.1481311724587
 33
0.0
  0
MTEXT
  5
1306
330
12C9
100
AcDbEntity
  8
BEM
 62
     1
100
AcDbMText
 10
354.9770923972525
 20
503.7753315511403
 30
0.0
 40
7.0
 41
0.0
 71
     5
 72
     1
  1
\A1;2°
 11
0.1320983153638067
 21
0.9912366191167699
 31
0.0
 73
     1
 44
1.0
  0
POINT
  5
1307
330
12C9
100
AcDbEntity
  8
DEFPOINTS
 62
     0
100
AcDbPoint
 10
361.9619846425878
 20
510.4231031764288
 30
0.0
  0
POINT
  5
1308
330
12C9
100
AcDbEntity
  8
DEFPOINTS
 62
     0
100
AcDbPoint
 10
299.6532303939164
 20
511.148131172458
 30
0.0
  0
POINT
  5
1309
330
12C9
100
AcDbEntity
  8
DEFPOINTS
 62
     0
100
AcDbPoint
 10
299.6532303939164
 20
511.148131172458
 30
0.0
  0
POINT
  5
130A
330
12C9
100
AcDbEntity
  8
DEFPOINTS
 62
     0
100
AcDbPoint
 10
329.2213691088509
 20
510.1155890160938
 30
0.0
  0
POINT
  5
130B
330
12C9
100
AcDbEntity
  8
DEFPOINTS
 62
     0
100
AcDbPoint
 10
292.6532303939161
 20
511.148131172458
 30
0.0
  0
ENDBLK
  5
12D8
330
12C9
100
AcDbEntity
  8
0
100
AcDbBlockEnd
  0
BLOCK
  5
1599
330
158F
100
AcDbEntity
  8
0
100
AcDbBlockBegin
  2
*D22
 70
     1
 10
0.0
 20
0.0
 30
0.0
  3
*D22
  1

  0
LINE
  5
15AD
330
158F
100
AcDbEntity
  8
BEM
 62
     0
370
    -2
100
AcDbLine
 10
159.6532303939162
 20
53.91841850684073
 30
0.0
 11
159.6532303939162
 21
16.82526209436105
 31
0.0
  0
LINE
  5
15AE
330
158F
100
AcDbEntity
  8
BEM
 62
     0
370
    -2
100
AcDbLine
 10
303.6532303939162
 20
121.8006695007493
 30
0.0
 11
303.6532303939162
 21
16.82526209436105
 31
0.0
  0
LINE
  5
15AF
330
158F
100
AcDbEntity
  8
BEM
 62
     0
370
    -2
100
AcDbLine
 10
166.6532303939162
 20
18.82526209436105
 30
0.0
 11
296.6532303939163
 21
18.82526209436105
 31
0.0
  0
SOLID
  5
15B0
330
158F
100
AcDbEntity
  8
BEM
 62
     0
100
AcDbTrace
 10
166.6532303939162
 20
19.99192876102772
 30
0.0
 11
166.6532303939162
 21
17.65859542769438
 31
0.0
 12
159.6532303939162
 22
18.82526209436105
 32
0.0
 13
159.6532303939162
 23
18.82526209436105
 33
0.0
  0
SOLID
  5
15B1
330
158F
100
AcDbEntity
  8
BEM
 62
     0
100
AcDbTrace
 10
296.6532303939163
 20
19.99192876102772
 30
0.0
 11
296.6532303939163
 21
17.65859542769438
 31
0.0
 12
303.6532303939162
 22
18.82526209436105
 32
0.0
 13
303.6532303939162
 23
18.82526209436105
 33
0.0
  0
MTEXT
  5
15B2
330
158F
100
AcDbEntity
  8
BEM
 62
     1
100
AcDbMText
 10
231.6532303939163
 20
25.32526209436105
 30
0.0
 40
7.0
 41
0.0
 71
     5
 72
     1
  1
\A1;144
 73
     1
 44
1.0
  0
POINT
  5
15B3
330
158F
100
AcDbEntity
  8
DEFPOINTS
 62
     0
100
AcDbPoint
 10
159.6532303939162
 20
55.91841850684073
 30
0.0
  0
POINT
  5
15B4
330
158F
100
AcDbEntity
  8
DEFPOINTS
 62
     0
100
AcDbPoint
 10
303.6532303939162
 20
123.8006695007493
 30
0.0
  0
POINT
  5
15B5
330
158F
100
AcDbEntity
  8
DEFPOINTS
 62
     0
100
AcDbPoint
 10
303.6532303939162
 20
18.82526209436105
 30
0.0
  0
ENDBLK
  5
159A
330
158F
100
AcDbEntity
  8
0
100
AcDbBlockEnd
  0
BLOCK
  5
15C1
330
15B7
100
AcDbEntity
  8
0
100
AcDbBlockBegin
  2
*D23
 70
     1
 10
0.0
 20
0.0
 30
0.0
  3
*D23
  1

  0
LINE
  5
15CC
330
15B7
100
AcDbEntity
  8
BEM
 62
     0
370
    -2
100
AcDbLine
 10
484.9531753823185
 20
326.1481311724578
 30
0.0
 11
484.9531753823185
 21
215.9274932348567
 31
0.0
  0
LINE
  5
15CD
330
15B7
100
AcDbEntity
  8
BEM
 62
     0
370
    -2
100
AcDbLine
 10
652.9531753823184
 20
326.1481311724578
 30
0.0
 11
652.9531753823184
 21
215.9274932348567
 31
0.0
  0
LINE
  5
15CE
330
15B7
100
AcDbEntity
  8
BEM
 62
     0
370
    -2
100
AcDbLine
 10
491.9531753823185
 20
217.9274932348567
 30
0.0
 11
645.9531753823185
 21
217.9274932348567
 31
0.0
  0
SOLID
  5
15CF
330
15B7
100
AcDbEntity
  8
BEM
 62
     0
100
AcDbTrace
 10
491.9531753823185
 20
219.0941599015233
 30
0.0
 11
491.9531753823185
 21
216.76082656819
 31
0.0
 12
484.9531753823185
 22
217.9274932348567
 32
0.0
 13
484.9531753823185
 23
217.9274932348567
 33
0.0
  0
SOLID
  5
15D0
330
15B7
100
AcDbEntity
  8
BEM
 62
     0
100
AcDbTrace
 10
645.9531753823185
 20
219.0941599015233
 30
0.0
 11
645.9531753823185
 21
216.76082656819
 31
0.0
 12
652.9531753823184
 22
217.9274932348567
 32
0.0
 13
652.9531753823184
 23
217.9274932348567
 33
0.0
  0
MTEXT
  5
15D1
330
15B7
100
AcDbEntity
  8
BEM
 62
     1
100
AcDbMText
 10
568.9531753823184
 20
224.4274932348567
 30
0.0
 40
7.0
 41
0.0
 71
     5
 72
     1
  1
\A1;%%c168
 73
     1
 44
1.0
  0
POINT
  5
15D2
330
15B7
100
AcDbEntity
  8
DEFPOINTS
 62
     0
100
AcDbPoint
 10
484.9531753823185
 20
328.1481311724578
 30
0.0
  0
POINT
  5
15D3
330
15B7
100
AcDbEntity
  8
DEFPOINTS
 62
     0
100
AcDbPoint
 10
652.9531753823184
 20
328.1481311724578
 30
0.0
  0
POINT
  5
15D4
330
15B7
100
AcDbEntity
  8
DEFPOINTS
 62
     0
100
AcDbPoint
 10
652.9531753823184
 20
217.9274932348567
 30
0.0
  0
ENDBLK
  5
15C2
330
15B7
100
AcDbEntity
  8
0
100
AcDbBlockEnd
  0
ENDSEC
  0
SECTION
  2
ENTITIES
  0
LINE
  5
58
330
1E
100
AcDbEntity
  8
STEMPEL
100
AcDbLine
 10
830.0000000000002
 20
110.0
 30
0.0
 11
470.0000000000001
 21
110.0
 31
0.0
  0
LINE
  5
59
330
1E
100
AcDbEntity
  8
STEMPEL
100
AcDbLine
 10
470.0000000000001
 20
110.0
 30
0.0
 11
470.0000000000001
 21
10.0
 31
0.0
  0
LINE
  5
5A
330
1E
100
AcDbEntity
  8
STEMPEL
100
AcDbLine
 10
566.0000000000002
 20
109.9999999999999
 30
0.0
 11
566.0000000000001
 21
9.999999999999886
 31
0.0
  0
LINE
  5
5B
330
1E
100
AcDbEntity
  8
STEMPEL
100
AcDbLine
 10
650.0
 20
110.0
 30
0.0
 11
650.0
 21
10.0
 31
0.0
  0
LINE
  5
5C
330
1E
100
AcDbEntity
  8
STEMPEL
100
AcDbLine
 10
752.0000000000002
 20
109.9999999999997
 30
0.0
 11
752.0000000000002
 21
40.0
 31
0.0
  0
LINE
  5
5D
330
1E
100
AcDbEntity
  8
STEMPEL
100
AcDbLine
 10
566.0
 20
30.0
 30
0.0
 11
470.0000000000001
 21
30.0
 31
0.0
  0
LINE
  5
5E
330
1E
100
AcDbEntity
  8
STEMPEL
100
AcDbLine
 10
830.0000000000002
 20
40.0
 30
0.0
 11
566.0000000000001
 21
40.0
 31
0.0
  0
LINE
  5
5F
330
1E
100
AcDbEntity
  8
STEMPEL
100
AcDbLine
 10
830.0000000000002
 20
80.0
 30
0.0
 11
566.0000000000002
 21
80.0
 31
0.0
  0
LINE
  5
60
330
1E
100
AcDbEntity
  8
VOLL
100
AcDbLine
 10
484.0000000000002
 20
110.0
 30
0.0
 11
484.0000000000001
 21
9.999999999999985
 31
0.0
  0
LINE
  5
61
330
1E
100
AcDbEntity
  8
VOLL
100
AcDbLine
 10
524.0000000000001
 20
109.9999999999999
 30
0.0
 11
524.0000000000001
 21
9.999999999999943
 31
0.0
  0
LINE
  5
62
330
1E
100
AcDbEntity
  8
VOLL
100
AcDbLine
 10
544.0000000000002
 20
109.9999999999999
 30
0.0
 11
544.0000000000001
 21
9.999999999999914
 31
0.0
  0
LINE
  5
63
330
1E
100
AcDbEntity
  8
VOLL
100
AcDbLine
 10
584.0000000000002
 20
80.0
 30
0.0
 11
584.0000000000002
 21
40.0
 31
0.0
  0
LINE
  5
64
330
1E
100
AcDbEntity
  8
VOLL
100
AcDbLine
 10
610.0000000000002
 20
109.9999999999998
 30
0.0
 11
610.0000000000001
 21
40.0
 31
0.0
  0
LINE
  5
65
330
1E
100
AcDbEntity
  8
HILF
100
AcDbLine
 10
470.0000000000001
 20
100.0
 30
0.0
 11
566.0000000000002
 21
100.0
 31
0.0
  0
LINE
  5
66
330
1E
100
AcDbEntity
  8
HILF
100
AcDbLine
 10
470.0000000000001
 20
90.0
 30
0.0
 11
566.0000000000002
 21
90.0
 31
0.0
  0
LINE
  5
67
330
1E
100
AcDbEntity
  8
HILF
100
AcDbLine
 10
470.0000000000001
 20
80.0
 30
0.0
 11
566.0000000000002
 21
80.0
 31
0.0
  0
LINE
  5
68
330
1E
100
AcDbEntity
  8
HILF
100
AcDbLine
 10
470.0000000000001
 20
70.0
 30
0.0
 11
566.0000000000002
 21
70.0
 31
0.0
  0
LINE
  5
69
330
1E
100
AcDbEntity
  8
HILF
100
AcDbLine
 10
470.0000000000001
 20
60.0
 30
0.0
 11
566.0000000000002
 21
60.0
 31
0.0
  0
LINE
  5
6A
330
1E
100
AcDbEntity
  8
HILF
100
AcDbLine
 10
470.0000000000001
 20
50.0
 30
0.0
 11
566.0000000000002
 21
50.0
 31
0.0
  0
LINE
  5
6B
330
1E
100
AcDbEntity
  8
HILF
100
AcDbLine
 10
470.0000000000001
 20
40.0
 30
0.0
 11
566.0000000000002
 21
40.0
 31
0.0
  0
LINE
  5
6C
330
1E
100
AcDbEntity
  8
HILF
100
AcDbLine
 10
566.0000000000002
 20
70.0
 30
0.0
 11
650.0
 21
70.0
 31
0.0
  0
LINE
  5
6D
330
1E
100
AcDbEntity
  8
HILF
100
AcDbLine
 10
566.0000000000002
 20
60.0
 30
0.0
 11
650.0
 21
60.0
 31
0.0
  0
LINE
  5
6E
330
1E
100
AcDbEntity
  8
HILF
100
AcDbLine
 10
566.0000000000002
 20
50.0
 30
0.0
 11
650.0
 21
50.0
 31
0.0
  0
LINE
  5
6F
330
1E
100
AcDbEntity
  8
HILF
100
AcDbLine
 10
654.7736801096948
 20
84.03758247564136
 30
0.0
 11
746.6297842514811
 21
84.03758247564136
 31
0.0
  0
LINE
  5
70
330
1E
100
AcDbEntity
  8
HILF
100
AcDbLine
 10
654.7736801096948
 20
70.0
 30
0.0
 11
746.6297842514811
 21
70.0
 31
0.0
  0
LINE
  5
71
330
1E
100
AcDbEntity
  8
HILF
100
AcDbLine
 10
654.7736801096948
 20
60.0
 30
0.0
 11
746.6297842514811
 21
60.0
 31
0.0
  0
LINE
  5
72
330
1E
100
AcDbEntity
  8
HILF
100
AcDbLine
 10
654.7736801096948
 20
50.0
 30
0.0
 11
746.6297842514811
 21
50.0
 31
0.0
  0
LINE
  5
73
330
1E
100
AcDbEntity
  8
VOLL
100
AcDbLine
 10
752.0000000000002
 20
60.0
 30
0.0
 11
830.0000000000002
 21
60.0
 31
0.0
  0
LINE
  5
74
330
1E
100
AcDbEntity
  8
HILF
100
AcDbLine
 10
756.7238616296995
 20
83.77983636955823
 30
0.0
 11
824.858883932673
 21
83.77983636955823
 31
0.0
  0
LINE
  5
75
330
1E
100
AcDbEntity
  8
HILF
100
AcDbLine
 10
654.7736801096948
 20
14.89398258028305
 30
0.0
 11
824.858883932673
 21
14.89398258028305
 31
0.0
  0
TEXT
  5
76
330
1E
100
AcDbEntity
  8
TEXT
100
AcDbText
 10
492.3998239263297
 20
18.67381894984129
 30
0.0
 40
4.0
  1
Änderung
 41
0.8
  7
GREEKS
 72
     1
 11
503.1426810691868
 21
18.67381894984129
 31
0.0
100
AcDbText
  0
TEXT
  5
78
330
1E
100
AcDbEntity
  8
TEXT
100
AcDbText
 10
573.5163572150378
 20
102.4620895087088
 30
0.0
 40
5.0
  1
Maßstab
 41
0.8
  7
GREEKS
100
AcDbText
  0
TEXT
  5
79
330
1E
100
AcDbEntity
  8
TEXT
100
AcDbText
 10
654.8779403809011
 20
102.5489328011779
 30
0.0
 40
5.0
  1
Benennung
 41
0.8
  7
GREEKS
100
AcDbText
  0
TEXT
  5
7A
330
1E
100
AcDbEntity
  8
TEXT
100
AcDbText
 10
756.1787549576343
 20
102.3132034537135
 30
0.0
 40
5.0
  1
Zeichnungs Nr.
 41
0.8
  7
GREEKS
100
AcDbText
  0
TEXT
  5
7B
330
1E
100
AcDbEntity
  8
TEXT
100
AcDbText
 10
654.742238391136
 20
30.84560570193055
 30
0.0
 40
5.0
  1
Bauvorhaben
 41
0.8
  7
GREEKS
100
AcDbText
  0
TEXT
  5
7C
330
1E
100
AcDbEntity
  8
TEXT
100
AcDbText
 10
756.7238616296995
 20
73.18118237099965
 30
0.0
 40
5.0
  1
Ersatz für:
 41
0.8
  7
GREEKS
100
AcDbText
  0
TEXT
  5
7D
330
1E
100
AcDbEntity
  8
TEXT
100
AcDbText
 10
478.2664110704577
 20
13.65465846027187
 30
0.0
 40
4.0
  1
Index
 50
90.0
 41
0.8
  7
GREEKS
100
AcDbText
  0
TEXT
  5
7E
330
1E
100
AcDbEntity
  8
TEXT
100
AcDbText
 10
529.8990113186979
 20
18.67156269339808
 30
0.0
 40
4.0
  1
Tag
 41
0.8
  7
GREEKS
 72
     1
 11
533.6323446520313
 21
18.67156269339808
 31
0.0
100
AcDbText
  0
TEXT
  5
7F
330
1E
100
AcDbEntity
  8
TEXT
100
AcDbText
 10
548.9795678138293
 20
18.59324216966404
 30
0.0
 40
4.0
  1
Name
 41
0.8
  7
GREEKS
 72
     1
 11
555.3033773376388
 21
18.59324216966404
 31
0.0
100
AcDbText
  0
TEXT
  5
80
330
1E
100
AcDbEntity
  8
TEXT
100
AcDbText
 10
592.3311673153651
 20
73.31880501229919
 30
0.0
 40
4.0
  1
Tag
 41
0.8
  7
GREEKS
100
AcDbText
  0
TEXT
  5
81
330
1E
100
AcDbEntity
  8
TEXT
100
AcDbText
 10
622.4626584226296
 20
73.3096109191522
 30
0.0
 40
4.0
  1
Name
 41
0.8
  7
GREEKS
100
AcDbText
  0
TEXT
  5
82
330
1E
100
AcDbEntity
  8
TEXT
100
AcDbText
 10
567.5836127167616
 20
63.62990369617961
 30
0.0
 40
4.0
  1
Gez.
 41
0.8
  7
GREEKS
100
AcDbText
  0
TEXT
  5
83
330
1E
100
AcDbEntity
  8
TEXT
100
AcDbText
 10
567.5515086571673
 20
53.68926291428373
 30
0.0
 40
4.0
  1
Gepr.
 41
0.8
  7
GREEKS
100
AcDbText
  0
TEXT
  5
84
330
1E
100
AcDbEntity
  8
TEXT
100
AcDbText
 10
567.6006777387304
 20
43.52946389649804
 30
0.0
 40
4.0
  1
Norm.
 41
0.8
  7
GREEKS
100
AcDbText
  0
TEXT
  5
85
330
1E
100
AcDbEntity
  8
TEXT
100
AcDbText
 10
757.2400861497007
 20
52.07416177878596
 30
0.0
 40
5.0
  1
ersetzt durch:
 41
0.8
  7
GREEKS
100
AcDbText
  0
TEXT
  5
86
330
1E
100
AcDbEntity
  8
TEXT
100
AcDbText
 10
568.8693027807324
 20
72.96682596523723
 30
0.0
 40
4.0
  1
2012
 41
0.8
  7
GREEKS
100
AcDbText
  0
LINE
  5
87
330
1E
100
AcDbEntity
  8
HILF
100
AcDbLine
 10
0.0
 20
0.0
 30
0.0
 11
840.0
 21
0.0
 31
0.0
  0
LINE
  5
88
330
1E
100
AcDbEntity
  8
HILF
100
AcDbLine
 10
840.0
 20
0.0
 30
0.0
 11
840.0
 21
594.0
 31
0.0
  0
LINE
  5
89
330
1E
100
AcDbEntity
  8
HILF
100
AcDbLine
 10
840.0
 20
594.0
 30
0.0
 11
0.0
 21
594.0
 31
0.0
  0
LINE
  5
8B
330
1E
100
AcDbEntity
  8
STEMPEL
100
AcDbLine
 10
830.0
 20
584.0
 30
0.0
 11
40.0
 21
584.0
 31
0.0
  0
LINE
  5
8D
330
1E
100
AcDbEntity
  8
STEMPEL
100
AcDbLine
 10
40.0
 20
10.0
 30
0.0
 11
830.0
 21
10.0
 31
0.0
  0
LINE
  5
8E
330
1E
100
AcDbEntity
  8
STEMPEL
100
AcDbLine
 10
830.0
 20
10.0
 30
0.0
 11
830.0
 21
584.0
 31
0.0
  0
TEXT
  5
8F
330
1E
100
AcDbEntity
  8
TEXT
 62
     1
100
AcDbText
 10
655.0390572473189
 20
87.37343075652544
 30
0.0
 40
7.0
  1
Sammeltopf DN70
 41
0.8
  7
GREEKS
100
AcDbText
  0
TEXT
  5
90
330
1E
100
AcDbEntity
  8
TEXT
 62
     1
100
AcDbText
 10
766.1294755517469
 20
87.37343075652544
 30
0.0
 40
7.0
  1
04380070W
 41
0.8
  7
GREEKS
 72
     1
 11
790.1294755517469
 21
87.37343075652544
 31
0.0
100
AcDbText
  0
TEXT
  5
91
330
1E
100
AcDbEntity
  8
TEXT
100
AcDbText
 10
618.509022641583
 20
102.83989611379
 30
0.0
 40
5.0
  1
Zul.Abw.
 41
0.8
  7
GREEKS
100
AcDbText
  0
TEXT
  5
93
330
1E
100
AcDbEntity
  8
TEXT
100
AcDbText
 10
590.7660475607107
 20
63.1508587612022
 30
0.0
 40
4.0
  1
17.01.
 41
0.8
  7
GREEKS
 72
     1
 11
597.1660475607107
 21
63.1508587612022
 31
0.0
100
AcDbText
  0
TEXT
  5
94
330
1E
100
AcDbEntity
  8
TEXT
100
AcDbText
 10
624.023175322661
 20
62.94297655165468
 30
0.0
 40
4.0
  1
Koeh
 41
0.8
  7
GREEKS
 72
     1
 11
629.2803181798038
 21
62.94297655165468
 31
0.0
100
AcDbText
  0
TEXT
  5
95
330
1E
100
AcDbEntity
  8
TEXT
100
AcDbText
 10
654.3410940884992
 20
72.10021383107525
 30
0.0
 40
5.0
  1
für Dachabläufe
 41
0.8
  7
GREEKS
100
AcDbText
  0
TEXT
  5
97
330
1E
100
AcDbEntity
  8
TEXT
100
AcDbText
 10
654.3410940884992
 20
52.59097337846058
 30
0.0
 40
5.0
  1
EDV-Art.Nr. 04380.070X
 41
0.8
  7
GREEKS
100
AcDbText
  0
TEXT
  5
98
330
1E
100
AcDbEntity
  8
TEXT
100
AcDbText
 10
654.1676050109348
 20
43.31127624791508
 30
0.0
 40
4.0
  1
S004519W.DWG
 41
0.8
  7
GREEKS
100
AcDbText
  0
TEXT
  5
99
330
1E
100
AcDbEntity
  8
TEXT
 62
     1
100
AcDbText
 10
582.7034912034222
 20
87.47077088414977
 30
0.0
 40
7.0
  1
1:2
 41
0.8
  7
GREEKS
100
AcDbText
  0
TEXT
  5
9A
330
1E
100
AcDbEntity
  8
TEXT
100
AcDbText
 10
470.0441139350127
 20
114.1143585051043
 30
0.0
 40
5.0
  1
Erstellt mit AUTOCAD 2004
 41
0.8
  7
GREEKS
100
AcDbText
  0
INSERT
  5
9B
330
1E
100
AcDbEntity
  8
HILF
100
AcDbBlockReference
  2
LORO
 10
573.0624985962354
 20
36.9805930029896
 30
0.0
 41
2.0
 42
2.0
 43
2.0
  0
LINE
  5
9C
330
1E
100
AcDbEntity
  8
BEM
100
AcDbLine
 10
456.0
 20
0.0
 30
0.0
 11
456.0
 21
10.0
 31
0.0
  0
LINE
  5
13E
330
1E
100
AcDbEntity
  8
HILF
100
AcDbLine
 10
0.0
 20
0.0
 30
0.0
 11
0.0
 21
594.0
 31
0.0
  0
LINE
  5
13F
330
1E
100
AcDbEntity
  8
STEMPEL
100
AcDbLine
 10
40.0
 20
10.0
 30
0.0
 11
40.0
 21
584.0
 31
0.0
  0
LINE
  5
14A
330
1E
100
AcDbEntity
  8
HILF
100
AcDbLine
 10
0.0
 20
297.0
 30
0.0
 11
40.0
 21
297.0
 31
0.0
  0
TEXT
  5
15B
330
1E
100
AcDbEntity
  8
BEM
100
AcDbText
 10
837.3022923857165
 20
10.16790107998861
 30
0.0
 40
4.0
  1
Diese Zeichnung ist urheberrechtlich geschützt und bleibt unser Eigentum. Sie darf weder ganz noch teilweise verfielfältigt und nicht an Dritte weitergegeben werden.
 50
90.0
 41
0.8
  7
GREEKS
100
AcDbText
  0
POINT
  5
91A
330
1E
100
AcDbEntity
  8
DEFPOINTS
  6
ByBlock
 62
     0
100
AcDbPoint
 10
608.9531753823182
 20
531.148131172458
 30
0.0
  0
POINT
  5
921
330
1E
100
AcDbEntity
  8
DEFPOINTS
  6
ByBlock
 62
     0
100
AcDbPoint
 10
528.9531753823186
 20
531.148131172458
 30
0.0
  0
LINE
  5
923
330
1E
100
AcDbEntity
  8
STEMPEL
100
AcDbLine
 10
480.9531753823184
 20
531.148131172458
 30
0.0
 11
656.9531753823184
 21
531.1481311724578
 31
0.0
  0
LINE
  5
924
330
1E
100
AcDbEntity
  8
STEMPEL
100
AcDbLine
 10
480.9531753823184
 20
533.1481311724579
 30
0.0
 11
656.9531753823187
 21
533.1481311724578
 31
0.0
  0
POLYLINE
  5
928
330
1E
100
AcDbEntity
  8
SCHRAFF
100
AcDb2dPolyline
 66
     1
 10
0.0
 20
0.0
 30
0.0
 70
     2
  0
VERTEX
  5
929
330
928
100
AcDbEntity
  8
SCHRAFF
100
AcDbVertex
100
AcDb2dVertex
 10
631.4522640162429
 20
522.7670940173454
 30
0.0
 42
-0.1481711738912995
  0
VERTEX
  5
92A
330
928
100
AcDbEntity
  8
SCHRAFF
100
AcDbVertex
100
AcDb2dVertex
 10
630.9423689335385
 20
522.14635674189
 30
0.0
 42
-0.1481711738912668
 70
     1
  0
VERTEX
  5
92B
330
928
100
AcDbEntity
  8
SCHRAFF
100
AcDbVertex
100
AcDb2dVertex
 10
630.1736938746397
 20
521.9130191874056
 30
0.0
 42
-0.1483030456011378
  0
VERTEX
  5
92C
330
928
100
AcDbEntity
  8
SCHRAFF
100
AcDbVertex
100
AcDb2dVertex
 10
629.4041835529383
 20
522.1459597785765
 30
0.0
 42
-0.1483030456011519
 70
     1
  0
VERTEX
  5
92D
330
928
100
AcDbEntity
  8
SCHRAFF
100
AcDbVertex
100
AcDb2dVertex
 10
628.8936938746397
 20
522.7670940173454
 30
0.0
  0
SEQEND
  5
92E
330
928
100
AcDbEntity
  8
SCHRAFF
  0
POLYLINE
  5
92F
330
1E
100
AcDbEntity
  8
SCHRAFF
100
AcDb2dPolyline
 66
     1
 10
0.0
 20
0.0
 30
0.0
 70
     2
  0
VERTEX
  5
930
330
92F
100
AcDbEntity
  8
SCHRAFF
100
AcDbVertex
100
AcDb2dVertex
 10
631.4522640162429
 20
527.7670940173455
 30
0.0
 42
-0.1481711738912995
  0
VERTEX
  5
931
330
92F
100
AcDbEntity
  8
SCHRAFF
100
AcDbVertex
100
AcDb2dVertex
 10
630.9423689335385
 20
527.14635674189
 30
0.0
 42
-0.1481711738912668
 70
     1
  0
VERTEX
  5
932
330
92F
100
AcDbEntity
  8
SCHRAFF
100
AcDbVertex
100
AcDb2dVertex
 10
630.1736938746397
 20
526.9130191874055
 30
0.0
 42
-0.1483030456011378
  0
VERTEX
  5
933
330
92F
100
AcDbEntity
  8
SCHRAFF
100
AcDbVertex
100
AcDb2dVertex
 10
629.4041835529383
 20
527.1459597785765
 30
0.0
 42
-0.1483030456011519
 70
     1
  0
VERTEX
  5
934
330
92F
100
AcDbEntity
  8
SCHRAFF
100
AcDbVertex
100
AcDb2dVertex
 10
628.8936938746397
 20
527.7670940173455
 30
0.0
  0
SEQEND
  5
935
330
92F
100
AcDbEntity
  8
SCHRAFF
  0
POLYLINE
  5
93B
330
1E
100
AcDbEntity
  8
SCHRAFF
100
AcDb2dPolyline
 66
     1
 10
0.0
 20
0.0
 30
0.0
 70
     2
  0
VERTEX
  5
93C
330
93B
100
AcDbEntity
  8
SCHRAFF
100
AcDbVertex
100
AcDb2dVertex
 10
631.4522640162429
 20
512.7670940173454
 30
0.0
 42
-0.1481711738912995
  0
VERTEX
  5
93D
330
93B
100
AcDbEntity
  8
SCHRAFF
100
AcDbVertex
100
AcDb2dVertex
 10
630.9423689335385
 20
512.14635674189
 30
0.0
 42
-0.1481711738912668
 70
     1
  0
VERTEX
  5
93E
330
93B
100
AcDbEntity
  8
SCHRAFF
100
AcDbVertex
100
AcDb2dVertex
 10
630.1736938746397
 20
511.9130191874055
 30
0.0
 42
-0.1483030456011378
  0
VERTEX
  5
93F
330
93B
100
AcDbEntity
  8
SCHRAFF
100
AcDbVertex
100
AcDb2dVertex
 10
629.4041835529383
 20
512.1459597785765
 30
0.0
 42
-0.1483030456011519
 70
     1
  0
VERTEX
  5
940
330
93B
100
AcDbEntity
  8
SCHRAFF
100
AcDbVertex
100
AcDb2dVertex
 10
628.8936938746397
 20
512.7670940173454
 30
0.0
  0
SEQEND
  5
941
330
93B
100
AcDbEntity
  8
SCHRAFF
  0
POLYLINE
  5
942
330
1E
100
AcDbEntity
  8
SCHRAFF
100
AcDb2dPolyline
 66
     1
 10
0.0
 20
0.0
 30
0.0
 70
     2
  0
VERTEX
  5
943
330
942
100
AcDbEntity
  8
SCHRAFF
100
AcDbVertex
100
AcDb2dVertex
 10
631.4522640162429
 20
507.7670940173454
 30
0.0
 42
-0.1481711738912995
  0
VERTEX
  5
944
330
942
100
AcDbEntity
  8
SCHRAFF
100
AcDbVertex
100
AcDb2dVertex
 10
630.9423689335385
 20
507.1463567418901
 30
0.0
 42
-0.1481711738912668
 70
     1
  0
VERTEX
  5
945
330
942
100
AcDbEntity
  8
SCHRAFF
100
AcDbVertex
100
AcDb2dVertex
 10
630.1736938746397
 20
506.9130191874054
 30
0.0
 42
-0.1483030456011378
  0
VERTEX
  5
946
330
942
100
AcDbEntity
  8
SCHRAFF
100
AcDbVertex
100
AcDb2dVertex
 10
629.4041835529383
 20
507.1459597785765
 30
0.0
 42
-0.1483030456011519
 70
     1
  0
VERTEX
  5
947
330
942
100
AcDbEntity
  8
SCHRAFF
100
AcDbVertex
100
AcDb2dVertex
 10
628.8936938746397
 20
507.7670940173454
 30
0.0
  0
SEQEND
  5
948
330
942
100
AcDbEntity
  8
SCHRAFF
  0
POLYLINE
  5
94C
330
1E
100
AcDbEntity
  8
SCHRAFF
100
AcDb2dPolyline
 66
     1
 10
0.0
 20
0.0
 30
0.0
 70
     2
  0
VERTEX
  5
94D
330
94C
100
AcDbEntity
  8
SCHRAFF
100
AcDbVertex
100
AcDb2dVertex
 10
631.4522640162429
 20
517.7670940173454
 30
0.0
 42
-0.1481711738912995
  0
VERTEX
  5
94E
330
94C
100
AcDbEntity
  8
SCHRAFF
100
AcDbVertex
100
AcDb2dVertex
 10
630.9423689335385
 20
517.14635674189
 30
0.0
 42
-0.1481711738912668
 70
     1
  0
VERTEX
  5
94F
330
94C
100
AcDbEntity
  8
SCHRAFF
100
AcDbVertex
100
AcDb2dVertex
 10
630.1736938746397
 20
516.9130191874055
 30
0.0
 42
-0.1483030456011378
  0
VERTEX
  5
950
330
94C
100
AcDbEntity
  8
SCHRAFF
100
AcDbVertex
100
AcDb2dVertex
 10
629.4041835529383
 20
517.1459597785765
 30
0.0
 42
-0.1483030456011519
 70
     1
  0
VERTEX
  5
951
330
94C
100
AcDbEntity
  8
SCHRAFF
100
AcDbVertex
100
AcDb2dVertex
 10
628.8936938746397
 20
517.7670940173454
 30
0.0
  0
SEQEND
  5
952
330
94C
100
AcDbEntity
  8
SCHRAFF
  0
LINE
  5
953
330
1E
100
AcDbEntity
  8
STEMPEL
100
AcDbLine
 10
613.9531753823182
 20
526.1481311724579
 30
0.0
 11
603.9531753823182
 21
526.1481311724579
 31
0.0
  0
LINE
  5
954
330
1E
100
AcDbEntity
  8
STEMPEL
100
AcDbLine
 10
613.9531753823182
 20
516.1481311724578
 30
0.0
 11
603.9531753823182
 21
516.1481311724578
 31
0.0
  0
ARC
  5
955
330
1E
100
AcDbEntity
  8
STEMPEL
100
AcDbCircle
 10
603.9531753823182
 20
521.1481311724579
 30
0.0
 40
5.0
100
AcDbArc
 50
90.0
 51
270.0
  0
LINE
  5
956
330
1E
100
AcDbEntity
  8
MITTEL
100
AcDbLine
 10
623.9531753823182
 20
521.1481311724578
 30
0.0
 11
593.9531753823182
 21
521.1481311724578
 31
0.0
  0
ARC
  5
957
330
1E
100
AcDbEntity
  8
STEMPEL
100
AcDbCircle
 10
613.9531753823182
 20
521.1481311724579
 30
0.0
 40
5.0
100
AcDbArc
 50
270.0
 51
90.0
  0
POLYLINE
  5
958
330
1E
100
AcDbEntity
  8
SCHRAFF
100
AcDb2dPolyline
 66
     1
 10
0.0
 20
0.0
 30
0.0
 70
     2
  0
VERTEX
  5
959
330
958
100
AcDbEntity
  8
SCHRAFF
100
AcDbVertex
100
AcDb2dVertex
 10
631.4522640162429
 20
497.7670940173456
 30
0.0
 42
-0.1481711738912995
  0
VERTEX
  5
95A
330
958
100
AcDbEntity
  8
SCHRAFF
100
AcDbVertex
100
AcDb2dVertex
 10
630.9423689335385
 20
497.1463567418901
 30
0.0
 42
-0.1481711738912668
 70
     1
  0
VERTEX
  5
95B
330
958
100
AcDbEntity
  8
SCHRAFF
100
AcDbVertex
100
AcDb2dVertex
 10
630.1736938746397
 20
496.9130191874056
 30
0.0
 42
-0.1483030456011378
  0
VERTEX
  5
95C
330
958
100
AcDbEntity
  8
SCHRAFF
100
AcDbVertex
100
AcDb2dVertex
 10
629.4041835529383
 20
497.1459597785765
 30
0.0
 42
-0.1483030456011519
 70
     1
  0
VERTEX
  5
95D
330
958
100
AcDbEntity
  8
SCHRAFF
100
AcDbVertex
100
AcDb2dVertex
 10
628.8936938746397
 20
497.7670940173456
 30
0.0
  0
SEQEND
  5
95E
330
958
100
AcDbEntity
  8
SCHRAFF
  0
POLYLINE
  5
95F
330
1E
100
AcDbEntity
  8
SCHRAFF
100
AcDb2dPolyline
 66
     1
 10
0.0
 20
0.0
 30
0.0
 70
     2
  0
VERTEX
  5
960
330
95F
100
AcDbEntity
  8
SCHRAFF
100
AcDbVertex
100
AcDb2dVertex
 10
631.4522640162429
 20
502.7670940173456
 30
0.0
 42
-0.1481711738912995
  0
VERTEX
  5
961
330
95F
100
AcDbEntity
  8
SCHRAFF
100
AcDbVertex
100
AcDb2dVertex
 10
630.9423689335385
 20
502.1463567418901
 30
0.0
 42
-0.1481711738912668
 70
     1
  0
VERTEX
  5
962
330
95F
100
AcDbEntity
  8
SCHRAFF
100
AcDbVertex
100
AcDb2dVertex
 10
630.1736938746397
 20
501.9130191874055
 30
0.0
 42
-0.1483030456011378
  0
VERTEX
  5
963
330
95F
100
AcDbEntity
  8
SCHRAFF
100
AcDbVertex
100
AcDb2dVertex
 10
629.4041835529383
 20
502.1459597785765
 30
0.0
 42
-0.1483030456011519
 70
     1
  0
VERTEX
  5
964
330
95F
100
AcDbEntity
  8
SCHRAFF
100
AcDbVertex
100
AcDb2dVertex
 10
628.8936938746397
 20
502.7670940173456
 30
0.0
  0
SEQEND
  5
965
330
95F
100
AcDbEntity
  8
SCHRAFF
  0
POLYLINE
  5
966
330
1E
100
AcDbEntity
  8
SCHRAFF
100
AcDb2dPolyline
 66
     1
 10
0.0
 20
0.0
 30
0.0
 70
     2
  0
VERTEX
  5
967
330
966
100
AcDbEntity
  8
SCHRAFF
100
AcDbVertex
100
AcDb2dVertex
 10
631.9621590989473
 20
493.387831292801
 30
0.0
 42
-0.1481711738912995
  0
VERTEX
  5
968
330
966
100
AcDbEntity
  8
SCHRAFF
100
AcDbVertex
100
AcDb2dVertex
 10
631.4522640162429
 20
492.7670940173455
 30
0.0
 42
-0.1481711738912668
 70
     1
  0
VERTEX
  5
969
330
966
100
AcDbEntity
  8
SCHRAFF
100
AcDbVertex
100
AcDb2dVertex
 10
630.6835889573441
 20
492.533756462861
 30
0.0
 42
-0.1483030456011378
  0
VERTEX
  5
96A
330
966
100
AcDbEntity
  8
SCHRAFF
100
AcDbVertex
100
AcDb2dVertex
 10
629.9140786356426
 20
492.7666970540319
 30
0.0
 42
-0.1483030456011519
 70
     1
  0
VERTEX
  5
96B
330
966
100
AcDbEntity
  8
SCHRAFF
100
AcDbVertex
100
AcDb2dVertex
 10
629.4035889573441
 20
493.387831292801
 30
0.0
  0
SEQEND
  5
96C
330
966
100
AcDbEntity
  8
SCHRAFF
  0
POLYLINE
  5
96D
330
1E
100
AcDbEntity
  8
SCHRAFF
100
AcDb2dPolyline
 66
     1
 10
0.0
 20
0.0
 30
0.0
 70
     2
  0
VERTEX
  5
96E
330
96D
100
AcDbEntity
  8
SCHRAFF
100
AcDbVertex
100
AcDb2dVertex
 10
631.9621590989473
 20
488.387831292801
 30
0.0
 42
-0.1481711738912995
  0
VERTEX
  5
96F
330
96D
100
AcDbEntity
  8
SCHRAFF
100
AcDbVertex
100
AcDb2dVertex
 10
631.4522640162429
 20
487.7670940173455
 30
0.0
 42
-0.1481711738912668
 70
     1
  0
VERTEX
  5
970
330
96D
100
AcDbEntity
  8
SCHRAFF
100
AcDbVertex
100
AcDb2dVertex
 10
630.6835889573441
 20
487.5337564628609
 30
0.0
 42
-0.1483030456011378
  0
VERTEX
  5
971
330
96D
100
AcDbEntity
  8
SCHRAFF
100
AcDbVertex
100
AcDb2dVertex
 10
629.9140786356426
 20
487.7666970540319
 30
0.0
 42
-0.1483030456011519
 70
     1
  0
VERTEX
  5
972
330
96D
100
AcDbEntity
  8
SCHRAFF
100
AcDbVertex
100
AcDb2dVertex
 10
629.4035889573441
 20
488.387831292801
 30
0.0
  0
SEQEND
  5
973
330
96D
100
AcDbEntity
  8
SCHRAFF
  0
ARC
  5
974
330
1E
100
AcDbEntity
  8
STEMPEL
100
AcDbCircle
 10
568.9531753823184
 20
511.1481311724578
 30
0.0
 40
15.0
100
AcDbArc
 50
180.3274062361774
 51
359.6725937638161
  0
LINE
  5
975
330
1E
100
AcDbEntity
  8
STEMPEL
100
AcDbLine
 10
523.9531753823184
 20
526.1481311724579
 30
0.0
 11
533.9531753823185
 21
526.1481311724579
 31
0.0
  0
POLYLINE
  5
978
330
1E
100
AcDbEntity
  8
SCHRAFF
100
AcDb2dPolyline
 66
     1
 10
0.0
 20
0.0
 30
0.0
 70
     2
  0
VERTEX
  5
979
330
978
100
AcDbEntity
  8
SCHRAFF
100
AcDbVertex
100
AcDb2dVertex
 10
506.454086748394
 20
527.7670940173455
 30
0.0
 42
0.1481711738912995
  0
VERTEX
  5
97A
330
978
100
AcDbEntity
  8
SCHRAFF
100
AcDbVertex
100
AcDb2dVertex
 10
506.9639818310983
 20
527.14635674189
 30
0.0
 42
0.1481711738912668
 70
     1
  0
VERTEX
  5
97B
330
978
100
AcDbEntity
  8
SCHRAFF
100
AcDbVertex
100
AcDb2dVertex
 10
507.7326568899971
 20
526.9130191874055
 30
0.0
 42
0.1483030456011378
  0
VERTEX
  5
97C
330
978
100
AcDbEntity
  8
SCHRAFF
100
AcDbVertex
100
AcDb2dVertex
 10
508.5021672116986
 20
527.1459597785765
 30
0.0
 42
0.1483030456011519
 70
     1
  0
VERTEX
  5
97D
330
978
100
AcDbEntity
  8
SCHRAFF
100
AcDbVertex
100
AcDb2dVertex
 10
509.0126568899972
 20
527.7670940173455
 30
0.0
  0
SEQEND
  5
97E
330
978
100
AcDbEntity
  8
SCHRAFF
  0
POLYLINE
  5
97F
330
1E
100
AcDbEntity
  8
SCHRAFF
100
AcDb2dPolyline
 66
     1
 10
0.0
 20
0.0
 30
0.0
 70
     2
  0
VERTEX
  5
980
330
97F
100
AcDbEntity
  8
SCHRAFF
100
AcDbVertex
100
AcDb2dVertex
 10
506.454086748394
 20
522.7670940173454
 30
0.0
 42
0.1481711738912995
  0
VERTEX
  5
981
330
97F
100
AcDbEntity
  8
SCHRAFF
100
AcDbVertex
100
AcDb2dVertex
 10
506.9639818310983
 20
522.14635674189
 30
0.0
 42
0.1481711738912668
 70
     1
  0
VERTEX
  5
982
330
97F
100
AcDbEntity
  8
SCHRAFF
100
AcDbVertex
100
AcDb2dVertex
 10
507.7326568899971
 20
521.9130191874056
 30
0.0
 42
0.1483030456011378
  0
VERTEX
  5
983
330
97F
100
AcDbEntity
  8
SCHRAFF
100
AcDbVertex
100
AcDb2dVertex
 10
508.5021672116986
 20
522.1459597785765
 30
0.0
 42
0.1483030456011519
 70
     1
  0
VERTEX
  5
984
330
97F
100
AcDbEntity
  8
SCHRAFF
100
AcDbVertex
100
AcDb2dVertex
 10
509.0126568899972
 20
522.7670940173454
 30
0.0
  0
SEQEND
  5
985
330
97F
100
AcDbEntity
  8
SCHRAFF
  0
LINE
  5
987
330
1E
100
AcDbEntity
  8
STEMPEL
100
AcDbLine
 10
523.9531753823184
 20
516.1481311724578
 30
0.0
 11
533.9531753823185
 21
516.1481311724578
 31
0.0
  0
POLYLINE
  5
98C
330
1E
100
AcDbEntity
  8
SCHRAFF
100
AcDb2dPolyline
 66
     1
 10
0.0
 20
0.0
 30
0.0
 70
     2
  0
VERTEX
  5
98D
330
98C
100
AcDbEntity
  8
SCHRAFF
100
AcDbVertex
100
AcDb2dVertex
 10
506.454086748394
 20
507.7670940173454
 30
0.0
 42
0.1481711738912995
  0
VERTEX
  5
98E
330
98C
100
AcDbEntity
  8
SCHRAFF
100
AcDbVertex
100
AcDb2dVertex
 10
506.9639818310983
 20
507.1463567418901
 30
0.0
 42
0.1481711738912668
 70
     1
  0
VERTEX
  5
98F
330
98C
100
AcDbEntity
  8
SCHRAFF
100
AcDbVertex
100
AcDb2dVertex
 10
507.7326568899971
 20
506.9130191874054
 30
0.0
 42
0.1483030456011378
  0
VERTEX
  5
990
330
98C
100
AcDbEntity
  8
SCHRAFF
100
AcDbVertex
100
AcDb2dVertex
 10
508.5021672116986
 20
507.1459597785765
 30
0.0
 42
0.1483030456011519
 70
     1
  0
VERTEX
  5
991
330
98C
100
AcDbEntity
  8
SCHRAFF
100
AcDbVertex
100
AcDb2dVertex
 10
509.0126568899972
 20
507.7670940173454
 30
0.0
  0
SEQEND
  5
992
330
98C
100
AcDbEntity
  8
SCHRAFF
  0
POLYLINE
  5
993
330
1E
100
AcDbEntity
  8
SCHRAFF
100
AcDb2dPolyline
 66
     1
 10
0.0
 20
0.0
 30
0.0
 70
     2
  0
VERTEX
  5
994
330
993
100
AcDbEntity
  8
SCHRAFF
100
AcDbVertex
100
AcDb2dVertex
 10
506.454086748394
 20
512.7670940173454
 30
0.0
 42
0.1481711738912995
  0
VERTEX
  5
995
330
993
100
AcDbEntity
  8
SCHRAFF
100
AcDbVertex
100
AcDb2dVertex
 10
506.9639818310983
 20
512.14635674189
 30
0.0
 42
0.1481711738912668
 70
     1
  0
VERTEX
  5
996
330
993
100
AcDbEntity
  8
SCHRAFF
100
AcDbVertex
100
AcDb2dVertex
 10
507.7326568899971
 20
511.9130191874055
 30
0.0
 42
0.1483030456011378
  0
VERTEX
  5
997
330
993
100
AcDbEntity
  8
SCHRAFF
100
AcDbVertex
100
AcDb2dVertex
 10
508.5021672116986
 20
512.1459597785765
 30
0.0
 42
0.1483030456011519
 70
     1
  0
VERTEX
  5
998
330
993
100
AcDbEntity
  8
SCHRAFF
100
AcDbVertex
100
AcDb2dVertex
 10
509.0126568899972
 20
512.7670940173454
 30
0.0
  0
SEQEND
  5
999
330
993
100
AcDbEntity
  8
SCHRAFF
  0
POLYLINE
  5
99D
330
1E
100
AcDbEntity
  8
SCHRAFF
100
AcDb2dPolyline
 66
     1
 10
0.0
 20
0.0
 30
0.0
 70
     2
  0
VERTEX
  5
99E
330
99D
100
AcDbEntity
  8
SCHRAFF
100
AcDbVertex
100
AcDb2dVertex
 10
506.454086748394
 20
517.7670940173454
 30
0.0
 42
0.1481711738912995
  0
VERTEX
  5
99F
330
99D
100
AcDbEntity
  8
SCHRAFF
100
AcDbVertex
100
AcDb2dVertex
 10
506.9639818310983
 20
517.14635674189
 30
0.0
 42
0.1481711738912668
 70
     1
  0
VERTEX
  5
9A0
330
99D
100
AcDbEntity
  8
SCHRAFF
100
AcDbVertex
100
AcDb2dVertex
 10
507.7326568899971
 20
516.9130191874055
 30
0.0
 42
0.1483030456011378
  0
VERTEX
  5
9A1
330
99D
100
AcDbEntity
  8
SCHRAFF
100
AcDbVertex
100
AcDb2dVertex
 10
508.5021672116986
 20
517.1459597785765
 30
0.0
 42
0.1483030456011519
 70
     1
  0
VERTEX
  5
9A2
330
99D
100
AcDbEntity
  8
SCHRAFF
100
AcDbVertex
100
AcDb2dVertex
 10
509.0126568899972
 20
517.7670940173454
 30
0.0
  0
SEQEND
  5
9A3
330
99D
100
AcDbEntity
  8
SCHRAFF
  0
ARC
  5
9A4
330
1E
100
AcDbEntity
  8
STEMPEL
100
AcDbCircle
 10
533.9531753823185
 20
521.1481311724579
 30
0.0
 40
5.0
100
AcDbArc
 50
270.0
 51
90.0
  0
ARC
  5
9A5
330
1E
100
AcDbEntity
  8
STEMPEL
100
AcDbCircle
 10
523.9531753823184
 20
521.1481311724579
 30
0.0
 40
5.0
100
AcDbArc
 50
90.0
 51
270.0
  0
POLYLINE
  5
9A9
330
1E
100
AcDbEntity
  8
SCHRAFF
100
AcDb2dPolyline
 66
     1
 10
0.0
 20
0.0
 30
0.0
 70
     2
  0
VERTEX
  5
9AA
330
9A9
100
AcDbEntity
  8
SCHRAFF
100
AcDbVertex
100
AcDb2dVertex
 10
506.454086748394
 20
502.7670940173456
 30
0.0
 42
0.1481711738912995
  0
VERTEX
  5
9AB
330
9A9
100
AcDbEntity
  8
SCHRAFF
100
AcDbVertex
100
AcDb2dVertex
 10
506.9639818310983
 20
502.1463567418901
 30
0.0
 42
0.1481711738912668
 70
     1
  0
VERTEX
  5
9AC
330
9A9
100
AcDbEntity
  8
SCHRAFF
100
AcDbVertex
100
AcDb2dVertex
 10
507.7326568899971
 20
501.9130191874055
 30
0.0
 42
0.1483030456011378
  0
VERTEX
  5
9AD
330
9A9
100
AcDbEntity
  8
SCHRAFF
100
AcDbVertex
100
AcDb2dVertex
 10
508.5021672116986
 20
502.1459597785765
 30
0.0
 42
0.1483030456011519
 70
     1
  0
VERTEX
  5
9AE
330
9A9
100
AcDbEntity
  8
SCHRAFF
100
AcDbVertex
100
AcDb2dVertex
 10
509.0126568899972
 20
502.7670940173456
 30
0.0
  0
SEQEND
  5
9AF
330
9A9
100
AcDbEntity
  8
SCHRAFF
  0
POLYLINE
  5
9B0
330
1E
100
AcDbEntity
  8
SCHRAFF
100
AcDb2dPolyline
 66
     1
 10
0.0
 20
0.0
 30
0.0
 70
     2
  0
VERTEX
  5
9B1
330
9B0
100
AcDbEntity
  8
SCHRAFF
100
AcDbVertex
100
AcDb2dVertex
 10
506.454086748394
 20
497.7670940173456
 30
0.0
 42
0.1481711738912995
  0
VERTEX
  5
9B2
330
9B0
100
AcDbEntity
  8
SCHRAFF
100
AcDbVertex
100
AcDb2dVertex
 10
506.9639818310983
 20
497.1463567418901
 30
0.0
 42
0.1481711738912668
 70
     1
  0
VERTEX
  5
9B3
330
9B0
100
AcDbEntity
  8
SCHRAFF
100
AcDbVertex
100
AcDb2dVertex
 10
507.7326568899971
 20
496.9130191874056
 30
0.0
 42
0.1483030456011378
  0
VERTEX
  5
9B4
330
9B0
100
AcDbEntity
  8
SCHRAFF
100
AcDbVertex
100
AcDb2dVertex
 10
508.5021672116986
 20
497.1459597785765
 30
0.0
 42
0.1483030456011519
 70
     1
  0
VERTEX
  5
9B5
330
9B0
100
AcDbEntity
  8
SCHRAFF
100
AcDbVertex
100
AcDb2dVertex
 10
509.0126568899972
 20
497.7670940173456
 30
0.0
  0
SEQEND
  5
9B6
330
9B0
100
AcDbEntity
  8
SCHRAFF
  0
POLYLINE
  5
9B7
330
1E
100
AcDbEntity
  8
SCHRAFF
100
AcDb2dPolyline
 66
     1
 10
0.0
 20
0.0
 30
0.0
 70
     2
  0
VERTEX
  5
9B8
330
9B7
100
AcDbEntity
  8
SCHRAFF
100
AcDbVertex
100
AcDb2dVertex
 10
505.9441916656896
 20
488.387831292801
 30
0.0
 42
0.1481711738912995
  0
VERTEX
  5
9B9
330
9B7
100
AcDbEntity
  8
SCHRAFF
100
AcDbVertex
100
AcDb2dVertex
 10
506.454086748394
 20
487.7670940173455
 30
0.0
 42
0.1481711738912668
 70
     1
  0
VERTEX
  5
9BA
330
9B7
100
AcDbEntity
  8
SCHRAFF
100
AcDbVertex
100
AcDb2dVertex
 10
507.2227618072928
 20
487.5337564628609
 30
0.0
 42
0.1483030456011378
  0
VERTEX
  5
9BB
330
9B7
100
AcDbEntity
  8
SCHRAFF
100
AcDbVertex
100
AcDb2dVertex
 10
507.9922721289943
 20
487.7666970540319
 30
0.0
 42
0.1483030456011519
 70
     1
  0
VERTEX
  5
9BC
330
9B7
100
AcDbEntity
  8
SCHRAFF
100
AcDbVertex
100
AcDb2dVertex
 10
508.5027618072928
 20
488.387831292801
 30
0.0
  0
SEQEND
  5
9BD
330
9B7
100
AcDbEntity
  8
SCHRAFF
  0
POLYLINE
  5
9BE
330
1E
100
AcDbEntity
  8
SCHRAFF
100
AcDb2dPolyline
 66
     1
 10
0.0
 20
0.0
 30
0.0
 70
     2
  0
VERTEX
  5
9BF
330
9BE
100
AcDbEntity
  8
SCHRAFF
100
AcDbVertex
100
AcDb2dVertex
 10
505.9441916656896
 20
493.387831292801
 30
0.0
 42
0.1481711738912995
  0
VERTEX
  5
9C0
330
9BE
100
AcDbEntity
  8
SCHRAFF
100
AcDbVertex
100
AcDb2dVertex
 10
506.454086748394
 20
492.7670940173455
 30
0.0
 42
0.1481711738912668
 70
     1
  0
VERTEX
  5
9C1
330
9BE
100
AcDbEntity
  8
SCHRAFF
100
AcDbVertex
100
AcDb2dVertex
 10
507.2227618072928
 20
492.533756462861
 30
0.0
 42
0.1483030456011378
  0
VERTEX
  5
9C2
330
9BE
100
AcDbEntity
  8
SCHRAFF
100
AcDbVertex
100
AcDb2dVertex
 10
507.9922721289943
 20
492.7666970540319
 30
0.0
 42
0.1483030456011519
 70
     1
  0
VERTEX
  5
9C3
330
9BE
100
AcDbEntity
  8
SCHRAFF
100
AcDbVertex
100
AcDb2dVertex
 10
508.5027618072928
 20
493.387831292801
 30
0.0
  0
SEQEND
  5
9C4
330
9BE
100
AcDbEntity
  8
SCHRAFF
  0
LINE
  5
9C5
330
1E
100
AcDbEntity
  8
MITTEL
100
AcDbLine
 10
513.9531753823185
 20
521.1481311724578
 30
0.0
 11
543.9531753823184
 21
521.1481311724578
 31
0.0
  0
DIMENSION
  5
9C7
330
1E
100
AcDbEntity
  8
BEM
100
AcDbDimension
  2
*D4
 10
471.8596886663286
 20
533.1481311724579
 30
0.0
 11
465.3596886663286
 21
552.0147978391247
 31
0.0
 70
    32
 71
     5
 42
2.0
  3
Standard
100
AcDbAlignedDimension
 13
480.9531753823184
 23
531.148131172458
 33
0.0
 14
480.9531753823184
 24
533.1481311724579
 34
0.0
 50
90.0
100
AcDbRotatedDimension
1001
ACAD
1000
DSTYLE
1002
{
1070
    40
1040
2.0
1070
    41
1040
3.5
1070
    42
1040
1.0
1070
    43
1040
7.0
1070
    44
1040
1.0
1070
    73
1070
     0
1070
    74
1070
     0
1070
    77
1070
     1
1070
    78
1070
     8
1070
    79
1070
     2
1070
   140
1040
3.5
1070
   141
1040
1.5
1070
   146
1040
0.5142857142857144
1070
   147
1040
1.5
1070
   172
1070
     1
1070
   178
1070
     1
1070
   179
1070
     2
1070
   271
1070
     2
1070
   272
1070
     2
1070
   284
1070
     8
1070
   285
1070
     8
1070
   286
1070
     8
1002
}
  0
LINE
  5
9D0
330
1E
100
AcDbEntity
  8
MITTEL
100
AcDbLine
 10
528.9531753823186
 20
531.148131172458
 30
0.0
 11
528.9531753823184
 21
511.1481311724578
 31
0.0
  0
LINE
  5
9D1
330
1E
100
AcDbEntity
  8
MITTEL
100
AcDbLine
 10
608.9531753823182
 20
531.148131172458
 30
0.0
 11
608.9531753823182
 21
511.1481311724578
 31
0.0
  0
POINT
  5
9D3
330
1E
100
AcDbEntity
  8
BEM
100
AcDbPoint
 10
303.6532303939164
 20
531.1481311724578
 30
0.0
  0
POINT
  5
9D4
330
1E
100
AcDbEntity
  8
BEM
100
AcDbPoint
 10
303.6532303939164
 20
531.1481311724578
 30
0.0
  0
POINT
  5
9DA
330
1E
100
AcDbEntity
  8
BEM
100
AcDbPoint
 10
159.6532303939162
 20
531.1481311724577
 30
0.0
  0
POINT
  5
9DB
330
1E
100
AcDbEntity
  8
BEM
100
AcDbPoint
 10
130.6654488747249
 20
531.1481311724577
 30
0.0
  0
LINE
  5
9DC
330
1E
100
AcDbEntity
  8
BEM
100
AcDbLine
 10
157.6532303939162
 20
531.1481311724577
 30
0.0
 11
128.6654488747249
 21
531.1481311724577
 31
0.0
  0
LINE
  5
9DE
102
{ACAD_REACTORS
330
1025
330
144E
102
}
330
1E
100
AcDbEntity
  8
STEMPEL
100
AcDbLine
 10
303.6532303939164
 20
531.1481311724578
 30
0.0
 11
159.6532303939162
 21
531.1481311724577
 31
0.0
  0
LINE
  5
9DF
102
{ACAD_REACTORS
330
144E
102
}
330
1E
100
AcDbEntity
  8
STEMPEL
100
AcDbLine
 10
303.6532303939164
 20
533.1481311724578
 30
0.0
 11
159.6532303939162
 21
533.1481311724577
 31
0.0
  0
LINE
  5
9EA
102
{ACAD_REACTORS
330
1025
102
}
330
1E
100
AcDbEntity
  8
STEMPEL
100
AcDbLine
 10
299.6532303939164
 20
526.1481311724579
 30
0.0
 11
297.6532303939162
 21
526.1481311724579
 31
0.0
  0
POINT
  5
9EE
330
1E
100
AcDbEntity
  8
BEM
100
AcDbPoint
 10
299.6532303939164
 20
511.1481311724579
 30
0.0
  0
POINT
  5
9EF
330
1E
100
AcDbEntity
  8
BEM
100
AcDbPoint
 10
299.6532303939164
 20
511.1481311724579
 30
0.0
  0
POINT
  5
9F0
330
1E
100
AcDbEntity
  8
BEM
100
AcDbPoint
 10
299.6532303939164
 20
511.148131172458
 30
0.0
  0
POINT
  5
9F1
330
1E
100
AcDbEntity
  8
BEM
100
AcDbPoint
 10
299.6532303939164
 20
511.148131172458
 30
0.0
  0
POINT
  5
9F2
330
1E
100
AcDbEntity
  8
BEM
100
AcDbPoint
 10
299.6532303939164
 20
511.148131172458
 30
0.0
  0
POINT
  5
9FA
330
1E
100
AcDbEntity
  8
DEFPOINTS
  6
ByBlock
 62
     0
100
AcDbPoint
 10
292.6532303939161
 20
511.148131172458
 30
0.0
  0
LINE
  5
9FB
330
1E
100
AcDbEntity
  8
MITTEL
100
AcDbLine
 10
299.6532303939164
 20
511.148131172458
 30
0.0
 11
292.6532303939161
 21
511.148131172458
 31
0.0
  0
LINE
  5
A04
102
{ACAD_REACTORS
330
1025
102
}
330
1E
100
AcDbEntity
  8
STEMPEL
100
AcDbLine
 10
299.6532303939164
 20
496.1481311724579
 30
0.0
 11
297.6532303939162
 21
496.1481311724579
 31
0.0
  0
ARC
  5
A08
330
1E
100
AcDbEntity
  8
STEMPEL
100
AcDbCircle
 10
394.8200014183722
 20
511.1481311724578
 30
0.0
 40
96.34165406106127
100
AcDbArc
 50
171.042841932368
 51
188.9571580676319
  0
ARC
  5
A09
330
1E
100
AcDbEntity
  8
STEMPEL
100
AcDbCircle
 10
390.4928544561763
 20
511.1481311724579
 30
0.0
 40
94.04358455536334
100
AcDbArc
 50
170.8220945798459
 51
189.1779054201541
  0
ARC
  5
A0F
102
{ACAD_REACTORS
330
100E
102
}
330
1E
100
AcDbEntity
  8
STEMPEL
  6
Continuous
100
AcDbCircle
 10
194.6532303939162
 20
527.7481311724575
 30
0.0
 40
13.6
100
AcDbArc
 50
248.816845606963
 51
270.0
  0
ARC
  5
A10
102
{ACAD_REACTORS
330
100E
102
}
330
1E
100
AcDbEntity
  8
STEMPEL
  6
Continuous
100
AcDbCircle
 10
194.6532303939162
 20
527.7481311724575
 30
0.0
 40
12.0
100
AcDbArc
 50
248.816845606963
 51
270.0
  0
LINE
  5
A11
102
{ACAD_REACTORS
330
100E
102
}
330
1E
100
AcDbEntity
  8
STEMPEL
  6
Continuous
100
AcDbLine
 10
194.6532303939162
 20
515.7481311724575
 30
0.0
 11
201.6532303939164
 21
515.7481311724576
 31
0.0
  0
LINE
  5
A12
102
{ACAD_REACTORS
330
100E
102
}
330
1E
100
AcDbEntity
  8
STEMPEL
  6
Continuous
100
AcDbLine
 10
194.6532303939162
 20
514.1481311724576
 30
0.0
 11
201.6532303939164
 21
514.1481311724576
 31
0.0
  0
LINE
  5
A13
102
{ACAD_REACTORS
330
100E
102
}
330
1E
100
AcDbEntity
  8
STEMPEL
  6
Continuous
100
AcDbLine
 10
172.2021528010349
 20
518.2481311724575
 30
0.0
 11
181.2149503457256
 21
518.2481311724575
 31
0.0
  0
LINE
  5
A14
102
{ACAD_REACTORS
330
1025
102
}
330
1E
100
AcDbEntity
  8
MITTEL
100
AcDbLine
 10
166.6532303939162
 20
521.1481311724578
 30
0.0
 11
154.6532303939161
 21
521.1481311724578
 31
0.0
  0
LINE
  5
A19
102
{ACAD_REACTORS
330
1025
102
}
330
1E
100
AcDbEntity
  8
STEMPEL
100
AcDbLine
 10
161.6532303939162
 20
514.1481311724576
 30
0.0
 11
159.6532303939162
 21
514.1481311724576
 31
0.0
  0
LINE
  5
A1A
102
{ACAD_REACTORS
330
100E
102
}
330
1E
100
AcDbEntity
  8
STEMPEL
  6
Continuous
100
AcDbLine
 10
161.6532303939162
 20
514.1481311724576
 30
0.0
 11
162.3128854763025
 21
514.4557333891152
 31
0.0
  0
ARC
  5
A1B
102
{ACAD_REACTORS
330
100E
102
}
330
1E
100
AcDbEntity
  8
STEMPEL
  6
Continuous
100
AcDbCircle
 10
172.2021528010349
 20
493.2481311724576
 30
0.0
 40
23.4
100
AcDbArc
 50
90.0
 51
114.9999999999934
  0
LINE
  5
A1C
102
{ACAD_REACTORS
330
100E
102
}
330
1E
100
AcDbEntity
  8
STEMPEL
  6
Continuous
100
AcDbLine
 10
172.2021528010349
 20
516.6481311724576
 30
0.0
 11
181.2171714280009
 21
516.6481311724576
 31
0.0
  0
ARC
  5
A1D
330
1E
100
AcDbEntity
  8
SCHRAFF
100
AcDbCircle
 10
161.6532303939162
 20
515.913528500733
 30
0.0
 40
3.0
100
AcDbArc
 50
21.51838354480067
 51
90.0
  0
INSERT
  5
A1E
330
1E
100
AcDbEntity
  8
SCHRAFF
100
AcDbBlockReference
  2
*X3
 10
0.0
 20
952.2962623449153
 30
0.0
 41
-1.0
 50
180.0
1001
ACAD
1000
HATCH
1002
{
1070
    16
1000
_U,I
1040
0.1
1040
0.0
1070
     0
1002
}
  0
ARC
  5
A1F
102
{ACAD_REACTORS
330
100E
102
}
330
1E
100
AcDbEntity
  8
STEMPEL
  6
Continuous
100
AcDbCircle
 10
172.2021528010349
 20
493.2481311724576
 30
0.0
 40
25.0
100
AcDbArc
 50
90.0
 51
114.9581963123095
  0
ARC
  5
A21
102
{ACAD_REACTORS
330
100E
102
}
330
1E
100
AcDbEntity
  8
STEMPEL
  6
Continuous
100
AcDbCircle
 10
181.2832303939162
 20
493.2481311724576
 30
0.0
 40
25.00009324312574
100
AcDbArc
 50
68.81684560696301
 51
90.15648595435386
  0
ARC
  5
A22
102
{ACAD_REACTORS
330
100E
102
}
330
1E
100
AcDbEntity
  8
STEMPEL
  6
Continuous
100
AcDbCircle
 10
181.2832303939162
 20
493.2481311724576
 30
0.0
 40
23.40009324312573
100
AcDbArc
 50
68.81684560696301
 51
90.16174743125722
  0
LINE
  5
A25
102
{ACAD_REACTORS
330
1025
102
}
330
1E
100
AcDbEntity
  8
STEMPEL
100
AcDbLine
 10
297.6532303939162
 20
526.1481311724579
 30
0.0
 11
297.6532303939162
 21
531.1481311724577
 31
0.0
  0
LINE
  5
A26
102
{ACAD_REACTORS
330
1025
102
}
330
1E
100
AcDbEntity
  8
STEMPEL
100
AcDbLine
 10
299.6532303939164
 20
526.1481311724579
 30
0.0
 11
299.6532303939164
 21
531.1481311724578
 31
0.0
  0
DIMENSION
  5
A34
330
1E
100
AcDbEntity
  8
BEM
100
AcDbDimension
  2
*D5
 10
656.9531753823187
 20
569.8855362565447
 30
0.0
 11
568.9531753823185
 21
576.3855362565448
 31
0.0
 70
    32
  1
%%c<>
 71
     5
 42
176.0000000000002
  3
Standard
100
AcDbAlignedDimension
 13
480.9531753823184
 23
533.1481311724579
 33
0.0
 14
656.9531753823187
 24
533.1481311724578
 34
0.0
100
AcDbRotatedDimension
1001
ACAD
1000
DSTYLE
1002
{
1070
    40
1040
2.0
1070
    41
1040
3.5
1070
    42
1040
1.0
1070
    43
1040
7.0
1070
    44
1040
1.0
1070
    73
1070
     0
1070
    74
1070
     0
1070
    77
1070
     1
1070
    78
1070
     8
1070
    79
1070
     2
1070
   140
1040
3.5
1070
   141
1040
1.5
1070
   146
1040
0.5142857142857144
1070
   147
1040
1.5
1070
   172
1070
     1
1070
   178
1070
     1
1070
   179
1070
     2
1070
   271
1070
     2
1070
   272
1070
     2
1070
   284
1070
     8
1070
   285
1070
     8
1070
   286
1070
     8
1002
}
  0
POLYLINE
  5
A37
330
1E
100
AcDbEntity
  8
SCHRAFF
100
AcDb2dPolyline
 66
     1
 10
0.0
 20
0.0
 30
0.0
 70
     2
  0
VERTEX
  5
A38
330
A37
100
AcDbEntity
  8
SCHRAFF
100
AcDbVertex
100
AcDb2dVertex
 10
631.9621590989473
 20
473.387831292801
 30
0.0
 42
-0.1481711738912995
  0
VERTEX
  5
A39
330
A37
100
AcDbEntity
  8
SCHRAFF
100
AcDbVertex
100
AcDb2dVertex
 10
631.4522640162429
 20
472.7670940173456
 30
0.0
 42
-0.1481711738912668
 70
     1
  0
VERTEX
  5
A3A
330
A37
100
AcDbEntity
  8
SCHRAFF
100
AcDbVertex
100
AcDb2dVertex
 10
630.6835889573441
 20
472.533756462861
 30
0.0
 42
-0.1483030456011378
  0
VERTEX
  5
A3B
330
A37
100
AcDbEntity
  8
SCHRAFF
100
AcDbVertex
100
AcDb2dVertex
 10
629.9140786356426
 20
472.7666970540319
 30
0.0
 42
-0.1483030456011519
 70
     1
  0
VERTEX
  5
A3C
330
A37
100
AcDbEntity
  8
SCHRAFF
100
AcDbVertex
100
AcDb2dVertex
 10
629.4035889573441
 20
473.387831292801
 30
0.0
  0
SEQEND
  5
A3D
330
A37
100
AcDbEntity
  8
SCHRAFF
  0
POLYLINE
  5
A3E
330
1E
100
AcDbEntity
  8
SCHRAFF
100
AcDb2dPolyline
 66
     1
 10
0.0
 20
0.0
 30
0.0
 70
     2
  0
VERTEX
  5
A3F
330
A3E
100
AcDbEntity
  8
SCHRAFF
100
AcDbVertex
100
AcDb2dVertex
 10
631.9621590989473
 20
478.387831292801
 30
0.0
 42
-0.1481711738912995
  0
VERTEX
  5
A40
330
A3E
100
AcDbEntity
  8
SCHRAFF
100
AcDbVertex
100
AcDb2dVertex
 10
631.4522640162429
 20
477.7670940173456
 30
0.0
 42
-0.1481711738912668
 70
     1
  0
VERTEX
  5
A41
330
A3E
100
AcDbEntity
  8
SCHRAFF
100
AcDbVertex
100
AcDb2dVertex
 10
630.6835889573441
 20
477.533756462861
 30
0.0
 42
-0.1483030456011378
  0
VERTEX
  5
A42
330
A3E
100
AcDbEntity
  8
SCHRAFF
100
AcDbVertex
100
AcDb2dVertex
 10
629.9140786356426
 20
477.766697054032
 30
0.0
 42
-0.1483030456011519
 70
     1
  0
VERTEX
  5
A43
330
A3E
100
AcDbEntity
  8
SCHRAFF
100
AcDbVertex
100
AcDb2dVertex
 10
629.4035889573441
 20
478.387831292801
 30
0.0
  0
SEQEND
  5
A44
330
A3E
100
AcDbEntity
  8
SCHRAFF
  0
POLYLINE
  5
A45
330
1E
100
AcDbEntity
  8
SCHRAFF
100
AcDb2dPolyline
 66
     1
 10
0.0
 20
0.0
 30
0.0
 70
     2
  0
VERTEX
  5
A46
330
A45
100
AcDbEntity
  8
SCHRAFF
100
AcDbVertex
100
AcDb2dVertex
 10
631.9621590989473
 20
463.387831292801
 30
0.0
 42
-0.1481711738912995
  0
VERTEX
  5
A47
330
A45
100
AcDbEntity
  8
SCHRAFF
100
AcDbVertex
100
AcDb2dVertex
 10
631.4522640162429
 20
462.7670940173455
 30
0.0
 42
-0.1481711738912668
 70
     1
  0
VERTEX
  5
A48
330
A45
100
AcDbEntity
  8
SCHRAFF
100
AcDbVertex
100
AcDb2dVertex
 10
630.6835889573441
 20
462.5337564628609
 30
0.0
 42
-0.1483030456011378
  0
VERTEX
  5
A49
330
A45
100
AcDbEntity
  8
SCHRAFF
100
AcDbVertex
100
AcDb2dVertex
 10
629.9140786356426
 20
462.7666970540319
 30
0.0
 42
-0.1483030456011519
 70
     1
  0
VERTEX
  5
A4A
330
A45
100
AcDbEntity
  8
SCHRAFF
100
AcDbVertex
100
AcDb2dVertex
 10
629.4035889573441
 20
463.387831292801
 30
0.0
  0
SEQEND
  5
A4B
330
A45
100
AcDbEntity
  8
SCHRAFF
  0
POLYLINE
  5
A4C
330
1E
100
AcDbEntity
  8
SCHRAFF
100
AcDb2dPolyline
 66
     1
 10
0.0
 20
0.0
 30
0.0
 70
     2
  0
VERTEX
  5
A4D
330
A4C
100
AcDbEntity
  8
SCHRAFF
100
AcDbVertex
100
AcDb2dVertex
 10
631.9621590989473
 20
468.387831292801
 30
0.0
 42
-0.1481711738912995
  0
VERTEX
  5
A4E
330
A4C
100
AcDbEntity
  8
SCHRAFF
100
AcDbVertex
100
AcDb2dVertex
 10
631.4522640162429
 20
467.7670940173455
 30
0.0
 42
-0.1481711738912668
 70
     1
  0
VERTEX
  5
A4F
330
A4C
100
AcDbEntity
  8
SCHRAFF
100
AcDbVertex
100
AcDb2dVertex
 10
630.6835889573441
 20
467.533756462861
 30
0.0
 42
-0.1483030456011378
  0
VERTEX
  5
A50
330
A4C
100
AcDbEntity
  8
SCHRAFF
100
AcDbVertex
100
AcDb2dVertex
 10
629.9140786356426
 20
467.7666970540319
 30
0.0
 42
-0.1483030456011519
 70
     1
  0
VERTEX
  5
A51
330
A4C
100
AcDbEntity
  8
SCHRAFF
100
AcDbVertex
100
AcDb2dVertex
 10
629.4035889573441
 20
468.387831292801
 30
0.0
  0
SEQEND
  5
A52
330
A4C
100
AcDbEntity
  8
SCHRAFF
  0
POLYLINE
  5
A53
330
1E
100
AcDbEntity
  8
SCHRAFF
100
AcDb2dPolyline
 66
     1
 10
0.0
 20
0.0
 30
0.0
 70
     2
  0
VERTEX
  5
A54
330
A53
100
AcDbEntity
  8
SCHRAFF
100
AcDbVertex
100
AcDb2dVertex
 10
631.9621590989473
 20
458.387831292801
 30
0.0
 42
-0.1481711738912995
  0
VERTEX
  5
A55
330
A53
100
AcDbEntity
  8
SCHRAFF
100
AcDbVertex
100
AcDb2dVertex
 10
631.4522640162429
 20
457.7670940173455
 30
0.0
 42
-0.1481711738912668
 70
     1
  0
VERTEX
  5
A56
330
A53
100
AcDbEntity
  8
SCHRAFF
100
AcDbVertex
100
AcDb2dVertex
 10
630.6835889573441
 20
457.5337564628609
 30
0.0
 42
-0.1483030456011378
  0
VERTEX
  5
A57
330
A53
100
AcDbEntity
  8
SCHRAFF
100
AcDbVertex
100
AcDb2dVertex
 10
629.9140786356426
 20
457.7666970540319
 30
0.0
 42
-0.1483030456011519
 70
     1
  0
VERTEX
  5
A58
330
A53
100
AcDbEntity
  8
SCHRAFF
100
AcDbVertex
100
AcDb2dVertex
 10
629.4035889573441
 20
458.387831292801
 30
0.0
  0
SEQEND
  5
A59
330
A53
100
AcDbEntity
  8
SCHRAFF
  0
POLYLINE
  5
A5A
330
1E
100
AcDbEntity
  8
SCHRAFF
100
AcDb2dPolyline
 66
     1
 10
0.0
 20
0.0
 30
0.0
 70
     2
  0
VERTEX
  5
A5B
330
A5A
100
AcDbEntity
  8
SCHRAFF
100
AcDbVertex
100
AcDb2dVertex
 10
631.9621590989473
 20
453.387831292801
 30
0.0
 42
-0.1481711738912995
  0
VERTEX
  5
A5C
330
A5A
100
AcDbEntity
  8
SCHRAFF
100
AcDbVertex
100
AcDb2dVertex
 10
631.4522640162429
 20
452.7670940173456
 30
0.0
 42
-0.1481711738912668
 70
     1
  0
VERTEX
  5
A5D
330
A5A
100
AcDbEntity
  8
SCHRAFF
100
AcDbVertex
100
AcDb2dVertex
 10
630.6835889573441
 20
452.533756462861
 30
0.0
 42
-0.1483030456011378
  0
VERTEX
  5
A5E
330
A5A
100
AcDbEntity
  8
SCHRAFF
100
AcDbVertex
100
AcDb2dVertex
 10
629.9140786356426
 20
452.766697054032
 30
0.0
 42
-0.1483030456011519
 70
     1
  0
VERTEX
  5
A5F
330
A5A
100
AcDbEntity
  8
SCHRAFF
100
AcDbVertex
100
AcDb2dVertex
 10
629.4035889573441
 20
453.387831292801
 30
0.0
  0
SEQEND
  5
A60
330
A5A
100
AcDbEntity
  8
SCHRAFF
  0
POLYLINE
  5
A61
330
1E
100
AcDbEntity
  8
SCHRAFF
100
AcDb2dPolyline
 66
     1
 10
0.0
 20
0.0
 30
0.0
 70
     2
  0
VERTEX
  5
A62
330
A61
100
AcDbEntity
  8
SCHRAFF
100
AcDbVertex
100
AcDb2dVertex
 10
631.9621590989473
 20
438.387831292801
 30
0.0
 42
-0.1481711738912995
  0
VERTEX
  5
A63
330
A61
100
AcDbEntity
  8
SCHRAFF
100
AcDbVertex
100
AcDb2dVertex
 10
631.4522640162429
 20
437.7670940173455
 30
0.0
 42
-0.1481711738912668
 70
     1
  0
VERTEX
  5
A64
330
A61
100
AcDbEntity
  8
SCHRAFF
100
AcDbVertex
100
AcDb2dVertex
 10
630.6835889573441
 20
437.5337564628609
 30
0.0
 42
-0.1483030456011378
  0
VERTEX
  5
A65
330
A61
100
AcDbEntity
  8
SCHRAFF
100
AcDbVertex
100
AcDb2dVertex
 10
629.9140786356426
 20
437.7666970540319
 30
0.0
 42
-0.1483030456011519
 70
     1
  0
VERTEX
  5
A66
330
A61
100
AcDbEntity
  8
SCHRAFF
100
AcDbVertex
100
AcDb2dVertex
 10
629.4035889573441
 20
438.387831292801
 30
0.0
  0
SEQEND
  5
A67
330
A61
100
AcDbEntity
  8
SCHRAFF
  0
POLYLINE
  5
A68
330
1E
100
AcDbEntity
  8
SCHRAFF
100
AcDb2dPolyline
 66
     1
 10
0.0
 20
0.0
 30
0.0
 70
     2
  0
VERTEX
  5
A69
330
A68
100
AcDbEntity
  8
SCHRAFF
100
AcDbVertex
100
AcDb2dVertex
 10
631.9621590989473
 20
443.387831292801
 30
0.0
 42
-0.1481711738912995
  0
VERTEX
  5
A6A
330
A68
100
AcDbEntity
  8
SCHRAFF
100
AcDbVertex
100
AcDb2dVertex
 10
631.4522640162429
 20
442.7670940173455
 30
0.0
 42
-0.1481711738912668
 70
     1
  0
VERTEX
  5
A6B
330
A68
100
AcDbEntity
  8
SCHRAFF
100
AcDbVertex
100
AcDb2dVertex
 10
630.6835889573441
 20
442.533756462861
 30
0.0
 42
-0.1483030456011378
  0
VERTEX
  5
A6C
330
A68
100
AcDbEntity
  8
SCHRAFF
100
AcDbVertex
100
AcDb2dVertex
 10
629.9140786356426
 20
442.7666970540319
 30
0.0
 42
-0.1483030456011519
 70
     1
  0
VERTEX
  5
A6D
330
A68
100
AcDbEntity
  8
SCHRAFF
100
AcDbVertex
100
AcDb2dVertex
 10
629.4035889573441
 20
443.387831292801
 30
0.0
  0
SEQEND
  5
A6E
330
A68
100
AcDbEntity
  8
SCHRAFF
  0
POLYLINE
  5
A6F
330
1E
100
AcDbEntity
  8
SCHRAFF
100
AcDb2dPolyline
 66
     1
 10
0.0
 20
0.0
 30
0.0
 70
     2
  0
VERTEX
  5
A70
330
A6F
100
AcDbEntity
  8
SCHRAFF
100
AcDbVertex
100
AcDb2dVertex
 10
631.9621590989473
 20
448.387831292801
 30
0.0
 42
-0.1481711738912995
  0
VERTEX
  5
A71
330
A6F
100
AcDbEntity
  8
SCHRAFF
100
AcDbVertex
100
AcDb2dVertex
 10
631.4522640162429
 20
447.7670940173456
 30
0.0
 42
-0.1481711738912668
 70
     1
  0
VERTEX
  5
A72
330
A6F
100
AcDbEntity
  8
SCHRAFF
100
AcDbVertex
100
AcDb2dVertex
 10
630.6835889573441
 20
447.533756462861
 30
0.0
 42
-0.1483030456011378
  0
VERTEX
  5
A73
330
A6F
100
AcDbEntity
  8
SCHRAFF
100
AcDbVertex
100
AcDb2dVertex
 10
629.9140786356426
 20
447.7666970540319
 30
0.0
 42
-0.1483030456011519
 70
     1
  0
VERTEX
  5
A74
330
A6F
100
AcDbEntity
  8
SCHRAFF
100
AcDbVertex
100
AcDb2dVertex
 10
629.4035889573441
 20
448.387831292801
 30
0.0
  0
SEQEND
  5
A75
330
A6F
100
AcDbEntity
  8
SCHRAFF
  0
POLYLINE
  5
A76
330
1E
100
AcDbEntity
  8
SCHRAFF
100
AcDb2dPolyline
 66
     1
 10
0.0
 20
0.0
 30
0.0
 70
     2
  0
VERTEX
  5
A77
330
A76
100
AcDbEntity
  8
SCHRAFF
100
AcDbVertex
100
AcDb2dVertex
 10
505.9441916656896
 20
478.387831292801
 30
0.0
 42
0.1481711738912995
  0
VERTEX
  5
A78
330
A76
100
AcDbEntity
  8
SCHRAFF
100
AcDbVertex
100
AcDb2dVertex
 10
506.454086748394
 20
477.7670940173456
 30
0.0
 42
0.1481711738912668
 70
     1
  0
VERTEX
  5
A79
330
A76
100
AcDbEntity
  8
SCHRAFF
100
AcDbVertex
100
AcDb2dVertex
 10
507.2227618072928
 20
477.533756462861
 30
0.0
 42
0.1483030456011378
  0
VERTEX
  5
A7A
330
A76
100
AcDbEntity
  8
SCHRAFF
100
AcDbVertex
100
AcDb2dVertex
 10
507.9922721289943
 20
477.766697054032
 30
0.0
 42
0.1483030456011519
 70
     1
  0
VERTEX
  5
A7B
330
A76
100
AcDbEntity
  8
SCHRAFF
100
AcDbVertex
100
AcDb2dVertex
 10
508.5027618072928
 20
478.387831292801
 30
0.0
  0
SEQEND
  5
A7C
330
A76
100
AcDbEntity
  8
SCHRAFF
  0
POLYLINE
  5
A7D
330
1E
100
AcDbEntity
  8
SCHRAFF
100
AcDb2dPolyline
 66
     1
 10
0.0
 20
0.0
 30
0.0
 70
     2
  0
VERTEX
  5
A7E
330
A7D
100
AcDbEntity
  8
SCHRAFF
100
AcDbVertex
100
AcDb2dVertex
 10
505.9441916656896
 20
473.387831292801
 30
0.0
 42
0.1481711738912995
  0
VERTEX
  5
A7F
330
A7D
100
AcDbEntity
  8
SCHRAFF
100
AcDbVertex
100
AcDb2dVertex
 10
506.454086748394
 20
472.7670940173456
 30
0.0
 42
0.1481711738912668
 70
     1
  0
VERTEX
  5
A80
330
A7D
100
AcDbEntity
  8
SCHRAFF
100
AcDbVertex
100
AcDb2dVertex
 10
507.2227618072928
 20
472.533756462861
 30
0.0
 42
0.1483030456011378
  0
VERTEX
  5
A81
330
A7D
100
AcDbEntity
  8
SCHRAFF
100
AcDbVertex
100
AcDb2dVertex
 10
507.9922721289943
 20
472.7666970540319
 30
0.0
 42
0.1483030456011519
 70
     1
  0
VERTEX
  5
A82
330
A7D
100
AcDbEntity
  8
SCHRAFF
100
AcDbVertex
100
AcDb2dVertex
 10
508.5027618072928
 20
473.387831292801
 30
0.0
  0
SEQEND
  5
A83
330
A7D
100
AcDbEntity
  8
SCHRAFF
  0
POLYLINE
  5
A84
330
1E
100
AcDbEntity
  8
SCHRAFF
100
AcDb2dPolyline
 66
     1
 10
0.0
 20
0.0
 30
0.0
 70
     2
  0
VERTEX
  5
A85
330
A84
100
AcDbEntity
  8
SCHRAFF
100
AcDbVertex
100
AcDb2dVertex
 10
505.9441916656896
 20
468.387831292801
 30
0.0
 42
0.1481711738912995
  0
VERTEX
  5
A86
330
A84
100
AcDbEntity
  8
SCHRAFF
100
AcDbVertex
100
AcDb2dVertex
 10
506.454086748394
 20
467.7670940173455
 30
0.0
 42
0.1481711738912668
 70
     1
  0
VERTEX
  5
A87
330
A84
100
AcDbEntity
  8
SCHRAFF
100
AcDbVertex
100
AcDb2dVertex
 10
507.2227618072928
 20
467.533756462861
 30
0.0
 42
0.1483030456011378
  0
VERTEX
  5
A88
330
A84
100
AcDbEntity
  8
SCHRAFF
100
AcDbVertex
100
AcDb2dVertex
 10
507.9922721289943
 20
467.7666970540319
 30
0.0
 42
0.1483030456011519
 70
     1
  0
VERTEX
  5
A89
330
A84
100
AcDbEntity
  8
SCHRAFF
100
AcDbVertex
100
AcDb2dVertex
 10
508.5027618072928
 20
468.387831292801
 30
0.0
  0
SEQEND
  5
A8A
330
A84
100
AcDbEntity
  8
SCHRAFF
  0
POLYLINE
  5
A8B
330
1E
100
AcDbEntity
  8
SCHRAFF
100
AcDb2dPolyline
 66
     1
 10
0.0
 20
0.0
 30
0.0
 70
     2
  0
VERTEX
  5
A8C
330
A8B
100
AcDbEntity
  8
SCHRAFF
100
AcDbVertex
100
AcDb2dVertex
 10
505.9441916656896
 20
463.387831292801
 30
0.0
 42
0.1481711738912995
  0
VERTEX
  5
A8D
330
A8B
100
AcDbEntity
  8
SCHRAFF
100
AcDbVertex
100
AcDb2dVertex
 10
506.454086748394
 20
462.7670940173455
 30
0.0
 42
0.1481711738912668
 70
     1
  0
VERTEX
  5
A8E
330
A8B
100
AcDbEntity
  8
SCHRAFF
100
AcDbVertex
100
AcDb2dVertex
 10
507.2227618072928
 20
462.5337564628609
 30
0.0
 42
0.1483030456011378
  0
VERTEX
  5
A8F
330
A8B
100
AcDbEntity
  8
SCHRAFF
100
AcDbVertex
100
AcDb2dVertex
 10
507.9922721289943
 20
462.7666970540319
 30
0.0
 42
0.1483030456011519
 70
     1
  0
VERTEX
  5
A90
330
A8B
100
AcDbEntity
  8
SCHRAFF
100
AcDbVertex
100
AcDb2dVertex
 10
508.5027618072928
 20
463.387831292801
 30
0.0
  0
SEQEND
  5
A91
330
A8B
100
AcDbEntity
  8
SCHRAFF
  0
POLYLINE
  5
A92
330
1E
100
AcDbEntity
  8
SCHRAFF
100
AcDb2dPolyline
 66
     1
 10
0.0
 20
0.0
 30
0.0
 70
     2
  0
VERTEX
  5
A93
330
A92
100
AcDbEntity
  8
SCHRAFF
100
AcDbVertex
100
AcDb2dVertex
 10
505.9441916656896
 20
453.387831292801
 30
0.0
 42
0.1481711738912995
  0
VERTEX
  5
A94
330
A92
100
AcDbEntity
  8
SCHRAFF
100
AcDbVertex
100
AcDb2dVertex
 10
506.454086748394
 20
452.7670940173456
 30
0.0
 42
0.1481711738912668
 70
     1
  0
VERTEX
  5
A95
330
A92
100
AcDbEntity
  8
SCHRAFF
100
AcDbVertex
100
AcDb2dVertex
 10
507.2227618072928
 20
452.533756462861
 30
0.0
 42
0.1483030456011378
  0
VERTEX
  5
A96
330
A92
100
AcDbEntity
  8
SCHRAFF
100
AcDbVertex
100
AcDb2dVertex
 10
507.9922721289943
 20
452.766697054032
 30
0.0
 42
0.1483030456011519
 70
     1
  0
VERTEX
  5
A97
330
A92
100
AcDbEntity
  8
SCHRAFF
100
AcDbVertex
100
AcDb2dVertex
 10
508.5027618072928
 20
453.387831292801
 30
0.0
  0
SEQEND
  5
A98
330
A92
100
AcDbEntity
  8
SCHRAFF
  0
POLYLINE
  5
A99
330
1E
100
AcDbEntity
  8
SCHRAFF
100
AcDb2dPolyline
 66
     1
 10
0.0
 20
0.0
 30
0.0
 70
     2
  0
VERTEX
  5
A9A
330
A99
100
AcDbEntity
  8
SCHRAFF
100
AcDbVertex
100
AcDb2dVertex
 10
505.9441916656896
 20
458.387831292801
 30
0.0
 42
0.1481711738912995
  0
VERTEX
  5
A9B
330
A99
100
AcDbEntity
  8
SCHRAFF
100
AcDbVertex
100
AcDb2dVertex
 10
506.454086748394
 20
457.7670940173455
 30
0.0
 42
0.1481711738912668
 70
     1
  0
VERTEX
  5
A9C
330
A99
100
AcDbEntity
  8
SCHRAFF
100
AcDbVertex
100
AcDb2dVertex
 10
507.2227618072928
 20
457.5337564628609
 30
0.0
 42
0.1483030456011378
  0
VERTEX
  5
A9D
330
A99
100
AcDbEntity
  8
SCHRAFF
100
AcDbVertex
100
AcDb2dVertex
 10
507.9922721289943
 20
457.7666970540319
 30
0.0
 42
0.1483030456011519
 70
     1
  0
VERTEX
  5
A9E
330
A99
100
AcDbEntity
  8
SCHRAFF
100
AcDbVertex
100
AcDb2dVertex
 10
508.5027618072928
 20
458.387831292801
 30
0.0
  0
SEQEND
  5
A9F
330
A99
100
AcDbEntity
  8
SCHRAFF
  0
POLYLINE
  5
AA0
330
1E
100
AcDbEntity
  8
SCHRAFF
100
AcDb2dPolyline
 66
     1
 10
0.0
 20
0.0
 30
0.0
 70
     2
  0
VERTEX
  5
AA1
330
AA0
100
AcDbEntity
  8
SCHRAFF
100
AcDbVertex
100
AcDb2dVertex
 10
505.9441916656896
 20
443.387831292801
 30
0.0
 42
0.1481711738912995
  0
VERTEX
  5
AA2
330
AA0
100
AcDbEntity
  8
SCHRAFF
100
AcDbVertex
100
AcDb2dVertex
 10
506.454086748394
 20
442.7670940173455
 30
0.0
 42
0.1481711738912668
 70
     1
  0
VERTEX
  5
AA3
330
AA0
100
AcDbEntity
  8
SCHRAFF
100
AcDbVertex
100
AcDb2dVertex
 10
507.2227618072928
 20
442.533756462861
 30
0.0
 42
0.1483030456011378
  0
VERTEX
  5
AA4
330
AA0
100
AcDbEntity
  8
SCHRAFF
100
AcDbVertex
100
AcDb2dVertex
 10
507.9922721289943
 20
442.7666970540319
 30
0.0
 42
0.1483030456011519
 70
     1
  0
VERTEX
  5
AA5
330
AA0
100
AcDbEntity
  8
SCHRAFF
100
AcDbVertex
100
AcDb2dVertex
 10
508.5027618072928
 20
443.387831292801
 30
0.0
  0
SEQEND
  5
AA6
330
AA0
100
AcDbEntity
  8
SCHRAFF
  0
POLYLINE
  5
AA7
330
1E
100
AcDbEntity
  8
SCHRAFF
100
AcDb2dPolyline
 66
     1
 10
0.0
 20
0.0
 30
0.0
 70
     2
  0
VERTEX
  5
AA8
330
AA7
100
AcDbEntity
  8
SCHRAFF
100
AcDbVertex
100
AcDb2dVertex
 10
505.9441916656896
 20
438.387831292801
 30
0.0
 42
0.1481711738912995
  0
VERTEX
  5
AA9
330
AA7
100
AcDbEntity
  8
SCHRAFF
100
AcDbVertex
100
AcDb2dVertex
 10
506.454086748394
 20
437.7670940173455
 30
0.0
 42
0.1481711738912668
 70
     1
  0
VERTEX
  5
AAA
330
AA7
100
AcDbEntity
  8
SCHRAFF
100
AcDbVertex
100
AcDb2dVertex
 10
507.2227618072928
 20
437.5337564628609
 30
0.0
 42
0.1483030456011378
  0
VERTEX
  5
AAB
330
AA7
100
AcDbEntity
  8
SCHRAFF
100
AcDbVertex
100
AcDb2dVertex
 10
507.9922721289943
 20
437.7666970540319
 30
0.0
 42
0.1483030456011519
 70
     1
  0
VERTEX
  5
AAC
330
AA7
100
AcDbEntity
  8
SCHRAFF
100
AcDbVertex
100
AcDb2dVertex
 10
508.5027618072928
 20
438.387831292801
 30
0.0
  0
SEQEND
  5
AAD
330
AA7
100
AcDbEntity
  8
SCHRAFF
  0
POLYLINE
  5
AAE
330
1E
100
AcDbEntity
  8
SCHRAFF
100
AcDb2dPolyline
 66
     1
 10
0.0
 20
0.0
 30
0.0
 70
     2
  0
VERTEX
  5
AAF
330
AAE
100
AcDbEntity
  8
SCHRAFF
100
AcDbVertex
100
AcDb2dVertex
 10
505.9441916656896
 20
448.387831292801
 30
0.0
 42
0.1481711738912995
  0
VERTEX
  5
AB0
330
AAE
100
AcDbEntity
  8
SCHRAFF
100
AcDbVertex
100
AcDb2dVertex
 10
506.454086748394
 20
447.7670940173456
 30
0.0
 42
0.1481711738912668
 70
     1
  0
VERTEX
  5
AB1
330
AAE
100
AcDbEntity
  8
SCHRAFF
100
AcDbVertex
100
AcDb2dVertex
 10
507.2227618072928
 20
447.533756462861
 30
0.0
 42
0.1483030456011378
  0
VERTEX
  5
AB2
330
AAE
100
AcDbEntity
  8
SCHRAFF
100
AcDbVertex
100
AcDb2dVertex
 10
507.9922721289943
 20
447.7666970540319
 30
0.0
 42
0.1483030456011519
 70
     1
  0
VERTEX
  5
AB3
330
AAE
100
AcDbEntity
  8
SCHRAFF
100
AcDbVertex
100
AcDb2dVertex
 10
508.5027618072928
 20
448.387831292801
 30
0.0
  0
SEQEND
  5
AB4
330
AAE
100
AcDbEntity
  8
SCHRAFF
  0
LINE
  5
AB5
330
1E
100
AcDbEntity
  8
MITTEL
100
AcDbLine
 10
509.8531753823185
 20
476.1481311724576
 30
0.0
 11
628.0531753823184
 21
476.1481311724576
 31
0.0
  0
POLYLINE
  5
AB6
330
1E
100
AcDbEntity
  8
SCHRAFF
100
AcDb2dPolyline
 66
     1
 10
0.0
 20
0.0
 30
0.0
 70
     2
  0
VERTEX
  5
AB7
330
AB6
100
AcDbEntity
  8
SCHRAFF
100
AcDbVertex
100
AcDb2dVertex
 10
631.9621590989473
 20
428.387831292801
 30
0.0
 42
-0.1481711738912995
  0
VERTEX
  5
AB8
330
AB6
100
AcDbEntity
  8
SCHRAFF
100
AcDbVertex
100
AcDb2dVertex
 10
631.4522640162429
 20
427.7670940173456
 30
0.0
 42
-0.1481711738912668
 70
     1
  0
VERTEX
  5
AB9
330
AB6
100
AcDbEntity
  8
SCHRAFF
100
AcDbVertex
100
AcDb2dVertex
 10
630.6835889573441
 20
427.533756462861
 30
0.0
 42
-0.1483030456011378
  0
VERTEX
  5
ABA
330
AB6
100
AcDbEntity
  8
SCHRAFF
100
AcDbVertex
100
AcDb2dVertex
 10
629.9140786356426
 20
427.766697054032
 30
0.0
 42
-0.1483030456011519
 70
     1
  0
VERTEX
  5
ABB
330
AB6
100
AcDbEntity
  8
SCHRAFF
100
AcDbVertex
100
AcDb2dVertex
 10
629.4035889573441
 20
428.387831292801
 30
0.0
  0
SEQEND
  5
ABC
330
AB6
100
AcDbEntity
  8
SCHRAFF
  0
POLYLINE
  5
ABD
330
1E
100
AcDbEntity
  8
SCHRAFF
100
AcDb2dPolyline
 66
     1
 10
0.0
 20
0.0
 30
0.0
 70
     2
  0
VERTEX
  5
ABE
330
ABD
100
AcDbEntity
  8
SCHRAFF
100
AcDbVertex
100
AcDb2dVertex
 10
631.9621590989473
 20
433.387831292801
 30
0.0
 42
-0.1481711738912995
  0
VERTEX
  5
ABF
330
ABD
100
AcDbEntity
  8
SCHRAFF
100
AcDbVertex
100
AcDb2dVertex
 10
631.4522640162429
 20
432.7670940173455
 30
0.0
 42
-0.1481711738912668
 70
     1
  0
VERTEX
  5
AC0
330
ABD
100
AcDbEntity
  8
SCHRAFF
100
AcDbVertex
100
AcDb2dVertex
 10
630.6835889573441
 20
432.5337564628609
 30
0.0
 42
-0.1483030456011378
  0
VERTEX
  5
AC1
330
ABD
100
AcDbEntity
  8
SCHRAFF
100
AcDbVertex
100
AcDb2dVertex
 10
629.9140786356426
 20
432.7666970540319
 30
0.0
 42
-0.1483030456011519
 70
     1
  0
VERTEX
  5
AC2
330
ABD
100
AcDbEntity
  8
SCHRAFF
100
AcDbVertex
100
AcDb2dVertex
 10
629.4035889573441
 20
433.387831292801
 30
0.0
  0
SEQEND
  5
AC3
330
ABD
100
AcDbEntity
  8
SCHRAFF
  0
POLYLINE
  5
AC4
330
1E
100
AcDbEntity
  8
SCHRAFF
100
AcDb2dPolyline
 66
     1
 10
0.0
 20
0.0
 30
0.0
 70
     2
  0
VERTEX
  5
AC5
330
AC4
100
AcDbEntity
  8
SCHRAFF
100
AcDbVertex
100
AcDb2dVertex
 10
631.9621590989473
 20
423.387831292801
 30
0.0
 42
-0.1481711738912995
  0
VERTEX
  5
AC6
330
AC4
100
AcDbEntity
  8
SCHRAFF
100
AcDbVertex
100
AcDb2dVertex
 10
631.4522640162429
 20
422.7670940173456
 30
0.0
 42
-0.1481711738912668
 70
     1
  0
VERTEX
  5
AC7
330
AC4
100
AcDbEntity
  8
SCHRAFF
100
AcDbVertex
100
AcDb2dVertex
 10
630.6835889573441
 20
422.533756462861
 30
0.0
 42
-0.1483030456011378
  0
VERTEX
  5
AC8
330
AC4
100
AcDbEntity
  8
SCHRAFF
100
AcDbVertex
100
AcDb2dVertex
 10
629.9140786356426
 20
422.7666970540319
 30
0.0
 42
-0.1483030456011519
 70
     1
  0
VERTEX
  5
AC9
330
AC4
100
AcDbEntity
  8
SCHRAFF
100
AcDbVertex
100
AcDb2dVertex
 10
629.4035889573441
 20
423.387831292801
 30
0.0
  0
SEQEND
  5
ACA
330
AC4
100
AcDbEntity
  8
SCHRAFF
  0
POLYLINE
  5
ACB
330
1E
100
AcDbEntity
  8
SCHRAFF
100
AcDb2dPolyline
 66
     1
 10
0.0
 20
0.0
 30
0.0
 70
     2
  0
VERTEX
  5
ACC
330
ACB
100
AcDbEntity
  8
SCHRAFF
100
AcDbVertex
100
AcDb2dVertex
 10
631.9621590989473
 20
418.387831292801
 30
0.0
 42
-0.1481711738912995
  0
VERTEX
  5
ACD
330
ACB
100
AcDbEntity
  8
SCHRAFF
100
AcDbVertex
100
AcDb2dVertex
 10
631.4522640162429
 20
417.7670940173455
 30
0.0
 42
-0.1481711738912668
 70
     1
  0
VERTEX
  5
ACE
330
ACB
100
AcDbEntity
  8
SCHRAFF
100
AcDbVertex
100
AcDb2dVertex
 10
630.6835889573441
 20
417.533756462861
 30
0.0
 42
-0.1483030456011378
  0
VERTEX
  5
ACF
330
ACB
100
AcDbEntity
  8
SCHRAFF
100
AcDbVertex
100
AcDb2dVertex
 10
629.9140786356426
 20
417.7666970540319
 30
0.0
 42
-0.1483030456011519
 70
     1
  0
VERTEX
  5
AD0
330
ACB
100
AcDbEntity
  8
SCHRAFF
100
AcDbVertex
100
AcDb2dVertex
 10
629.4035889573441
 20
418.387831292801
 30
0.0
  0
SEQEND
  5
AD1
330
ACB
100
AcDbEntity
  8
SCHRAFF
  0
POLYLINE
  5
AD2
330
1E
100
AcDbEntity
  8
SCHRAFF
100
AcDb2dPolyline
 66
     1
 10
0.0
 20
0.0
 30
0.0
 70
     2
  0
VERTEX
  5
AD3
330
AD2
100
AcDbEntity
  8
SCHRAFF
100
AcDbVertex
100
AcDb2dVertex
 10
631.9621590989473
 20
403.387831292801
 30
0.0
 42
-0.1481711738912995
  0
VERTEX
  5
AD4
330
AD2
100
AcDbEntity
  8
SCHRAFF
100
AcDbVertex
100
AcDb2dVertex
 10
631.4522640162429
 20
402.7670940173456
 30
0.0
 42
-0.1481711738912668
 70
     1
  0
VERTEX
  5
AD5
330
AD2
100
AcDbEntity
  8
SCHRAFF
100
AcDbVertex
100
AcDb2dVertex
 10
630.6835889573441
 20
402.533756462861
 30
0.0
 42
-0.1483030456011378
  0
VERTEX
  5
AD6
330
AD2
100
AcDbEntity
  8
SCHRAFF
100
AcDbVertex
100
AcDb2dVertex
 10
629.9140786356426
 20
402.766697054032
 30
0.0
 42
-0.1483030456011519
 70
     1
  0
VERTEX
  5
AD7
330
AD2
100
AcDbEntity
  8
SCHRAFF
100
AcDbVertex
100
AcDb2dVertex
 10
629.4035889573441
 20
403.387831292801
 30
0.0
  0
SEQEND
  5
AD8
330
AD2
100
AcDbEntity
  8
SCHRAFF
  0
POLYLINE
  5
AD9
330
1E
100
AcDbEntity
  8
SCHRAFF
100
AcDb2dPolyline
 66
     1
 10
0.0
 20
0.0
 30
0.0
 70
     2
  0
VERTEX
  5
ADA
330
AD9
100
AcDbEntity
  8
SCHRAFF
100
AcDbVertex
100
AcDb2dVertex
 10
631.9621590989473
 20
408.387831292801
 30
0.0
 42
-0.1481711738912995
  0
VERTEX
  5
ADB
330
AD9
100
AcDbEntity
  8
SCHRAFF
100
AcDbVertex
100
AcDb2dVertex
 10
631.4522640162429
 20
407.7670940173455
 30
0.0
 42
-0.1481711738912668
 70
     1
  0
VERTEX
  5
ADC
330
AD9
100
AcDbEntity
  8
SCHRAFF
100
AcDbVertex
100
AcDb2dVertex
 10
630.6835889573441
 20
407.5337564628609
 30
0.0
 42
-0.1483030456011378
  0
VERTEX
  5
ADD
330
AD9
100
AcDbEntity
  8
SCHRAFF
100
AcDbVertex
100
AcDb2dVertex
 10
629.9140786356426
 20
407.7666970540319
 30
0.0
 42
-0.1483030456011519
 70
     1
  0
VERTEX
  5
ADE
330
AD9
100
AcDbEntity
  8
SCHRAFF
100
AcDbVertex
100
AcDb2dVertex
 10
629.4035889573441
 20
408.387831292801
 30
0.0
  0
SEQEND
  5
ADF
330
AD9
100
AcDbEntity
  8
SCHRAFF
  0
POLYLINE
  5
AE0
330
1E
100
AcDbEntity
  8
SCHRAFF
100
AcDb2dPolyline
 66
     1
 10
0.0
 20
0.0
 30
0.0
 70
     2
  0
VERTEX
  5
AE1
330
AE0
100
AcDbEntity
  8
SCHRAFF
100
AcDbVertex
100
AcDb2dVertex
 10
631.9621590989473
 20
398.387831292801
 30
0.0
 42
-0.1481711738912995
  0
VERTEX
  5
AE2
330
AE0
100
AcDbEntity
  8
SCHRAFF
100
AcDbVertex
100
AcDb2dVertex
 10
631.4522640162429
 20
397.7670940173456
 30
0.0
 42
-0.1481711738912668
 70
     1
  0
VERTEX
  5
AE3
330
AE0
100
AcDbEntity
  8
SCHRAFF
100
AcDbVertex
100
AcDb2dVertex
 10
630.6835889573441
 20
397.533756462861
 30
0.0
 42
-0.1483030456011378
  0
VERTEX
  5
AE4
330
AE0
100
AcDbEntity
  8
SCHRAFF
100
AcDbVertex
100
AcDb2dVertex
 10
629.9140786356426
 20
397.766697054032
 30
0.0
 42
-0.1483030456011519
 70
     1
  0
VERTEX
  5
AE5
330
AE0
100
AcDbEntity
  8
SCHRAFF
100
AcDbVertex
100
AcDb2dVertex
 10
629.4035889573441
 20
398.387831292801
 30
0.0
  0
SEQEND
  5
AE6
330
AE0
100
AcDbEntity
  8
SCHRAFF
  0
POLYLINE
  5
AE7
330
1E
100
AcDbEntity
  8
SCHRAFF
100
AcDb2dPolyline
 66
     1
 10
0.0
 20
0.0
 30
0.0
 70
     2
  0
VERTEX
  5
AE8
330
AE7
100
AcDbEntity
  8
SCHRAFF
100
AcDbVertex
100
AcDb2dVertex
 10
631.9621590989473
 20
393.387831292801
 30
0.0
 42
-0.1481711738912995
  0
VERTEX
  5
AE9
330
AE7
100
AcDbEntity
  8
SCHRAFF
100
AcDbVertex
100
AcDb2dVertex
 10
631.4522640162429
 20
392.7670940173456
 30
0.0
 42
-0.1481711738912668
 70
     1
  0
VERTEX
  5
AEA
330
AE7
100
AcDbEntity
  8
SCHRAFF
100
AcDbVertex
100
AcDb2dVertex
 10
630.6835889573441
 20
392.533756462861
 30
0.0
 42
-0.1483030456011378
  0
VERTEX
  5
AEB
330
AE7
100
AcDbEntity
  8
SCHRAFF
100
AcDbVertex
100
AcDb2dVertex
 10
629.9140786356426
 20
392.766697054032
 30
0.0
 42
-0.1483030456011519
 70
     1
  0
VERTEX
  5
AEC
330
AE7
100
AcDbEntity
  8
SCHRAFF
100
AcDbVertex
100
AcDb2dVertex
 10
629.4035889573441
 20
393.387831292801
 30
0.0
  0
SEQEND
  5
AED
330
AE7
100
AcDbEntity
  8
SCHRAFF
  0
POLYLINE
  5
AEE
330
1E
100
AcDbEntity
  8
SCHRAFF
100
AcDb2dPolyline
 66
     1
 10
0.0
 20
0.0
 30
0.0
 70
     2
  0
VERTEX
  5
AEF
330
AEE
100
AcDbEntity
  8
SCHRAFF
100
AcDbVertex
100
AcDb2dVertex
 10
631.9621590989473
 20
413.3878312928009
 30
0.0
 42
-0.1481711738912995
  0
VERTEX
  5
AF0
330
AEE
100
AcDbEntity
  8
SCHRAFF
100
AcDbVertex
100
AcDb2dVertex
 10
631.4522640162429
 20
412.7670940173455
 30
0.0
 42
-0.1481711738912668
 70
     1
  0
VERTEX
  5
AF1
330
AEE
100
AcDbEntity
  8
SCHRAFF
100
AcDbVertex
100
AcDb2dVertex
 10
630.6835889573441
 20
412.5337564628609
 30
0.0
 42
-0.1483030456011378
  0
VERTEX
  5
AF2
330
AEE
100
AcDbEntity
  8
SCHRAFF
100
AcDbVertex
100
AcDb2dVertex
 10
629.9140786356426
 20
412.7666970540319
 30
0.0
 42
-0.1483030456011519
 70
     1
  0
VERTEX
  5
AF3
330
AEE
100
AcDbEntity
  8
SCHRAFF
100
AcDbVertex
100
AcDb2dVertex
 10
629.4035889573441
 20
413.3878312928009
 30
0.0
  0
SEQEND
  5
AF4
330
AEE
100
AcDbEntity
  8
SCHRAFF
  0
POLYLINE
  5
AF5
330
1E
100
AcDbEntity
  8
SCHRAFF
100
AcDb2dPolyline
 66
     1
 10
0.0
 20
0.0
 30
0.0
 70
     2
  0
VERTEX
  5
AF6
330
AF5
100
AcDbEntity
  8
SCHRAFF
100
AcDbVertex
100
AcDb2dVertex
 10
505.9441916656896
 20
433.387831292801
 30
0.0
 42
0.1481711738912995
  0
VERTEX
  5
AF7
330
AF5
100
AcDbEntity
  8
SCHRAFF
100
AcDbVertex
100
AcDb2dVertex
 10
506.454086748394
 20
432.7670940173455
 30
0.0
 42
0.1481711738912668
 70
     1
  0
VERTEX
  5
AF8
330
AF5
100
AcDbEntity
  8
SCHRAFF
100
AcDbVertex
100
AcDb2dVertex
 10
507.2227618072928
 20
432.5337564628609
 30
0.0
 42
0.1483030456011378
  0
VERTEX
  5
AF9
330
AF5
100
AcDbEntity
  8
SCHRAFF
100
AcDbVertex
100
AcDb2dVertex
 10
507.9922721289943
 20
432.7666970540319
 30
0.0
 42
0.1483030456011519
 70
     1
  0
VERTEX
  5
AFA
330
AF5
100
AcDbEntity
  8
SCHRAFF
100
AcDbVertex
100
AcDb2dVertex
 10
508.5027618072928
 20
433.387831292801
 30
0.0
  0
SEQEND
  5
AFB
330
AF5
100
AcDbEntity
  8
SCHRAFF
  0
POLYLINE
  5
AFC
330
1E
100
AcDbEntity
  8
SCHRAFF
100
AcDb2dPolyline
 66
     1
 10
0.0
 20
0.0
 30
0.0
 70
     2
  0
VERTEX
  5
AFD
330
AFC
100
AcDbEntity
  8
SCHRAFF
100
AcDbVertex
100
AcDb2dVertex
 10
505.9441916656896
 20
428.387831292801
 30
0.0
 42
0.1481711738912995
  0
VERTEX
  5
AFE
330
AFC
100
AcDbEntity
  8
SCHRAFF
100
AcDbVertex
100
AcDb2dVertex
 10
506.454086748394
 20
427.7670940173456
 30
0.0
 42
0.1481711738912668
 70
     1
  0
VERTEX
  5
AFF
330
AFC
100
AcDbEntity
  8
SCHRAFF
100
AcDbVertex
100
AcDb2dVertex
 10
507.2227618072928
 20
427.533756462861
 30
0.0
 42
0.1483030456011378
  0
VERTEX
  5
B00
330
AFC
100
AcDbEntity
  8
SCHRAFF
100
AcDbVertex
100
AcDb2dVertex
 10
507.9922721289943
 20
427.766697054032
 30
0.0
 42
0.1483030456011519
 70
     1
  0
VERTEX
  5
B01
330
AFC
100
AcDbEntity
  8
SCHRAFF
100
AcDbVertex
100
AcDb2dVertex
 10
508.5027618072928
 20
428.387831292801
 30
0.0
  0
SEQEND
  5
B02
330
AFC
100
AcDbEntity
  8
SCHRAFF
  0
POLYLINE
  5
B03
330
1E
100
AcDbEntity
  8
SCHRAFF
100
AcDb2dPolyline
 66
     1
 10
0.0
 20
0.0
 30
0.0
 70
     2
  0
VERTEX
  5
B04
330
B03
100
AcDbEntity
  8
SCHRAFF
100
AcDbVertex
100
AcDb2dVertex
 10
505.9441916656896
 20
418.387831292801
 30
0.0
 42
0.1481711738912995
  0
VERTEX
  5
B05
330
B03
100
AcDbEntity
  8
SCHRAFF
100
AcDbVertex
100
AcDb2dVertex
 10
506.454086748394
 20
417.7670940173455
 30
0.0
 42
0.1481711738912668
 70
     1
  0
VERTEX
  5
B06
330
B03
100
AcDbEntity
  8
SCHRAFF
100
AcDbVertex
100
AcDb2dVertex
 10
507.2227618072928
 20
417.533756462861
 30
0.0
 42
0.1483030456011378
  0
VERTEX
  5
B07
330
B03
100
AcDbEntity
  8
SCHRAFF
100
AcDbVertex
100
AcDb2dVertex
 10
507.9922721289943
 20
417.7666970540319
 30
0.0
 42
0.1483030456011519
 70
     1
  0
VERTEX
  5
B08
330
B03
100
AcDbEntity
  8
SCHRAFF
100
AcDbVertex
100
AcDb2dVertex
 10
508.5027618072928
 20
418.387831292801
 30
0.0
  0
SEQEND
  5
B09
330
B03
100
AcDbEntity
  8
SCHRAFF
  0
POLYLINE
  5
B0A
330
1E
100
AcDbEntity
  8
SCHRAFF
100
AcDb2dPolyline
 66
     1
 10
0.0
 20
0.0
 30
0.0
 70
     2
  0
VERTEX
  5
B0B
330
B0A
100
AcDbEntity
  8
SCHRAFF
100
AcDbVertex
100
AcDb2dVertex
 10
505.9441916656896
 20
423.387831292801
 30
0.0
 42
0.1481711738912995
  0
VERTEX
  5
B0C
330
B0A
100
AcDbEntity
  8
SCHRAFF
100
AcDbVertex
100
AcDb2dVertex
 10
506.454086748394
 20
422.7670940173456
 30
0.0
 42
0.1481711738912668
 70
     1
  0
VERTEX
  5
B0D
330
B0A
100
AcDbEntity
  8
SCHRAFF
100
AcDbVertex
100
AcDb2dVertex
 10
507.2227618072928
 20
422.533756462861
 30
0.0
 42
0.1483030456011378
  0
VERTEX
  5
B0E
330
B0A
100
AcDbEntity
  8
SCHRAFF
100
AcDbVertex
100
AcDb2dVertex
 10
507.9922721289943
 20
422.7666970540319
 30
0.0
 42
0.1483030456011519
 70
     1
  0
VERTEX
  5
B0F
330
B0A
100
AcDbEntity
  8
SCHRAFF
100
AcDbVertex
100
AcDb2dVertex
 10
508.5027618072928
 20
423.387831292801
 30
0.0
  0
SEQEND
  5
B10
330
B0A
100
AcDbEntity
  8
SCHRAFF
  0
POLYLINE
  5
B11
330
1E
100
AcDbEntity
  8
SCHRAFF
100
AcDb2dPolyline
 66
     1
 10
0.0
 20
0.0
 30
0.0
 70
     2
  0
VERTEX
  5
B12
330
B11
100
AcDbEntity
  8
SCHRAFF
100
AcDbVertex
100
AcDb2dVertex
 10
505.9441916656896
 20
408.387831292801
 30
0.0
 42
0.1481711738912995
  0
VERTEX
  5
B13
330
B11
100
AcDbEntity
  8
SCHRAFF
100
AcDbVertex
100
AcDb2dVertex
 10
506.454086748394
 20
407.7670940173455
 30
0.0
 42
0.1481711738912668
 70
     1
  0
VERTEX
  5
B14
330
B11
100
AcDbEntity
  8
SCHRAFF
100
AcDbVertex
100
AcDb2dVertex
 10
507.2227618072928
 20
407.5337564628609
 30
0.0
 42
0.1483030456011378
  0
VERTEX
  5
B15
330
B11
100
AcDbEntity
  8
SCHRAFF
100
AcDbVertex
100
AcDb2dVertex
 10
507.9922721289943
 20
407.7666970540319
 30
0.0
 42
0.1483030456011519
 70
     1
  0
VERTEX
  5
B16
330
B11
100
AcDbEntity
  8
SCHRAFF
100
AcDbVertex
100
AcDb2dVertex
 10
508.5027618072928
 20
408.387831292801
 30
0.0
  0
SEQEND
  5
B17
330
B11
100
AcDbEntity
  8
SCHRAFF
  0
POLYLINE
  5
B18
330
1E
100
AcDbEntity
  8
SCHRAFF
100
AcDb2dPolyline
 66
     1
 10
0.0
 20
0.0
 30
0.0
 70
     2
  0
VERTEX
  5
B19
330
B18
100
AcDbEntity
  8
SCHRAFF
100
AcDbVertex
100
AcDb2dVertex
 10
505.9441916656896
 20
403.387831292801
 30
0.0
 42
0.1481711738912995
  0
VERTEX
  5
B1A
330
B18
100
AcDbEntity
  8
SCHRAFF
100
AcDbVertex
100
AcDb2dVertex
 10
506.454086748394
 20
402.7670940173456
 30
0.0
 42
0.1481711738912668
 70
     1
  0
VERTEX
  5
B1B
330
B18
100
AcDbEntity
  8
SCHRAFF
100
AcDbVertex
100
AcDb2dVertex
 10
507.2227618072928
 20
402.533756462861
 30
0.0
 42
0.1483030456011378
  0
VERTEX
  5
B1C
330
B18
100
AcDbEntity
  8
SCHRAFF
100
AcDbVertex
100
AcDb2dVertex
 10
507.9922721289943
 20
402.766697054032
 30
0.0
 42
0.1483030456011519
 70
     1
  0
VERTEX
  5
B1D
330
B18
100
AcDbEntity
  8
SCHRAFF
100
AcDbVertex
100
AcDb2dVertex
 10
508.5027618072928
 20
403.387831292801
 30
0.0
  0
SEQEND
  5
B1E
330
B18
100
AcDbEntity
  8
SCHRAFF
  0
POLYLINE
  5
B1F
330
1E
100
AcDbEntity
  8
SCHRAFF
100
AcDb2dPolyline
 66
     1
 10
0.0
 20
0.0
 30
0.0
 70
     2
  0
VERTEX
  5
B20
330
B1F
100
AcDbEntity
  8
SCHRAFF
100
AcDbVertex
100
AcDb2dVertex
 10
505.9441916656896
 20
393.387831292801
 30
0.0
 42
0.1481711738912995
  0
VERTEX
  5
B21
330
B1F
100
AcDbEntity
  8
SCHRAFF
100
AcDbVertex
100
AcDb2dVertex
 10
506.454086748394
 20
392.7670940173456
 30
0.0
 42
0.1481711738912668
 70
     1
  0
VERTEX
  5
B22
330
B1F
100
AcDbEntity
  8
SCHRAFF
100
AcDbVertex
100
AcDb2dVertex
 10
507.2227618072928
 20
392.533756462861
 30
0.0
 42
0.1483030456011378
  0
VERTEX
  5
B23
330
B1F
100
AcDbEntity
  8
SCHRAFF
100
AcDbVertex
100
AcDb2dVertex
 10
507.9922721289943
 20
392.766697054032
 30
0.0
 42
0.1483030456011519
 70
     1
  0
VERTEX
  5
B24
330
B1F
100
AcDbEntity
  8
SCHRAFF
100
AcDbVertex
100
AcDb2dVertex
 10
508.5027618072928
 20
393.387831292801
 30
0.0
  0
SEQEND
  5
B25
330
B1F
100
AcDbEntity
  8
SCHRAFF
  0
POLYLINE
  5
B26
330
1E
100
AcDbEntity
  8
SCHRAFF
100
AcDb2dPolyline
 66
     1
 10
0.0
 20
0.0
 30
0.0
 70
     2
  0
VERTEX
  5
B27
330
B26
100
AcDbEntity
  8
SCHRAFF
100
AcDbVertex
100
AcDb2dVertex
 10
505.9441916656896
 20
398.387831292801
 30
0.0
 42
0.1481711738912995
  0
VERTEX
  5
B28
330
B26
100
AcDbEntity
  8
SCHRAFF
100
AcDbVertex
100
AcDb2dVertex
 10
506.454086748394
 20
397.7670940173456
 30
0.0
 42
0.1481711738912668
 70
     1
  0
VERTEX
  5
B29
330
B26
100
AcDbEntity
  8
SCHRAFF
100
AcDbVertex
100
AcDb2dVertex
 10
507.2227618072928
 20
397.533756462861
 30
0.0
 42
0.1483030456011378
  0
VERTEX
  5
B2A
330
B26
100
AcDbEntity
  8
SCHRAFF
100
AcDbVertex
100
AcDb2dVertex
 10
507.9922721289943
 20
397.766697054032
 30
0.0
 42
0.1483030456011519
 70
     1
  0
VERTEX
  5
B2B
330
B26
100
AcDbEntity
  8
SCHRAFF
100
AcDbVertex
100
AcDb2dVertex
 10
508.5027618072928
 20
398.387831292801
 30
0.0
  0
SEQEND
  5
B2C
330
B26
100
AcDbEntity
  8
SCHRAFF
  0
POLYLINE
  5
B2D
330
1E
100
AcDbEntity
  8
SCHRAFF
100
AcDb2dPolyline
 66
     1
 10
0.0
 20
0.0
 30
0.0
 70
     2
  0
VERTEX
  5
B2E
330
B2D
100
AcDbEntity
  8
SCHRAFF
100
AcDbVertex
100
AcDb2dVertex
 10
505.9441916656896
 20
413.3878312928009
 30
0.0
 42
0.1481711738912995
  0
VERTEX
  5
B2F
330
B2D
100
AcDbEntity
  8
SCHRAFF
100
AcDbVertex
100
AcDb2dVertex
 10
506.454086748394
 20
412.7670940173455
 30
0.0
 42
0.1481711738912668
 70
     1
  0
VERTEX
  5
B30
330
B2D
100
AcDbEntity
  8
SCHRAFF
100
AcDbVertex
100
AcDb2dVertex
 10
507.2227618072928
 20
412.5337564628609
 30
0.0
 42
0.1483030456011378
  0
VERTEX
  5
B31
330
B2D
100
AcDbEntity
  8
SCHRAFF
100
AcDbVertex
100
AcDb2dVertex
 10
507.9922721289943
 20
412.7666970540319
 30
0.0
 42
0.1483030456011519
 70
     1
  0
VERTEX
  5
B32
330
B2D
100
AcDbEntity
  8
SCHRAFF
100
AcDbVertex
100
AcDb2dVertex
 10
508.5027618072928
 20
413.3878312928009
 30
0.0
  0
SEQEND
  5
B33
330
B2D
100
AcDbEntity
  8
SCHRAFF
  0
LINE
  5
B37
330
1E
100
AcDbEntity
  8
MITTEL
100
AcDbLine
 10
154.6532303939162
 20
476.1481311724576
 30
0.0
 11
206.6532303939163
 21
476.1481311724576
 31
0.0
  0
ARC
  5
B38
102
{ACAD_REACTORS
330
100E
102
}
330
1E
100
AcDbEntity
  8
STEMPEL
  6
Continuous
100
AcDbCircle
 10
194.6532303939162
 20
424.5481311724576
 30
0.0
 40
13.6
100
AcDbArc
 50
90.0
 51
111.1831543930369
  0
LINE
  5
B39
102
{ACAD_REACTORS
330
100E
102
}
330
1E
100
AcDbEntity
  8
STEMPEL
  6
Continuous
100
AcDbLine
 10
194.6532303939162
 20
438.1481311724576
 30
0.0
 11
201.6532303939162
 21
438.1481311724575
 31
0.0
  0
LINE
  5
B3A
102
{ACAD_REACTORS
330
100E
102
}
330
1E
100
AcDbEntity
  8
STEMPEL
  6
Continuous
100
AcDbLine
 10
194.6532303939162
 20
436.5481311724576
 30
0.0
 11
201.6532303939162
 21
436.5481311724576
 31
0.0
  0
LINE
  5
B3B
102
{ACAD_REACTORS
330
1025
102
}
330
1E
100
AcDbEntity
  8
STEMPEL
100
AcDbLine
 10
161.6532303939162
 20
438.1481311724576
 30
0.0
 11
159.6532303939162
 21
438.1481311724575
 31
0.0
  0
LINE
  5
B3C
102
{ACAD_REACTORS
330
100E
102
}
330
1E
100
AcDbEntity
  8
STEMPEL
  6
Continuous
100
AcDbLine
 10
161.6532303939162
 20
438.1481311724576
 30
0.0
 11
162.3128854763025
 21
437.8405289558
 31
0.0
  0
ARC
  5
B3D
330
1E
100
AcDbEntity
  8
SCHRAFF
100
AcDbCircle
 10
161.6532303939162
 20
436.3827338441822
 30
0.0
 40
3.0
100
AcDbArc
 50
270.0
 51
338.4816164551994
  0
LINE
  5
B3E
102
{ACAD_REACTORS
330
100E
102
}
330
1E
100
AcDbEntity
  8
STEMPEL
  6
Continuous
100
AcDbLine
 10
172.2021528010349
 20
434.0481311724576
 30
0.0
 11
181.2149503457256
 21
434.0481311724576
 31
0.0
  0
LINE
  5
B3F
102
{ACAD_REACTORS
330
100E
102
}
330
1E
100
AcDbEntity
  8
STEMPEL
  6
Continuous
100
AcDbLine
 10
172.2021528010349
 20
435.6481311724576
 30
0.0
 11
181.2171714280009
 21
435.6481311724576
 31
0.0
  0
ARC
  5
B40
102
{ACAD_REACTORS
330
100E
102
}
330
1E
100
AcDbEntity
  8
STEMPEL
  6
Continuous
100
AcDbCircle
 10
181.2832303939162
 20
459.0481311724576
 30
0.0
 40
25.00009324312574
100
AcDbArc
 50
269.8435140456461
 51
291.183154393037
  0
INSERT
  5
B41
330
1E
100
AcDbEntity
  8
SCHRAFF
100
AcDbBlockReference
  2
*X3
 10
0.0
 20
0.0
 30
0.0
1001
ACAD
1000
HATCH
1002
{
1070
    16
1000
_U,I
1040
0.1
1040
0.0
1070
     0
1002
}
  0
ARC
  5
B44
102
{ACAD_REACTORS
330
100E
102
}
330
1E
100
AcDbEntity
  8
STEMPEL
  6
Continuous
100
AcDbCircle
 10
172.2021528010349
 20
459.0481311724576
 30
0.0
 40
23.4
100
AcDbArc
 50
245.0000000000006
 51
270.0
  0
ARC
  5
B45
102
{ACAD_REACTORS
330
100E
102
}
330
1E
100
AcDbEntity
  8
STEMPEL
  6
Continuous
100
AcDbCircle
 10
172.2021528010349
 20
459.0481311724576
 30
0.0
 40
25.0
100
AcDbArc
 50
245.0418036876905
 51
270.0
  0
ARC
  5
B46
102
{ACAD_REACTORS
330
100E
102
}
330
1E
100
AcDbEntity
  8
STEMPEL
  6
Continuous
100
AcDbCircle
 10
181.2832303939162
 20
459.0481311724576
 30
0.0
 40
23.40009324312573
100
AcDbArc
 50
269.8382525687428
 51
291.183154393037
  0
ARC
  5
B47
102
{ACAD_REACTORS
330
100E
102
}
330
1E
100
AcDbEntity
  8
STEMPEL
  6
Continuous
100
AcDbCircle
 10
194.6532303939162
 20
424.5481311724576
 30
0.0
 40
12.0
100
AcDbArc
 50
90.0
 51
111.1831543930369
  0
POLYLINE
  5
B48
330
1E
100
AcDbEntity
  8
SCHRAFF
100
AcDb2dPolyline
 66
     1
 10
0.0
 20
0.0
 30
0.0
 70
     2
  0
VERTEX
  5
B49
330
B48
100
AcDbEntity
  8
SCHRAFF
100
AcDbVertex
100
AcDb2dVertex
 10
631.9621590989473
 20
388.387831292801
 30
0.0
 42
-0.1481711738912995
  0
VERTEX
  5
B4A
330
B48
100
AcDbEntity
  8
SCHRAFF
100
AcDbVertex
100
AcDb2dVertex
 10
631.4522640162429
 20
387.7670940173456
 30
0.0
 42
-0.1481711738912668
 70
     1
  0
VERTEX
  5
B4B
330
B48
100
AcDbEntity
  8
SCHRAFF
100
AcDbVertex
100
AcDb2dVertex
 10
630.6835889573441
 20
387.533756462861
 30
0.0
 42
-0.1483030456011378
  0
VERTEX
  5
B4C
330
B48
100
AcDbEntity
  8
SCHRAFF
100
AcDbVertex
100
AcDb2dVertex
 10
629.9140786356426
 20
387.766697054032
 30
0.0
 42
-0.1483030456011519
 70
     1
  0
VERTEX
  5
B4D
330
B48
100
AcDbEntity
  8
SCHRAFF
100
AcDbVertex
100
AcDb2dVertex
 10
629.4035889573441
 20
388.387831292801
 30
0.0
  0
SEQEND
  5
B4E
330
B48
100
AcDbEntity
  8
SCHRAFF
  0
POLYLINE
  5
B4F
330
1E
100
AcDbEntity
  8
SCHRAFF
100
AcDb2dPolyline
 66
     1
 10
0.0
 20
0.0
 30
0.0
 70
     2
  0
VERTEX
  5
B50
330
B4F
100
AcDbEntity
  8
SCHRAFF
100
AcDbVertex
100
AcDb2dVertex
 10
631.9621590989473
 20
383.387831292801
 30
0.0
 42
-0.1481711738912995
  0
VERTEX
  5
B51
330
B4F
100
AcDbEntity
  8
SCHRAFF
100
AcDbVertex
100
AcDb2dVertex
 10
631.4522640162429
 20
382.7670940173456
 30
0.0
 42
-0.1481711738912668
 70
     1
  0
VERTEX
  5
B52
330
B4F
100
AcDbEntity
  8
SCHRAFF
100
AcDbVertex
100
AcDb2dVertex
 10
630.6835889573441
 20
382.533756462861
 30
0.0
 42
-0.1483030456011378
  0
VERTEX
  5
B53
330
B4F
100
AcDbEntity
  8
SCHRAFF
100
AcDbVertex
100
AcDb2dVertex
 10
629.9140786356426
 20
382.766697054032
 30
0.0
 42
-0.1483030456011519
 70
     1
  0
VERTEX
  5
B54
330
B4F
100
AcDbEntity
  8
SCHRAFF
100
AcDbVertex
100
AcDb2dVertex
 10
629.4035889573441
 20
383.387831292801
 30
0.0
  0
SEQEND
  5
B55
330
B4F
100
AcDbEntity
  8
SCHRAFF
  0
POLYLINE
  5
B56
330
1E
100
AcDbEntity
  8
SCHRAFF
100
AcDb2dPolyline
 66
     1
 10
0.0
 20
0.0
 30
0.0
 70
     2
  0
VERTEX
  5
B57
330
B56
100
AcDbEntity
  8
SCHRAFF
100
AcDbVertex
100
AcDb2dVertex
 10
631.9621590989473
 20
368.387831292801
 30
0.0
 42
-0.1481711738912995
  0
VERTEX
  5
B58
330
B56
100
AcDbEntity
  8
SCHRAFF
100
AcDbVertex
100
AcDb2dVertex
 10
631.4522640162429
 20
367.7670940173456
 30
0.0
 42
-0.1481711738912668
 70
     1
  0
VERTEX
  5
B59
330
B56
100
AcDbEntity
  8
SCHRAFF
100
AcDbVertex
100
AcDb2dVertex
 10
630.6835889573441
 20
367.533756462861
 30
0.0
 42
-0.1483030456011378
  0
VERTEX
  5
B5A
330
B56
100
AcDbEntity
  8
SCHRAFF
100
AcDbVertex
100
AcDb2dVertex
 10
629.9140786356426
 20
367.7666970540319
 30
0.0
 42
-0.1483030456011519
 70
     1
  0
VERTEX
  5
B5B
330
B56
100
AcDbEntity
  8
SCHRAFF
100
AcDbVertex
100
AcDb2dVertex
 10
629.4035889573441
 20
368.387831292801
 30
0.0
  0
SEQEND
  5
B5C
330
B56
100
AcDbEntity
  8
SCHRAFF
  0
POLYLINE
  5
B5D
330
1E
100
AcDbEntity
  8
SCHRAFF
100
AcDb2dPolyline
 66
     1
 10
0.0
 20
0.0
 30
0.0
 70
     2
  0
VERTEX
  5
B5E
330
B5D
100
AcDbEntity
  8
SCHRAFF
100
AcDbVertex
100
AcDb2dVertex
 10
631.9621590989473
 20
373.387831292801
 30
0.0
 42
-0.1481711738912995
  0
VERTEX
  5
B5F
330
B5D
100
AcDbEntity
  8
SCHRAFF
100
AcDbVertex
100
AcDb2dVertex
 10
631.4522640162429
 20
372.7670940173456
 30
0.0
 42
-0.1481711738912668
 70
     1
  0
VERTEX
  5
B60
330
B5D
100
AcDbEntity
  8
SCHRAFF
100
AcDbVertex
100
AcDb2dVertex
 10
630.6835889573441
 20
372.533756462861
 30
0.0
 42
-0.1483030456011378
  0
VERTEX
  5
B61
330
B5D
100
AcDbEntity
  8
SCHRAFF
100
AcDbVertex
100
AcDb2dVertex
 10
629.9140786356426
 20
372.766697054032
 30
0.0
 42
-0.1483030456011519
 70
     1
  0
VERTEX
  5
B62
330
B5D
100
AcDbEntity
  8
SCHRAFF
100
AcDbVertex
100
AcDb2dVertex
 10
629.4035889573441
 20
373.387831292801
 30
0.0
  0
SEQEND
  5
B63
330
B5D
100
AcDbEntity
  8
SCHRAFF
  0
POLYLINE
  5
B64
330
1E
100
AcDbEntity
  8
SCHRAFF
100
AcDb2dPolyline
 66
     1
 10
0.0
 20
0.0
 30
0.0
 70
     2
  0
VERTEX
  5
B65
330
B64
100
AcDbEntity
  8
SCHRAFF
100
AcDbVertex
100
AcDb2dVertex
 10
631.9621590989473
 20
378.387831292801
 30
0.0
 42
-0.1481711738912995
  0
VERTEX
  5
B66
330
B64
100
AcDbEntity
  8
SCHRAFF
100
AcDbVertex
100
AcDb2dVertex
 10
631.4522640162429
 20
377.7670940173456
 30
0.0
 42
-0.1481711738912668
 70
     1
  0
VERTEX
  5
B67
330
B64
100
AcDbEntity
  8
SCHRAFF
100
AcDbVertex
100
AcDb2dVertex
 10
630.6835889573441
 20
377.533756462861
 30
0.0
 42
-0.1483030456011378
  0
VERTEX
  5
B68
330
B64
100
AcDbEntity
  8
SCHRAFF
100
AcDbVertex
100
AcDb2dVertex
 10
629.9140786356426
 20
377.766697054032
 30
0.0
 42
-0.1483030456011519
 70
     1
  0
VERTEX
  5
B69
330
B64
100
AcDbEntity
  8
SCHRAFF
100
AcDbVertex
100
AcDb2dVertex
 10
629.4035889573441
 20
378.387831292801
 30
0.0
  0
SEQEND
  5
B6A
330
B64
100
AcDbEntity
  8
SCHRAFF
  0
POLYLINE
  5
B6B
330
1E
100
AcDbEntity
  8
SCHRAFF
100
AcDb2dPolyline
 66
     1
 10
0.0
 20
0.0
 30
0.0
 70
     2
  0
VERTEX
  5
B6C
330
B6B
100
AcDbEntity
  8
SCHRAFF
100
AcDbVertex
100
AcDb2dVertex
 10
631.9621590989473
 20
363.387831292801
 30
0.0
 42
-0.1481711738912995
  0
VERTEX
  5
B6D
330
B6B
100
AcDbEntity
  8
SCHRAFF
100
AcDbVertex
100
AcDb2dVertex
 10
631.4522640162429
 20
362.7670940173456
 30
0.0
 42
-0.1481711738912668
 70
     1
  0
VERTEX
  5
B6E
330
B6B
100
AcDbEntity
  8
SCHRAFF
100
AcDbVertex
100
AcDb2dVertex
 10
630.6835889573441
 20
362.533756462861
 30
0.0
 42
-0.1483030456011378
  0
VERTEX
  5
B6F
330
B6B
100
AcDbEntity
  8
SCHRAFF
100
AcDbVertex
100
AcDb2dVertex
 10
629.9140786356426
 20
362.766697054032
 30
0.0
 42
-0.1483030456011519
 70
     1
  0
VERTEX
  5
B70
330
B6B
100
AcDbEntity
  8
SCHRAFF
100
AcDbVertex
100
AcDb2dVertex
 10
629.4035889573441
 20
363.387831292801
 30
0.0
  0
SEQEND
  5
B71
330
B6B
100
AcDbEntity
  8
SCHRAFF
  0
POLYLINE
  5
B72
330
1E
100
AcDbEntity
  8
SCHRAFF
100
AcDb2dPolyline
 66
     1
 10
0.0
 20
0.0
 30
0.0
 70
     2
  0
VERTEX
  5
B73
330
B72
100
AcDbEntity
  8
SCHRAFF
100
AcDbVertex
100
AcDb2dVertex
 10
631.9621590989473
 20
358.387831292801
 30
0.0
 42
-0.1481711738912995
  0
VERTEX
  5
B74
330
B72
100
AcDbEntity
  8
SCHRAFF
100
AcDbVertex
100
AcDb2dVertex
 10
631.4522640162429
 20
357.7670940173456
 30
0.0
 42
-0.1481711738912668
 70
     1
  0
VERTEX
  5
B75
330
B72
100
AcDbEntity
  8
SCHRAFF
100
AcDbVertex
100
AcDb2dVertex
 10
630.6835889573441
 20
357.533756462861
 30
0.0
 42
-0.1483030456011378
  0
VERTEX
  5
B76
330
B72
100
AcDbEntity
  8
SCHRAFF
100
AcDbVertex
100
AcDb2dVertex
 10
629.9140786356426
 20
357.766697054032
 30
0.0
 42
-0.1483030456011519
 70
     1
  0
VERTEX
  5
B77
330
B72
100
AcDbEntity
  8
SCHRAFF
100
AcDbVertex
100
AcDb2dVertex
 10
629.4035889573441
 20
358.387831292801
 30
0.0
  0
SEQEND
  5
B78
330
B72
100
AcDbEntity
  8
SCHRAFF
  0
POLYLINE
  5
B79
330
1E
100
AcDbEntity
  8
SCHRAFF
100
AcDb2dPolyline
 66
     1
 10
0.0
 20
0.0
 30
0.0
 70
     2
  0
VERTEX
  5
B7A
330
B79
100
AcDbEntity
  8
SCHRAFF
100
AcDbVertex
100
AcDb2dVertex
 10
631.9621590989473
 20
347.387831292801
 30
0.0
 42
-0.1481711738912995
  0
VERTEX
  5
B7B
330
B79
100
AcDbEntity
  8
SCHRAFF
100
AcDbVertex
100
AcDb2dVertex
 10
631.4522640162429
 20
346.7670940173456
 30
0.0
 42
-0.1481711738912668
 70
     1
  0
VERTEX
  5
B7C
330
B79
100
AcDbEntity
  8
SCHRAFF
100
AcDbVertex
100
AcDb2dVertex
 10
630.6835889573441
 20
346.533756462861
 30
0.0
 42
-0.1483030456011378
  0
VERTEX
  5
B7D
330
B79
100
AcDbEntity
  8
SCHRAFF
100
AcDbVertex
100
AcDb2dVertex
 10
629.9140786356426
 20
346.766697054032
 30
0.0
 42
-0.1483030456011519
 70
     1
  0
VERTEX
  5
B7E
330
B79
100
AcDbEntity
  8
SCHRAFF
100
AcDbVertex
100
AcDb2dVertex
 10
629.4035889573441
 20
347.387831292801
 30
0.0
  0
SEQEND
  5
B7F
330
B79
100
AcDbEntity
  8
SCHRAFF
  0
POLYLINE
  5
B80
330
1E
100
AcDbEntity
  8
SCHRAFF
100
AcDb2dPolyline
 66
     1
 10
0.0
 20
0.0
 30
0.0
 70
     2
  0
VERTEX
  5
B81
330
B80
100
AcDbEntity
  8
SCHRAFF
100
AcDbVertex
100
AcDb2dVertex
 10
631.9621590989473
 20
354.387831292801
 30
0.0
 42
-0.1481711738912995
  0
VERTEX
  5
B82
330
B80
100
AcDbEntity
  8
SCHRAFF
100
AcDbVertex
100
AcDb2dVertex
 10
631.4522640162429
 20
353.7670940173456
 30
0.0
 42
-0.1481711738912668
 70
     1
  0
VERTEX
  5
B83
330
B80
100
AcDbEntity
  8
SCHRAFF
100
AcDbVertex
100
AcDb2dVertex
 10
630.6835889573441
 20
353.533756462861
 30
0.0
 42
-0.1483030456011378
  0
VERTEX
  5
B84
330
B80
100
AcDbEntity
  8
SCHRAFF
100
AcDbVertex
100
AcDb2dVertex
 10
629.9140786356426
 20
353.766697054032
 30
0.0
 42
-0.1483030456011519
 70
     1
  0
VERTEX
  5
B85
330
B80
100
AcDbEntity
  8
SCHRAFF
100
AcDbVertex
100
AcDb2dVertex
 10
629.4035889573441
 20
354.387831292801
 30
0.0
  0
SEQEND
  5
B86
330
B80
100
AcDbEntity
  8
SCHRAFF
  0
POLYLINE
  5
B87
330
1E
100
AcDbEntity
  8
SCHRAFF
100
AcDb2dPolyline
 66
     1
 10
0.0
 20
0.0
 30
0.0
 70
     2
  0
VERTEX
  5
B88
330
B87
100
AcDbEntity
  8
SCHRAFF
100
AcDbVertex
100
AcDb2dVertex
 10
505.9441916656896
 20
383.387831292801
 30
0.0
 42
0.1481711738912995
  0
VERTEX
  5
B89
330
B87
100
AcDbEntity
  8
SCHRAFF
100
AcDbVertex
100
AcDb2dVertex
 10
506.454086748394
 20
382.7670940173456
 30
0.0
 42
0.1481711738912668
 70
     1
  0
VERTEX
  5
B8A
330
B87
100
AcDbEntity
  8
SCHRAFF
100
AcDbVertex
100
AcDb2dVertex
 10
507.2227618072928
 20
382.533756462861
 30
0.0
 42
0.1483030456011378
  0
VERTEX
  5
B8B
330
B87
100
AcDbEntity
  8
SCHRAFF
100
AcDbVertex
100
AcDb2dVertex
 10
507.9922721289943
 20
382.766697054032
 30
0.0
 42
0.1483030456011519
 70
     1
  0
VERTEX
  5
B8C
330
B87
100
AcDbEntity
  8
SCHRAFF
100
AcDbVertex
100
AcDb2dVertex
 10
508.5027618072928
 20
383.387831292801
 30
0.0
  0
SEQEND
  5
B8D
330
B87
100
AcDbEntity
  8
SCHRAFF
  0
POLYLINE
  5
B8E
330
1E
100
AcDbEntity
  8
SCHRAFF
100
AcDb2dPolyline
 66
     1
 10
0.0
 20
0.0
 30
0.0
 70
     2
  0
VERTEX
  5
B8F
330
B8E
100
AcDbEntity
  8
SCHRAFF
100
AcDbVertex
100
AcDb2dVertex
 10
505.9441916656896
 20
388.387831292801
 30
0.0
 42
0.1481711738912995
  0
VERTEX
  5
B90
330
B8E
100
AcDbEntity
  8
SCHRAFF
100
AcDbVertex
100
AcDb2dVertex
 10
506.454086748394
 20
387.7670940173456
 30
0.0
 42
0.1481711738912668
 70
     1
  0
VERTEX
  5
B91
330
B8E
100
AcDbEntity
  8
SCHRAFF
100
AcDbVertex
100
AcDb2dVertex
 10
507.2227618072928
 20
387.533756462861
 30
0.0
 42
0.1483030456011378
  0
VERTEX
  5
B92
330
B8E
100
AcDbEntity
  8
SCHRAFF
100
AcDbVertex
100
AcDb2dVertex
 10
507.9922721289943
 20
387.766697054032
 30
0.0
 42
0.1483030456011519
 70
     1
  0
VERTEX
  5
B93
330
B8E
100
AcDbEntity
  8
SCHRAFF
100
AcDbVertex
100
AcDb2dVertex
 10
508.5027618072928
 20
388.387831292801
 30
0.0
  0
SEQEND
  5
B94
330
B8E
100
AcDbEntity
  8
SCHRAFF
  0
POLYLINE
  5
B95
330
1E
100
AcDbEntity
  8
SCHRAFF
100
AcDb2dPolyline
 66
     1
 10
0.0
 20
0.0
 30
0.0
 70
     2
  0
VERTEX
  5
B96
330
B95
100
AcDbEntity
  8
SCHRAFF
100
AcDbVertex
100
AcDb2dVertex
 10
505.9441916656896
 20
373.387831292801
 30
0.0
 42
0.1481711738912995
  0
VERTEX
  5
B97
330
B95
100
AcDbEntity
  8
SCHRAFF
100
AcDbVertex
100
AcDb2dVertex
 10
506.454086748394
 20
372.7670940173456
 30
0.0
 42
0.1481711738912668
 70
     1
  0
VERTEX
  5
B98
330
B95
100
AcDbEntity
  8
SCHRAFF
100
AcDbVertex
100
AcDb2dVertex
 10
507.2227618072928
 20
372.533756462861
 30
0.0
 42
0.1483030456011378
  0
VERTEX
  5
B99
330
B95
100
AcDbEntity
  8
SCHRAFF
100
AcDbVertex
100
AcDb2dVertex
 10
507.9922721289943
 20
372.766697054032
 30
0.0
 42
0.1483030456011519
 70
     1
  0
VERTEX
  5
B9A
330
B95
100
AcDbEntity
  8
SCHRAFF
100
AcDbVertex
100
AcDb2dVertex
 10
508.5027618072928
 20
373.387831292801
 30
0.0
  0
SEQEND
  5
B9B
330
B95
100
AcDbEntity
  8
SCHRAFF
  0
POLYLINE
  5
B9C
330
1E
100
AcDbEntity
  8
SCHRAFF
100
AcDb2dPolyline
 66
     1
 10
0.0
 20
0.0
 30
0.0
 70
     2
  0
VERTEX
  5
B9D
330
B9C
100
AcDbEntity
  8
SCHRAFF
100
AcDbVertex
100
AcDb2dVertex
 10
505.9441916656896
 20
368.387831292801
 30
0.0
 42
0.1481711738912995
  0
VERTEX
  5
B9E
330
B9C
100
AcDbEntity
  8
SCHRAFF
100
AcDbVertex
100
AcDb2dVertex
 10
506.454086748394
 20
367.7670940173456
 30
0.0
 42
0.1481711738912668
 70
     1
  0
VERTEX
  5
B9F
330
B9C
100
AcDbEntity
  8
SCHRAFF
100
AcDbVertex
100
AcDb2dVertex
 10
507.2227618072928
 20
367.533756462861
 30
0.0
 42
0.1483030456011378
  0
VERTEX
  5
BA0
330
B9C
100
AcDbEntity
  8
SCHRAFF
100
AcDbVertex
100
AcDb2dVertex
 10
507.9922721289943
 20
367.7666970540319
 30
0.0
 42
0.1483030456011519
 70
     1
  0
VERTEX
  5
BA1
330
B9C
100
AcDbEntity
  8
SCHRAFF
100
AcDbVertex
100
AcDb2dVertex
 10
508.5027618072928
 20
368.387831292801
 30
0.0
  0
SEQEND
  5
BA2
330
B9C
100
AcDbEntity
  8
SCHRAFF
  0
POLYLINE
  5
BA3
330
1E
100
AcDbEntity
  8
SCHRAFF
100
AcDb2dPolyline
 66
     1
 10
0.0
 20
0.0
 30
0.0
 70
     2
  0
VERTEX
  5
BA4
330
BA3
100
AcDbEntity
  8
SCHRAFF
100
AcDbVertex
100
AcDb2dVertex
 10
505.9441916656896
 20
378.387831292801
 30
0.0
 42
0.1481711738912995
  0
VERTEX
  5
BA5
330
BA3
100
AcDbEntity
  8
SCHRAFF
100
AcDbVertex
100
AcDb2dVertex
 10
506.454086748394
 20
377.7670940173456
 30
0.0
 42
0.1481711738912668
 70
     1
  0
VERTEX
  5
BA6
330
BA3
100
AcDbEntity
  8
SCHRAFF
100
AcDbVertex
100
AcDb2dVertex
 10
507.2227618072928
 20
377.533756462861
 30
0.0
 42
0.1483030456011378
  0
VERTEX
  5
BA7
330
BA3
100
AcDbEntity
  8
SCHRAFF
100
AcDbVertex
100
AcDb2dVertex
 10
507.9922721289943
 20
377.766697054032
 30
0.0
 42
0.1483030456011519
 70
     1
  0
VERTEX
  5
BA8
330
BA3
100
AcDbEntity
  8
SCHRAFF
100
AcDbVertex
100
AcDb2dVertex
 10
508.5027618072928
 20
378.387831292801
 30
0.0
  0
SEQEND
  5
BA9
330
BA3
100
AcDbEntity
  8
SCHRAFF
  0
POLYLINE
  5
BAA
330
1E
100
AcDbEntity
  8
SCHRAFF
100
AcDb2dPolyline
 66
     1
 10
0.0
 20
0.0
 30
0.0
 70
     2
  0
VERTEX
  5
BAB
330
BAA
100
AcDbEntity
  8
SCHRAFF
100
AcDbVertex
100
AcDb2dVertex
 10
505.9441916656896
 20
358.387831292801
 30
0.0
 42
0.1481711738912995
  0
VERTEX
  5
BAC
330
BAA
100
AcDbEntity
  8
SCHRAFF
100
AcDbVertex
100
AcDb2dVertex
 10
506.454086748394
 20
357.7670940173456
 30
0.0
 42
0.1481711738912668
 70
     1
  0
VERTEX
  5
BAD
330
BAA
100
AcDbEntity
  8
SCHRAFF
100
AcDbVertex
100
AcDb2dVertex
 10
507.2227618072928
 20
357.533756462861
 30
0.0
 42
0.1483030456011378
  0
VERTEX
  5
BAE
330
BAA
100
AcDbEntity
  8
SCHRAFF
100
AcDbVertex
100
AcDb2dVertex
 10
507.9922721289943
 20
357.766697054032
 30
0.0
 42
0.1483030456011519
 70
     1
  0
VERTEX
  5
BAF
330
BAA
100
AcDbEntity
  8
SCHRAFF
100
AcDbVertex
100
AcDb2dVertex
 10
508.5027618072928
 20
358.387831292801
 30
0.0
  0
SEQEND
  5
BB0
330
BAA
100
AcDbEntity
  8
SCHRAFF
  0
POLYLINE
  5
BB1
330
1E
100
AcDbEntity
  8
SCHRAFF
100
AcDb2dPolyline
 66
     1
 10
0.0
 20
0.0
 30
0.0
 70
     2
  0
VERTEX
  5
BB2
330
BB1
100
AcDbEntity
  8
SCHRAFF
100
AcDbVertex
100
AcDb2dVertex
 10
505.9441916656896
 20
363.387831292801
 30
0.0
 42
0.1481711738912995
  0
VERTEX
  5
BB3
330
BB1
100
AcDbEntity
  8
SCHRAFF
100
AcDbVertex
100
AcDb2dVertex
 10
506.454086748394
 20
362.7670940173456
 30
0.0
 42
0.1481711738912668
 70
     1
  0
VERTEX
  5
BB4
330
BB1
100
AcDbEntity
  8
SCHRAFF
100
AcDbVertex
100
AcDb2dVertex
 10
507.2227618072928
 20
362.533756462861
 30
0.0
 42
0.1483030456011378
  0
VERTEX
  5
BB5
330
BB1
100
AcDbEntity
  8
SCHRAFF
100
AcDbVertex
100
AcDb2dVertex
 10
507.9922721289943
 20
362.766697054032
 30
0.0
 42
0.1483030456011519
 70
     1
  0
VERTEX
  5
BB6
330
BB1
100
AcDbEntity
  8
SCHRAFF
100
AcDbVertex
100
AcDb2dVertex
 10
508.5027618072928
 20
363.387831292801
 30
0.0
  0
SEQEND
  5
BB7
330
BB1
100
AcDbEntity
  8
SCHRAFF
  0
POLYLINE
  5
BB8
330
1E
100
AcDbEntity
  8
SCHRAFF
100
AcDb2dPolyline
 66
     1
 10
0.0
 20
0.0
 30
0.0
 70
     2
  0
VERTEX
  5
BB9
330
BB8
100
AcDbEntity
  8
SCHRAFF
100
AcDbVertex
100
AcDb2dVertex
 10
505.9441916656896
 20
347.387831292801
 30
0.0
 42
0.1481711738912995
  0
VERTEX
  5
BBA
330
BB8
100
AcDbEntity
  8
SCHRAFF
100
AcDbVertex
100
AcDb2dVertex
 10
506.454086748394
 20
346.7670940173456
 30
0.0
 42
0.1481711738912668
 70
     1
  0
VERTEX
  5
BBB
330
BB8
100
AcDbEntity
  8
SCHRAFF
100
AcDbVertex
100
AcDb2dVertex
 10
507.2227618072928
 20
346.533756462861
 30
0.0
 42
0.1483030456011378
  0
VERTEX
  5
BBC
330
BB8
100
AcDbEntity
  8
SCHRAFF
100
AcDbVertex
100
AcDb2dVertex
 10
507.9922721289943
 20
346.766697054032
 30
0.0
 42
0.1483030456011519
 70
     1
  0
VERTEX
  5
BBD
330
BB8
100
AcDbEntity
  8
SCHRAFF
100
AcDbVertex
100
AcDb2dVertex
 10
508.5027618072928
 20
347.387831292801
 30
0.0
  0
SEQEND
  5
BBE
330
BB8
100
AcDbEntity
  8
SCHRAFF
  0
POLYLINE
  5
BBF
330
1E
100
AcDbEntity
  8
SCHRAFF
100
AcDb2dPolyline
 66
     1
 10
0.0
 20
0.0
 30
0.0
 70
     2
  0
VERTEX
  5
BC0
330
BBF
100
AcDbEntity
  8
SCHRAFF
100
AcDbVertex
100
AcDb2dVertex
 10
505.9441916656896
 20
354.387831292801
 30
0.0
 42
0.1481711738912995
  0
VERTEX
  5
BC1
330
BBF
100
AcDbEntity
  8
SCHRAFF
100
AcDbVertex
100
AcDb2dVertex
 10
506.454086748394
 20
353.7670940173456
 30
0.0
 42
0.1481711738912668
 70
     1
  0
VERTEX
  5
BC2
330
BBF
100
AcDbEntity
  8
SCHRAFF
100
AcDbVertex
100
AcDb2dVertex
 10
507.2227618072928
 20
353.533756462861
 30
0.0
 42
0.1483030456011378
  0
VERTEX
  5
BC3
330
BBF
100
AcDbEntity
  8
SCHRAFF
100
AcDbVertex
100
AcDb2dVertex
 10
507.9922721289943
 20
353.766697054032
 30
0.0
 42
0.1483030456011519
 70
     1
  0
VERTEX
  5
BC4
330
BBF
100
AcDbEntity
  8
SCHRAFF
100
AcDbVertex
100
AcDb2dVertex
 10
508.5027618072928
 20
354.387831292801
 30
0.0
  0
SEQEND
  5
BC5
330
BBF
100
AcDbEntity
  8
SCHRAFF
  0
POLYLINE
  5
BC6
330
1E
100
AcDbEntity
  8
SCHRAFF
100
AcDb2dPolyline
 66
     1
 10
0.0
 20
0.0
 30
0.0
 70
     2
  0
VERTEX
  5
BC7
330
BC6
100
AcDbEntity
  8
SCHRAFF
100
AcDbVertex
100
AcDb2dVertex
 10
631.9621590989473
 20
342.387831292801
 30
0.0
 42
-0.1481711738912995
  0
VERTEX
  5
BC8
330
BC6
100
AcDbEntity
  8
SCHRAFF
100
AcDbVertex
100
AcDb2dVertex
 10
631.4522640162429
 20
341.7670940173456
 30
0.0
 42
-0.1481711738912668
 70
     1
  0
VERTEX
  5
BC9
330
BC6
100
AcDbEntity
  8
SCHRAFF
100
AcDbVertex
100
AcDb2dVertex
 10
630.6835889573441
 20
341.533756462861
 30
0.0
 42
-0.1483030456011378
  0
VERTEX
  5
BCA
330
BC6
100
AcDbEntity
  8
SCHRAFF
100
AcDbVertex
100
AcDb2dVertex
 10
629.9140786356426
 20
341.766697054032
 30
0.0
 42
-0.1483030456011519
 70
     1
  0
VERTEX
  5
BCB
330
BC6
100
AcDbEntity
  8
SCHRAFF
100
AcDbVertex
100
AcDb2dVertex
 10
629.4035889573441
 20
342.387831292801
 30
0.0
  0
SEQEND
  5
BCC
330
BC6
100
AcDbEntity
  8
SCHRAFF
  0
POLYLINE
  5
BCD
330
1E
100
AcDbEntity
  8
SCHRAFF
100
AcDb2dPolyline
 66
     1
 10
0.0
 20
0.0
 30
0.0
 70
     2
  0
VERTEX
  5
BCE
330
BCD
100
AcDbEntity
  8
SCHRAFF
100
AcDbVertex
100
AcDb2dVertex
 10
631.9621590989473
 20
337.387831292801
 30
0.0
 42
-0.1481711738912995
  0
VERTEX
  5
BCF
330
BCD
100
AcDbEntity
  8
SCHRAFF
100
AcDbVertex
100
AcDb2dVertex
 10
631.4522640162429
 20
336.7670940173456
 30
0.0
 42
-0.1481711738912668
 70
     1
  0
VERTEX
  5
BD0
330
BCD
100
AcDbEntity
  8
SCHRAFF
100
AcDbVertex
100
AcDb2dVertex
 10
630.6835889573441
 20
336.533756462861
 30
0.0
 42
-0.1483030456011378
  0
VERTEX
  5
BD1
330
BCD
100
AcDbEntity
  8
SCHRAFF
100
AcDbVertex
100
AcDb2dVertex
 10
629.9140786356426
 20
336.766697054032
 30
0.0
 42
-0.1483030456011519
 70
     1
  0
VERTEX
  5
BD2
330
BCD
100
AcDbEntity
  8
SCHRAFF
100
AcDbVertex
100
AcDb2dVertex
 10
629.4035889573441
 20
337.387831292801
 30
0.0
  0
SEQEND
  5
BD3
330
BCD
100
AcDbEntity
  8
SCHRAFF
  0
LINE
  5
BD4
330
1E
100
AcDbEntity
  8
STEMPEL
100
AcDbLine
 10
652.9531753823182
 20
328.6481311724577
 30
0.0
 11
652.9531753823184
 21
328.1481311724578
 31
0.0
  0
LINE
  5
BD5
102
{ACAD_REACTORS
330
106B
102
}
330
1E
100
AcDbEntity
  8
STEMPEL
100
AcDbLine
 10
651.4531753823185
 20
330.1481311724578
 30
0.0
 11
652.9531753823184
 21
328.6481311724577
 31
0.0
  0
ARC
  5
BD6
102
{ACAD_REACTORS
330
106B
102
}
330
1E
100
AcDbEntity
  8
SCHRAFF
100
AcDbCircle
 10
651.4531753823185
 20
330.1481311724578
 30
0.0
 40
2.121320343559662
100
AcDbArc
 50
315.0
 51
45.0
  0
LINE
  5
BD7
102
{ACAD_REACTORS
330
106B
102
}
330
1E
100
AcDbEntity
  8
STEMPEL
100
AcDbLine
 10
652.9531753823184
 20
331.6481311724577
 30
0.0
 11
651.4531753823185
 21
330.1481311724578
 31
0.0
  0
ARC
  5
BD8
330
1E
100
AcDbEntity
  8
SCHRAFF
100
AcDbCircle
 10
643.4155210533781
 20
330.1481311724578
 30
0.0
 40
2.121320343559662
100
AcDbArc
 50
135.0
 51
225.0
  0
ARC
  5
BD9
330
1E
100
AcDbEntity
  8
SCHRAFF
100
AcDbCircle
 10
648.4155210533781
 20
330.1481311724578
 30
0.0
 40
2.121320343559662
100
AcDbArc
 50
135.0
 51
225.0
  0
ARC
  5
BDA
330
1E
100
AcDbEntity
  8
SCHRAFF
100
AcDbCircle
 10
633.4155210533781
 20
330.1481311724578
 30
0.0
 40
2.121320343559662
100
AcDbArc
 50
135.0
 51
225.0
  0
ARC
  5
BDB
330
1E
100
AcDbEntity
  8
SCHRAFF
100
AcDbCircle
 10
628.4155210533781
 20
330.1481311724578
 30
0.0
 40
2.121320343559662
100
AcDbArc
 50
135.0
 51
225.0
  0
ARC
  5
BDC
330
1E
100
AcDbEntity
  8
SCHRAFF
100
AcDbCircle
 10
623.4155210533781
 20
330.1481311724578
 30
0.0
 40
2.121320343559662
100
AcDbArc
 50
135.0
 51
225.0
  0
ARC
  5
BDD
330
1E
100
AcDbEntity
  8
SCHRAFF
100
AcDbCircle
 10
618.4155210533781
 20
330.1481311724578
 30
0.0
 40
2.121320343559662
100
AcDbArc
 50
135.0
 51
225.0
  0
ARC
  5
BDE
330
1E
100
AcDbEntity
  8
SCHRAFF
100
AcDbCircle
 10
638.4155210533781
 20
330.1481311724578
 30
0.0
 40
2.121320343559662
100
AcDbArc
 50
135.0
 51
225.0
  0
ARC
  5
BDF
330
1E
100
AcDbEntity
  8
SCHRAFF
100
AcDbCircle
 10
651.9155210533781
 20
330.1481311724578
 30
0.0
 40
2.121320343559662
100
AcDbArc
 50
135.0
 51
225.0
  0
POLYLINE
  5
BE0
330
1E
100
AcDbEntity
  8
SCHRAFF
100
AcDb2dPolyline
 66
     1
 10
0.0
 20
0.0
 30
0.0
 70
     2
  0
VERTEX
  5
BE1
330
BE0
100
AcDbEntity
  8
SCHRAFF
100
AcDbVertex
100
AcDb2dVertex
 10
631.9621590989473
 20
332.387831292801
 30
0.0
 42
-0.1481711738912995
  0
VERTEX
  5
BE2
330
BE0
100
AcDbEntity
  8
SCHRAFF
100
AcDbVertex
100
AcDb2dVertex
 10
631.4522640162429
 20
331.7670940173456
 30
0.0
 42
-0.1481711738912668
 70
     1
  0
VERTEX
  5
BE3
330
BE0
100
AcDbEntity
  8
SCHRAFF
100
AcDbVertex
100
AcDb2dVertex
 10
630.6835889573441
 20
331.533756462861
 30
0.0
 42
-0.1483030456011378
  0
VERTEX
  5
BE4
330
BE0
100
AcDbEntity
  8
SCHRAFF
100
AcDbVertex
100
AcDb2dVertex
 10
629.9140786356426
 20
331.766697054032
 30
0.0
 42
-0.1483030456011519
 70
     1
  0
VERTEX
  5
BE5
330
BE0
100
AcDbEntity
  8
SCHRAFF
100
AcDbVertex
100
AcDb2dVertex
 10
629.4035889573441
 20
332.387831292801
 30
0.0
  0
SEQEND
  5
BE6
330
BE0
100
AcDbEntity
  8
SCHRAFF
  0
ARC
  5
BE7
330
1E
100
AcDbEntity
  8
SCHRAFF
100
AcDbCircle
 10
603.3057416650694
 20
326.6481311724577
 30
0.0
 40
2.121320343559662
100
AcDbArc
 50
135.0
 51
225.0
  0
ARC
  5
BE8
330
1E
100
AcDbEntity
  8
SCHRAFF
100
AcDbCircle
 10
593.3057416650695
 20
326.6481311724577
 30
0.0
 40
2.121320343559662
100
AcDbArc
 50
135.0
 51
225.0
  0
ARC
  5
BE9
330
1E
100
AcDbEntity
  8
SCHRAFF
100
AcDbCircle
 10
588.3057416650696
 20
326.6481311724577
 30
0.0
 40
2.121320343559662
100
AcDbArc
 50
135.0
 51
225.0
  0
ARC
  5
BEA
330
1E
100
AcDbEntity
  8
SCHRAFF
100
AcDbCircle
 10
598.3057416650694
 20
326.6481311724577
 30
0.0
 40
2.121320343559662
100
AcDbArc
 50
135.0
 51
225.0
  0
ARC
  5
BEB
330
1E
100
AcDbEntity
  8
SCHRAFF
100
AcDbCircle
 10
583.3057416650696
 20
326.6481311724577
 30
0.0
 40
2.121320343559662
100
AcDbArc
 50
135.0
 51
225.0
  0
ARC
  5
BEC
330
1E
100
AcDbEntity
  8
SCHRAFF
100
AcDbCircle
 10
613.4155210533781
 20
330.1481311724578
 30
0.0
 40
2.121320343559662
100
AcDbArc
 50
135.0
 51
225.0
  0
ARC
  5
BED
330
1E
100
AcDbEntity
  8
SCHRAFF
100
AcDbCircle
 10
598.4155210533781
 20
330.1481311724578
 30
0.0
 40
2.121320343559662
100
AcDbArc
 50
135.0
 51
225.0
  0
ARC
  5
BEE
330
1E
100
AcDbEntity
  8
SCHRAFF
100
AcDbCircle
 10
608.4155210533781
 20
330.1481311724578
 30
0.0
 40
2.121320343559662
100
AcDbArc
 50
135.0
 51
225.0
  0
ARC
  5
BEF
330
1E
100
AcDbEntity
  8
SCHRAFF
100
AcDbCircle
 10
603.4155210533781
 20
330.1481311724578
 30
0.0
 40
2.121320343559662
100
AcDbArc
 50
135.0
 51
225.0
  0
ARC
  5
BF0
330
1E
100
AcDbEntity
  8
SCHRAFF
100
AcDbCircle
 10
588.4155210533781
 20
330.1481311724578
 30
0.0
 40
2.121320343559662
100
AcDbArc
 50
135.0
 51
225.0
  0
ARC
  5
BF1
330
1E
100
AcDbEntity
  8
SCHRAFF
100
AcDbCircle
 10
593.4155210533781
 20
330.1481311724578
 30
0.0
 40
2.121320343559662
100
AcDbArc
 50
135.0
 51
225.0
  0
ARC
  5
BF2
330
1E
100
AcDbEntity
  8
SCHRAFF
100
AcDbCircle
 10
583.4155210533781
 20
330.1481311724578
 30
0.0
 40
2.121320343559662
100
AcDbArc
 50
135.0
 51
225.0
  0
ARC
  5
BF3
102
{ACAD_REACTORS
330
1064
102
}
330
1E
100
AcDbEntity
  8
SCHRAFF
100
AcDbCircle
 10
605.4531753823185
 20
328.1481311724576
 30
0.0
 40
3.933404693797342
100
AcDbArc
 50
270.0
 51
0.0
  0
ARC
  5
BF4
330
1E
100
AcDbEntity
  8
SCHRAFF
100
AcDbCircle
 10
578.3057416650696
 20
326.6481311724577
 30
0.0
 40
2.121320343559662
100
AcDbArc
 50
135.0
 51
225.0
  0
ARC
  5
BF5
330
1E
100
AcDbEntity
  8
SCHRAFF
100
AcDbCircle
 10
573.3057416650695
 20
326.6481311724577
 30
0.0
 40
2.121320343559662
100
AcDbArc
 50
135.0
 51
225.0
  0
ARC
  5
BF6
330
1E
100
AcDbEntity
  8
SCHRAFF
100
AcDbCircle
 10
563.3057416650696
 20
326.6481311724577
 30
0.0
 40
2.121320343559662
100
AcDbArc
 50
135.0
 51
225.0
  0
ARC
  5
BF7
330
1E
100
AcDbEntity
  8
SCHRAFF
100
AcDbCircle
 10
558.3057416650696
 20
326.6481311724577
 30
0.0
 40
2.121320343559662
100
AcDbArc
 50
135.0
 51
225.0
  0
ARC
  5
BF8
330
1E
100
AcDbEntity
  8
SCHRAFF
100
AcDbCircle
 10
568.3057416650695
 20
326.6481311724577
 30
0.0
 40
2.121320343559662
100
AcDbArc
 50
135.0
 51
225.0
  0
ARC
  5
BF9
330
1E
100
AcDbEntity
  8
SCHRAFF
100
AcDbCircle
 10
553.3057416650696
 20
326.6481311724577
 30
0.0
 40
2.121320343559662
100
AcDbArc
 50
135.0
 51
225.0
  0
ARC
  5
BFA
330
1E
100
AcDbEntity
  8
SCHRAFF
100
AcDbCircle
 10
548.3057416650695
 20
326.6481311724577
 30
0.0
 40
2.121320343559662
100
AcDbArc
 50
135.0
 51
225.0
  0
ARC
  5
BFB
330
1E
100
AcDbEntity
  8
SCHRAFF
100
AcDbCircle
 10
573.4155210533781
 20
330.1481311724578
 30
0.0
 40
2.121320343559662
100
AcDbArc
 50
135.0
 51
225.0
  0
ARC
  5
BFC
330
1E
100
AcDbEntity
  8
SCHRAFF
100
AcDbCircle
 10
578.4155210533781
 20
330.1481311724578
 30
0.0
 40
2.121320343559662
100
AcDbArc
 50
135.0
 51
225.0
  0
ARC
  5
BFD
330
1E
100
AcDbEntity
  8
SCHRAFF
100
AcDbCircle
 10
568.4155210533781
 20
330.1481311724578
 30
0.0
 40
2.121320343559662
100
AcDbArc
 50
135.0
 51
225.0
  0
ARC
  5
BFE
330
1E
100
AcDbEntity
  8
SCHRAFF
100
AcDbCircle
 10
558.4155210533781
 20
330.1481311724578
 30
0.0
 40
2.121320343559662
100
AcDbArc
 50
135.0
 51
225.0
  0
ARC
  5
BFF
330
1E
100
AcDbEntity
  8
SCHRAFF
100
AcDbCircle
 10
563.4155210533781
 20
330.1481311724578
 30
0.0
 40
2.121320343559662
100
AcDbArc
 50
135.0
 51
225.0
  0
ARC
  5
C00
330
1E
100
AcDbEntity
  8
SCHRAFF
100
AcDbCircle
 10
548.4155210533781
 20
330.1481311724578
 30
0.0
 40
2.121320343559662
100
AcDbArc
 50
135.0
 51
225.0
  0
ARC
  5
C01
330
1E
100
AcDbEntity
  8
SCHRAFF
100
AcDbCircle
 10
553.4155210533781
 20
330.1481311724578
 30
0.0
 40
2.121320343559662
100
AcDbArc
 50
135.0
 51
225.0
  0
POLYLINE
  5
C02
330
1E
100
AcDbEntity
  8
SCHRAFF
100
AcDb2dPolyline
 66
     1
 10
0.0
 20
0.0
 30
0.0
 70
     2
  0
VERTEX
  5
C03
330
C02
100
AcDbEntity
  8
SCHRAFF
100
AcDbVertex
100
AcDb2dVertex
 10
505.9441916656896
 20
337.387831292801
 30
0.0
 42
0.1481711738912995
  0
VERTEX
  5
C04
330
C02
100
AcDbEntity
  8
SCHRAFF
100
AcDbVertex
100
AcDb2dVertex
 10
506.454086748394
 20
336.7670940173456
 30
0.0
 42
0.1481711738912668
 70
     1
  0
VERTEX
  5
C05
330
C02
100
AcDbEntity
  8
SCHRAFF
100
AcDbVertex
100
AcDb2dVertex
 10
507.2227618072928
 20
336.533756462861
 30
0.0
 42
0.1483030456011378
  0
VERTEX
  5
C06
330
C02
100
AcDbEntity
  8
SCHRAFF
100
AcDbVertex
100
AcDb2dVertex
 10
507.9922721289943
 20
336.766697054032
 30
0.0
 42
0.1483030456011519
 70
     1
  0
VERTEX
  5
C07
330
C02
100
AcDbEntity
  8
SCHRAFF
100
AcDbVertex
100
AcDb2dVertex
 10
508.5027618072928
 20
337.387831292801
 30
0.0
  0
SEQEND
  5
C08
330
C02
100
AcDbEntity
  8
SCHRAFF
  0
POLYLINE
  5
C09
330
1E
100
AcDbEntity
  8
SCHRAFF
100
AcDb2dPolyline
 66
     1
 10
0.0
 20
0.0
 30
0.0
 70
     2
  0
VERTEX
  5
C0A
330
C09
100
AcDbEntity
  8
SCHRAFF
100
AcDbVertex
100
AcDb2dVertex
 10
505.9441916656896
 20
342.387831292801
 30
0.0
 42
0.1481711738912995
  0
VERTEX
  5
C0B
330
C09
100
AcDbEntity
  8
SCHRAFF
100
AcDbVertex
100
AcDb2dVertex
 10
506.454086748394
 20
341.7670940173456
 30
0.0
 42
0.1481711738912668
 70
     1
  0
VERTEX
  5
C0C
330
C09
100
AcDbEntity
  8
SCHRAFF
100
AcDbVertex
100
AcDb2dVertex
 10
507.2227618072928
 20
341.533756462861
 30
0.0
 42
0.1483030456011378
  0
VERTEX
  5
C0D
330
C09
100
AcDbEntity
  8
SCHRAFF
100
AcDbVertex
100
AcDb2dVertex
 10
507.9922721289943
 20
341.766697054032
 30
0.0
 42
0.1483030456011519
 70
     1
  0
VERTEX
  5
C0E
330
C09
100
AcDbEntity
  8
SCHRAFF
100
AcDbVertex
100
AcDb2dVertex
 10
508.5027618072928
 20
342.387831292801
 30
0.0
  0
SEQEND
  5
C0F
330
C09
100
AcDbEntity
  8
SCHRAFF
  0
ARC
  5
C10
102
{ACAD_REACTORS
330
1064
102
}
330
1E
100
AcDbEntity
  8
SCHRAFF
100
AcDbCircle
 10
532.4531753823184
 20
328.1481311724576
 30
0.0
 40
3.933404693797342
100
AcDbArc
 50
180.0
 51
270.0
  0
ARC
  5
C11
330
1E
100
AcDbEntity
  8
SCHRAFF
100
AcDbCircle
 10
543.3057416650695
 20
326.6481311724577
 30
0.0
 40
2.121320343559662
100
AcDbArc
 50
135.0
 51
225.0
  0
ARC
  5
C12
330
1E
100
AcDbEntity
  8
SCHRAFF
100
AcDbCircle
 10
538.3057416650696
 20
326.6481311724577
 30
0.0
 40
2.121320343559662
100
AcDbArc
 50
135.0
 51
225.0
  0
ARC
  5
C13
330
1E
100
AcDbEntity
  8
SCHRAFF
100
AcDbCircle
 10
533.4155210533781
 20
330.1481311724578
 30
0.0
 40
2.121320343559662
100
AcDbArc
 50
135.0
 51
225.0
  0
ARC
  5
C14
330
1E
100
AcDbEntity
  8
SCHRAFF
100
AcDbCircle
 10
538.4155210533781
 20
330.1481311724578
 30
0.0
 40
2.121320343559662
100
AcDbArc
 50
135.0
 51
225.0
  0
ARC
  5
C15
330
1E
100
AcDbEntity
  8
SCHRAFF
100
AcDbCircle
 10
543.4155210533781
 20
330.1481311724578
 30
0.0
 40
2.121320343559662
100
AcDbArc
 50
135.0
 51
225.0
  0
ARC
  5
C16
330
1E
100
AcDbEntity
  8
SCHRAFF
100
AcDbCircle
 10
528.4155210533781
 20
330.1481311724578
 30
0.0
 40
2.121320343559662
100
AcDbArc
 50
135.0
 51
225.0
  0
ARC
  5
C17
330
1E
100
AcDbEntity
  8
SCHRAFF
100
AcDbCircle
 10
523.4155210533781
 20
330.1481311724578
 30
0.0
 40
2.121320343559662
100
AcDbArc
 50
135.0
 51
225.0
  0
ARC
  5
C18
330
1E
100
AcDbEntity
  8
SCHRAFF
100
AcDbCircle
 10
513.4155210533781
 20
330.1481311724578
 30
0.0
 40
2.121320343559662
100
AcDbArc
 50
135.0
 51
225.0
  0
ARC
  5
C19
330
1E
100
AcDbEntity
  8
SCHRAFF
100
AcDbCircle
 10
518.4155210533781
 20
330.1481311724578
 30
0.0
 40
2.121320343559662
100
AcDbArc
 50
135.0
 51
225.0
  0
LINE
  5
C1A
330
1E
100
AcDbEntity
  8
STEMPEL
100
AcDbLine
 10
484.9531753823185
 20
328.6481311724577
 30
0.0
 11
484.9531753823185
 21
328.1481311724578
 31
0.0
  0
LINE
  5
C1B
102
{ACAD_REACTORS
330
106B
102
}
330
1E
100
AcDbEntity
  8
STEMPEL
100
AcDbLine
 10
486.4531753823184
 20
330.1481311724578
 30
0.0
 11
484.9531753823185
 21
328.6481311724577
 31
0.0
  0
ARC
  5
C1C
330
1E
100
AcDbEntity
  8
SCHRAFF
100
AcDbCircle
 10
503.4155210533781
 20
330.1481311724578
 30
0.0
 40
2.121320343559662
100
AcDbArc
 50
135.0
 51
225.0
  0
ARC
  5
C1D
330
1E
100
AcDbEntity
  8
SCHRAFF
100
AcDbCircle
 10
508.4155210533781
 20
330.1481311724578
 30
0.0
 40
2.121320343559662
100
AcDbArc
 50
135.0
 51
225.0
  0
ARC
  5
C1E
330
1E
100
AcDbEntity
  8
SCHRAFF
100
AcDbCircle
 10
498.4155210533781
 20
330.1481311724578
 30
0.0
 40
2.121320343559662
100
AcDbArc
 50
135.0
 51
225.0
  0
ARC
  5
C1F
330
1E
100
AcDbEntity
  8
SCHRAFF
100
AcDbCircle
 10
493.4155210533781
 20
330.1481311724578
 30
0.0
 40
2.121320343559662
100
AcDbArc
 50
135.0
 51
225.0
  0
ARC
  5
C20
330
1E
100
AcDbEntity
  8
SCHRAFF
100
AcDbCircle
 10
489.9155210533781
 20
330.1481311724578
 30
0.0
 40
2.121320343559662
100
AcDbArc
 50
135.0
 51
225.0
  0
ARC
  5
C21
102
{ACAD_REACTORS
330
106B
102
}
330
1E
100
AcDbEntity
  8
SCHRAFF
100
AcDbCircle
 10
486.4531753823184
 20
330.1481311724578
 30
0.0
 40
2.121320343559662
100
AcDbArc
 50
135.0
 51
225.0
  0
LINE
  5
C22
102
{ACAD_REACTORS
330
106B
102
}
330
1E
100
AcDbEntity
  8
STEMPEL
100
AcDbLine
 10
484.9531753823185
 20
331.6481311724577
 30
0.0
 11
486.4531753823184
 21
330.1481311724578
 31
0.0
  0
POLYLINE
  5
C23
330
1E
100
AcDbEntity
  8
SCHRAFF
100
AcDb2dPolyline
 66
     1
 10
0.0
 20
0.0
 30
0.0
 70
     2
  0
VERTEX
  5
C24
330
C23
100
AcDbEntity
  8
SCHRAFF
100
AcDbVertex
100
AcDb2dVertex
 10
505.9441916656896
 20
332.387831292801
 30
0.0
 42
0.1481711738912995
  0
VERTEX
  5
C25
330
C23
100
AcDbEntity
  8
SCHRAFF
100
AcDbVertex
100
AcDb2dVertex
 10
506.454086748394
 20
331.7670940173456
 30
0.0
 42
0.1481711738912668
 70
     1
  0
VERTEX
  5
C26
330
C23
100
AcDbEntity
  8
SCHRAFF
100
AcDbVertex
100
AcDb2dVertex
 10
507.2227618072928
 20
331.533756462861
 30
0.0
 42
0.1483030456011378
  0
VERTEX
  5
C27
330
C23
100
AcDbEntity
  8
SCHRAFF
100
AcDbVertex
100
AcDb2dVertex
 10
507.9922721289943
 20
331.766697054032
 30
0.0
 42
0.1483030456011519
 70
     1
  0
VERTEX
  5
C28
330
C23
100
AcDbEntity
  8
SCHRAFF
100
AcDbVertex
100
AcDb2dVertex
 10
508.5027618072928
 20
332.387831292801
 30
0.0
  0
SEQEND
  5
C29
330
C23
100
AcDbEntity
  8
SCHRAFF
  0
LINE
  5
C2B
330
1E
100
AcDbEntity
  8
STEMPEL
100
AcDbLine
 10
486.4531753823185
 20
330.1481311724578
 30
0.0
 11
651.4531753823185
 21
330.1481311724578
 31
0.0
  0
LINE
  5
C2C
102
{ACAD_REACTORS
330
1064
102
}
330
1E
100
AcDbEntity
  8
STEMPEL
100
AcDbLine
 10
484.9531753823185
 20
328.1481311724578
 30
0.0
 11
652.9531753823184
 21
328.1481311724578
 31
0.0
  0
LINE
  5
C2E
330
1E
100
AcDbEntity
  8
STEMPEL
100
AcDbLine
 10
299.6532303939162
 20
331.6481311724577
 30
0.0
 11
298.1532303939163
 21
330.1481311724578
 31
0.0
  0
LINE
  5
C2F
330
1E
100
AcDbEntity
  8
STEMPEL
100
AcDbLine
 10
299.6532303939162
 20
328.1481311724578
 30
0.0
 11
299.6532303939162
 21
328.6481311724577
 31
0.0
  0
LINE
  5
C30
330
1E
100
AcDbEntity
  8
STEMPEL
100
AcDbLine
 10
298.1532303939163
 20
330.1481311724578
 30
0.0
 11
299.6532303939162
 21
328.6481311724577
 31
0.0
  0
LINE
  5
C31
102
{ACAD_REACTORS
330
1030
102
}
330
1E
100
AcDbEntity
  8
STEMPEL
100
AcDbLine
 10
299.6532303939162
 20
328.1481311724578
 30
0.0
 11
299.6532303939162
 21
328.6481311724577
 31
0.0
  0
LINE
  5
C32
102
{ACAD_REACTORS
330
1030
330
105D
102
}
330
1E
100
AcDbEntity
  8
STEMPEL
100
AcDbLine
 10
298.1532303939161
 20
330.1481311724578
 30
0.0
 11
299.6532303939162
 21
328.6481311724577
 31
0.0
  0
ARC
  5
C33
102
{ACAD_REACTORS
330
105D
102
}
330
1E
100
AcDbEntity
  8
SCHRAFF
100
AcDbCircle
 10
298.1532303939161
 20
330.1481311724578
 30
0.0
 40
2.121320343559662
100
AcDbArc
 50
315.0
 51
45.0
  0
LINE
  5
C34
102
{ACAD_REACTORS
330
105D
330
1025
102
}
330
1E
100
AcDbEntity
  8
STEMPEL
100
AcDbLine
 10
299.6532303939162
 20
331.6481311724577
 30
0.0
 11
298.1532303939161
 21
330.1481311724578
 31
0.0
  0
ARC
  5
C35
102
{ACAD_REACTORS
330
1052
102
}
330
1E
100
AcDbEntity
  8
SCHRAFF
100
AcDbCircle
 10
246.1532303939163
 20
328.1481311724576
 30
0.0
 40
3.933404693797342
100
AcDbArc
 50
270.0
 51
0.0
  0
ARC
  5
C36
102
{ACAD_REACTORS
330
1052
102
}
330
1E
100
AcDbEntity
  8
SCHRAFF
100
AcDbCircle
 10
173.1532303939162
 20
328.1481311724576
 30
0.0
 40
3.933404693797342
100
AcDbArc
 50
180.0
 51
270.0
  0
LINE
  5
C37
102
{ACAD_REACTORS
330
105D
330
1025
102
}
330
1E
100
AcDbEntity
  8
STEMPEL
100
AcDbLine
 10
159.6532303939162
 20
331.6481311724577
 30
0.0
 11
161.1532303939162
 21
330.1481311724578
 31
0.0
  0
LINE
  5
C38
102
{ACAD_REACTORS
330
1030
102
}
330
1E
100
AcDbEntity
  8
STEMPEL
100
AcDbLine
 10
159.6532303939162
 20
328.1481311724578
 30
0.0
 11
159.6532303939161
 21
328.6481311724577
 31
0.0
  0
LINE
  5
C39
102
{ACAD_REACTORS
330
1030
330
105D
102
}
330
1E
100
AcDbEntity
  8
STEMPEL
100
AcDbLine
 10
161.1532303939162
 20
330.1481311724578
 30
0.0
 11
159.6532303939161
 21
328.6481311724577
 31
0.0
  0
ARC
  5
C3A
102
{ACAD_REACTORS
330
105D
102
}
330
1E
100
AcDbEntity
  8
SCHRAFF
100
AcDbCircle
 10
161.1532303939162
 20
330.1481311724578
 30
0.0
 40
2.121320343559662
100
AcDbArc
 50
135.0
 51
225.0
  0
LINE
  5
C3D
102
{ACAD_REACTORS
330
1030
330
1025
102
}
330
1E
100
AcDbEntity
  8
STEMPEL
100
AcDbLine
 10
298.1532303939161
 20
330.1481311724578
 30
0.0
 11
161.1532303939164
 21
330.1481311724578
 31
0.0
  0
LINE
  5
C3E
102
{ACAD_REACTORS
330
1030
330
103D
330
1052
102
}
330
1E
100
AcDbEntity
  8
STEMPEL
100
AcDbLine
 10
299.6532303939162
 20
328.1481311724578
 30
0.0
 11
159.6532303939162
 21
328.1481311724578
 31
0.0
  0
DIMENSION
  5
C40
330
1E
100
AcDbEntity
  8
BEM
100
AcDbDimension
  2
*D6
 10
114.7503493100738
 20
328.1481311724578
 30
0.0
 11
108.2503493100738
 21
309.2814645057911
 31
0.0
 70
    32
 71
     5
 42
2.0
  3
Standard
100
AcDbAlignedDimension
 13
161.1532303939164
 23
330.1481311724578
 33
0.0
 14
159.6532303939162
 24
328.1481311724578
 34
0.0
 50
90.0
100
AcDbRotatedDimension
1001
ACAD
1000
DSTYLE
1002
{
1070
    40
1040
2.0
1070
    41
1040
3.5
1070
    42
1040
1.0
1070
    43
1040
7.0
1070
    44
1040
1.0
1070
    73
1070
     0
1070
    74
1070
     0
1070
    77
1070
     1
1070
    78
1070
     8
1070
    79
1070
     2
1070
   140
1040
3.5
1070
   141
1040
1.5
1070
   146
1040
0.5142857142857144
1070
   147
1040
1.5
1070
   172
1070
     1
1070
   178
1070
     1
1070
   179
1070
     2
1070
   271
1070
     2
1070
   272
1070
     2
1070
   284
1070
     8
1070
   285
1070
     8
1070
   286
1070
     8
1002
}
  0
CIRCLE
  5
C41
330
1E
100
AcDbEntity
  8
STEMPEL
100
AcDbCircle
 10
568.9531753823184
 20
476.1481311724576
 30
0.0
 40
38.0
  0
LINE
  5
C45
102
{ACAD_REACTORS
330
100E
102
}
330
1E
100
AcDbEntity
  8
STEMPEL
  6
Continuous
100
AcDbLine
 10
201.6532303939164
 20
515.7481311724576
 30
0.0
 11
201.6532303939162
 21
436.5481311724576
 31
0.0
  0
LINE
  5
C46
330
1E
100
AcDbEntity
  8
HILF
  6
Continuous
100
AcDbLine
 10
192.1534572125274
 20
439.8452267805006
 30
0.0
 11
192.1534572125274
 21
512.4510355644145
 31
0.0
  0
LINE
  5
C48
102
{ACAD_REACTORS
330
1025
102
}
330
1E
100
AcDbEntity
  8
STEMPEL
100
AcDbLine
 10
297.6532303939162
 20
330.1481311724578
 30
0.0
 11
297.6532303939162
 21
496.1481311724579
 31
0.0
  0
LINE
  5
C49
102
{ACAD_REACTORS
330
1025
102
}
330
1E
100
AcDbEntity
  8
STEMPEL
100
AcDbLine
 10
299.6532303939162
 20
331.6481311724577
 30
0.0
 11
299.6532303939164
 21
496.1481311724579
 31
0.0
  0
DIMENSION
  5
C4A
330
1E
100
AcDbEntity
  8
BEM
100
AcDbDimension
  2
*D7
 10
114.7503493100738
 20
330.1481311724578
 30
0.0
 11
108.2503493100738
 21
430.6481311724577
 31
0.0
 70
    32
 71
     5
 42
200.9999999999999
  3
Standard
100
AcDbAlignedDimension
 13
159.6532303939162
 23
531.1481311724577
 33
0.0
 14
161.1532303939164
 24
330.1481311724578
 34
0.0
 50
90.0
100
AcDbRotatedDimension
1001
ACAD
1000
DSTYLE
1002
{
1070
    40
1040
2.0
1070
    41
1040
3.5
1070
    42
1040
1.0
1070
    43
1040
7.0
1070
    44
1040
1.0
1070
    73
1070
     0
1070
    74
1070
     0
1070
    77
1070
     1
1070
    78
1070
     8
1070
    79
1070
     2
1070
   140
1040
3.5
1070
   141
1040
1.5
1070
   146
1040
0.5142857142857144
1070
   147
1040
1.5
1070
   172
1070
     1
1070
   178
1070
     1
1070
   179
1070
     2
1070
   271
1070
     2
1070
   272
1070
     2
1070
   284
1070
     8
1070
   285
1070
     8
1070
   286
1070
     8
1002
}
  0
LINE
  5
C4B
102
{ACAD_REACTORS
330
1025
330
144E
102
}
330
1E
100
AcDbEntity
  8
STEMPEL
100
AcDbLine
 10
159.6532303939161
 20
331.6481311724577
 30
0.0
 11
159.6532303939162
 21
533.1481311724577
 31
0.0
  0
LINE
  5
C4C
102
{ACAD_REACTORS
330
100E
330
1025
102
}
330
1E
100
AcDbEntity
  8
STEMPEL
100
AcDbLine
 10
161.6532303939162
 20
330.1481311724578
 30
0.0
 11
161.6532303939162
 21
531.1481311724577
 31
0.0
  0
LINE
  5
C4D
330
1E
100
AcDbEntity
  8
STEMPEL
100
AcDbLine
 10
656.9531753823187
 20
533.1481311724578
 30
0.0
 11
656.9531753823187
 21
531.1481311724578
 31
0.0
  0
LINE
  5
C4E
330
1E
100
AcDbEntity
  8
STEMPEL
100
AcDbLine
 10
480.9531753823184
 20
533.1481311724579
 30
0.0
 11
480.9531753823184
 21
531.148131172458
 31
0.0
  0
LINE
  5
C4F
330
1E
100
AcDbEntity
  8
VERDECKT
100
AcDbLine
 10
486.9531753823184
 20
531.148131172458
 30
0.0
 11
486.9531753823184
 21
330.1481311724578
 31
0.0
  0
LINE
  5
C50
330
1E
100
AcDbEntity
  8
VERDECKT
100
AcDbLine
 10
650.9531753823185
 20
531.1481311724578
 30
0.0
 11
650.9531753823182
 21
330.1481311724578
 31
0.0
  0
LINE
  5
C51
102
{ACAD_REACTORS
330
144E
102
}
330
1E
100
AcDbEntity
  8
MITTEL
100
AcDbLine
 10
215.6532303939163
 20
322.3500534716877
 30
0.0
 11
215.6532303939163
 21
539.7842045677934
 31
0.0
  0
LINE
  5
C52
330
1E
100
AcDbEntity
  8
STEMPEL
100
AcDbLine
 10
507.8339839973242
 20
531.148131172458
 30
0.0
 11
507.8339839973242
 21
330.1481311724578
 31
0.0
  0
LINE
  5
C53
330
1E
100
AcDbEntity
  8
STEMPEL
100
AcDbLine
 10
630.0723667673127
 20
531.148131172458
 30
0.0
 11
630.0723667673127
 21
330.1481311724578
 31
0.0
  0
POLYLINE
  5
C54
330
1E
100
AcDbEntity
  8
SCHRAFF
100
AcDb2dPolyline
 66
     1
 10
0.0
 20
0.0
 30
0.0
 70
     2
  0
VERTEX
  5
C55
330
C54
100
AcDbEntity
  8
SCHRAFF
100
AcDbVertex
100
AcDb2dVertex
 10
631.9621590989473
 20
483.387831292801
 30
0.0
 42
-0.1481711738912995
  0
VERTEX
  5
C56
330
C54
100
AcDbEntity
  8
SCHRAFF
100
AcDbVertex
100
AcDb2dVertex
 10
631.4522640162429
 20
482.7670940173455
 30
0.0
 42
-0.1481711738912668
 70
     1
  0
VERTEX
  5
C57
330
C54
100
AcDbEntity
  8
SCHRAFF
100
AcDbVertex
100
AcDb2dVertex
 10
630.6835889573441
 20
482.5337564628609
 30
0.0
 42
-0.1483030456011378
  0
VERTEX
  5
C58
330
C54
100
AcDbEntity
  8
SCHRAFF
100
AcDbVertex
100
AcDb2dVertex
 10
629.9140786356426
 20
482.7666970540319
 30
0.0
 42
-0.1483030456011519
 70
     1
  0
VERTEX
  5
C59
330
C54
100
AcDbEntity
  8
SCHRAFF
100
AcDbVertex
100
AcDb2dVertex
 10
629.4035889573441
 20
483.387831292801
 30
0.0
  0
SEQEND
  5
C5A
330
C54
100
AcDbEntity
  8
SCHRAFF
  0
POLYLINE
  5
C5B
330
1E
100
AcDbEntity
  8
SCHRAFF
100
AcDb2dPolyline
 66
     1
 10
0.0
 20
0.0
 30
0.0
 70
     2
  0
VERTEX
  5
C5C
330
C5B
100
AcDbEntity
  8
SCHRAFF
100
AcDbVertex
100
AcDb2dVertex
 10
505.9441916656896
 20
483.387831292801
 30
0.0
 42
0.1481711738912995
  0
VERTEX
  5
C5D
330
C5B
100
AcDbEntity
  8
SCHRAFF
100
AcDbVertex
100
AcDb2dVertex
 10
506.454086748394
 20
482.7670940173455
 30
0.0
 42
0.1481711738912668
 70
     1
  0
VERTEX
  5
C5E
330
C5B
100
AcDbEntity
  8
SCHRAFF
100
AcDbVertex
100
AcDb2dVertex
 10
507.2227618072928
 20
482.5337564628609
 30
0.0
 42
0.1483030456011378
  0
VERTEX
  5
C5F
330
C5B
100
AcDbEntity
  8
SCHRAFF
100
AcDbVertex
100
AcDb2dVertex
 10
507.9922721289943
 20
482.7666970540319
 30
0.0
 42
0.1483030456011519
 70
     1
  0
VERTEX
  5
C60
330
C5B
100
AcDbEntity
  8
SCHRAFF
100
AcDbVertex
100
AcDb2dVertex
 10
508.5027618072928
 20
483.387831292801
 30
0.0
  0
SEQEND
  5
C61
330
C5B
100
AcDbEntity
  8
SCHRAFF
  0
LINE
  5
C62
102
{ACAD_REACTORS
330
100E
102
}
330
1E
100
AcDbEntity
  8
STEMPEL
100
AcDbLine
 10
161.6532303939162
 20
508.9135358427975
 30
0.0
 11
161.6532303939162
 21
413.3827265021176
 31
0.0
  0
LINE
  5
C63
330
1E
100
AcDbEntity
  8
STEMPEL
100
AcDbLine
 10
605.4531753823185
 20
265.0782736638035
 30
0.0
 11
604.8468664777064
 21
258.1481311724577
 31
0.0
  0
LINE
  5
C64
330
1E
100
AcDbEntity
  8
STEMPEL
100
AcDbLine
 10
532.4531753823184
 20
265.0782736638039
 30
0.0
 11
533.0594842869305
 21
258.1481311724577
 31
0.0
  0
LINE
  5
C65
330
1E
100
AcDbEntity
  8
HILF
100
AcDbLine
 10
603.8531753823185
 20
265.1481311724577
 30
0.0
 11
534.0531753823184
 21
265.1481311724577
 31
0.0
  0
LINE
  5
C66
330
1E
100
AcDbEntity
  8
STEMPEL
100
AcDbLine
 10
604.8468664777064
 20
258.1481311724577
 30
0.0
 11
533.0594842869305
 21
258.1481311724577
 31
0.0
  0
DIMENSION
  5
C67
330
1E
100
AcDbEntity
  8
BEM
100
AcDbDimension
  2
*D8
 10
605.4531753823185
 20
234.9930089818945
 30
0.0
 11
568.9531753823184
 21
241.4930089818945
 31
0.0
 70
    32
  1
%%c<>
 71
     5
 42
73.0
  3
Standard
100
AcDbAlignedDimension
 13
532.4531753823184
 23
265.0782736638039
 33
0.0
 14
605.4531753823185
 24
265.0782736638035
 34
0.0
100
AcDbRotatedDimension
1001
ACAD
1000
DSTYLE
1002
{
1070
    40
1040
2.0
1070
    41
1040
3.5
1070
    42
1040
1.0
1070
    43
1040
7.0
1070
    44
1040
1.0
1070
    73
1070
     0
1070
    74
1070
     0
1070
    77
1070
     1
1070
    78
1070
     8
1070
    79
1070
     2
1070
   140
1040
3.5
1070
   141
1040
1.5
1070
   146
1040
0.5142857142857144
1070
   147
1040
1.5
1070
   172
1070
     1
1070
   178
1070
     1
1070
   179
1070
     2
1070
   271
1070
     2
1070
   272
1070
     2
1070
   284
1070
     8
1070
   285
1070
     8
1070
   286
1070
     8
1002
}
  0
LINE
  5
C68
102
{ACAD_REACTORS
330
103D
102
}
330
1E
100
AcDbEntity
  8
STEMPEL
100
AcDbLine
 10
244.5532303939162
 20
265.1481311724578
 30
0.0
 11
243.9408097492349
 21
258.1481311724577
 31
0.0
  0
LINE
  5
C69
102
{ACAD_REACTORS
330
103D
102
}
330
1E
100
AcDbEntity
  8
STEMPEL
100
AcDbLine
 10
246.1532303939163
 20
265.0782736638035
 30
0.0
 11
245.5469214893042
 21
258.1481311724577
 31
0.0
  0
LINE
  5
C6A
102
{ACAD_REACTORS
330
103D
102
}
330
1E
100
AcDbEntity
  8
STEMPEL
100
AcDbLine
 10
173.1532303939162
 20
265.0782736638039
 30
0.0
 11
173.7595392985283
 21
258.1481311724577
 31
0.0
  0
LINE
  5
C6B
102
{ACAD_REACTORS
330
103D
102
}
330
1E
100
AcDbEntity
  8
STEMPEL
100
AcDbLine
 10
174.7532303939163
 20
265.1481311724577
 30
0.0
 11
175.3656510385978
 21
258.1481311724577
 31
0.0
  0
LINE
  5
C6C
330
1E
100
AcDbEntity
  8
HILF
100
AcDbLine
 10
242.9471186538469
 20
265.1481311724577
 30
0.0
 11
176.3593421339856
 21
265.1481311724577
 31
0.0
  0
LINE
  5
C6D
102
{ACAD_REACTORS
330
103D
102
}
330
1E
100
AcDbEntity
  8
STEMPEL
100
AcDbLine
 10
245.5469214893042
 20
258.1481311724577
 30
0.0
 11
173.7595392985283
 21
258.1481311724577
 31
0.0
  0
TEXT
  5
C6E
330
1E
100
AcDbEntity
  8
TEXT
 62
     1
100
AcDbText
 10
304.5932930457905
 20
248.1883174396978
 30
0.0
 40
7.0
  1
Rohrende leicht eingezogen
 41
0.8
  7
GREEKS
100
AcDbText
  0
LINE
  5
C74
330
1E
100
AcDbEntity
  8
MITTEL
100
AcDbLine
 10
215.6532303939163
 20
123.8006695007493
 30
0.0
 11
172.1532303939161
 21
199.1448796299954
 31
0.0
  0
ARC
  5
C75
330
1E
100
AcDbEntity
  8
VERDECKT
100
AcDbCircle
 10
215.6532303939163
 20
123.8006695007493
 30
0.0
 40
84.0
100
AcDbArc
 50
228.189685104225
 51
131.810314895775
  0
DIMENSION
  5
C76
330
1E
100
AcDbEntity
  8
BEM
100
AcDbDimension
  2
*D9
 10
367.4722544572966
 20
35.80066950074924
 30
0.0
 11
360.9722544572966
 21
123.8006695007493
 31
0.0
 70
    32
 71
     5
 42
176.0
  3
Standard
100
AcDbAlignedDimension
 13
215.6532303939163
 23
211.8006695007493
 33
0.0
 14
215.6532303939163
 24
35.80066950074928
 34
0.0
 50
90.0
100
AcDbRotatedDimension
1001
ACAD
1000
DSTYLE
1002
{
1070
    40
1040
2.0
1070
    41
1040
3.5
1070
    42
1040
1.0
1070
    43
1040
7.0
1070
    44
1040
1.0
1070
    73
1070
     0
1070
    74
1070
     0
1070
    77
1070
     1
1070
    78
1070
     8
1070
    79
1070
     2
1070
   140
1040
3.5
1070
   141
1040
1.5
1070
   146
1040
0.5142857142857144
1070
   147
1040
1.5
1070
   172
1070
     1
1070
   178
1070
     1
1070
   179
1070
     2
1070
   271
1070
     2
1070
   272
1070
     2
1070
   284
1070
     8
1070
   285
1070
     8
1070
   286
1070
     8
1002
}
  0
LINE
  5
C77
330
1E
100
AcDbEntity
  8
MITTEL
100
AcDbLine
 10
215.6532303939163
 20
215.8006695007493
 30
0.0
 11
215.6532303939163
 21
31.80066950074928
 31
0.0
  0
ARC
  5
C78
330
1E
100
AcDbEntity
  8
VERDECKT
100
AcDbCircle
 10
215.6532303939163
 20
123.8006695007493
 30
0.0
 40
82.0
100
AcDbArc
 50
228.189685104225
 51
131.810314895775
  0
DIMENSION
  5
C79
330
1E
100
AcDbEntity
  8
BEM
100
AcDbDimension
  2
*D10
 10
209.6532303939163
 20
238.7239506205309
 30
0.0
 11
184.6532303939162
 21
245.2239506205309
 31
0.0
 70
    32
 71
     5
 42
50.0
  3
Standard
100
AcDbAlignedDimension
 13
159.6532303939162
 23
328.1481311724578
 33
0.0
 14
209.6532303939163
 24
253.1481311724578
 34
0.0
100
AcDbRotatedDimension
1001
ACAD
1000
DSTYLE
1002
{
1070
    40
1040
2.0
1070
    41
1040
3.5
1070
    42
1040
1.0
1070
    43
1040
7.0
1070
    44
1040
1.0
1070
    73
1070
     0
1070
    74
1070
     0
1070
    77
1070
     1
1070
    78
1070
     8
1070
    79
1070
     2
1070
   140
1040
3.5
1070
   141
1040
1.5
1070
   146
1040
0.5142857142857144
1070
   147
1040
1.5
1070
   172
1070
     1
1070
   178
1070
     1
1070
   179
1070
     2
1070
   271
1070
     2
1070
   272
1070
     2
1070
   284
1070
     8
1070
   285
1070
     8
1070
   286
1070
     8
1002
}
  0
LINE
  5
C7A
102
{ACAD_REACTORS
330
1064
102
}
330
1E
100
AcDbEntity
  8
STEMPEL
100
AcDbLine
 10
532.4531753823184
 20
265.0782736638039
 30
0.0
 11
532.4531753823184
 21
328.1481311724578
 31
0.0
  0
LINE
  5
C7B
102
{ACAD_REACTORS
330
1064
102
}
330
1E
100
AcDbEntity
  8
STEMPEL
100
AcDbLine
 10
605.4531753823185
 20
265.0782736638035
 30
0.0
 11
605.4531753823185
 21
328.1481311724578
 31
0.0
  0
DIMENSION
  5
C7C
330
1E
100
AcDbEntity
  8
BEM
100
AcDbDimension
  2
*D11
 10
128.8977295180293
 20
258.1481311724577
 30
0.0
 11
122.3977295180293
 21
293.1481311724578
 31
0.0
 70
    32
 71
     5
 42
70.0
  3
Standard
100
AcDbAlignedDimension
 13
159.6532303939162
 23
328.1481311724578
 33
0.0
 14
173.7595392985283
 24
258.1481311724577
 34
0.0
 50
90.0
100
AcDbRotatedDimension
1001
ACAD
1000
DSTYLE
1002
{
1070
    40
1040
2.0
1070
    41
1040
3.5
1070
    42
1040
1.0
1070
    43
1040
7.0
1070
    44
1040
1.0
1070
    73
1070
     0
1070
    74
1070
     0
1070
    77
1070
     1
1070
    78
1070
     8
1070
    79
1070
     2
1070
   140
1040
3.5
1070
   141
1040
1.5
1070
   146
1040
0.5142857142857144
1070
   147
1040
1.5
1070
   172
1070
     1
1070
   178
1070
     1
1070
   179
1070
     2
1070
   271
1070
     2
1070
   272
1070
     2
1070
   284
1070
     8
1070
   285
1070
     8
1070
   286
1070
     8
1002
}
  0
LINE
  5
C7E
102
{ACAD_REACTORS
330
1030
330
103D
102
}
330
1E
100
AcDbEntity
  8
STEMPEL
100
AcDbLine
 10
174.7532303939163
 20
265.1481311724577
 30
0.0
 11
174.7532303939163
 21
330.1481311724578
 31
0.0
  0
LINE
  5
C7F
102
{ACAD_REACTORS
330
1030
330
103D
102
}
330
1E
100
AcDbEntity
  8
STEMPEL
100
AcDbLine
 10
244.5532303939162
 20
265.1481311724578
 30
0.0
 11
244.5532303939162
 21
330.1481311724577
 31
0.0
  0
LINE
  5
C80
102
{ACAD_REACTORS
330
103D
330
1052
102
}
330
1E
100
AcDbEntity
  8
STEMPEL
100
AcDbLine
 10
246.1532303939163
 20
265.0782736638035
 30
0.0
 11
246.1532303939163
 21
328.1481311724578
 31
0.0
  0
LINE
  5
C81
102
{ACAD_REACTORS
330
103D
330
1052
102
}
330
1E
100
AcDbEntity
  8
STEMPEL
100
AcDbLine
 10
173.1532303939162
 20
265.0782736638039
 30
0.0
 11
173.1532303939162
 21
328.1481311724578
 31
0.0
  0
DIMENSION
  5
C82
330
1E
100
AcDbEntity
  8
BEM
100
AcDbDimension
  2
*D12
 10
459.1193942568054
 20
258.1481311724577
 30
0.0
 11
452.6193942568053
 21
395.648131172458
 31
0.0
 70
    32
 71
     5
 42
275.0000000000002
  3
Standard
100
AcDbAlignedDimension
 13
480.9531753823184
 23
533.1481311724579
 33
0.0
 14
533.0594842869305
 24
258.1481311724577
 34
0.0
 50
90.0
100
AcDbRotatedDimension
1001
ACAD
1000
DSTYLE
1002
{
1070
    40
1040
2.0
1070
    41
1040
3.5
1070
    42
1040
1.0
1070
    43
1040
7.0
1070
    44
1040
1.0
1070
    73
1070
     0
1070
    74
1070
     0
1070
    77
1070
     1
1070
    78
1070
     8
1070
    79
1070
     2
1070
   140
1040
3.5
1070
   141
1040
1.5
1070
   146
1040
0.5142857142857144
1070
   147
1040
1.5
1070
   172
1070
     1
1070
   178
1070
     1
1070
   179
1070
     2
1070
   271
1070
     2
1070
   272
1070
     2
1070
   284
1070
     8
1070
   285
1070
     8
1070
   286
1070
     8
1002
}
  0
LINE
  5
C84
330
1E
100
AcDbEntity
  8
MITTEL
100
AcDbLine
 10
209.6532303939163
 20
253.1481311724578
 30
0.0
 11
209.6532303939163
 21
335.1481311724579
 31
0.0
  0
LINE
  5
C85
330
1E
100
AcDbEntity
  8
MITTEL
100
AcDbLine
 10
568.9531753823184
 20
549.6532647163824
 30
0.0
 11
568.9531753823184
 21
253.1481311724578
 31
0.0
  0
ARC
  5
C8B
330
1E
100
AcDbEntity
  8
SCHRAFF
100
AcDbCircle
 10
160.9519936795584
 20
185.2055057350608
 30
0.0
 40
2.641950433585531
100
AcDbArc
 50
82.89948158104834
 51
240.5546875250368
  0
LINE
  5
C8C
330
1E
100
AcDbEntity
  8
VERDECKT
100
AcDbLine
 10
159.6532303939162
 20
184.9198608857435
 30
0.0
 11
161.6532303939162
 21
184.9198608857435
 31
0.0
  0
LINE
  5
C8D
330
1E
100
AcDbEntity
  8
VERDECKT
100
AcDbLine
 10
160.9865637272496
 20
184.9198608857435
 30
0.0
 11
159.6532303939162
 21
186.4105728707434
 31
0.0
  0
INSERT
  5
C8E
330
1E
100
AcDbEntity
  8
SCHRAFF
100
AcDbBlockReference
  2
*X2
 10
0.0
 20
0.0
 30
0.0
1001
ACAD
1000
HATCH
1002
{
1070
    16
1000
_U,I
1040
0.1
1040
0.0
1070
     0
1002
}
  0
ARC
  5
C8F
330
1E
100
AcDbEntity
  8
VERDECKT
100
AcDbCircle
 10
194.6510093116408
 20
175.3006695007492
 30
0.0
 40
12.6
100
AcDbArc
 50
248.816845606963
 51
270.0
  0
ARC
  5
C90
330
1E
100
AcDbEntity
  8
VERDECKT
100
AcDbCircle
 10
194.6510093116408
 20
175.3006695007492
 30
0.0
 40
13.6
100
AcDbArc
 50
248.816845606963
 51
270.0
  0
LINE
  5
C91
330
1E
100
AcDbEntity
  8
VERDECKT
100
AcDbLine
 10
194.6510093116408
 20
162.7006695007492
 30
0.0
 11
201.6532303939164
 21
162.7006695007492
 31
0.0
  0
LINE
  5
C92
330
1E
100
AcDbEntity
  8
VERDECKT
100
AcDbLine
 10
194.6510093116408
 20
161.7006695007492
 30
0.0
 11
201.6532303939164
 21
161.7006695007492
 31
0.0
  0
LINE
  5
C93
330
1E
100
AcDbEntity
  8
VERDECKT
100
AcDbLine
 10
159.6532303939162
 20
173.8006695007493
 30
0.0
 11
161.6532303939162
 21
173.8006695007493
 31
0.0
  0
LINE
  5
C94
330
1E
100
AcDbEntity
  8
VERDECKT
100
AcDbLine
 10
161.6532303939162
 20
178.8006695007493
 30
0.0
 11
159.6532303939162
 21
178.8006695007494
 31
0.0
  0
LINE
  5
C95
330
1E
100
AcDbEntity
  8
VERDECKT
100
AcDbLine
 10
161.6532303939162
 20
161.7006695007492
 30
0.0
 11
159.6532303939162
 21
161.7006695007492
 31
0.0
  0
ARC
  5
C96
330
1E
100
AcDbEntity
  8
VERDECKT
100
AcDbCircle
 10
172.1770397463657
 20
140.800682976512
 30
0.0
 40
24.4
100
AcDbArc
 50
89.93978295837257
 51
115.5503222909131
  0
ARC
  5
C97
330
1E
100
AcDbEntity
  8
VERDECKT
100
AcDbCircle
 10
172.1770397463657
 20
140.800682976512
 30
0.0
 40
23.4
100
AcDbArc
 50
89.93850972989847
 51
116.7267114783371
  0
LINE
  5
C98
330
1E
100
AcDbEntity
  8
VERDECKT
100
AcDbLine
 10
172.1513957014215
 20
165.2006695007492
 30
0.0
 11
181.2149503457256
 21
165.2006695007492
 31
0.0
  0
LINE
  5
C99
330
1E
100
AcDbEntity
  8
VERDECKT
100
AcDbLine
 10
172.15192669168
 20
164.2006695007492
 30
0.0
 11
181.2149503457256
 21
164.2006695007492
 31
0.0
  0
ARC
  5
C9A
330
1E
100
AcDbEntity
  8
VERDECKT
100
AcDbCircle
 10
181.2810093116409
 20
140.8006695007492
 30
0.0
 40
24.40009324312573
100
AcDbArc
 50
68.81684560696301
 51
90.16174743125722
  0
ARC
  5
C9B
330
1E
100
AcDbEntity
  8
VERDECKT
100
AcDbCircle
 10
181.2810093116409
 20
140.8006695007492
 30
0.0
 40
23.40009324312573
100
AcDbArc
 50
68.81684560696301
 51
90.16174743125722
  0
LINE
  5
CA9
330
1E
100
AcDbEntity
  8
VERDECKT
100
AcDbLine
 10
159.6532303939162
 20
153.8006695007493
 30
0.0
 11
161.6532303939162
 21
153.8006695007493
 31
0.0
  0
LINE
  5
CAA
330
1E
100
AcDbEntity
  8
MITTEL
100
AcDbLine
 10
154.6532303939162
 20
123.8006695007493
 30
0.0
 11
351.3977825388595
 21
123.8006695007493
 31
0.0
  0
LINE
  5
CAB
330
1E
100
AcDbEntity
  8
MITTEL
100
AcDbLine
 10
215.6532303939163
 20
123.8006695007493
 30
0.0
 11
275.4318967311542
 21
183.5793358379873
 31
0.0
  0
ARC
  5
CB3
330
1E
100
AcDbEntity
  8
VERDECKT
100
AcDbCircle
 10
194.6510093116408
 20
72.30066950074927
 30
0.0
 40
13.6
100
AcDbArc
 50
90.0
 51
111.1831543930369
  0
ARC
  5
CB4
330
1E
100
AcDbEntity
  8
VERDECKT
100
AcDbCircle
 10
194.6510093116408
 20
72.30066950074927
 30
0.0
 40
12.6
100
AcDbArc
 50
90.0
 51
111.1831543930369
  0
LINE
  5
CB5
330
1E
100
AcDbEntity
  8
VERDECKT
100
AcDbLine
 10
194.6510093116408
 20
85.90066950074925
 30
0.0
 11
201.6532303939164
 21
85.90066950074918
 31
0.0
  0
LINE
  5
CB6
330
1E
100
AcDbEntity
  8
VERDECKT
100
AcDbLine
 10
194.6510093116408
 20
84.90066950074924
 30
0.0
 11
201.6532303939164
 21
84.90066950074924
 31
0.0
  0
LINE
  5
CB7
330
1E
100
AcDbEntity
  8
VERDECKT
100
AcDbLine
 10
161.6532303939163
 20
85.90066950074925
 30
0.0
 11
159.6532303939162
 21
85.90066950074925
 31
0.0
  0
LINE
  5
CB8
330
1E
100
AcDbEntity
  8
VERDECKT
100
AcDbLine
 10
172.1513957014215
 20
82.40066950074924
 30
0.0
 11
181.2149503457256
 21
82.40066950074924
 31
0.0
  0
LINE
  5
CB9
330
1E
100
AcDbEntity
  8
VERDECKT
100
AcDbLine
 10
172.15192669168
 20
83.40066950074925
 30
0.0
 11
181.2149503457256
 21
83.40066950074925
 31
0.0
  0
ARC
  5
CBA
330
1E
100
AcDbEntity
  8
VERDECKT
100
AcDbCircle
 10
172.1770397463657
 20
106.8006560249865
 30
0.0
 40
23.4
100
AcDbArc
 50
243.2732885216629
 51
270.0614902701016
  0
ARC
  5
CBB
330
1E
100
AcDbEntity
  8
VERDECKT
100
AcDbCircle
 10
172.1770397463657
 20
106.8006560249865
 30
0.0
 40
24.4
100
AcDbArc
 50
244.4496777090927
 51
270.0602170416274
  0
LINE
  5
CBC
330
1E
100
AcDbEntity
  8
VERDECKT
100
AcDbLine
 10
161.6532303939162
 20
68.80066950074933
 30
0.0
 11
159.6532303939162
 21
68.80066950074933
 31
0.0
  0
LINE
  5
CBD
330
1E
100
AcDbEntity
  8
VERDECKT
100
AcDbLine
 10
159.6532303939162
 20
73.80066950074928
 30
0.0
 11
161.6532303939162
 21
73.80066950074928
 31
0.0
  0
ARC
  5
CBE
330
1E
100
AcDbEntity
  8
VERDECKT
100
AcDbCircle
 10
181.2810093116409
 20
106.8006695007493
 30
0.0
 40
23.40009324312573
100
AcDbArc
 50
269.8382525687428
 51
291.183154393037
  0
ARC
  5
CBF
330
1E
100
AcDbEntity
  8
VERDECKT
100
AcDbCircle
 10
181.2810093116409
 20
106.8006695007493
 30
0.0
 40
24.40009324312573
100
AcDbArc
 50
269.8382525687428
 51
291.183154393037
  0
INSERT
  5
CC0
330
1E
100
AcDbEntity
  8
SCHRAFF
100
AcDbBlockReference
  2
*X2
 10
0.0
 20
247.6013390014986
 30
0.0
 41
-1.0
 50
180.0
1001
ACAD
1000
HATCH
1002
{
1070
    16
1000
_U,I
1040
0.1
1040
0.0
1070
     0
1002
}
  0
ARC
  5
CC1
330
1E
100
AcDbEntity
  8
SCHRAFF
100
AcDbCircle
 10
160.9519936795584
 20
62.39583326643776
 30
0.0
 40
2.641950433585531
100
AcDbArc
 50
119.4453124749632
 51
277.1005184189517
  0
LINE
  5
CC2
330
1E
100
AcDbEntity
  8
VERDECKT
100
AcDbLine
 10
159.6532303939162
 20
62.68147811575511
 30
0.0
 11
161.6532303939163
 21
62.68147811575511
 31
0.0
  0
LINE
  5
CC3
330
1E
100
AcDbEntity
  8
VERDECKT
100
AcDbLine
 10
160.9865637272495
 20
62.681478115755
 30
0.0
 11
159.6532303939162
 21
61.19076613075515
 31
0.0
  0
LINE
  5
CCB
330
1E
100
AcDbEntity
  8
VERDECKT
100
AcDbLine
 10
201.6532303939164
 20
162.8145294535205
 30
0.0
 11
201.6532303939164
 21
84.78680954797807
 31
0.0
  0
LINE
  5
CCC
330
1E
100
AcDbEntity
  8
VERDECKT
100
AcDbLine
 10
192.1512361302519
 20
86.68507543362006
 30
0.0
 11
192.1512361302519
 21
160.9162635678784
 31
0.0
  0
CIRCLE
  5
CCD
330
1E
100
AcDbEntity
  8
VERDECKT
100
AcDbCircle
 10
209.6532303939163
 20
123.8006695007493
 30
0.0
 40
34.9
  0
CIRCLE
  5
CCE
330
1E
100
AcDbEntity
  8
VERDECKT
100
AcDbCircle
 10
209.6532303939163
 20
123.8006695007493
 30
0.0
 40
36.5
  0
LINE
  5
CCF
330
1E
100
AcDbEntity
  8
MITTEL
100
AcDbLine
 10
209.6532303939163
 20
165.3006695007493
 30
0.0
 11
209.6532303939163
 21
82.30066950074927
 31
0.0
  0
LINE
  5
CD0
330
1E
100
AcDbEntity
  8
STEMPEL
100
AcDbLine
 10
159.6532303939162
 20
191.6829204946578
 30
0.0
 11
159.6532303939162
 21
55.91841850684073
 31
0.0
  0
DIMENSION
  5
CD2
330
1E
100
AcDbEntity
  8
BEM
100
AcDbDimension
  2
*D13
 10
149.0903425820013
 20
184.9198608857435
 30
0.0
 11
142.5903425820013
 21
123.8006695007493
 31
0.0
 70
    32
  1
122
 71
     5
 42
122.2383827699884
  3
Standard
100
AcDbAlignedDimension
 13
159.6532303939162
 23
62.68147811575511
 33
0.0
 14
159.6532303939162
 24
184.9198608857435
 34
0.0
 50
90.0
100
AcDbRotatedDimension
1001
ACAD
1000
DSTYLE
1002
{
1070
    40
1040
2.0
1070
    41
1040
3.5
1070
    42
1040
1.0
1070
    43
1040
7.0
1070
    44
1040
1.0
1070
    73
1070
     0
1070
    74
1070
     0
1070
    77
1070
     1
1070
    78
1070
     8
1070
    79
1070
     2
1070
   140
1040
3.5
1070
   141
1040
1.5
1070
   146
1040
0.5142857142857144
1070
   147
1040
1.5
1070
   172
1070
     1
1070
   178
1070
     1
1070
   179
1070
     2
1070
   271
1070
     2
1070
   272
1070
     2
1070
   284
1070
     8
1070
   285
1070
     8
1070
   286
1070
     8
1002
}
  0
LINE
  5
CD3
330
1E
100
AcDbEntity
  8
MITTEL
100
AcDbLine
 10
215.6532303939163
 20
123.8006695007492
 30
0.0
 11
172.1532303939161
 21
48.45645937150317
 31
0.0
  0
LINE
  5
CD4
330
1E
100
AcDbEntity
  8
MITTEL
100
AcDbLine
 10
215.6532303939163
 20
123.8006695007493
 30
0.0
 11
275.4318967311542
 21
64.02200316351127
 31
0.0
  0
LINE
  5
CD5
330
1E
100
AcDbEntity
  8
VERDECKT
100
AcDbLine
 10
161.6532303939162
 20
184.9198608857435
 30
0.0
 11
161.6532303939163
 21
62.68147811575511
 31
0.0
  0
TEXT
  5
F8B
330
1E
100
AcDbEntity
  8
TEXT
100
AcDbText
 10
612.2898419893276
 20
89.87820542202047
 30
0.0
 40
4.0
  1
DIN EN1123-2
 41
0.8
  7
GREEKS
 72
     1
 11
629.2803181798038
 21
89.87820542202047
 31
0.0
100
AcDbText
  0
TEXT
  5
F93
330
1E
100
AcDbEntity
  8
TEXT
 62
     1
100
AcDbText
 10
664.6057658946468
 20
129.0783465745482
 30
0.0
 40
7.0
  1
und innen beschichtet
 41
0.8
  7
GREEKS
100
AcDbText
  0
TEXT
  5
F94
330
1E
100
AcDbEntity
  8
TEXT
 62
     1
100
AcDbText
 10
616.6560484572491
 20
139.8004583895517
 30
0.0
 40
7.0
  1
Werkstoff: E195 EN10305 feuerverzinkt
 41
0.8
  7
GREEKS
100
AcDbText
  0
HATCH
  5
100E
330
1E
100
AcDbEntity
  8
SCHRAFF
100
AcDbHatch
 10
0.0
 20
0.0
 30
0.0
210
0.0
220
0.0
230
1.0
  2
_USER
 70
     0
 71
     1
 91
        2
 92
        7
 72
     1
 73
     1
 93
       13
 10
181.2149503457256
 20
518.2481311724575
 42
0.0
 10
172.2021528010349
 20
518.2481311724575
 42
0.1093332246020749
 10
161.6532303939162
 20
515.9135285007329
 42
0.0
 10
161.6532303939162
 20
514.1481311724576
 42
0.0
 10
162.3128854763025
 20
514.4557333891152
 42
-0.1095178116832404
 10
172.2021528010348
 20
516.6481311724576
 42
0.0
 10
181.2171714280009
 20
516.6481311724576
 42
-0.0934049271926057
 10
189.7388644001559
 20
515.0670820486912
 42
0.0926930603363463
 10
194.6532303939162
 20
514.1481311724576
 42
0.0
 10
201.6532303939163
 20
514.1481311724576
 42
0.0
 10
201.6532303939164
 20
515.7481311724575
 42
0.0
 10
194.6532303939162
 20
515.7481311724575
 42
-0.0926930603363637
 10
190.3170251053034
 20
516.5589701808994
 42
0.0933817694259072
 97
       13
330
A13
330
A1F
330
C4C
330
A1A
330
A1B
330
A1C
330
A22
330
A0F
330
A12
330
C45
330
A11
330
A10
330
A21
 92
        7
 72
     1
 73
     1
 93
       13
 10
190.3170251053037
 20
435.7372921640159
 42
-0.0926930603363567
 10
194.6532303939162
 20
436.5481311724576
 42
0.0
 10
201.6532303939163
 20
436.5481311724576
 42
0.0
 10
201.6532303939163
 20
438.1481311724576
 42
0.0
 10
194.6532303939162
 20
438.1481311724576
 42
0.0926930603363591
 10
189.7388644001552
 20
437.2291802962235
 42
-0.0934049271925983
 10
181.2171714280009
 20
435.6481311724576
 42
0.0
 10
172.2021528010349
 20
435.6481311724576
 42
-0.1095178116832415
 10
162.3128854763025
 20
437.8405289558
 42
0.0
 10
161.6532303939162
 20
438.1481311724576
 42
0.0
 10
161.6532303939162
 20
436.3827338441822
 42
0.109333224602075
 10
172.2021528010349
 20
434.0481311724576
 42
0.0
 10
181.2149503457256
 20
434.0481311724576
 42
0.0933817694259106
 97
       13
330
B47
330
B3A
330
C45
330
B39
330
B38
330
B46
330
B3F
330
B44
330
B3C
330
C62
330
B45
330
B3E
330
B40
 75
     0
 76
     0
 52
135.0
 41
2.0
 77
     0
 78
     1
 53
135.0
 43
0.0
 44
0.0
 45
-1.414213562373095
 46
-1.414213562373094
 79
     0
 47
0.1566731742683043
 98
        2
 10
181.5219965750987
 20
517.1757444123008
 10
172.8997684627827
 20
435.0789998380567
  0
HATCH
  5
1025
330
1E
100
AcDbEntity
  8
SCHRAFF
100
AcDbHatch
 10
0.0
 20
0.0
 30
0.0
210
0.0
220
0.0
230
1.0
  2
_USER
 70
     0
 71
     1
 91
        5
 92
        7
 72
     0
 73
     1
 93
        4
 10
297.6532303939162
 20
526.1481311724579
 10
299.6532303939164
 20
526.1481311724579
 10
299.6532303939163
 20
531.148131172458
 10
297.6532303939162
 20
531.148131172458
 97
        4
330
9DE
330
A25
330
9EA
330
A26
 92
        7
 72
     0
 73
     1
 93
        4
 10
161.6532303939162
 20
531.1481311724578
 10
159.6532303939163
 20
531.1481311724577
 10
159.6532303939162
 20
521.1481311724577
 10
161.6532303939162
 20
521.1481311724578
 97
        4
330
9DE
330
C4B
330
A14
330
C4C
 92
        7
 72
     0
 73
     1
 93
        4
 10
161.6532303939162
 20
521.1481311724578
 10
159.6532303939162
 20
521.1481311724578
 10
159.6532303939162
 20
514.1481311724576
 10
161.6532303939162
 20
514.1481311724576
 97
        4
330
A14
330
C4B
330
A19
330
C4C
 92
        7
 72
     0
 73
     1
 93
        5
 10
161.6532303939162
 20
438.1481311724575
 10
159.6532303939162
 20
438.1481311724575
 10
159.6532303939161
 20
331.6481311724578
 10
161.1532303939163
 20
330.1481311724578
 10
161.6532303939162
 20
330.1481311724578
 97
        5
330
B3B
330
C4B
330
C37
330
C3D
330
C4C
 92
        7
 72
     0
 73
     1
 93
        5
 10
299.6532303939163
 20
496.148131172458
 10
297.6532303939162
 20
496.148131172458
 10
297.6532303939162
 20
330.1481311724578
 10
298.1532303939161
 20
330.1481311724578
 10
299.6532303939162
 20
331.6481311724578
 97
        5
330
A04
330
C48
330
C3D
330
C34
330
C49
 75
     0
 76
     0
 52
45.0
 41
2.0
 77
     0
 78
     1
 53
45.0
 43
0.0
 44
0.0
 45
-1.414213562373094
 46
1.414213562373095
 79
     0
 47
0.3659549686756855
 98
        5
 10
298.415112845553
 20
529.0429198456068
 10
160.7329684628455
 20
525.7493241417336
 10
160.7329684628455
 20
516.6004498255533
 10
160.7329684628455
 20
432.4308066755443
 10
298.781287941388
 20
462.439115326779
  0
HATCH
  5
1030
330
1E
100
AcDbEntity
  8
SCHRAFF
100
AcDbHatch
 10
0.0
 20
0.0
 30
0.0
210
0.0
220
0.0
230
1.0
  2
_USER
 70
     0
 71
     1
 91
        2
 92
        7
 72
     0
 73
     1
 93
        5
 10
298.1532303939161
 20
330.1481311724578
 10
244.5532303939162
 20
330.1481311724578
 10
244.5532303939162
 20
328.1481311724578
 10
299.6532303939161
 20
328.1481311724578
 10
299.6532303939162
 20
328.6481311724577
 97
        5
330
C3D
330
C7F
330
C3E
330
C31
330
C32
 92
        7
 72
     0
 73
     1
 93
        5
 10
174.7532303939163
 20
330.1481311724578
 10
161.1532303939163
 20
330.1481311724578
 10
159.6532303939161
 20
328.6481311724577
 10
159.6532303939162
 20
328.1481311724578
 10
174.7532303939163
 20
328.1481311724578
 97
        5
330
C3D
330
C39
330
C38
330
C3E
330
C7E
 75
     0
 76
     0
 52
135.0
 41
2.0
 77
     0
 78
     1
 53
135.0
 43
0.0
 44
0.0
 45
-1.414213562373095
 46
-1.414213562373094
 79
     0
 47
0.2271229031446186
 98
        2
 10
250.1506207638665
 20
329.7015593075751
 10
170.6096095692116
 20
329.4744363595141
  0
HATCH
  5
103D
330
1E
100
AcDbEntity
  8
SCHRAFF
100
AcDbHatch
 10
0.0
 20
0.0
 30
0.0
210
0.0
220
0.0
230
1.0
  2
_USER
 70
     0
 71
     1
 91
        2
 92
        7
 72
     0
 73
     1
 93
        6
 10
246.1532303939163
 20
328.1481311724578
 10
244.5532303939162
 20
328.1481311724578
 10
244.5532303939162
 20
265.1481311724577
 10
243.9408097492348
 20
258.1481311724577
 10
245.5469214893042
 20
258.1481311724577
 10
246.1532303939163
 20
265.0782736638034
 97
        6
330
C3E
330
C7F
330
C68
330
C6D
330
C69
330
C80
 92
        7
 72
     0
 73
     1
 93
        6
 10
174.7532303939163
 20
328.1481311724578
 10
173.1532303939162
 20
328.1481311724578
 10
173.1532303939162
 20
265.0782736638041
 10
173.7595392985283
 20
258.1481311724578
 10
175.3656510385978
 20
258.1481311724579
 10
174.7532303939163
 20
265.1481311724576
 97
        6
330
C3E
330
C81
330
C6A
330
C6D
330
C6B
330
C7E
 75
     0
 76
     0
 52
45.0
 41
2.0
 77
     0
 78
     1
 53
45.0
 43
0.0
 44
0.0
 45
-1.414213562373094
 46
1.414213562373095
 79
     0
 47
0.1994799031377304
 98
        2
 10
245.9893598973165
 20
308.4017805141909
 10
174.5324364438982
 20
313.3887781162741
  0
HATCH
  5
1052
330
1E
100
AcDbEntity
  8
SCHRAFF
100
AcDbHatch
 10
0.0
 20
0.0
 30
0.0
210
0.0
220
0.0
230
1.0
  2
_USER
 70
     0
 71
     1
 91
        2
 92
        7
 72
     1
 73
     1
 93
        3
 10
246.1532303939162
 20
328.1481311724576
 42
0.0
 10
246.1532303939162
 20
324.2147264786603
 42
0.4142135623731078
 10
250.0866350877136
 20
328.1481311724578
 42
0.0
 97
        3
330
C3E
330
C80
330
C35
 92
        7
 72
     1
 73
     1
 93
        3
 10
169.2198257001189
 20
328.1481311724578
 42
0.4142135623731036
 10
173.1532303939162
 20
324.2147264786603
 42
0.0
 10
173.1532303939162
 20
328.1481311724578
 42
0.0
 97
        3
330
C3E
330
C36
330
C81
 75
     0
 76
     0
 52
0.0
 41
0.1
 77
     0
 78
     1
 53
0.0
 43
0.0
 44
0.0
 45
0.0
 46
0.1
 79
     0
 47
0.1692326987963504
 98
        2
 10
248.0388481842535
 20
327.2866182999166
 10
170.9914800549102
 20
327.1173854096355
  0
HATCH
  5
105D
330
1E
100
AcDbEntity
  8
SCHRAFF
100
AcDbHatch
 10
0.0
 20
0.0
 30
0.0
210
0.0
220
0.0
230
1.0
  2
_USER
 70
     0
 71
     1
 91
        2
 92
        7
 72
     1
 73
     1
 93
        3
 10
299.6532303939162
 20
331.6481311724577
 42
0.0
 10
298.1532303939161
 20
330.1481311724578
 42
0.0
 10
299.6532303939162
 20
328.6481311724577
 42
0.4142135623730951
 97
        3
330
C34
330
C32
330
C33
 92
        7
 72
     1
 73
     1
 93
        3
 10
159.6532303939161
 20
328.6481311724577
 42
0.0
 10
161.1532303939162
 20
330.1481311724578
 42
0.0
 10
159.6532303939162
 20
331.6481311724577
 42
0.4142135623730951
 97
        3
330
C37
330
C3A
330
C39
 75
     0
 76
     0
 52
0.0
 41
0.1
 77
     0
 78
     1
 53
0.0
 43
0.0
 44
0.0
 45
0.0
 46
0.1
 79
     0
 47
0.1692326987963504
 98
        2
 10
299.6859855871364
 20
330.1635746404363
 10
159.6460453430279
 20
329.825108859874
  0
HATCH
  5
1064
330
1E
100
AcDbEntity
  8
SCHRAFF
100
AcDbHatch
 10
0.0
 20
0.0
 30
0.0
210
0.0
220
0.0
230
1.0
  2
_USER
 70
     0
 71
     1
 91
        2
 92
        7
 72
     1
 73
     1
 93
        3
 10
609.3865800761157
 20
328.1481311724578
 42
0.0
 10
605.4531753823185
 20
328.1481311724578
 42
0.0
 10
605.4531753823185
 20
324.2147264786603
 42
0.4142135623731037
 97
        3
330
C2C
330
C7B
330
BF3
 92
        7
 72
     1
 73
     1
 93
        3
 10
532.4531753823186
 20
328.1481311724578
 42
0.0
 10
528.5197706885211
 20
328.1481311724578
 42
0.4142135623731036
 10
532.4531753823184
 20
324.2147264786603
 42
0.0
 97
        3
330
C2C
330
C10
330
C7A
 75
     0
 76
     0
 52
0.0
 41
0.1
 77
     0
 78
     1
 53
0.0
 43
0.0
 44
0.0
 45
0.0
 46
0.1
 79
     0
 47
0.2004368115022753
 98
        2
 10
606.5736875070386
 20
326.6130454379331
 10
530.7628285962298
 20
326.8134818168217
  0
HATCH
  5
106B
330
1E
100
AcDbEntity
  8
SCHRAFF
100
AcDbHatch
 10
0.0
 20
0.0
 30
0.0
210
0.0
220
0.0
230
1.0
  2
_USER
 70
     0
 71
     1
 91
        2
 92
        7
 72
     1
 73
     1
 93
        3
 10
652.9531753823184
 20
331.6481311724577
 42
0.0
 10
651.4531753823184
 20
330.1481311724577
 42
0.0
 10
652.9531753823184
 20
328.6481311724577
 42
0.4142135623730951
 97
        3
330
BD7
330
BD5
330
BD6
 92
        7
 72
     1
 73
     1
 93
        3
 10
486.4531753823184
 20
330.1481311724578
 42
0.0
 10
484.9531753823185
 20
331.6481311724577
 42
0.4142135623730951
 10
484.9531753823185
 20
328.6481311724577
 42
0.0
 97
        3
330
C22
330
C21
330
C1B
 75
     0
 76
     0
 52
0.0
 41
0.1
 77
     0
 78
     1
 53
0.0
 43
0.0
 44
0.0
 45
0.0
 46
0.1
 79
     0
 47
0.2004368115022753
 98
        2
 10
652.7019888216452
 20
329.8200344857978
 10
485.4367597417751
 20
330.0204708646863
  0
TEXT
  5
1074
330
1E
100
AcDbEntity
  8
TEXT
 62
     1
100
AcDbText
 10
200.4801083912732
 20
287.6837814294446
 30
0.0
 40
7.0
  1
DN70
 50
90.0
 41
0.8
  7
GREEKS
100
AcDbText
  0
DIMENSION
  5
1089
330
1E
100
AcDbEntity
  8
BEM
100
AcDbDimension
  2
*D14
 10
608.9531753823182
 20
555.9326580419483
 30
0.0
 11
568.9531753823184
 21
562.4326580419483
 31
0.0
 70
    32
 71
     5
 42
79.99999999999966
  3
Standard
100
AcDbAlignedDimension
 13
528.9531753823186
 23
531.148131172458
 33
0.0
 14
608.9531753823182
 24
531.148131172458
 34
0.0
100
AcDbRotatedDimension
1001
ACAD
1000
DSTYLE
1002
{
1070
    40
1040
2.0
1070
    41
1040
3.5
1070
    42
1040
1.0
1070
    43
1040
7.0
1070
    44
1040
1.0
1070
    73
1070
     0
1070
    74
1070
     0
1070
    77
1070
     1
1070
    78
1070
     8
1070
    79
1070
     2
1070
   140
1040
3.5
1070
   141
1040
1.5
1070
   146
1040
0.5142857142857144
1070
   147
1040
1.5
1070
   172
1070
     1
1070
   178
1070
     1
1070
   179
1070
     2
1070
   271
1070
     2
1070
   272
1070
     2
1070
   284
1070
     8
1070
   285
1070
     8
1070
   286
1070
     8
1002
}
  0
DIMENSION
  5
10A0
330
1E
100
AcDbEntity
  8
BEM
100
AcDbDimension
  2
*D15
 10
142.2944276896069
 20
476.1481311724576
 30
0.0
 11
135.7944276896068
 21
503.6481311724577
 31
0.0
 70
    32
 71
     5
 42
55.0
  3
Standard
100
AcDbAlignedDimension
 13
159.6532303939162
 23
531.1481311724577
 33
0.0
 14
154.6532303939162
 24
476.1481311724576
 34
0.0
 50
90.0
100
AcDbRotatedDimension
1001
ACAD
1000
DSTYLE
1002
{
1070
    40
1040
2.0
1070
    41
1040
3.5
1070
    42
1040
1.0
1070
    43
1040
7.0
1070
    44
1040
1.0
1070
    73
1070
     0
1070
    74
1070
     0
1070
    77
1070
     1
1070
    78
1070
     8
1070
    79
1070
     2
1070
   140
1040
3.5
1070
   141
1040
1.5
1070
   146
1040
0.5142857142857144
1070
   147
1040
1.5
1070
   172
1070
     1
1070
   178
1070
     1
1070
   179
1070
     2
1070
   271
1070
     2
1070
   272
1070
     2
1070
   284
1070
     8
1070
   285
1070
     8
1070
   286
1070
     8
1002
}
  0
TEXT
  5
10AD
330
1E
100
AcDbEntity
  8
TEXT
 62
     1
100
AcDbText
 10
329.1985110913362
 20
419.0682590736379
 30
0.0
 40
7.0
  1
Topf DN70
 41
0.8
  7
GREEKS
100
AcDbText
  0
LINE
  5
10AE
330
1E
100
AcDbEntity
  8
TEXT
 62
     2
100
AcDbLine
 10
328.9331339537121
 20
415.7324107927538
 30
0.0
 11
435.7132453603533
 21
415.7324107927538
 31
0.0
  0
TEXT
  5
10AF
330
1E
100
AcDbEntity
  8
TEXT
 62
     1
100
AcDbText
 10
329.1985110913362
 20
405.5824028662263
 30
0.0
 40
7.0
  1
EDV-Art.Nr. 43789.070X
 41
0.8
  7
GREEKS
100
AcDbText
  0
LINE
  5
10B0
330
1E
100
AcDbEntity
  8
TEXT
 62
     2
100
AcDbLine
 10
328.9331339537121
 20
415.7324107927538
 30
0.0
 11
298.976073578936
 21
436.307730035101
 31
0.0
  0
LINE
  5
10B1
330
1E
100
AcDbEntity
  8
TEXT
 62
     2
100
AcDbLine
 10
207.1274542657241
 20
532.8057935760648
 30
0.0
 11
186.5155697492484
 21
563.9683912413884
 31
0.0
  0
TEXT
  5
10B2
330
1E
100
AcDbEntity
  8
TEXT
 62
     1
100
AcDbText
 10
80.96590296409578
 20
553.8183833148609
 30
0.0
 40
7.0
  1
EDV-Art.Nr. 43798.000X
 41
0.8
  7
GREEKS
100
AcDbText
  0
LINE
  5
10B3
330
1E
100
AcDbEntity
  8
TEXT
 62
     2
100
AcDbLine
 10
80.70052582647168
 20
563.9683912413884
 30
0.0
 11
186.5155697492484
 21
563.9683912413884
 31
0.0
  0
TEXT
  5
10B4
330
1E
100
AcDbEntity
  8
TEXT
 62
     1
100
AcDbText
 10
80.96590296409578
 20
567.3042395222726
 30
0.0
 40
7.0
  1
Deckel
 41
0.8
  7
GREEKS
100
AcDbText
  0
TEXT
  5
10B8
330
1E
100
AcDbEntity
  8
TEXT
 62
     1
100
AcDbText
 10
167.5663458022019
 20
479.7765894956191
 30
0.0
 40
7.0
  1
DN70
 41
0.8
  7
GREEKS
100
AcDbText
  0
LINE
  5
1100
330
1E
100
AcDbEntity
  8
VERDECKT
100
AcDbLine
 10
169.7840850574391
 20
188.2483597232887
 30
0.0
 11
182.7744661142056
 21
195.7483597232887
 31
0.0
  0
LINE
  5
1101
330
1E
100
AcDbEntity
  8
VERDECKT
100
AcDbLine
 10
169.7840850574391
 20
188.2483597232887
 30
0.0
 11
168.7840850574391
 21
189.9804105308575
 31
0.0
  0
LINE
  5
1102
330
1E
100
AcDbEntity
  8
VERDECKT
100
AcDbLine
 10
182.7744661142056
 20
195.7483597232887
 30
0.0
 11
181.7744661142056
 21
197.4804105308575
 31
0.0
  0
LINE
  5
1103
330
1E
100
AcDbEntity
  8
VERDECKT
100
AcDbLine
 10
168.7840850574391
 20
189.9804105308575
 30
0.0
 11
181.7744661142056
 21
197.4804105308575
 31
0.0
  0
LINE
  5
1104
330
1E
100
AcDbEntity
  8
VERDECKT
100
AcDbLine
 10
271.8682194982469
 20
169.4090568872816
 30
0.0
 11
278.0688208992834
 21
175.6096582883182
 31
0.0
  0
LINE
  5
1105
330
1E
100
AcDbEntity
  8
VERDECKT
100
AcDbLine
 10
261.2616177804486
 20
180.0156586050797
 30
0.0
 11
267.4622191814851
 21
186.2162600061163
 31
0.0
  0
LINE
  5
1106
330
1E
100
AcDbEntity
  8
VERDECKT
100
AcDbLine
 10
267.4622191814851
 20
186.2162600061163
 30
0.0
 11
278.0688208992834
 21
175.6096582883181
 31
0.0
  0
LINE
  5
1107
330
1E
100
AcDbEntity
  8
VERDECKT
100
AcDbLine
 10
264.2541296048065
 20
183.0081704294377
 30
0.0
 11
274.8607313226048
 21
172.4015687116395
 31
0.0
  0
LINE
  5
1108
330
1E
100
AcDbEntity
  8
VERDECKT
100
AcDbLine
 10
263.0293847334149
 20
181.7834255580461
 30
0.0
 11
273.635986451213
 21
171.1768238402479
 31
0.0
  0
LINE
  5
1109
330
1E
100
AcDbEntity
  8
VERDECKT
100
AcDbLine
 10
262.4863626518402
 20
181.2404034764714
 30
0.0
 11
273.0929643696385
 21
170.6338017586732
 31
0.0
  0
LINE
  5
110A
330
1E
100
AcDbEntity
  8
VERDECKT
100
AcDbLine
 10
261.2616177804486
 20
180.0156586050798
 30
0.0
 11
271.8682194982469
 21
169.4090568872816
 31
0.0
  0
LINE
  5
110B
330
1E
100
AcDbEntity
  8
VERDECKT
100
AcDbLine
 10
261.2616177804487
 20
67.58568039641864
 30
0.0
 11
271.8682194982469
 21
78.19228211421688
 31
0.0
  0
LINE
  5
110C
330
1E
100
AcDbEntity
  8
VERDECKT
100
AcDbLine
 10
262.4863626518403
 20
66.360935525027
 30
0.0
 11
273.0929643696386
 21
76.96753724282524
 31
0.0
  0
LINE
  5
110D
330
1E
100
AcDbEntity
  8
VERDECKT
100
AcDbLine
 10
263.029384733415
 20
65.81791344345237
 30
0.0
 11
273.6359864512132
 21
76.42451516125055
 31
0.0
  0
LINE
  5
110E
330
1E
100
AcDbEntity
  8
VERDECKT
100
AcDbLine
 10
264.2541296048066
 20
64.59316857206073
 30
0.0
 11
274.8607313226049
 21
75.19977028985895
 31
0.0
  0
LINE
  5
110F
330
1E
100
AcDbEntity
  8
VERDECKT
100
AcDbLine
 10
267.4622191814853
 20
61.38507899538211
 30
0.0
 11
278.0688208992835
 21
71.99168071318036
 31
0.0
  0
LINE
  5
1110
330
1E
100
AcDbEntity
  8
VERDECKT
100
AcDbLine
 10
261.2616177804487
 20
67.58568039641872
 30
0.0
 11
267.4622191814853
 21
61.38507899538211
 31
0.0
  0
LINE
  5
1111
330
1E
100
AcDbEntity
  8
VERDECKT
100
AcDbLine
 10
271.8682194982469
 20
78.19228211421688
 30
0.0
 11
278.0688208992835
 21
71.99168071318033
 31
0.0
  0
LINE
  5
1112
330
1E
100
AcDbEntity
  8
VERDECKT
100
AcDbLine
 10
168.7840850574391
 20
57.62092847064099
 30
0.0
 11
181.7744661142056
 21
50.12092847064099
 31
0.0
  0
LINE
  5
1113
330
1E
100
AcDbEntity
  8
VERDECKT
100
AcDbLine
 10
182.7744661142056
 20
51.85297927820986
 30
0.0
 11
181.7744661142056
 21
50.12092847064099
 31
0.0
  0
LINE
  5
1114
330
1E
100
AcDbEntity
  8
VERDECKT
100
AcDbLine
 10
169.7840850574391
 20
59.3529792782098
 30
0.0
 11
168.7840850574391
 21
57.62092847064099
 31
0.0
  0
LINE
  5
1115
330
1E
100
AcDbEntity
  8
VERDECKT
100
AcDbLine
 10
169.7840850574391
 20
59.35297927820986
 30
0.0
 11
182.7744661142056
 21
51.85297927820986
 31
0.0
  0
LINE
  5
1130
330
1E
100
AcDbEntity
  8
STEMPEL
100
AcDbLine
 10
168.3510723555467
 20
517.9497339423666
 30
0.0
 11
168.3510723555467
 21
531.1481311724577
 31
0.0
  0
LINE
  5
1131
330
1E
100
AcDbEntity
  8
STEMPEL
100
AcDbLine
 10
169.3510723555468
 20
518.0850259118036
 30
0.0
 11
169.3510723555468
 21
531.1481311724577
 31
0.0
  0
LINE
  5
1132
330
1E
100
AcDbEntity
  8
STEMPEL
100
AcDbLine
 10
183.2074788160977
 20
518.1740600453143
 30
0.0
 11
183.2074788160977
 21
531.1481311724577
 31
0.0
  0
ARC
  5
1134
330
1E
100
AcDbEntity
  8
STEMPEL
100
AcDbCircle
 10
264.9918751424926
 20
518.1545947298018
 30
0.0
 40
1.0
100
AcDbArc
 50
338.3663755437286
 51
21.84336930889145
  0
ARC
  5
1135
330
1E
100
AcDbEntity
  8
STEMPEL
100
AcDbCircle
 10
275.5984768602908
 20
518.1545947298017
 30
0.0
 40
1.0
100
AcDbArc
 50
338.3663755437286
 51
21.84336930889145
  0
LINE
  5
1136
330
1E
100
AcDbEntity
  8
STEMPEL
100
AcDbLine
 10
263.0293847334148
 20
510.4939439749412
 30
0.0
 11
265.9214354316409
 21
517.7859245942626
 31
0.0
  0
LINE
  5
1137
330
1E
100
AcDbEntity
  8
STEMPEL
100
AcDbLine
 10
273.635986451213
 20
510.4939439749413
 30
0.0
 11
276.528037149439
 21
517.7859245942625
 31
0.0
  0
LINE
  5
1138
330
1E
100
AcDbEntity
  8
STEMPEL
100
AcDbLine
 10
261.2616177804485
 20
530.1481311724581
 30
0.0
 11
265.9200796012681
 21
518.5266652643906
 31
0.0
  0
LINE
  5
1139
330
1E
100
AcDbEntity
  8
STEMPEL
100
AcDbLine
 10
271.8682194982467
 20
530.1481311724581
 30
0.0
 11
276.5266813190663
 21
518.5266652643905
 31
0.0
  0
LINE
  5
113A
330
1E
100
AcDbEntity
  8
STEMPEL
100
AcDbLine
 10
274.8607313226046
 20
509.4939439749411
 30
0.0
 11
277.8575017667282
 21
517.0499636576206
 31
0.0
  0
LINE
  5
113B
330
1E
100
AcDbEntity
  8
STEMPEL
100
AcDbLine
 10
273.0929643696384
 20
531.1481311724578
 30
0.0
 11
277.8534342756099
 21
519.2721856680048
 31
0.0
  0
ARC
  5
113C
330
1E
100
AcDbEntity
  8
STEMPEL
100
AcDbCircle
 10
275.0688208992833
 20
518.1559740642383
 30
0.0
 40
3.0
100
AcDbArc
 50
338.3663755437286
 51
21.84336930889145
  0
LINE
  5
113D
330
1E
100
AcDbEntity
  8
STEMPEL
100
AcDbLine
 10
264.2541296048065
 20
509.4939439749411
 30
0.0
 11
263.0293847334148
 21
510.4939439749412
 31
0.0
  0
LINE
  5
113E
330
1E
100
AcDbEntity
  8
STEMPEL
100
AcDbLine
 10
273.635986451213
 20
510.4939439749413
 30
0.0
 11
274.8607313226046
 21
509.4939439749411
 31
0.0
  0
LINE
  5
113F
330
1E
100
AcDbEntity
  8
STEMPEL
100
AcDbLine
 10
261.2616177804485
 20
530.1481311724581
 30
0.0
 11
262.4863626518402
 21
531.1481311724578
 31
0.0
  0
LINE
  5
1140
330
1E
100
AcDbEntity
  8
STEMPEL
100
AcDbLine
 10
271.8682194982467
 20
530.1481311724581
 30
0.0
 11
261.2616177804485
 21
530.1481311724581
 31
0.0
  0
LINE
  5
1141
330
1E
100
AcDbEntity
  8
STEMPEL
100
AcDbLine
 10
273.0929643696383
 20
531.1481311724578
 30
0.0
 11
271.8682194982467
 21
530.1481311724581
 31
0.0
  0
LINE
  5
1142
330
1E
100
AcDbEntity
  8
HILF
100
AcDbLine
 10
276.5984759090086
 20
518.1559740642383
 30
0.0
 11
265.9918741912104
 21
518.1559740642383
 31
0.0
  0
LINE
  5
1143
330
1E
100
AcDbEntity
  8
STEMPEL
100
AcDbLine
 10
273.635986451213
 20
510.4939439749413
 30
0.0
 11
263.0293847334148
 21
510.4939439749412
 31
0.0
  0
LINE
  5
1144
330
1E
100
AcDbEntity
  8
STEMPEL
100
AcDbLine
 10
274.8607313226047
 20
509.4939439749411
 30
0.0
 11
264.2541296048065
 21
509.4939439749411
 31
0.0
  0
ARC
  5
1176
330
1E
100
AcDbEntity
  8
VERDECKT
100
AcDbCircle
 10
509.0087233034205
 20
517.7948108142537
 30
0.0
 40
1.0
100
AcDbArc
 50
158.756343465414
 51
202.6410490731965
  0
ARC
  5
1177
330
1E
100
AcDbEntity
  8
VERDECKT
100
AcDbCircle
 10
519.6153250212188
 20
517.7948108142537
 30
0.0
 40
1.0
100
AcDbArc
 50
158.756343465414
 51
202.6410490731965
  0
LINE
  5
1178
330
1E
100
AcDbEntity
  8
VERDECKT
100
AcDbLine
 10
523.3447879957862
 20
530.1481311724579
 30
0.0
 11
521.5506947029149
 21
525.5331153896579
 31
0.0
  0
LINE
  5
1179
330
1E
100
AcDbEntity
  8
VERDECKT
100
AcDbLine
 10
521.57702104282
 20
510.4939439749413
 30
0.0
 11
518.6923903661294
 21
517.4098541641813
 31
0.0
  0
LINE
  5
117A
330
1E
100
AcDbEntity
  8
VERDECKT
100
AcDbLine
 10
510.9704193250216
 20
510.4939439749413
 30
0.0
 11
508.0857886483311
 21
517.4098541641813
 31
0.0
  0
LINE
  5
117B
330
1E
100
AcDbEntity
  8
VERDECKT
100
AcDbLine
 10
512.738186277988
 20
530.1481311724579
 30
0.0
 11
508.0766753127554
 21
518.1571456636639
 31
0.0
  0
LINE
  5
117C
330
1E
100
AcDbEntity
  8
VERDECKT
100
AcDbLine
 10
509.7456744536301
 20
509.4939439749411
 30
0.0
 11
506.7687809116832
 21
516.6310546440452
 31
0.0
  0
LINE
  5
117D
330
1E
100
AcDbEntity
  8
VERDECKT
100
AcDbLine
 10
511.5134414065964
 20
531.1481311724578
 30
0.0
 11
506.741440904956
 21
518.872929142493
 31
0.0
  0
ARC
  5
117E
330
1E
100
AcDbEntity
  8
VERDECKT
100
AcDbCircle
 10
509.5375848769514
 20
517.7859245942625
 30
0.0
 40
3.0
100
AcDbArc
 50
158.756343465414
 51
202.6410490732025
  0
LINE
  5
117F
330
1E
100
AcDbEntity
  8
VERDECKT
100
AcDbLine
 10
508.0087627866529
 20
517.7859245942625
 30
0.0
 11
518.6153645044512
 21
517.7859245942625
 31
0.0
  0
LINE
  5
1180
330
1E
100
AcDbEntity
  8
VERDECKT
100
AcDbLine
 10
510.9704193250216
 20
510.4939439749413
 30
0.0
 11
509.7456744536301
 21
509.4939439749411
 31
0.0
  0
LINE
  5
1181
330
1E
100
AcDbEntity
  8
VERDECKT
100
AcDbLine
 10
521.57702104282
 20
510.4939439749413
 30
0.0
 11
520.3522761714282
 21
509.493943974941
 31
0.0
  0
LINE
  5
1182
330
1E
100
AcDbEntity
  8
VERDECKT
100
AcDbLine
 10
509.7456744536301
 20
509.4939439749411
 30
0.0
 11
520.3522761714282
 21
509.493943974941
 31
0.0
  0
LINE
  5
1183
330
1E
100
AcDbEntity
  8
VERDECKT
100
AcDbLine
 10
510.9704193250216
 20
510.4939439749413
 30
0.0
 11
521.57702104282
 21
510.4939439749413
 31
0.0
  0
LINE
  5
1184
330
1E
100
AcDbEntity
  8
VERDECKT
100
AcDbLine
 10
512.738186277988
 20
530.1481311724579
 30
0.0
 11
511.5134414065964
 21
531.1481311724578
 31
0.0
  0
LINE
  5
1185
330
1E
100
AcDbEntity
  8
VERDECKT
100
AcDbLine
 10
523.3447879957862
 20
530.1481311724579
 30
0.0
 11
522.1200431243945
 21
531.1481311724578
 31
0.0
  0
LINE
  5
1186
330
1E
100
AcDbEntity
  8
VERDECKT
100
AcDbLine
 10
512.738186277988
 20
530.1481311724579
 30
0.0
 11
523.3447879957862
 21
530.1481311724579
 31
0.0
  0
LINE
  5
1187
330
1E
100
AcDbEntity
  8
VERDECKT
100
AcDbLine
 10
495.0234343522103
 20
511.1481311724579
 30
0.0
 11
504.7554851597791
 21
511.1481311724578
 31
0.0
  0
LINE
  5
1188
330
1E
100
AcDbEntity
  8
VERDECKT
100
AcDbLine
 10
504.7554851597791
 20
511.1481311724578
 30
0.0
 11
504.7554851597791
 21
531.1481311724578
 31
0.0
  0
LINE
  5
1189
330
1E
100
AcDbEntity
  8
VERDECKT
100
AcDbLine
 10
503.0234343522102
 20
511.1481311724578
 30
0.0
 11
503.0234343522103
 21
531.148131172458
 31
0.0
  0
LINE
  5
118A
330
1E
100
AcDbEntity
  8
VERDECKT
100
AcDbLine
 10
495.0234343522103
 20
511.1481311724579
 30
0.0
 11
495.0234343522103
 21
531.1481311724578
 31
0.0
  0
LINE
  5
118B
330
1E
100
AcDbEntity
  8
STEMPEL
100
AcDbLine
 10
623.7163445658307
 20
531.1481311724578
 30
0.0
 11
629.4898472577269
 21
531.1481311724578
 31
0.0
  0
POINT
  5
118C
330
1E
100
AcDbEntity
  8
DEFPOINTS
  6
ByBlock
 62
     0
100
AcDbPoint
 10
608.9531753823185
 20
531.148131172458
 30
0.0
  0
LINE
  5
118D
330
1E
100
AcDbEntity
  8
VERDECKT
100
AcDbLine
 10
642.8829164124266
 20
511.1481311724579
 30
0.0
 11
642.8829164124266
 21
531.1481311724578
 31
0.0
  0
LINE
  5
118E
330
1E
100
AcDbEntity
  8
VERDECKT
100
AcDbLine
 10
634.8829164124268
 20
511.1481311724578
 30
0.0
 11
634.8829164124266
 21
531.148131172458
 31
0.0
  0
LINE
  5
118F
330
1E
100
AcDbEntity
  8
VERDECKT
100
AcDbLine
 10
633.1508656048579
 20
511.1481311724578
 30
0.0
 11
633.1508656048579
 21
531.1481311724578
 31
0.0
  0
LINE
  5
1190
330
1E
100
AcDbEntity
  8
VERDECKT
100
AcDbLine
 10
642.8829164124266
 20
511.1481311724579
 30
0.0
 11
633.1508656048579
 21
511.1481311724578
 31
0.0
  0
LINE
  5
1191
330
1E
100
AcDbEntity
  8
VERDECKT
100
AcDbLine
 10
625.1681644866489
 20
530.1481311724579
 30
0.0
 11
614.5615627688507
 21
530.1481311724579
 31
0.0
  0
LINE
  5
1192
330
1E
100
AcDbEntity
  8
VERDECKT
100
AcDbLine
 10
614.5615627688507
 20
530.1481311724579
 30
0.0
 11
615.7863076402423
 21
531.1481311724578
 31
0.0
  0
LINE
  5
1193
330
1E
100
AcDbEntity
  8
VERDECKT
100
AcDbLine
 10
625.1681644866489
 20
530.1481311724579
 30
0.0
 11
626.3929093580405
 21
531.1481311724578
 31
0.0
  0
LINE
  5
1194
330
1E
100
AcDbEntity
  8
VERDECKT
100
AcDbLine
 10
626.9359314396153
 20
510.4939439749413
 30
0.0
 11
616.3293297218169
 21
510.4939439749413
 31
0.0
  0
LINE
  5
1195
330
1E
100
AcDbEntity
  8
VERDECKT
100
AcDbLine
 10
628.1606763110069
 20
509.4939439749411
 30
0.0
 11
617.5540745932087
 21
509.493943974941
 31
0.0
  0
LINE
  5
1196
330
1E
100
AcDbEntity
  8
VERDECKT
100
AcDbLine
 10
616.3293297218169
 20
510.4939439749413
 30
0.0
 11
617.5540745932087
 21
509.493943974941
 31
0.0
  0
LINE
  5
1197
330
1E
100
AcDbEntity
  8
VERDECKT
100
AcDbLine
 10
626.9359314396153
 20
510.4939439749413
 30
0.0
 11
628.1606763110069
 21
509.4939439749411
 31
0.0
  0
LINE
  5
1198
330
1E
100
AcDbEntity
  8
VERDECKT
100
AcDbLine
 10
629.8975879779841
 20
517.7859245942625
 30
0.0
 11
619.2909862601857
 21
517.7859245942625
 31
0.0
  0
ARC
  5
1199
330
1E
100
AcDbEntity
  8
VERDECKT
100
AcDbCircle
 10
628.3687658876853
 20
517.7859245942625
 30
0.0
 40
3.0
100
AcDbArc
 50
337.3589509267975
 51
21.24365653458601
  0
LINE
  5
119A
330
1E
100
AcDbEntity
  8
VERDECKT
100
AcDbLine
 10
626.3929093580405
 20
531.1481311724578
 30
0.0
 11
631.1649098596809
 21
518.872929142493
 31
0.0
  0
LINE
  5
119B
330
1E
100
AcDbEntity
  8
VERDECKT
100
AcDbLine
 10
628.1606763110069
 20
509.4939439749411
 30
0.0
 11
631.1375698529537
 21
516.6310546440452
 31
0.0
  0
LINE
  5
119C
330
1E
100
AcDbEntity
  8
VERDECKT
100
AcDbLine
 10
625.1681644866489
 20
530.1481311724579
 30
0.0
 11
629.8296754518815
 21
518.1571456636639
 31
0.0
  0
LINE
  5
119D
330
1E
100
AcDbEntity
  8
VERDECKT
100
AcDbLine
 10
626.9359314396153
 20
510.4939439749413
 30
0.0
 11
629.8205621163058
 21
517.4098541641813
 31
0.0
  0
LINE
  5
119E
330
1E
100
AcDbEntity
  8
VERDECKT
100
AcDbLine
 10
616.3293297218169
 20
510.4939439749413
 30
0.0
 11
619.2139603985075
 21
517.4098541641813
 31
0.0
  0
LINE
  5
119F
330
1E
100
AcDbEntity
  8
VERDECKT
100
AcDbLine
 10
614.5615627688507
 20
530.1481311724579
 30
0.0
 11
616.355656061722
 21
525.5331153896578
 31
0.0
  0
ARC
  5
11A0
330
1E
100
AcDbEntity
  8
VERDECKT
100
AcDbCircle
 10
618.2910257434181
 20
517.7948108142537
 30
0.0
 40
1.0
100
AcDbArc
 50
337.3589509267975
 51
21.24365653458601
  0
ARC
  5
11A1
330
1E
100
AcDbEntity
  8
VERDECKT
100
AcDbCircle
 10
628.8976274612164
 20
517.7948108142537
 30
0.0
 40
1.0
100
AcDbArc
 50
337.3589509267975
 51
21.24365653458601
  0
LINE
  5
11A2
330
1E
100
AcDbEntity
  8
STEMPEL
100
AcDbLine
 10
616.355656061722
 20
525.5331153896578
 30
0.0
 11
618.6865657524286
 21
519.537225959807
 31
0.0
  0
LINE
  5
11A4
330
1E
100
AcDbEntity
  8
VERDECKT
100
AcDbLine
 10
618.6865657524286
 20
519.537225959807
 30
0.0
 11
619.2230737340833
 21
518.1571456636639
 31
0.0
  0
LINE
  5
11A5
330
1E
100
AcDbEntity
  8
STEMPEL
100
AcDbLine
 10
521.5506947029149
 20
525.5331153896579
 30
0.0
 11
519.219785012208
 21
519.5372259598067
 31
0.0
  0
LINE
  5
11A6
330
1E
100
AcDbEntity
  8
VERDECKT
100
AcDbLine
 10
519.219785012208
 20
519.5372259598067
 30
0.0
 11
518.6832770305536
 21
518.1571456636639
 31
0.0
  0
ELLIPSE
  5
1206
330
1E
100
AcDbEntity
  8
STEMPEL
100
AcDbEllipse
 10
329.779761056091
 20
123.8006695007493
 30
0.0
 11
0.0
 21
16.0
 31
0.0
210
0.0
220
0.0
230
1.0
 40
0.9993908270190878
 41
0.0
 42
3.141592653589793
  0
ELLIPSE
  5
1207
330
1E
100
AcDbEntity
  8
STEMPEL
100
AcDbEllipse
 10
330.4079519967362
 20
123.8006695007493
 30
0.0
 11
-0.0349206748598902
 21
14.99995935149383
 31
0.0
210
0.0
220
0.0
230
1.0
 40
0.9993935352760459
 41
0.0
 42
6.283185307179586
  0
LINE
  5
1208
330
1E
100
AcDbEntity
  8
VERDECKT
100
AcDbLine
 10
296.2696059016256
 20
108.8006695007493
 30
0.0
 11
330.407951996736
 21
108.8006695007493
 31
0.0
  0
LINE
  5
1209
330
1E
100
AcDbEntity
  8
VERDECKT
100
AcDbLine
 10
296.2696059016256
 20
138.8006695007492
 30
0.0
 11
330.407951996736
 21
138.8006695007492
 31
0.0
  0
ELLIPSE
  5
120A
330
1E
100
AcDbEntity
  8
STEMPEL
100
AcDbEllipse
 10
330.407951996736
 20
123.8006695007493
 30
0.0
 11
0.0
 21
16.0
 31
0.0
210
0.0
220
0.0
230
1.0
 40
0.9993908270190878
 41
0.0
 42
6.283185307179586
  0
LINE
  5
120B
330
1E
100
AcDbEntity
  8
MITTEL
100
AcDbLine
 10
330.4079519967361
 20
144.8006695007492
 30
0.0
 11
330.4079519967361
 21
102.8011554300419
 31
0.0
  0
INSERT
  5
120C
330
1E
100
AcDbEntity
  8
SCHRAFF
100
AcDbBlockReference
  2
*X16
 10
0.0
 20
0.0
 30
0.0
1001
ACAD
1000
HATCH
1002
{
1070
    16
1000
_U,I
1040
0.1
1040
0.0
1070
     0
1002
}
  0
LINE
  5
120D
330
1E
100
AcDbEntity
  8
VERDECKT
100
AcDbLine
 10
298.1153429062695
 20
107.8006695007493
 30
0.0
 11
302.186461005052
 21
107.8006695007493
 31
0.0
  0
ARC
  5
120E
330
1E
100
AcDbEntity
  8
SCHRAFF
100
AcDbCircle
 10
297.2428507814996
 20
108.8611080607309
 30
0.0
 40
4.067138779062189
100
AcDbArc
 50
273.2892529706408
 51
344.8864213383687
  0
ARC
  5
120F
330
1E
100
AcDbEntity
  8
SCHRAFF
100
AcDbCircle
 10
300.0282900285308
 20
109.1335799683716
 30
0.0
 40
1.784048529285653
100
AcDbArc
 50
32.77696697281929
 51
147.2230330271807
  0
ARC
  5
1210
330
1E
100
AcDbEntity
  8
SCHRAFF
100
AcDbCircle
 10
300.547081483106
 20
132.9078521673845
 30
0.0
 40
1.784048529285653
100
AcDbArc
 50
32.77696697281929
 51
147.2230330271807
  0
ARC
  5
1211
330
1E
100
AcDbEntity
  8
SCHRAFF
100
AcDbCircle
 10
301.136236877235
 20
121.1452760180062
 30
0.0
 40
1.784048529285653
100
AcDbArc
 50
32.77696697281929
 51
147.2230330271807
  0
ARC
  5
1212
330
1E
100
AcDbEntity
  8
SCHRAFF
100
AcDbCircle
 10
300.9639129928365
 20
117.1983963455603
 30
0.0
 40
1.784048529285653
100
AcDbArc
 50
32.77696697281929
 51
147.2230330271807
  0
ARC
  5
1213
330
1E
100
AcDbEntity
  8
SCHRAFF
100
AcDbCircle
 10
300.5573918610829
 20
112.8475542764431
 30
0.0
 40
1.784048529285653
100
AcDbArc
 50
32.77696697281929
 51
147.2230330271807
  0
ARC
  5
1214
330
1E
100
AcDbEntity
  8
SCHRAFF
100
AcDbCircle
 10
300.9194057995652
 20
129.0980533526958
 30
0.0
 40
1.784048529285653
100
AcDbArc
 50
32.77696697281929
 51
147.2230330271807
  0
ARC
  5
1215
330
1E
100
AcDbEntity
  8
SCHRAFF
100
AcDbCircle
 10
301.1225301657246
 20
125.1056746225425
 30
0.0
 40
1.784048529285653
100
AcDbArc
 50
32.77696697281929
 51
147.2230330271807
  0
POINT
  5
1216
330
1E
100
AcDbEntity
  8
STEMPEL
100
AcDbPoint
 10
348.9082838453797
 20
123.8006695007494
 30
0.0
  0
POINT
  5
1217
330
1E
100
AcDbEntity
  8
STEMPEL
100
AcDbPoint
 10
348.9082838453797
 20
123.8006695007493
 30
0.0
  0
LINE
  5
1218
330
1E
100
AcDbEntity
  8
VERDECKT
100
AcDbLine
 10
298.1153429062695
 20
139.8006695007492
 30
0.0
 11
302.186461005052
 21
139.8006695007492
 31
0.0
  0
ARC
  5
1219
330
1E
100
AcDbEntity
  8
SCHRAFF
100
AcDbCircle
 10
297.4391054356658
 20
138.9818270077843
 30
0.0
 40
3.819022746537453
100
AcDbArc
 50
12.38100509849528
 51
89.44332059249173
  0
ARC
  5
121A
330
1E
100
AcDbEntity
  8
SCHRAFF
100
AcDbCircle
 10
300.0774387401138
 20
136.2354233846491
 30
0.0
 40
1.784048529285653
100
AcDbArc
 50
32.77696697281929
 51
147.2230330271807
  0
DIMENSION
  5
127D
330
1E
100
AcDbEntity
  8
BEM
100
AcDbDimension
  2
*D17
 10
388.4152924081065
 20
542.069216171408
 30
0.0
 11
381.0467646149198
 21
517.3112922244971
 31
0.0
 70
    33
 71
     5
 42
49.99999999999989
  3
Standard
100
AcDbAlignedDimension
 13
344.6532303939163
 23
493.5669438365484
 33
0.0
 14
346.3982052290415
 24
543.536485187503
 34
0.0
1001
ACAD
1000
DSTYLE
1002
{
1070
    40
1040
2.0
1070
    41
1040
3.5
1070
    42
1040
1.0
1070
    43
1040
7.0
1070
    44
1040
1.0
1070
    73
1070
     0
1070
    74
1070
     0
1070
    77
1070
     1
1070
    78
1070
     8
1070
    79
1070
     2
1070
   140
1040
3.5
1070
   141
1040
1.5
1070
   146
1040
0.5142857142857144
1070
   147
1040
1.5
1070
   172
1070
     1
1070
   178
1070
     1
1070
   179
1070
     2
1070
   271
1070
     2
1070
   272
1070
     2
1070
   284
1070
     8
1070
   285
1070
     8
1070
   286
1070
     8
1002
}
  0
HATCH
  5
127E
330
1E
100
AcDbEntity
  8
SCHRAFF
100
AcDbHatch
 10
0.0
 20
0.0
 30
0.0
210
0.0
220
0.0
230
1.0
  2
_USER
 70
     0
 71
     1
 91
        2
 92
        7
 72
     0
 73
     1
 93
        4
 10
346.3982052290416
 20
543.5364851875032
 10
345.3988144020225
 20
543.5713846842056
 10
343.6887390635997
 20
494.60123416027
 10
344.6532303939163
 20
493.5669438365484
 97
        4
330
1281
330
1285
330
1289
330
1284
 92
        7
 72
     0
 73
     1
 93
        4
 10
313.7895078237856
 20
526.6642341956393
 10
314.7539991541022
 20
525.6299438719176
 10
315.4170895914496
 20
544.6183695852806
 10
314.4176987644306
 20
544.6532690819832
 97
        4
330
1281
330
1282
330
1289
330
1283
 75
     0
 76
     0
 52
45.0
 41
2.0
 77
     0
 78
     1
 53
45.0
 43
0.0
 44
20.31540500833273
 45
-1.414213562373094
 46
1.414213562373095
 79
     0
 47
0.1845610827493432
 98
        2
 10
345.3575501763314
 20
526.3559509091764
 10
314.7094049179334
 20
540.9362759466206
  0
DIMENSION
  5
127F
330
1E
100
AcDbEntity
  8
BEM
100
AcDbDimension
  2
*D18
 10
346.7510860226227
 20
553.6416689711737
 30
0.0
 11
330.9876795188835
 21
560.6961012940379
 31
0.0
 70
    33
  1
%%c<>
 71
     5
 42
31.99999999999972
  3
Standard
100
AcDbAlignedDimension
 13
314.4176987644306
 23
544.6532690819832
 33
0.0
 14
346.3982052290413
 24
543.5364851875032
 34
0.0
1001
ACAD
1000
DSTYLE
1002
{
1070
    40
1040
2.0
1070
    41
1040
3.5
1070
    42
1040
1.0
1070
    43
1040
7.0
1070
    44
1040
1.0
1070
    73
1070
     0
1070
    74
1070
     0
1070
    77
1070
     1
1070
    78
1070
     8
1070
    79
1070
     2
1070
   140
1040
3.5
1070
   141
1040
1.5
1070
   146
1040
0.5142857142857144
1070
   147
1040
1.5
1070
   172
1070
     1
1070
   178
1070
     1
1070
   179
1070
     2
1070
   271
1070
     2
1070
   272
1070
     2
1070
   284
1070
     8
1070
   285
1070
     8
1070
   286
1070
     8
1002
}
  0
LINE
  5
1280
330
1E
100
AcDbEntity
  8
MITTEL
100
AcDbLine
 10
330.5824494802486
 20
549.0918312698387
 30
0.0
 11
329.2213691088509
 21
510.1155890160938
 31
0.0
  0
LINE
  5
1281
102
{ACAD_REACTORS
330
127E
102
}
330
1E
100
AcDbEntity
  8
STEMPEL
100
AcDbLine
 10
314.4176987644306
 20
544.6532690819832
 30
0.0
 11
346.3982052290413
 21
543.5364851875032
 31
0.0
  0
LINE
  5
1282
102
{ACAD_REACTORS
330
127E
330
1286
102
}
330
1E
100
AcDbEntity
  8
STEMPEL
100
AcDbLine
 10
314.4176987644306
 20
544.6532690819832
 30
0.0
 11
313.7895078237856
 21
526.6642341956393
 31
0.0
  0
LINE
  5
1283
102
{ACAD_REACTORS
330
127E
102
}
330
1E
100
AcDbEntity
  8
STEMPEL
100
AcDbLine
 10
315.4170895914497
 20
544.6183695852807
 30
0.0
 11
314.7539991541022
 21
525.6299438719176
 31
0.0
  0
LINE
  5
1284
102
{ACAD_REACTORS
330
127E
330
128E
102
}
330
1E
100
AcDbEntity
  8
STEMPEL
100
AcDbLine
 10
346.3982052290415
 20
543.536485187503
 30
0.0
 11
344.6532303939163
 21
493.5669438365484
 31
0.0
  0
LINE
  5
1285
102
{ACAD_REACTORS
330
127E
102
}
330
1E
100
AcDbEntity
  8
STEMPEL
100
AcDbLine
 10
345.3988144020225
 20
543.5713846842057
 30
0.0
 11
343.6887390635997
 21
494.6012341602699
 31
0.0
  0
HATCH
  5
1286
330
1E
100
AcDbEntity
  8
SCHRAFF
100
AcDbHatch
 10
0.0
 20
0.0
 30
0.0
210
0.0
220
0.0
230
1.0
  2
_USER
 70
     0
 71
     1
 91
        1
 92
        7
 72
     1
 73
     1
 93
        3
 10
313.9291058105956
 20
530.6617975037156
 42
0.4142135623730992
 10
309.7919445157092
 20
526.8038321824493
 42
0.0
 10
313.7895078237856
 20
526.6642341956394
 42
0.0
 97
        3
330
1287
330
128D
330
1282
 75
     0
 76
     0
 52
0.0
 41
0.1
 77
     0
 78
     1
 53
0.0
 43
0.0
 44
20.31540500833273
 45
0.0
 46
0.1
 79
     0
 47
0.0238569266317855
 98
        1
 10
312.6358644502914
 20
528.8973133431206
  0
ARC
  5
1287
102
{ACAD_REACTORS
330
1286
102
}
330
1E
100
AcDbEntity
  8
SCHRAFF
100
AcDbCircle
 10
313.7895078237856
 20
526.6642341956393
 30
0.0
 40
4.0
100
AcDbArc
 50
87.99999999999952
 51
178.0000000000029
  0
HATCH
  5
1288
330
1E
100
AcDbEntity
  8
SCHRAFF
100
AcDbHatch
 10
0.0
 20
0.0
 30
0.0
210
0.0
220
0.0
230
1.0
  2
_USER
 70
     0
 71
     0
 91
        2
 92
        7
 72
     0
 73
     1
 93
        4
 10
314.7539991541021
 20
525.6299438719178
 10
313.7895078237856
 20
526.6642341956393
 10
299.6532303939164
 20
527.1578838812392
 10
299.6532303939164
 20
526.1572743369404
 97
        0
 92
        7
 72
     0
 73
     1
 93
        4
 10
299.6532303939164
 20
496.1389880079758
 10
299.6532303939164
 20
495.1383784636771
 10
344.6532303939163
 20
493.5669438365484
 10
343.6887390635998
 20
494.6012341602702
 97
        0
 75
     0
 76
     0
 52
135.0
 41
2.0
 77
     0
 78
     1
 53
135.0
 43
0.0
 44
20.31540500833273
 45
-1.414213562373095
 46
-1.414213562373094
 79
     0
 47
0.1845610827493432
 98
        2
 10
306.9550541092942
 20
526.3559509091764
 10
309.9090929095535
 20
495.16512733018
  0
LINE
  5
1289
102
{ACAD_REACTORS
330
127E
102
}
330
1E
100
AcDbEntity
  8
STEMPEL
100
AcDbLine
 10
313.7895078237855
 20
526.6642341956393
 30
0.0
 11
344.6532303939163
 21
493.5669438365484
 31
0.0
  0
HATCH
  5
128A
330
1E
100
AcDbEntity
  8
SCHRAFF
100
AcDbHatch
 10
0.0
 20
0.0
 30
0.0
210
0.0
220
0.0
230
1.0
  2
_USER
 70
     0
 71
     0
 91
        2
 92
        7
 72
     1
 73
     1
 93
        3
 10
303.5842389638513
 20
527.0206100370984
 42
0.424474816209595
 10
299.6532303939164
 20
531.0912885750365
 42
0.0
 10
299.6532303939163
 20
527.1578838812391
 42
0.0
 97
        0
 92
        7
 72
     1
 73
     1
 93
        3
 10
299.6532303939164
 20
491.2049737698797
 42
0.4040262258351464
 10
303.5842389638513
 20
495.0011046195363
 42
0.0
 10
299.6532303939164
 20
495.1383784636771
 42
0.0
 97
        0
 75
     0
 76
     0
 52
0.0
 41
0.1
 77
     0
 78
     1
 53
0.0
 43
0.0
 44
0.0000000000001137
 45
0.0
 46
0.1
 79
     0
 47
0.1072038684900372
 98
        2
 10
301.732605361344
 20
528.1117079346328
 10
300.767186881789
 20
493.6992645181645
  0
ARC
  5
128B
330
1E
100
AcDbEntity
  8
SCHRAFF
100
AcDbCircle
 10
299.6532303939164
 20
527.1578838812391
 30
0.0
 40
3.933404693797342
100
AcDbArc
 50
358.0000000000029
 51
90.0
  0
LINE
  5
128C
330
1E
100
AcDbEntity
  8
STEMPEL
100
AcDbLine
 10
299.6532303939164
 20
526.1572743369404
 30
0.0
 11
314.7539991541023
 21
525.6299438719176
 31
0.0
  0
LINE
  5
128D
102
{ACAD_REACTORS
330
1286
102
}
330
1E
100
AcDbEntity
  8
STEMPEL
100
AcDbLine
 10
299.6532303939164
 20
527.1578838812391
 30
0.0
 11
313.7895078237856
 21
526.6642341956393
 31
0.0
  0
HATCH
  5
128E
330
1E
100
AcDbEntity
  8
SCHRAFF
100
AcDbHatch
 10
0.0
 20
0.0
 30
0.0
210
0.0
220
0.0
230
1.0
  2
_USER
 70
     0
 71
     1
 91
        1
 92
        7
 72
     1
 73
     1
 93
        3
 10
344.7928283807264
 20
497.5645071446248
 42
0.0
 10
344.6532303939163
 20
493.5669438365484
 42
0.0
 10
340.65566708584
 20
493.7065418233584
 42
1.278475089836255
 97
        3
330
1284
330
1292
330
128F
 75
     0
 76
     0
 52
0.0
 41
0.1
 77
     0
 78
     1
 53
0.0
 43
0.0
 44
20.31540500833273
 45
0.0
 46
0.1
 79
     0
 47
0.033338599820807
 98
        1
 10
345.4600454199674
 20
495.0143328914588
  0
ARC
  5
128F
102
{ACAD_REACTORS
330
128E
102
}
330
1E
100
AcDbEntity
  8
SCHRAFF
100
AcDbCircle
 10
343.2029182686585
 20
495.1222131794443
 30
0.0
 40
2.914208979605371
100
AcDbArc
 50
209.0637441387384
 51
56.93625586126395
  0
DIMENSION
  5
1290
330
1E
100
AcDbEntity
  8
BEM
100
AcDbDimension
  2
*D19
 10
344.2185757428989
 20
476.6780715969791
 30
0.0
 11
321.674612046492
 21
483.7604188443371
 31
0.0
 70
    32
  1
45
 71
     5
 42
45.43742693758417
  3
Standard
100
AcDbAlignedDimension
 13
299.6532303939164
 23
511.1481311724581
 33
0.0
 14
344.6532303939163
 24
493.5669438365484
 34
0.0
 50
358.5257523106817
100
AcDbRotatedDimension
1001
ACAD
1000
DSTYLE
1002
{
1070
    40
1040
2.0
1070
    41
1040
3.5
1070
    42
1040
1.0
1070
    43
1040
7.0
1070
    44
1040
1.0
1070
    73
1070
     0
1070
    74
1070
     0
1070
    77
1070
     1
1070
    78
1070
     8
1070
    79
1070
     2
1070
   140
1040
3.5
1070
   141
1040
1.5
1070
   146
1040
0.5142857142857144
1070
   147
1040
1.5
1070
   172
1070
     1
1070
   178
1070
     1
1070
   179
1070
     2
1070
   271
1070
     2
1070
   272
1070
     2
1070
   284
1070
     8
1070
   285
1070
     8
1070
   286
1070
     8
1002
}
  0
LINE
  5
1291
330
1E
100
AcDbEntity
  8
STEMPEL
100
AcDbLine
 10
299.6532303939164
 20
496.1389880079758
 30
0.0
 11
343.6887390635998
 21
494.60123416027
 31
0.0
  0
LINE
  5
1292
102
{ACAD_REACTORS
330
128E
102
}
330
1E
100
AcDbEntity
  8
STEMPEL
100
AcDbLine
 10
299.6532303939164
 20
495.138378463677
 30
0.0
 11
344.6532303939163
 21
493.5669438365484
 31
0.0
  0
ARC
  5
1293
330
1E
100
AcDbEntity
  8
SCHRAFF
100
AcDbCircle
 10
299.6532303939164
 20
495.138378463677
 30
0.0
 40
3.933404693797342
100
AcDbArc
 50
270.0
 51
358.0000000000029
  0
DIMENSION
  5
1294
330
1E
100
AcDbEntity
  8
BEM
100
AcDbDimension
  2
*D20
 10
375.0825567465856
 20
511.1481311724581
 30
0.0
 11
368.5825567465855
 21
521.1481311724581
 31
0.0
 70
    32
 71
     5
 42
19.99999999999971
  3
Standard
100
AcDbAlignedDimension
 13
303.6532303939164
 23
531.1481311724578
 33
0.0
 14
301.6532303939164
 24
511.1481311724581
 34
0.0
 50
90.0
100
AcDbRotatedDimension
1001
ACAD
1000
DSTYLE
1002
{
1070
    40
1040
2.0
1070
    41
1040
3.5
1070
    42
1040
1.0
1070
    43
1040
7.0
1070
    44
1040
1.0
1070
    73
1070
     0
1070
    74
1070
     0
1070
    77
1070
     1
1070
    78
1070
     8
1070
    79
1070
     2
1070
   140
1040
3.5
1070
   141
1040
1.5
1070
   146
1040
0.5142857142857144
1070
   147
1040
1.5
1070
   172
1070
     1
1070
   178
1070
     1
1070
   179
1070
     2
1070
   271
1070
     2
1070
   272
1070
     2
1070
   284
1070
     8
1070
   285
1070
     8
1070
   286
1070
     8
1002
}
  0
DIMENSION
  5
1295
330
1E
100
AcDbEntity
  8
BEM
100
AcDbDimension
  2
*D21
 10
292.6532303939161
 20
511.1481311724581
 30
0.0
 11
361.4201304215114
 21
502.9166925012756
 31
0.0
 70
   162
 71
     5
 42
0.0349065850398986
  3
Standard
100
AcDb2LineAngularDimension
 13
299.6532303939164
 23
511.1481311724581
 33
0.0
 14
329.2213691088509
 24
510.1155890160938
 34
0.0
 15
299.6532303939164
 25
511.1481311724581
 35
0.0
 16
361.9619846425878
 26
510.4231031764288
 36
0.0
1001
ACAD
1000
DSTYLE
1002
{
1070
    40
1040
2.0
1070
    41
1040
3.5
1070
    42
1040
1.0
1070
    43
1040
7.0
1070
    44
1040
1.0
1070
    73
1070
     0
1070
    74
1070
     0
1070
    77
1070
     1
1070
    78
1070
     8
1070
    79
1070
     2
1070
   140
1040
3.5
1070
   141
1040
1.5
1070
   146
1040
0.5142857142857144
1070
   147
1040
1.5
1070
   172
1070
     1
1070
   178
1070
     1
1070
   179
1070
     2
1070
   271
1070
     2
1070
   272
1070
     2
1070
   284
1070
     8
1070
   285
1070
     8
1070
   286
1070
     8
1002
}
  0
LINE
  5
1296
330
1E
100
AcDbEntity
  8
MITTEL
100
AcDbLine
 10
299.6532303939164
 20
511.1481311724581
 30
0.0
 11
329.2213691088509
 21
510.1155890160938
 31
0.0
  0
ELLIPSE
  5
1327
330
1E
100
AcDbEntity
  8
VERDECKT
100
AcDbEllipse
 10
568.9531753823183
 20
544.0948771347433
 30
0.0
 11
15.99999999999988
 21
0.0
 31
0.0
210
0.0
220
0.0
230
-1.0
 40
0.0348994967024939
 41
0.0
 42
3.141592653589793
  0
ELLIPSE
  5
1328
330
1E
100
AcDbEntity
  8
STEMPEL
100
AcDbEllipse
 10
568.9531753823183
 20
544.0948771347432
 30
0.0
 11
15.99999999999988
 21
0.0
 31
0.0
210
0.0
220
0.0
230
1.0
 40
0.0348994967024939
 41
0.0
 42
3.141592653589793
  0
LINE
  5
1329
330
1E
100
AcDbEntity
  8
STEMPEL
100
AcDbLine
 10
584.9531753823182
 20
544.0948771347432
 30
0.0
 11
584.9531753823182
 21
533.1481311724578
 31
0.0
  0
LINE
  5
132A
330
1E
100
AcDbEntity
  8
STEMPEL
100
AcDbLine
 10
552.9531753823183
 20
544.0948771347432
 30
0.0
 11
552.9531753823184
 21
533.1481311724579
 31
0.0
  0
TEXT
  5
132C
330
1E
100
AcDbEntity
  8
TEXT
100
AcDbText
 10
654.3410940884992
 20
62.10021383107525
 30
0.0
 40
5.0
  1
mit Lüftungsrohr
 41
0.8
  7
GREEKS
100
AcDbText
  0
ARC
  5
13B8
330
1E
100
AcDbEntity
  8
VERDECKT
100
AcDbCircle
 10
162.6532303939163
 20
66.80066950074927
 30
0.0
 40
1.0
100
AcDbArc
 50
180.0
 51
0.0
  0
ARC
  5
13B9
330
1E
100
AcDbEntity
  8
VERDECKT
100
AcDbCircle
 10
162.6532303939163
 20
72.80066950074926
 30
0.0
 40
1.0
100
AcDbArc
 50
0.0
 51
180.0
  0
LINE
  5
13BA
330
1E
100
AcDbEntity
  8
VERDECKT
100
AcDbLine
 10
163.6532303939163
 20
72.80066950074926
 30
0.0
 11
163.6532303939163
 21
66.80066950074927
 31
0.0
  0
LINE
  5
13BB
330
1E
100
AcDbEntity
  8
MITTEL
100
AcDbLine
 10
154.6532303939162
 20
69.80066950074927
 30
0.0
 11
176.6532303939162
 21
69.80066950074929
 31
0.0
  0
ARC
  5
13BE
330
1E
100
AcDbEntity
  8
STEMPEL
100
AcDbCircle
 10
215.6532303939163
 20
123.8006695007493
 30
0.0
 40
88.0
100
AcDbArc
 50
230.4788036413578
 51
129.5211963586422
  0
LINE
  5
13D4
330
1E
100
AcDbEntity
  8
MITTEL
100
AcDbLine
 10
622.9531753823184
 20
524.6481311724578
 30
0.0
 11
622.9531753823184
 21
507.6481311724578
 31
0.0
  0
LINE
  5
13D5
330
1E
100
AcDbEntity
  8
MITTEL
100
AcDbLine
 10
614.4531753823184
 20
516.1481311724579
 30
0.0
 11
631.4531753823185
 21
516.1481311724579
 31
0.0
  0
LINE
  5
1435
102
{ACAD_REACTORS
330
144E
102
}
330
1E
100
AcDbEntity
  8
STEMPEL
100
AcDbLine
 10
303.6532303939164
 20
531.1481311724578
 30
0.0
 11
303.6532303939164
 21
533.1481311724578
 31
0.0
  0
HATCH
  5
144E
330
1E
100
AcDbEntity
  8
SCHRAFF
100
AcDbHatch
 10
0.0
 20
0.0
 30
0.0
210
0.0
220
0.0
230
1.0
  2
_USER
 70
     0
 71
     1
 91
        2
 92
        7
 72
     0
 73
     1
 93
        4
 10
303.6532303939164
 20
531.1481311724578
 10
303.6532303939164
 20
533.1481311724578
 10
215.6532303939162
 20
533.1481311724578
 10
215.6532303939163
 20
531.1481311724578
 97
        4
330
9DF
330
C51
330
9DE
330
1435
 92
        7
 72
     0
 73
     1
 93
        4
 10
159.6532303939162
 20
533.1481311724577
 10
159.6532303939162
 20
531.1481311724578
 10
215.6532303939163
 20
531.148131172458
 10
215.6532303939163
 20
533.1481311724579
 97
        4
330
9DF
330
C4B
330
9DE
330
C51
 75
     0
 76
     0
 52
135.0
 41
2.0
 77
     0
 78
     1
 53
135.0
 43
0.0
 44
0.0
 45
-1.414213562373095
 46
-1.414213562373094
 79
     0
 47
0.1766733698423772
 98
        2
 10
296.3766625781673
 20
531.6929381354971
 10
212.4240168346241
 20
532.9296518903088
  0
LINE
  5
144F
330
1E
100
AcDbEntity
  8
STEMPEL
100
AcDbLine
 10
302.186461005052
 20
139.8006695007492
 30
0.0
 11
330.407951996736
 21
139.8006695007492
 31
0.0
  0
LINE
  5
1450
330
1E
100
AcDbEntity
  8
STEMPEL
100
AcDbLine
 10
302.186461005052
 20
107.8006695007493
 30
0.0
 11
330.407951996736
 21
107.8006695007493
 31
0.0
  0
LINE
  5
1464
330
1E
100
AcDbEntity
  8
STEMPEL
100
AcDbLine
 10
652.9531753823187
 20
531.1481311724578
 30
0.0
 11
652.9531753823182
 21
331.6481311724577
 31
0.0
  0
CIRCLE
  5
1479
330
1E
100
AcDbEntity
  8
STEMPEL
100
AcDbCircle
 10
622.9531753823184
 20
516.1481311724579
 30
0.0
 40
4.599999999999999
  0
ARC
  5
147E
330
1E
100
AcDbEntity
  8
STEMPEL
100
AcDbCircle
 10
169.7332303939162
 20
69.80066950074927
 30
0.0
 40
11.07999999999998
100
AcDbArc
 50
155.4704525442152
 51
204.5295474557848
  0
LINE
  5
1484
330
1E
100
AcDbEntity
  8
VERDECKT
100
AcDbLine
 10
159.6532303939162
 20
74.40066950074925
 30
0.0
 11
161.6532303939163
 21
72.40066950074917
 31
0.0
  0
LINE
  5
1485
330
1E
100
AcDbEntity
  8
VERDECKT
100
AcDbLine
 10
159.6532303939162
 20
65.20066950074928
 30
0.0
 11
161.6532303939163
 21
67.20066950074938
 31
0.0
  0
LINE
  5
149A
330
1E
100
AcDbEntity
  8
VERDECKT
100
AcDbLine
 10
167.6532303939163
 20
72.30066950074929
 30
0.0
 11
170.6532303939163
 21
72.30066950074929
 31
0.0
  0
LINE
  5
149B
330
1E
100
AcDbEntity
  8
VERDECKT
100
AcDbLine
 10
167.6532303939163
 20
67.30066950074927
 30
0.0
 11
170.6532303939164
 21
67.30066950074927
 31
0.0
  0
LINE
  5
149C
330
1E
100
AcDbEntity
  8
VERDECKT
100
AcDbLine
 10
171.6532303939164
 20
71.3006695007493
 30
0.0
 11
171.6532303939164
 21
68.30066950074928
 31
0.0
  0
LINE
  5
149D
330
1E
100
AcDbEntity
  8
VERDECKT
100
AcDbLine
 10
170.6532303939163
 20
72.30066950074929
 30
0.0
 11
170.6532303939164
 21
67.30066950074929
 31
0.0
  0
LINE
  5
149E
330
1E
100
AcDbEntity
  8
VERDECKT
100
AcDbLine
 10
167.6532303939163
 20
71.3006695007493
 30
0.0
 11
171.6532303939164
 21
71.3006695007493
 31
0.0
  0
LINE
  5
149F
330
1E
100
AcDbEntity
  8
VERDECKT
100
AcDbLine
 10
167.6532303939163
 20
68.30066950074929
 30
0.0
 11
171.6532303939164
 21
68.30066950074928
 31
0.0
  0
LINE
  5
14A0
330
1E
100
AcDbEntity
  8
VERDECKT
100
AcDbLine
 10
171.6532303939164
 20
71.3006695007493
 30
0.0
 11
170.6532303939163
 21
72.30066950074929
 31
0.0
  0
LINE
  5
14A2
330
1E
100
AcDbEntity
  8
VERDECKT
100
AcDbLine
 10
171.6532303939164
 20
68.30066950074928
 30
0.0
 11
170.6532303939164
 21
67.30066950074927
 31
0.0
  0
ARC
  5
14B7
330
1E
100
AcDbEntity
  8
VERDECKT
  6
Continuous
100
AcDbCircle
 10
161.059887377068
 20
69.80066950074927
 30
0.0
 40
6.593343016848384
100
AcDbArc
 50
340.5278273813863
 51
19.47217261861379
  0
ARC
  5
14B8
330
1E
100
AcDbEntity
  8
VERDECKT
  6
Continuous
100
AcDbCircle
 10
170.2465734107647
 20
69.80066950074927
 30
0.0
 40
6.593343016848384
100
AcDbArc
 50
160.5278273813862
 51
199.4721726186137
  0
LINE
  5
14B9
330
1E
100
AcDbEntity
  8
VERDECKT
  6
Continuous
100
AcDbLine
 10
167.6532303939163
 20
66.50416456098503
 30
0.0
 11
167.6532303939163
 21
73.09717444050775
 31
0.0
  0
LINE
  5
14BA
330
1E
100
AcDbEntity
  8
VERDECKT
  6
Continuous
100
AcDbLine
 10
163.6532303939163
 20
66.50416456098503
 30
0.0
 11
163.6532303939163
 21
73.09717444050775
 31
0.0
  0
LINE
  5
14BB
330
1E
100
AcDbEntity
  8
VERDECKT
  6
Continuous
100
AcDbLine
 10
164.0115083661016
 20
65.40490092049072
 30
0.0
 11
167.294952421731
 21
65.40490092049072
 31
0.0
  0
LINE
  5
14BC
330
1E
100
AcDbEntity
  8
VERDECKT
  6
Continuous
100
AcDbLine
 10
164.0303465177832
 20
67.60278521062
 30
0.0
 11
167.2761142700494
 21
67.60278521062
 31
0.0
  0
LINE
  5
14BD
330
1E
100
AcDbEntity
  8
VERDECKT
  6
Continuous
100
AcDbLine
 10
167.294952421731
 20
65.40490092049072
 30
0.0
 11
167.4358834574114
 21
65.64900063465239
 31
0.0
  0
ARC
  5
14BE
330
1E
100
AcDbEntity
  8
VERDECKT
  6
Continuous
100
AcDbCircle
 10
165.8634762302932
 20
66.50384306555539
 30
0.0
 40
1.789754192498356
100
AcDbArc
 50
328.5308054759223
 51
37.88063571717902
  0
LINE
  5
14BF
330
1E
100
AcDbEntity
  8
VERDECKT
  6
Continuous
100
AcDbLine
 10
164.0115083661016
 20
65.40490092049072
 30
0.0
 11
163.8705773304212
 21
65.64900063465239
 31
0.0
  0
ARC
  5
14C0
330
1E
100
AcDbEntity
  8
VERDECKT
  6
Continuous
100
AcDbCircle
 10
165.4429845575394
 20
66.50384306555539
 30
0.0
 40
1.789754192498356
100
AcDbArc
 50
142.119364282821
 51
211.4691945240776
  0
LINE
  5
14C1
330
1E
100
AcDbEntity
  8
VERDECKT
  6
Continuous
100
AcDbLine
 10
164.0115083661016
 20
74.19643808100778
 30
0.0
 11
167.294952421731
 21
74.19643808100778
 31
0.0
  0
LINE
  5
14C2
330
1E
100
AcDbEntity
  8
VERDECKT
  6
Continuous
100
AcDbLine
 10
164.0303465177832
 20
71.99855379087853
 30
0.0
 11
167.2761142700495
 21
71.9985537908785
 31
0.0
  0
LINE
  5
14C3
330
1E
100
AcDbEntity
  8
VERDECKT
  6
Continuous
100
AcDbLine
 10
167.294952421731
 20
74.19643808100778
 30
0.0
 11
167.4358834574114
 21
73.9523383668461
 31
0.0
  0
ARC
  5
14C4
330
1E
100
AcDbEntity
  8
VERDECKT
  6
Continuous
100
AcDbCircle
 10
165.8634762302932
 20
73.09749593594315
 30
0.0
 40
1.789754192498356
100
AcDbArc
 50
322.1193642828211
 51
31.46919452407765
  0
LINE
  5
14C5
330
1E
100
AcDbEntity
  8
VERDECKT
  6
Continuous
100
AcDbLine
 10
164.0115083661016
 20
74.19643808100778
 30
0.0
 11
163.8705773304212
 21
73.9523383668461
 31
0.0
  0
LINE
  5
14C6
330
1E
100
AcDbEntity
  8
VERDECKT
  6
Continuous
100
AcDbLine
 10
163.6532303939163
 20
73.09434364030437
 30
0.0
 11
163.6532303939163
 21
73.09717444050142
 31
0.0
  0
ARC
  5
14C7
330
1E
100
AcDbEntity
  8
VERDECKT
  6
Continuous
100
AcDbCircle
 10
165.4429845575394
 20
73.09749593594315
 30
0.0
 40
1.789754192498356
100
AcDbArc
 50
148.5308054759223
 51
217.8806357171789
  0
LINE
  5
14C8
330
1E
100
AcDbEntity
  8
STEMPEL
100
AcDbLine
 10
620.2743389097387
 20
512.4086345280983
 30
0.0
 11
626.6926720266781
 21
518.8269676450377
 31
0.0
  0
LINE
  5
14C9
330
1E
100
AcDbEntity
  8
STEMPEL
100
AcDbLine
 10
619.2136787379588
 20
513.469294699878
 30
0.0
 11
625.6320118548983
 21
519.8876278168175
 31
0.0
  0
LINE
  5
14CA
330
1E
100
AcDbEntity
  8
STEMPEL
100
AcDbLine
 10
484.9531753823184
 20
531.148131172458
 30
0.0
 11
484.9531753823185
 21
331.6481311724579
 31
0.0
  0
LINE
  5
14F6
330
1E
100
AcDbEntity
  8
STEMPEL
100
AcDbLine
 10
195.9137337495566
 20
51.12183302816942
 30
0.0
 11
202.3320668664961
 21
57.54016614510891
 31
0.0
  0
LINE
  5
14F7
330
1E
100
AcDbEntity
  8
STEMPEL
100
AcDbLine
 10
196.9743939213365
 20
50.06117285638964
 30
0.0
 11
203.3927270382759
 21
56.47950597332902
 31
0.0
  0
CIRCLE
  5
14F8
330
1E
100
AcDbEntity
  8
STEMPEL
100
AcDbCircle
 10
199.6532303939162
 20
53.80066950074928
 30
0.0
 40
4.599999999999999
  0
LINE
  5
14F9
330
1E
100
AcDbEntity
  8
MITTEL
100
AcDbLine
 10
191.1532303939162
 20
53.80066950074928
 30
0.0
 11
208.1532303939164
 21
53.80066950074928
 31
0.0
  0
LINE
  5
14FA
330
1E
100
AcDbEntity
  8
MITTEL
100
AcDbLine
 10
199.6532303939162
 20
62.30066950074917
 30
0.0
 11
199.6532303939162
 21
45.30066950074917
 31
0.0
  0
LINE
  5
14FC
330
1E
100
AcDbEntity
  8
VERDECKT
100
AcDbLine
 10
187.1891287787785
 20
67.38912676886918
 30
0.0
 11
196.1891287787785
 21
51.80066950074928
 31
0.0
  0
LINE
  5
14FD
330
1E
100
AcDbEntity
  8
VERDECKT
100
AcDbLine
 10
194.117332009054
 20
71.38912676886923
 30
0.0
 11
203.1173320090541
 21
55.80066950074933
 31
0.0
  0
LINE
  5
14FE
330
1E
100
AcDbEntity
  8
VERDECKT
100
AcDbLine
 10
192.3852812014851
 20
70.38912676886917
 30
0.0
 11
201.3852812014853
 21
54.80066950074934
 31
0.0
  0
LINE
  5
14FF
330
1E
100
AcDbEntity
  8
VERDECKT
100
AcDbLine
 10
188.9211795863474
 20
68.38912676886917
 30
0.0
 11
197.9211795863474
 21
52.80066950074928
 31
0.0
  0
ARC
  5
1500
330
1E
100
AcDbEntity
  8
VERDECKT
100
AcDbCircle
 10
190.6532303939162
 20
69.38912676886918
 30
0.0
 40
2.0
100
AcDbArc
 50
30.0
 51
150.0000000000042
  0
ARC
  5
1501
330
1E
100
AcDbEntity
  8
VERDECKT
100
AcDbCircle
 10
190.6532303939162
 20
69.38912676886918
 30
0.0
 40
4.0
100
AcDbArc
 50
30.0
 51
165.522487814072
  0
ARC
  5
1502
330
1E
100
AcDbEntity
  8
VERDECKT
100
AcDbCircle
 10
199.6532303939162
 20
53.80066950074928
 30
0.0
 40
4.0
100
AcDbArc
 50
210.0
 51
30.0
  0
ARC
  5
1503
330
1E
100
AcDbEntity
  8
VERDECKT
100
AcDbCircle
 10
199.6532303939162
 20
53.80066950074928
 30
0.0
 40
2.0
100
AcDbArc
 50
210.0
 51
30.0
  0
ARC
  5
1506
330
1E
100
AcDbEntity
  8
VERDECKT
  6
Continuous
100
AcDbCircle
 10
642.2500018175123
 20
527.3583770088347
 30
0.0
 40
1.789754192498356
100
AcDbArc
 50
58.53080547592234
 51
127.8806357171789
  0
LINE
  5
1507
330
1E
100
AcDbEntity
  8
VERDECKT
  6
Continuous
100
AcDbLine
 10
642.2468495218736
 20
529.1481311724577
 30
0.0
 11
642.2496803220707
 21
529.1481311724577
 31
0.0
  0
LINE
  5
1508
330
1E
100
AcDbEntity
  8
VERDECKT
  6
Continuous
100
AcDbLine
 10
643.348943962577
 20
528.7898532002724
 30
0.0
 11
643.1048442484153
 21
528.9307842359528
 31
0.0
  0
ARC
  5
1509
330
1E
100
AcDbEntity
  8
VERDECKT
  6
Continuous
100
AcDbCircle
 10
642.2500018175123
 20
526.9378853360808
 30
0.0
 40
1.789754192498356
100
AcDbArc
 50
232.1193642828211
 51
301.4691945240776
  0
LINE
  5
150A
330
1E
100
AcDbEntity
  8
VERDECKT
  6
Continuous
100
AcDbLine
 10
643.348943962577
 20
525.506409144643
 30
0.0
 11
643.1048442484153
 21
525.3654781089627
 31
0.0
  0
LINE
  5
150B
330
1E
100
AcDbEntity
  8
VERDECKT
  6
Continuous
100
AcDbLine
 10
641.1510596724477
 20
528.7710150485907
 30
0.0
 11
641.1510596724477
 21
525.5252472963246
 31
0.0
  0
LINE
  5
150C
330
1E
100
AcDbEntity
  8
VERDECKT
  6
Continuous
100
AcDbLine
 10
643.348943962577
 20
528.7898532002724
 30
0.0
 11
643.348943962577
 21
525.506409144643
 31
0.0
  0
ARC
  5
150D
330
1E
100
AcDbEntity
  8
VERDECKT
  6
Continuous
100
AcDbCircle
 10
635.6563489471247
 20
527.3583770088347
 30
0.0
 40
1.789754192498356
100
AcDbArc
 50
52.11936428282101
 51
121.4691945240776
  0
LINE
  5
150E
330
1E
100
AcDbEntity
  8
VERDECKT
  6
Continuous
100
AcDbLine
 10
634.5574068020599
 20
528.7898532002724
 30
0.0
 11
634.8015065162216
 21
528.9307842359528
 31
0.0
  0
ARC
  5
150F
330
1E
100
AcDbEntity
  8
VERDECKT
  6
Continuous
100
AcDbCircle
 10
635.6563489471247
 20
526.9378853360808
 30
0.0
 40
1.789754192498356
100
AcDbArc
 50
238.5308054759224
 51
307.880635717179
  0
LINE
  5
1510
330
1E
100
AcDbEntity
  8
VERDECKT
  6
Continuous
100
AcDbLine
 10
634.5574068020599
 20
525.506409144643
 30
0.0
 11
634.8015065162216
 21
525.3654781089627
 31
0.0
  0
LINE
  5
1511
330
1E
100
AcDbEntity
  8
VERDECKT
  6
Continuous
100
AcDbLine
 10
636.7552910921893
 20
528.7710150485907
 30
0.0
 11
636.7552910921893
 21
525.5252472963246
 31
0.0
  0
LINE
  5
1512
330
1E
100
AcDbEntity
  8
VERDECKT
  6
Continuous
100
AcDbLine
 10
634.5574068020599
 20
528.7898532002724
 30
0.0
 11
634.5574068020599
 21
525.506409144643
 31
0.0
  0
LINE
  5
1513
330
1E
100
AcDbEntity
  8
VERDECKT
  6
Continuous
100
AcDbLine
 10
635.6566704425542
 20
529.1481311724577
 30
0.0
 11
642.2496803220769
 21
529.1481311724577
 31
0.0
  0
LINE
  5
1514
330
1E
100
AcDbEntity
  8
VERDECKT
  6
Continuous
100
AcDbLine
 10
635.6566704425542
 20
525.1481311724577
 30
0.0
 11
642.2496803220769
 21
525.1481311724577
 31
0.0
  0
ARC
  5
1515
330
1E
100
AcDbEntity
  8
VERDECKT
  6
Continuous
100
AcDbCircle
 10
638.9531753823185
 20
522.5547881556093
 30
0.0
 40
6.593343016848384
100
AcDbArc
 50
70.52782738138623
 51
109.4721726186137
  0
ARC
  5
1516
330
1E
100
AcDbEntity
  8
VERDECKT
  6
Continuous
100
AcDbCircle
 10
638.9531753823185
 20
531.7414741893061
 30
0.0
 40
6.593343016848384
100
AcDbArc
 50
250.5278273813862
 51
289.4721726186137
  0
LINE
  5
1517
330
1E
100
AcDbEntity
  8
VERDECKT
100
AcDbLine
 10
637.4531753823186
 20
521.1481311724577
 30
0.0
 11
636.4531753823186
 21
522.1481311724577
 31
0.0
  0
LINE
  5
1518
330
1E
100
AcDbEntity
  8
VERDECKT
100
AcDbLine
 10
640.4531753823185
 20
521.1481311724577
 30
0.0
 11
641.4531753823186
 21
522.1481311724577
 31
0.0
  0
LINE
  5
1519
330
1E
100
AcDbEntity
  8
VERDECKT
100
AcDbLine
 10
637.4531753823186
 20
525.1481311724577
 30
0.0
 11
637.4531753823186
 21
521.1481311724577
 31
0.0
  0
LINE
  5
151A
330
1E
100
AcDbEntity
  8
VERDECKT
100
AcDbLine
 10
640.4531753823185
 20
525.1481311724577
 30
0.0
 11
640.4531753823185
 21
521.1481311724577
 31
0.0
  0
LINE
  5
151B
330
1E
100
AcDbEntity
  8
VERDECKT
100
AcDbLine
 10
641.4531753823186
 20
522.1481311724577
 30
0.0
 11
636.4531753823186
 21
522.1481311724577
 31
0.0
  0
LINE
  5
151C
330
1E
100
AcDbEntity
  8
VERDECKT
100
AcDbLine
 10
640.4531753823185
 20
521.1481311724577
 30
0.0
 11
637.4531753823186
 21
521.1481311724577
 31
0.0
  0
LINE
  5
151D
330
1E
100
AcDbEntity
  8
VERDECKT
100
AcDbLine
 10
636.4531753823186
 20
525.1481311724577
 30
0.0
 11
636.4531753823186
 21
522.1481311724577
 31
0.0
  0
LINE
  5
151E
330
1E
100
AcDbEntity
  8
VERDECKT
100
AcDbLine
 10
641.4531753823186
 20
525.1481311724577
 30
0.0
 11
641.4531753823186
 21
522.1481311724577
 31
0.0
  0
LINE
  5
151F
330
1E
100
AcDbEntity
  8
VERDECKT
100
AcDbLine
 10
634.3531753823185
 20
533.1481311724578
 30
0.0
 11
636.3531753823187
 21
531.1481311724577
 31
0.0
  0
LINE
  5
1520
330
1E
100
AcDbEntity
  8
VERDECKT
100
AcDbLine
 10
643.5531753823185
 20
533.1481311724578
 30
0.0
 11
641.5531753823183
 21
531.1481311724577
 31
0.0
  0
ARC
  5
1521
330
1E
100
AcDbEntity
  8
STEMPEL
100
AcDbCircle
 10
638.9531753823185
 20
523.0681311724578
 30
0.0
 40
11.07999999999998
100
AcDbArc
 50
65.47045254421519
 51
114.5295474557848
  0
LINE
  5
1522
330
1E
100
AcDbEntity
  8
MITTEL
100
AcDbLine
 10
638.9531753823185
 20
538.1481311724578
 30
0.0
 11
638.9531753823185
 21
516.1481311724578
 31
0.0
  0
LINE
  5
1523
330
1E
100
AcDbEntity
  8
VERDECKT
100
AcDbLine
 10
641.9531753823185
 20
529.1481311724577
 30
0.0
 11
635.9531753823184
 21
529.1481311724577
 31
0.0
  0
ARC
  5
1524
330
1E
100
AcDbEntity
  8
VERDECKT
100
AcDbCircle
 10
641.9531753823185
 20
530.1481311724577
 30
0.0
 40
1.0
100
AcDbArc
 50
270.0
 51
89.99999999999998
  0
ARC
  5
1525
330
1E
100
AcDbEntity
  8
VERDECKT
100
AcDbCircle
 10
635.9531753823184
 20
530.1481311724577
 30
0.0
 40
1.0
100
AcDbArc
 50
89.99999999999998
 51
270.0
  0
ARC
  5
153D
330
1E
100
AcDbEntity
  8
VERDECKT
100
AcDbCircle
 10
189.6532303939162
 20
69.38912676886918
 30
0.0
 40
1.0
100
AcDbArc
 50
270.0
 51
90.0
  0
LINE
  5
153E
330
1E
100
AcDbEntity
  8
VERDECKT
100
AcDbLine
 10
165.6532303939162
 20
68.38912676886916
 30
0.0
 11
189.6532303939162
 21
68.38912676886916
 31
0.0
  0
LINE
  5
153F
330
1E
100
AcDbEntity
  8
VERDECKT
100
AcDbLine
 10
165.6532303939162
 20
70.38912676886905
 30
0.0
 11
189.6532303939162
 21
70.38912676886905
 31
0.0
  0
ARC
  5
1540
330
1E
100
AcDbEntity
  8
VERDECKT
100
AcDbCircle
 10
165.6532303939162
 20
69.38912676886918
 30
0.0
 40
1.0
100
AcDbArc
 50
90.0
 51
270.0
  0
ARC
  5
1545
330
1E
100
AcDbEntity
  8
VERDECKT
100
AcDbCircle
 10
190.6532303939162
 20
69.38912676886918
 30
0.0
 40
4.0
100
AcDbArc
 50
194.4775121859301
 51
210.0
  0
DIMENSION
  5
158E
330
1E
100
AcDbEntity
  8
BEM
100
AcDbDimension
  2
*D22
 10
303.6532303939162
 20
18.82526209436105
 30
0.0
 11
231.6532303939163
 21
25.32526209436105
 31
0.0
 70
    32
 71
     5
 42
144.0
  3
Standard
100
AcDbAlignedDimension
 13
159.6532303939162
 23
55.91841850684073
 33
0.0
 14
303.6532303939162
 24
123.8006695007493
 34
0.0
100
AcDbRotatedDimension
1001
ACAD
1000
DSTYLE
1002
{
1070
    40
1040
2.0
1070
    41
1040
3.5
1070
    42
1040
1.0
1070
    43
1040
7.0
1070
    44
1040
1.0
1070
    73
1070
     0
1070
    74
1070
     0
1070
    77
1070
     1
1070
    78
1070
     8
1070
    79
1070
     2
1070
   140
1040
3.5
1070
   141
1040
1.5
1070
   146
1040
0.5142857142857144
1070
   147
1040
1.5
1070
   172
1070
     1
1070
   178
1070
     1
1070
   179
1070
     2
1070
   271
1070
     2
1070
   272
1070
     2
1070
   284
1070
     8
1070
   285
1070
     8
1070
   286
1070
     8
1002
}
  0
DIMENSION
  5
15B6
330
1E
100
AcDbEntity
  8
BEM
100
AcDbDimension
  2
*D23
 10
652.9531753823184
 20
217.9274932348567
 30
0.0
 11
568.9531753823184
 21
224.4274932348567
 31
0.0
 70
    32
  1
%%c<>
 71
     5
 42
168.0
  3
Standard
100
AcDbAlignedDimension
 13
484.9531753823185
 23
328.1481311724578
 33
0.0
 14
652.9531753823184
 24
328.1481311724578
 34
0.0
100
AcDbRotatedDimension
1001
ACAD
1000
DSTYLE
1002
{
1070
    40
1040
2.0
1070
    41
1040
3.5
1070
    42
1040
1.0
1070
    43
1040
7.0
1070
    44
1040
1.0
1070
    73
1070
     0
1070
    74
1070
     0
1070
    77
1070
     1
1070
    78
1070
     8
1070
    79
1070
     2
1070
   140
1040
3.5
1070
   141
1040
1.5
1070
   146
1040
0.5142857142857144
1070
   147
1040
1.5
1070
   172
1070
     1
1070
   178
1070
     1
1070
   179
1070
     2
1070
   271
1070
     2
1070
   272
1070
     2
1070
   284
1070
     8
1070
   285
1070
     8
1070
   286
1070
     8
1002
}
  0
ENDSEC
  0
SECTION
  2
OBJECTS
  0
DICTIONARY
  5
C
330
0
100
AcDbDictionary
281
     1
  3
ACAD_COLOR
350
11A
  3
ACAD_GROUP
350
D
  3
ACAD_LAYOUT
350
19
  3
ACAD_MATERIAL
350
119
  3
ACAD_MLINESTYLE
350
16
  3
ACAD_PLOTSETTINGS
350
18
  3
ACAD_PLOTSTYLENAME
350
E
  3
AcDbVariableDictionary
350
125
  0
DICTIONARY
  5
DB
330
1E
100
AcDbDictionary
280
     1
281
     1
  3
ACAD_LAYOUTSELFREF
360
10F
  0
DICTIONARY
  5
DD
330
1A
100
AcDbDictionary
280
     1
281
     1
  3
ACAD_LAYOUTSELFREF
360
10E
  0
DICTIONARY
  5
11A
102
{ACAD_REACTORS
330
C
102
}
330
C
100
AcDbDictionary
281
     1
  0
DICTIONARY
  5
D
102
{ACAD_REACTORS
330
C
102
}
330
C
100
AcDbDictionary
281
     1
  0
DICTIONARY
  5
19
102
{ACAD_REACTORS
330
C
102
}
330
C
100
AcDbDictionary
281
     1
  3
Layout1
350
1D
  3
Model
350
21
  0
DICTIONARY
  5
119
102
{ACAD_REACTORS
330
C
102
}
330
C
100
AcDbDictionary
281
     1
  0
DICTIONARY
  5
16
102
{ACAD_REACTORS
330
C
102
}
330
C
100
AcDbDictionary
281
     1
  3
Standard
350
17
  0
DICTIONARY
  5
18
102
{ACAD_REACTORS
330
C
102
}
330
C
100
AcDbDictionary
281
     1
  0
ACDBDICTIONARYWDFLT
  5
E
102
{ACAD_REACTORS
330
C
102
}
330
C
100
AcDbDictionary
281
     1
  3
Normal
350
F
100
AcDbDictionaryWithDefault
340
F
  0
DICTIONARY
  5
125
102
{ACAD_REACTORS
330
C
102
}
330
C
100
AcDbDictionary
281
     1
  3
DIMASSOC
350
126
  3
PROJECTNAME
350
127
  0
XRECORD
  5
10F
102
{ACAD_REACTORS
330
DB
102
}
330
DB
100
AcDbXrecord
280
     1
340
1E
  0
XRECORD
  5
10E
102
{ACAD_REACTORS
330
DD
102
}
330
DD
100
AcDbXrecord
280
     1
340
1A
  0
LAYOUT
  5
1D
102
{ACAD_REACTORS
330
19
102
}
330
19
100
AcDbPlotSettings
  1

  2
\\NT_WORK01\HP LaserJet 5000 PCL 6
  4

  6

 40
0.0
 41
0.0
 42
0.0
 43
0.0
 44
0.0
 45
0.0
 46
0.0
 47
0.0
 48
0.0
 49
0.0
140
0.0
141
0.0
142
1.0
143
1.0
 70
   688
 72
     0
 73
     0
 74
     5
  7

 75
    16
147
1.0
 76
     0
 77
     2
 78
   300
148
0.0
149
0.0
100
AcDbLayout
  1
Layout1
 70
     0
 71
     1
 10
0.0
 20
0.0
 11
12.0
 21
9.0
 12
0.0
 22
0.0
 32
0.0
 14
1.000000000000000E+20
 24
1.000000000000000E+20
 34
1.000000000000000E+20
 15
-1.000000000000000E+20
 25
-1.000000000000000E+20
 35
-1.000000000000000E+20
146
0.0
 13
0.0
 23
0.0
 33
0.0
 16
1.0
 26
0.0
 36
0.0
 17
0.0
 27
1.0
 37
0.0
 76
     0
330
1A
  0
LAYOUT
  5
21
102
{ACAD_REACTORS
330
19
102
}
330
19
100
AcDbPlotSettings
  1

  2
none_device
  4
Letter_(8.50_x_11.00_Inches)
  6

 40
6.349999904632568
 41
6.349999904632568
 42
6.350006103515625
 43
6.350006103515625
 44
215.8999938964844
 45
279.3999938964844
 46
0.0
 47
0.0
 48
0.0
 49
0.0
140
0.0
141
0.0
142
1.0
143
1.0
 70
 11952
 72
     0
 73
     1
 74
     0
  7

 75
     0
147
1.0
 76
     0
 77
     2
 78
   300
148
-3124.2
149
0.0
100
AcDbLayout
  1
Model
 70
     1
 71
     0
 10
0.0
 20
0.0
 11
12.0
 21
9.0
 12
0.0
 22
0.0
 32
0.0
 14
0.0
 24
0.0
 34
0.0
 15
0.0
 25
0.0
 35
0.0
146
0.0
 13
0.0
 23
0.0
 33
0.0
 16
1.0
 26
0.0
 36
0.0
 17
0.0
 27
1.0
 37
0.0
 76
     0
330
1E
  0
MLINESTYLE
  5
17
102
{ACAD_REACTORS
330
16
102
}
330
16
100
AcDbMlineStyle
  2
STANDARD
 70
     0
  3

 62
   256
 51
90.0
 52
90.0
 71
     2
 49
0.5
 62
   256
  6
BYLAYER
 49
-0.5
 62
   256
  6
BYLAYER
  0
ACDBPLACEHOLDER
  5
F
102
{ACAD_REACTORS
330
E
102
}
330
E
  0
DICTIONARYVAR
  5
126
102
{ACAD_REACTORS
330
125
102
}
330
125
100
DictionaryVariables
280
     0
  1
1
  0
DICTIONARYVAR
  5
127
102
{ACAD_REACTORS
330
125
102
}
330
125
100
DictionaryVariables
280
     0
  1

  0
ENDSEC
  0
EOF
