  0
SECTION
  2
HEADER
  9
$ACADVER
  1
AC1018
  9
$ACADMAINTVER
 70
     2
  9
$DWGCODEPAGE
  3
ANSI_1252
  9
$INSBASE
 10
0.0
 20
0.0
 30
0.0
  9
$EXTMIN
 10
-0.0222774712503906
 20
-0.0182508087527822
 30
-0.0000000000000053
  9
$EXTMAX
 10
840.0341092028503
 20
594.0345740568131
 30
0.0000000000000099
  9
$LIMMIN
 10
0.0
 20
0.0
  9
$LIMMAX
 10
839.9999999999998
 20
594.0
  9
$ORTHOMODE
 70
     0
  9
$REGENMODE
 70
     1
  9
$FILLMODE
 70
     1
  9
$QTEXTMODE
 70
     0
  9
$MIRRTEXT
 70
     1
  9
$LTSCALE
 40
20.0
  9
$ATTMODE
 70
     1
  9
$TEXTSIZE
 40
3.5
  9
$TRACEWID
 40
0.5
  9
$TEXTSTYLE
  7
STANDARD
  9
$CLAYER
  8
BEM
  9
$CELTYPE
  6
ByLayer
  9
$CECOLOR
 62
   256
  9
$CELTSCALE
 40
1.0
  9
$DISPSILH
 70
     0
  9
$DIMSCALE
 40
2.0
  9
$DIMASZ
 40
3.5
  9
$DIMEXO
 40
1.0
  9
$DIMDLI
 40
7.0
  9
$DIMRND
 40
0.0
  9
$DIMDLE
 40
0.0
  9
$DIMEXE
 40
1.0
  9
$DIMTP
 40
0.0
  9
$DIMTM
 40
0.0
  9
$DIMTXT
 40
3.5
  9
$DIMCEN
 40
1.5
  9
$DIMTSZ
 40
0.0
  9
$DIMTOL
 70
     0
  9
$DIMLIM
 70
     0
  9
$DIMTIH
 70
     0
  9
$DIMTOH
 70
     0
  9
$DIMSE1
 70
     0
  9
$DIMSE2
 70
     0
  9
$DIMTAD
 70
     1
  9
$DIMZIN
 70
     8
  9
$DIMBLK
  1

  9
$DIMASO
 70
     1
  9
$DIMSHO
 70
     0
  9
$DIMPOST
  1

  9
$DIMAPOST
  1

  9
$DIMALT
 70
     0
  9
$DIMALTD
 70
     2
  9
$DIMALTF
 40
25.4
  9
$DIMLFAC
 40
1.0
  9
$DIMTOFL
 70
     1
  9
$DIMTVP
 40
0.0
  9
$DIMTIX
 70
     0
  9
$DIMSOXD
 70
     0
  9
$DIMSAH
 70
     0
  9
$DIMBLK1
  1

  9
$DIMBLK2
  1

  9
$DIMSTYLE
  2
Standard
  9
$DIMCLRD
 70
     0
  9
$DIMCLRE
 70
     0
  9
$DIMCLRT
 70
     1
  9
$DIMTFAC
 40
0.5142857142857144
  9
$DIMGAP
 40
1.5
  9
$DIMJUST
 70
     0
  9
$DIMSD1
 70
     0
  9
$DIMSD2
 70
     0
  9
$DIMTOLJ
 70
     1
  9
$DIMTZIN
 70
     8
  9
$DIMALTZ
 70
     8
  9
$DIMALTTZ
 70
     8
  9
$DIMUPT
 70
     0
  9
$DIMDEC
 70
     2
  9
$DIMTDEC
 70
     2
  9
$DIMALTU
 70
     2
  9
$DIMALTTD
 70
     2
  9
$DIMTXSTY
  7
STANDARD
  9
$DIMAUNIT
 70
     0
  9
$DIMADEC
 70
     2
  9
$DIMALTRND
 40
0.0
  9
$DIMAZIN
 70
     2
  9
$DIMDSEP
 70
    46
  9
$DIMATFIT
 70
     3
  9
$DIMFRAC
 70
     0
  9
$DIMLDRBLK
  1

  9
$DIMLUNIT
 70
     2
  9
$DIMLWD
 70
    -2
  9
$DIMLWE
 70
    -2
  9
$DIMTMOVE
 70
     0
  9
$LUNITS
 70
     2
  9
$LUPREC
 70
     2
  9
$SKETCHINC
 40
1.0
  9
$FILLETRAD
 40
70.0
  9
$AUNITS
 70
     0
  9
$AUPREC
 70
     0
  9
$MENU
  1
ACAD
  9
$ELEVATION
 40
0.0
  9
$PELEVATION
 40
0.0
  9
$THICKNESS
 40
0.0
  9
$LIMCHECK
 70
     0
  9
$CHAMFERA
 40
0.0
  9
$CHAMFERB
 40
0.0
  9
$CHAMFERC
 40
0.0
  9
$CHAMFERD
 40
0.0
  9
$SKPOLY
 70
     0
  9
$TDCREATE
 40
2451337.601764699
  9
$TDUCREATE
 40
2451337.518431366
  9
$TDUPDATE
 40
2455454.572832766
  9
$TDUUPDATE
 40
2455454.489499433
  9
$TDINDWG
 40
0.0871055208
  9
$TDUSRTIMER
 40
0.0871055208
  9
$USRTIMER
 70
     1
  9
$ANGBASE
 50
0.0
  9
$ANGDIR
 70
     0
  9
$PDMODE
 70
     0
  9
$PDSIZE
 40
0.0
  9
$PLINEWID
 40
0.0
  9
$SPLFRAME
 70
     0
  9
$SPLINETYPE
 70
     6
  9
$SPLINESEGS
 70
     8
  9
$HANDSEED
  5
93E
  9
$SURFTAB1
 70
     6
  9
$SURFTAB2
 70
     6
  9
$SURFTYPE
 70
     6
  9
$SURFU
 70
     6
  9
$SURFV
 70
     6
  9
$UCSBASE
  2

  9
$UCSNAME
  2

  9
$UCSORG
 10
0.0
 20
0.0
 30
0.0
  9
$UCSXDIR
 10
1.0
 20
0.0
 30
0.0
  9
$UCSYDIR
 10
0.0
 20
1.0
 30
0.0
  9
$UCSORTHOREF
  2

  9
$UCSORTHOVIEW
 70
     0
  9
$UCSORGTOP
 10
0.0
 20
0.0
 30
0.0
  9
$UCSORGBOTTOM
 10
0.0
 20
0.0
 30
0.0
  9
$UCSORGLEFT
 10
0.0
 20
0.0
 30
0.0
  9
$UCSORGRIGHT
 10
0.0
 20
0.0
 30
0.0
  9
$UCSORGFRONT
 10
0.0
 20
0.0
 30
0.0
  9
$UCSORGBACK
 10
0.0
 20
0.0
 30
0.0
  9
$PUCSBASE
  2

  9
$PUCSNAME
  2

  9
$PUCSORG
 10
0.0
 20
0.0
 30
0.0
  9
$PUCSXDIR
 10
1.0
 20
0.0
 30
0.0
  9
$PUCSYDIR
 10
0.0
 20
1.0
 30
0.0
  9
$PUCSORTHOREF
  2

  9
$PUCSORTHOVIEW
 70
     0
  9
$PUCSORGTOP
 10
0.0
 20
0.0
 30
0.0
  9
$PUCSORGBOTTOM
 10
0.0
 20
0.0
 30
0.0
  9
$PUCSORGLEFT
 10
0.0
 20
0.0
 30
0.0
  9
$PUCSORGRIGHT
 10
0.0
 20
0.0
 30
0.0
  9
$PUCSORGFRONT
 10
0.0
 20
0.0
 30
0.0
  9
$PUCSORGBACK
 10
0.0
 20
0.0
 30
0.0
  9
$USERI1
 70
     0
  9
$USERI2
 70
     0
  9
$USERI3
 70
     0
  9
$USERI4
 70
     0
  9
$USERI5
 70
     0
  9
$USERR1
 40
0.0
  9
$USERR2
 40
0.0
  9
$USERR3
 40
0.0
  9
$USERR4
 40
0.0
  9
$USERR5
 40
0.0
  9
$WORLDVIEW
 70
     1
  9
$SHADEDGE
 70
     3
  9
$SHADEDIF
 70
    70
  9
$TILEMODE
 70
     1
  9
$MAXACTVP
 70
    16
  9
$PINSBASE
 10
0.0
 20
0.0
 30
0.0
  9
$PLIMCHECK
 70
     0
  9
$PEXTMIN
 10
1.000000000000000E+20
 20
1.000000000000000E+20
 30
1.000000000000000E+20
  9
$PEXTMAX
 10
-1.000000000000000E+20
 20
-1.000000000000000E+20
 30
-1.000000000000000E+20
  9
$PLIMMIN
 10
0.0
 20
0.0
  9
$PLIMMAX
 10
12.0
 20
9.0
  9
$UNITMODE
 70
     0
  9
$VISRETAIN
 70
     0
  9
$PLINEGEN
 70
     0
  9
$PSLTSCALE
 70
     0
  9
$TREEDEPTH
 70
  3020
  9
$CMLSTYLE
  2
Standard
  9
$CMLJUST
 70
     0
  9
$CMLSCALE
 40
1.0
  9
$PROXYGRAPHICS
 70
     1
  9
$MEASUREMENT
 70
     0
  9
$CELWEIGHT
370
    -1
  9
$ENDCAPS
280
     0
  9
$JOINSTYLE
280
     0
  9
$LWDISPLAY
290
     0
  9
$INSUNITS
 70
     0
  9
$HYPERLINKBASE
  1

  9
$STYLESHEET
  1
monochrome 1.ctb
  9
$XEDIT
290
     1
  9
$CEPSNTYPE
380
     0
  9
$PSTYLEMODE
290
     1
  9
$FINGERPRINTGUID
  2
{D68B0D04-A558-11D7-B632-000102183313}
  9
$VERSIONGUID
  2
{24E4BCD2-9B27-4B10-9951-3681436A0B02}
  9
$EXTNAMES
290
     1
  9
$PSVPSCALE
 40
0.0
  9
$OLESTARTUP
290
     0
  9
$SORTENTS
280
   127
  9
$INDEXCTL
280
     0
  9
$HIDETEXT
280
     0
  9
$XCLIPFRAME
290
     0
  9
$HALOGAP
280
     0
  9
$OBSCOLOR
 70
   257
  9
$OBSLTYPE
280
     0
  9
$INTERSECTIONDISPLAY
280
     0
  9
$INTERSECTIONCOLOR
 70
   257
  9
$DIMASSOC
280
     1
  9
$PROJECTNAME
  1

  0
ENDSEC
  0
SECTION
  2
CLASSES
  0
CLASS
  1
ACDBDICTIONARYWDFLT
  2
AcDbDictionaryWithDefault
  3
ObjectDBX Classes
 90
        0
 91
        1
280
     0
281
     0
  0
CLASS
  1
DICTIONARYVAR
  2
AcDbDictionaryVar
  3
ObjectDBX Classes
 90
        0
 91
        2
280
     0
281
     0
  0
ENDSEC
  0
SECTION
  2
TABLES
  0
TABLE
  2
VPORT
  5
8
330
0
100
AcDbSymbolTable
 70
     2
  0
VPORT
  5
93D
330
8
100
AcDbSymbolTableRecord
100
AcDbViewportTableRecord
  2
*Active
 70
     0
 10
0.0
 20
0.0
 11
1.0
 21
1.0
 12
420.0059158657998
 22
297.0081616240302
 13
0.0
 23
0.0
 14
1.0
 24
1.0
 15
10.0
 25
10.0
 16
0.0
 26
0.0
 36
1.0
 17
0.0
 27
0.0
 37
0.0
 40
632.1440086008679
 41
1.336927223719676
 42
50.0
 43
0.0
 44
0.0
 50
0.0
 51
0.0
 71
     0
 72
  1500
 73
     1
 74
     0
 75
     0
 76
     0
 77
     0
 78
     0
281
     0
 65
     1
110
0.0
120
0.0
130
0.0
111
1.0
121
0.0
131
0.0
112
0.0
122
1.0
132
0.0
 79
     0
146
0.0
  0
ENDTAB
  0
TABLE
  2
LTYPE
  5
5
330
0
100
AcDbSymbolTable
 70
     3
  0
LTYPE
  5
13
330
5
100
AcDbSymbolTableRecord
100
AcDbLinetypeTableRecord
  2
ByBlock
 70
     0
  3

 72
    65
 73
     0
 40
0.0
  0
LTYPE
  5
14
330
5
100
AcDbSymbolTableRecord
100
AcDbLinetypeTableRecord
  2
ByLayer
 70
     0
  3

 72
    65
 73
     0
 40
0.0
  0
LTYPE
  5
15
330
5
100
AcDbSymbolTableRecord
100
AcDbLinetypeTableRecord
  2
Continuous
 70
     0
  3
Solid line
 72
    65
 73
     0
 40
0.0
  0
LTYPE
  5
25
330
5
100
AcDbSymbolTableRecord
100
AcDbLinetypeTableRecord
  2
STRICHPUNKT
 70
     0
  3
__ . __ . __ . __ . __ . __ . __ . __ . __ . __
 72
    65
 73
     4
 40
1.0
 49
0.5
 74
     0
 49
-0.25
 74
     0
 49
0.0
 74
     0
 49
-0.25
 74
     0
  0
LTYPE
  5
32
330
5
100
AcDbSymbolTableRecord
100
AcDbLinetypeTableRecord
  2
AUSGEZOGEN
 70
     0
  3
Ausgezogene Linie
 72
    65
 73
     0
 40
0.0
  0
ENDTAB
  0
TABLE
  2
LAYER
  5
2
330
0
100
AcDbSymbolTable
 70
     9
  0
LAYER
  5
10
330
2
100
AcDbSymbolTableRecord
100
AcDbLayerTableRecord
  2
0
 70
     0
 62
     7
  6
Continuous
370
    -3
390
F
  0
LAYER
  5
2A
330
2
100
AcDbSymbolTableRecord
100
AcDbLayerTableRecord
  2
VOLL
 70
     0
 62
     1
  6
Continuous
370
    -3
390
F
  0
LAYER
  5
2B
330
2
100
AcDbSymbolTableRecord
100
AcDbLayerTableRecord
  2
HILF
 70
     0
 62
     2
  6
Continuous
370
    -3
390
F
  0
LAYER
  5
2C
330
2
100
AcDbSymbolTableRecord
100
AcDbLayerTableRecord
  2
MITTEL
 70
     0
 62
     2
  6
STRICHPUNKT
370
    -3
390
F
  0
LAYER
  5
2F
330
2
100
AcDbSymbolTableRecord
100
AcDbLayerTableRecord
  2
BEM
 70
     0
 62
     7
  6
Continuous
370
    -3
390
F
  0
LAYER
  5
30
330
2
100
AcDbSymbolTableRecord
100
AcDbLayerTableRecord
  2
STEMPEL
 70
     0
 62
     3
  6
Continuous
370
    -3
390
F
  0
LAYER
  5
31
330
2
100
AcDbSymbolTableRecord
100
AcDbLayerTableRecord
  2
TEXT
 70
     0
 62
     7
  6
Continuous
370
    -3
390
F
  0
LAYER
  5
2B9
330
2
100
AcDbSymbolTableRecord
100
AcDbLayerTableRecord
  2
DEFPOINTS
 70
     0
 62
     7
  6
AUSGEZOGEN
290
     0
370
    -3
390
F
  0
LAYER
  5
2BA
330
2
100
AcDbSymbolTableRecord
100
AcDbLayerTableRecord
  2
SCHRAFF
 70
     0
 62
     7
  6
AUSGEZOGEN
370
    -3
390
F
  0
ENDTAB
  0
TABLE
  2
STYLE
  5
3
330
0
100
AcDbSymbolTable
 70
     2
  0
STYLE
  5
11
330
3
100
AcDbSymbolTableRecord
100
AcDbTextStyleTableRecord
  2
STANDARD
 70
     0
 40
0.0
 41
0.8
 50
0.0
 71
     0
 42
3.5
  3
simplex.shx
  4

  0
STYLE
  5
24
330
3
100
AcDbSymbolTableRecord
100
AcDbTextStyleTableRecord
  2
GREEKS
 70
     0
 40
0.0
 41
0.8
 50
0.0
 71
     0
 42
2.5
  3
SIMPLEX.shx
  4

  0
ENDTAB
  0
TABLE
  2
VIEW
  5
6
330
0
100
AcDbSymbolTable
 70
     0
  0
ENDTAB
  0
TABLE
  2
UCS
  5
7
330
0
100
AcDbSymbolTable
 70
     0
  0
ENDTAB
  0
TABLE
  2
APPID
  5
9
330
0
100
AcDbSymbolTable
 70
     1
  0
APPID
  5
12
330
9
100
AcDbSymbolTableRecord
100
AcDbRegAppTableRecord
  2
ACAD
 70
     0
  0
ENDTAB
  0
TABLE
  2
DIMSTYLE
  5
A
330
0
100
AcDbSymbolTable
 70
     1
100
AcDbDimStyleTable
 71
     1
340
A0
  0
DIMSTYLE
105
A0
102
{ACAD_REACTORS
330
5E9
330
607
330
614
330
62A
330
657
330
665
330
81B
330
897
330
927
102
}
330
A
100
AcDbSymbolTableRecord
100
AcDbDimStyleTableRecord
  2
Standard
 70
     0
340
11
  0
ENDTAB
  0
TABLE
  2
BLOCK_RECORD
  5
1
330
0
100
AcDbSymbolTable
 70
    13
  0
BLOCK_RECORD
  5
1E
102
{ACAD_XDICTIONARY
360
A3
102
}
330
1
100
AcDbSymbolTableRecord
100
AcDbBlockTableRecord
  2
*Model_Space
340
21
  0
BLOCK_RECORD
  5
1A
102
{ACAD_XDICTIONARY
360
A5
102
}
330
1
100
AcDbSymbolTableRecord
100
AcDbBlockTableRecord
  2
*Paper_Space
340
1D
  0
BLOCK_RECORD
  5
22
330
1
100
AcDbSymbolTableRecord
100
AcDbBlockTableRecord
  2
LOGO
340
0
102
{BLKREFS
331
9A
102
}
  0
BLOCK_RECORD
  5
23
330
1
100
AcDbSymbolTableRecord
100
AcDbBlockTableRecord
  2
INDEX
340
0
102
{BLKREFS
331
9B
102
}
  0
BLOCK_RECORD
  5
5EA
330
1
100
AcDbSymbolTableRecord
100
AcDbBlockTableRecord
  2
*D2
340
0
  0
BLOCK_RECORD
  5
608
330
1
100
AcDbSymbolTableRecord
100
AcDbBlockTableRecord
  2
*D3
340
0
  0
BLOCK_RECORD
  5
615
330
1
100
AcDbSymbolTableRecord
100
AcDbBlockTableRecord
  2
*D4
340
0
  0
BLOCK_RECORD
  5
62B
330
1
100
AcDbSymbolTableRecord
100
AcDbBlockTableRecord
  2
*D5
340
0
  0
BLOCK_RECORD
  5
658
330
1
100
AcDbSymbolTableRecord
100
AcDbBlockTableRecord
  2
*D6
340
0
  0
BLOCK_RECORD
  5
666
330
1
100
AcDbSymbolTableRecord
100
AcDbBlockTableRecord
  2
*D7
340
0
  0
BLOCK_RECORD
  5
7FB
102
{ACAD_XDICTIONARY
360
7FE
102
}
330
1
100
AcDbSymbolTableRecord
100
AcDbBlockTableRecord
  2
INDEX EN10305
340
0
102
{BLKREFS
331
801
102
}
1001
ACAD
1000
DesignCenter Data
1002
{
1070
     1
1070
     4
1002
}
  0
BLOCK_RECORD
  5
81C
330
1
100
AcDbSymbolTableRecord
100
AcDbBlockTableRecord
  2
*D10
340
0
  0
BLOCK_RECORD
  5
898
330
1
100
AcDbSymbolTableRecord
100
AcDbBlockTableRecord
  2
*D11
340
0
  0
BLOCK_RECORD
  5
928
330
1
100
AcDbSymbolTableRecord
100
AcDbBlockTableRecord
  2
*D12
340
0
  0
ENDTAB
  0
ENDSEC
  0
SECTION
  2
BLOCKS
  0
BLOCK
  5
35
330
1E
100
AcDbEntity
  8
0
100
AcDbBlockBegin
  2
*Model_Space
 70
     0
 10
0.0
 20
0.0
 30
0.0
  3
*Model_Space
  1

  0
ENDBLK
  5
36
330
1E
100
AcDbEntity
  8
0
100
AcDbBlockEnd
  0
BLOCK
  5
33
330
1A
100
AcDbEntity
 67
     1
  8
0
100
AcDbBlockBegin
  2
*Paper_Space
 70
     0
 10
0.0
 20
0.0
 30
0.0
  3
*Paper_Space
  1

  0
ENDBLK
  5
34
330
1A
100
AcDbEntity
 67
     1
  8
0
100
AcDbBlockEnd
  0
BLOCK
  5
37
330
22
100
AcDbEntity
  8
0
100
AcDbBlockBegin
  2
LOGO
 70
     0
 10
0.0
 20
0.0
 30
0.0
  3
LOGO
  1

  0
ARC
  5
38
330
22
100
AcDbEntity
  8
0
100
AcDbCircle
 10
11.59973089678112
 20
-9.271599258481501
 30
0.0
 40
4.5
100
AcDbArc
 50
270.0
 51
231.0575587310159
  0
LINE
  5
39
330
22
100
AcDbEntity
  8
0
100
AcDbLine
 10
3.599730896781125
 20
-4.771599258481529
 30
0.0
 11
3.599730896781153
 21
-11.77159925848133
 31
0.0
  0
LINE
  5
3A
330
22
100
AcDbEntity
  8
0
100
AcDbLine
 10
2.599730896781125
 20
-4.771599258481529
 30
0.0
 11
2.599730896781153
 21
-11.77159925848133
 31
0.0
  0
CIRCLE
  5
3B
330
22
100
AcDbEntity
  8
0
100
AcDbCircle
 10
11.59973089678112
 20
-9.271599258481501
 30
0.0
 40
3.5
  0
ARC
  5
3C
330
22
100
AcDbEntity
  8
0
100
AcDbCircle
 10
31.59973089678115
 20
-9.271599258481472
 30
0.0
 40
4.5
100
AcDbArc
 50
270.0
 51
231.0575587310182
  0
LINE
  5
3D
330
22
100
AcDbEntity
  8
0
100
AcDbLine
 10
17.59973089678112
 20
-4.771599258481472
 30
0.0
 11
17.59973089678115
 21
-13.77159925848147
 31
0.0
  0
ARC
  5
3E
330
22
100
AcDbEntity
  8
0
100
AcDbCircle
 10
22.59973089678116
 20
-7.271599258481472
 30
0.0
 40
2.5
100
AcDbArc
 50
293.1161887722295
 51
90.0
  0
CIRCLE
  5
3F
330
22
100
AcDbEntity
  8
0
100
AcDbCircle
 10
31.59973089678115
 20
-9.271599258481472
 30
0.0
 40
3.5
  0
ARC
  5
40
330
22
100
AcDbEntity
  8
0
100
AcDbCircle
 10
4.599730896781153
 20
-11.77159925848133
 30
0.0
 40
1.0
100
AcDbArc
 50
180.0
 51
270.0
  0
ARC
  5
41
330
22
100
AcDbEntity
  8
0
100
AcDbCircle
 10
4.599730896781153
 20
-11.77159925848133
 30
0.0
 40
2.0
100
AcDbArc
 50
179.9999999999992
 51
270.0
  0
LINE
  5
42
330
22
100
AcDbEntity
  8
0
100
AcDbLine
 10
11.59973089678115
 20
-13.77159925848144
 30
0.0
 11
4.599730896781153
 21
-13.77159925848147
 31
0.0
  0
LINE
  5
43
330
22
100
AcDbEntity
  8
0
100
AcDbLine
 10
8.771303772034769
 20
-12.77159925848136
 30
0.0
 11
4.599730896781153
 21
-12.77159925848133
 31
0.0
  0
LINE
  5
44
330
22
100
AcDbEntity
  8
0
100
AcDbLine
 10
31.59973089678115
 20
-13.77159925848147
 30
0.0
 11
23.6715276665056
 21
-13.77159925848144
 31
0.0
  0
LINE
  5
45
330
22
100
AcDbEntity
  8
0
100
AcDbLine
 10
23.56565672307022
 20
-9.51278021337896
 30
0.0
 11
24.4388546544846
 21
-12.77159925848144
 31
0.0
  0
LINE
  5
46
330
22
100
AcDbEntity
  8
0
100
AcDbLine
 10
22.59973089678116
 20
-9.771599258481472
 30
0.0
 11
18.59973089678112
 21
-9.771599258481472
 31
0.0
  0
LINE
  5
47
330
22
100
AcDbEntity
  8
0
100
AcDbLine
 10
18.59973089678115
 20
-13.77159925848144
 30
0.0
 11
17.59973089678115
 21
-13.77159925848144
 31
0.0
  0
LINE
  5
48
330
22
100
AcDbEntity
  8
0
100
AcDbLine
 10
18.59973089678115
 20
-9.771599258481472
 30
0.0
 11
18.59973089678115
 21
-13.77159925848144
 31
0.0
  0
LINE
  5
49
330
22
100
AcDbEntity
  8
0
100
AcDbLine
 10
22.59973089678116
 20
-9.771599258481472
 30
0.0
 11
23.67152766650562
 21
-13.77159925848147
 31
0.0
  0
ARC
  5
4A
330
22
100
AcDbEntity
  8
0
100
AcDbCircle
 10
22.59973089678116
 20
-7.271599258481472
 30
0.0
 40
2.5
100
AcDbArc
 50
270.0
 51
270.0000000000007
  0
LINE
  5
4B
330
22
100
AcDbEntity
  8
0
100
AcDbLine
 10
28.77130377203494
 20
-12.77159925848147
 30
0.0
 11
24.43885465448463
 21
-12.77159925848144
 31
0.0
  0
LINE
  5
4C
330
22
100
AcDbEntity
  8
0
100
AcDbLine
 10
3.599730896781125
 20
-4.771599258481472
 30
0.0
 11
2.599730896781125
 21
-4.771599258481472
 31
0.0
  0
LINE
  5
4D
330
22
100
AcDbEntity
  8
0
100
AcDbLine
 10
22.59973089678116
 20
-8.771599258481472
 30
0.0
 11
18.59973089678115
 21
-8.771599258481472
 31
0.0
  0
LINE
  5
4E
330
22
100
AcDbEntity
  8
0
100
AcDbLine
 10
22.59973089678116
 20
-5.771599258481472
 30
0.0
 11
18.59973089678115
 21
-5.771599258481472
 31
0.0
  0
LINE
  5
4F
330
22
100
AcDbEntity
  8
0
100
AcDbLine
 10
22.59973089678116
 20
-4.771599258481472
 30
0.0
 11
17.59973089678115
 21
-4.771599258481472
 31
0.0
  0
LINE
  5
50
330
22
100
AcDbEntity
  8
0
100
AcDbLine
 10
18.59973089678115
 20
-5.771599258481472
 30
0.0
 11
18.59973089678115
 21
-8.771599258481472
 31
0.0
  0
ARC
  5
51
330
22
100
AcDbEntity
  8
0
100
AcDbCircle
 10
22.59973089678116
 20
-7.271599258481472
 30
0.0
 40
1.5
100
AcDbArc
 50
270.0
 51
90.0
  0
ENDBLK
  5
52
330
22
100
AcDbEntity
  8
0
100
AcDbBlockEnd
  0
BLOCK
  5
53
330
23
100
AcDbEntity
  8
0
100
AcDbBlockBegin
  2
INDEX
 70
     0
 10
0.0
 20
0.0
 30
0.0
  3
INDEX
  1

  0
TEXT
  5
54
330
23
100
AcDbEntity
  8
BEM
100
AcDbText
 10
-1.709422928128134
 20
6.074024076691515
 30
0.0
 40
2.0
  1
Diese Zeichnung ist urheberrechtlich geschtzt und bleibt unser Eigentum. Sie darf weder ganz noch teilweise vervielfltigt und nicht an Dritte weitergegeben werden.
 50
90.0
 41
0.8
  7
GREEKS
100
AcDbText
  0
ENDBLK
  5
56
330
23
100
AcDbEntity
  8
0
100
AcDbBlockEnd
  0
BLOCK
  5
5F4
330
5EA
100
AcDbEntity
  8
0
100
AcDbBlockBegin
  2
*D2
 70
     1
 10
0.0
 20
0.0
 30
0.0
  3
*D2
  1

  0
LINE
  5
88E
330
5EA
100
AcDbEntity
  8
BEM
 62
     0
370
    -2
100
AcDbLine
 10
208.6328151434913
 20
567.2910820488775
 30
0.0
 11
186.7987531858989
 21
567.2910820488775
 31
0.0
  0
LINE
  5
88F
330
5EA
100
AcDbEntity
  8
BEM
 62
     0
370
    -2
100
AcDbLine
 10
264.3395709814163
 20
449.2910820488774
 30
0.0
 11
186.7987531858989
 21
449.2910820488774
 31
0.0
  0
LINE
  5
890
330
5EA
100
AcDbEntity
  8
BEM
 62
     0
370
    -2
100
AcDbLine
 10
188.7987531858989
 20
560.2910820488776
 30
0.0
 11
188.7987531858989
 21
456.2910820488775
 31
0.0
  0
SOLID
  5
891
330
5EA
100
AcDbEntity
  8
BEM
 62
     0
100
AcDbTrace
 10
187.6320865192323
 20
560.2910820488776
 30
0.0
 11
189.9654198525656
 21
560.2910820488776
 31
0.0
 12
188.7987531858989
 22
567.2910820488775
 32
0.0
 13
188.7987531858989
 23
567.2910820488775
 33
0.0
  0
SOLID
  5
892
330
5EA
100
AcDbEntity
  8
BEM
 62
     0
100
AcDbTrace
 10
187.6320865192323
 20
456.2910820488775
 30
0.0
 11
189.9654198525656
 21
456.2910820488775
 31
0.0
 12
188.7987531858989
 22
449.2910820488774
 32
0.0
 13
188.7987531858989
 23
449.2910820488774
 33
0.0
  0
MTEXT
  5
893
330
5EA
100
AcDbEntity
  8
BEM
 62
     1
100
AcDbMText
 10
182.2987531858988
 20
508.2910820488775
 30
0.0
 40
7.0
 41
0.0
 71
     5
 72
     1
  1
\A1;118
 11
0.0000000000000001
 21
1.0
 31
0.0
 73
     1
 44
1.0
  0
POINT
  5
894
330
5EA
100
AcDbEntity
  8
DEFPOINTS
 62
     0
100
AcDbPoint
 10
210.6328151434913
 20
567.2910820488775
 30
0.0
  0
POINT
  5
895
330
5EA
100
AcDbEntity
  8
DEFPOINTS
 62
     0
100
AcDbPoint
 10
266.3395709814163
 20
449.2910820488774
 30
0.0
  0
POINT
  5
896
330
5EA
100
AcDbEntity
  8
DEFPOINTS
 62
     0
100
AcDbPoint
 10
188.7987531858989
 20
449.2910820488774
 30
0.0
  0
ENDBLK
  5
5F5
330
5EA
100
AcDbEntity
  8
0
100
AcDbBlockEnd
  0
BLOCK
  5
612
330
608
100
AcDbEntity
  8
0
100
AcDbBlockBegin
  2
*D3
 70
     1
 10
0.0
 20
0.0
 30
0.0
  3
*D3
  1

  0
LINE
  5
8F0
330
608
100
AcDbEntity
  8
BEM
 62
     0
370
    -2
100
AcDbLine
 10
479.2267925553496
 20
226.768850062839
 30
0.0
 11
476.8281932023581
 21
158.0819514663339
 31
0.0
  0
LINE
  5
8F1
330
608
100
AcDbEntity
  8
BEM
 62
     0
370
    -2
100
AcDbLine
 10
601.3866473255112
 20
171.9095571327351
 30
0.0
 11
600.7526557527261
 21
153.754413875224
 31
0.0
  0
LINE
  5
8F2
330
608
100
AcDbEntity
  8
BEM
 62
     0
370
    -2
100
AcDbLine
 10
483.8937279848969
 20
159.8364366434546
 30
0.0
 11
593.8267189569974
 21
155.9974920061797
 31
0.0
  0
SOLID
  5
8F3
330
608
100
AcDbEntity
  8
BEM
 62
     0
100
AcDbTrace
 10
483.9344440643831
 20
161.0023926083102
 30
0.0
 11
483.8530119054106
 21
158.670480678599
 31
0.0
 12
476.8979921957631
 22
160.0807331203721
 32
0.0
 13
476.8979921957631
 23
160.0807331203721
 33
0.0
  0
SOLID
  5
8F4
330
608
100
AcDbEntity
  8
BEM
 62
     0
100
AcDbTrace
 10
593.8674350364837
 20
157.1634479710353
 30
0.0
 11
593.7860028775111
 21
154.8315360413241
 31
0.0
 12
600.8224547461311
 22
155.7531955292622
 32
0.0
 13
600.8224547461311
 23
155.7531955292622
 33
0.0
  0
MTEXT
  5
8F5
330
608
100
AcDbEntity
  8
BEM
 62
     1
100
AcDbMText
 10
539.0870701995133
 20
164.4130047004413
 30
0.0
 40
7.0
 41
0.0
 71
     5
 72
     1
  1
\A1;124
 11
0.999390827019096
 21
-0.0348994967024988
 31
0.0
 73
     1
 44
1.0
  0
POINT
  5
8F6
330
608
100
AcDbEntity
  8
DEFPOINTS
 62
     0
100
AcDbPoint
 10
479.2965915487546
 20
228.7676317168771
 30
0.0
  0
POINT
  5
8F7
330
608
100
AcDbEntity
  8
DEFPOINTS
 62
     0
100
AcDbPoint
 10
601.4564463189162
 20
173.9083387867733
 30
0.0
  0
POINT
  5
8F8
330
608
100
AcDbEntity
  8
DEFPOINTS
 62
     0
100
AcDbPoint
 10
600.8224547461311
 20
155.7531955292622
 30
0.0
  0
ENDBLK
  5
613
330
608
100
AcDbEntity
  8
0
100
AcDbBlockEnd
  0
BLOCK
  5
61F
330
615
100
AcDbEntity
  8
0
100
AcDbBlockBegin
  2
*D4
 70
     1
 10
0.0
 20
0.0
 30
0.0
  3
*D4
  1

  0
LINE
  5
8E7
330
615
100
AcDbEntity
  8
BEM
 62
     0
370
    -2
100
AcDbLine
 10
598.4430072862381
 20
173.5758604379011
 30
0.0
 11
624.7655385389427
 21
172.6566573915861
 31
0.0
  0
LINE
  5
8E8
330
615
100
AcDbEntity
  8
BEM
 62
     0
370
    -2
100
AcDbLine
 10
602.0027559498924
 20
275.5137247938487
 30
0.0
 11
628.3252872025976
 21
274.5945217475338
 31
0.0
  0
LINE
  5
8E9
330
615
100
AcDbEntity
  8
BEM
 62
     0
370
    -2
100
AcDbLine
 10
623.0110533618219
 20
179.7221921741248
 30
0.0
 11
626.0822090716419
 21
267.6685849518051
 31
0.0
  0
SOLID
  5
8EA
330
615
100
AcDbEntity
  8
BEM
 62
     0
100
AcDbTrace
 10
621.8450973969663
 20
179.762908253611
 30
0.0
 11
624.1770093266775
 21
179.6814760946385
 31
0.0
 12
622.7667568849045
 22
172.7264563849911
 32
0.0
 13
622.7667568849045
 23
172.7264563849911
 33
0.0
  0
SOLID
  5
8EB
330
615
100
AcDbEntity
  8
BEM
 62
     0
100
AcDbTrace
 10
624.9162531067863
 20
267.7093010312913
 30
0.0
 11
627.2481650364975
 21
267.6278688723189
 31
0.0
 12
626.3265055485594
 22
274.6643207409388
 32
0.0
 13
626.3265055485594
 23
274.6643207409388
 33
0.0
  0
MTEXT
  5
8EC
330
615
100
AcDbEntity
  8
BEM
 62
     1
100
AcDbMText
 10
618.0505908411078
 20
223.9222352915312
 30
0.0
 40
7.0
 41
0.0
 71
     5
 72
     1
  1
\A1;%%C102
 11
0.0348994967024989
 21
0.999390827019096
 31
0.0
 73
     1
 44
1.0
  0
POINT
  5
8ED
330
615
100
AcDbEntity
  8
DEFPOINTS
 62
     0
100
AcDbPoint
 10
596.4442256321998
 20
173.645659431306
 30
0.0
  0
POINT
  5
8EE
330
615
100
AcDbEntity
  8
DEFPOINTS
 62
     0
100
AcDbPoint
 10
600.0039742958541
 20
275.5835237872537
 30
0.0
  0
POINT
  5
8EF
330
615
100
AcDbEntity
  8
DEFPOINTS
 62
     0
100
AcDbPoint
 10
626.3265055485594
 20
274.6643207409387
 30
0.0
  0
ENDBLK
  5
620
330
615
100
AcDbEntity
  8
0
100
AcDbBlockEnd
  0
BLOCK
  5
635
330
62B
100
AcDbEntity
  8
0
100
AcDbBlockBegin
  2
*D5
 70
     1
 10
0.0
 20
0.0
 30
0.0
  3
*D5
  1

  0
LINE
  5
873
330
62B
100
AcDbEntity
  8
BEM
 62
     0
370
    -2
100
AcDbLine
 10
497.7753869904087
 20
285.9287754748729
 30
0.0
 11
508.8438028837527
 21
296.6174204579716
 31
0.0
  0
LINE
  5
874
330
62B
100
AcDbEntity
  8
BEM
 62
     0
370
    -2
100
AcDbLine
 10
324.1107943756592
 20
465.7637255595355
 30
0.0
 11
335.1792102690034
 21
476.4523705426343
 31
0.0
  0
LINE
  5
875
330
62B
100
AcDbEntity
  8
BEM
 62
     0
370
    -2
100
AcDbLine
 10
502.5425146898625
 20
300.2634823194242
 30
0.0
 11
338.6031392615391
 21
470.0276751993458
 31
0.0
  0
SOLID
  5
876
330
62B
100
AcDbEntity
  8
BEM
 62
     0
100
AcDbTrace
 10
503.3817444569243
 20
301.0739170849596
 30
0.0
 11
501.7032849228008
 21
299.4530475538887
 31
0.0
 12
507.4051232830755
 22
295.2281037170536
 32
0.0
 13
507.4051232830755
 23
295.2281037170536
 33
0.0
  0
SOLID
  5
877
330
62B
100
AcDbEntity
  8
BEM
 62
     0
100
AcDbTrace
 10
339.4423690286008
 20
470.8381099648812
 30
0.0
 11
337.7639094944774
 21
469.2172404338103
 31
0.0
 12
333.7405306683262
 22
475.0630538017163
 32
0.0
 13
333.7405306683262
 23
475.0630538017163
 33
0.0
  0
MTEXT
  5
878
330
62B
100
AcDbEntity
  8
BEM
 62
     1
100
AcDbMText
 10
425.248535677902
 20
389.6608581673685
 30
0.0
 40
7.0
 41
0.0
 71
     5
 72
     1
  1
\A1;250
 11
0.6946583704589975
 21
-0.719339800338651
 31
0.0
 73
     1
 44
1.0
  0
POINT
  5
879
330
62B
100
AcDbEntity
  8
DEFPOINTS
 62
     0
100
AcDbPoint
 10
496.3367073897313
 20
284.5394587339549
 30
0.0
  0
POINT
  5
87A
330
62B
100
AcDbEntity
  8
DEFPOINTS
 62
     0
100
AcDbPoint
 10
322.6721147749819
 20
464.3744088186176
 30
0.0
  0
POINT
  5
87B
330
62B
100
AcDbEntity
  8
DEFPOINTS
 62
     0
100
AcDbPoint
 10
333.7405306683262
 20
475.0630538017163
 30
0.0
  0
ENDBLK
  5
636
330
62B
100
AcDbEntity
  8
0
100
AcDbBlockEnd
  0
BLOCK
  5
663
330
658
100
AcDbEntity
  8
0
100
AcDbBlockBegin
  2
*D6
 70
     1
 10
0.0
 20
0.0
 30
0.0
  3
*D6
  1

  0
LINE
  5
8DD
330
658
100
AcDbEntity
  8
BEM
 62
     0
370
    -2
100
AcDbLine
 10
477.2978098947164
 20
228.8374307102822
 30
0.0
 11
409.8962989138084
 21
231.1911433386419
 31
0.0
  0
ARC
  5
8DE
330
658
100
AcDbEntity
  8
BEM
 62
     0
370
    -2
100
AcDbCircle
 10
479.2965915487546
 20
228.7676317168772
 30
0.0
 40
67.44259518765845
100
AcDbArc
 50
139.9495145571482
 51
172.050485442852
  0
SOLID
  5
8DF
330
658
100
AcDbEntity
  8
BEM
 62
     0
100
AcDbTrace
 10
426.8178893812637
 20
272.960443117941
 30
0.0
 11
428.5236800963009
 21
271.3683619388117
 31
0.0
 12
432.44702827617
 22
277.2817746734879
 32
0.0
 13
432.44702827617
 23
277.2817746734879
 33
0.0
  0
SOLID
  5
8E0
330
658
100
AcDbEntity
  8
BEM
 62
     0
100
AcDbTrace
 10
413.6643702959806
 20
237.9938056924567
 30
0.0
 11
411.3398266304965
 21
238.1961449909207
 31
0.0
 12
411.8950805678466
 22
231.1213443452368
 32
0.0
 13
411.8950805678466
 23
231.1213443452368
 33
0.0
  0
MTEXT
  5
8E1
330
658
100
AcDbEntity
  8
BEM
 62
     1
100
AcDbMText
 10
411.7466695887635
 20
258.8427946638181
 30
0.0
 40
7.0
 41
0.0
 71
     5
 72
     1
  1
\A1;44°
 11
0.406736643075799
 21
0.9135454576426013
 31
0.0
 73
     1
 44
1.0
  0
POINT
  5
8E2
330
658
100
AcDbEntity
  8
DEFPOINTS
 62
     0
100
AcDbPoint
 10
421.6900644323084
 20
263.8388689238608
 30
0.0
  0
POINT
  5
8E3
330
658
100
AcDbEntity
  8
DEFPOINTS
 62
     0
100
AcDbPoint
 10
608.2180082342181
 20
224.2655966422549
 30
0.0
  0
POINT
  5
8E4
330
658
100
AcDbEntity
  8
DEFPOINTS
 62
     0
100
AcDbPoint
 10
266.3395709814163
 20
449.2910820488774
 30
0.0
  0
POINT
  5
8E5
330
658
100
AcDbEntity
  8
DEFPOINTS
 62
     0
100
AcDbPoint
 10
479.2965915487546
 20
228.7676317168772
 30
0.0
  0
POINT
  5
8E6
330
658
100
AcDbEntity
  8
DEFPOINTS
 62
     0
100
AcDbPoint
 10
479.2965915487546
 20
228.7676317168772
 30
0.0
  0
ENDBLK
  5
664
330
658
100
AcDbEntity
  8
0
100
AcDbBlockEnd
  0
BLOCK
  5
671
330
666
100
AcDbEntity
  8
0
100
AcDbBlockBegin
  2
*D7
 70
     1
 10
0.0
 20
0.0
 30
0.0
  3
*D7
  1

  0
LINE
  5
855
330
666
100
AcDbEntity
  8
BEM
 62
     0
370
    -2
100
AcDbLine
 10
266.3395709814163
 20
447.2910820488776
 30
0.0
 11
266.3395709814163
 21
379.7898850386703
 31
0.0
  0
ARC
  5
856
330
666
100
AcDbEntity
  8
BEM
 62
     0
370
    -2
100
AcDbCircle
 10
266.3395709814163
 20
449.2910820488775
 30
0.0
 40
67.50119701020736
100
AcDbArc
 50
275.9443447880403
 51
308.0556552119598
  0
SOLID
  5
857
330
666
100
AcDbEntity
  8
BEM
 62
     0
100
AcDbTrace
 10
273.3906475855437
 20
380.9877442568636
 30
0.0
 11
273.2696620767174
 21
383.317938873435
 31
0.0
 12
266.3395709814163
 22
381.7898850386703
 32
0.0
 13
266.3395709814163
 23
381.7898850386703
 33
0.0
  0
SOLID
  5
858
330
666
100
AcDbEntity
  8
BEM
 62
     0
100
AcDbTrace
 10
307.1832767689049
 20
397.0199286219472
 30
0.0
 11
308.7149362723417
 21
395.259683295302
 31
0.0
 12
313.2298425005587
 22
400.7347844689351
 32
0.0
 13
313.2298425005587
 23
400.7347844689351
 33
0.0
  0
MTEXT
  5
859
330
666
100
AcDbEntity
  8
BEM
 62
     1
100
AcDbMText
 10
289.191021587703
 20
392.7317570717656
 30
0.0
 40
7.0
 41
0.0
 71
     5
 72
     1
  1
\A1;44°
 11
0.927183854566787
 21
0.3746065934159129
 31
0.0
 73
     1
 44
1.0
  0
POINT
  5
85A
330
666
100
AcDbEntity
  8
DEFPOINTS
 62
     0
100
AcDbPoint
 10
283.4305479056911
 20
383.9893967292418
 30
0.0
  0
POINT
  5
85B
330
666
100
AcDbEntity
  8
DEFPOINTS
 62
     0
100
AcDbPoint
 10
266.3395709814163
 20
572.2910820488776
 30
0.0
  0
POINT
  5
85C
330
666
100
AcDbEntity
  8
DEFPOINTS
 62
     0
100
AcDbPoint
 10
266.3395709814163
 20
449.2910820488775
 30
0.0
  0
POINT
  5
85D
330
666
100
AcDbEntity
  8
DEFPOINTS
 62
     0
100
AcDbPoint
 10
479.2965915487547
 20
228.7676317168772
 30
0.0
  0
POINT
  5
85E
330
666
100
AcDbEntity
  8
DEFPOINTS
 62
     0
100
AcDbPoint
 10
266.3395709814163
 20
449.2910820488775
 30
0.0
  0
ENDBLK
  5
672
330
666
100
AcDbEntity
  8
0
100
AcDbBlockEnd
  0
BLOCK
  5
7FF
330
7FB
100
AcDbEntity
  8
0
100
AcDbBlockBegin
  2
INDEX EN10305
 70
     0
 10
0.0
 20
0.0
 30
0.0
  3
INDEX EN10305
  1

  0
TEXT
  5
7FC
330
7FB
100
AcDbEntity
  8
TEXT
 62
     1
100
AcDbText
 10
27.30288294732333
 20
9.539173287274124
 30
0.0
 40
3.5
  1
und innen beschichtet
 41
0.8
  7
GREEKS
100
AcDbText
  0
TEXT
  5
7FD
330
7FB
100
AcDbEntity
  8
TEXT
 62
     1
100
AcDbText
 10
3.328024228624428
 20
14.90022919477586
 30
0.0
 40
3.5
  1
Werkstoff: E195 EN10305 feuerverzinkt
 41
0.8
  7
GREEKS
100
AcDbText
  0
ENDBLK
  5
800
330
7FB
100
AcDbEntity
  8
0
100
AcDbBlockEnd
  0
BLOCK
  5
826
330
81C
100
AcDbEntity
  8
0
100
AcDbBlockBegin
  2
*D10
 70
     1
 10
0.0
 20
0.0
 30
0.0
  3
*D10
  1

  0
LINE
  5
831
330
81C
100
AcDbEntity
  8
BEM
 62
     0
370
    -2
100
AcDbLine
 10
477.2965915487547
 20
228.7676317168772
 30
0.0
 11
170.9390626783778
 21
228.7676317168773
 31
0.0
  0
LINE
  5
832
330
81C
100
AcDbEntity
  8
BEM
 62
     0
370
    -2
100
AcDbLine
 10
208.6328151434913
 20
567.2910820488775
 30
0.0
 11
170.9390626783779
 21
567.2910820488775
 31
0.0
  0
LINE
  5
833
330
81C
100
AcDbEntity
  8
BEM
 62
     0
370
    -2
100
AcDbLine
 10
172.9390626783778
 20
235.7676317168773
 30
0.0
 11
172.9390626783779
 21
560.2910820488776
 31
0.0
  0
SOLID
  5
834
330
81C
100
AcDbEntity
  8
BEM
 62
     0
100
AcDbTrace
 10
171.7723960117112
 20
235.7676317168773
 30
0.0
 11
174.1057293450445
 21
235.7676317168773
 31
0.0
 12
172.9390626783778
 22
228.7676317168773
 32
0.0
 13
172.9390626783778
 23
228.7676317168773
 33
0.0
  0
SOLID
  5
835
330
81C
100
AcDbEntity
  8
BEM
 62
     0
100
AcDbTrace
 10
171.7723960117112
 20
560.2910820488776
 30
0.0
 11
174.1057293450445
 21
560.2910820488776
 31
0.0
 12
172.9390626783779
 22
567.2910820488775
 32
0.0
 13
172.9390626783779
 23
567.2910820488775
 33
0.0
  0
MTEXT
  5
836
330
81C
100
AcDbEntity
  8
BEM
 62
     1
100
AcDbMText
 10
166.4390626783778
 20
398.0293568828774
 30
0.0
 40
7.0
 41
0.0
 71
     5
 72
     1
  1
\A1;339
 11
0.0000000000000001
 21
1.0
 31
0.0
 73
     1
 44
1.0
  0
POINT
  5
837
330
81C
100
AcDbEntity
  8
DEFPOINTS
 62
     0
100
AcDbPoint
 10
479.2965915487546
 20
228.7676317168772
 30
0.0
  0
POINT
  5
838
330
81C
100
AcDbEntity
  8
DEFPOINTS
 62
     0
100
AcDbPoint
 10
210.6328151434913
 20
567.2910820488775
 30
0.0
  0
POINT
  5
839
330
81C
100
AcDbEntity
  8
DEFPOINTS
 62
     0
100
AcDbPoint
 10
172.9390626783779
 20
567.2910820488775
 30
0.0
  0
ENDBLK
  5
827
330
81C
100
AcDbEntity
  8
0
100
AcDbBlockEnd
  0
BLOCK
  5
8A2
330
898
100
AcDbEntity
  8
0
100
AcDbBlockBegin
  2
*D11
 70
     1
 10
0.0
 20
0.0
 30
0.0
  3
*D11
  1

  0
LINE
  5
902
330
898
100
AcDbEntity
  8
BEM
 62
     0
370
    -2
100
AcDbLine
 10
266.3395709814163
 20
447.2910820488775
 30
0.0
 11
266.3395709814163
 21
134.1895825757967
 31
0.0
  0
LINE
  5
903
330
898
100
AcDbEntity
  8
BEM
 62
     0
370
    -2
100
AcDbLine
 10
603.2210540991225
 20
222.4400941257673
 30
0.0
 11
603.2210540991225
 21
134.1895825757967
 31
0.0
  0
LINE
  5
904
330
898
100
AcDbEntity
  8
BEM
 62
     0
370
    -2
100
AcDbLine
 10
273.3395709814163
 20
136.1895825757967
 30
0.0
 11
596.2210540991224
 21
136.1895825757967
 31
0.0
  0
SOLID
  5
905
330
898
100
AcDbEntity
  8
BEM
 62
     0
100
AcDbTrace
 10
273.3395709814163
 20
137.3562492424634
 30
0.0
 11
273.3395709814163
 21
135.0229159091301
 31
0.0
 12
266.3395709814163
 22
136.1895825757967
 32
0.0
 13
266.3395709814163
 23
136.1895825757967
 33
0.0
  0
SOLID
  5
906
330
898
100
AcDbEntity
  8
BEM
 62
     0
100
AcDbTrace
 10
596.2210540991224
 20
137.3562492424634
 30
0.0
 11
596.2210540991224
 21
135.0229159091301
 31
0.0
 12
603.2210540991225
 22
136.1895825757967
 32
0.0
 13
603.2210540991225
 23
136.1895825757967
 33
0.0
  0
MTEXT
  5
907
330
898
100
AcDbEntity
  8
BEM
 62
     1
100
AcDbMText
 10
434.7803125402694
 20
142.6895825757967
 30
0.0
 40
7.0
 41
0.0
 71
     5
 72
     1
  1
\A1;337
 73
     1
 44
1.0
  0
POINT
  5
908
330
898
100
AcDbEntity
  8
DEFPOINTS
 62
     0
100
AcDbPoint
 10
266.3395709814163
 20
449.2910820488774
 30
0.0
  0
POINT
  5
909
330
898
100
AcDbEntity
  8
DEFPOINTS
 62
     0
100
AcDbPoint
 10
603.2210540991225
 20
224.4400941257673
 30
0.0
  0
POINT
  5
90A
330
898
100
AcDbEntity
  8
DEFPOINTS
 62
     0
100
AcDbPoint
 10
603.2210540991225
 20
136.1895825757967
 30
0.0
  0
ENDBLK
  5
8A3
330
898
100
AcDbEntity
  8
0
100
AcDbBlockEnd
  0
BLOCK
  5
932
330
928
100
AcDbEntity
  8
0
100
AcDbBlockBegin
  2
*D12
 70
     1
 10
0.0
 20
0.0
 30
0.0
  3
*D12
  1

  0
LINE
  5
934
330
928
100
AcDbEntity
  8
BEM
 62
     0
370
    -2
100
AcDbLine
 10
264.9008913807389
 20
447.9017653079595
 30
0.0
 11
214.1930697202378
 21
398.9337911354945
 31
0.0
  0
LINE
  5
935
330
928
100
AcDbEntity
  8
BEM
 62
     0
370
    -2
100
AcDbLine
 10
477.8579119480774
 20
227.3783149759592
 30
0.0
 11
427.1500902875762
 21
178.4103408034941
 31
0.0
  0
LINE
  5
936
330
928
100
AcDbEntity
  8
BEM
 62
     0
370
    -2
100
AcDbLine
 10
220.4943579141281
 20
395.2877292740419
 30
0.0
 11
423.7261612950405
 21
184.8350361467826
 31
0.0
  0
SOLID
  5
937
330
928
100
AcDbEntity
  8
BEM
 62
     0
100
AcDbTrace
 10
221.3335876811899
 20
396.0981640395774
 30
0.0
 11
219.6551281470663
 21
394.4772945085064
 31
0.0
 12
215.6317493209151
 22
400.3231078764124
 32
0.0
 13
215.6317493209151
 23
400.3231078764124
 33
0.0
  0
SOLID
  5
938
330
928
100
AcDbEntity
  8
BEM
 62
     0
100
AcDbTrace
 10
424.5653910621022
 20
185.6454709123181
 30
0.0
 11
422.8869315279787
 21
184.0246013812472
 31
0.0
 12
428.5887698882535
 22
179.7996575444121
 32
0.0
 13
428.5887698882535
 23
179.7996575444121
 33
0.0
  0
MTEXT
  5
939
330
928
100
AcDbEntity
  8
BEM
 62
     1
100
AcDbMText
 10
326.7859683067856
 20
294.5766621183958
 30
0.0
 40
7.0
 41
0.0
 71
     5
 72
     1
  1
\A1;306
 11
0.6946583704589978
 21
-0.7193398003386507
 31
0.0
 73
     1
 44
1.0
  0
POINT
  5
93A
330
928
100
AcDbEntity
  8
DEFPOINTS
 62
     0
100
AcDbPoint
 10
266.3395709814163
 20
449.2910820488774
 30
0.0
  0
POINT
  5
93B
330
928
100
AcDbEntity
  8
DEFPOINTS
 62
     0
100
AcDbPoint
 10
479.2965915487546
 20
228.7676317168772
 30
0.0
  0
POINT
  5
93C
330
928
100
AcDbEntity
  8
DEFPOINTS
 62
     0
100
AcDbPoint
 10
428.5887698882535
 20
179.7996575444121
 30
0.0
  0
ENDBLK
  5
933
330
928
100
AcDbEntity
  8
0
100
AcDbBlockEnd
  0
ENDSEC
  0
SECTION
  2
ENTITIES
  0
LINE
  5
57
330
1E
100
AcDbEntity
  8
STEMPEL
100
AcDbLine
 10
830.0
 20
110.0
 30
0.0
 11
470.0
 21
110.0
 31
0.0
  0
LINE
  5
58
330
1E
100
AcDbEntity
  8
STEMPEL
100
AcDbLine
 10
566.0000000000001
 20
109.9999999999999
 30
0.0
 11
566.0
 21
9.999999999999971
 31
0.0
  0
LINE
  5
59
330
1E
100
AcDbEntity
  8
STEMPEL
100
AcDbLine
 10
650.0
 20
110.0
 30
0.0
 11
650.0
 21
9.999999999999971
 31
0.0
  0
LINE
  5
5A
330
1E
100
AcDbEntity
  8
STEMPEL
100
AcDbLine
 10
752.0
 20
109.9999999999997
 30
0.0
 11
752.0
 21
40.0
 31
0.0
  0
LINE
  5
5B
330
1E
100
AcDbEntity
  8
STEMPEL
100
AcDbLine
 10
565.9999999999999
 20
29.99999999999997
 30
0.0
 11
470.0
 21
29.99999999999997
 31
0.0
  0
LINE
  5
5C
330
1E
100
AcDbEntity
  8
STEMPEL
100
AcDbLine
 10
830.0
 20
40.0
 30
0.0
 11
566.0000000000001
 21
39.99999999999997
 31
0.0
  0
LINE
  5
5D
330
1E
100
AcDbEntity
  8
STEMPEL
100
AcDbLine
 10
830.0
 20
80.0
 30
0.0
 11
566.0000000000001
 21
79.99999999999994
 31
0.0
  0
LINE
  5
5E
330
1E
100
AcDbEntity
  8
VOLL
100
AcDbLine
 10
484.0000000000001
 20
110.0
 30
0.0
 11
484.0
 21
9.999999999999971
 31
0.0
  0
LINE
  5
5F
330
1E
100
AcDbEntity
  8
VOLL
100
AcDbLine
 10
524.0000000000001
 20
109.9999999999999
 30
0.0
 11
524.0
 21
9.999999999999971
 31
0.0
  0
LINE
  5
60
330
1E
100
AcDbEntity
  8
VOLL
100
AcDbLine
 10
544.0000000000001
 20
109.9999999999999
 30
0.0
 11
544.0
 21
9.999999999999971
 31
0.0
  0
LINE
  5
61
330
1E
100
AcDbEntity
  8
VOLL
100
AcDbLine
 10
584.0000000000001
 20
79.99999999999994
 30
0.0
 11
584.0000000000001
 21
39.99999999999997
 31
0.0
  0
LINE
  5
62
330
1E
100
AcDbEntity
  8
VOLL
100
AcDbLine
 10
610.0000000000001
 20
109.9999999999998
 30
0.0
 11
610.0
 21
39.99999999999997
 31
0.0
  0
LINE
  5
63
330
1E
100
AcDbEntity
  8
HILF
100
AcDbLine
 10
470.0000000000001
 20
100.0
 30
0.0
 11
566.0000000000001
 21
100.0
 31
0.0
  0
LINE
  5
64
330
1E
100
AcDbEntity
  8
HILF
100
AcDbLine
 10
470.0000000000001
 20
90.00000000000005
 30
0.0
 11
566.0000000000001
 21
90.00000000000005
 31
0.0
  0
LINE
  5
65
330
1E
100
AcDbEntity
  8
HILF
100
AcDbLine
 10
470.0000000000001
 20
79.99999999999994
 30
0.0
 11
566.0000000000001
 21
79.99999999999994
 31
0.0
  0
LINE
  5
66
330
1E
100
AcDbEntity
  8
HILF
100
AcDbLine
 10
470.0000000000001
 20
69.99999999999994
 30
0.0
 11
566.0000000000001
 21
69.99999999999994
 31
0.0
  0
LINE
  5
67
330
1E
100
AcDbEntity
  8
HILF
100
AcDbLine
 10
470.0000000000001
 20
59.99999999999997
 30
0.0
 11
566.0000000000001
 21
59.99999999999997
 31
0.0
  0
LINE
  5
68
330
1E
100
AcDbEntity
  8
HILF
100
AcDbLine
 10
470.0000000000001
 20
49.99999999999997
 30
0.0
 11
566.0000000000001
 21
49.99999999999997
 31
0.0
  0
LINE
  5
69
330
1E
100
AcDbEntity
  8
HILF
100
AcDbLine
 10
470.0000000000001
 20
39.99999999999997
 30
0.0
 11
566.0000000000001
 21
39.99999999999997
 31
0.0
  0
LINE
  5
6A
330
1E
100
AcDbEntity
  8
HILF
100
AcDbLine
 10
566.0000000000001
 20
69.99999999999994
 30
0.0
 11
650.0
 21
69.99999999999994
 31
0.0
  0
LINE
  5
6B
330
1E
100
AcDbEntity
  8
HILF
100
AcDbLine
 10
566.0000000000001
 20
59.99999999999997
 30
0.0
 11
650.0
 21
59.99999999999997
 31
0.0
  0
LINE
  5
6C
330
1E
100
AcDbEntity
  8
HILF
100
AcDbLine
 10
566.0000000000001
 20
49.99999999999997
 30
0.0
 11
650.0
 21
49.99999999999997
 31
0.0
  0
LINE
  5
6D
330
1E
100
AcDbEntity
  8
HILF
100
AcDbLine
 10
654.7736801096947
 20
84.03758247564139
 30
0.0
 11
744.835391655631
 21
84.03758247564139
 31
0.0
  0
LINE
  5
6E
330
1E
100
AcDbEntity
  8
HILF
100
AcDbLine
 10
654.7736801096947
 20
69.99999999999994
 30
0.0
 11
744.8353916556309
 21
69.99999999999994
 31
0.0
  0
LINE
  5
6F
330
1E
100
AcDbEntity
  8
HILF
100
AcDbLine
 10
654.7736801096947
 20
59.99999999999997
 30
0.0
 11
744.8353916556309
 21
59.99999999999997
 31
0.0
  0
LINE
  5
70
330
1E
100
AcDbEntity
  8
HILF
100
AcDbLine
 10
654.7736801096947
 20
49.99999999999997
 30
0.0
 11
744.8353916556309
 21
49.99999999999997
 31
0.0
  0
LINE
  5
71
330
1E
100
AcDbEntity
  8
VOLL
100
AcDbLine
 10
752.0
 20
60.0
 30
0.0
 11
830.0
 21
60.0
 31
0.0
  0
LINE
  5
72
330
1E
100
AcDbEntity
  8
HILF
100
AcDbLine
 10
756.7238616296992
 20
83.77983636955827
 30
0.0
 11
824.8588839326728
 21
83.77983636955827
 31
0.0
  0
LINE
  5
73
330
1E
100
AcDbEntity
  8
HILF
100
AcDbLine
 10
653.4909699289885
 20
14.89398258028314
 30
0.0
 11
824.8588839326728
 21
14.89398258028314
 31
0.0
  0
TEXT
  5
74
330
1E
100
AcDbEntity
  8
TEXT
100
AcDbText
 10
492.7826069847975
 20
18.67381894984132
 30
0.0
 40
4.0
  1
Änderung
 41
0.8
  7
GREEKS
 72
     1
 11
503.5254641276546
 21
18.67381894984132
 31
0.0
100
AcDbText
  0
TEXT
  5
75
330
1E
100
AcDbEntity
  8
TEXT
100
AcDbText
 10
573.5163572150376
 20
102.4620895087088
 30
0.0
 40
5.0
  1
Maßstab
 41
0.8
  7
GREEKS
100
AcDbText
  0
TEXT
  5
76
330
1E
100
AcDbEntity
  8
TEXT
100
AcDbText
 10
614.2858954734052
 20
102.4184168434819
 30
0.0
 40
5.0
  1
Zul. Abw.
 41
0.8
  7
GREEKS
100
AcDbText
  0
TEXT
  5
77
330
1E
100
AcDbEntity
  8
TEXT
100
AcDbText
 10
654.8779403809009
 20
102.5489328011779
 30
0.0
 40
5.0
  1
Benennung
 41
0.8
  7
GREEKS
100
AcDbText
  0
TEXT
  5
78
330
1E
100
AcDbEntity
  8
TEXT
100
AcDbText
 10
756.178754957634
 20
102.3132034537136
 30
0.0
 40
5.0
  1
Zeichnungs Nr.
 41
0.8
  7
GREEKS
100
AcDbText
  0
TEXT
  5
79
330
1E
100
AcDbEntity
  8
TEXT
100
AcDbText
 10
654.7422383911359
 20
30.84560570193057
 30
0.0
 40
5.0
  1
Bauvorhaben
 41
0.8
  7
GREEKS
100
AcDbText
  0
TEXT
  5
7A
330
1E
100
AcDbEntity
  8
TEXT
100
AcDbText
 10
756.7238616296992
 20
73.1811823709997
 30
0.0
 40
5.0
  1
Ersatz für:
 41
0.8
  7
GREEKS
100
AcDbText
  0
TEXT
  5
7B
330
1E
100
AcDbEntity
  8
TEXT
100
AcDbText
 10
478.2664110704575
 20
13.65465846027192
 30
0.0
 40
4.0
  1
Index
 50
90.0
 41
0.8
  7
GREEKS
100
AcDbText
  0
TEXT
  5
7C
330
1E
100
AcDbEntity
  8
TEXT
100
AcDbText
 10
530.0571803261054
 20
18.6715626933981
 30
0.0
 40
4.0
  1
Tag
 41
0.8
  7
GREEKS
 72
     1
 11
533.7905136594388
 21
18.6715626933981
 31
0.0
100
AcDbText
  0
TEXT
  5
7D
330
1E
100
AcDbEntity
  8
TEXT
100
AcDbText
 10
548.6614567187547
 20
18.59324216966408
 30
0.0
 40
4.0
  1
Name
 41
0.8
  7
GREEKS
 72
     1
 11
554.9852662425641
 21
18.59324216966408
 31
0.0
100
AcDbText
  0
TEXT
  5
7E
330
1E
100
AcDbEntity
  8
TEXT
100
AcDbText
 10
592.3311673153651
 20
73.31880501229926
 30
0.0
 40
4.0
  1
Tag
 41
0.8
  7
GREEKS
100
AcDbText
  0
TEXT
  5
7F
330
1E
100
AcDbEntity
  8
TEXT
100
AcDbText
 10
622.4626584226294
 20
73.30961091915225
 30
0.0
 40
4.0
  1
Name
 41
0.8
  7
GREEKS
100
AcDbText
  0
TEXT
  5
80
330
1E
100
AcDbEntity
  8
TEXT
100
AcDbText
 10
567.5836127167615
 20
63.62990369617964
 30
0.0
 40
4.0
  1
Gez.
 41
0.8
  7
GREEKS
100
AcDbText
  0
TEXT
  5
81
330
1E
100
AcDbEntity
  8
TEXT
100
AcDbText
 10
567.5515086571672
 20
53.68926291428377
 30
0.0
 40
4.0
  1
Gepr.
 41
0.8
  7
GREEKS
100
AcDbText
  0
TEXT
  5
82
330
1E
100
AcDbEntity
  8
TEXT
100
AcDbText
 10
567.6006777387303
 20
43.52946389649807
 30
0.0
 40
4.0
  1
Norm.
 41
0.8
  7
GREEKS
100
AcDbText
  0
LINE
  5
83
330
1E
100
AcDbEntity
  8
STEMPEL
100
AcDbLine
 10
479.9999999999998
 20
10.0
 30
0.0
 11
830.0
 21
10.0
 31
0.0
  0
TEXT
  5
84
330
1E
100
AcDbEntity
  8
TEXT
100
AcDbText
 10
757.2400861497006
 20
52.07416177878602
 30
0.0
 40
5.0
  1
ersetzt durch:
 41
0.8
  7
GREEKS
100
AcDbText
  0
LINE
  5
85
330
1E
100
AcDbEntity
  8
STEMPEL
100
AcDbLine
 10
830.0
 20
10.0
 30
0.0
 11
40.0
 21
10.0
 31
0.0
  0
LINE
  5
86
330
1E
100
AcDbEntity
  8
STEMPEL
100
AcDbLine
 10
830.0
 20
10.0
 30
0.0
 11
830.0
 21
584.0
 31
0.0
  0
LINE
  5
87
330
1E
100
AcDbEntity
  8
STEMPEL
100
AcDbLine
 10
470.0
 20
10.0
 30
0.0
 11
470.0
 21
110.0
 31
0.0
  0
LINE
  5
88
330
1E
100
AcDbEntity
  8
STEMPEL
100
AcDbLine
 10
830.0
 20
584.0
 30
0.0
 11
39.99999999999989
 21
584.0
 31
0.0
  0
LINE
  5
89
330
1E
100
AcDbEntity
  8
HILF
100
AcDbLine
 10
839.9999999999998
 20
594.0000000000002
 30
0.0
 11
-0.0000000000001705
 21
593.9999999999997
 31
0.0
  0
LINE
  5
8A
330
1E
100
AcDbEntity
  8
HILF
100
AcDbLine
 10
840.0
 20
0.0
 30
0.0
 11
0.0
 21
0.0
 31
0.0
  0
LINE
  5
8B
330
1E
100
AcDbEntity
  8
HILF
100
AcDbLine
 10
31.08767135713851
 20
296.9999999999999
 30
0.0
 11
0.0000000000000568
 21
296.9999999999999
 31
0.0
  0
TEXT
  5
8C
330
1E
100
AcDbEntity
  8
TEXT
100
AcDbText
 10
568.6221098221039
 20
73.14025471151666
 30
0.0
 40
4.0
  1
2007
 41
0.8
  7
GREEKS
100
AcDbText
  0
LINE
  5
8D
330
1E
100
AcDbEntity
  8
HILF
100
AcDbLine
 10
840.0
 20
-0.0000000000001137
 30
0.0
 11
839.9999999999998
 21
594.0
 31
0.0
  0
TEXT
  5
8E
330
1E
100
AcDbEntity
  8
VOLL
100
AcDbText
 10
78.07675471698113
 20
31.02594776470585
 30
0.0
 40
1.8
  1

  7
GREEKS
100
AcDbText
  0
TEXT
  5
8F
330
1E
100
AcDbEntity
  8
TEXT
100
AcDbText
 10
471.8550995097768
 20
111.6719999999999
 30
0.0
 40
5.0
  1
Erstellt mit AUTOCAD 2004
 41
0.8
  7
GREEKS
100
AcDbText
  0
TEXT
  5
90
330
1E
100
AcDbEntity
  8
TEXT
100
AcDbText
 10
624.4216048581257
 20
63.0896391972351
 30
0.0
 40
4.0
  1
Koeh
 41
0.8
  7
GREEKS
 72
     1
 11
629.6787477152686
 21
63.0896391972351
 31
0.0
100
AcDbText
  0
TEXT
  5
91
330
1E
100
AcDbEntity
  8
TEXT
 62
     1
100
AcDbText
 10
765.6084796533392
 20
88.14901428913959
 30
0.0
 40
7.0
  1
03521100W
 41
0.8
  7
GREEKS
 72
     1
 11
788.5418129866726
 21
88.14901428913959
 31
0.0
100
AcDbText
  0
TEXT
  5
92
330
1E
100
AcDbEntity
  8
TEXT
 62
     1
100
AcDbText
 10
580.5006306481886
 20
88.14901428913959
 30
0.0
 40
7.0
  1
1:2
 41
0.8
  7
GREEKS
100
AcDbText
  0
TEXT
  5
93
330
1E
100
AcDbEntity
  8
TEXT
100
AcDbText
 10
590.703759012998
 20
63.10765040825732
 30
0.0
 40
4.0
  1
31.08.
 41
0.8
  7
GREEKS
 72
     1
 11
597.4085209177599
 21
63.10765040825732
 31
0.0
100
AcDbText
  0
TEXT
  5
94
330
1E
100
AcDbEntity
  8
TEXT
 62
     1
100
AcDbText
 10
656.8935731057401
 20
87.41748789253779
 30
0.0
 40
7.0
  1
Bogen DN100
 41
0.8
  7
GREEKS
100
AcDbText
  0
TEXT
  5
95
330
1E
100
AcDbEntity
  8
TEXT
100
AcDbText
 10
655.1296391125315
 20
71.50334417585288
 30
0.0
 40
5.0
  1
mit Beruhigungsstrecke
 41
0.8
  7
GREEKS
100
AcDbText
  0
TEXT
  5
97
330
1E
100
AcDbEntity
  8
TEXT
100
AcDbText
 10
655.1296391125315
 20
51.64011943042158
 30
0.0
 40
5.0
  1
EDV-Art.Nr. 03521.100X
 41
0.8
  7
GREEKS
100
AcDbText
  0
TEXT
  5
98
330
1E
100
AcDbEntity
  8
TEXT
100
AcDbText
 10
654.9837501577826
 20
42.62974153022632
 30
0.0
 40
4.0
  1
03521100W.DWG
 41
0.8
  7
GREEKS
100
AcDbText
  0
TEXT
  5
99
330
1E
100
AcDbEntity
  8
TEXT
100
AcDbText
 10
612.6261322080839
 20
90.76363841023022
 30
0.0
 40
4.0
  1
DIN EN1123-2
 41
0.8
  7
GREEKS
 72
     1
 11
629.6166083985601
 21
90.76363841023022
 31
0.0
100
AcDbText
  0
INSERT
  5
9A
330
1E
100
AcDbEntity
  8
STEMPEL
100
AcDbBlockReference
  2
LOGO
 10
570.9955485457794
 20
45.02105276448322
 30
0.0
 41
2.0
 42
2.0
 43
2.0
  0
INSERT
  5
9B
330
1E
100
AcDbEntity
  8
TEXT
100
AcDbBlockReference
  2
INDEX
 10
840.0
 20
0.0
 30
0.0
 41
2.0
 42
2.0
 43
2.0
  0
LINE
  5
9C
330
1E
100
AcDbEntity
  8
HILF
100
AcDbLine
 10
0.0
 20
0.0
 30
0.0
 11
-0.0000000000001705
 21
593.9999999999997
 31
0.0
  0
LINE
  5
9D
330
1E
100
AcDbEntity
  8
STEMPEL
100
AcDbLine
 10
40.0
 20
10.0
 30
0.0
 11
39.99999999999989
 21
584.0
 31
0.0
  0
LINE
  5
9E
330
1E
100
AcDbEntity
  8
HILF
 62
     7
100
AcDbLine
 10
460.0
 20
-0.0000000000002824
 30
0.0
 11
460.0
 21
10.0
 31
0.0
  0
LINE
  5
9F
330
1E
100
AcDbEntity
  8
HILF
 62
     7
100
AcDbLine
 10
459.9999999999998
 20
584.0
 30
0.0
 11
459.9999999999998
 21
593.9999999999998
 31
0.0
  0
LINE
  5
547
330
1E
100
AcDbEntity
  8
HILF
100
AcDbLine
 10
216.8949018404754
 20
494.2059286521073
 30
0.0
 11
315.7842401223572
 21
494.2059286521072
 31
0.0
  0
LINE
  5
548
330
1E
100
AcDbEntity
  8
HILF
100
AcDbLine
 10
318.7615010981931
 20
500.3850800657978
 30
0.0
 11
213.9176408646394
 21
500.3850800657977
 31
0.0
  0
LINE
  5
549
330
1E
100
AcDbEntity
  8
HILF
100
AcDbLine
 10
212.9513120037013
 20
523.0653004811513
 30
0.0
 11
319.7278299591312
 21
523.0653004811513
 31
0.0
  0
LINE
  5
54B
330
1E
100
AcDbEntity
  8
STEMPEL
100
AcDbLine
 10
210.6328151434913
 20
567.2910820488775
 30
0.0
 11
322.0463268193412
 21
567.2910820488775
 31
0.0
  0
ARC
  5
54C
330
1E
100
AcDbEntity
  8
STEMPEL
100
AcDbCircle
 10
199.3395709814162
 20
519.7910820488774
 30
0.0
 40
12.0
100
AcDbArc
 50
0.0
 51
26.88777065901912
  0
LINE
  5
54E
330
1E
100
AcDbEntity
  8
MITTEL
100
AcDbLine
 10
266.3395709814163
 20
572.2910820488776
 30
0.0
 11
266.3395709814163
 21
449.2910820488774
 31
0.0
  0
ARC
  5
550
330
1E
100
AcDbEntity
  8
STEMPEL
100
AcDbCircle
 10
226.3395709814163
 20
504.218570925825
 30
0.0
 40
15.0
100
AcDbArc
 50
180.0
 51
214.3011527567924
  0
LINE
  5
552
330
1E
100
AcDbEntity
  8
STEMPEL
100
AcDbLine
 10
215.3395709814163
 20
491.2570895290094
 30
0.0
 11
215.3395709814163
 21
477.5729178573386
 31
0.0
  0
ARC
  5
553
330
1E
100
AcDbEntity
  8
STEMPEL
100
AcDbCircle
 10
207.3395709814163
 20
491.2570895290094
 30
0.0
 40
8.0
100
AcDbArc
 50
0.0
 51
34.3011527567924
  0
LINE
  5
554
330
1E
100
AcDbEntity
  8
STEMPEL
100
AcDbLine
 10
211.3395709814163
 20
519.7910820488774
 30
0.0
 11
211.3395709814163
 21
504.2185709258251
 31
0.0
  0
LINE
  5
557
330
1E
100
AcDbEntity
  8
STEMPEL
100
AcDbLine
 10
207.3395709814163
 20
554.6863305863064
 30
0.0
 11
207.3395709814163
 21
536.5240820488775
 31
0.0
  0
ARC
  5
55A
330
1E
100
AcDbEntity
  8
STEMPEL
100
AcDbCircle
 10
232.3395709814163
 20
536.5240820488775
 30
0.0
 40
24.99990931069965
100
AcDbArc
 50
180.0
 51
206.8877706590191
  0
LINE
  5
55C
330
1E
100
AcDbEntity
  8
STEMPEL
100
AcDbLine
 10
210.6328151434913
 20
567.2910820488775
 30
0.0
 11
209.6818763054999
 21
565.2517871298238
 31
0.0
  0
ARC
  5
55D
330
1E
100
AcDbEntity
  8
STEMPEL
100
AcDbCircle
 10
232.3395709814162
 20
554.6863305863064
 30
0.0
 40
25.0
100
AcDbArc
 50
155.0000000000072
 51
180.0
  0
ARC
  5
560
330
1E
100
AcDbEntity
  8
STEMPEL
100
AcDbCircle
 10
333.3395709814163
 20
519.7910820488774
 30
0.0
 40
12.0
100
AcDbArc
 50
153.1122293409809
 51
180.0
  0
ARC
  5
562
330
1E
100
AcDbEntity
  8
STEMPEL
100
AcDbCircle
 10
325.3395709814163
 20
491.2570895290094
 30
0.0
 40
8.0
100
AcDbArc
 50
145.6988472432076
 51
180.0
  0
LINE
  5
565
330
1E
100
AcDbEntity
  8
STEMPEL
100
AcDbLine
 10
317.3395709814163
 20
491.2570895290094
 30
0.0
 11
317.3395709814163
 21
477.5729178573385
 31
0.0
  0
ARC
  5
566
330
1E
100
AcDbEntity
  8
STEMPEL
100
AcDbCircle
 10
306.3395709814162
 20
504.218570925825
 30
0.0
 40
15.0
100
AcDbArc
 50
325.6988472432076
 51
0.0
  0
LINE
  5
568
330
1E
100
AcDbEntity
  8
STEMPEL
100
AcDbLine
 10
321.3395709814163
 20
519.7910820488774
 30
0.0
 11
321.3395709814163
 21
504.2185709258251
 31
0.0
  0
LINE
  5
56A
330
1E
100
AcDbEntity
  8
STEMPEL
100
AcDbLine
 10
325.3395709814163
 20
554.6863305863064
 30
0.0
 11
325.3395709814163
 21
536.5240820488775
 31
0.0
  0
ARC
  5
56B
330
1E
100
AcDbEntity
  8
STEMPEL
100
AcDbCircle
 10
300.3395709814163
 20
536.5240820488775
 30
0.0
 40
24.99990931069965
100
AcDbArc
 50
333.1122293409809
 51
0.0
  0
LINE
  5
56E
330
1E
100
AcDbEntity
  8
STEMPEL
100
AcDbLine
 10
322.0463268193413
 20
567.2910820488775
 30
0.0
 11
322.9972656573326
 21
565.2517871298238
 31
0.0
  0
ARC
  5
56F
330
1E
100
AcDbEntity
  8
STEMPEL
100
AcDbCircle
 10
300.3395709814163
 20
554.6863305863064
 30
0.0
 40
25.0
100
AcDbArc
 50
0.0
 51
24.99999999998912
  0
LINE
  5
571
330
1E
100
AcDbEntity
  8
MITTEL
100
AcDbLine
 10
266.3395709814163
 20
449.2910820488774
 30
0.0
 11
479.2965915487546
 21
228.7676317168772
 31
0.0
  0
ARC
  5
572
330
1E
100
AcDbEntity
  8
MITTEL
100
AcDbCircle
 10
336.3395709814163
 20
477.5729178573385
 30
0.0
 40
70.0
100
AcDbArc
 50
180.0
 51
224.0
  0
ARC
  5
573
102
{ACAD_REACTORS
330
730
102
}
330
1E
100
AcDbEntity
  8
STEMPEL
100
AcDbCircle
 10
336.3395709814163
 20
477.5729178573385
 30
0.0
 40
121.0
100
AcDbArc
 50
180.0
 51
224.0
  0
ARC
  5
574
102
{ACAD_REACTORS
330
737
102
}
330
1E
100
AcDbEntity
  8
STEMPEL
100
AcDbCircle
 10
336.3395709814163
 20
477.5729178573385
 30
0.0
 40
19.0
100
AcDbArc
 50
180.0
 51
224.0
  0
LINE
  5
575
330
1E
100
AcDbEntity
  8
STEMPEL
100
AcDbLine
 10
322.6721147749819
 20
464.3744088186176
 30
0.0
 11
249.2994551404395
 21
393.5192550317998
 31
0.0
  0
LINE
  5
576
102
{ACAD_REACTORS
330
737
102
}
330
1E
100
AcDbEntity
  8
STEMPEL
100
AcDbLine
 10
322.6721147749819
 20
464.3744088186176
 30
0.0
 11
496.3367073897314
 21
284.5394587339549
 31
0.0
  0
LINE
  5
577
102
{ACAD_REACTORS
330
730
102
}
330
1E
100
AcDbEntity
  8
STEMPEL
100
AcDbLine
 10
249.2994551404396
 20
393.5192550317998
 30
0.0
 11
422.9640477551891
 21
213.6843049471373
 31
0.0
  0
LINE
  5
578
330
1E
100
AcDbEntity
  8
STEMPEL
100
AcDbLine
 10
496.3367073897313
 20
284.5394587339549
 30
0.0
 11
422.9640477551889
 21
213.6843049471371
 31
0.0
  0
ARC
  5
579
330
1E
100
AcDbEntity
  8
STEMPEL
100
AcDbCircle
 10
510.0041635961657
 20
297.7379677726759
 30
0.0
 40
19.0
100
AcDbArc
 50
224.0
 51
268.0000000000001
  0
ARC
  5
57A
330
1E
100
AcDbEntity
  8
STEMPEL
100
AcDbCircle
 10
510.0041635961657
 20
297.7379677726759
 30
0.0
 40
121.0
100
AcDbArc
 50
224.0
 51
268.0000000000001
  0
ARC
  5
57B
330
1E
100
AcDbEntity
  8
MITTEL
100
AcDbCircle
 10
510.0041635961657
 20
297.7379677726759
 30
0.0
 40
70.0
100
AcDbArc
 50
224.0
 51
268.0000000000001
  0
LINE
  5
57C
330
1E
100
AcDbEntity
  8
STEMPEL
100
AcDbLine
 10
600.0039742958542
 20
275.5835237872537
 30
0.0
 11
509.3410731588181
 21
278.7495420593131
 31
0.0
  0
LINE
  5
57F
330
1E
100
AcDbEntity
  8
STEMPEL
100
AcDbLine
 10
596.4442256321996
 20
173.645659431306
 30
0.0
 11
505.7813244951632
 21
176.8116777033653
 31
0.0
  0
LINE
  5
581
330
1E
100
AcDbEntity
  8
MITTEL
100
AcDbLine
 10
608.2180082342181
 20
224.2655966422548
 30
0.0
 11
479.2965915487546
 21
228.7676317168772
 31
0.0
  0
LINE
  5
584
330
1E
100
AcDbEntity
  8
STEMPEL
100
AcDbLine
 10
601.4564463189164
 20
173.9083387867734
 30
0.0
 11
604.9856618793286
 21
274.9718494647612
 31
0.0
  0
LINE
  5
586
330
1E
100
AcDbEntity
  8
HILF
100
AcDbLine
 10
596.5142912464201
 20
175.6520761065472
 30
0.0
 11
599.9339086816337
 21
273.5771071120124
 31
0.0
  0
LINE
  5
59B
330
1E
100
AcDbEntity
  8
STEMPEL
100
AcDbLine
 10
601.4564463189164
 20
173.9083387867734
 30
0.0
 11
596.4442256321997
 21
173.645659431306
 31
0.0
  0
LINE
  5
59E
330
1E
100
AcDbEntity
  8
STEMPEL
100
AcDbLine
 10
604.9856618793286
 20
274.9718494647612
 30
0.0
 11
600.0039742958547
 21
275.5835237872535
 31
0.0
  0
DIMENSION
  5
5E9
330
1E
100
AcDbEntity
  8
BEM
100
AcDbDimension
  2
*D2
 10
188.7987531858989
 20
449.2910820488774
 30
0.0
 11
182.2987531858988
 21
508.2910820488775
 31
0.0
 70
    32
 71
     5
 42
118.0
  3
Standard
100
AcDbAlignedDimension
 13
210.6328151434913
 23
567.2910820488775
 33
0.0
 14
266.3395709814163
 24
449.2910820488774
 34
0.0
 50
90.0
100
AcDbRotatedDimension
1001
ACAD
1000
DSTYLE
1002
{
1070
    40
1040
2.0
1070
    41
1040
3.5
1070
    42
1040
1.0
1070
    43
1040
7.0
1070
    44
1040
1.0
1070
    73
1070
     0
1070
    74
1070
     0
1070
    77
1070
     1
1070
    78
1070
     8
1070
    79
1070
     2
1070
   140
1040
3.5
1070
   141
1040
1.5
1070
   146
1040
0.5142857142857144
1070
   147
1040
1.5
1070
   172
1070
     1
1070
   178
1070
     1
1070
   179
1070
     2
1070
   271
1070
     2
1070
   272
1070
     2
1070
   284
1070
     8
1070
   285
1070
     8
1070
   286
1070
     8
1002
}
  0
DIMENSION
  5
607
330
1E
100
AcDbEntity
  8
BEM
100
AcDbDimension
  2
*D3
 10
600.8224547461311
 20
155.7531955292622
 30
0.0
 11
539.0870701995133
 21
164.4130047004413
 31
0.0
 70
    32
 71
     5
 42
124.0
 51
1.999999999999875
  3
Standard
100
AcDbAlignedDimension
 13
479.2965915487546
 23
228.7676317168772
 33
0.0
 14
601.4564463189164
 24
173.9083387867734
 34
0.0
 50
358.0
100
AcDbRotatedDimension
1001
ACAD
1000
DSTYLE
1002
{
1070
    40
1040
2.0
1070
    41
1040
3.5
1070
    42
1040
1.0
1070
    43
1040
7.0
1070
    44
1040
1.0
1070
    73
1070
     0
1070
    74
1070
     0
1070
    77
1070
     1
1070
    78
1070
     8
1070
    79
1070
     2
1070
   140
1040
3.5
1070
   141
1040
1.5
1070
   146
1040
0.5142857142857144
1070
   147
1040
1.5
1070
   172
1070
     1
1070
   178
1070
     1
1070
   179
1070
     2
1070
   271
1070
     2
1070
   272
1070
     2
1070
   284
1070
     8
1070
   285
1070
     8
1070
   286
1070
     8
1002
}
  0
DIMENSION
  5
614
330
1E
100
AcDbEntity
  8
BEM
100
AcDbDimension
  2
*D4
 10
626.3265055485594
 20
274.6643207409387
 30
0.0
 11
618.0505908411078
 21
223.9222352915312
 31
0.0
 70
    32
  1
%%C<>
 71
     5
 42
101.9999999999998
 51
1.999999999999875
  3
Standard
100
AcDbAlignedDimension
 13
596.4442256321998
 23
173.645659431306
 33
0.0
 14
600.0039742958542
 24
275.5835237872537
 34
0.0
 50
88.00000000000007
100
AcDbRotatedDimension
1001
ACAD
1000
DSTYLE
1002
{
1070
    40
1040
2.0
1070
    41
1040
3.5
1070
    42
1040
1.0
1070
    43
1040
7.0
1070
    44
1040
1.0
1070
    73
1070
     0
1070
    74
1070
     0
1070
    77
1070
     1
1070
    78
1070
     8
1070
    79
1070
     2
1070
   140
1040
3.5
1070
   141
1040
1.5
1070
   146
1040
0.5142857142857144
1070
   147
1040
1.5
1070
   172
1070
     1
1070
   178
1070
     1
1070
   179
1070
     2
1070
   271
1070
     2
1070
   272
1070
     2
1070
   284
1070
     8
1070
   285
1070
     8
1070
   286
1070
     8
1002
}
  0
DIMENSION
  5
62A
330
1E
100
AcDbEntity
  8
BEM
100
AcDbDimension
  2
*D5
 10
333.7405306683262
 20
475.0630538017163
 30
0.0
 11
425.248535677902
 21
389.6608581673685
 31
0.0
 70
    33
 71
     5
 42
250.0
  3
Standard
100
AcDbAlignedDimension
 13
496.3367073897313
 23
284.5394587339549
 33
0.0
 14
322.6721147749819
 24
464.3744088186176
 34
0.0
1001
ACAD
1000
DSTYLE
1002
{
1070
    40
1040
2.0
1070
    41
1040
3.5
1070
    42
1040
1.0
1070
    43
1040
7.0
1070
    44
1040
1.0
1070
    73
1070
     0
1070
    74
1070
     0
1070
    77
1070
     1
1070
    78
1070
     8
1070
    79
1070
     2
1070
   140
1040
3.5
1070
   141
1040
1.5
1070
   146
1040
0.5142857142857144
1070
   147
1040
1.5
1070
   172
1070
     1
1070
   178
1070
     1
1070
   179
1070
     2
1070
   271
1070
     2
1070
   272
1070
     2
1070
   284
1070
     8
1070
   285
1070
     8
1070
   286
1070
     8
1002
}
  0
DIMENSION
  5
657
330
1E
100
AcDbEntity
  8
BEM
100
AcDbDimension
  2
*D6
 10
479.2965915487546
 20
228.7676317168772
 30
0.0
 11
411.7466695887636
 21
258.8427946638181
 31
0.0
 70
    34
 71
     5
 42
0.7679448708775059
  3
Standard
100
AcDb2LineAngularDimension
 13
266.3395709814163
 23
449.2910820488774
 33
0.0
 14
479.2965915487546
 24
228.7676317168772
 34
0.0
 15
608.2180082342181
 25
224.2655966422548
 35
0.0
 16
421.6900644323084
 26
263.8388689238608
 36
0.0
1001
ACAD
1000
DSTYLE
1002
{
1070
    40
1040
2.0
1070
    41
1040
3.5
1070
    42
1040
1.0
1070
    43
1040
7.0
1070
    44
1040
1.0
1070
    73
1070
     0
1070
    74
1070
     0
1070
    77
1070
     1
1070
    78
1070
     8
1070
    79
1070
     2
1070
   140
1040
3.5
1070
   141
1040
1.5
1070
   146
1040
0.5142857142857144
1070
   147
1040
1.5
1070
   172
1070
     1
1070
   178
1070
     1
1070
   179
1070
     2
1070
   271
1070
     2
1070
   272
1070
     2
1070
   284
1070
     8
1070
   285
1070
     8
1070
   286
1070
     8
1002
}
  0
DIMENSION
  5
665
330
1E
100
AcDbEntity
  8
BEM
100
AcDbDimension
  2
*D7
 10
266.3395709814163
 20
449.2910820488774
 30
0.0
 11
289.1910215877031
 21
392.7317570717656
 31
0.0
 70
    34
 71
     5
 42
0.7679448708775061
  3
Standard
100
AcDb2LineAngularDimension
 13
266.3395709814163
 23
449.2910820488774
 33
0.0
 14
479.2965915487546
 24
228.7676317168772
 34
0.0
 15
266.3395709814163
 25
572.2910820488776
 35
0.0
 16
283.4305479056911
 26
383.9893967292418
 36
0.0
1001
ACAD
1000
DSTYLE
1002
{
1070
    40
1040
2.0
1070
    41
1040
3.5
1070
    42
1040
1.0
1070
    43
1040
7.0
1070
    44
1040
1.0
1070
    73
1070
     0
1070
    74
1070
     0
1070
    77
1070
     1
1070
    78
1070
     8
1070
    79
1070
     2
1070
   140
1040
3.5
1070
   141
1040
1.5
1070
   146
1040
0.5142857142857144
1070
   147
1040
1.5
1070
   172
1070
     1
1070
   178
1070
     1
1070
   179
1070
     2
1070
   271
1070
     2
1070
   272
1070
     2
1070
   284
1070
     8
1070
   285
1070
     8
1070
   286
1070
     8
1002
}
  0
TEXT
  5
6E8
330
1E
100
AcDbEntity
  8
TEXT
 62
     1
100
AcDbText
 10
603.398239288382
 20
301.4496983349038
 30
0.0
 40
7.0
  1
Rohrende leicht eingezogen
 41
0.8
  7
GREEKS
100
AcDbText
  0
ARC
  5
701
330
1E
100
AcDbEntity
  8
SCHRAFF
100
AcDbCircle
 10
322.6721147749819
 20
464.3744088186176
 30
0.0
 40
5.0
100
AcDbArc
 50
187.1301023541557
 51
260.8698976458439
  0
ARC
  5
702
330
1E
100
AcDbEntity
  8
SCHRAFF
100
AcDbCircle
 10
319.0754157732887
 20
460.9011169663226
 30
0.0
 40
5.0
100
AcDbArc
 50
187.1301023541557
 51
260.8698976458439
  0
ARC
  5
717
330
1E
100
AcDbEntity
  8
SCHRAFF
100
AcDbCircle
 10
315.4787167715954
 20
457.4278251140276
 30
0.0
 40
5.0
100
AcDbArc
 50
187.1301023541557
 51
260.8698976458439
  0
ARC
  5
718
330
1E
100
AcDbEntity
  8
SCHRAFF
100
AcDbCircle
 10
311.8820177699022
 20
453.9545332617326
 30
0.0
 40
5.0
100
AcDbArc
 50
187.1301023541557
 51
260.8698976458439
  0
ARC
  5
719
330
1E
100
AcDbEntity
  8
SCHRAFF
100
AcDbCircle
 10
308.2853187682089
 20
450.4812414094375
 30
0.0
 40
5.0
100
AcDbArc
 50
187.1301023541557
 51
260.8698976458439
  0
ARC
  5
71A
330
1E
100
AcDbEntity
  8
SCHRAFF
100
AcDbCircle
 10
304.6886197665156
 20
447.0079495571426
 30
0.0
 40
5.0
100
AcDbArc
 50
187.1301023541557
 51
260.8698976458439
  0
ARC
  5
71B
330
1E
100
AcDbEntity
  8
SCHRAFF
100
AcDbCircle
 10
301.0919207648224
 20
443.5346577048476
 30
0.0
 40
5.0
100
AcDbArc
 50
187.1301023541557
 51
260.8698976458439
  0
ARC
  5
71C
330
1E
100
AcDbEntity
  8
SCHRAFF
100
AcDbCircle
 10
279.5117267546628
 20
422.6949065910776
 30
0.0
 40
5.0
100
AcDbArc
 50
187.1301023541557
 51
260.8698976458439
  0
ARC
  5
71D
330
1E
100
AcDbEntity
  8
SCHRAFF
100
AcDbCircle
 10
283.108425756356
 20
426.1681984433726
 30
0.0
 40
5.0
100
AcDbArc
 50
187.1301023541557
 51
260.8698976458439
  0
ARC
  5
71E
330
1E
100
AcDbEntity
  8
SCHRAFF
100
AcDbCircle
 10
286.7051247580493
 20
429.6414902956676
 30
0.0
 40
5.0
100
AcDbArc
 50
187.1301023541557
 51
260.8698976458439
  0
ARC
  5
71F
330
1E
100
AcDbEntity
  8
SCHRAFF
100
AcDbCircle
 10
290.3018237597426
 20
433.1147821479626
 30
0.0
 40
5.0
100
AcDbArc
 50
187.1301023541557
 51
260.8698976458439
  0
ARC
  5
720
330
1E
100
AcDbEntity
  8
SCHRAFF
100
AcDbCircle
 10
293.8985227614359
 20
436.5880740002576
 30
0.0
 40
5.0
100
AcDbArc
 50
187.1301023541557
 51
260.8698976458439
  0
ARC
  5
721
330
1E
100
AcDbEntity
  8
SCHRAFF
100
AcDbCircle
 10
297.4952217631291
 20
440.0613658525526
 30
0.0
 40
5.0
100
AcDbArc
 50
187.1301023541557
 51
260.8698976458439
  0
ARC
  5
722
330
1E
100
AcDbEntity
  8
SCHRAFF
100
AcDbCircle
 10
265.1249307478897
 20
408.8017391818977
 30
0.0
 40
5.0
100
AcDbArc
 50
187.1301023541557
 51
260.8698976458439
  0
ARC
  5
723
330
1E
100
AcDbEntity
  8
SCHRAFF
100
AcDbCircle
 10
261.5282317461965
 20
405.3284473296026
 30
0.0
 40
5.0
100
AcDbArc
 50
187.1301023541557
 51
260.8698976458439
  0
ARC
  5
724
330
1E
100
AcDbEntity
  8
SCHRAFF
100
AcDbCircle
 10
257.9315327445032
 20
401.8551554773076
 30
0.0
 40
5.0
100
AcDbArc
 50
187.1301023541557
 51
260.8698976458439
  0
ARC
  5
725
330
1E
100
AcDbEntity
  8
SCHRAFF
100
AcDbCircle
 10
254.33483374281
 20
398.3818636250127
 30
0.0
 40
5.0
100
AcDbArc
 50
187.1301023541557
 51
260.8698976458439
  0
ARC
  5
728
330
1E
100
AcDbEntity
  8
SCHRAFF
100
AcDbCircle
 10
268.721629749583
 20
412.2750310341927
 30
0.0
 40
5.0
100
AcDbArc
 50
187.1301023541557
 51
260.8698976458439
  0
ARC
  5
729
330
1E
100
AcDbEntity
  8
SCHRAFF
100
AcDbCircle
 10
272.3183287512762
 20
415.7483228864877
 30
0.0
 40
5.0
100
AcDbArc
 50
187.1301023541557
 51
260.8698976458439
  0
ARC
  5
72A
330
1E
100
AcDbEntity
  8
SCHRAFF
100
AcDbCircle
 10
275.9150277529695
 20
419.2216147387826
 30
0.0
 40
5.0
100
AcDbArc
 50
187.1301023541557
 51
260.8698976458439
  0
ARC
  5
72B
102
{ACAD_REACTORS
330
730
102
}
330
1E
100
AcDbEntity
  8
SCHRAFF
100
AcDbCircle
 10
250.6979949610671
 20
394.8533130829027
 30
0.0
 40
3.558711349547942
100
AcDbArc
 50
166.1846144417838
 51
281.1050072122316
  0
HATCH
  5
730
330
1E
100
AcDbEntity
  8
SCHRAFF
100
AcDbHatch
 10
0.0
 20
0.0
 30
0.0
210
0.0
220
0.0
230
1.0
  2
_USER
 70
     0
 71
     1
 91
        1
 92
        7
 72
     1
 73
     1
 93
        3
 10
249.2994551404395
 20
393.5192550317998
 42
-0.0061990617211106
 10
247.2422364481925
 20
395.7031128064236
 42
0.5481669737231007
 10
251.3834302518165
 20
391.361235630784
 42
0.0
 97
        3
330
573
330
72B
330
577
 75
     0
 76
     0
 52
0.0
 41
0.1
 77
     0
 78
     1
 53
0.0
 43
0.0
 44
27.53153876828333
 45
0.0
 46
0.1
 79
     0
 47
0.0529516537635357
 98
        1
 10
248.6647418119087
 20
393.2899873623597
  0
ARC
  5
731
102
{ACAD_REACTORS
330
737
102
}
330
1E
100
AcDbEntity
  8
SCHRAFF
100
AcDbCircle
 10
321.1330789926645
 20
463.0082985576794
 30
0.0
 40
3.708547966788132
100
AcDbArc
 50
347.6703380474197
 51
95.78015319085492
  0
HATCH
  5
737
330
1E
100
AcDbEntity
  8
SCHRAFF
100
AcDbHatch
 10
0.0
 20
0.0
 30
0.0
210
0.0
220
0.0
230
1.0
  2
_USER
 70
     0
 71
     1
 91
        1
 92
        7
 72
     1
 73
     1
 93
        3
 10
320.7595849253327
 20
466.6979909843779
 42
0.0396603450432798
 10
322.6721147749818
 20
464.3744088186178
 42
0.0
 10
324.7560898863591
 20
462.2163894176016
 42
0.5101291533058529
 97
        3
330
574
330
576
330
731
 75
     0
 76
     0
 52
0.0
 41
0.1
 77
     0
 78
     1
 53
0.0
 43
0.0
 44
27.53153876828333
 45
0.0
 46
0.1
 79
     0
 47
0.0704289914215736
 98
        1
 10
322.0650382661883
 20
465.7826900261079
  0
HATCH
  5
738
330
1E
100
AcDbEntity
  8
SCHRAFF
100
AcDbHatch
 10
0.0
 20
0.0
 30
0.0
210
0.0
220
0.0
230
1.0
  2
_USER
 70
     0
 71
     0
 91
        1
 92
        7
 72
     1
 73
     1
 93
        3
 10
422.9640477551889
 20
213.6843049471372
 42
0.0061990617211107
 10
425.074779285696
 20
211.5521239197291
 42
-0.5481669737230975
 10
420.8800726438122
 20
215.842324348153
 42
0.0
 97
        0
 75
     0
 76
     0
 52
0.0
 41
0.1
 77
     0
 78
     1
 53
88.00000000000009
 43
48.49885580715443
 44
-22.69049660418279
 45
0.0999390827019096
 46
-0.0034899496702499
 79
     0
 47
0.0529516537635357
 98
        1
 10
422.7127685737023
 20
213.0579795950903
  0
ARC
  5
739
330
1E
100
AcDbEntity
  8
SCHRAFF
100
AcDbCircle
 10
424.3461014700305
 20
215.0354348605378
 30
0.0
 40
3.558711349547942
100
AcDbArc
 50
166.8949927877685
 51
281.8153855582163
  0
ARC
  5
73A
330
1E
100
AcDbEntity
  8
SCHRAFF
100
AcDbCircle
 10
427.9994263575594
 20
218.54691354035
 30
0.0
 40
5.0
100
AcDbArc
 50
187.1301023541562
 51
260.8698976458443
  0
ARC
  5
73B
330
1E
100
AcDbEntity
  8
SCHRAFF
100
AcDbCircle
 10
431.5961253592527
 20
222.020205392645
 30
0.0
 40
5.0
100
AcDbArc
 50
187.1301023541562
 51
260.8698976458443
  0
ARC
  5
73C
330
1E
100
AcDbEntity
  8
SCHRAFF
100
AcDbCircle
 10
435.1928243609459
 20
225.49349724494
 30
0.0
 40
5.0
100
AcDbArc
 50
187.1301023541562
 51
260.8698976458443
  0
ARC
  5
73D
330
1E
100
AcDbEntity
  8
SCHRAFF
100
AcDbCircle
 10
449.579620367719
 20
239.38666465412
 30
0.0
 40
5.0
100
AcDbArc
 50
187.1301023541562
 51
260.8698976458443
  0
ARC
  5
73E
330
1E
100
AcDbEntity
  8
SCHRAFF
100
AcDbCircle
 10
445.9829213660257
 20
235.913372801825
 30
0.0
 40
5.0
100
AcDbArc
 50
187.1301023541562
 51
260.8698976458443
  0
ARC
  5
73F
330
1E
100
AcDbEntity
  8
SCHRAFF
100
AcDbCircle
 10
442.3862223643324
 20
232.44008094953
 30
0.0
 40
5.0
100
AcDbArc
 50
187.1301023541562
 51
260.8698976458443
  0
ARC
  5
740
330
1E
100
AcDbEntity
  8
SCHRAFF
100
AcDbCircle
 10
438.7895233626392
 20
228.966789097235
 30
0.0
 40
5.0
100
AcDbArc
 50
187.1301023541562
 51
260.8698976458443
  0
ARC
  5
741
330
1E
100
AcDbEntity
  8
SCHRAFF
100
AcDbCircle
 10
460.3697173727987
 20
249.806540211005
 30
0.0
 40
5.0
100
AcDbArc
 50
187.1301023541562
 51
260.8698976458443
  0
ARC
  5
742
330
1E
100
AcDbEntity
  8
SCHRAFF
100
AcDbCircle
 10
456.7730183711055
 20
246.33324835871
 30
0.0
 40
5.0
100
AcDbArc
 50
187.1301023541562
 51
260.8698976458443
  0
ARC
  5
743
330
1E
100
AcDbEntity
  8
SCHRAFF
100
AcDbCircle
 10
453.1763193694122
 20
242.859956506415
 30
0.0
 40
5.0
100
AcDbArc
 50
187.1301023541562
 51
260.8698976458443
  0
ARC
  5
744
330
1E
100
AcDbEntity
  8
SCHRAFF
100
AcDbCircle
 10
471.1598143778785
 20
260.22641576789
 30
0.0
 40
5.0
100
AcDbArc
 50
187.1301023541562
 51
260.8698976458443
  0
ARC
  5
745
330
1E
100
AcDbEntity
  8
SCHRAFF
100
AcDbCircle
 10
467.5631153761853
 20
256.753123915595
 30
0.0
 40
5.0
100
AcDbArc
 50
187.1301023541562
 51
260.8698976458443
  0
ARC
  5
746
330
1E
100
AcDbEntity
  8
SCHRAFF
100
AcDbCircle
 10
463.966416374492
 20
253.2798320633
 30
0.0
 40
5.0
100
AcDbArc
 50
187.1301023541562
 51
260.8698976458443
  0
ARC
  5
747
330
1E
100
AcDbEntity
  8
SCHRAFF
100
AcDbCircle
 10
474.7565133795718
 20
263.699707620185
 30
0.0
 40
5.0
100
AcDbArc
 50
187.1301023541562
 51
260.8698976458443
  0
ARC
  5
748
330
1E
100
AcDbEntity
  8
SCHRAFF
100
AcDbCircle
 10
478.353212381265
 20
267.1729994724799
 30
0.0
 40
5.0
100
AcDbArc
 50
187.1301023541562
 51
260.8698976458443
  0
ARC
  5
749
330
1E
100
AcDbEntity
  8
SCHRAFF
100
AcDbCircle
 10
481.9499113829583
 20
270.646291324775
 30
0.0
 40
5.0
100
AcDbArc
 50
187.1301023541562
 51
260.8698976458443
  0
ARC
  5
74A
330
1E
100
AcDbEntity
  8
SCHRAFF
100
AcDbCircle
 10
485.5466103846516
 20
274.11958317707
 30
0.0
 40
5.0
100
AcDbArc
 50
187.1301023541562
 51
260.8698976458443
  0
ARC
  5
74B
330
1E
100
AcDbEntity
  8
SCHRAFF
100
AcDbCircle
 10
489.1433093863448
 20
277.592875029365
 30
0.0
 40
5.0
100
AcDbArc
 50
187.1301023541562
 51
260.8698976458443
  0
ARC
  5
74C
330
1E
100
AcDbEntity
  8
SCHRAFF
100
AcDbCircle
 10
492.7400083880381
 20
281.0661668816599
 30
0.0
 40
5.0
100
AcDbArc
 50
187.1301023541562
 51
260.8698976458443
  0
ARC
  5
74D
330
1E
100
AcDbEntity
  8
SCHRAFF
100
AcDbCircle
 10
496.3367073897313
 20
284.539458733955
 30
0.0
 40
5.0
100
AcDbArc
 50
187.1301023541562
 51
260.8698976458443
  0
HATCH
  5
74E
330
1E
100
AcDbEntity
  8
SCHRAFF
100
AcDbHatch
 10
0.0
 20
0.0
 30
0.0
210
0.0
220
0.0
230
1.0
  2
_USER
 70
     0
 71
     0
 91
        1
 92
        7
 72
     1
 73
     1
 93
        3
 10
498.5921277628362
 20
282.5470020976833
 42
-0.0396603450432798
 10
496.3367073897315
 20
284.5394587339548
 42
0.0
 10
494.2527322783543
 20
286.6974781349711
 42
-0.5101291533058529
 97
        0
 75
     0
 76
     0
 52
0.0
 41
0.1
 77
     0
 78
     1
 53
88.00000000000009
 43
48.49885580715443
 44
-22.69049660418279
 45
0.0999390827019096
 46
-0.0034899496702499
 79
     0
 47
0.0704289914215736
 98
        1
 10
497.7229440457437
 20
283.8836037344109
  0
ARC
  5
74F
330
1E
100
AcDbEntity
  8
SCHRAFF
100
AcDbCircle
 10
494.917717752043
 20
283.0490370511996
 30
0.0
 40
3.708547966788132
100
AcDbArc
 50
352.2198468091452
 51
100.3296619525804
  0
TEXT
  5
7A2
330
1E
100
AcDbEntity
  8
TEXT
 62
     1
100
AcDbText
 10
258.8306825097232
 20
534.5808810251924
 30
0.0
 40
7.0
  1
DN100
 50
90.0
 41
0.8
  7
GREEKS
100
AcDbText
  0
INSERT
  5
801
330
1E
100
AcDbEntity
  8
BEM
100
AcDbBlockReference
  2
INDEX EN10305
 10
632.8352385650042
 20
110.0
 30
0.0
 41
2.0
 42
2.0
 43
2.0
  0
DIMENSION
  5
81B
330
1E
100
AcDbEntity
  8
BEM
100
AcDbDimension
  2
*D10
 10
172.9390626783779
 20
567.2910820488775
 30
0.0
 11
166.4390626783778
 21
398.0293568828774
 31
0.0
 70
    32
  1
339
 71
     5
 42
338.5234503320003
  3
Standard
100
AcDbAlignedDimension
 13
479.2965915487546
 23
228.7676317168772
 33
0.0
 14
210.6328151434913
 24
567.2910820488775
 34
0.0
 50
90.0
100
AcDbRotatedDimension
1001
ACAD
1000
DSTYLE
1002
{
1070
    40
1040
2.0
1070
    41
1040
3.5
1070
    42
1040
1.0
1070
    43
1040
7.0
1070
    44
1040
1.0
1070
    73
1070
     0
1070
    74
1070
     0
1070
    77
1070
     1
1070
    78
1070
     8
1070
    79
1070
     2
1070
   140
1040
3.5
1070
   141
1040
1.5
1070
   146
1040
0.5142857142857144
1070
   147
1040
1.5
1070
   172
1070
     1
1070
   178
1070
     1
1070
   179
1070
     2
1070
   271
1070
     2
1070
   272
1070
     2
1070
   284
1070
     8
1070
   285
1070
     8
1070
   286
1070
     8
1002
}
  0
DIMENSION
  5
897
330
1E
100
AcDbEntity
  8
BEM
100
AcDbDimension
  2
*D11
 10
603.2210540991225
 20
136.1895825757967
 30
0.0
 11
434.7803125402694
 21
142.6895825757967
 31
0.0
 70
    32
  1
337
 71
     5
 42
336.8814831177062
  3
Standard
100
AcDbAlignedDimension
 13
266.3395709814163
 23
449.2910820488774
 33
0.0
 14
603.2210540991225
 24
224.4400941257673
 34
0.0
100
AcDbRotatedDimension
1001
ACAD
1000
DSTYLE
1002
{
1070
    40
1040
2.0
1070
    41
1040
3.5
1070
    42
1040
1.0
1070
    43
1040
7.0
1070
    44
1040
1.0
1070
    73
1070
     0
1070
    74
1070
     0
1070
    77
1070
     1
1070
    78
1070
     8
1070
    79
1070
     2
1070
   140
1040
3.5
1070
   141
1040
1.5
1070
   146
1040
0.5142857142857144
1070
   147
1040
1.5
1070
   172
1070
     1
1070
   178
1070
     1
1070
   179
1070
     2
1070
   271
1070
     2
1070
   272
1070
     2
1070
   284
1070
     8
1070
   285
1070
     8
1070
   286
1070
     8
1002
}
  0
TEXT
  5
8AD
330
1E
100
AcDbEntity
  8
TEXT
 62
     1
100
AcDbText
 10
393.6787387859548
 20
328.6861930848357
 30
0.0
 40
7.0
  1
DN100
 50
316.0
 41
0.8
  7
GREEKS
100
AcDbText
  0
DIMENSION
  5
927
330
1E
100
AcDbEntity
  8
BEM
100
AcDbDimension
  2
*D12
 10
428.5887698882535
 20
179.7996575444121
 30
0.0
 11
326.7859683067856
 21
294.5766621183958
 31
0.0
 70
    33
  1
306
 71
     5
 42
306.5636716169221
  3
Standard
100
AcDbAlignedDimension
 13
266.3395709814163
 23
449.2910820488774
 33
0.0
 14
479.2965915487546
 24
228.7676317168772
 34
0.0
1001
ACAD
1000
DSTYLE
1002
{
1070
    40
1040
2.0
1070
    41
1040
3.5
1070
    42
1040
1.0
1070
    43
1040
7.0
1070
    44
1040
1.0
1070
    73
1070
     0
1070
    74
1070
     0
1070
    77
1070
     1
1070
    78
1070
     8
1070
    79
1070
     2
1070
   140
1040
3.5
1070
   141
1040
1.5
1070
   146
1040
0.5142857142857144
1070
   147
1040
1.5
1070
   172
1070
     1
1070
   178
1070
     1
1070
   179
1070
     2
1070
   271
1070
     2
1070
   272
1070
     2
1070
   284
1070
     8
1070
   285
1070
     8
1070
   286
1070
     8
1002
}
  0
ENDSEC
  0
SECTION
  2
OBJECTS
  0
DICTIONARY
  5
C
330
0
100
AcDbDictionary
281
     1
  3
ACAD_COLOR
350
11A
  3
ACAD_GROUP
350
D
  3
ACAD_LAYOUT
350
19
  3
ACAD_MATERIAL
350
119
  3
ACAD_MLINESTYLE
350
16
  3
ACAD_PLOTSETTINGS
350
18
  3
ACAD_PLOTSTYLENAME
350
E
  3
AcDbVariableDictionary
350
125
  0
DICTIONARY
  5
A3
330
1E
100
AcDbDictionary
280
     1
281
     1
  3
ACAD_LAYOUTSELFREF
360
10E
  0
DICTIONARY
  5
A5
330
1A
100
AcDbDictionary
280
     1
281
     1
  3
ACAD_LAYOUTSELFREF
360
10D
  0
DICTIONARY
  5
7FE
330
7FB
100
AcDbDictionary
280
     1
281
     1
  0
DICTIONARY
  5
11A
102
{ACAD_REACTORS
330
C
102
}
330
C
100
AcDbDictionary
281
     1
  0
DICTIONARY
  5
D
102
{ACAD_REACTORS
330
C
102
}
330
C
100
AcDbDictionary
281
     1
  0
DICTIONARY
  5
19
102
{ACAD_REACTORS
330
C
102
}
330
C
100
AcDbDictionary
281
     1
  3
Layout1
350
1D
  3
Model
350
21
  0
DICTIONARY
  5
119
102
{ACAD_REACTORS
330
C
102
}
330
C
100
AcDbDictionary
281
     1
  0
DICTIONARY
  5
16
102
{ACAD_REACTORS
330
C
102
}
330
C
100
AcDbDictionary
281
     1
  3
Standard
350
17
  0
DICTIONARY
  5
18
102
{ACAD_REACTORS
330
C
102
}
330
C
100
AcDbDictionary
281
     1
  0
ACDBDICTIONARYWDFLT
  5
E
102
{ACAD_REACTORS
330
C
102
}
330
C
100
AcDbDictionary
281
     1
  3
Normal
350
F
100
AcDbDictionaryWithDefault
340
F
  0
DICTIONARY
  5
125
102
{ACAD_REACTORS
330
C
102
}
330
C
100
AcDbDictionary
281
     1
  3
DIMASSOC
350
126
  3
PROJECTNAME
350
127
  0
XRECORD
  5
10E
102
{ACAD_REACTORS
330
A3
102
}
330
A3
100
AcDbXrecord
280
     1
340
1E
  0
XRECORD
  5
10D
102
{ACAD_REACTORS
330
A5
102
}
330
A5
100
AcDbXrecord
280
     1
340
1A
  0
LAYOUT
  5
1D
102
{ACAD_REACTORS
330
19
102
}
330
19
100
AcDbPlotSettings
  1

  2
\\NT_WORK01\HP LaserJet 5000 PCL 6
  4

  6

 40
0.0
 41
0.0
 42
0.0
 43
0.0
 44
0.0
 45
0.0
 46
0.0
 47
0.0
 48
0.0
 49
0.0
140
0.0
141
0.0
142
1.0
143
1.0
 70
   688
 72
     0
 73
     0
 74
     5
  7

 75
    16
147
1.0
 76
     0
 77
     2
 78
   300
148
0.0
149
0.0
100
AcDbLayout
  1
Layout1
 70
     0
 71
     1
 10
0.0
 20
0.0
 11
12.0
 21
9.0
 12
0.0
 22
0.0
 32
0.0
 14
1.000000000000000E+20
 24
1.000000000000000E+20
 34
1.000000000000000E+20
 15
-1.000000000000000E+20
 25
-1.000000000000000E+20
 35
-1.000000000000000E+20
146
0.0
 13
0.0
 23
0.0
 33
0.0
 16
1.0
 26
0.0
 36
0.0
 17
0.0
 27
1.0
 37
0.0
 76
     0
330
1A
  0
LAYOUT
  5
21
102
{ACAD_REACTORS
330
19
102
}
330
19
100
AcDbPlotSettings
  1

  2
none_device
  4
Letter_(8.50_x_11.00_Inches)
  6

 40
6.349999904632568
 41
6.349999904632568
 42
6.350006103515625
 43
6.350006103515625
 44
215.8999938964844
 45
279.3999938964844
 46
0.0
 47
0.0
 48
0.0
 49
0.0
140
0.0
141
0.0
142
1.0
143
1.0
 70
 11952
 72
     0
 73
     1
 74
     0
  7

 75
     0
147
1.0
 76
     0
 77
     2
 78
   300
148
-3034.45172852421
149
89.69112887802465
100
AcDbLayout
  1
Model
 70
     1
 71
     0
 10
0.0
 20
0.0
 11
12.0
 21
9.0
 12
0.0
 22
0.0
 32
0.0
 14
0.0
 24
0.0
 34
0.0
 15
0.0
 25
0.0
 35
0.0
146
0.0
 13
0.0
 23
0.0
 33
0.0
 16
1.0
 26
0.0
 36
0.0
 17
0.0
 27
1.0
 37
0.0
 76
     0
330
1E
  0
MLINESTYLE
  5
17
102
{ACAD_REACTORS
330
16
102
}
330
16
100
AcDbMlineStyle
  2
STANDARD
 70
     0
  3

 62
   256
 51
90.0
 52
90.0
 71
     2
 49
0.5
 62
   256
  6
BYLAYER
 49
-0.5
 62
   256
  6
BYLAYER
  0
ACDBPLACEHOLDER
  5
F
102
{ACAD_REACTORS
330
E
102
}
330
E
  0
DICTIONARYVAR
  5
126
102
{ACAD_REACTORS
330
125
102
}
330
125
100
DictionaryVariables
280
     0
  1
1
  0
DICTIONARYVAR
  5
127
102
{ACAD_REACTORS
330
125
102
}
330
125
100
DictionaryVariables
280
     0
  1

  0
ENDSEC
  0
EOF
