  0
SECTION
  2
HEADER
  9
$ACADVER
  1
AC1018
  9
$ACADMAINTVER
 70
     2
  9
$DWGCODEPAGE
  3
ANSI_1252
  9
$INSBASE
 10
0.0
 20
0.0
 30
0.0
  9
$EXTMIN
 10
-0.0000000000001137
 20
-0.0000000000001137
 30
0.0
  9
$EXTMAX
 10
420.0
 20
594.0000000000002
 30
0.0
  9
$LIMMIN
 10
0.0
 20
0.0
  9
$LIMMAX
 10
419.9999999999999
 20
594.0
  9
$ORTHOMODE
 70
     1
  9
$REGENMODE
 70
     1
  9
$FILLMODE
 70
     1
  9
$QTEXTMODE
 70
     0
  9
$MIRRTEXT
 70
     1
  9
$LTSCALE
 40
20.0
  9
$ATTMODE
 70
     1
  9
$TEXTSIZE
 40
3.5
  9
$TRACEWID
 40
0.5
  9
$TEXTSTYLE
  7
STANDARD
  9
$CLAYER
  8
SCHRAFF
  9
$CELTYPE
  6
ByLayer
  9
$CECOLOR
 62
   256
  9
$CELTSCALE
 40
1.0
  9
$DISPSILH
 70
     0
  9
$DIMSCALE
 40
2.0
  9
$DIMASZ
 40
3.5
  9
$DIMEXO
 40
1.0
  9
$DIMDLI
 40
7.0
  9
$DIMRND
 40
0.0
  9
$DIMDLE
 40
0.0
  9
$DIMEXE
 40
1.0
  9
$DIMTP
 40
0.0
  9
$DIMTM
 40
0.0
  9
$DIMTXT
 40
3.5
  9
$DIMCEN
 40
1.5
  9
$DIMTSZ
 40
0.0
  9
$DIMTOL
 70
     0
  9
$DIMLIM
 70
     0
  9
$DIMTIH
 70
     0
  9
$DIMTOH
 70
     0
  9
$DIMSE1
 70
     0
  9
$DIMSE2
 70
     0
  9
$DIMTAD
 70
     1
  9
$DIMZIN
 70
     8
  9
$DIMBLK
  1

  9
$DIMASO
 70
     1
  9
$DIMSHO
 70
     0
  9
$DIMPOST
  1

  9
$DIMAPOST
  1

  9
$DIMALT
 70
     0
  9
$DIMALTD
 70
     2
  9
$DIMALTF
 40
25.4
  9
$DIMLFAC
 40
1.0
  9
$DIMTOFL
 70
     1
  9
$DIMTVP
 40
0.0
  9
$DIMTIX
 70
     0
  9
$DIMSOXD
 70
     0
  9
$DIMSAH
 70
     0
  9
$DIMBLK1
  1

  9
$DIMBLK2
  1

  9
$DIMSTYLE
  2
Standard
  9
$DIMCLRD
 70
     0
  9
$DIMCLRE
 70
     0
  9
$DIMCLRT
 70
     1
  9
$DIMTFAC
 40
0.5
  9
$DIMGAP
 40
1.5
  9
$DIMJUST
 70
     0
  9
$DIMSD1
 70
     0
  9
$DIMSD2
 70
     0
  9
$DIMTOLJ
 70
     1
  9
$DIMTZIN
 70
     8
  9
$DIMALTZ
 70
     8
  9
$DIMALTTZ
 70
     8
  9
$DIMUPT
 70
     0
  9
$DIMDEC
 70
     2
  9
$DIMTDEC
 70
     2
  9
$DIMALTU
 70
     2
  9
$DIMALTTD
 70
     2
  9
$DIMTXSTY
  7
STANDARD
  9
$DIMAUNIT
 70
     0
  9
$DIMADEC
 70
     2
  9
$DIMALTRND
 40
0.0
  9
$DIMAZIN
 70
     2
  9
$DIMDSEP
 70
    46
  9
$DIMATFIT
 70
     3
  9
$DIMFRAC
 70
     0
  9
$DIMLDRBLK
  1

  9
$DIMLUNIT
 70
     2
  9
$DIMLWD
 70
    -2
  9
$DIMLWE
 70
    -2
  9
$DIMTMOVE
 70
     0
  9
$LUNITS
 70
     2
  9
$LUPREC
 70
     2
  9
$SKETCHINC
 40
1.0
  9
$FILLETRAD
 40
60.0
  9
$AUNITS
 70
     0
  9
$AUPREC
 70
     0
  9
$MENU
  1
ACAD
  9
$ELEVATION
 40
0.0
  9
$PELEVATION
 40
0.0
  9
$THICKNESS
 40
0.0
  9
$LIMCHECK
 70
     0
  9
$CHAMFERA
 40
0.0
  9
$CHAMFERB
 40
0.0
  9
$CHAMFERC
 40
0.0
  9
$CHAMFERD
 40
0.0
  9
$SKPOLY
 70
     0
  9
$TDCREATE
 40
2455397.864709028
  9
$TDUCREATE
 40
2455397.781375695
  9
$TDUPDATE
 40
2455859.404948137
  9
$TDUUPDATE
 40
2455859.321614803
  9
$TDINDWG
 40
0.1946598495
  9
$TDUSRTIMER
 40
0.1946598495
  9
$USRTIMER
 70
     1
  9
$ANGBASE
 50
0.0
  9
$ANGDIR
 70
     0
  9
$PDMODE
 70
     0
  9
$PDSIZE
 40
0.0
  9
$PLINEWID
 40
0.0
  9
$SPLFRAME
 70
     0
  9
$SPLINETYPE
 70
     6
  9
$SPLINESEGS
 70
     8
  9
$HANDSEED
  5
AE7
  9
$SURFTAB1
 70
     6
  9
$SURFTAB2
 70
     6
  9
$SURFTYPE
 70
     6
  9
$SURFU
 70
     6
  9
$SURFV
 70
     6
  9
$UCSBASE
  2

  9
$UCSNAME
  2

  9
$UCSORG
 10
0.0
 20
0.0
 30
0.0
  9
$UCSXDIR
 10
1.0
 20
0.0
 30
0.0
  9
$UCSYDIR
 10
0.0
 20
1.0
 30
0.0
  9
$UCSORTHOREF
  2

  9
$UCSORTHOVIEW
 70
     0
  9
$UCSORGTOP
 10
0.0
 20
0.0
 30
0.0
  9
$UCSORGBOTTOM
 10
0.0
 20
0.0
 30
0.0
  9
$UCSORGLEFT
 10
0.0
 20
0.0
 30
0.0
  9
$UCSORGRIGHT
 10
0.0
 20
0.0
 30
0.0
  9
$UCSORGFRONT
 10
0.0
 20
0.0
 30
0.0
  9
$UCSORGBACK
 10
0.0
 20
0.0
 30
0.0
  9
$PUCSBASE
  2

  9
$PUCSNAME
  2

  9
$PUCSORG
 10
0.0
 20
0.0
 30
0.0
  9
$PUCSXDIR
 10
1.0
 20
0.0
 30
0.0
  9
$PUCSYDIR
 10
0.0
 20
1.0
 30
0.0
  9
$PUCSORTHOREF
  2

  9
$PUCSORTHOVIEW
 70
     0
  9
$PUCSORGTOP
 10
0.0
 20
0.0
 30
0.0
  9
$PUCSORGBOTTOM
 10
0.0
 20
0.0
 30
0.0
  9
$PUCSORGLEFT
 10
0.0
 20
0.0
 30
0.0
  9
$PUCSORGRIGHT
 10
0.0
 20
0.0
 30
0.0
  9
$PUCSORGFRONT
 10
0.0
 20
0.0
 30
0.0
  9
$PUCSORGBACK
 10
0.0
 20
0.0
 30
0.0
  9
$USERI1
 70
     0
  9
$USERI2
 70
     0
  9
$USERI3
 70
     0
  9
$USERI4
 70
     0
  9
$USERI5
 70
     0
  9
$USERR1
 40
0.0
  9
$USERR2
 40
0.0
  9
$USERR3
 40
0.0
  9
$USERR4
 40
0.0
  9
$USERR5
 40
0.0
  9
$WORLDVIEW
 70
     1
  9
$SHADEDGE
 70
     3
  9
$SHADEDIF
 70
    70
  9
$TILEMODE
 70
     1
  9
$MAXACTVP
 70
    16
  9
$PINSBASE
 10
0.0
 20
0.0
 30
0.0
  9
$PLIMCHECK
 70
     0
  9
$PEXTMIN
 10
1.000000000000000E+20
 20
1.000000000000000E+20
 30
1.000000000000000E+20
  9
$PEXTMAX
 10
-1.000000000000000E+20
 20
-1.000000000000000E+20
 30
-1.000000000000000E+20
  9
$PLIMMIN
 10
0.0
 20
0.0
  9
$PLIMMAX
 10
12.0
 20
9.0
  9
$UNITMODE
 70
     0
  9
$VISRETAIN
 70
     0
  9
$PLINEGEN
 70
     0
  9
$PSLTSCALE
 70
     0
  9
$TREEDEPTH
 70
  3020
  9
$CMLSTYLE
  2
Standard
  9
$CMLJUST
 70
     0
  9
$CMLSCALE
 40
1.0
  9
$PROXYGRAPHICS
 70
     1
  9
$MEASUREMENT
 70
     0
  9
$CELWEIGHT
370
    -1
  9
$ENDCAPS
280
     0
  9
$JOINSTYLE
280
     0
  9
$LWDISPLAY
290
     0
  9
$INSUNITS
 70
     0
  9
$HYPERLINKBASE
  1

  9
$STYLESHEET
  1
monochrome1.ctb
  9
$XEDIT
290
     1
  9
$CEPSNTYPE
380
     0
  9
$PSTYLEMODE
290
     1
  9
$FINGERPRINTGUID
  2
{D68B0D02-A558-11D7-B632-000102183313}
  9
$VERSIONGUID
  2
{B4050AFA-5F02-4621-9886-6B54282BE122}
  9
$EXTNAMES
290
     1
  9
$PSVPSCALE
 40
0.0
  9
$OLESTARTUP
290
     0
  9
$SORTENTS
280
   127
  9
$INDEXCTL
280
     0
  9
$HIDETEXT
280
     0
  9
$XCLIPFRAME
290
     0
  9
$HALOGAP
280
     0
  9
$OBSCOLOR
 70
   257
  9
$OBSLTYPE
280
     0
  9
$INTERSECTIONDISPLAY
280
     0
  9
$INTERSECTIONCOLOR
 70
   257
  9
$DIMASSOC
280
     1
  9
$PROJECTNAME
  1

  0
ENDSEC
  0
SECTION
  2
CLASSES
  0
CLASS
  1
ACDBDICTIONARYWDFLT
  2
AcDbDictionaryWithDefault
  3
ObjectDBX Classes
 90
        0
 91
        1
280
     0
281
     0
  0
CLASS
  1
DICTIONARYVAR
  2
AcDbDictionaryVar
  3
ObjectDBX Classes
 90
        0
 91
        2
280
     0
281
     0
  0
ENDSEC
  0
SECTION
  2
TABLES
  0
TABLE
  2
VPORT
  5
8
330
0
100
AcDbSymbolTable
 70
     2
  0
VPORT
  5
AE6
330
8
100
AcDbSymbolTableRecord
100
AcDbViewportTableRecord
  2
*Active
 70
     0
 10
0.0
 20
0.0
 11
1.0
 21
1.0
 12
210.0
 22
297.0
 13
0.0
 23
0.0
 14
1.0
 24
1.0
 15
10.0
 25
10.0
 16
0.0
 26
0.0
 36
1.0
 17
0.0
 27
0.0
 37
0.0
 40
594.3270552510946
 41
1.36388140161725
 42
50.0
 43
0.0
 44
0.0
 50
0.0
 51
0.0
 71
     0
 72
  1500
 73
     1
 74
     0
 75
     0
 76
     0
 77
     0
 78
     0
281
     0
 65
     1
110
0.0
120
0.0
130
0.0
111
1.0
121
0.0
131
0.0
112
0.0
122
1.0
132
0.0
 79
     0
146
0.0
  0
ENDTAB
  0
TABLE
  2
LTYPE
  5
5
330
0
100
AcDbSymbolTable
 70
     2
  0
LTYPE
  5
13
330
5
100
AcDbSymbolTableRecord
100
AcDbLinetypeTableRecord
  2
ByBlock
 70
     0
  3

 72
    65
 73
     0
 40
0.0
  0
LTYPE
  5
14
330
5
100
AcDbSymbolTableRecord
100
AcDbLinetypeTableRecord
  2
ByLayer
 70
     0
  3

 72
    65
 73
     0
 40
0.0
  0
LTYPE
  5
15
330
5
100
AcDbSymbolTableRecord
100
AcDbLinetypeTableRecord
  2
Continuous
 70
     0
  3
Solid line
 72
    65
 73
     0
 40
0.0
  0
LTYPE
  5
25
330
5
100
AcDbSymbolTableRecord
100
AcDbLinetypeTableRecord
  2
STRICHPUNKT
 70
     0
  3
__ . __ . __ . __ . __ . __ . __ . __ . __ . __
 72
    65
 73
     4
 40
1.0
 49
0.5
 74
     0
 49
-0.25
 74
     0
 49
0.0
 74
     0
 49
-0.25
 74
     0
  0
ENDTAB
  0
TABLE
  2
LAYER
  5
2
330
0
100
AcDbSymbolTable
 70
     9
  0
LAYER
  5
10
330
2
100
AcDbSymbolTableRecord
100
AcDbLayerTableRecord
  2
0
 70
     0
 62
     7
  6
Continuous
370
    -3
390
F
  0
LAYER
  5
2A
330
2
100
AcDbSymbolTableRecord
100
AcDbLayerTableRecord
  2
VOLL
 70
     0
 62
     1
  6
Continuous
370
    -3
390
F
  0
LAYER
  5
2B
330
2
100
AcDbSymbolTableRecord
100
AcDbLayerTableRecord
  2
HILF
 70
     0
 62
     2
  6
Continuous
370
    -3
390
F
  0
LAYER
  5
2C
330
2
100
AcDbSymbolTableRecord
100
AcDbLayerTableRecord
  2
MITTEL
 70
     0
 62
     2
  6
STRICHPUNKT
370
    -3
390
F
  0
LAYER
  5
2F
330
2
100
AcDbSymbolTableRecord
100
AcDbLayerTableRecord
  2
BEM
 70
     0
 62
     7
  6
Continuous
370
    -3
390
F
  0
LAYER
  5
30
330
2
100
AcDbSymbolTableRecord
100
AcDbLayerTableRecord
  2
STEMPEL
 70
     0
 62
     3
  6
Continuous
370
    -3
390
F
  0
LAYER
  5
31
330
2
100
AcDbSymbolTableRecord
100
AcDbLayerTableRecord
  2
TEXT
 70
     0
 62
     7
  6
Continuous
370
    -3
390
F
  0
LAYER
  5
1B6
330
2
100
AcDbSymbolTableRecord
100
AcDbLayerTableRecord
  2
Defpoints
 70
     0
 62
     7
  6
Continuous
290
     0
370
    -3
390
F
  0
LAYER
  5
490
330
2
100
AcDbSymbolTableRecord
100
AcDbLayerTableRecord
  2
SCHRAFF
 70
     0
 62
     7
  6
Continuous
370
    -3
390
F
  0
ENDTAB
  0
TABLE
  2
STYLE
  5
3
330
0
100
AcDbSymbolTable
 70
     2
  0
STYLE
  5
11
330
3
100
AcDbSymbolTableRecord
100
AcDbTextStyleTableRecord
  2
STANDARD
 70
     0
 40
0.0
 41
0.8
 50
0.0
 71
     0
 42
3.5
  3
simplex.shx
  4

  0
STYLE
  5
24
330
3
100
AcDbSymbolTableRecord
100
AcDbTextStyleTableRecord
  2
GREEKS
 70
     0
 40
0.0
 41
0.8
 50
0.0
 71
     0
 42
2.5
  3
SIMPLEX.shx
  4

  0
ENDTAB
  0
TABLE
  2
VIEW
  5
6
330
0
100
AcDbSymbolTable
 70
     0
  0
ENDTAB
  0
TABLE
  2
UCS
  5
7
330
0
100
AcDbSymbolTable
 70
     0
  0
ENDTAB
  0
TABLE
  2
APPID
  5
9
330
0
100
AcDbSymbolTable
 70
     1
  0
APPID
  5
12
330
9
100
AcDbSymbolTableRecord
100
AcDbRegAppTableRecord
  2
ACAD
 70
     0
  0
ENDTAB
  0
TABLE
  2
DIMSTYLE
  5
A
330
0
100
AcDbSymbolTable
 70
     1
100
AcDbDimStyleTable
 71
     1
340
9D
  0
DIMSTYLE
105
9D
102
{ACAD_REACTORS
330
838
330
89C
330
943
330
96B
102
}
330
A
100
AcDbSymbolTableRecord
100
AcDbDimStyleTableRecord
  2
Standard
 70
     0
340
11
  0
ENDTAB
  0
TABLE
  2
BLOCK_RECORD
  5
1
330
0
100
AcDbSymbolTable
 70
     5
  0
BLOCK_RECORD
  5
1E
102
{ACAD_XDICTIONARY
360
A0
102
}
330
1
100
AcDbSymbolTableRecord
100
AcDbBlockTableRecord
  2
*Model_Space
340
21
  0
BLOCK_RECORD
  5
1A
102
{ACAD_XDICTIONARY
360
A2
102
}
330
1
100
AcDbSymbolTableRecord
100
AcDbBlockTableRecord
  2
*Paper_Space
340
1D
  0
BLOCK_RECORD
  5
22
330
1
100
AcDbSymbolTableRecord
100
AcDbBlockTableRecord
  2
LOGO
340
0
102
{BLKREFS
331
9B
102
}
  0
BLOCK_RECORD
  5
839
330
1
100
AcDbSymbolTableRecord
100
AcDbBlockTableRecord
  2
*D1
340
0
  0
BLOCK_RECORD
  5
89D
330
1
100
AcDbSymbolTableRecord
100
AcDbBlockTableRecord
  2
*D2
340
0
  0
BLOCK_RECORD
  5
944
330
1
100
AcDbSymbolTableRecord
100
AcDbBlockTableRecord
  2
*D3
340
0
  0
BLOCK_RECORD
  5
96C
330
1
100
AcDbSymbolTableRecord
100
AcDbBlockTableRecord
  2
*D4
340
0
  0
ENDTAB
  0
ENDSEC
  0
SECTION
  2
BLOCKS
  0
BLOCK
  5
35
330
1E
100
AcDbEntity
  8
0
100
AcDbBlockBegin
  2
*Model_Space
 70
     0
 10
0.0
 20
0.0
 30
0.0
  3
*Model_Space
  1

  0
ENDBLK
  5
36
330
1E
100
AcDbEntity
  8
0
100
AcDbBlockEnd
  0
BLOCK
  5
33
330
1A
100
AcDbEntity
 67
     1
  8
0
100
AcDbBlockBegin
  2
*Paper_Space
 70
     0
 10
0.0
 20
0.0
 30
0.0
  3
*Paper_Space
  1

  0
ENDBLK
  5
34
330
1A
100
AcDbEntity
 67
     1
  8
0
100
AcDbBlockEnd
  0
BLOCK
  5
37
330
22
100
AcDbEntity
  8
0
100
AcDbBlockBegin
  2
LOGO
 70
     0
 10
0.0
 20
0.0
 30
0.0
  3
LOGO
  1

  0
ARC
  5
38
330
22
100
AcDbEntity
  8
0
100
AcDbCircle
 10
11.59973089678112
 20
-9.271599258481501
 30
0.0
 40
4.5
100
AcDbArc
 50
270.0
 51
231.0575587310159
  0
LINE
  5
39
330
22
100
AcDbEntity
  8
0
100
AcDbLine
 10
3.599730896781125
 20
-4.771599258481529
 30
0.0
 11
3.599730896781153
 21
-11.77159925848133
 31
0.0
  0
LINE
  5
3A
330
22
100
AcDbEntity
  8
0
100
AcDbLine
 10
2.599730896781125
 20
-4.771599258481529
 30
0.0
 11
2.599730896781153
 21
-11.77159925848133
 31
0.0
  0
CIRCLE
  5
3B
330
22
100
AcDbEntity
  8
0
100
AcDbCircle
 10
11.59973089678112
 20
-9.271599258481501
 30
0.0
 40
3.5
  0
ARC
  5
3C
330
22
100
AcDbEntity
  8
0
100
AcDbCircle
 10
31.59973089678115
 20
-9.271599258481472
 30
0.0
 40
4.5
100
AcDbArc
 50
270.0
 51
231.0575587310182
  0
LINE
  5
3D
330
22
100
AcDbEntity
  8
0
100
AcDbLine
 10
17.59973089678112
 20
-4.771599258481472
 30
0.0
 11
17.59973089678115
 21
-13.77159925848147
 31
0.0
  0
ARC
  5
3E
330
22
100
AcDbEntity
  8
0
100
AcDbCircle
 10
22.59973089678116
 20
-7.271599258481472
 30
0.0
 40
2.5
100
AcDbArc
 50
293.1161887722295
 51
90.0
  0
CIRCLE
  5
3F
330
22
100
AcDbEntity
  8
0
100
AcDbCircle
 10
31.59973089678115
 20
-9.271599258481472
 30
0.0
 40
3.5
  0
ARC
  5
40
330
22
100
AcDbEntity
  8
0
100
AcDbCircle
 10
4.599730896781153
 20
-11.77159925848133
 30
0.0
 40
1.0
100
AcDbArc
 50
180.0
 51
270.0
  0
ARC
  5
41
330
22
100
AcDbEntity
  8
0
100
AcDbCircle
 10
4.599730896781153
 20
-11.77159925848133
 30
0.0
 40
2.0
100
AcDbArc
 50
179.9999999999992
 51
270.0
  0
LINE
  5
42
330
22
100
AcDbEntity
  8
0
100
AcDbLine
 10
11.59973089678115
 20
-13.77159925848144
 30
0.0
 11
4.599730896781153
 21
-13.77159925848147
 31
0.0
  0
LINE
  5
43
330
22
100
AcDbEntity
  8
0
100
AcDbLine
 10
8.771303772034769
 20
-12.77159925848136
 30
0.0
 11
4.599730896781153
 21
-12.77159925848133
 31
0.0
  0
LINE
  5
44
330
22
100
AcDbEntity
  8
0
100
AcDbLine
 10
31.59973089678115
 20
-13.77159925848147
 30
0.0
 11
23.6715276665056
 21
-13.77159925848144
 31
0.0
  0
LINE
  5
45
330
22
100
AcDbEntity
  8
0
100
AcDbLine
 10
23.56565672307022
 20
-9.51278021337896
 30
0.0
 11
24.4388546544846
 21
-12.77159925848144
 31
0.0
  0
LINE
  5
46
330
22
100
AcDbEntity
  8
0
100
AcDbLine
 10
22.59973089678116
 20
-9.771599258481472
 30
0.0
 11
18.59973089678112
 21
-9.771599258481472
 31
0.0
  0
LINE
  5
47
330
22
100
AcDbEntity
  8
0
100
AcDbLine
 10
18.59973089678115
 20
-13.77159925848144
 30
0.0
 11
17.59973089678115
 21
-13.77159925848144
 31
0.0
  0
LINE
  5
48
330
22
100
AcDbEntity
  8
0
100
AcDbLine
 10
18.59973089678115
 20
-9.771599258481472
 30
0.0
 11
18.59973089678115
 21
-13.77159925848144
 31
0.0
  0
LINE
  5
49
330
22
100
AcDbEntity
  8
0
100
AcDbLine
 10
22.59973089678116
 20
-9.771599258481472
 30
0.0
 11
23.67152766650562
 21
-13.77159925848147
 31
0.0
  0
ARC
  5
4A
330
22
100
AcDbEntity
  8
0
100
AcDbCircle
 10
22.59973089678116
 20
-7.271599258481472
 30
0.0
 40
2.5
100
AcDbArc
 50
270.0
 51
270.0000000000007
  0
LINE
  5
4B
330
22
100
AcDbEntity
  8
0
100
AcDbLine
 10
28.77130377203494
 20
-12.77159925848147
 30
0.0
 11
24.43885465448463
 21
-12.77159925848144
 31
0.0
  0
LINE
  5
4C
330
22
100
AcDbEntity
  8
0
100
AcDbLine
 10
3.599730896781125
 20
-4.771599258481472
 30
0.0
 11
2.599730896781125
 21
-4.771599258481472
 31
0.0
  0
LINE
  5
4D
330
22
100
AcDbEntity
  8
0
100
AcDbLine
 10
22.59973089678116
 20
-8.771599258481472
 30
0.0
 11
18.59973089678115
 21
-8.771599258481472
 31
0.0
  0
LINE
  5
4E
330
22
100
AcDbEntity
  8
0
100
AcDbLine
 10
22.59973089678116
 20
-5.771599258481472
 30
0.0
 11
18.59973089678115
 21
-5.771599258481472
 31
0.0
  0
LINE
  5
4F
330
22
100
AcDbEntity
  8
0
100
AcDbLine
 10
22.59973089678116
 20
-4.771599258481472
 30
0.0
 11
17.59973089678115
 21
-4.771599258481472
 31
0.0
  0
LINE
  5
50
330
22
100
AcDbEntity
  8
0
100
AcDbLine
 10
18.59973089678115
 20
-5.771599258481472
 30
0.0
 11
18.59973089678115
 21
-8.771599258481472
 31
0.0
  0
ARC
  5
51
330
22
100
AcDbEntity
  8
0
100
AcDbCircle
 10
22.59973089678116
 20
-7.271599258481472
 30
0.0
 40
1.5
100
AcDbArc
 50
270.0
 51
90.0
  0
ENDBLK
  5
52
330
22
100
AcDbEntity
  8
0
100
AcDbBlockEnd
  0
BLOCK
  5
843
330
839
100
AcDbEntity
  8
0
100
AcDbBlockBegin
  2
*D1
 70
     1
 10
0.0
 20
0.0
 30
0.0
  3
*D1
  1

  0
LINE
  5
AD9
330
839
100
AcDbEntity
  8
BEM
 62
     0
370
    -2
100
AcDbLine
 10
313.7977096441379
 20
432.6607871702624
 30
0.0
 11
312.0159126613937
 21
466.6594989477866
 31
0.0
  0
LINE
  5
ADA
330
839
100
AcDbEntity
  8
BEM
 62
     0
370
    -2
100
AcDbLine
 10
195.4824870459687
 20
378.1872369121421
 30
0.0
 11
191.1777433990766
 21
460.3266388441204
 31
0.0
  0
LINE
  5
ADB
330
839
100
AcDbEntity
  8
BEM
 62
     0
370
    -2
100
AcDbLine
 10
305.1301778305975
 20
464.2958881845768
 30
0.0
 11
198.2728220548445
 21
458.6957314683117
 31
0.0
  0
SOLID
  5
ADC
330
839
100
AcDbEntity
  8
BEM
 62
     0
100
AcDbTrace
 10
305.0691192149807
 20
465.4609559751238
 30
0.0
 11
305.1912364462142
 21
463.1308203940299
 31
0.0
 12
312.1205845738796
 22
464.6622398782774
 32
0.0
 13
312.1205845738796
 23
464.6622398782774
 33
0.0
  0
SOLID
  5
ADD
330
839
100
AcDbEntity
  8
BEM
 62
     0
100
AcDbTrace
 10
198.2117634392277
 20
459.8607992588588
 30
0.0
 11
198.3338806704612
 21
457.5306636777648
 31
0.0
 12
191.2824153115625
 22
458.3293797746112
 32
0.0
 13
191.2824153115625
 23
458.3293797746112
 33
0.0
  0
MTEXT
  5
ADE
330
839
100
AcDbEntity
  8
BEM
 62
     1
100
AcDbMText
 10
251.3613162271419
 20
467.986901802349
 30
0.0
 40
7.0
 41
0.0
 71
     5
 72
     1
  1
\A1;121
 11
0.9986295347545739
 21
0.0523359562429437
 31
0.0
 73
     1
 44
1.0
  0
POINT
  5
ADF
330
839
100
AcDbEntity
  8
Defpoints
 62
     0
100
AcDbPoint
 10
313.9023815566237
 20
430.6635281007532
 30
0.0
  0
POINT
  5
AE0
330
839
100
AcDbEntity
  8
Defpoints
 62
     0
100
AcDbPoint
 10
195.5871589584545
 20
376.189977842633
 30
0.0
  0
POINT
  5
AE1
330
839
100
AcDbEntity
  8
Defpoints
 62
     0
100
AcDbPoint
 10
191.2824153115625
 20
458.3293797746112
 30
0.0
  0
ENDBLK
  5
844
330
839
100
AcDbEntity
  8
0
100
AcDbBlockEnd
  0
BLOCK
  5
8A7
330
89D
100
AcDbEntity
  8
0
100
AcDbBlockBegin
  2
*D2
 70
     1
 10
0.0
 20
0.0
 30
0.0
  3
*D2
  1

  0
LINE
  5
ABC
330
89D
100
AcDbEntity
  8
BEM
 62
     0
370
    -2
100
AcDbLine
 10
149.524602276084
 20
243.1859768023327
 30
0.0
 11
132.2728881933303
 21
243.1859768023327
 31
0.0
  0
LINE
  5
ABD
330
89D
100
AcDbEntity
  8
BEM
 62
     0
370
    -2
100
AcDbLine
 10
193.5871589584546
 20
376.189977842633
 30
0.0
 11
132.2728881933303
 21
376.189977842633
 31
0.0
  0
LINE
  5
ABE
330
89D
100
AcDbEntity
  8
BEM
 62
     0
370
    -2
100
AcDbLine
 10
134.2728881933303
 20
250.1859768023327
 30
0.0
 11
134.2728881933303
 21
369.189977842633
 31
0.0
  0
SOLID
  5
ABF
330
89D
100
AcDbEntity
  8
BEM
 62
     0
100
AcDbTrace
 10
133.1062215266636
 20
250.1859768023327
 30
0.0
 11
135.4395548599969
 21
250.1859768023327
 31
0.0
 12
134.2728881933303
 22
243.1859768023327
 32
0.0
 13
134.2728881933303
 23
243.1859768023327
 33
0.0
  0
SOLID
  5
AC0
330
89D
100
AcDbEntity
  8
BEM
 62
     0
100
AcDbTrace
 10
133.1062215266637
 20
369.189977842633
 30
0.0
 11
135.439554859997
 21
369.189977842633
 31
0.0
 12
134.2728881933303
 22
376.189977842633
 32
0.0
 13
134.2728881933303
 23
376.189977842633
 33
0.0
  0
MTEXT
  5
AC1
330
89D
100
AcDbEntity
  8
BEM
 62
     1
100
AcDbMText
 10
127.7728881933303
 20
309.6879773224829
 30
0.0
 40
7.0
 41
0.0
 71
     5
 72
     1
  1
\A1;133
 11
0.0000000000000001
 21
1.0
 31
0.0
 73
     1
 44
1.0
  0
POINT
  5
AC2
330
89D
100
AcDbEntity
  8
Defpoints
 62
     0
100
AcDbPoint
 10
151.524602276084
 20
243.1859768023327
 30
0.0
  0
POINT
  5
AC3
330
89D
100
AcDbEntity
  8
Defpoints
 62
     0
100
AcDbPoint
 10
195.5871589584545
 20
376.189977842633
 30
0.0
  0
POINT
  5
AC4
330
89D
100
AcDbEntity
  8
Defpoints
 62
     0
100
AcDbPoint
 10
134.2728881933303
 20
376.189977842633
 30
0.0
  0
ENDBLK
  5
8A8
330
89D
100
AcDbEntity
  8
0
100
AcDbBlockEnd
  0
BLOCK
  5
94E
330
944
100
AcDbEntity
  8
0
100
AcDbBlockBegin
  2
*D3
 70
     1
 10
0.0
 20
0.0
 30
0.0
  3
*D3
  1

  0
LINE
  5
950
330
944
100
AcDbEntity
  8
BEM
 62
     0
370
    -2
100
AcDbLine
 10
151.0871589584545
 20
246.1859768023327
 30
0.0
 11
151.0871589584545
 21
221.8137794137037
 31
0.0
  0
LINE
  5
951
330
944
100
AcDbEntity
  8
BEM
 62
     0
370
    -2
100
AcDbLine
 10
240.0871589584545
 20
246.1859768023327
 30
0.0
 11
240.0871589584545
 21
221.8137794137037
 31
0.0
  0
LINE
  5
952
330
944
100
AcDbEntity
  8
BEM
 62
     0
370
    -2
100
AcDbLine
 10
158.0871589584545
 20
223.8137794137037
 30
0.0
 11
233.0871589584545
 21
223.8137794137037
 31
0.0
  0
SOLID
  5
953
330
944
100
AcDbEntity
  8
BEM
 62
     0
100
AcDbTrace
 10
158.0871589584545
 20
224.9804460803704
 30
0.0
 11
158.0871589584545
 21
222.6471127470371
 31
0.0
 12
151.0871589584545
 22
223.8137794137037
 32
0.0
 13
151.0871589584545
 23
223.8137794137037
 33
0.0
  0
SOLID
  5
954
330
944
100
AcDbEntity
  8
BEM
 62
     0
100
AcDbTrace
 10
233.0871589584545
 20
224.9804460803704
 30
0.0
 11
233.0871589584545
 21
222.6471127470371
 31
0.0
 12
240.0871589584545
 22
223.8137794137037
 32
0.0
 13
240.0871589584545
 23
223.8137794137037
 33
0.0
  0
MTEXT
  5
955
330
944
100
AcDbEntity
  8
BEM
 62
     1
100
AcDbMText
 10
195.5871589584545
 20
230.3137794137037
 30
0.0
 40
7.0
 41
0.0
 71
     5
 72
     1
  1
\A1;%%c89
 73
     1
 44
1.0
  0
POINT
  5
956
330
944
100
AcDbEntity
  8
Defpoints
 62
     0
100
AcDbPoint
 10
151.0871589584545
 20
248.1859768023327
 30
0.0
  0
POINT
  5
957
330
944
100
AcDbEntity
  8
Defpoints
 62
     0
100
AcDbPoint
 10
240.0871589584545
 20
248.1859768023327
 30
0.0
  0
POINT
  5
958
330
944
100
AcDbEntity
  8
Defpoints
 62
     0
100
AcDbPoint
 10
240.0871589584545
 20
223.8137794137037
 30
0.0
  0
ENDBLK
  5
94F
330
944
100
AcDbEntity
  8
0
100
AcDbBlockEnd
  0
BLOCK
  5
977
330
96C
100
AcDbEntity
  8
0
100
AcDbBlockBegin
  2
*D4
 70
     1
 10
0.0
 20
0.0
 30
0.0
  3
*D4
  1

  0
LINE
  5
ACF
330
96C
100
AcDbEntity
  8
BEM
 62
     0
370
    -2
100
AcDbLine
 10
195.5871589584546
 20
378.189977842633
 30
0.0
 11
195.5871589584547
 21
445.7224123399377
 31
0.0
  0
ARC
  5
AD0
330
96C
100
AcDbEntity
  8
BEM
 62
     0
370
    -2
100
AcDbCircle
 10
195.5871589584546
 20
376.189977842633
 30
0.0
 40
67.53243449730461
100
AcDbArc
 50
8.941592732452209
 51
84.05840726754751
  0
SOLID
  5
AD1
330
96C
100
AcDbEntity
  8
BEM
 62
     0
100
AcDbTrace
 10
263.4592293566623
 20
386.8077361555716
 30
0.0
 11
261.1385542533125
 21
386.5650192234535
 31
0.0
 12
263.0270426013416
 22
379.7243523794632
 32
0.0
 13
263.0270426013416
 23
379.7243523794632
 33
0.0
  0
SOLID
  5
AD2
330
96C
100
AcDbEntity
  8
BEM
 62
     0
100
AcDbTrace
 10
202.5172867498276
 20
442.1945249401754
 30
0.0
 11
202.6382162961627
 21
444.5247224616889
 31
0.0
 12
195.5871589584547
 22
443.7224123399376
 32
0.0
 13
195.5871589584547
 23
443.7224123399376
 33
0.0
  0
MTEXT
  5
AD3
330
96C
100
AcDbEntity
  8
BEM
 62
     1
100
AcDbMText
 10
237.9065133664532
 20
436.934307619888
 30
0.0
 40
7.0
 41
0.0
 71
     5
 72
     1
  1
\A1;87°
 11
0.8205096886212304
 21
-0.5716326188022265
 31
0.0
 73
     1
 44
1.0
  0
POINT
  5
AD4
330
96C
100
AcDbEntity
  8
Defpoints
 62
     0
100
AcDbPoint
 10
252.8579114627024
 20
411.9767158433216
 30
0.0
  0
POINT
  5
AD5
330
96C
100
AcDbEntity
  8
Defpoints
 62
     0
100
AcDbPoint
 10
195.5871589584546
 20
376.189977842633
 30
0.0
  0
POINT
  5
AD6
330
96C
100
AcDbEntity
  8
Defpoints
 62
     0
100
AcDbPoint
 10
321.4184758945445
 20
382.7845177275135
 30
0.0
  0
POINT
  5
AD7
330
96C
100
AcDbEntity
  8
Defpoints
 62
     0
100
AcDbPoint
 10
195.5871589584546
 20
376.189977842633
 30
0.0
  0
POINT
  5
AD8
330
96C
100
AcDbEntity
  8
Defpoints
 62
     0
100
AcDbPoint
 10
195.5871589584545
 20
238.1859768023327
 30
0.0
  0
ENDBLK
  5
978
330
96C
100
AcDbEntity
  8
0
100
AcDbBlockEnd
  0
ENDSEC
  0
SECTION
  2
ENTITIES
  0
LINE
  5
57
330
1E
100
AcDbEntity
  8
STEMPEL
100
AcDbLine
 10
410.0
 20
110.0
 30
0.0
 11
39.99999999999997
 21
110.0
 31
0.0
  0
LINE
  5
58
330
1E
100
AcDbEntity
  8
STEMPEL
100
AcDbLine
 10
136.0000000000001
 20
109.9999999999999
 30
0.0
 11
136.0
 21
9.999999999999971
 31
0.0
  0
LINE
  5
59
330
1E
100
AcDbEntity
  8
STEMPEL
100
AcDbLine
 10
220.0
 20
110.0
 30
0.0
 11
220.0
 21
9.999999999999971
 31
0.0
  0
LINE
  5
5A
330
1E
100
AcDbEntity
  8
STEMPEL
100
AcDbLine
 10
332.0
 20
109.9999999999997
 30
0.0
 11
332.0
 21
40.0
 31
0.0
  0
LINE
  5
5B
330
1E
100
AcDbEntity
  8
STEMPEL
100
AcDbLine
 10
135.9999999999999
 20
29.99999999999997
 30
0.0
 11
39.99999999999997
 21
29.99999999999997
 31
0.0
  0
LINE
  5
5C
330
1E
100
AcDbEntity
  8
STEMPEL
100
AcDbLine
 10
410.0
 20
40.0
 30
0.0
 11
136.0000000000001
 21
39.99999999999997
 31
0.0
  0
LINE
  5
5D
330
1E
100
AcDbEntity
  8
STEMPEL
100
AcDbLine
 10
410.0
 20
80.0
 30
0.0
 11
136.0000000000001
 21
79.99999999999994
 31
0.0
  0
LINE
  5
5E
330
1E
100
AcDbEntity
  8
VOLL
100
AcDbLine
 10
54.00000000000009
 20
110.0
 30
0.0
 11
53.99999999999997
 21
9.999999999999971
 31
0.0
  0
LINE
  5
5F
330
1E
100
AcDbEntity
  8
VOLL
100
AcDbLine
 10
94.00000000000011
 20
109.9999999999999
 30
0.0
 11
94.0
 21
9.999999999999971
 31
0.0
  0
LINE
  5
60
330
1E
100
AcDbEntity
  8
VOLL
100
AcDbLine
 10
114.0000000000001
 20
109.9999999999999
 30
0.0
 11
114.0
 21
9.999999999999971
 31
0.0
  0
LINE
  5
61
330
1E
100
AcDbEntity
  8
VOLL
100
AcDbLine
 10
154.0000000000001
 20
79.99999999999994
 30
0.0
 11
154.0000000000001
 21
39.99999999999997
 31
0.0
  0
LINE
  5
62
330
1E
100
AcDbEntity
  8
VOLL
100
AcDbLine
 10
180.0000000000001
 20
109.9999999999998
 30
0.0
 11
180.0
 21
39.99999999999997
 31
0.0
  0
LINE
  5
63
330
1E
100
AcDbEntity
  8
HILF
100
AcDbLine
 10
40.00000000000008
 20
100.0
 30
0.0
 11
136.0000000000001
 21
100.0
 31
0.0
  0
LINE
  5
64
330
1E
100
AcDbEntity
  8
HILF
100
AcDbLine
 10
40.00000000000008
 20
90.00000000000005
 30
0.0
 11
136.0000000000001
 21
90.00000000000005
 31
0.0
  0
LINE
  5
65
330
1E
100
AcDbEntity
  8
HILF
100
AcDbLine
 10
40.00000000000008
 20
79.99999999999994
 30
0.0
 11
136.0000000000001
 21
79.99999999999994
 31
0.0
  0
LINE
  5
66
330
1E
100
AcDbEntity
  8
HILF
100
AcDbLine
 10
40.00000000000008
 20
69.99999999999994
 30
0.0
 11
136.0000000000001
 21
69.99999999999994
 31
0.0
  0
LINE
  5
67
330
1E
100
AcDbEntity
  8
HILF
100
AcDbLine
 10
40.00000000000008
 20
59.99999999999997
 30
0.0
 11
136.0000000000001
 21
59.99999999999997
 31
0.0
  0
LINE
  5
68
330
1E
100
AcDbEntity
  8
HILF
100
AcDbLine
 10
40.00000000000008
 20
49.99999999999997
 30
0.0
 11
136.0000000000001
 21
49.99999999999997
 31
0.0
  0
LINE
  5
69
330
1E
100
AcDbEntity
  8
HILF
100
AcDbLine
 10
40.00000000000008
 20
39.99999999999997
 30
0.0
 11
136.0000000000001
 21
39.99999999999997
 31
0.0
  0
LINE
  5
6A
330
1E
100
AcDbEntity
  8
HILF
100
AcDbLine
 10
136.0000000000001
 20
69.99999999999994
 30
0.0
 11
220.0
 21
69.99999999999994
 31
0.0
  0
LINE
  5
6B
330
1E
100
AcDbEntity
  8
HILF
100
AcDbLine
 10
136.0000000000001
 20
59.99999999999997
 30
0.0
 11
220.0
 21
59.99999999999997
 31
0.0
  0
LINE
  5
6C
330
1E
100
AcDbEntity
  8
HILF
100
AcDbLine
 10
136.0000000000001
 20
49.99999999999997
 30
0.0
 11
220.0
 21
49.99999999999997
 31
0.0
  0
LINE
  5
6D
330
1E
100
AcDbEntity
  8
HILF
100
AcDbLine
 10
224.7736801096948
 20
84.03758247564139
 30
0.0
 11
324.8353916556311
 21
84.03758247564139
 31
0.0
  0
LINE
  5
6E
330
1E
100
AcDbEntity
  8
HILF
100
AcDbLine
 10
224.7736801096948
 20
69.99999999999994
 30
0.0
 11
324.835391655631
 21
69.99999999999994
 31
0.0
  0
LINE
  5
6F
330
1E
100
AcDbEntity
  8
HILF
100
AcDbLine
 10
224.7736801096948
 20
59.99999999999997
 30
0.0
 11
324.835391655631
 21
59.99999999999997
 31
0.0
  0
LINE
  5
70
330
1E
100
AcDbEntity
  8
HILF
100
AcDbLine
 10
224.7736801096948
 20
49.99999999999997
 30
0.0
 11
324.835391655631
 21
49.99999999999997
 31
0.0
  0
LINE
  5
71
330
1E
100
AcDbEntity
  8
VOLL
100
AcDbLine
 10
332.0
 20
60.0
 30
0.0
 11
410.0
 21
60.0
 31
0.0
  0
LINE
  5
72
330
1E
100
AcDbEntity
  8
HILF
100
AcDbLine
 10
336.7238616296993
 20
83.77983636955827
 30
0.0
 11
404.8588839326728
 21
83.77983636955827
 31
0.0
  0
LINE
  5
73
330
1E
100
AcDbEntity
  8
HILF
100
AcDbLine
 10
223.4909699289885
 20
14.89398258028314
 30
0.0
 11
404.8588839326728
 21
14.89398258028314
 31
0.0
  0
TEXT
  5
74
330
1E
100
AcDbEntity
  8
TEXT
100
AcDbText
 10
63.86165979631819
 20
18.67381894984132
 30
0.0
 40
4.0
  1
Änderung
 41
0.8
  7
GREEKS
 72
     1
 11
74.60451693917534
 21
18.67381894984132
 31
0.0
100
AcDbText
  0
TEXT
  5
75
330
1E
100
AcDbEntity
  8
TEXT
100
AcDbText
 10
143.5163572150377
 20
102.4620895087088
 30
0.0
 40
5.0
  1
Maßstab
 41
0.8
  7
GREEKS
100
AcDbText
  0
TEXT
  5
76
330
1E
100
AcDbEntity
  8
TEXT
100
AcDbText
 10
184.2858954734051
 20
102.4184168434819
 30
0.0
 40
5.0
  1
Zul. Abw.
 41
0.8
  7
GREEKS
100
AcDbText
  0
TEXT
  5
77
330
1E
100
AcDbEntity
  8
TEXT
100
AcDbText
 10
224.877940380901
 20
102.5489328011779
 30
0.0
 40
5.0
  1
Benennung
 41
0.8
  7
GREEKS
100
AcDbText
  0
TEXT
  5
78
330
1E
100
AcDbEntity
  8
TEXT
100
AcDbText
 10
336.178754957634
 20
102.3132034537136
 30
0.0
 40
5.0
  1
Zeichnungs Nr.
 41
0.8
  7
GREEKS
100
AcDbText
  0
TEXT
  5
79
330
1E
100
AcDbEntity
  8
TEXT
100
AcDbText
 10
224.742238391136
 20
30.84560570193057
 30
0.0
 40
5.0
  1
Bauvorhaben
 41
0.8
  7
GREEKS
100
AcDbText
  0
TEXT
  5
7A
330
1E
100
AcDbEntity
  8
TEXT
100
AcDbText
 10
336.7238616296993
 20
73.1811823709997
 30
0.0
 40
5.0
  1
Ersatz für:
 41
0.8
  7
GREEKS
100
AcDbText
  0
TEXT
  5
7B
330
1E
100
AcDbEntity
  8
TEXT
100
AcDbText
 10
48.26641107045756
 20
13.65465846027192
 30
0.0
 40
4.0
  1
Index
 50
90.0
 41
0.8
  7
GREEKS
100
AcDbText
  0
TEXT
  5
7C
330
1E
100
AcDbEntity
  8
TEXT
100
AcDbText
 10
100.0934676075481
 20
18.6715626933981
 30
0.0
 40
4.0
  1
Tag
 41
0.8
  7
GREEKS
 72
     1
 11
103.8268009408814
 21
18.6715626933981
 31
0.0
100
AcDbText
  0
TEXT
  5
7D
330
1E
100
AcDbEntity
  8
TEXT
100
AcDbText
 10
119.0122744386592
 20
18.59324216966408
 30
0.0
 40
4.0
  1
Name
 41
0.8
  7
GREEKS
 72
     1
 11
125.3360839624688
 21
18.59324216966408
 31
0.0
100
AcDbText
  0
TEXT
  5
7E
330
1E
100
AcDbEntity
  8
TEXT
100
AcDbText
 10
162.3311673153651
 20
73.31880501229926
 30
0.0
 40
4.0
  1
Tag
 41
0.8
  7
GREEKS
100
AcDbText
  0
TEXT
  5
7F
330
1E
100
AcDbEntity
  8
TEXT
100
AcDbText
 10
192.4626584226295
 20
73.30961091915225
 30
0.0
 40
4.0
  1
Name
 41
0.8
  7
GREEKS
100
AcDbText
  0
TEXT
  5
80
330
1E
100
AcDbEntity
  8
TEXT
100
AcDbText
 10
137.5836127167615
 20
63.62990369617964
 30
0.0
 40
4.0
  1
Gez.
 41
0.8
  7
GREEKS
100
AcDbText
  0
TEXT
  5
81
330
1E
100
AcDbEntity
  8
TEXT
100
AcDbText
 10
137.5515086571672
 20
53.68926291428377
 30
0.0
 40
4.0
  1
Gepr.
 41
0.8
  7
GREEKS
100
AcDbText
  0
TEXT
  5
82
330
1E
100
AcDbEntity
  8
TEXT
100
AcDbText
 10
137.6006777387304
 20
43.52946389649807
 30
0.0
 40
4.0
  1
Norm.
 41
0.8
  7
GREEKS
100
AcDbText
  0
LINE
  5
83
330
1E
100
AcDbEntity
  8
STEMPEL
100
AcDbLine
 10
49.99999999999989
 20
10.0
 30
0.0
 11
410.0
 21
10.0
 31
0.0
  0
TEXT
  5
84
330
1E
100
AcDbEntity
  8
TEXT
100
AcDbText
 10
337.2400861497006
 20
52.07416177878602
 30
0.0
 40
5.0
  1
ersetzt durch:
 41
0.8
  7
GREEKS
100
AcDbText
  0
LINE
  5
85
330
1E
100
AcDbEntity
  8
STEMPEL
100
AcDbLine
 10
410.0
 20
10.0
 30
0.0
 11
39.99999999999989
 21
10.0
 31
0.0
  0
LINE
  5
86
330
1E
100
AcDbEntity
  8
STEMPEL
100
AcDbLine
 10
410.0
 20
10.0
 30
0.0
 11
410.0
 21
584.0
 31
0.0
  0
LINE
  5
87
330
1E
100
AcDbEntity
  8
STEMPEL
100
AcDbLine
 10
40.0
 20
10.0
 30
0.0
 11
39.99999999999989
 21
584.0
 31
0.0
  0
LINE
  5
88
330
1E
100
AcDbEntity
  8
STEMPEL
100
AcDbLine
 10
410.0
 20
584.0
 30
0.0
 11
39.99999999999989
 21
584.0
 31
0.0
  0
LINE
  5
89
330
1E
100
AcDbEntity
  8
HILF
100
AcDbLine
 10
0.0
 20
0.0
 30
0.0
 11
-0.0000000000001137
 21
594.0
 31
0.0
  0
LINE
  5
8A
330
1E
100
AcDbEntity
  8
HILF
100
AcDbLine
 10
419.9999999999999
 20
594.0000000000002
 30
0.0
 11
0.0
 21
594.0
 31
0.0
  0
LINE
  5
8B
330
1E
100
AcDbEntity
  8
HILF
100
AcDbLine
 10
420.0
 20
0.0
 30
0.0
 11
0.0
 21
0.0
 31
0.0
  0
LINE
  5
8C
330
1E
100
AcDbEntity
  8
HILF
100
AcDbLine
 10
31.08767135713856
 20
297.0
 30
0.0
 11
0.0000000000001137
 21
297.0
 31
0.0
  0
TEXT
  5
8D
330
1E
100
AcDbEntity
  8
TEXT
100
AcDbText
 10
138.622109822104
 20
73.14025471151666
 30
0.0
 40
4.0
  1
2011
 41
0.8
  7
GREEKS
100
AcDbText
  0
LINE
  5
8E
330
1E
100
AcDbEntity
  8
HILF
100
AcDbLine
 10
420.0
 20
-0.0000000000001137
 30
0.0
 11
419.9999999999999
 21
594.0
 31
0.0
  0
TEXT
  5
8F
330
1E
100
AcDbEntity
  8
VOLL
100
AcDbText
 10
78.07675471698113
 20
31.02594776470585
 30
0.0
 40
1.8
  1

  7
GREEKS
100
AcDbText
  0
TEXT
  5
90
330
1E
100
AcDbEntity
  8
TEXT
100
AcDbText
 10
41.85509950977674
 20
111.6719999999999
 30
0.0
 40
5.0
  1
Erstellt mit AUTOCAD 2004
 41
0.8
  7
GREEKS
100
AcDbText
  0
TEXT
  5
91
330
1E
100
AcDbEntity
  8
TEXT
100
AcDbText
 10
194.4216048581257
 20
63.0896391972351
 30
0.0
 40
4.0
  1
Koeh
 41
0.8
  7
GREEKS
 72
     1
 11
199.6787477152685
 21
63.0896391972351
 31
0.0
100
AcDbText
  0
TEXT
  5
92
330
1E
100
AcDbEntity
  8
TEXT
 62
     1
100
AcDbText
 10
346.5791650916348
 20
88.14901428913959
 30
0.0
 40
7.0
  1
03500080N
 41
0.8
  7
GREEKS
 72
     1
 11
369.7791650916348
 21
88.14901428913959
 31
0.0
100
AcDbText
  0
TEXT
  5
93
330
1E
100
AcDbEntity
  8
TEXT
 62
     1
100
AcDbText
 10
150.5006306481887
 20
88.14901428913959
 30
0.0
 40
7.0
  1
1:2
 41
0.8
  7
GREEKS
100
AcDbText
  0
TEXT
  5
94
330
1E
100
AcDbEntity
  8
TEXT
100
AcDbText
 10
161.3132828225217
 20
63.10765040825732
 30
0.0
 40
4.0
  1
24.10
 41
0.8
  7
GREEKS
 72
     1
 11
167.4085209177598
 21
63.10765040825732
 31
0.0
100
AcDbText
  0
TEXT
  5
95
330
1E
100
AcDbEntity
  8
TEXT
 62
     1
100
AcDbText
 10
226.8935731057402
 20
87.41748789253779
 30
0.0
 40
7.0
  1
Bogen DN80 87°
 41
0.8
  7
GREEKS
100
AcDbText
  0
TEXT
  5
98
330
1E
100
AcDbEntity
  8
TEXT
100
AcDbText
 10
225.1296391125315
 20
51.64011943042158
 30
0.0
 40
5.0
  1
EDV-Art.Nr. 03500.080N
 41
0.8
  7
GREEKS
100
AcDbText
  0
TEXT
  5
99
330
1E
100
AcDbEntity
  8
TEXT
100
AcDbText
 10
224.9837501577827
 20
42.62974153022632
 30
0.0
 40
4.0
  1
03500.080N.DWG
 41
0.8
  7
GREEKS
100
AcDbText
  0
TEXT
  5
9A
330
1E
100
AcDbEntity
  8
TEXT
100
AcDbText
 10
182.626132208084
 20
90.76363841023022
 30
0.0
 40
4.0
  1
DIN EN1123-2
 41
0.8
  7
GREEKS
 72
     1
 11
199.6166083985602
 21
90.76363841023022
 31
0.0
100
AcDbText
  0
INSERT
  5
9B
330
1E
100
AcDbEntity
  8
STEMPEL
100
AcDbBlockReference
  2
LOGO
 10
140.9955485457794
 20
45.02105276448322
 30
0.0
 41
2.0
 42
2.0
 43
2.0
  0
TEXT
  5
118
330
1E
100
AcDbEntity
  8
BEM
100
AcDbText
 10
417.3022923857165
 20
10.16790107998849
 30
0.0
 40
4.0
  1
Diese Zeichnung ist urheberrechtlich geschützt und bleibt unser Eigentum. Sie darf weder ganz noch teilweise verfielfältigt und nicht an Dritte weitergegeben werden.
 50
90.0
 41
0.8
  7
GREEKS
100
AcDbText
  0
LINE
  5
137
330
1E
100
AcDbEntity
  8
MITTEL
100
AcDbLine
 10
195.5871589584545
 20
376.189977842633
 30
0.0
 11
195.5871589584545
 21
238.1859768023327
 31
0.0
  0
LINE
  5
16A
330
1E
100
AcDbEntity
  8
MITTEL
100
AcDbLine
 10
321.4184758945445
 20
382.7845177275135
 30
0.0
 11
195.5871589584545
 21
376.189977842633
 31
0.0
  0
TEXT
  5
21A
330
1E
100
AcDbEntity
  8
TEXT
 62
     1
100
AcDbText
 10
290.3906889102604
 20
387.9765012395764
 30
0.0
 40
7.0
  1
DN80
 50
2.999999999999989
 41
0.8
  7
GREEKS
100
AcDbText
  0
TEXT
  5
4F3
330
1E
100
AcDbEntity
  8
TEXT
 62
     1
100
AcDbText
 10
182.0164268508513
 20
138.5680159469384
 30
0.0
 40
7.0
  1
Werkstoff: SF-Cu DIN1754/1786
 41
0.8
  7
GREEKS
100
AcDbText
  0
LINE
  5
51A
102
{ACAD_REACTORS
330
9A3
102
}
330
1E
100
AcDbEntity
  8
STEMPEL
100
AcDbLine
 10
151.0871589584545
 20
360.9433763939937
 30
0.0
 11
151.0871589584545
 21
248.1859768023327
 31
0.0
  0
LINE
  5
51B
102
{ACAD_REACTORS
330
9A3
102
}
330
1E
100
AcDbEntity
  8
STEMPEL
100
AcDbLine
 10
240.0871589584546
 20
325.4359768023328
 30
0.0
 11
240.0871589584545
 21
248.1859768023327
 31
0.0
  0
TEXT
  5
703
330
1E
100
AcDbEntity
  8
VOLL
100
AcDbText
 10
530.1376913021803
 20
277.6019812781993
 30
0.0
 40
1.8
  1

  7
GREEKS
100
AcDbText
  0
TEXT
  5
704
330
1E
100
AcDbEntity
  8
TEXT
100
AcDbText
 10
861.9699595057731
 20
283.1602168114249
 30
0.0
 40
2.5
  1
  
  7
GREEKS
 72
     1
 11
864.231864267678
 21
283.1602168114249
 31
0.0
100
AcDbText
  0
TEXT
  5
705
330
1E
100
AcDbEntity
  8
BEM
100
AcDbText
 10
1106.089676818255
 20
418.719098841827
 30
0.0
 40
2.5
  1
 
 72
     4
 11
1107.220629199207
 21
418.719098841827
 31
0.0
100
AcDbText
  0
TEXT
  5
706
330
1E
100
AcDbEntity
  8
VOLL
100
AcDbText
 10
687.6724083793419
 20
283.1575369132705
 30
0.0
 40
1.8
  1

  7
GREEKS
100
AcDbText
  0
TEXT
  5
707
330
1E
100
AcDbEntity
  8
BEM
100
AcDbText
 10
722.1604732186265
 20
287.8832612364911
 30
0.0
 40
2.5
  1

 41
0.8
  7
GREEKS
100
AcDbText
  0
TEXT
  5
708
330
1E
100
AcDbEntity
  8
BEM
100
AcDbText
 10
722.1604732186265
 20
283.189492682439
 30
0.0
 40
2.5
  1

 41
0.8
  7
GREEKS
100
AcDbText
  0
TEXT
  5
709
330
1E
100
AcDbEntity
  8
BEM
100
AcDbText
 10
722.1604732186265
 20
277.9516488637755
 30
0.0
 40
2.5
  1

 41
0.8
  7
GREEKS
100
AcDbText
  0
TEXT
  5
70A
330
1E
100
AcDbEntity
  8
BEM
100
AcDbText
 10
722.087528741252
 20
273.4464599136779
 30
0.0
 40
1.8
  1

 41
0.8
  7
GREEKS
100
AcDbText
  0
TEXT
  5
70B
330
1E
100
AcDbEntity
  8
TEXT
100
AcDbText
 10
1019.504676582934
 20
288.7157724464961
 30
0.0
 40
2.5
  1
  
  7
GREEKS
 72
     1
 11
1021.766581344839
 21
288.7157724464961
 31
0.0
100
AcDbText
  0
TEXT
  5
70C
330
1E
100
AcDbEntity
  8
BEM
100
AcDbText
 10
1263.624393895417
 20
424.2746544768983
 30
0.0
 40
2.5
  1
 
 72
     4
 11
1264.755346276369
 21
424.2746544768983
 31
0.0
100
AcDbText
  0
LINE
  5
70D
330
1E
100
AcDbEntity
  8
STEMPEL
100
AcDbLine
 10
248.2727827776229
 20
423.5121837840445
 30
0.0
 11
208.4839154168863
 21
421.4269376054806
 31
0.0
  0
LINE
  5
70E
330
1E
100
AcDbEntity
  8
STEMPEL
100
AcDbLine
 10
318.9251763495251
 20
334.8228941029934
 30
0.0
 11
313.9023815566237
 21
430.6635281007533
 31
0.0
  0
TEXT
  5
72E
330
1E
100
AcDbEntity
  8
BEM
100
AcDbText
 10
544.2038843219018
 20
297.7852419352345
 30
0.0
 40
2.5
  1

  7
GREEKS
100
AcDbText
  0
TEXT
  5
747
330
1E
100
AcDbEntity
  8
VOLL
100
AcDbText
 10
530.1376913021803
 20
277.6019812781993
 30
0.0
 40
1.8
  1

  7
GREEKS
100
AcDbText
  0
TEXT
  5
74D
330
1E
100
AcDbEntity
  8
BEM
100
AcDbText
 10
564.625756141465
 20
282.32770560142
 30
0.0
 40
2.5
  1

 41
0.8
  7
GREEKS
100
AcDbText
  0
TEXT
  5
74E
330
1E
100
AcDbEntity
  8
BEM
100
AcDbText
 10
564.625756141465
 20
277.6339370473678
 30
0.0
 40
2.5
  1

 41
0.8
  7
GREEKS
100
AcDbText
  0
TEXT
  5
74F
330
1E
100
AcDbEntity
  8
BEM
100
AcDbText
 10
564.625756141465
 20
272.3960932287043
 30
0.0
 40
2.5
  1

 41
0.8
  7
GREEKS
100
AcDbText
  0
TEXT
  5
751
330
1E
100
AcDbEntity
  8
BEM
100
AcDbText
 10
551.8692407844793
 20
293.482493374832
 30
0.0
 40
2.0
  1

 41
0.8
  7
GREEKS
 72
     1
 11
551.8692407844793
 21
293.482493374832
 31
0.0
100
AcDbText
  0
TEXT
  5
752
330
1E
100
AcDbEntity
  8
TEXT
100
AcDbText
 10
861.9699595057731
 20
283.1602168114249
 30
0.0
 40
2.5
  1
  
  7
GREEKS
 72
     1
 11
864.231864267678
 21
283.1602168114249
 31
0.0
100
AcDbText
  0
TEXT
  5
753
330
1E
100
AcDbEntity
  8
BEM
100
AcDbText
 10
1106.089676818255
 20
418.719098841827
 30
0.0
 40
2.5
  1
 
 72
     4
 11
1107.220629199207
 21
418.719098841827
 31
0.0
100
AcDbText
  0
LINE
  5
76B
330
1E
100
AcDbEntity
  8
STEMPEL
100
AcDbLine
 10
278.6215016820469
 20
428.6074959569035
 30
0.0
 11
259.3767715909806
 21
427.5989223899292
 31
0.0
  0
ARC
  5
76D
330
1E
100
AcDbEntity
  8
STEMPEL
100
AcDbCircle
 10
247.8750295101766
 20
431.1017682481792
 30
0.0
 40
7.599999999999999
100
AcDbArc
 50
273.0
 51
307.4115086697696
  0
ARC
  5
76E
330
1E
100
AcDbEntity
  8
STEMPEL
100
AcDbCircle
 10
260.0257374483932
 20
415.2159161589722
 30
0.0
 40
12.4
100
AcDbArc
 50
92.99999999999997
 51
127.4115086697696
  0
LINE
  5
76F
330
1E
100
AcDbEntity
  8
STEMPEL
100
AcDbLine
 10
301.1425493854956
 20
433.2925772651612
 30
0.0
 11
294.0563464596163
 21
432.9212051062668
 31
0.0
  0
ARC
  5
770
330
1E
100
AcDbEntity
  8
STEMPEL
100
AcDbCircle
 10
278.0144045896288
 20
440.1915985600563
 30
0.0
 40
11.6
100
AcDbArc
 50
273.0
 51
297.9533333189529
  0
ARC
  5
771
330
1E
100
AcDbEntity
  8
STEMPEL
100
AcDbCircle
 10
295.4544095470088
 20
407.5596168996274
 30
0.0
 40
25.40009324312573
100
AcDbArc
 50
92.84351404566889
 51
118.2201231806556
  0
ARC
  5
772
330
1E
100
AcDbEntity
  8
STEMPEL
  6
Continuous
100
AcDbCircle
 10
302.4509482915693
 20
408.3268388962967
 30
0.0
 40
25.0
100
AcDbArc
 50
68.00000000000642
 51
92.99999999999997
  0
LINE
  5
773
330
1E
100
AcDbEntity
  8
STEMPEL
  6
Continuous
100
AcDbLine
 10
313.9023815566237
 20
430.6635281007533
 30
0.0
 11
311.8161131269671
 21
431.5064352604665
 31
0.0
  0
LINE
  5
775
330
1E
100
AcDbEntity
  8
STEMPEL
100
AcDbLine
 10
252.9306828832449
 20
334.6341551908876
 30
0.0
 11
248.6005534570736
 21
334.4072227236537
 31
0.0
  0
ARC
  5
776
330
1E
100
AcDbEntity
  8
STEMPEL
100
AcDbCircle
 10
284.2528505737877
 20
321.1549580173111
 30
0.0
 40
11.6
100
AcDbArc
 50
68.04666668105004
 51
92.99999999999997
  0
ARC
  5
778
330
1E
100
AcDbEntity
  8
STEMPEL
100
AcDbCircle
 10
263.7520575328908
 20
344.1134932844467
 30
0.0
 40
12.4
100
AcDbArc
 50
238.5884913302304
 51
273.0
  0
ARC
  5
77A
330
1E
100
AcDbEntity
  8
STEMPEL
100
AcDbCircle
 10
253.3284361506912
 20
327.0445707267526
 30
0.0
 40
7.599999999999999
100
AcDbArc
 50
58.58849133023031
 51
92.99999999999997
  0
LINE
  5
77C
330
1E
100
AcDbEntity
  8
STEMPEL
100
AcDbLine
 10
283.6457534813694
 20
332.7390606204644
 30
0.0
 11
264.4010233903032
 21
331.7304870534901
 31
0.0
  0
ARC
  5
77E
330
1E
100
AcDbEntity
  8
STEMPEL
  6
Continuous
100
AcDbCircle
 10
305.2247539724452
 20
355.3994735543045
 30
0.0
 40
25.0
100
AcDbArc
 50
273.0
 51
297.9999999999906
  0
ARC
  5
780
330
1E
100
AcDbEntity
  8
STEMPEL
100
AcDbCircle
 10
298.1863464628905
 20
355.4311551854388
 30
0.0
 40
25.40009324312573
100
AcDbArc
 50
247.7798768193487
 51
273.1564859543311
  0
LINE
  5
782
330
1E
100
AcDbEntity
  8
STEMPEL
100
AcDbLine
 10
306.5331528785188
 20
330.4337351854402
 30
0.0
 11
299.4469499526395
 21
330.0623630265458
 31
0.0
  0
LINE
  5
787
330
1E
100
AcDbEntity
  8
STEMPEL
  6
Continuous
100
AcDbLine
 10
318.9482748849195
 20
334.3821477918447
 30
0.0
 11
316.9615430420924
 21
333.3257837328313
 31
0.0
  0
LINE
  5
78E
330
1E
100
AcDbEntity
  8
HILF
  6
Continuous
100
AcDbLine
 10
281.2166376322057
 20
426.9739700457946
 30
0.0
 11
286.0559230520633
 21
334.6349034785542
 31
0.0
  0
LINE
  5
78F
330
1E
100
AcDbEntity
  8
HILF
  6
Continuous
100
AcDbLine
 10
260.5984327580421
 20
334.2031627763628
 30
0.0
 11
255.8534769415458
 21
424.7423132881603
 31
0.0
  0
LINE
  5
790
330
1E
100
AcDbEntity
  8
HILF
  6
Continuous
100
AcDbLine
 10
250.6085134653371
 20
421.8991563653016
 30
0.0
 11
255.0850109165704
 21
336.4824966160505
 31
0.0
  0
LINE
  5
824
330
1E
100
AcDbEntity
  8
MITTEL
100
AcDbLine
 10
228.5422344369802
 20
377.9170801645674
 30
0.0
 11
195.5871589584545
 21
343.1896765981632
 31
0.0
  0
LINE
  5
825
102
{ACAD_REACTORS
330
9A3
102
}
330
1E
100
AcDbEntity
  8
STEMPEL
100
AcDbLine
 10
208.4839154168867
 20
421.4269376054811
 30
0.0
 11
151.0871589584545
 21
360.9433763939937
 31
0.0
  0
LINE
  5
826
102
{ACAD_REACTORS
330
9A3
102
}
330
1E
100
AcDbEntity
  8
STEMPEL
100
AcDbLine
 10
248.6005534570736
 20
334.4072227236537
 30
0.0
 11
240.0871589584546
 21
325.4359768023328
 31
0.0
  0
LINE
  5
829
330
1E
100
AcDbEntity
  8
STEMPEL
100
AcDbLine
 10
248.6005534570736
 20
334.4072227236537
 30
0.0
 11
208.4839154168867
 21
421.4269376054811
 31
0.0
  0
LINE
  5
82A
330
1E
100
AcDbEntity
  8
STEMPEL
100
AcDbLine
 10
240.0871589584546
 20
325.4359768023328
 30
0.0
 11
151.0871589584545
 21
360.9433763939937
 31
0.0
  0
DIMENSION
  5
838
330
1E
100
AcDbEntity
  8
BEM
100
AcDbDimension
  2
*D1
 10
191.2824153115625
 20
458.3293797746112
 30
0.0
 11
251.3613162271419
 21
467.986901802349
 31
0.0
 70
    32
 71
     5
 42
121.0040010403003
  3
Standard
100
AcDbAlignedDimension
 13
313.9023815566237
 23
430.6635281007533
 33
0.0
 14
195.5871589584545
 24
376.189977842633
 34
0.0
 50
2.999999999999993
100
AcDbRotatedDimension
1001
ACAD
1000
DSTYLE
1002
{
1070
    40
1040
2.0
1070
    41
1040
3.5
1070
    42
1040
1.0
1070
    43
1040
7.0
1070
    44
1040
1.0
1070
    73
1070
     0
1070
    74
1070
     0
1070
    77
1070
     1
1070
    78
1070
     8
1070
    79
1070
     2
1070
   140
1040
3.5
1070
   141
1040
1.5
1070
   146
1040
0.5
1070
   147
1040
1.5
1070
   172
1070
     1
1070
   178
1070
     1
1070
   179
1070
     2
1070
   271
1070
     2
1070
   272
1070
     2
1070
   284
1070
     8
1070
   285
1070
     8
1070
   286
1070
     8
1002
}
  0
LINE
  5
889
330
1E
100
AcDbEntity
  8
STEMPEL
100
AcDbLine
 10
239.6497156408249
 20
243.1859768023328
 30
0.0
 11
151.524602276084
 21
243.1859768023327
 31
0.0
  0
LINE
  5
88A
330
1E
100
AcDbEntity
  8
HILF
100
AcDbLine
 10
238.0795192833678
 20
248.1859768023327
 30
0.0
 11
153.0947986335412
 21
248.1859768023327
 31
0.0
  0
LINE
  5
88B
330
1E
100
AcDbEntity
  8
STEMPEL
100
AcDbLine
 10
151.0871589584545
 20
248.1859768023327
 30
0.0
 11
151.524602276084
 21
243.1859768023327
 31
0.0
  0
LINE
  5
88C
330
1E
100
AcDbEntity
  8
STEMPEL
100
AcDbLine
 10
240.0871589584545
 20
248.1859768023327
 30
0.0
 11
239.6497156408249
 21
243.1859768023328
 31
0.0
  0
DIMENSION
  5
89C
330
1E
100
AcDbEntity
  8
BEM
100
AcDbDimension
  2
*D2
 10
134.2728881933303
 20
376.189977842633
 30
0.0
 11
127.7728881933303
 21
309.6879773224829
 31
0.0
 70
    32
 71
     5
 42
133.0040010403003
  3
Standard
100
AcDbAlignedDimension
 13
151.524602276084
 23
243.1859768023327
 33
0.0
 14
195.5871589584545
 24
376.189977842633
 34
0.0
 50
90.0
100
AcDbRotatedDimension
1001
ACAD
1000
DSTYLE
1002
{
1070
    40
1040
2.0
1070
    41
1040
3.5
1070
    42
1040
1.0
1070
    43
1040
7.0
1070
    44
1040
1.0
1070
    73
1070
     0
1070
    74
1070
     0
1070
    77
1070
     1
1070
    78
1070
     8
1070
    79
1070
     2
1070
   140
1040
3.5
1070
   141
1040
1.5
1070
   146
1040
0.5
1070
   147
1040
1.5
1070
   172
1070
     1
1070
   178
1070
     1
1070
   179
1070
     2
1070
   271
1070
     2
1070
   272
1070
     2
1070
   284
1070
     8
1070
   285
1070
     8
1070
   286
1070
     8
1002
}
  0
DIMENSION
  5
943
330
1E
100
AcDbEntity
  8
BEM
100
AcDbDimension
  2
*D3
 10
240.0871589584545
 20
223.8137794137037
 30
0.0
 11
195.5871589584545
 21
230.3137794137037
 31
0.0
 70
    32
  1
%%c<>
 71
     5
 42
89.00000000000003
  3
Standard
100
AcDbAlignedDimension
 13
151.0871589584545
 23
248.1859768023327
 33
0.0
 14
240.0871589584545
 24
248.1859768023327
 34
0.0
100
AcDbRotatedDimension
1001
ACAD
1000
DSTYLE
1002
{
1070
    40
1040
2.0
1070
    41
1040
3.5
1070
    42
1040
1.0
1070
    43
1040
7.0
1070
    44
1040
1.0
1070
    73
1070
     0
1070
    74
1070
     0
1070
    77
1070
     1
1070
    78
1070
     8
1070
    79
1070
     2
1070
   140
1040
3.5
1070
   141
1040
1.5
1070
   146
1040
0.5
1070
   147
1040
1.5
1070
   172
1070
     1
1070
   178
1070
     1
1070
   179
1070
     2
1070
   271
1070
     2
1070
   272
1070
     2
1070
   284
1070
     8
1070
   285
1070
     8
1070
   286
1070
     8
1002
}
  0
DIMENSION
  5
96B
330
1E
100
AcDbEntity
  8
BEM
100
AcDbDimension
  2
*D4
 10
195.5871589584545
 20
238.1859768023327
 30
0.0
 11
234.1909013442386
 21
431.6009946438501
 31
0.0
 70
   162
 71
     5
 42
1.518436449235069
  3
Standard
100
AcDb2LineAngularDimension
 13
321.4184758945445
 23
382.7845177275135
 33
0.0
 14
195.5871589584545
 24
376.189977842633
 34
0.0
 15
195.5871589584545
 25
376.189977842633
 35
0.0
 16
252.8579114627024
 26
411.9767158433216
 36
0.0
1001
ACAD
1000
DSTYLE
1002
{
1070
    40
1040
2.0
1070
    41
1040
3.5
1070
    42
1040
1.0
1070
    43
1040
7.0
1070
    44
1040
1.0
1070
    73
1070
     0
1070
    74
1070
     0
1070
    77
1070
     1
1070
    78
1070
     8
1070
    79
1070
     2
1070
   140
1040
3.5
1070
   141
1040
1.5
1070
   146
1040
0.5
1070
   147
1040
1.5
1070
   172
1070
     1
1070
   178
1070
     1
1070
   179
1070
     2
1070
   271
1070
     2
1070
   272
1070
     2
1070
   284
1070
     8
1070
   285
1070
     8
1070
   286
1070
     8
1002
}
  0
ARC
  5
995
102
{ACAD_REACTORS
330
9A3
102
}
330
1E
100
AcDbEntity
  8
SCHRAFF
100
AcDbCircle
 10
238.967388459095
 20
325.882719932352
 30
0.0
 40
3.332145419974072
100
AcDbArc
 50
289.6364558845716
 51
26.86354411542828
  0
ARC
  5
996
102
{ACAD_REACTORS
330
9A3
102
}
330
1E
100
AcDbEntity
  8
SCHRAFF
100
AcDbCircle
 10
152.6289526071695
 20
360.3282630999173
 30
0.0
 40
2.586309564558392
100
AcDbArc
 50
83.09369630783075
 51
233.406303692167
  0
HATCH
  5
9A3
330
1E
100
AcDbEntity
  8
SCHRAFF
100
AcDbHatch
 10
0.0
 20
0.0
 30
0.0
210
0.0
220
0.0
230
1.0
  2
_USER
 70
     0
 71
     1
 91
        2
 92
        7
 72
     1
 73
     1
 93
        3
 10
241.9399461460038
 20
327.3884071169472
 42
0.0
 10
240.0871589584546
 20
325.4359768023328
 42
0.0
 10
240.0871589584546
 20
322.7443593525878
 42
0.4516596114901839
 97
        3
330
826
330
51B
330
995
 92
        7
 72
     1
 73
     1
 93
        3
 10
151.0871589584545
 20
360.9433763939937
 42
0.0
 10
152.9399461460036
 20
362.8958067086082
 42
0.769496381591098
 10
151.0871589584545
 20
358.2517589442488
 42
0.0
 97
        3
330
825
330
996
330
51A
 75
     0
 76
     0
 52
0.0
 41
0.1
 77
     0
 78
     1
 53
0.0
 43
0.0
 44
0.0
 45
0.0
 46
0.1
 79
     0
 47
0.2695528645989756
 98
        2
 10
241.0006238101273
 20
325.2014370317291
 10
150.904021323618
 20
360.7824156439319
  0
ARC
  5
9A4
330
1E
100
AcDbEntity
  8
SCHRAFF
100
AcDbCircle
 10
151.0871589584545
 20
360.9433763939937
 30
0.0
 40
5.0
100
AcDbArc
 50
308.2500000000004
 51
8.249999999999699
  0
ARC
  5
9A5
330
1E
100
AcDbEntity
  8
SCHRAFF
100
AcDbCircle
 10
155.7312067228141
 20
359.0905892064445
 30
0.0
 40
5.0
100
AcDbArc
 50
308.2500000000004
 51
8.249999999999699
  0
ARC
  5
9A6
330
1E
100
AcDbEntity
  8
SCHRAFF
100
AcDbCircle
 10
160.3752544871737
 20
357.2378020188954
 30
0.0
 40
5.0
100
AcDbArc
 50
308.2500000000004
 51
8.249999999999699
  0
ARC
  5
9A7
330
1E
100
AcDbEntity
  8
SCHRAFF
100
AcDbCircle
 10
165.0193022515333
 20
355.3850148313462
 30
0.0
 40
5.0
100
AcDbArc
 50
308.2500000000004
 51
8.249999999999699
  0
ARC
  5
9A8
330
1E
100
AcDbEntity
  8
SCHRAFF
100
AcDbCircle
 10
169.6633500158929
 20
353.532227643797
 30
0.0
 40
5.0
100
AcDbArc
 50
308.2500000000004
 51
8.249999999999699
  0
ARC
  5
9A9
330
1E
100
AcDbEntity
  8
SCHRAFF
100
AcDbCircle
 10
174.3073977802526
 20
351.6794404562479
 30
0.0
 40
5.0
100
AcDbArc
 50
308.2500000000004
 51
8.249999999999699
  0
ARC
  5
9AA
330
1E
100
AcDbEntity
  8
SCHRAFF
100
AcDbCircle
 10
178.9514455446122
 20
349.8266532686987
 30
0.0
 40
5.0
100
AcDbArc
 50
308.2500000000004
 51
8.249999999999699
  0
ARC
  5
9AB
330
1E
100
AcDbEntity
  8
SCHRAFF
100
AcDbCircle
 10
183.5954933089718
 20
347.9738660811495
 30
0.0
 40
5.0
100
AcDbArc
 50
308.2500000000004
 51
8.249999999999699
  0
ARC
  5
9AC
330
1E
100
AcDbEntity
  8
SCHRAFF
100
AcDbCircle
 10
188.2395410733314
 20
346.1210788936003
 30
0.0
 40
5.0
100
AcDbArc
 50
308.2500000000004
 51
8.249999999999699
  0
ARC
  5
9AD
330
1E
100
AcDbEntity
  8
SCHRAFF
100
AcDbCircle
 10
192.883588837691
 20
344.2682917060512
 30
0.0
 40
5.0
100
AcDbArc
 50
308.2500000000004
 51
8.249999999999699
  0
ARC
  5
9AE
330
1E
100
AcDbEntity
  8
SCHRAFF
100
AcDbCircle
 10
197.5276366020506
 20
342.415504518502
 30
0.0
 40
5.0
100
AcDbArc
 50
308.2500000000004
 51
8.249999999999699
  0
ARC
  5
9AF
330
1E
100
AcDbEntity
  8
SCHRAFF
100
AcDbCircle
 10
202.1716843664102
 20
340.5627173309528
 30
0.0
 40
5.0
100
AcDbArc
 50
308.2500000000004
 51
8.249999999999699
  0
ARC
  5
9B0
330
1E
100
AcDbEntity
  8
SCHRAFF
100
AcDbCircle
 10
206.8157321307699
 20
338.7099301434036
 30
0.0
 40
5.0
100
AcDbArc
 50
308.2500000000004
 51
8.249999999999699
  0
ARC
  5
9B1
330
1E
100
AcDbEntity
  8
SCHRAFF
100
AcDbCircle
 10
211.4597798951295
 20
336.8571429558545
 30
0.0
 40
5.0
100
AcDbArc
 50
308.2500000000004
 51
8.249999999999699
  0
ARC
  5
9B2
330
1E
100
AcDbEntity
  8
SCHRAFF
100
AcDbCircle
 10
216.1038276594891
 20
335.0043557683053
 30
0.0
 40
5.0
100
AcDbArc
 50
308.2500000000004
 51
8.249999999999699
  0
ARC
  5
9B3
330
1E
100
AcDbEntity
  8
SCHRAFF
100
AcDbCircle
 10
220.7478754238487
 20
333.1515685807561
 30
0.0
 40
5.0
100
AcDbArc
 50
308.2500000000004
 51
8.249999999999699
  0
ARC
  5
9B4
330
1E
100
AcDbEntity
  8
SCHRAFF
100
AcDbCircle
 10
225.3919231882083
 20
331.2987813932069
 30
0.0
 40
5.0
100
AcDbArc
 50
308.2500000000004
 51
8.249999999999699
  0
ARC
  5
9B5
330
1E
100
AcDbEntity
  8
SCHRAFF
100
AcDbCircle
 10
230.0359709525679
 20
329.4459942056578
 30
0.0
 40
5.0
100
AcDbArc
 50
308.2500000000004
 51
8.249999999999699
  0
ARC
  5
9B6
330
1E
100
AcDbEntity
  8
SCHRAFF
100
AcDbCircle
 10
234.6800187169275
 20
327.5932070181086
 30
0.0
 40
5.0
100
AcDbArc
 50
308.2500000000004
 51
8.249999999999699
  0
ARC
  5
9B7
330
1E
100
AcDbEntity
  8
SCHRAFF
100
AcDbCircle
 10
223.1370062306965
 20
389.6419265216033
 30
0.0
 40
5.0
100
AcDbArc
 50
264.7500000000001
 51
324.7499999999993
  0
ARC
  5
9B8
330
1E
100
AcDbEntity
  8
SCHRAFF
100
AcDbCircle
 10
221.0437075430094
 20
394.1826423907287
 30
0.0
 40
5.0
100
AcDbArc
 50
264.7500000000001
 51
324.7499999999993
  0
ARC
  5
9B9
330
1E
100
AcDbEntity
  8
SCHRAFF
100
AcDbCircle
 10
218.9504088553223
 20
398.7233582598541
 30
0.0
 40
5.0
100
AcDbArc
 50
264.7500000000001
 51
324.7499999999993
  0
ARC
  5
9BA
330
1E
100
AcDbEntity
  8
SCHRAFF
100
AcDbCircle
 10
216.8571101676353
 20
403.2640741289794
 30
0.0
 40
5.0
100
AcDbArc
 50
264.7500000000001
 51
324.7499999999993
  0
ARC
  5
9BB
330
1E
100
AcDbEntity
  8
SCHRAFF
100
AcDbCircle
 10
214.7638114799481
 20
407.8047899981048
 30
0.0
 40
5.0
100
AcDbArc
 50
264.7500000000001
 51
324.7499999999993
  0
ARC
  5
9BC
330
1E
100
AcDbEntity
  8
SCHRAFF
100
AcDbCircle
 10
212.670512792261
 20
412.3455058672303
 30
0.0
 40
5.0
100
AcDbArc
 50
264.7500000000001
 51
324.7499999999993
  0
ARC
  5
9BD
330
1E
100
AcDbEntity
  8
SCHRAFF
100
AcDbCircle
 10
210.5772141045739
 20
416.8862217363557
 30
0.0
 40
5.0
100
AcDbArc
 50
264.7500000000001
 51
324.7499999999993
  0
ARC
  5
9BE
330
1E
100
AcDbEntity
  8
SCHRAFF
100
AcDbCircle
 10
208.4839154168868
 20
421.4269376054811
 30
0.0
 40
5.0
100
AcDbArc
 50
264.7500000000001
 51
324.7499999999993
  0
ARC
  5
9BF
330
1E
100
AcDbEntity
  8
SCHRAFF
100
AcDbCircle
 10
209.1788769645065
 20
419.9194494738206
 30
0.0
 40
2.586309564558392
100
AcDbArc
 50
39.59369630783286
 51
189.906303692169
  0
ARC
  5
9C0
330
1E
100
AcDbEntity
  8
SCHRAFF
100
AcDbCircle
 10
233.6034996691321
 20
366.9383471759762
 30
0.0
 40
5.0
100
AcDbArc
 50
264.7500000000001
 51
324.7499999999993
  0
ARC
  5
9C1
330
1E
100
AcDbEntity
  8
SCHRAFF
100
AcDbCircle
 10
231.5102009814451
 20
371.4790630451017
 30
0.0
 40
5.0
100
AcDbArc
 50
264.7500000000001
 51
324.7499999999993
  0
ARC
  5
9C2
330
1E
100
AcDbEntity
  8
SCHRAFF
100
AcDbCircle
 10
229.4169022937579
 20
376.0197789142271
 30
0.0
 40
5.0
100
AcDbArc
 50
264.7500000000001
 51
324.7499999999993
  0
ARC
  5
9C3
330
1E
100
AcDbEntity
  8
SCHRAFF
100
AcDbCircle
 10
227.3236036060707
 20
380.5604947833525
 30
0.0
 40
5.0
100
AcDbArc
 50
264.7500000000001
 51
324.7499999999993
  0
ARC
  5
9C4
330
1E
100
AcDbEntity
  8
SCHRAFF
100
AcDbCircle
 10
225.2303049183837
 20
385.1012106524779
 30
0.0
 40
5.0
100
AcDbArc
 50
264.7500000000001
 51
324.7499999999993
  0
ARC
  5
9C5
330
1E
100
AcDbEntity
  8
SCHRAFF
100
AcDbCircle
 10
246.1632917952548
 20
339.6940519612239
 30
0.0
 40
5.0
100
AcDbArc
 50
264.7500000000001
 51
324.7499999999993
  0
ARC
  5
9C6
330
1E
100
AcDbEntity
  8
SCHRAFF
100
AcDbCircle
 10
244.0699931075677
 20
344.2347678303493
 30
0.0
 40
5.0
100
AcDbArc
 50
264.7500000000001
 51
324.7499999999993
  0
ARC
  5
9C7
330
1E
100
AcDbEntity
  8
SCHRAFF
100
AcDbCircle
 10
241.9766944198806
 20
348.7754836994747
 30
0.0
 40
5.0
100
AcDbArc
 50
264.7500000000001
 51
324.7499999999993
  0
ARC
  5
9C8
330
1E
100
AcDbEntity
  8
SCHRAFF
100
AcDbCircle
 10
239.8833957321936
 20
353.3161995686
 30
0.0
 40
5.0
100
AcDbArc
 50
264.7500000000001
 51
324.7499999999993
  0
ARC
  5
9C9
330
1E
100
AcDbEntity
  8
SCHRAFF
100
AcDbCircle
 10
237.7900970445063
 20
357.8569154377254
 30
0.0
 40
5.0
100
AcDbArc
 50
264.7500000000001
 51
324.7499999999993
  0
ARC
  5
9CA
330
1E
100
AcDbEntity
  8
SCHRAFF
100
AcDbCircle
 10
235.6967983568192
 20
362.3976313068508
 30
0.0
 40
5.0
100
AcDbArc
 50
264.7500000000001
 51
324.7499999999993
  0
ARC
  5
9CB
330
1E
100
AcDbEntity
  8
SCHRAFF
100
AcDbCircle
 10
248.0958183131311
 20
335.5020778875565
 30
0.0
 40
3.332145419974072
100
AcDbArc
 50
246.1364558845716
 51
343.3635441154282
  0
HATCH
  5
9CC
330
1E
100
AcDbEntity
  8
SCHRAFF
100
AcDbHatch
 10
0.0
 20
0.0
 30
0.0
210
0.0
220
0.0
230
1.0
  2
_USER
 70
     0
 71
     0
 91
        2
 92
        7
 72
     1
 73
     1
 93
        3
 10
246.7477662695245
 20
332.4547924090392
 42
0.0
 10
248.6005534570736
 20
334.4072227236537
 42
0.0
 10
251.2884821386497
 20
334.5480910967263
 42
-0.4516596114901839
 97
        0
 92
        7
 72
     1
 73
     1
 93
        3
 10
208.4839154168867
 20
421.4269376054811
 42
0.0
 10
206.6311282293376
 20
419.4745072908666
 42
-0.769496381591098
 10
211.1718440984628
 20
421.5678059785537
 42
0.0
 97
        0
 75
     0
 76
     0
 52
0.0
 41
0.1
 77
     0
 78
     1
 53
272.9999999999998
 43
561.0253405178458
 44
591.1973536166881
 45
-0.0998629534754574
 46
-0.005233595624294
 79
     0
 47
0.2695528645989756
 98
        2
 10
248.8825788555796
 20
333.5072846069847
 10
208.6350708925914
 20
421.6182482913259
  0
ARC
  5
A94
330
1E
100
AcDbEntity
  8
MITTEL
100
AcDbCircle
 10
255.5871589584544
 20
319.25210383974
 30
0.0
 40
59.99999999999992
100
AcDbArc
 50
92.99999999999979
 51
179.9999999999999
  0
ENDSEC
  0
SECTION
  2
OBJECTS
  0
DICTIONARY
  5
C
330
0
100
AcDbDictionary
281
     1
  3
ACAD_COLOR
350
DF
  3
ACAD_GROUP
350
D
  3
ACAD_LAYOUT
350
19
  3
ACAD_MATERIAL
350
DE
  3
ACAD_MLINESTYLE
350
16
  3
ACAD_PLOTSETTINGS
350
18
  3
ACAD_PLOTSTYLENAME
350
E
  3
AcDbVariableDictionary
350
EA
  0
DICTIONARY
  5
A0
330
1E
100
AcDbDictionary
280
     1
281
     1
  3
ACAD_LAYOUTSELFREF
360
D4
  0
DICTIONARY
  5
A2
330
1A
100
AcDbDictionary
280
     1
281
     1
  3
ACAD_LAYOUTSELFREF
360
D3
  0
DICTIONARY
  5
DF
102
{ACAD_REACTORS
330
C
102
}
330
C
100
AcDbDictionary
281
     1
  0
DICTIONARY
  5
D
102
{ACAD_REACTORS
330
C
102
}
330
C
100
AcDbDictionary
281
     1
  0
DICTIONARY
  5
19
102
{ACAD_REACTORS
330
C
102
}
330
C
100
AcDbDictionary
281
     1
  3
Layout1
350
1D
  3
Model
350
21
  0
DICTIONARY
  5
DE
102
{ACAD_REACTORS
330
C
102
}
330
C
100
AcDbDictionary
281
     1
  0
DICTIONARY
  5
16
102
{ACAD_REACTORS
330
C
102
}
330
C
100
AcDbDictionary
281
     1
  3
Standard
350
17
  0
DICTIONARY
  5
18
102
{ACAD_REACTORS
330
C
102
}
330
C
100
AcDbDictionary
281
     1
  0
ACDBDICTIONARYWDFLT
  5
E
102
{ACAD_REACTORS
330
C
102
}
330
C
100
AcDbDictionary
281
     1
  3
Normal
350
F
100
AcDbDictionaryWithDefault
340
F
  0
DICTIONARY
  5
EA
102
{ACAD_REACTORS
330
C
102
}
330
C
100
AcDbDictionary
281
     1
  3
DIMASSOC
350
EB
  3
PROJECTNAME
350
EC
  0
XRECORD
  5
D4
102
{ACAD_REACTORS
330
A0
102
}
330
A0
100
AcDbXrecord
280
     1
340
1E
  0
XRECORD
  5
D3
102
{ACAD_REACTORS
330
A2
102
}
330
A2
100
AcDbXrecord
280
     1
340
1A
  0
LAYOUT
  5
1D
102
{ACAD_REACTORS
330
19
102
}
330
19
100
AcDbPlotSettings
  1

  2
\\NT_WORK01\HP LaserJet 5000 PCL 6
  4

  6

 40
0.0
 41
0.0
 42
0.0
 43
0.0
 44
0.0
 45
0.0
 46
0.0
 47
0.0
 48
0.0
 49
0.0
140
0.0
141
0.0
142
1.0
143
1.0
 70
   688
 72
     0
 73
     0
 74
     5
  7

 75
    16
147
1.0
 76
     0
 77
     2
 78
   300
148
0.0
149
0.0
100
AcDbLayout
  1
Layout1
 70
     0
 71
     1
 10
0.0
 20
0.0
 11
12.0
 21
9.0
 12
0.0
 22
0.0
 32
0.0
 14
1.000000000000000E+20
 24
1.000000000000000E+20
 34
1.000000000000000E+20
 15
-1.000000000000000E+20
 25
-1.000000000000000E+20
 35
-1.000000000000000E+20
146
0.0
 13
0.0
 23
0.0
 33
0.0
 16
1.0
 26
0.0
 36
0.0
 17
0.0
 27
1.0
 37
0.0
 76
     0
330
1A
  0
LAYOUT
  5
21
102
{ACAD_REACTORS
330
19
102
}
330
19
100
AcDbPlotSettings
  1

  2
none_device
  4
Letter_(8.50_x_11.00_Inches)
  6

 40
6.349999904632568
 41
6.349999904632568
 42
6.350006103515625
 43
6.350006103515625
 44
215.8999938964844
 45
279.3999938964844
 46
0.0
 47
0.0
 48
0.0
 49
0.0
140
0.0
141
0.0
142
1.0
143
1.0
 70
 11952
 72
     0
 73
     1
 74
     0
  7

 75
     0
147
1.0
 76
     0
 77
     2
 78
   300
148
2300.349244052759
149
90.51547295399315
100
AcDbLayout
  1
Model
 70
     1
 71
     0
 10
0.0
 20
0.0
 11
12.0
 21
9.0
 12
0.0
 22
0.0
 32
0.0
 14
0.0
 24
0.0
 34
0.0
 15
0.0
 25
0.0
 35
0.0
146
0.0
 13
0.0
 23
0.0
 33
0.0
 16
1.0
 26
0.0
 36
0.0
 17
0.0
 27
1.0
 37
0.0
 76
     0
330
1E
  0
MLINESTYLE
  5
17
102
{ACAD_REACTORS
330
16
102
}
330
16
100
AcDbMlineStyle
  2
STANDARD
 70
     0
  3

 62
   256
 51
90.0
 52
90.0
 71
     2
 49
0.5
 62
   256
  6
BYLAYER
 49
-0.5
 62
   256
  6
BYLAYER
  0
ACDBPLACEHOLDER
  5
F
102
{ACAD_REACTORS
330
E
102
}
330
E
  0
DICTIONARYVAR
  5
EB
102
{ACAD_REACTORS
330
EA
102
}
330
EA
100
DictionaryVariables
280
     0
  1
1
  0
DICTIONARYVAR
  5
EC
102
{ACAD_REACTORS
330
EA
102
}
330
EA
100
DictionaryVariables
280
     0
  1

  0
ENDSEC
  0
EOF
