  0
SECTION
  2
HEADER
  9
$ACADVER
  1
AC1018
  9
$ACADMAINTVER
 70
     2
  9
$DWGCODEPAGE
  3
ANSI_1252
  9
$INSBASE
 10
0.0
 20
0.0
 30
0.0
  9
$EXTMIN
 10
-0.0192146320376878
 20
-0.0271749795965661
 30
-0.000000000000013
  9
$EXTMAX
 10
420.0192317462092
 20
594.027199183924
 30
0.0000000000000023
  9
$LIMMIN
 10
0.0
 20
0.0
  9
$LIMMAX
 10
419.9999999999999
 20
594.0
  9
$ORTHOMODE
 70
     1
  9
$REGENMODE
 70
     1
  9
$FILLMODE
 70
     1
  9
$QTEXTMODE
 70
     0
  9
$MIRRTEXT
 70
     1
  9
$LTSCALE
 40
20.0
  9
$ATTMODE
 70
     1
  9
$TEXTSIZE
 40
3.5
  9
$TRACEWID
 40
0.5
  9
$TEXTSTYLE
  7
STANDARD
  9
$CLAYER
  8
VOLL
  9
$CELTYPE
  6
ByLayer
  9
$CECOLOR
 62
   256
  9
$CELTSCALE
 40
1.0
  9
$DISPSILH
 70
     0
  9
$DIMSCALE
 40
2.0
  9
$DIMASZ
 40
3.5
  9
$DIMEXO
 40
1.0
  9
$DIMDLI
 40
7.0
  9
$DIMRND
 40
0.0
  9
$DIMDLE
 40
0.0
  9
$DIMEXE
 40
1.0
  9
$DIMTP
 40
0.0
  9
$DIMTM
 40
0.0
  9
$DIMTXT
 40
3.5
  9
$DIMCEN
 40
1.5
  9
$DIMTSZ
 40
0.0
  9
$DIMTOL
 70
     0
  9
$DIMLIM
 70
     0
  9
$DIMTIH
 70
     0
  9
$DIMTOH
 70
     0
  9
$DIMSE1
 70
     0
  9
$DIMSE2
 70
     0
  9
$DIMTAD
 70
     1
  9
$DIMZIN
 70
     8
  9
$DIMBLK
  1

  9
$DIMASO
 70
     1
  9
$DIMSHO
 70
     0
  9
$DIMPOST
  1

  9
$DIMAPOST
  1

  9
$DIMALT
 70
     0
  9
$DIMALTD
 70
     2
  9
$DIMALTF
 40
25.4
  9
$DIMLFAC
 40
1.0
  9
$DIMTOFL
 70
     1
  9
$DIMTVP
 40
0.0
  9
$DIMTIX
 70
     0
  9
$DIMSOXD
 70
     0
  9
$DIMSAH
 70
     0
  9
$DIMBLK1
  1

  9
$DIMBLK2
  1

  9
$DIMSTYLE
  2
Standard
  9
$DIMCLRD
 70
     0
  9
$DIMCLRE
 70
     0
  9
$DIMCLRT
 70
     1
  9
$DIMTFAC
 40
0.5142857142857144
  9
$DIMGAP
 40
1.5
  9
$DIMJUST
 70
     0
  9
$DIMSD1
 70
     0
  9
$DIMSD2
 70
     0
  9
$DIMTOLJ
 70
     1
  9
$DIMTZIN
 70
     8
  9
$DIMALTZ
 70
     8
  9
$DIMALTTZ
 70
     8
  9
$DIMUPT
 70
     0
  9
$DIMDEC
 70
     2
  9
$DIMTDEC
 70
     2
  9
$DIMALTU
 70
     2
  9
$DIMALTTD
 70
     2
  9
$DIMTXSTY
  7
STANDARD
  9
$DIMAUNIT
 70
     0
  9
$DIMADEC
 70
     2
  9
$DIMALTRND
 40
0.0
  9
$DIMAZIN
 70
     2
  9
$DIMDSEP
 70
    46
  9
$DIMATFIT
 70
     3
  9
$DIMFRAC
 70
     0
  9
$DIMLDRBLK
  1

  9
$DIMLUNIT
 70
     2
  9
$DIMLWD
 70
    -2
  9
$DIMLWE
 70
    -2
  9
$DIMTMOVE
 70
     0
  9
$LUNITS
 70
     2
  9
$LUPREC
 70
     2
  9
$SKETCHINC
 40
1.0
  9
$FILLETRAD
 40
50.0
  9
$AUNITS
 70
     0
  9
$AUPREC
 70
     0
  9
$MENU
  1
ACAD
  9
$ELEVATION
 40
0.0
  9
$PELEVATION
 40
0.0
  9
$THICKNESS
 40
0.0
  9
$LIMCHECK
 70
     0
  9
$CHAMFERA
 40
0.0
  9
$CHAMFERB
 40
0.0
  9
$CHAMFERC
 40
0.0
  9
$CHAMFERD
 40
0.0
  9
$SKPOLY
 70
     0
  9
$TDCREATE
 40
2455397.864709028
  9
$TDUCREATE
 40
2455397.781375695
  9
$TDUPDATE
 40
2455659.312299248
  9
$TDUUPDATE
 40
2455659.228965914
  9
$TDINDWG
 40
0.0714244444
  9
$TDUSRTIMER
 40
0.0714244444
  9
$USRTIMER
 70
     1
  9
$ANGBASE
 50
0.0
  9
$ANGDIR
 70
     0
  9
$PDMODE
 70
     0
  9
$PDSIZE
 40
0.0
  9
$PLINEWID
 40
0.0
  9
$SPLFRAME
 70
     0
  9
$SPLINETYPE
 70
     6
  9
$SPLINESEGS
 70
     8
  9
$HANDSEED
  5
8B2
  9
$SURFTAB1
 70
     6
  9
$SURFTAB2
 70
     6
  9
$SURFTYPE
 70
     6
  9
$SURFU
 70
     6
  9
$SURFV
 70
     6
  9
$UCSBASE
  2

  9
$UCSNAME
  2

  9
$UCSORG
 10
0.0
 20
0.0
 30
0.0
  9
$UCSXDIR
 10
1.0
 20
0.0
 30
0.0
  9
$UCSYDIR
 10
0.0
 20
1.0
 30
0.0
  9
$UCSORTHOREF
  2

  9
$UCSORTHOVIEW
 70
     0
  9
$UCSORGTOP
 10
0.0
 20
0.0
 30
0.0
  9
$UCSORGBOTTOM
 10
0.0
 20
0.0
 30
0.0
  9
$UCSORGLEFT
 10
0.0
 20
0.0
 30
0.0
  9
$UCSORGRIGHT
 10
0.0
 20
0.0
 30
0.0
  9
$UCSORGFRONT
 10
0.0
 20
0.0
 30
0.0
  9
$UCSORGBACK
 10
0.0
 20
0.0
 30
0.0
  9
$PUCSBASE
  2

  9
$PUCSNAME
  2

  9
$PUCSORG
 10
0.0
 20
0.0
 30
0.0
  9
$PUCSXDIR
 10
1.0
 20
0.0
 30
0.0
  9
$PUCSYDIR
 10
0.0
 20
1.0
 30
0.0
  9
$PUCSORTHOREF
  2

  9
$PUCSORTHOVIEW
 70
     0
  9
$PUCSORGTOP
 10
0.0
 20
0.0
 30
0.0
  9
$PUCSORGBOTTOM
 10
0.0
 20
0.0
 30
0.0
  9
$PUCSORGLEFT
 10
0.0
 20
0.0
 30
0.0
  9
$PUCSORGRIGHT
 10
0.0
 20
0.0
 30
0.0
  9
$PUCSORGFRONT
 10
0.0
 20
0.0
 30
0.0
  9
$PUCSORGBACK
 10
0.0
 20
0.0
 30
0.0
  9
$USERI1
 70
     0
  9
$USERI2
 70
     0
  9
$USERI3
 70
     0
  9
$USERI4
 70
     0
  9
$USERI5
 70
     0
  9
$USERR1
 40
0.0
  9
$USERR2
 40
0.0
  9
$USERR3
 40
0.0
  9
$USERR4
 40
0.0
  9
$USERR5
 40
0.0
  9
$WORLDVIEW
 70
     1
  9
$SHADEDGE
 70
     3
  9
$SHADEDIF
 70
    70
  9
$TILEMODE
 70
     1
  9
$MAXACTVP
 70
    16
  9
$PINSBASE
 10
0.0
 20
0.0
 30
0.0
  9
$PLIMCHECK
 70
     0
  9
$PEXTMIN
 10
1.000000000000000E+20
 20
1.000000000000000E+20
 30
1.000000000000000E+20
  9
$PEXTMAX
 10
-1.000000000000000E+20
 20
-1.000000000000000E+20
 30
-1.000000000000000E+20
  9
$PLIMMIN
 10
0.0
 20
0.0
  9
$PLIMMAX
 10
12.0
 20
9.0
  9
$UNITMODE
 70
     0
  9
$VISRETAIN
 70
     0
  9
$PLINEGEN
 70
     0
  9
$PSLTSCALE
 70
     0
  9
$TREEDEPTH
 70
  3020
  9
$CMLSTYLE
  2
Standard
  9
$CMLJUST
 70
     0
  9
$CMLSCALE
 40
1.0
  9
$PROXYGRAPHICS
 70
     1
  9
$MEASUREMENT
 70
     0
  9
$CELWEIGHT
370
    -1
  9
$ENDCAPS
280
     0
  9
$JOINSTYLE
280
     0
  9
$LWDISPLAY
290
     0
  9
$INSUNITS
 70
     0
  9
$HYPERLINKBASE
  1

  9
$STYLESHEET
  1
monochrome 1.ctb
  9
$XEDIT
290
     1
  9
$CEPSNTYPE
380
     0
  9
$PSTYLEMODE
290
     1
  9
$FINGERPRINTGUID
  2
{D68B0D02-A558-11D7-B632-000102183313}
  9
$VERSIONGUID
  2
{BD228199-4C36-4A6C-AEEB-6AF16E71C4E0}
  9
$EXTNAMES
290
     1
  9
$PSVPSCALE
 40
0.0
  9
$OLESTARTUP
290
     0
  9
$SORTENTS
280
   127
  9
$INDEXCTL
280
     0
  9
$HIDETEXT
280
     0
  9
$XCLIPFRAME
290
     0
  9
$HALOGAP
280
     0
  9
$OBSCOLOR
 70
   257
  9
$OBSLTYPE
280
     0
  9
$INTERSECTIONDISPLAY
280
     0
  9
$INTERSECTIONCOLOR
 70
   257
  9
$DIMASSOC
280
     1
  9
$PROJECTNAME
  1

  0
ENDSEC
  0
SECTION
  2
CLASSES
  0
CLASS
  1
ACDBDICTIONARYWDFLT
  2
AcDbDictionaryWithDefault
  3
ObjectDBX Classes
 90
        0
 91
        1
280
     0
281
     0
  0
CLASS
  1
DICTIONARYVAR
  2
AcDbDictionaryVar
  3
ObjectDBX Classes
 90
        0
 91
        2
280
     0
281
     0
  0
ENDSEC
  0
SECTION
  2
TABLES
  0
TABLE
  2
VPORT
  5
8
330
0
100
AcDbSymbolTable
 70
     3
  0
VPORT
  5
8B1
330
8
100
AcDbSymbolTableRecord
100
AcDbViewportTableRecord
  2
*Active
 70
     0
 10
0.0
 20
0.0
 11
1.0
 21
1.0
 12
210.0
 22
297.0
 13
0.0
 23
0.0
 14
1.0
 24
1.0
 15
10.0
 25
10.0
 16
0.0
 26
0.0
 36
1.0
 17
0.0
 27
0.0
 37
0.0
 40
594.0
 41
1.334231805929919
 42
50.0
 43
0.0
 44
0.0
 50
0.0
 51
0.0
 71
     0
 72
  1500
 73
     1
 74
     0
 75
     0
 76
     0
 77
     0
 78
     0
281
     0
 65
     1
110
0.0
120
0.0
130
0.0
111
1.0
121
0.0
131
0.0
112
0.0
122
1.0
132
0.0
 79
     0
146
0.0
  0
ENDTAB
  0
TABLE
  2
LTYPE
  5
5
330
0
100
AcDbSymbolTable
 70
     2
  0
LTYPE
  5
13
330
5
100
AcDbSymbolTableRecord
100
AcDbLinetypeTableRecord
  2
ByBlock
 70
     0
  3

 72
    65
 73
     0
 40
0.0
  0
LTYPE
  5
14
330
5
100
AcDbSymbolTableRecord
100
AcDbLinetypeTableRecord
  2
ByLayer
 70
     0
  3

 72
    65
 73
     0
 40
0.0
  0
LTYPE
  5
15
330
5
100
AcDbSymbolTableRecord
100
AcDbLinetypeTableRecord
  2
Continuous
 70
     0
  3
Solid line
 72
    65
 73
     0
 40
0.0
  0
LTYPE
  5
25
330
5
100
AcDbSymbolTableRecord
100
AcDbLinetypeTableRecord
  2
STRICHPUNKT
 70
     0
  3
__ . __ . __ . __ . __ . __ . __ . __ . __ . __
 72
    65
 73
     4
 40
1.0
 49
0.5
 74
     0
 49
-0.25
 74
     0
 49
0.0
 74
     0
 49
-0.25
 74
     0
  0
ENDTAB
  0
TABLE
  2
LAYER
  5
2
330
0
100
AcDbSymbolTable
 70
     9
  0
LAYER
  5
10
330
2
100
AcDbSymbolTableRecord
100
AcDbLayerTableRecord
  2
0
 70
     0
 62
     7
  6
Continuous
370
    -3
390
F
  0
LAYER
  5
2A
330
2
100
AcDbSymbolTableRecord
100
AcDbLayerTableRecord
  2
VOLL
 70
     0
 62
     1
  6
Continuous
370
    -3
390
F
  0
LAYER
  5
2B
330
2
100
AcDbSymbolTableRecord
100
AcDbLayerTableRecord
  2
HILF
 70
     0
 62
     2
  6
Continuous
370
    -3
390
F
  0
LAYER
  5
2C
330
2
100
AcDbSymbolTableRecord
100
AcDbLayerTableRecord
  2
MITTEL
 70
     0
 62
     2
  6
STRICHPUNKT
370
    -3
390
F
  0
LAYER
  5
2F
330
2
100
AcDbSymbolTableRecord
100
AcDbLayerTableRecord
  2
BEM
 70
     0
 62
     7
  6
Continuous
370
    -3
390
F
  0
LAYER
  5
30
330
2
100
AcDbSymbolTableRecord
100
AcDbLayerTableRecord
  2
STEMPEL
 70
     0
 62
     3
  6
Continuous
370
    -3
390
F
  0
LAYER
  5
31
330
2
100
AcDbSymbolTableRecord
100
AcDbLayerTableRecord
  2
TEXT
 70
     0
 62
     7
  6
Continuous
370
    -3
390
F
  0
LAYER
  5
170
330
2
100
AcDbSymbolTableRecord
100
AcDbLayerTableRecord
  2
Defpoints
 70
     0
 62
     7
  6
Continuous
290
     0
370
    -3
390
F
  0
LAYER
  5
171
330
2
100
AcDbSymbolTableRecord
100
AcDbLayerTableRecord
  2
SCHRAFF
 70
     0
 62
     7
  6
Continuous
370
    -3
390
F
  0
ENDTAB
  0
TABLE
  2
STYLE
  5
3
330
0
100
AcDbSymbolTable
 70
     2
  0
STYLE
  5
11
330
3
100
AcDbSymbolTableRecord
100
AcDbTextStyleTableRecord
  2
STANDARD
 70
     0
 40
0.0
 41
0.8
 50
0.0
 71
     0
 42
3.5
  3
simplex.shx
  4

  0
STYLE
  5
24
330
3
100
AcDbSymbolTableRecord
100
AcDbTextStyleTableRecord
  2
GREEKS
 70
     0
 40
0.0
 41
0.8
 50
0.0
 71
     0
 42
2.5
  3
SIMPLEX.shx
  4

  0
ENDTAB
  0
TABLE
  2
VIEW
  5
6
330
0
100
AcDbSymbolTable
 70
     0
  0
ENDTAB
  0
TABLE
  2
UCS
  5
7
330
0
100
AcDbSymbolTable
 70
     0
  0
ENDTAB
  0
TABLE
  2
APPID
  5
9
330
0
100
AcDbSymbolTable
 70
     1
  0
APPID
  5
12
330
9
100
AcDbSymbolTableRecord
100
AcDbRegAppTableRecord
  2
ACAD
 70
     0
  0
ENDTAB
  0
TABLE
  2
DIMSTYLE
  5
A
330
0
100
AcDbSymbolTable
 70
     1
100
AcDbDimStyleTable
 71
     1
340
9D
  0
DIMSTYLE
105
9D
102
{ACAD_REACTORS
330
1AE
330
1B3
330
397
330
3C7
330
712
330
72A
330
740
102
}
330
A
100
AcDbSymbolTableRecord
100
AcDbDimStyleTableRecord
  2
Standard
 70
     0
340
11
  0
ENDTAB
  0
TABLE
  2
BLOCK_RECORD
  5
1
330
0
100
AcDbSymbolTable
 70
    11
  0
BLOCK_RECORD
  5
1E
102
{ACAD_XDICTIONARY
360
A0
102
}
330
1
100
AcDbSymbolTableRecord
100
AcDbBlockTableRecord
  2
*Model_Space
340
21
  0
BLOCK_RECORD
  5
1A
102
{ACAD_XDICTIONARY
360
A2
102
}
330
1
100
AcDbSymbolTableRecord
100
AcDbBlockTableRecord
  2
*Paper_Space
340
1D
  0
BLOCK_RECORD
  5
22
330
1
100
AcDbSymbolTableRecord
100
AcDbBlockTableRecord
  2
LOGO
340
0
102
{BLKREFS
331
9B
102
}
  0
BLOCK_RECORD
  5
1E5
330
1
100
AcDbSymbolTableRecord
100
AcDbBlockTableRecord
  2
*D1
340
0
  0
BLOCK_RECORD
  5
1F1
330
1
100
AcDbSymbolTableRecord
100
AcDbBlockTableRecord
  2
*D2
340
0
  0
BLOCK_RECORD
  5
398
330
1
100
AcDbSymbolTableRecord
100
AcDbBlockTableRecord
  2
*D4
340
0
  0
BLOCK_RECORD
  5
3C8
330
1
100
AcDbSymbolTableRecord
100
AcDbBlockTableRecord
  2
*D5
340
0
  0
BLOCK_RECORD
  5
713
330
1
100
AcDbSymbolTableRecord
100
AcDbBlockTableRecord
  2
*D8
340
0
  0
BLOCK_RECORD
  5
72B
330
1
100
AcDbSymbolTableRecord
100
AcDbBlockTableRecord
  2
*D9
340
0
  0
BLOCK_RECORD
  5
741
330
1
100
AcDbSymbolTableRecord
100
AcDbBlockTableRecord
  2
*D10
340
0
  0
ENDTAB
  0
ENDSEC
  0
SECTION
  2
BLOCKS
  0
BLOCK
  5
35
330
1E
100
AcDbEntity
  8
0
100
AcDbBlockBegin
  2
*Model_Space
 70
     0
 10
0.0
 20
0.0
 30
0.0
  3
*Model_Space
  1

  0
ENDBLK
  5
36
330
1E
100
AcDbEntity
  8
0
100
AcDbBlockEnd
  0
BLOCK
  5
33
330
1A
100
AcDbEntity
 67
     1
  8
0
100
AcDbBlockBegin
  2
*Paper_Space
 70
     0
 10
0.0
 20
0.0
 30
0.0
  3
*Paper_Space
  1

  0
ENDBLK
  5
34
330
1A
100
AcDbEntity
 67
     1
  8
0
100
AcDbBlockEnd
  0
BLOCK
  5
37
330
22
100
AcDbEntity
  8
0
100
AcDbBlockBegin
  2
LOGO
 70
     0
 10
0.0
 20
0.0
 30
0.0
  3
LOGO
  1

  0
ARC
  5
38
330
22
100
AcDbEntity
  8
0
100
AcDbCircle
 10
11.59973089678112
 20
-9.271599258481501
 30
0.0
 40
4.5
100
AcDbArc
 50
270.0
 51
231.0575587310159
  0
LINE
  5
39
330
22
100
AcDbEntity
  8
0
100
AcDbLine
 10
3.599730896781125
 20
-4.771599258481529
 30
0.0
 11
3.599730896781153
 21
-11.77159925848133
 31
0.0
  0
LINE
  5
3A
330
22
100
AcDbEntity
  8
0
100
AcDbLine
 10
2.599730896781125
 20
-4.771599258481529
 30
0.0
 11
2.599730896781153
 21
-11.77159925848133
 31
0.0
  0
CIRCLE
  5
3B
330
22
100
AcDbEntity
  8
0
100
AcDbCircle
 10
11.59973089678112
 20
-9.271599258481501
 30
0.0
 40
3.5
  0
ARC
  5
3C
330
22
100
AcDbEntity
  8
0
100
AcDbCircle
 10
31.59973089678115
 20
-9.271599258481472
 30
0.0
 40
4.5
100
AcDbArc
 50
270.0
 51
231.0575587310182
  0
LINE
  5
3D
330
22
100
AcDbEntity
  8
0
100
AcDbLine
 10
17.59973089678112
 20
-4.771599258481472
 30
0.0
 11
17.59973089678115
 21
-13.77159925848147
 31
0.0
  0
ARC
  5
3E
330
22
100
AcDbEntity
  8
0
100
AcDbCircle
 10
22.59973089678116
 20
-7.271599258481472
 30
0.0
 40
2.5
100
AcDbArc
 50
293.1161887722295
 51
90.0
  0
CIRCLE
  5
3F
330
22
100
AcDbEntity
  8
0
100
AcDbCircle
 10
31.59973089678115
 20
-9.271599258481472
 30
0.0
 40
3.5
  0
ARC
  5
40
330
22
100
AcDbEntity
  8
0
100
AcDbCircle
 10
4.599730896781153
 20
-11.77159925848133
 30
0.0
 40
1.0
100
AcDbArc
 50
180.0
 51
270.0
  0
ARC
  5
41
330
22
100
AcDbEntity
  8
0
100
AcDbCircle
 10
4.599730896781153
 20
-11.77159925848133
 30
0.0
 40
2.0
100
AcDbArc
 50
179.9999999999992
 51
270.0
  0
LINE
  5
42
330
22
100
AcDbEntity
  8
0
100
AcDbLine
 10
11.59973089678115
 20
-13.77159925848144
 30
0.0
 11
4.599730896781153
 21
-13.77159925848147
 31
0.0
  0
LINE
  5
43
330
22
100
AcDbEntity
  8
0
100
AcDbLine
 10
8.771303772034769
 20
-12.77159925848136
 30
0.0
 11
4.599730896781153
 21
-12.77159925848133
 31
0.0
  0
LINE
  5
44
330
22
100
AcDbEntity
  8
0
100
AcDbLine
 10
31.59973089678115
 20
-13.77159925848147
 30
0.0
 11
23.6715276665056
 21
-13.77159925848144
 31
0.0
  0
LINE
  5
45
330
22
100
AcDbEntity
  8
0
100
AcDbLine
 10
23.56565672307022
 20
-9.51278021337896
 30
0.0
 11
24.4388546544846
 21
-12.77159925848144
 31
0.0
  0
LINE
  5
46
330
22
100
AcDbEntity
  8
0
100
AcDbLine
 10
22.59973089678116
 20
-9.771599258481472
 30
0.0
 11
18.59973089678112
 21
-9.771599258481472
 31
0.0
  0
LINE
  5
47
330
22
100
AcDbEntity
  8
0
100
AcDbLine
 10
18.59973089678115
 20
-13.77159925848144
 30
0.0
 11
17.59973089678115
 21
-13.77159925848144
 31
0.0
  0
LINE
  5
48
330
22
100
AcDbEntity
  8
0
100
AcDbLine
 10
18.59973089678115
 20
-9.771599258481472
 30
0.0
 11
18.59973089678115
 21
-13.77159925848144
 31
0.0
  0
LINE
  5
49
330
22
100
AcDbEntity
  8
0
100
AcDbLine
 10
22.59973089678116
 20
-9.771599258481472
 30
0.0
 11
23.67152766650562
 21
-13.77159925848147
 31
0.0
  0
ARC
  5
4A
330
22
100
AcDbEntity
  8
0
100
AcDbCircle
 10
22.59973089678116
 20
-7.271599258481472
 30
0.0
 40
2.5
100
AcDbArc
 50
270.0
 51
270.0000000000007
  0
LINE
  5
4B
330
22
100
AcDbEntity
  8
0
100
AcDbLine
 10
28.77130377203494
 20
-12.77159925848147
 30
0.0
 11
24.43885465448463
 21
-12.77159925848144
 31
0.0
  0
LINE
  5
4C
330
22
100
AcDbEntity
  8
0
100
AcDbLine
 10
3.599730896781125
 20
-4.771599258481472
 30
0.0
 11
2.599730896781125
 21
-4.771599258481472
 31
0.0
  0
LINE
  5
4D
330
22
100
AcDbEntity
  8
0
100
AcDbLine
 10
22.59973089678116
 20
-8.771599258481472
 30
0.0
 11
18.59973089678115
 21
-8.771599258481472
 31
0.0
  0
LINE
  5
4E
330
22
100
AcDbEntity
  8
0
100
AcDbLine
 10
22.59973089678116
 20
-5.771599258481472
 30
0.0
 11
18.59973089678115
 21
-5.771599258481472
 31
0.0
  0
LINE
  5
4F
330
22
100
AcDbEntity
  8
0
100
AcDbLine
 10
22.59973089678116
 20
-4.771599258481472
 30
0.0
 11
17.59973089678115
 21
-4.771599258481472
 31
0.0
  0
LINE
  5
50
330
22
100
AcDbEntity
  8
0
100
AcDbLine
 10
18.59973089678115
 20
-5.771599258481472
 30
0.0
 11
18.59973089678115
 21
-8.771599258481472
 31
0.0
  0
ARC
  5
51
330
22
100
AcDbEntity
  8
0
100
AcDbCircle
 10
22.59973089678116
 20
-7.271599258481472
 30
0.0
 40
1.5
100
AcDbArc
 50
270.0
 51
90.0
  0
ENDBLK
  5
52
330
22
100
AcDbEntity
  8
0
100
AcDbBlockEnd
  0
BLOCK
  5
1EF
330
1E5
100
AcDbEntity
  8
0
100
AcDbBlockBegin
  2
*D1
 70
     1
 10
0.0
 20
0.0
 30
0.0
  3
*D1
  1

  0
LINE
  5
886
330
1E5
100
AcDbEntity
  8
BEM
 62
     0
370
    -2
100
AcDbLine
 10
167.3045411198858
 20
265.6701766791973
 30
0.0
 11
167.3045411198858
 21
235.2236218735299
 31
0.0
  0
LINE
  5
887
330
1E5
100
AcDbEntity
  8
BEM
 62
     0
370
    -2
100
AcDbLine
 10
236.3045411198858
 20
265.6701766791971
 30
0.0
 11
236.3045411198858
 21
235.2236218735299
 31
0.0
  0
LINE
  5
888
330
1E5
100
AcDbEntity
  8
BEM
 62
     0
370
    -2
100
AcDbLine
 10
174.3045411198858
 20
237.2236218735299
 30
0.0
 11
229.3045411198858
 21
237.2236218735299
 31
0.0
  0
SOLID
  5
889
330
1E5
100
AcDbEntity
  8
BEM
 62
     0
100
AcDbTrace
 10
174.3045411198858
 20
238.3902885401965
 30
0.0
 11
174.3045411198858
 21
236.0569552068632
 31
0.0
 12
167.3045411198858
 22
237.2236218735299
 32
0.0
 13
167.3045411198858
 23
237.2236218735299
 33
0.0
  0
SOLID
  5
88A
330
1E5
100
AcDbEntity
  8
BEM
 62
     0
100
AcDbTrace
 10
229.3045411198858
 20
238.3902885401965
 30
0.0
 11
229.3045411198858
 21
236.0569552068632
 31
0.0
 12
236.3045411198858
 22
237.2236218735299
 32
0.0
 13
236.3045411198858
 23
237.2236218735299
 33
0.0
  0
MTEXT
  5
88B
330
1E5
100
AcDbEntity
  8
BEM
 62
     1
100
AcDbMText
 10
201.8045411198858
 20
243.7236218735299
 30
0.0
 40
7.0
 41
0.0
 71
     5
 72
     1
  1
\A1;%%c69
 73
     1
 44
1.0
  0
POINT
  5
88C
330
1E5
100
AcDbEntity
  8
Defpoints
 62
     0
100
AcDbPoint
 10
167.3045411198858
 20
267.6701766791973
 30
0.0
  0
POINT
  5
88D
330
1E5
100
AcDbEntity
  8
Defpoints
 62
     0
100
AcDbPoint
 10
236.3045411198858
 20
267.6701766791971
 30
0.0
  0
POINT
  5
88E
330
1E5
100
AcDbEntity
  8
Defpoints
 62
     0
100
AcDbPoint
 10
236.3045411198858
 20
237.2236218735299
 30
0.0
  0
ENDBLK
  5
1F0
330
1E5
100
AcDbEntity
  8
0
100
AcDbBlockEnd
  0
BLOCK
  5
1FB
330
1F1
100
AcDbEntity
  8
0
100
AcDbBlockBegin
  2
*D2
 70
     1
 10
0.0
 20
0.0
 30
0.0
  3
*D2
  1

  0
LINE
  5
87D
330
1F1
100
AcDbEntity
  8
BEM
 62
     0
370
    -2
100
AcDbLine
 10
165.7419844375154
 20
262.6701766791971
 30
0.0
 11
148.8801206445654
 21
262.6701766791971
 31
0.0
  0
LINE
  5
87E
330
1F1
100
AcDbEntity
  8
BEM
 62
     0
370
    -2
100
AcDbLine
 10
165.3045411198858
 20
322.6701766791971
 30
0.0
 11
148.8801206445654
 21
322.6701766791971
 31
0.0
  0
LINE
  5
87F
330
1F1
100
AcDbEntity
  8
BEM
 62
     0
370
    -2
100
AcDbLine
 10
150.8801206445654
 20
269.6701766791971
 30
0.0
 11
150.8801206445654
 21
315.6701766791972
 31
0.0
  0
SOLID
  5
880
330
1F1
100
AcDbEntity
  8
BEM
 62
     0
100
AcDbTrace
 10
149.7134539778988
 20
269.6701766791971
 30
0.0
 11
152.0467873112321
 21
269.6701766791971
 31
0.0
 12
150.8801206445654
 22
262.6701766791971
 32
0.0
 13
150.8801206445654
 23
262.6701766791971
 33
0.0
  0
SOLID
  5
881
330
1F1
100
AcDbEntity
  8
BEM
 62
     0
100
AcDbTrace
 10
149.7134539778988
 20
315.6701766791972
 30
0.0
 11
152.0467873112321
 21
315.6701766791972
 31
0.0
 12
150.8801206445654
 22
322.6701766791971
 32
0.0
 13
150.8801206445654
 23
322.6701766791971
 33
0.0
  0
MTEXT
  5
882
330
1F1
100
AcDbEntity
  8
BEM
 62
     1
100
AcDbMText
 10
144.3801206445654
 20
292.6701766791972
 30
0.0
 40
7.0
 41
0.0
 71
     5
 72
     1
  1
\A1;60
 11
0.0000000000000001
 21
1.0
 31
0.0
 73
     1
 44
1.0
  0
POINT
  5
883
330
1F1
100
AcDbEntity
  8
Defpoints
 62
     0
100
AcDbPoint
 10
167.7419844375154
 20
262.6701766791971
 30
0.0
  0
POINT
  5
884
330
1F1
100
AcDbEntity
  8
Defpoints
 62
     0
100
AcDbPoint
 10
167.3045411198858
 20
322.6701766791971
 30
0.0
  0
POINT
  5
885
330
1F1
100
AcDbEntity
  8
Defpoints
 62
     0
100
AcDbPoint
 10
150.8801206445654
 20
322.6701766791971
 30
0.0
  0
ENDBLK
  5
1FC
330
1F1
100
AcDbEntity
  8
0
100
AcDbBlockEnd
  0
BLOCK
  5
3A2
330
398
100
AcDbEntity
  8
0
100
AcDbBlockBegin
  2
*D4
 70
     1
 10
0.0
 20
0.0
 30
0.0
  3
*D4
  1

  0
LINE
  5
8A7
330
398
100
AcDbEntity
  8
BEM
 62
     0
370
    -2
100
AcDbLine
 10
165.7419844375154
 20
262.6701766791971
 30
0.0
 11
132.0870059898761
 21
262.6701766791971
 31
0.0
  0
LINE
  5
8A8
330
398
100
AcDbEntity
  8
BEM
 62
     0
370
    -2
100
AcDbLine
 10
199.8045411198859
 20
383.6726264621081
 30
0.0
 11
132.0870059898762
 21
383.6726264621081
 31
0.0
  0
LINE
  5
8A9
330
398
100
AcDbEntity
  8
BEM
 62
     0
370
    -2
100
AcDbLine
 10
134.0870059898761
 20
269.6701766791971
 30
0.0
 11
134.0870059898762
 21
376.6726264621081
 31
0.0
  0
SOLID
  5
8AA
330
398
100
AcDbEntity
  8
BEM
 62
     0
100
AcDbTrace
 10
132.9203393232095
 20
269.6701766791971
 30
0.0
 11
135.2536726565428
 21
269.6701766791971
 31
0.0
 12
134.0870059898761
 22
262.6701766791971
 32
0.0
 13
134.0870059898761
 23
262.6701766791971
 33
0.0
  0
SOLID
  5
8AB
330
398
100
AcDbEntity
  8
BEM
 62
     0
100
AcDbTrace
 10
132.9203393232095
 20
376.6726264621081
 30
0.0
 11
135.2536726565428
 21
376.6726264621081
 31
0.0
 12
134.0870059898762
 22
383.6726264621081
 32
0.0
 13
134.0870059898762
 23
383.6726264621081
 33
0.0
  0
MTEXT
  5
8AC
330
398
100
AcDbEntity
  8
BEM
 62
     1
100
AcDbMText
 10
127.5870059898761
 20
323.1714015706527
 30
0.0
 40
7.0
 41
0.0
 71
     5
 72
     1
  1
\A1;121
 11
0.0000000000000001
 21
1.0
 31
0.0
 73
     1
 44
1.0
  0
POINT
  5
8AD
330
398
100
AcDbEntity
  8
Defpoints
 62
     0
100
AcDbPoint
 10
167.7419844375154
 20
262.6701766791971
 30
0.0
  0
POINT
  5
8AE
330
398
100
AcDbEntity
  8
Defpoints
 62
     0
100
AcDbPoint
 10
201.804541119886
 20
383.6726264621081
 30
0.0
  0
POINT
  5
8AF
330
398
100
AcDbEntity
  8
Defpoints
 62
     0
100
AcDbPoint
 10
134.0870059898762
 20
383.6726264621081
 30
0.0
  0
ENDBLK
  5
3A3
330
398
100
AcDbEntity
  8
0
100
AcDbBlockEnd
  0
BLOCK
  5
3CE
330
3C8
100
AcDbEntity
  8
0
100
AcDbBlockBegin
  2
*D5
 70
     1
 10
0.0
 20
0.0
 30
0.0
  3
*D5
  1

  0
LINE
  5
866
330
3C8
100
AcDbEntity
  8
BEM
 62
     0
370
    -2
100
AcDbLine
 10
237.3963278711455
 20
368.2073751220797
 30
0.0
 11
211.398899617983
 21
377.6719495269923
 31
0.0
  0
MTEXT
  5
867
330
3C8
100
AcDbEntity
  8
BEM
 62
     1
100
AcDbMText
 10
229.9100498596728
 20
377.8501661761634
 30
0.0
 40
7.0
 41
0.0
 71
     5
 72
     1
  1
\A1;R50
 11
0.9396660814395996
 21
-0.3420930507799706
 31
0.0
 73
     1
 44
1.0
  0
SOLID
  5
868
330
3C8
100
AcDbEntity
  8
BEM
 62
     0
100
AcDbTrace
 10
211.7980081772263
 20
378.7682266220051
 30
0.0
 11
210.9997910587397
 21
376.5756724319794
 31
0.0
 12
204.8212370479059
 22
380.066600882452
 32
0.0
 13
204.8212370479059
 23
380.066600882452
 33
0.0
  0
POINT
  5
869
330
3C8
100
AcDbEntity
  8
Defpoints
 62
     0
100
AcDbPoint
 10
204.8212370479059
 20
380.0666008824521
 30
0.0
  0
POINT
  5
86A
330
3C8
100
AcDbEntity
  8
Defpoints
 62
     0
100
AcDbPoint
 10
251.804541119886
 20
362.9619483434536
 30
0.0
  0
ENDBLK
  5
3CF
330
3C8
100
AcDbEntity
  8
0
100
AcDbBlockEnd
  0
BLOCK
  5
71D
330
713
100
AcDbEntity
  8
0
100
AcDbBlockBegin
  2
*D8
 70
     1
 10
0.0
 20
0.0
 30
0.0
  3
*D8
  1

  0
LINE
  5
84B
330
713
100
AcDbEntity
  8
BEM
 62
     0
370
    -2
100
AcDbLine
 10
200.3903275575128
 20
385.0868400244811
 30
0.0
 11
158.9352828435243
 21
426.5418847384697
 31
0.0
  0
LINE
  5
84C
330
713
100
AcDbEntity
  8
BEM
 62
     0
370
    -2
100
AcDbLine
 10
238.9276471321597
 20
475.2429546257858
 30
0.0
 11
223.2819999315003
 21
490.8886018264454
 31
0.0
  0
LINE
  5
84D
330
713
100
AcDbEntity
  8
BEM
 62
     0
370
    -2
100
AcDbLine
 10
165.2992438742033
 20
430.0774186444025
 30
0.0
 11
219.7464660255675
 21
484.5246407957664
 31
0.0
  0
SOLID
  5
84E
330
713
100
AcDbEntity
  8
BEM
 62
     0
100
AcDbTrace
 10
164.474285962819
 20
430.9023765557868
 30
0.0
 11
166.1242017855876
 21
429.2524607330181
 31
0.0
 12
160.3494964058974
 22
425.1276711760966
 32
0.0
 13
160.3494964058974
 23
425.1276711760966
 33
0.0
  0
SOLID
  5
84F
330
713
100
AcDbEntity
  8
BEM
 62
     0
100
AcDbTrace
 10
218.9215081141833
 20
485.3495987071507
 30
0.0
 11
220.5714239369518
 21
483.6996828843822
 31
0.0
 12
224.6962134938734
 22
489.4743882640723
 32
0.0
 13
224.6962134938734
 23
489.4743882640723
 33
0.0
  0
MTEXT
  5
850
330
713
100
AcDbEntity
  8
BEM
 62
     1
100
AcDbMText
 10
187.9266608721728
 20
461.897223797797
 30
0.0
 40
7.0
 41
0.0
 71
     5
 72
     1
  1
\A1;91
 11
0.7071067811865493
 21
0.7071067811865458
 31
0.0
 73
     1
 44
1.0
  0
POINT
  5
851
330
713
100
AcDbEntity
  8
Defpoints
 62
     0
100
AcDbPoint
 10
201.8045411198859
 20
383.672626462108
 30
0.0
  0
POINT
  5
852
330
713
100
AcDbEntity
  8
Defpoints
 62
     0
100
AcDbPoint
 10
240.3418606945328
 20
473.8287410634128
 30
0.0
  0
POINT
  5
853
330
713
100
AcDbEntity
  8
Defpoints
 62
     0
100
AcDbPoint
 10
224.6962134938734
 20
489.4743882640723
 30
0.0
  0
ENDBLK
  5
71E
330
713
100
AcDbEntity
  8
0
100
AcDbBlockEnd
  0
BLOCK
  5
735
330
72B
100
AcDbEntity
  8
0
100
AcDbBlockBegin
  2
*D9
 70
     1
 10
0.0
 20
0.0
 30
0.0
  3
*D9
  1

  0
LINE
  5
842
330
72B
100
AcDbEntity
  8
BEM
 62
     0
370
    -2
100
AcDbLine
 10
241.756074256906
 20
475.2429546257862
 30
0.0
 11
250.6860699995692
 21
484.1729503684493
 31
0.0
  0
LINE
  5
843
330
72B
100
AcDbEntity
  8
BEM
 62
     0
370
    -2
100
AcDbLine
 10
293.3748692835514
 20
423.6241595991404
 30
0.0
 11
302.3048650262146
 21
432.5541553418035
 31
0.0
  0
LINE
  5
844
330
72B
100
AcDbEntity
  8
BEM
 62
     0
370
    -2
100
AcDbLine
 10
254.2216039055019
 20
477.8089893377702
 30
0.0
 11
295.9409039955357
 21
436.0896892477363
 31
0.0
  0
SOLID
  5
845
330
72B
100
AcDbEntity
  8
BEM
 62
     0
100
AcDbTrace
 10
255.0465618168862
 20
478.6339472491546
 30
0.0
 11
253.3966459941176
 21
476.984031426386
 31
0.0
 12
249.2718564371962
 22
482.7587368060761
 32
0.0
 13
249.2718564371962
 23
482.7587368060761
 33
0.0
  0
SOLID
  5
846
330
72B
100
AcDbEntity
  8
BEM
 62
     0
100
AcDbTrace
 10
296.76586190692
 20
436.9146471591205
 30
0.0
 11
295.1159460841514
 21
435.264731336352
 31
0.0
 12
300.8906514638415
 22
431.1399417794304
 32
0.0
 13
300.8906514638415
 23
431.1399417794304
 33
0.0
  0
MTEXT
  5
847
330
72B
100
AcDbEntity
  8
BEM
 62
     1
100
AcDbMText
 10
279.6774480282313
 20
461.5455333704658
 30
0.0
 40
7.0
 41
0.0
 71
     5
 72
     1
  1
\A1;%%c73
 11
0.7071067811865457
 21
-0.7071067811865494
 31
0.0
 73
     1
 44
1.0
  0
POINT
  5
848
330
72B
100
AcDbEntity
  8
Defpoints
 62
     0
100
AcDbPoint
 10
240.3418606945329
 20
473.828741063413
 30
0.0
  0
POINT
  5
849
330
72B
100
AcDbEntity
  8
Defpoints
 62
     0
100
AcDbPoint
 10
291.9606557211783
 20
422.2099460367673
 30
0.0
  0
POINT
  5
84A
330
72B
100
AcDbEntity
  8
Defpoints
 62
     0
100
AcDbPoint
 10
300.8906514638415
 20
431.1399417794304
 30
0.0
  0
ENDBLK
  5
736
330
72B
100
AcDbEntity
  8
0
100
AcDbBlockEnd
  0
BLOCK
  5
74C
330
741
100
AcDbEntity
  8
0
100
AcDbBlockBegin
  2
*D10
 70
     1
 10
0.0
 20
0.0
 30
0.0
  3
*D10
  1

  0
LINE
  5
838
330
741
100
AcDbEntity
  8
BEM
 62
     0
370
    -2
100
AcDbLine
 10
201.8045411198859
 20
385.6726264621081
 30
0.0
 11
201.804541119886
 21
430.3894179054423
 31
0.0
  0
ARC
  5
839
330
741
100
AcDbEntity
  8
BEM
 62
     0
370
    -2
100
AcDbCircle
 10
201.8045411198859
 20
383.6726264621081
 30
0.0
 40
44.71679144333432
100
AcDbArc
 50
53.97830739762667
 51
81.02169260237308
  0
SOLID
  5
83A
330
741
100
AcDbEntity
  8
BEM
 62
     0
100
AcDbTrace
 10
228.8599638338748
 20
420.7263136588329
 30
0.0
 11
227.3442492037702
 21
418.952319970983
 31
0.0
 12
233.4240875823723
 22
415.2921729245942
 32
0.0
 13
233.4240875823723
 23
415.2921729245942
 33
0.0
  0
SOLID
  5
83B
330
741
100
AcDbEntity
  8
BEM
 62
     0
100
AcDbTrace
 10
208.6917508625551
 20
426.678437756056
 30
0.0
 11
208.8743817357253
 21
429.0046128158074
 31
0.0
 12
201.804541119886
 22
428.3894179054422
 32
0.0
 13
201.804541119886
 23
428.3894179054422
 33
0.0
  0
MTEXT
  5
83C
330
741
100
AcDbEntity
  8
BEM
 62
     1
100
AcDbMText
 10
221.4043586641482
 20
430.9907717975037
 30
0.0
 40
7.0
 41
0.0
 71
     5
 72
     1
  1
\A1;45°
 11
0.9238795325112857
 21
-0.3826834323650924
 31
0.0
 73
     1
 44
1.0
  0
POINT
  5
83D
330
741
100
AcDbEntity
  8
Defpoints
 62
     0
100
AcDbPoint
 10
224.1629368415532
 20
422.398503827766
 30
0.0
  0
POINT
  5
83E
330
741
100
AcDbEntity
  8
Defpoints
 62
     0
100
AcDbPoint
 10
201.8045411198859
 20
383.6726264621081
 30
0.0
  0
POINT
  5
83F
330
741
100
AcDbEntity
  8
Defpoints
 62
     0
100
AcDbPoint
 10
201.8045411198859
 20
383.6726264621081
 30
0.0
  0
POINT
  5
840
330
741
100
AcDbEntity
  8
Defpoints
 62
     0
100
AcDbPoint
 10
269.6867921137948
 20
451.5548774560163
 30
0.0
  0
POINT
  5
841
330
741
100
AcDbEntity
  8
Defpoints
 62
     0
100
AcDbPoint
 10
201.8045411198858
 20
257.6701766791971
 30
0.0
  0
ENDBLK
  5
74D
330
741
100
AcDbEntity
  8
0
100
AcDbBlockEnd
  0
ENDSEC
  0
SECTION
  2
ENTITIES
  0
LINE
  5
57
330
1E
100
AcDbEntity
  8
STEMPEL
100
AcDbLine
 10
410.0
 20
110.0
 30
0.0
 11
39.99999999999997
 21
110.0
 31
0.0
  0
LINE
  5
58
330
1E
100
AcDbEntity
  8
STEMPEL
100
AcDbLine
 10
136.0000000000001
 20
109.9999999999999
 30
0.0
 11
136.0
 21
9.999999999999971
 31
0.0
  0
LINE
  5
59
330
1E
100
AcDbEntity
  8
STEMPEL
100
AcDbLine
 10
220.0
 20
110.0
 30
0.0
 11
220.0
 21
9.999999999999971
 31
0.0
  0
LINE
  5
5A
330
1E
100
AcDbEntity
  8
STEMPEL
100
AcDbLine
 10
332.0
 20
109.9999999999997
 30
0.0
 11
332.0
 21
40.0
 31
0.0
  0
LINE
  5
5B
330
1E
100
AcDbEntity
  8
STEMPEL
100
AcDbLine
 10
135.9999999999999
 20
29.99999999999997
 30
0.0
 11
39.99999999999997
 21
29.99999999999997
 31
0.0
  0
LINE
  5
5C
330
1E
100
AcDbEntity
  8
STEMPEL
100
AcDbLine
 10
410.0
 20
40.0
 30
0.0
 11
136.0000000000001
 21
39.99999999999997
 31
0.0
  0
LINE
  5
5D
330
1E
100
AcDbEntity
  8
STEMPEL
100
AcDbLine
 10
410.0
 20
80.0
 30
0.0
 11
136.0000000000001
 21
79.99999999999994
 31
0.0
  0
LINE
  5
5E
330
1E
100
AcDbEntity
  8
VOLL
100
AcDbLine
 10
54.00000000000009
 20
110.0
 30
0.0
 11
53.99999999999997
 21
9.999999999999971
 31
0.0
  0
LINE
  5
5F
330
1E
100
AcDbEntity
  8
VOLL
100
AcDbLine
 10
94.00000000000011
 20
109.9999999999999
 30
0.0
 11
94.0
 21
9.999999999999971
 31
0.0
  0
LINE
  5
60
330
1E
100
AcDbEntity
  8
VOLL
100
AcDbLine
 10
114.0000000000001
 20
109.9999999999999
 30
0.0
 11
114.0
 21
9.999999999999971
 31
0.0
  0
LINE
  5
61
330
1E
100
AcDbEntity
  8
VOLL
100
AcDbLine
 10
154.0000000000001
 20
79.99999999999994
 30
0.0
 11
154.0000000000001
 21
39.99999999999997
 31
0.0
  0
LINE
  5
62
330
1E
100
AcDbEntity
  8
VOLL
100
AcDbLine
 10
180.0000000000001
 20
109.9999999999998
 30
0.0
 11
180.0
 21
39.99999999999997
 31
0.0
  0
LINE
  5
63
330
1E
100
AcDbEntity
  8
HILF
100
AcDbLine
 10
40.00000000000008
 20
100.0
 30
0.0
 11
136.0000000000001
 21
100.0
 31
0.0
  0
LINE
  5
64
330
1E
100
AcDbEntity
  8
HILF
100
AcDbLine
 10
40.00000000000008
 20
90.00000000000005
 30
0.0
 11
136.0000000000001
 21
90.00000000000005
 31
0.0
  0
LINE
  5
65
330
1E
100
AcDbEntity
  8
HILF
100
AcDbLine
 10
40.00000000000008
 20
79.99999999999994
 30
0.0
 11
136.0000000000001
 21
79.99999999999994
 31
0.0
  0
LINE
  5
66
330
1E
100
AcDbEntity
  8
HILF
100
AcDbLine
 10
40.00000000000008
 20
69.99999999999994
 30
0.0
 11
136.0000000000001
 21
69.99999999999994
 31
0.0
  0
LINE
  5
67
330
1E
100
AcDbEntity
  8
HILF
100
AcDbLine
 10
40.00000000000008
 20
59.99999999999997
 30
0.0
 11
136.0000000000001
 21
59.99999999999997
 31
0.0
  0
LINE
  5
68
330
1E
100
AcDbEntity
  8
HILF
100
AcDbLine
 10
40.00000000000008
 20
49.99999999999997
 30
0.0
 11
136.0000000000001
 21
49.99999999999997
 31
0.0
  0
LINE
  5
69
330
1E
100
AcDbEntity
  8
HILF
100
AcDbLine
 10
40.00000000000008
 20
39.99999999999997
 30
0.0
 11
136.0000000000001
 21
39.99999999999997
 31
0.0
  0
LINE
  5
6A
330
1E
100
AcDbEntity
  8
HILF
100
AcDbLine
 10
136.0000000000001
 20
69.99999999999994
 30
0.0
 11
220.0
 21
69.99999999999994
 31
0.0
  0
LINE
  5
6B
330
1E
100
AcDbEntity
  8
HILF
100
AcDbLine
 10
136.0000000000001
 20
59.99999999999997
 30
0.0
 11
220.0
 21
59.99999999999997
 31
0.0
  0
LINE
  5
6C
330
1E
100
AcDbEntity
  8
HILF
100
AcDbLine
 10
136.0000000000001
 20
49.99999999999997
 30
0.0
 11
220.0
 21
49.99999999999997
 31
0.0
  0
LINE
  5
6D
330
1E
100
AcDbEntity
  8
HILF
100
AcDbLine
 10
224.7736801096948
 20
84.03758247564139
 30
0.0
 11
324.8353916556311
 21
84.03758247564139
 31
0.0
  0
LINE
  5
6E
330
1E
100
AcDbEntity
  8
HILF
100
AcDbLine
 10
224.7736801096948
 20
69.99999999999994
 30
0.0
 11
324.835391655631
 21
69.99999999999994
 31
0.0
  0
LINE
  5
6F
330
1E
100
AcDbEntity
  8
HILF
100
AcDbLine
 10
224.7736801096948
 20
59.99999999999997
 30
0.0
 11
324.835391655631
 21
59.99999999999997
 31
0.0
  0
LINE
  5
70
330
1E
100
AcDbEntity
  8
HILF
100
AcDbLine
 10
224.7736801096948
 20
49.99999999999997
 30
0.0
 11
324.835391655631
 21
49.99999999999997
 31
0.0
  0
LINE
  5
71
330
1E
100
AcDbEntity
  8
VOLL
100
AcDbLine
 10
332.0
 20
60.0
 30
0.0
 11
410.0
 21
60.0
 31
0.0
  0
LINE
  5
72
330
1E
100
AcDbEntity
  8
HILF
100
AcDbLine
 10
336.7238616296993
 20
83.77983636955827
 30
0.0
 11
404.8588839326728
 21
83.77983636955827
 31
0.0
  0
LINE
  5
73
330
1E
100
AcDbEntity
  8
HILF
100
AcDbLine
 10
223.4909699289885
 20
14.89398258028314
 30
0.0
 11
404.8588839326728
 21
14.89398258028314
 31
0.0
  0
TEXT
  5
74
330
1E
100
AcDbEntity
  8
TEXT
100
AcDbText
 10
63.86165979631819
 20
18.67381894984132
 30
0.0
 40
4.0
  1
Änderung
 41
0.8
  7
GREEKS
 72
     1
 11
74.60451693917534
 21
18.67381894984132
 31
0.0
100
AcDbText
  0
TEXT
  5
75
330
1E
100
AcDbEntity
  8
TEXT
100
AcDbText
 10
143.5163572150377
 20
102.4620895087088
 30
0.0
 40
5.0
  1
Maßstab
 41
0.8
  7
GREEKS
100
AcDbText
  0
TEXT
  5
76
330
1E
100
AcDbEntity
  8
TEXT
100
AcDbText
 10
184.2858954734051
 20
102.4184168434819
 30
0.0
 40
5.0
  1
Zul. Abw.
 41
0.8
  7
GREEKS
100
AcDbText
  0
TEXT
  5
77
330
1E
100
AcDbEntity
  8
TEXT
100
AcDbText
 10
224.877940380901
 20
102.5489328011779
 30
0.0
 40
5.0
  1
Benennung
 41
0.8
  7
GREEKS
100
AcDbText
  0
TEXT
  5
78
330
1E
100
AcDbEntity
  8
TEXT
100
AcDbText
 10
336.178754957634
 20
102.3132034537136
 30
0.0
 40
5.0
  1
Zeichnungs Nr.
 41
0.8
  7
GREEKS
100
AcDbText
  0
TEXT
  5
79
330
1E
100
AcDbEntity
  8
TEXT
100
AcDbText
 10
224.742238391136
 20
30.84560570193057
 30
0.0
 40
5.0
  1
Bauvorhaben
 41
0.8
  7
GREEKS
100
AcDbText
  0
TEXT
  5
7A
330
1E
100
AcDbEntity
  8
TEXT
100
AcDbText
 10
336.7238616296993
 20
73.1811823709997
 30
0.0
 40
5.0
  1
Ersatz für:
 41
0.8
  7
GREEKS
100
AcDbText
  0
TEXT
  5
7B
330
1E
100
AcDbEntity
  8
TEXT
100
AcDbText
 10
48.26641107045756
 20
13.65465846027192
 30
0.0
 40
4.0
  1
Index
 50
90.0
 41
0.8
  7
GREEKS
100
AcDbText
  0
TEXT
  5
7C
330
1E
100
AcDbEntity
  8
TEXT
100
AcDbText
 10
100.0934676075481
 20
18.6715626933981
 30
0.0
 40
4.0
  1
Tag
 41
0.8
  7
GREEKS
 72
     1
 11
103.8268009408814
 21
18.6715626933981
 31
0.0
100
AcDbText
  0
TEXT
  5
7D
330
1E
100
AcDbEntity
  8
TEXT
100
AcDbText
 10
119.0122744386592
 20
18.59324216966408
 30
0.0
 40
4.0
  1
Name
 41
0.8
  7
GREEKS
 72
     1
 11
125.3360839624688
 21
18.59324216966408
 31
0.0
100
AcDbText
  0
TEXT
  5
7E
330
1E
100
AcDbEntity
  8
TEXT
100
AcDbText
 10
162.3311673153651
 20
73.31880501229926
 30
0.0
 40
4.0
  1
Tag
 41
0.8
  7
GREEKS
100
AcDbText
  0
TEXT
  5
7F
330
1E
100
AcDbEntity
  8
TEXT
100
AcDbText
 10
192.4626584226295
 20
73.30961091915225
 30
0.0
 40
4.0
  1
Name
 41
0.8
  7
GREEKS
100
AcDbText
  0
TEXT
  5
80
330
1E
100
AcDbEntity
  8
TEXT
100
AcDbText
 10
137.5836127167615
 20
63.62990369617964
 30
0.0
 40
4.0
  1
Gez.
 41
0.8
  7
GREEKS
100
AcDbText
  0
TEXT
  5
81
330
1E
100
AcDbEntity
  8
TEXT
100
AcDbText
 10
137.5515086571672
 20
53.68926291428377
 30
0.0
 40
4.0
  1
Gepr.
 41
0.8
  7
GREEKS
100
AcDbText
  0
TEXT
  5
82
330
1E
100
AcDbEntity
  8
TEXT
100
AcDbText
 10
137.6006777387304
 20
43.52946389649807
 30
0.0
 40
4.0
  1
Norm.
 41
0.8
  7
GREEKS
100
AcDbText
  0
LINE
  5
83
330
1E
100
AcDbEntity
  8
STEMPEL
100
AcDbLine
 10
49.99999999999989
 20
10.0
 30
0.0
 11
410.0
 21
10.0
 31
0.0
  0
TEXT
  5
84
330
1E
100
AcDbEntity
  8
TEXT
100
AcDbText
 10
337.2400861497006
 20
52.07416177878602
 30
0.0
 40
5.0
  1
ersetzt durch:
 41
0.8
  7
GREEKS
100
AcDbText
  0
LINE
  5
85
330
1E
100
AcDbEntity
  8
STEMPEL
100
AcDbLine
 10
410.0
 20
10.0
 30
0.0
 11
39.99999999999989
 21
10.0
 31
0.0
  0
LINE
  5
86
330
1E
100
AcDbEntity
  8
STEMPEL
100
AcDbLine
 10
410.0
 20
10.0
 30
0.0
 11
410.0
 21
584.0
 31
0.0
  0
LINE
  5
87
330
1E
100
AcDbEntity
  8
STEMPEL
100
AcDbLine
 10
40.0
 20
10.0
 30
0.0
 11
39.99999999999989
 21
584.0
 31
0.0
  0
LINE
  5
88
330
1E
100
AcDbEntity
  8
STEMPEL
100
AcDbLine
 10
410.0
 20
584.0
 30
0.0
 11
39.99999999999989
 21
584.0
 31
0.0
  0
LINE
  5
89
330
1E
100
AcDbEntity
  8
HILF
100
AcDbLine
 10
0.0
 20
0.0
 30
0.0
 11
-0.0000000000001137
 21
594.0
 31
0.0
  0
LINE
  5
8A
330
1E
100
AcDbEntity
  8
HILF
100
AcDbLine
 10
419.9999999999999
 20
594.0000000000002
 30
0.0
 11
0.0
 21
594.0
 31
0.0
  0
LINE
  5
8B
330
1E
100
AcDbEntity
  8
HILF
100
AcDbLine
 10
420.0
 20
0.0
 30
0.0
 11
0.0
 21
0.0
 31
0.0
  0
LINE
  5
8C
330
1E
100
AcDbEntity
  8
HILF
100
AcDbLine
 10
31.08767135713856
 20
297.0
 30
0.0
 11
0.0000000000001137
 21
297.0
 31
0.0
  0
TEXT
  5
8D
330
1E
100
AcDbEntity
  8
TEXT
100
AcDbText
 10
138.622109822104
 20
73.14025471151666
 30
0.0
 40
4.0
  1
2011
 41
0.8
  7
GREEKS
100
AcDbText
  0
LINE
  5
8E
330
1E
100
AcDbEntity
  8
HILF
100
AcDbLine
 10
420.0
 20
-0.0000000000001137
 30
0.0
 11
419.9999999999999
 21
594.0
 31
0.0
  0
TEXT
  5
8F
330
1E
100
AcDbEntity
  8
VOLL
100
AcDbText
 10
78.07675471698113
 20
31.02594776470585
 30
0.0
 40
1.8
  1

  7
GREEKS
100
AcDbText
  0
TEXT
  5
90
330
1E
100
AcDbEntity
  8
TEXT
100
AcDbText
 10
41.85509950977674
 20
111.6719999999999
 30
0.0
 40
5.0
  1
Erstellt mit AUTOCAD 2004
 41
0.8
  7
GREEKS
100
AcDbText
  0
TEXT
  5
91
330
1E
100
AcDbEntity
  8
TEXT
100
AcDbText
 10
194.4216048581257
 20
63.0896391972351
 30
0.0
 40
4.0
  1
Koeh
 41
0.8
  7
GREEKS
 72
     1
 11
199.6787477152685
 21
63.0896391972351
 31
0.0
100
AcDbText
  0
TEXT
  5
92
330
1E
100
AcDbEntity
  8
TEXT
 62
     1
100
AcDbText
 10
345.3245635471204
 20
88.14901428913959
 30
0.0
 40
7.0
  1
03208070W
 41
0.8
  7
GREEKS
 72
     1
 11
369.3245635471204
 21
88.14901428913959
 31
0.0
100
AcDbText
  0
TEXT
  5
93
330
1E
100
AcDbEntity
  8
TEXT
 62
     1
100
AcDbText
 10
150.5006306481887
 20
88.14901428913959
 30
0.0
 40
7.0
  1
1:2
 41
0.8
  7
GREEKS
100
AcDbText
  0
TEXT
  5
94
330
1E
100
AcDbEntity
  8
TEXT
100
AcDbText
 10
160.398997108236
 20
63.10765040825732
 30
0.0
 40
4.0
  1
07.04.
 41
0.8
  7
GREEKS
 72
     1
 11
167.4085209177598
 21
63.10765040825732
 31
0.0
100
AcDbText
  0
TEXT
  5
95
330
1E
100
AcDbEntity
  8
TEXT
 62
     1
100
AcDbText
 10
226.8935731057402
 20
87.41748789253779
 30
0.0
 40
7.0
  1
Bogen DN70 87°
 41
0.8
  7
GREEKS
100
AcDbText
  0
TEXT
  5
96
330
1E
100
AcDbEntity
  8
TEXT
100
AcDbText
 10
225.1296391125315
 20
71.50334417585288
 30
0.0
 40
5.0
  1
mit reduziertem Einschubende
 41
0.8
  7
GREEKS
100
AcDbText
  0
TEXT
  5
97
330
1E
100
AcDbEntity
  8
TEXT
100
AcDbText
 10
225.1296391125315
 20
62.11580706774856
 30
0.0
 40
5.0
  1

 41
0.8
  7
GREEKS
100
AcDbText
  0
TEXT
  5
98
330
1E
100
AcDbEntity
  8
TEXT
100
AcDbText
 10
225.1296391125315
 20
51.64011943042158
 30
0.0
 40
5.0
  1
EDV-Art.Nr. 03208.070X
 41
0.8
  7
GREEKS
100
AcDbText
  0
TEXT
  5
99
330
1E
100
AcDbEntity
  8
TEXT
100
AcDbText
 10
224.9837501577827
 20
42.62974153022632
 30
0.0
 40
4.0
  1
03208070W.DWG
 41
0.8
  7
GREEKS
100
AcDbText
  0
TEXT
  5
9A
330
1E
100
AcDbEntity
  8
TEXT
100
AcDbText
 10
182.626132208084
 20
90.76363841023022
 30
0.0
 40
4.0
  1
DIN EN1123-2
 41
0.8
  7
GREEKS
 72
     1
 11
199.6166083985602
 21
90.76363841023022
 31
0.0
100
AcDbText
  0
INSERT
  5
9B
330
1E
100
AcDbEntity
  8
STEMPEL
100
AcDbBlockReference
  2
LOGO
 10
140.9955485457794
 20
45.02105276448322
 30
0.0
 41
2.0
 42
2.0
 43
2.0
  0
TEXT
  5
118
330
1E
100
AcDbEntity
  8
BEM
100
AcDbText
 10
417.3022923857165
 20
10.16790107998849
 30
0.0
 40
4.0
  1
Diese Zeichnung ist urheberrechtlich geschützt und bleibt unser Eigentum. Sie darf weder ganz noch teilweise verfielfältigt und nicht an Dritte weitergegeben werden.
 50
90.0
 41
0.8
  7
GREEKS
100
AcDbText
  0
LINE
  5
149
330
1E
100
AcDbEntity
  8
MITTEL
100
AcDbLine
 10
201.804541119886
 20
383.6726264621081
 30
0.0
 11
201.8045411198858
 21
257.6701766791971
 31
0.0
  0
LINE
  5
14A
330
1E
100
AcDbEntity
  8
MITTEL
100
AcDbLine
 10
201.804541119886
 20
383.6726264621081
 30
0.0
 11
269.6867921137948
 21
451.5548774560165
 31
0.0
  0
DIMENSION
  5
1AE
330
1E
100
AcDbEntity
  8
BEM
100
AcDbDimension
  2
*D1
 10
236.3045411198858
 20
237.2236218735299
 30
0.0
 11
201.8045411198858
 21
243.7236218735299
 31
0.0
 70
    32
  1
%%c<>
 71
     5
 42
69.0
  3
Standard
100
AcDbAlignedDimension
 13
167.3045411198858
 23
267.6701766791973
 33
0.0
 14
236.3045411198858
 24
267.6701766791971
 34
0.0
100
AcDbRotatedDimension
1001
ACAD
1000
DSTYLE
1002
{
1070
    40
1040
2.0
1070
    41
1040
3.5
1070
    42
1040
1.0
1070
    43
1040
7.0
1070
    44
1040
1.0
1070
    73
1070
     0
1070
    74
1070
     0
1070
    77
1070
     1
1070
    78
1070
     8
1070
    79
1070
     2
1070
   140
1040
3.5
1070
   141
1040
1.5
1070
   146
1040
0.5142857142857144
1070
   147
1040
1.5
1070
   172
1070
     1
1070
   178
1070
     1
1070
   179
1070
     2
1070
   271
1070
     2
1070
   272
1070
     2
1070
   284
1070
     8
1070
   285
1070
     8
1070
   286
1070
     8
1002
}
  0
LINE
  5
1AF
330
1E
100
AcDbEntity
  8
STEMPEL
100
AcDbLine
 10
236.3045411198858
 20
267.6701766791971
 30
0.0
 11
235.8670978022561
 21
262.670176679197
 31
0.0
  0
LINE
  5
1B0
330
1E
100
AcDbEntity
  8
HILF
100
AcDbLine
 10
234.6984293798164
 20
267.6701766791971
 30
0.0
 11
168.9106528599551
 21
267.6701766791972
 31
0.0
  0
LINE
  5
1B1
330
1E
100
AcDbEntity
  8
STEMPEL
100
AcDbLine
 10
236.3045411198858
 20
322.670176679197
 30
0.0
 11
236.3045411198858
 21
267.6701766791971
 31
0.0
  0
LINE
  5
1B2
330
1E
100
AcDbEntity
  8
STEMPEL
100
AcDbLine
 10
235.8670978022561
 20
262.670176679197
 30
0.0
 11
167.7419844375154
 21
262.6701766791971
 31
0.0
  0
DIMENSION
  5
1B3
330
1E
100
AcDbEntity
  8
BEM
100
AcDbDimension
  2
*D2
 10
150.8801206445654
 20
322.6701766791971
 30
0.0
 11
144.3801206445654
 21
292.6701766791972
 31
0.0
 70
    32
 71
     5
 42
60.0
  3
Standard
100
AcDbAlignedDimension
 13
167.7419844375154
 23
262.6701766791971
 33
0.0
 14
167.3045411198858
 24
322.6701766791971
 34
0.0
 50
90.0
100
AcDbRotatedDimension
1001
ACAD
1000
DSTYLE
1002
{
1070
    40
1040
2.0
1070
    41
1040
3.5
1070
    42
1040
1.0
1070
    43
1040
7.0
1070
    44
1040
1.0
1070
    73
1070
     0
1070
    74
1070
     0
1070
    77
1070
     1
1070
    78
1070
     8
1070
    79
1070
     2
1070
   140
1040
3.5
1070
   141
1040
1.5
1070
   146
1040
0.5142857142857144
1070
   147
1040
1.5
1070
   172
1070
     1
1070
   178
1070
     1
1070
   179
1070
     2
1070
   271
1070
     2
1070
   272
1070
     2
1070
   284
1070
     8
1070
   285
1070
     8
1070
   286
1070
     8
1002
}
  0
LINE
  5
1B4
330
1E
100
AcDbEntity
  8
STEMPEL
100
AcDbLine
 10
167.3045411198858
 20
267.6701766791973
 30
0.0
 11
167.7419844375154
 21
262.6701766791971
 31
0.0
  0
LINE
  5
1B5
330
1E
100
AcDbEntity
  8
STEMPEL
100
AcDbLine
 10
167.3045411198858
 20
322.6701766791971
 30
0.0
 11
167.3045411198858
 21
267.6701766791973
 31
0.0
  0
LINE
  5
1B6
330
1E
100
AcDbEntity
  8
HILF
100
AcDbLine
 10
167.161957757947
 20
339.0103753334171
 30
0.0
 11
236.4471244818246
 21
339.010375333417
 31
0.0
  0
LINE
  5
1B7
330
1E
100
AcDbEntity
  8
HILF
100
AcDbLine
 10
168.6605514204261
 20
328.1474022542488
 30
0.0
 11
234.9485308193456
 21
328.1474022542487
 31
0.0
  0
ARC
  5
1B8
330
1E
100
AcDbEntity
  8
STEMPEL
100
AcDbCircle
 10
212.3804018384916
 20
343.2304031459825
 30
0.0
 40
47.07586080200865
100
AcDbArc
 50
180.0034105883587
 51
191.8306964062952
  0
ARC
  5
1B9
330
1E
100
AcDbEntity
  8
STEMPEL
100
AcDbCircle
 10
107.3045411198859
 20
322.6701766791972
 30
0.0
 40
60.0
100
AcDbArc
 50
0.0
 51
10.47531384322888
  0
ARC
  5
1BA
330
1E
100
AcDbEntity
  8
STEMPEL
100
AcDbCircle
 10
191.2286804012802
 20
343.2304031459825
 30
0.0
 40
47.07586080200874
100
AcDbArc
 50
348.1693035937047
 51
359.9965894116412
  0
ARC
  5
1BB
330
1E
100
AcDbEntity
  8
STEMPEL
100
AcDbCircle
 10
296.3045411198859
 20
322.6701766791971
 30
0.0
 40
60.0
100
AcDbArc
 50
169.524686156771
 51
179.9999999999999
  0
LINE
  5
1BC
330
1E
100
AcDbEntity
  8
STEMPEL
100
AcDbLine
 10
238.3045411198859
 20
362.9619483434532
 30
0.0
 11
238.3045411198859
 21
343.2276009084686
 31
0.0
  0
LINE
  5
1BD
330
1E
100
AcDbEntity
  8
STEMPEL
100
AcDbLine
 10
165.3045411198859
 20
362.9619483434533
 30
0.0
 11
165.3045411198858
 21
343.2276009084687
 31
0.0
  0
TEXT
  5
1E4
330
1E
100
AcDbEntity
  8
TEXT
 62
     1
100
AcDbText
 10
244.3186044779946
 20
434.4100347480145
 30
0.0
 40
7.0
  1
DN70
 50
45.0
 41
0.8
  7
GREEKS
100
AcDbText
  0
LINE
  5
2F9
330
1E
100
AcDbEntity
  8
STEMPEL
100
AcDbLine
 10
240.3418606945328
 20
473.8287410634133
 30
0.0
 11
190.6398045472499
 21
424.1266849160894
 31
0.0
  0
LINE
  5
305
330
1E
100
AcDbEntity
  8
STEMPEL
100
AcDbLine
 10
291.9606557211783
 20
422.2099460367672
 30
0.0
 11
242.2585995738674
 21
372.5078898894717
 31
0.0
  0
ARC
  5
32E
330
1E
100
AcDbEntity
  8
MITTEL
100
AcDbCircle
 10
251.8045411198859
 20
362.9619483434531
 30
0.0
 40
50.0
100
AcDbArc
 50
134.9999999999998
 51
179.9999999999999
  0
ARC
  5
32F
330
1E
100
AcDbEntity
  8
STEMPEL
100
AcDbCircle
 10
251.8045411198859
 20
362.9619483434531
 30
0.0
 40
86.5
100
AcDbArc
 50
135.0000000000253
 51
179.9999999999999
  0
ARC
  5
330
330
1E
100
AcDbEntity
  8
STEMPEL
100
AcDbCircle
 10
251.8045411198859
 20
362.9619483434531
 30
0.0
 40
13.5
100
AcDbArc
 50
134.9999999999904
 51
179.9999999999999
  0
DIMENSION
  5
397
330
1E
100
AcDbEntity
  8
BEM
100
AcDbDimension
  2
*D4
 10
134.0870059898762
 20
383.6726264621081
 30
0.0
 11
127.5870059898761
 21
323.1714015706527
 31
0.0
 70
    32
 71
     5
 42
121.0024497829109
  3
Standard
100
AcDbAlignedDimension
 13
167.7419844375154
 23
262.6701766791971
 33
0.0
 14
201.804541119886
 24
383.6726264621081
 34
0.0
 50
90.0
100
AcDbRotatedDimension
1001
ACAD
1000
DSTYLE
1002
{
1070
    40
1040
2.0
1070
    41
1040
3.5
1070
    42
1040
1.0
1070
    43
1040
7.0
1070
    44
1040
1.0
1070
    73
1070
     0
1070
    74
1070
     0
1070
    77
1070
     1
1070
    78
1070
     8
1070
    79
1070
     2
1070
   140
1040
3.5
1070
   141
1040
1.5
1070
   146
1040
0.5142857142857144
1070
   147
1040
1.5
1070
   172
1070
     1
1070
   178
1070
     1
1070
   179
1070
     2
1070
   271
1070
     2
1070
   272
1070
     2
1070
   284
1070
     8
1070
   285
1070
     8
1070
   286
1070
     8
1002
}
  0
DIMENSION
  5
3C7
330
1E
100
AcDbEntity
  8
BEM
100
AcDbDimension
  2
*D5
 10
251.804541119886
 20
362.9619483434536
 30
0.0
 11
227.686445029603
 21
371.742336646806
 31
0.0
 70
   164
 71
     5
 42
50.00000000000011
 51
357.0000000000001
  3
Standard
100
AcDbRadialDimension
 15
204.8212370479059
 25
380.0666008824521
 35
0.0
 40
0.0
1001
ACAD
1000
DSTYLE
1002
{
1070
    40
1040
2.0
1070
    41
1040
3.5
1070
    42
1040
1.0
1070
    43
1040
7.0
1070
    44
1040
1.0
1070
    73
1070
     0
1070
    74
1070
     0
1070
    77
1070
     1
1070
    78
1070
     8
1070
    79
1070
     2
1070
   140
1040
3.5
1070
   141
1040
1.5
1070
   146
1040
0.5142857142857144
1070
   147
1040
1.5
1070
   172
1070
     1
1070
   178
1070
     1
1070
   179
1070
     2
1070
   271
1070
     2
1070
   272
1070
     2
1070
   284
1070
     8
1070
   285
1070
     8
1070
   286
1070
     8
1070
   288
1070
     1
1002
}
  0
TEXT
  5
489
330
1E
100
AcDbEntity
  8
TEXT
 62
     1
100
AcDbText
 10
234.6057658946468
 20
129.0783465745483
 30
0.0
 40
7.0
  1
und innen beschichtet
 41
0.8
  7
GREEKS
100
AcDbText
  0
TEXT
  5
48A
330
1E
100
AcDbEntity
  8
TEXT
 62
     1
100
AcDbText
 10
186.6560484572489
 20
139.8004583895517
 30
0.0
 40
7.0
  1
Werkstoff: E195 EN10305 feuerverzinkt
 41
0.8
  7
GREEKS
100
AcDbText
  0
TEXT
  5
49B
330
1E
100
AcDbEntity
  8
TEXT
 62
     1
100
AcDbText
 10
260.7778723368442
 20
261.7967351437774
 30
0.0
 40
7.0
  1
Rohrende leicht eingezogen
 41
0.8
  7
GREEKS
100
AcDbText
  0
HATCH
  5
4F4
330
1E
100
AcDbEntity
  8
SCHRAFF
100
AcDbHatch
 10
0.0
 20
0.0
 30
0.0
210
0.0
220
0.0
230
1.0
  2
_USER
 70
     0
 71
     0
 91
        1
 92
        7
 72
     1
 73
     1
 93
        3
 10
165.3406758350166
 20
365.4619483434532
 42
0.6287205805092951
 10
165.3045411198858
 20
360.4619483434533
 42
0.0
 10
165.3045411198858
 20
362.9619483434532
 42
-0.0072265656117143
 97
        0
 75
     0
 76
     0
 52
-0.0000000000000445
 41
0.1
 77
     0
 78
     1
 53
359.9999999999998
 43
-11.37892586454796
 44
16.58273073495402
 45
0.0000000000000002
 46
0.1
 79
     0
 47
0.0246751604493177
 98
        1
 10
165.020219655541
 20
364.0976389907461
  0
ARC
  5
4F5
330
1E
100
AcDbEntity
  8
SCHRAFF
100
AcDbCircle
 10
166.5248723494924
 20
362.9532596509476
 30
0.0
 40
2.774137765288908
100
AcDbArc
 50
115.2690933019022
 51
243.90277444696
  0
ARC
  5
4F6
330
1E
100
AcDbEntity
  8
SCHRAFF
100
AcDbCircle
 10
204.3198309314329
 20
362.9619483434532
 30
0.0
 40
5.0
100
AcDbArc
 50
329.9999999999998
 51
29.9999999999999
  0
ARC
  5
4F7
330
1E
100
AcDbEntity
  8
SCHRAFF
100
AcDbCircle
 10
199.3198309314329
 20
362.9619483434533
 30
0.0
 40
5.0
100
AcDbArc
 50
329.9999999999998
 51
29.9999999999999
  0
ARC
  5
4F8
330
1E
100
AcDbEntity
  8
SCHRAFF
100
AcDbCircle
 10
194.3198309314329
 20
362.9619483434532
 30
0.0
 40
5.0
100
AcDbArc
 50
329.9999999999998
 51
29.9999999999999
  0
ARC
  5
4F9
330
1E
100
AcDbEntity
  8
SCHRAFF
100
AcDbCircle
 10
189.3198309314329
 20
362.9619483434532
 30
0.0
 40
5.0
100
AcDbArc
 50
329.9999999999998
 51
29.9999999999999
  0
ARC
  5
4FA
330
1E
100
AcDbEntity
  8
SCHRAFF
100
AcDbCircle
 10
184.3198309314329
 20
362.9619483434532
 30
0.0
 40
5.0
100
AcDbArc
 50
329.9999999999998
 51
29.9999999999999
  0
ARC
  5
4FB
330
1E
100
AcDbEntity
  8
SCHRAFF
100
AcDbCircle
 10
179.3198309314328
 20
362.9619483434532
 30
0.0
 40
5.0
100
AcDbArc
 50
329.9999999999998
 51
29.9999999999999
  0
ARC
  5
4FC
330
1E
100
AcDbEntity
  8
SCHRAFF
100
AcDbCircle
 10
174.3198309314329
 20
362.9619483434533
 30
0.0
 40
5.0
100
AcDbArc
 50
329.9999999999998
 51
29.9999999999999
  0
ARC
  5
4FD
330
1E
100
AcDbEntity
  8
SCHRAFF
100
AcDbCircle
 10
164.3198309314328
 20
362.9619483434533
 30
0.0
 40
5.0
100
AcDbArc
 50
329.9999999999998
 51
29.9999999999999
  0
ARC
  5
4FE
330
1E
100
AcDbEntity
  8
SCHRAFF
100
AcDbCircle
 10
169.3198309314329
 20
362.9619483434532
 30
0.0
 40
5.0
100
AcDbArc
 50
329.9999999999998
 51
29.9999999999999
  0
ARC
  5
4FF
330
1E
100
AcDbEntity
  8
SCHRAFF
100
AcDbCircle
 10
164.3198309314328
 20
362.9619483434533
 30
0.0
 40
5.0
100
AcDbArc
 50
329.9999999999998
 51
29.9999999999999
  0
LINE
  5
500
330
1E
100
AcDbEntity
  8
STEMPEL
100
AcDbLine
 10
165.3045411198857
 20
362.9619483434532
 30
0.0
 11
238.3045411198859
 21
362.9619483434532
 31
0.0
  0
HATCH
  5
501
330
1E
100
AcDbEntity
  8
SCHRAFF
100
AcDbHatch
 10
0.0
 20
0.0
 30
0.0
210
0.0
220
0.0
230
1.0
  2
_USER
 70
     0
 71
     0
 91
        1
 92
        7
 72
     1
 73
     1
 93
        3
 10
238.5380419584641
 20
365.461948343453
 42
0.0465987608925618
 10
238.3045411198859
 20
362.9619483434531
 42
0.0
 10
238.3045411198858
 20
360.4619483434532
 42
0.5556441052556418
 97
        0
 75
     0
 76
     0
 52
-0.0000000000000445
 41
0.1
 77
     0
 78
     1
 53
359.9999999999998
 43
-11.37892586454796
 44
16.58273073495402
 45
0.0000000000000002
 46
0.1
 79
     0
 47
0.0246751604493177
 98
        1
 10
238.5298301152127
 20
363.4560858692705
  0
ARC
  5
502
330
1E
100
AcDbEntity
  8
SCHRAFF
100
AcDbCircle
 10
236.8662052398779
 20
363.0345711344425
 30
0.0
 40
2.947405321369405
100
AcDbArc
 50
299.2092583289775
 51
55.44318189520436
  0
ARC
  5
504
330
1E
100
AcDbEntity
  8
SCHRAFF
100
AcDbCircle
 10
224.3198309314329
 20
362.9619483434531
 30
0.0
 40
5.0
100
AcDbArc
 50
329.9999999999998
 51
29.9999999999999
  0
ARC
  5
505
330
1E
100
AcDbEntity
  8
SCHRAFF
100
AcDbCircle
 10
219.3198309314329
 20
362.9619483434532
 30
0.0
 40
5.0
100
AcDbArc
 50
329.9999999999998
 51
29.9999999999999
  0
ARC
  5
506
330
1E
100
AcDbEntity
  8
SCHRAFF
100
AcDbCircle
 10
214.319830931433
 20
362.9619483434532
 30
0.0
 40
5.0
100
AcDbArc
 50
329.9999999999998
 51
29.9999999999999
  0
ARC
  5
507
330
1E
100
AcDbEntity
  8
SCHRAFF
100
AcDbCircle
 10
209.3198309314329
 20
362.9619483434532
 30
0.0
 40
5.0
100
AcDbArc
 50
329.9999999999998
 51
29.9999999999999
  0
ARC
  5
508
330
1E
100
AcDbEntity
  8
SCHRAFF
100
AcDbCircle
 10
229.3198309314329
 20
362.9619483434531
 30
0.0
 40
5.0
100
AcDbArc
 50
329.9999999999998
 51
29.9999999999999
  0
LINE
  5
509
330
1E
100
AcDbEntity
  8
STEMPEL
100
AcDbLine
 10
291.9606557211783
 20
422.2099460367672
 30
0.0
 11
240.3418606945329
 21
473.8287410634129
 31
0.0
  0
DIMENSION
  5
712
330
1E
100
AcDbEntity
  8
BEM
100
AcDbDimension
  2
*D8
 10
224.6962134938734
 20
489.4743882640723
 30
0.0
 11
187.9266608721728
 21
461.897223797797
 31
0.0
 70
    32
 71
     5
 42
91.0
 51
315.0000000000002
  3
Standard
100
AcDbAlignedDimension
 13
201.804541119886
 23
383.6726264621081
 33
0.0
 14
240.3418606945329
 24
473.8287410634129
 34
0.0
 50
45.0
100
AcDbRotatedDimension
1001
ACAD
1000
DSTYLE
1002
{
1070
    40
1040
2.0
1070
    41
1040
3.5
1070
    42
1040
1.0
1070
    43
1040
7.0
1070
    44
1040
1.0
1070
    73
1070
     0
1070
    74
1070
     0
1070
    77
1070
     1
1070
    78
1070
     8
1070
    79
1070
     2
1070
   140
1040
3.5
1070
   141
1040
1.5
1070
   146
1040
0.5142857142857144
1070
   147
1040
1.5
1070
   172
1070
     1
1070
   178
1070
     1
1070
   179
1070
     2
1070
   271
1070
     2
1070
   272
1070
     2
1070
   284
1070
     8
1070
   285
1070
     8
1070
   286
1070
     8
1002
}
  0
DIMENSION
  5
72A
330
1E
100
AcDbEntity
  8
BEM
100
AcDbDimension
  2
*D9
 10
300.8906514638415
 20
431.1399417794304
 30
0.0
 11
279.6774480282313
 21
461.5455333704658
 31
0.0
 70
    33
  1
%%c<>
 71
     5
 42
73.00000000003899
  3
Standard
100
AcDbAlignedDimension
 13
240.3418606945329
 23
473.8287410634129
 33
0.0
 14
291.9606557211783
 24
422.2099460367672
 34
0.0
1001
ACAD
1000
DSTYLE
1002
{
1070
    40
1040
2.0
1070
    41
1040
3.5
1070
    42
1040
1.0
1070
    43
1040
7.0
1070
    44
1040
1.0
1070
    73
1070
     0
1070
    74
1070
     0
1070
    77
1070
     1
1070
    78
1070
     8
1070
    79
1070
     2
1070
   140
1040
3.5
1070
   141
1040
1.5
1070
   146
1040
0.5142857142857144
1070
   147
1040
1.5
1070
   172
1070
     1
1070
   178
1070
     1
1070
   179
1070
     2
1070
   271
1070
     2
1070
   272
1070
     2
1070
   284
1070
     8
1070
   285
1070
     8
1070
   286
1070
     8
1002
}
  0
DIMENSION
  5
740
330
1E
100
AcDbEntity
  8
BEM
100
AcDbDimension
  2
*D10
 10
201.8045411198858
 20
257.6701766791971
 30
0.0
 11
221.4043586641482
 21
430.9907717975037
 31
0.0
 70
    34
 71
     5
 42
0.7853981633974501
  3
Standard
100
AcDb2LineAngularDimension
 13
201.804541119886
 23
383.6726264621081
 33
0.0
 14
269.6867921137948
 24
451.5548774560165
 34
0.0
 15
201.804541119886
 25
383.6726264621081
 35
0.0
 16
224.1629368415532
 26
422.398503827766
 36
0.0
1001
ACAD
1000
DSTYLE
1002
{
1070
    40
1040
2.0
1070
    41
1040
3.5
1070
    42
1040
1.0
1070
    43
1040
7.0
1070
    44
1040
1.0
1070
    73
1070
     0
1070
    74
1070
     0
1070
    77
1070
     1
1070
    78
1070
     8
1070
    79
1070
     2
1070
   140
1040
3.5
1070
   141
1040
1.5
1070
   146
1040
0.5142857142857144
1070
   147
1040
1.5
1070
   172
1070
     1
1070
   178
1070
     1
1070
   179
1070
     2
1070
   271
1070
     2
1070
   272
1070
     2
1070
   284
1070
     8
1070
   285
1070
     8
1070
   286
1070
     8
1002
}
  0
ENDSEC
  0
SECTION
  2
OBJECTS
  0
DICTIONARY
  5
C
330
0
100
AcDbDictionary
281
     1
  3
ACAD_COLOR
350
DF
  3
ACAD_GROUP
350
D
  3
ACAD_LAYOUT
350
19
  3
ACAD_MATERIAL
350
DE
  3
ACAD_MLINESTYLE
350
16
  3
ACAD_PLOTSETTINGS
350
18
  3
ACAD_PLOTSTYLENAME
350
E
  3
AcDbVariableDictionary
350
EA
  0
DICTIONARY
  5
A0
330
1E
100
AcDbDictionary
280
     1
281
     1
  3
ACAD_LAYOUTSELFREF
360
D4
  0
DICTIONARY
  5
A2
330
1A
100
AcDbDictionary
280
     1
281
     1
  3
ACAD_LAYOUTSELFREF
360
D3
  0
DICTIONARY
  5
DF
102
{ACAD_REACTORS
330
C
102
}
330
C
100
AcDbDictionary
281
     1
  0
DICTIONARY
  5
D
102
{ACAD_REACTORS
330
C
102
}
330
C
100
AcDbDictionary
281
     1
  0
DICTIONARY
  5
19
102
{ACAD_REACTORS
330
C
102
}
330
C
100
AcDbDictionary
281
     1
  3
Layout1
350
1D
  3
Model
350
21
  0
DICTIONARY
  5
DE
102
{ACAD_REACTORS
330
C
102
}
330
C
100
AcDbDictionary
281
     1
  0
DICTIONARY
  5
16
102
{ACAD_REACTORS
330
C
102
}
330
C
100
AcDbDictionary
281
     1
  3
Standard
350
17
  0
DICTIONARY
  5
18
102
{ACAD_REACTORS
330
C
102
}
330
C
100
AcDbDictionary
281
     1
  0
ACDBDICTIONARYWDFLT
  5
E
102
{ACAD_REACTORS
330
C
102
}
330
C
100
AcDbDictionary
281
     1
  3
Normal
350
F
100
AcDbDictionaryWithDefault
340
F
  0
DICTIONARY
  5
EA
102
{ACAD_REACTORS
330
C
102
}
330
C
100
AcDbDictionary
281
     1
  3
DIMASSOC
350
EB
  3
PROJECTNAME
350
EC
  0
XRECORD
  5
D4
102
{ACAD_REACTORS
330
A0
102
}
330
A0
100
AcDbXrecord
280
     1
340
1E
  0
XRECORD
  5
D3
102
{ACAD_REACTORS
330
A2
102
}
330
A2
100
AcDbXrecord
280
     1
340
1A
  0
LAYOUT
  5
1D
102
{ACAD_REACTORS
330
19
102
}
330
19
100
AcDbPlotSettings
  1

  2
\\NT_WORK01\HP LaserJet 5000 PCL 6
  4

  6

 40
0.0
 41
0.0
 42
0.0
 43
0.0
 44
0.0
 45
0.0
 46
0.0
 47
0.0
 48
0.0
 49
0.0
140
0.0
141
0.0
142
1.0
143
1.0
 70
   688
 72
     0
 73
     0
 74
     5
  7

 75
    16
147
1.0
 76
     0
 77
     2
 78
   300
148
0.0
149
0.0
100
AcDbLayout
  1
Layout1
 70
     0
 71
     1
 10
0.0
 20
0.0
 11
12.0
 21
9.0
 12
0.0
 22
0.0
 32
0.0
 14
1.000000000000000E+20
 24
1.000000000000000E+20
 34
1.000000000000000E+20
 15
-1.000000000000000E+20
 25
-1.000000000000000E+20
 35
-1.000000000000000E+20
146
0.0
 13
0.0
 23
0.0
 33
0.0
 16
1.0
 26
0.0
 36
0.0
 17
0.0
 27
1.0
 37
0.0
 76
     0
330
1A
  0
LAYOUT
  5
21
102
{ACAD_REACTORS
330
19
102
}
330
19
100
AcDbPlotSettings
  1

  2
none_device
  4
Letter_(8.50_x_11.00_Inches)
  6

 40
6.349999904632568
 41
6.349999904632568
 42
6.350006103515625
 43
6.350006103515625
 44
215.8999938964844
 45
279.3999938964844
 46
0.0
 47
0.0
 48
0.0
 49
0.0
140
0.0
141
0.0
142
1.0
143
1.0
 70
 11952
 72
     0
 73
     1
 74
     0
  7

 75
     0
147
1.0
 76
     0
 77
     2
 78
   300
148
2299.19079060625
149
89.3907803160642
100
AcDbLayout
  1
Model
 70
     1
 71
     0
 10
0.0
 20
0.0
 11
12.0
 21
9.0
 12
0.0
 22
0.0
 32
0.0
 14
0.0
 24
0.0
 34
0.0
 15
0.0
 25
0.0
 35
0.0
146
0.0
 13
0.0
 23
0.0
 33
0.0
 16
1.0
 26
0.0
 36
0.0
 17
0.0
 27
1.0
 37
0.0
 76
     0
330
1E
  0
MLINESTYLE
  5
17
102
{ACAD_REACTORS
330
16
102
}
330
16
100
AcDbMlineStyle
  2
STANDARD
 70
     0
  3

 62
   256
 51
90.0
 52
90.0
 71
     2
 49
0.5
 62
   256
  6
BYLAYER
 49
-0.5
 62
   256
  6
BYLAYER
  0
ACDBPLACEHOLDER
  5
F
102
{ACAD_REACTORS
330
E
102
}
330
E
  0
DICTIONARYVAR
  5
EB
102
{ACAD_REACTORS
330
EA
102
}
330
EA
100
DictionaryVariables
280
     0
  1
1
  0
DICTIONARYVAR
  5
EC
102
{ACAD_REACTORS
330
EA
102
}
330
EA
100
DictionaryVariables
280
     0
  1

  0
ENDSEC
  0
EOF
