  0
SECTION
  2
HEADER
  9
$ACADVER
  1
AC1018
  9
$ACADMAINTVER
 70
     2
  9
$DWGCODEPAGE
  3
ANSI_1252
  9
$INSBASE
 10
0.0
 20
0.0
 30
0.0
  9
$EXTMIN
 10
-0.0128100481844058
 20
-0.0181170681471485
 30
-0.0000000000000053
  9
$EXTMAX
 10
420.0128212946063
 20
594.0181329738
 30
0.0000000000000099
  9
$LIMMIN
 10
0.0
 20
0.0
  9
$LIMMAX
 10
419.9999999999999
 20
594.0
  9
$ORTHOMODE
 70
     0
  9
$REGENMODE
 70
     1
  9
$FILLMODE
 70
     1
  9
$QTEXTMODE
 70
     0
  9
$MIRRTEXT
 70
     1
  9
$LTSCALE
 40
20.0
  9
$ATTMODE
 70
     1
  9
$TEXTSIZE
 40
3.5
  9
$TRACEWID
 40
0.5
  9
$TEXTSTYLE
  7
STANDARD
  9
$CLAYER
  8
BEM
  9
$CELTYPE
  6
ByLayer
  9
$CECOLOR
 62
   256
  9
$CELTSCALE
 40
1.0
  9
$DISPSILH
 70
     0
  9
$DIMSCALE
 40
2.0
  9
$DIMASZ
 40
3.5
  9
$DIMEXO
 40
1.0
  9
$DIMDLI
 40
7.0
  9
$DIMRND
 40
0.0
  9
$DIMDLE
 40
0.0
  9
$DIMEXE
 40
1.0
  9
$DIMTP
 40
0.0
  9
$DIMTM
 40
0.0
  9
$DIMTXT
 40
3.5
  9
$DIMCEN
 40
1.5
  9
$DIMTSZ
 40
0.0
  9
$DIMTOL
 70
     0
  9
$DIMLIM
 70
     0
  9
$DIMTIH
 70
     0
  9
$DIMTOH
 70
     0
  9
$DIMSE1
 70
     0
  9
$DIMSE2
 70
     0
  9
$DIMTAD
 70
     1
  9
$DIMZIN
 70
     8
  9
$DIMBLK
  1

  9
$DIMASO
 70
     1
  9
$DIMSHO
 70
     0
  9
$DIMPOST
  1

  9
$DIMAPOST
  1

  9
$DIMALT
 70
     0
  9
$DIMALTD
 70
     2
  9
$DIMALTF
 40
25.4
  9
$DIMLFAC
 40
1.0
  9
$DIMTOFL
 70
     1
  9
$DIMTVP
 40
0.0
  9
$DIMTIX
 70
     0
  9
$DIMSOXD
 70
     0
  9
$DIMSAH
 70
     0
  9
$DIMBLK1
  1

  9
$DIMBLK2
  1

  9
$DIMSTYLE
  2
Standard
  9
$DIMCLRD
 70
     0
  9
$DIMCLRE
 70
     0
  9
$DIMCLRT
 70
     1
  9
$DIMTFAC
 40
0.5142857142857144
  9
$DIMGAP
 40
1.5
  9
$DIMJUST
 70
     0
  9
$DIMSD1
 70
     0
  9
$DIMSD2
 70
     0
  9
$DIMTOLJ
 70
     1
  9
$DIMTZIN
 70
     8
  9
$DIMALTZ
 70
     8
  9
$DIMALTTZ
 70
     8
  9
$DIMUPT
 70
     0
  9
$DIMDEC
 70
     2
  9
$DIMTDEC
 70
     2
  9
$DIMALTU
 70
     2
  9
$DIMALTTD
 70
     2
  9
$DIMTXSTY
  7
STANDARD
  9
$DIMAUNIT
 70
     0
  9
$DIMADEC
 70
     2
  9
$DIMALTRND
 40
0.0
  9
$DIMAZIN
 70
     2
  9
$DIMDSEP
 70
    46
  9
$DIMATFIT
 70
     3
  9
$DIMFRAC
 70
     0
  9
$DIMLDRBLK
  1

  9
$DIMLUNIT
 70
     2
  9
$DIMLWD
 70
    -2
  9
$DIMLWE
 70
    -2
  9
$DIMTMOVE
 70
     0
  9
$LUNITS
 70
     2
  9
$LUPREC
 70
     2
  9
$SKETCHINC
 40
1.0
  9
$FILLETRAD
 40
60.0
  9
$AUNITS
 70
     0
  9
$AUPREC
 70
     0
  9
$MENU
  1
ACAD
  9
$ELEVATION
 40
0.0
  9
$PELEVATION
 40
0.0
  9
$THICKNESS
 40
0.0
  9
$LIMCHECK
 70
     0
  9
$CHAMFERA
 40
0.0
  9
$CHAMFERB
 40
0.0
  9
$CHAMFERC
 40
0.0
  9
$CHAMFERD
 40
0.0
  9
$SKPOLY
 70
     0
  9
$TDCREATE
 40
2455397.864709028
  9
$TDUCREATE
 40
2455397.781375695
  9
$TDUPDATE
 40
2455659.308943808
  9
$TDUUPDATE
 40
2455659.225610475
  9
$TDINDWG
 40
0.0722570833
  9
$TDUSRTIMER
 40
0.0722570833
  9
$USRTIMER
 70
     1
  9
$ANGBASE
 50
0.0
  9
$ANGDIR
 70
     0
  9
$PDMODE
 70
     0
  9
$PDSIZE
 40
0.0
  9
$PLINEWID
 40
0.0
  9
$SPLFRAME
 70
     0
  9
$SPLINETYPE
 70
     6
  9
$SPLINESEGS
 70
     8
  9
$HANDSEED
  5
916
  9
$SURFTAB1
 70
     6
  9
$SURFTAB2
 70
     6
  9
$SURFTYPE
 70
     6
  9
$SURFU
 70
     6
  9
$SURFV
 70
     6
  9
$UCSBASE
  2

  9
$UCSNAME
  2

  9
$UCSORG
 10
0.0
 20
0.0
 30
0.0
  9
$UCSXDIR
 10
1.0
 20
0.0
 30
0.0
  9
$UCSYDIR
 10
0.0
 20
1.0
 30
0.0
  9
$UCSORTHOREF
  2

  9
$UCSORTHOVIEW
 70
     0
  9
$UCSORGTOP
 10
0.0
 20
0.0
 30
0.0
  9
$UCSORGBOTTOM
 10
0.0
 20
0.0
 30
0.0
  9
$UCSORGLEFT
 10
0.0
 20
0.0
 30
0.0
  9
$UCSORGRIGHT
 10
0.0
 20
0.0
 30
0.0
  9
$UCSORGFRONT
 10
0.0
 20
0.0
 30
0.0
  9
$UCSORGBACK
 10
0.0
 20
0.0
 30
0.0
  9
$PUCSBASE
  2

  9
$PUCSNAME
  2

  9
$PUCSORG
 10
0.0
 20
0.0
 30
0.0
  9
$PUCSXDIR
 10
1.0
 20
0.0
 30
0.0
  9
$PUCSYDIR
 10
0.0
 20
1.0
 30
0.0
  9
$PUCSORTHOREF
  2

  9
$PUCSORTHOVIEW
 70
     0
  9
$PUCSORGTOP
 10
0.0
 20
0.0
 30
0.0
  9
$PUCSORGBOTTOM
 10
0.0
 20
0.0
 30
0.0
  9
$PUCSORGLEFT
 10
0.0
 20
0.0
 30
0.0
  9
$PUCSORGRIGHT
 10
0.0
 20
0.0
 30
0.0
  9
$PUCSORGFRONT
 10
0.0
 20
0.0
 30
0.0
  9
$PUCSORGBACK
 10
0.0
 20
0.0
 30
0.0
  9
$USERI1
 70
     0
  9
$USERI2
 70
     0
  9
$USERI3
 70
     0
  9
$USERI4
 70
     0
  9
$USERI5
 70
     0
  9
$USERR1
 40
0.0
  9
$USERR2
 40
0.0
  9
$USERR3
 40
0.0
  9
$USERR4
 40
0.0
  9
$USERR5
 40
0.0
  9
$WORLDVIEW
 70
     1
  9
$SHADEDGE
 70
     3
  9
$SHADEDIF
 70
    70
  9
$TILEMODE
 70
     1
  9
$MAXACTVP
 70
    16
  9
$PINSBASE
 10
0.0
 20
0.0
 30
0.0
  9
$PLIMCHECK
 70
     0
  9
$PEXTMIN
 10
1.000000000000000E+20
 20
1.000000000000000E+20
 30
1.000000000000000E+20
  9
$PEXTMAX
 10
-1.000000000000000E+20
 20
-1.000000000000000E+20
 30
-1.000000000000000E+20
  9
$PLIMMIN
 10
0.0
 20
0.0
  9
$PLIMMAX
 10
12.0
 20
9.0
  9
$UNITMODE
 70
     0
  9
$VISRETAIN
 70
     0
  9
$PLINEGEN
 70
     0
  9
$PSLTSCALE
 70
     0
  9
$TREEDEPTH
 70
  3020
  9
$CMLSTYLE
  2
Standard
  9
$CMLJUST
 70
     0
  9
$CMLSCALE
 40
1.0
  9
$PROXYGRAPHICS
 70
     1
  9
$MEASUREMENT
 70
     0
  9
$CELWEIGHT
370
    -1
  9
$ENDCAPS
280
     0
  9
$JOINSTYLE
280
     0
  9
$LWDISPLAY
290
     0
  9
$INSUNITS
 70
     0
  9
$HYPERLINKBASE
  1

  9
$STYLESHEET
  1
monochrome 1.ctb
  9
$XEDIT
290
     1
  9
$CEPSNTYPE
380
     0
  9
$PSTYLEMODE
290
     1
  9
$FINGERPRINTGUID
  2
{D68B0D02-A558-11D7-B632-000102183313}
  9
$VERSIONGUID
  2
{762A3A0F-A56C-4B49-B57E-46846508D56F}
  9
$EXTNAMES
290
     1
  9
$PSVPSCALE
 40
0.0
  9
$OLESTARTUP
290
     0
  9
$SORTENTS
280
   127
  9
$INDEXCTL
280
     0
  9
$HIDETEXT
280
     0
  9
$XCLIPFRAME
290
     0
  9
$HALOGAP
280
     0
  9
$OBSCOLOR
 70
   257
  9
$OBSLTYPE
280
     0
  9
$INTERSECTIONDISPLAY
280
     0
  9
$INTERSECTIONCOLOR
 70
   257
  9
$DIMASSOC
280
     1
  9
$PROJECTNAME
  1

  0
ENDSEC
  0
SECTION
  2
CLASSES
  0
CLASS
  1
ACDBDICTIONARYWDFLT
  2
AcDbDictionaryWithDefault
  3
ObjectDBX Classes
 90
        0
 91
        1
280
     0
281
     0
  0
CLASS
  1
DICTIONARYVAR
  2
AcDbDictionaryVar
  3
ObjectDBX Classes
 90
        0
 91
        2
280
     0
281
     0
  0
ENDSEC
  0
SECTION
  2
TABLES
  0
TABLE
  2
VPORT
  5
8
330
0
100
AcDbSymbolTable
 70
     3
  0
VPORT
  5
915
330
8
100
AcDbSymbolTableRecord
100
AcDbViewportTableRecord
  2
*Active
 70
     0
 10
0.0
 20
0.0
 11
1.0
 21
1.0
 12
210.0
 22
297.0000000000001
 13
0.0
 23
0.0
 14
1.0
 24
1.0
 15
10.0
 25
10.0
 16
0.0
 26
0.0
 36
1.0
 17
0.0
 27
0.0
 37
0.0
 40
594.0000000000002
 41
1.334231805929919
 42
50.0
 43
0.0
 44
0.0
 50
0.0
 51
0.0
 71
     0
 72
  1500
 73
     1
 74
     0
 75
     0
 76
     0
 77
     0
 78
     0
281
     0
 65
     1
110
0.0
120
0.0
130
0.0
111
1.0
121
0.0
131
0.0
112
0.0
122
1.0
132
0.0
 79
     0
146
0.0
  0
ENDTAB
  0
TABLE
  2
LTYPE
  5
5
330
0
100
AcDbSymbolTable
 70
     2
  0
LTYPE
  5
13
330
5
100
AcDbSymbolTableRecord
100
AcDbLinetypeTableRecord
  2
ByBlock
 70
     0
  3

 72
    65
 73
     0
 40
0.0
  0
LTYPE
  5
14
330
5
100
AcDbSymbolTableRecord
100
AcDbLinetypeTableRecord
  2
ByLayer
 70
     0
  3

 72
    65
 73
     0
 40
0.0
  0
LTYPE
  5
15
330
5
100
AcDbSymbolTableRecord
100
AcDbLinetypeTableRecord
  2
Continuous
 70
     0
  3
Solid line
 72
    65
 73
     0
 40
0.0
  0
LTYPE
  5
25
330
5
100
AcDbSymbolTableRecord
100
AcDbLinetypeTableRecord
  2
STRICHPUNKT
 70
     0
  3
__ . __ . __ . __ . __ . __ . __ . __ . __ . __
 72
    65
 73
     4
 40
1.0
 49
0.5
 74
     0
 49
-0.25
 74
     0
 49
0.0
 74
     0
 49
-0.25
 74
     0
  0
ENDTAB
  0
TABLE
  2
LAYER
  5
2
330
0
100
AcDbSymbolTable
 70
     9
  0
LAYER
  5
10
330
2
100
AcDbSymbolTableRecord
100
AcDbLayerTableRecord
  2
0
 70
     0
 62
     7
  6
Continuous
370
    -3
390
F
  0
LAYER
  5
2A
330
2
100
AcDbSymbolTableRecord
100
AcDbLayerTableRecord
  2
VOLL
 70
     0
 62
     1
  6
Continuous
370
    -3
390
F
  0
LAYER
  5
2B
330
2
100
AcDbSymbolTableRecord
100
AcDbLayerTableRecord
  2
HILF
 70
     0
 62
     2
  6
Continuous
370
    -3
390
F
  0
LAYER
  5
2C
330
2
100
AcDbSymbolTableRecord
100
AcDbLayerTableRecord
  2
MITTEL
 70
     0
 62
     2
  6
STRICHPUNKT
370
    -3
390
F
  0
LAYER
  5
2F
330
2
100
AcDbSymbolTableRecord
100
AcDbLayerTableRecord
  2
BEM
 70
     0
 62
     7
  6
Continuous
370
    -3
390
F
  0
LAYER
  5
30
330
2
100
AcDbSymbolTableRecord
100
AcDbLayerTableRecord
  2
STEMPEL
 70
     0
 62
     3
  6
Continuous
370
    -3
390
F
  0
LAYER
  5
31
330
2
100
AcDbSymbolTableRecord
100
AcDbLayerTableRecord
  2
TEXT
 70
     0
 62
     7
  6
Continuous
370
    -3
390
F
  0
LAYER
  5
170
330
2
100
AcDbSymbolTableRecord
100
AcDbLayerTableRecord
  2
Defpoints
 70
     0
 62
     7
  6
Continuous
290
     0
370
    -3
390
F
  0
LAYER
  5
171
330
2
100
AcDbSymbolTableRecord
100
AcDbLayerTableRecord
  2
SCHRAFF
 70
     0
 62
     7
  6
Continuous
370
    -3
390
F
  0
ENDTAB
  0
TABLE
  2
STYLE
  5
3
330
0
100
AcDbSymbolTable
 70
     2
  0
STYLE
  5
11
330
3
100
AcDbSymbolTableRecord
100
AcDbTextStyleTableRecord
  2
STANDARD
 70
     0
 40
0.0
 41
0.8
 50
0.0
 71
     0
 42
3.5
  3
simplex.shx
  4

  0
STYLE
  5
24
330
3
100
AcDbSymbolTableRecord
100
AcDbTextStyleTableRecord
  2
GREEKS
 70
     0
 40
0.0
 41
0.8
 50
0.0
 71
     0
 42
2.5
  3
SIMPLEX.shx
  4

  0
ENDTAB
  0
TABLE
  2
VIEW
  5
6
330
0
100
AcDbSymbolTable
 70
     0
  0
ENDTAB
  0
TABLE
  2
UCS
  5
7
330
0
100
AcDbSymbolTable
 70
     0
  0
ENDTAB
  0
TABLE
  2
APPID
  5
9
330
0
100
AcDbSymbolTable
 70
     1
  0
APPID
  5
12
330
9
100
AcDbSymbolTableRecord
100
AcDbRegAppTableRecord
  2
ACAD
 70
     0
  0
ENDTAB
  0
TABLE
  2
DIMSTYLE
  5
A
330
0
100
AcDbSymbolTable
 70
     1
100
AcDbDimStyleTable
 71
     1
340
9D
  0
DIMSTYLE
105
9D
102
{ACAD_REACTORS
330
518
330
51D
330
601
330
60E
330
62D
330
799
330
7F2
102
}
330
A
100
AcDbSymbolTableRecord
100
AcDbDimStyleTableRecord
  2
Standard
 70
     0
340
11
  0
ENDTAB
  0
TABLE
  2
BLOCK_RECORD
  5
1
330
0
100
AcDbSymbolTable
 70
    11
  0
BLOCK_RECORD
  5
1E
102
{ACAD_XDICTIONARY
360
A0
102
}
330
1
100
AcDbSymbolTableRecord
100
AcDbBlockTableRecord
  2
*Model_Space
340
21
  0
BLOCK_RECORD
  5
1A
102
{ACAD_XDICTIONARY
360
A2
102
}
330
1
100
AcDbSymbolTableRecord
100
AcDbBlockTableRecord
  2
*Paper_Space
340
1D
  0
BLOCK_RECORD
  5
22
330
1
100
AcDbSymbolTableRecord
100
AcDbBlockTableRecord
  2
LOGO
340
0
102
{BLKREFS
331
9B
102
}
  0
BLOCK_RECORD
  5
528
330
1
100
AcDbSymbolTableRecord
100
AcDbBlockTableRecord
  2
*D1
340
0
  0
BLOCK_RECORD
  5
534
330
1
100
AcDbSymbolTableRecord
100
AcDbBlockTableRecord
  2
*D2
340
0
  0
BLOCK_RECORD
  5
602
330
1
100
AcDbSymbolTableRecord
100
AcDbBlockTableRecord
  2
*D3
340
0
  0
BLOCK_RECORD
  5
60F
330
1
100
AcDbSymbolTableRecord
100
AcDbBlockTableRecord
  2
*D4
340
0
  0
BLOCK_RECORD
  5
62E
330
1
100
AcDbSymbolTableRecord
100
AcDbBlockTableRecord
  2
*D5
340
0
  0
BLOCK_RECORD
  5
79A
330
1
100
AcDbSymbolTableRecord
100
AcDbBlockTableRecord
  2
*D7
340
0
  0
BLOCK_RECORD
  5
7F3
330
1
100
AcDbSymbolTableRecord
100
AcDbBlockTableRecord
  2
*D8
340
0
  0
ENDTAB
  0
ENDSEC
  0
SECTION
  2
BLOCKS
  0
BLOCK
  5
35
330
1E
100
AcDbEntity
  8
0
100
AcDbBlockBegin
  2
*Model_Space
 70
     0
 10
0.0
 20
0.0
 30
0.0
  3
*Model_Space
  1

  0
ENDBLK
  5
36
330
1E
100
AcDbEntity
  8
0
100
AcDbBlockEnd
  0
BLOCK
  5
33
330
1A
100
AcDbEntity
 67
     1
  8
0
100
AcDbBlockBegin
  2
*Paper_Space
 70
     0
 10
0.0
 20
0.0
 30
0.0
  3
*Paper_Space
  1

  0
ENDBLK
  5
34
330
1A
100
AcDbEntity
 67
     1
  8
0
100
AcDbBlockEnd
  0
BLOCK
  5
37
330
22
100
AcDbEntity
  8
0
100
AcDbBlockBegin
  2
LOGO
 70
     0
 10
0.0
 20
0.0
 30
0.0
  3
LOGO
  1

  0
ARC
  5
38
330
22
100
AcDbEntity
  8
0
100
AcDbCircle
 10
11.59973089678112
 20
-9.271599258481501
 30
0.0
 40
4.5
100
AcDbArc
 50
270.0
 51
231.0575587310159
  0
LINE
  5
39
330
22
100
AcDbEntity
  8
0
100
AcDbLine
 10
3.599730896781125
 20
-4.771599258481529
 30
0.0
 11
3.599730896781153
 21
-11.77159925848133
 31
0.0
  0
LINE
  5
3A
330
22
100
AcDbEntity
  8
0
100
AcDbLine
 10
2.599730896781125
 20
-4.771599258481529
 30
0.0
 11
2.599730896781153
 21
-11.77159925848133
 31
0.0
  0
CIRCLE
  5
3B
330
22
100
AcDbEntity
  8
0
100
AcDbCircle
 10
11.59973089678112
 20
-9.271599258481501
 30
0.0
 40
3.5
  0
ARC
  5
3C
330
22
100
AcDbEntity
  8
0
100
AcDbCircle
 10
31.59973089678115
 20
-9.271599258481472
 30
0.0
 40
4.5
100
AcDbArc
 50
270.0
 51
231.0575587310182
  0
LINE
  5
3D
330
22
100
AcDbEntity
  8
0
100
AcDbLine
 10
17.59973089678112
 20
-4.771599258481472
 30
0.0
 11
17.59973089678115
 21
-13.77159925848147
 31
0.0
  0
ARC
  5
3E
330
22
100
AcDbEntity
  8
0
100
AcDbCircle
 10
22.59973089678116
 20
-7.271599258481472
 30
0.0
 40
2.5
100
AcDbArc
 50
293.1161887722295
 51
90.0
  0
CIRCLE
  5
3F
330
22
100
AcDbEntity
  8
0
100
AcDbCircle
 10
31.59973089678115
 20
-9.271599258481472
 30
0.0
 40
3.5
  0
ARC
  5
40
330
22
100
AcDbEntity
  8
0
100
AcDbCircle
 10
4.599730896781153
 20
-11.77159925848133
 30
0.0
 40
1.0
100
AcDbArc
 50
180.0
 51
270.0
  0
ARC
  5
41
330
22
100
AcDbEntity
  8
0
100
AcDbCircle
 10
4.599730896781153
 20
-11.77159925848133
 30
0.0
 40
2.0
100
AcDbArc
 50
179.9999999999992
 51
270.0
  0
LINE
  5
42
330
22
100
AcDbEntity
  8
0
100
AcDbLine
 10
11.59973089678115
 20
-13.77159925848144
 30
0.0
 11
4.599730896781153
 21
-13.77159925848147
 31
0.0
  0
LINE
  5
43
330
22
100
AcDbEntity
  8
0
100
AcDbLine
 10
8.771303772034769
 20
-12.77159925848136
 30
0.0
 11
4.599730896781153
 21
-12.77159925848133
 31
0.0
  0
LINE
  5
44
330
22
100
AcDbEntity
  8
0
100
AcDbLine
 10
31.59973089678115
 20
-13.77159925848147
 30
0.0
 11
23.6715276665056
 21
-13.77159925848144
 31
0.0
  0
LINE
  5
45
330
22
100
AcDbEntity
  8
0
100
AcDbLine
 10
23.56565672307022
 20
-9.51278021337896
 30
0.0
 11
24.4388546544846
 21
-12.77159925848144
 31
0.0
  0
LINE
  5
46
330
22
100
AcDbEntity
  8
0
100
AcDbLine
 10
22.59973089678116
 20
-9.771599258481472
 30
0.0
 11
18.59973089678112
 21
-9.771599258481472
 31
0.0
  0
LINE
  5
47
330
22
100
AcDbEntity
  8
0
100
AcDbLine
 10
18.59973089678115
 20
-13.77159925848144
 30
0.0
 11
17.59973089678115
 21
-13.77159925848144
 31
0.0
  0
LINE
  5
48
330
22
100
AcDbEntity
  8
0
100
AcDbLine
 10
18.59973089678115
 20
-9.771599258481472
 30
0.0
 11
18.59973089678115
 21
-13.77159925848144
 31
0.0
  0
LINE
  5
49
330
22
100
AcDbEntity
  8
0
100
AcDbLine
 10
22.59973089678116
 20
-9.771599258481472
 30
0.0
 11
23.67152766650562
 21
-13.77159925848147
 31
0.0
  0
ARC
  5
4A
330
22
100
AcDbEntity
  8
0
100
AcDbCircle
 10
22.59973089678116
 20
-7.271599258481472
 30
0.0
 40
2.5
100
AcDbArc
 50
270.0
 51
270.0000000000007
  0
LINE
  5
4B
330
22
100
AcDbEntity
  8
0
100
AcDbLine
 10
28.77130377203494
 20
-12.77159925848147
 30
0.0
 11
24.43885465448463
 21
-12.77159925848144
 31
0.0
  0
LINE
  5
4C
330
22
100
AcDbEntity
  8
0
100
AcDbLine
 10
3.599730896781125
 20
-4.771599258481472
 30
0.0
 11
2.599730896781125
 21
-4.771599258481472
 31
0.0
  0
LINE
  5
4D
330
22
100
AcDbEntity
  8
0
100
AcDbLine
 10
22.59973089678116
 20
-8.771599258481472
 30
0.0
 11
18.59973089678115
 21
-8.771599258481472
 31
0.0
  0
LINE
  5
4E
330
22
100
AcDbEntity
  8
0
100
AcDbLine
 10
22.59973089678116
 20
-5.771599258481472
 30
0.0
 11
18.59973089678115
 21
-5.771599258481472
 31
0.0
  0
LINE
  5
4F
330
22
100
AcDbEntity
  8
0
100
AcDbLine
 10
22.59973089678116
 20
-4.771599258481472
 30
0.0
 11
17.59973089678115
 21
-4.771599258481472
 31
0.0
  0
LINE
  5
50
330
22
100
AcDbEntity
  8
0
100
AcDbLine
 10
18.59973089678115
 20
-5.771599258481472
 30
0.0
 11
18.59973089678115
 21
-8.771599258481472
 31
0.0
  0
ARC
  5
51
330
22
100
AcDbEntity
  8
0
100
AcDbCircle
 10
22.59973089678116
 20
-7.271599258481472
 30
0.0
 40
1.5
100
AcDbArc
 50
270.0
 51
90.0
  0
ENDBLK
  5
52
330
22
100
AcDbEntity
  8
0
100
AcDbBlockEnd
  0
BLOCK
  5
532
330
528
100
AcDbEntity
  8
0
100
AcDbBlockBegin
  2
*D1
 70
     1
 10
0.0
 20
0.0
 30
0.0
  3
*D1
  1

  0
LINE
  5
8A6
330
528
100
AcDbEntity
  8
BEM
 62
     0
370
    -2
100
AcDbLine
 10
158.6289273515497
 20
230.8771909918588
 30
0.0
 11
158.6289273515497
 21
204.1564883684081
 31
0.0
  0
LINE
  5
8A7
330
528
100
AcDbEntity
  8
BEM
 62
     0
370
    -2
100
AcDbLine
 10
242.6289273515497
 20
230.8771909918587
 30
0.0
 11
242.6289273515497
 21
204.1564883684081
 31
0.0
  0
LINE
  5
8A8
330
528
100
AcDbEntity
  8
BEM
 62
     0
370
    -2
100
AcDbLine
 10
165.6289273515497
 20
206.156488368408
 30
0.0
 11
235.6289273515497
 21
206.156488368408
 31
0.0
  0
SOLID
  5
8A9
330
528
100
AcDbEntity
  8
BEM
 62
     0
100
AcDbTrace
 10
165.6289273515497
 20
207.3231550350747
 30
0.0
 11
165.6289273515497
 21
204.9898217017414
 31
0.0
 12
158.6289273515497
 22
206.156488368408
 32
0.0
 13
158.6289273515497
 23
206.156488368408
 33
0.0
  0
SOLID
  5
8AA
330
528
100
AcDbEntity
  8
BEM
 62
     0
100
AcDbTrace
 10
235.6289273515497
 20
207.3231550350747
 30
0.0
 11
235.6289273515497
 21
204.9898217017414
 31
0.0
 12
242.6289273515497
 22
206.156488368408
 32
0.0
 13
242.6289273515497
 23
206.156488368408
 33
0.0
  0
MTEXT
  5
8AB
330
528
100
AcDbEntity
  8
BEM
 62
     1
100
AcDbMText
 10
200.6289273515498
 20
212.6564883684081
 30
0.0
 40
7.0
 41
0.0
 71
     5
 72
     1
  1
\A1;%%c84
 73
     1
 44
1.0
  0
POINT
  5
8AC
330
528
100
AcDbEntity
  8
Defpoints
 62
     0
100
AcDbPoint
 10
158.6289273515497
 20
232.8771909918588
 30
0.0
  0
POINT
  5
8AD
330
528
100
AcDbEntity
  8
Defpoints
 62
     0
100
AcDbPoint
 10
242.6289273515497
 20
232.8771909918587
 30
0.0
  0
POINT
  5
8AE
330
528
100
AcDbEntity
  8
Defpoints
 62
     0
100
AcDbPoint
 10
242.6289273515497
 20
206.156488368408
 30
0.0
  0
ENDBLK
  5
533
330
528
100
AcDbEntity
  8
0
100
AcDbBlockEnd
  0
BLOCK
  5
53E
330
534
100
AcDbEntity
  8
0
100
AcDbBlockBegin
  2
*D2
 70
     1
 10
0.0
 20
0.0
 30
0.0
  3
*D2
  1

  0
LINE
  5
89D
330
534
100
AcDbEntity
  8
BEM
 62
     0
370
    -2
100
AcDbLine
 10
157.0663706691793
 20
227.8771909918588
 30
0.0
 11
139.2410303091939
 21
227.8771909918588
 31
0.0
  0
LINE
  5
89E
330
534
100
AcDbEntity
  8
BEM
 62
     0
370
    -2
100
AcDbLine
 10
156.6289273515498
 20
287.8771909918588
 30
0.0
 11
139.2410303091939
 21
287.8771909918588
 31
0.0
  0
LINE
  5
89F
330
534
100
AcDbEntity
  8
BEM
 62
     0
370
    -2
100
AcDbLine
 10
141.2410303091939
 20
234.8771909918589
 30
0.0
 11
141.2410303091939
 21
280.8771909918588
 31
0.0
  0
SOLID
  5
8A0
330
534
100
AcDbEntity
  8
BEM
 62
     0
100
AcDbTrace
 10
140.0743636425272
 20
234.8771909918589
 30
0.0
 11
142.4076969758605
 21
234.8771909918589
 31
0.0
 12
141.2410303091939
 22
227.8771909918588
 32
0.0
 13
141.2410303091939
 23
227.8771909918588
 33
0.0
  0
SOLID
  5
8A1
330
534
100
AcDbEntity
  8
BEM
 62
     0
100
AcDbTrace
 10
140.0743636425272
 20
280.8771909918588
 30
0.0
 11
142.4076969758605
 21
280.8771909918588
 31
0.0
 12
141.2410303091939
 22
287.8771909918588
 32
0.0
 13
141.2410303091939
 23
287.8771909918588
 33
0.0
  0
MTEXT
  5
8A2
330
534
100
AcDbEntity
  8
BEM
 62
     1
100
AcDbMText
 10
134.7410303091938
 20
257.8771909918589
 30
0.0
 40
7.0
 41
0.0
 71
     5
 72
     1
  1
\A1;60
 11
0.0000000000000001
 21
1.0
 31
0.0
 73
     1
 44
1.0
  0
POINT
  5
8A3
330
534
100
AcDbEntity
  8
Defpoints
 62
     0
100
AcDbPoint
 10
159.0663706691793
 20
227.8771909918588
 30
0.0
  0
POINT
  5
8A4
330
534
100
AcDbEntity
  8
Defpoints
 62
     0
100
AcDbPoint
 10
158.6289273515498
 20
287.8771909918588
 30
0.0
  0
POINT
  5
8A5
330
534
100
AcDbEntity
  8
Defpoints
 62
     0
100
AcDbPoint
 10
141.2410303091939
 20
287.8771909918588
 30
0.0
  0
ENDBLK
  5
53F
330
534
100
AcDbEntity
  8
0
100
AcDbBlockEnd
  0
BLOCK
  5
60C
330
602
100
AcDbEntity
  8
0
100
AcDbBlockBegin
  2
*D3
 70
     1
 10
0.0
 20
0.0
 30
0.0
  3
*D3
  1

  0
LINE
  5
894
330
602
100
AcDbEntity
  8
BEM
 62
     0
370
    -2
100
AcDbLine
 10
330.8400123491672
 20
464.5328388217858
 30
0.0
 11
329.2875141182885
 21
494.1562697726389
 31
0.0
  0
LINE
  5
895
330
602
100
AcDbEntity
  8
BEM
 62
     0
370
    -2
100
AcDbLine
 10
200.5242554390641
 20
409.8723240642605
 30
0.0
 11
196.4719090794322
 21
487.1956988584193
 31
0.0
  0
LINE
  5
896
330
602
100
AcDbEntity
  8
BEM
 62
     0
370
    -2
100
AcDbLine
 10
322.4017792874923
 20
491.7926590094293
 30
0.0
 11
203.5669877352001
 21
485.5647914826107
 31
0.0
  0
SOLID
  5
897
330
602
100
AcDbEntity
  8
BEM
 62
     0
100
AcDbTrace
 10
322.3407206718755
 20
492.9577267999762
 30
0.0
 11
322.4628379031091
 21
490.6275912188822
 31
0.0
 12
329.3921860307744
 22
492.1590107031298
 32
0.0
 13
329.3921860307744
 23
492.1590107031298
 33
0.0
  0
SOLID
  5
898
330
602
100
AcDbEntity
  8
BEM
 62
     0
100
AcDbTrace
 10
203.5059291195833
 20
486.7298592731578
 30
0.0
 11
203.6280463508168
 21
484.3997236920637
 31
0.0
 12
196.576580991918
 22
485.1984397889101
 32
0.0
 13
196.576580991918
 23
485.1984397889101
 33
0.0
  0
MTEXT
  5
899
330
602
100
AcDbEntity
  8
BEM
 62
     1
100
AcDbMText
 10
262.644199795767
 20
495.1698172219247
 30
0.0
 40
7.0
 41
0.0
 71
     5
 72
     1
  1
\A1;133
 11
0.9986295347545741
 21
0.0523359562429417
 31
0.0
 73
     1
 44
1.0
  0
POINT
  5
89A
330
602
100
AcDbEntity
  8
Defpoints
 62
     0
100
AcDbPoint
 10
330.9446842616531
 20
462.5355797522766
 30
0.0
  0
POINT
  5
89B
330
602
100
AcDbEntity
  8
Defpoints
 62
     0
100
AcDbPoint
 10
200.62892735155
 20
407.8750649947514
 30
0.0
  0
POINT
  5
89C
330
602
100
AcDbEntity
  8
Defpoints
 62
     0
100
AcDbPoint
 10
196.576580991918
 20
485.1984397889101
 30
0.0
  0
ENDBLK
  5
60D
330
602
100
AcDbEntity
  8
0
100
AcDbBlockEnd
  0
BLOCK
  5
619
330
60F
100
AcDbEntity
  8
0
100
AcDbBlockBegin
  2
*D4
 70
     1
 10
0.0
 20
0.0
 30
0.0
  3
*D4
  1

  0
LINE
  5
90B
330
60F
100
AcDbEntity
  8
BEM
 62
     0
370
    -2
100
AcDbLine
 10
198.62892735155
 20
407.8750649947515
 30
0.0
 11
122.6580598394692
 21
407.8750649947515
 31
0.0
  0
LINE
  5
90C
330
60F
100
AcDbEntity
  8
BEM
 62
     0
370
    -2
100
AcDbLine
 10
157.0663706691793
 20
227.8771909918588
 30
0.0
 11
122.6580598394692
 21
227.8771909918588
 31
0.0
  0
LINE
  5
90D
330
60F
100
AcDbEntity
  8
BEM
 62
     0
370
    -2
100
AcDbLine
 10
124.6580598394692
 20
400.8750649947516
 30
0.0
 11
124.6580598394692
 21
234.8771909918589
 31
0.0
  0
SOLID
  5
90E
330
60F
100
AcDbEntity
  8
BEM
 62
     0
100
AcDbTrace
 10
123.4913931728026
 20
400.8750649947516
 30
0.0
 11
125.8247265061359
 21
400.8750649947516
 31
0.0
 12
124.6580598394692
 22
407.8750649947515
 32
0.0
 13
124.6580598394692
 23
407.8750649947515
 33
0.0
  0
SOLID
  5
90F
330
60F
100
AcDbEntity
  8
BEM
 62
     0
100
AcDbTrace
 10
123.4913931728025
 20
234.8771909918589
 30
0.0
 11
125.8247265061359
 21
234.8771909918589
 31
0.0
 12
124.6580598394692
 22
227.8771909918588
 32
0.0
 13
124.6580598394692
 23
227.8771909918588
 33
0.0
  0
MTEXT
  5
910
330
60F
100
AcDbEntity
  8
BEM
 62
     1
100
AcDbMText
 10
118.1580598394692
 20
317.8761279933052
 30
0.0
 40
7.0
 41
0.0
 71
     5
 72
     1
  1
\A1;180
 11
0.0000000000000001
 21
1.0
 31
0.0
 73
     1
 44
1.0
  0
POINT
  5
911
330
60F
100
AcDbEntity
  8
Defpoints
 62
     0
100
AcDbPoint
 10
200.6289273515501
 20
407.8750649947515
 30
0.0
  0
POINT
  5
912
330
60F
100
AcDbEntity
  8
Defpoints
 62
     0
100
AcDbPoint
 10
159.0663706691793
 20
227.8771909918588
 30
0.0
  0
POINT
  5
913
330
60F
100
AcDbEntity
  8
Defpoints
 62
     0
100
AcDbPoint
 10
124.6580598394692
 20
227.8771909918588
 30
0.0
  0
ENDBLK
  5
61A
330
60F
100
AcDbEntity
  8
0
100
AcDbBlockEnd
  0
BLOCK
  5
639
330
62E
100
AcDbEntity
  8
0
100
AcDbBlockBegin
  2
*D5
 70
     1
 10
0.0
 20
0.0
 30
0.0
  3
*D5
  1

  0
LINE
  5
8B9
330
62E
100
AcDbEntity
  8
BEM
 62
     0
370
    -2
100
AcDbLine
 10
200.62892735155
 20
409.8750649947515
 30
0.0
 11
200.6289273515502
 21
471.2374157349266
 31
0.0
  0
ARC
  5
8BA
330
62E
100
AcDbEntity
  8
BEM
 62
     0
370
    -2
100
AcDbCircle
 10
200.62892735155
 20
407.8750649947515
 30
0.0
 40
61.36235074017517
100
AcDbArc
 50
9.539649179673068
 51
83.46035082032656
  0
SOLID
  5
8BB
330
62E
100
AcDbEntity
  8
BEM
 62
     0
100
AcDbTrace
 10
262.302395788221
 20
418.1720651890453
 30
0.0
 11
259.9830190308418
 21
417.9172399513364
 31
0.0
 12
261.9071831226582
 22
411.0865222980532
 32
0.0
 13
261.9071831226582
 23
411.0865222980532
 33
0.0
  0
SOLID
  5
8BC
330
62E
100
AcDbEntity
  8
BEM
 62
     0
100
AcDbTrace
 10
207.5509867114018
 20
467.6733807833347
 30
0.0
 11
207.6840759194937
 21
470.0029154379672
 31
0.0
 12
200.6289273515502
 22
469.2374157349266
 32
0.0
 13
200.6289273515502
 23
469.2374157349266
 33
0.0
  0
MTEXT
  5
8BD
330
62E
100
AcDbEntity
  8
BEM
 62
     1
100
AcDbMText
 10
232.0756640526103
 20
468.0115879973058
 30
0.0
 40
7.0
 41
0.0
 71
     5
 72
     1
  1
\A1;87°
 11
0.8861544338892603
 21
-0.4633900293472067
 31
0.0
 73
     1
 44
1.0
  0
POINT
  5
8BE
330
62E
100
AcDbEntity
  8
Defpoints
 62
     0
100
AcDbPoint
 10
252.6671520724386
 20
440.3921567506047
 30
0.0
  0
POINT
  5
8BF
330
62E
100
AcDbEntity
  8
Defpoints
 62
     0
100
AcDbPoint
 10
200.62892735155
 20
407.8750649947515
 30
0.0
  0
POINT
  5
8C0
330
62E
100
AcDbEntity
  8
Defpoints
 62
     0
100
AcDbPoint
 10
200.62892735155
 20
407.8750649947515
 30
0.0
  0
POINT
  5
8C1
330
62E
100
AcDbEntity
  8
Defpoints
 62
     0
100
AcDbPoint
 10
338.4376800641789
 20
415.0973156901856
 30
0.0
  0
POINT
  5
8C2
330
62E
100
AcDbEntity
  8
Defpoints
 62
     0
100
AcDbPoint
 10
200.6289273515497
 20
222.8771909918588
 30
0.0
  0
ENDBLK
  5
63A
330
62E
100
AcDbEntity
  8
0
100
AcDbBlockEnd
  0
BLOCK
  5
7A4
330
79A
100
AcDbEntity
  8
0
100
AcDbBlockBegin
  2
*D7
 70
     1
 10
0.0
 20
0.0
 30
0.0
  3
*D7
  1

  0
LINE
  5
86F
330
79A
100
AcDbEntity
  8
BEM
 62
     0
370
    -2
100
AcDbLine
 10
156.1289273515498
 20
297.8667698001408
 30
0.0
 11
156.1289273515498
 21
188.2211833566125
 31
0.0
  0
LINE
  5
870
330
79A
100
AcDbEntity
  8
BEM
 62
     0
370
    -2
100
AcDbLine
 10
245.1289273515499
 20
297.8667698001406
 30
0.0
 11
245.1289273515499
 21
188.2211833566125
 31
0.0
  0
LINE
  5
871
330
79A
100
AcDbEntity
  8
BEM
 62
     0
370
    -2
100
AcDbLine
 10
163.1289273515498
 20
190.2211833566125
 30
0.0
 11
238.1289273515499
 21
190.2211833566125
 31
0.0
  0
SOLID
  5
872
330
79A
100
AcDbEntity
  8
BEM
 62
     0
100
AcDbTrace
 10
163.1289273515498
 20
191.3878500232791
 30
0.0
 11
163.1289273515498
 21
189.0545166899458
 31
0.0
 12
156.1289273515498
 22
190.2211833566125
 32
0.0
 13
156.1289273515498
 23
190.2211833566125
 33
0.0
  0
SOLID
  5
873
330
79A
100
AcDbEntity
  8
BEM
 62
     0
100
AcDbTrace
 10
238.1289273515499
 20
191.3878500232791
 30
0.0
 11
238.1289273515499
 21
189.0545166899458
 31
0.0
 12
245.1289273515499
 22
190.2211833566125
 32
0.0
 13
245.1289273515499
 23
190.2211833566125
 33
0.0
  0
MTEXT
  5
874
330
79A
100
AcDbEntity
  8
BEM
 62
     1
100
AcDbMText
 10
200.6289273515498
 20
196.7211833566125
 30
0.0
 40
7.0
 41
0.0
 71
     5
 72
     1
  1
\A1;%%c89
 73
     1
 44
1.0
  0
POINT
  5
875
330
79A
100
AcDbEntity
  8
Defpoints
 62
     0
100
AcDbPoint
 10
156.1289273515498
 20
299.8667698001408
 30
0.0
  0
POINT
  5
876
330
79A
100
AcDbEntity
  8
Defpoints
 62
     0
100
AcDbPoint
 10
245.1289273515499
 20
299.8667698001406
 30
0.0
  0
POINT
  5
877
330
79A
100
AcDbEntity
  8
Defpoints
 62
     0
100
AcDbPoint
 10
245.1289273515499
 20
190.2211833566125
 30
0.0
  0
ENDBLK
  5
7A5
330
79A
100
AcDbEntity
  8
0
100
AcDbBlockEnd
  0
BLOCK
  5
7F9
330
7F3
100
AcDbEntity
  8
0
100
AcDbBlockBegin
  2
*D8
 70
     1
 10
0.0
 20
0.0
 30
0.0
  3
*D8
  1

  0
LINE
  5
86A
330
7F3
100
AcDbEntity
  8
BEM
 62
     0
370
    -2
100
AcDbLine
 10
241.4407303840719
 20
367.4777736573829
 30
0.0
 11
220.4851994853788
 21
385.5418310421003
 31
0.0
  0
MTEXT
  5
86B
330
7F3
100
AcDbEntity
  8
BEM
 62
     1
100
AcDbMText
 10
237.8579311207287
 20
379.1478776507655
 30
0.0
 40
7.0
 41
0.0
 71
     5
 72
     1
  1
\A1;R60
 11
0.7574288276636057
 21
-0.652917736797015
 31
0.0
 73
     1
 44
1.0
  0
SOLID
  5
86C
330
7F3
100
AcDbEntity
  8
BEM
 62
     0
100
AcDbTrace
 10
221.2469368449753
 20
386.4254980077078
 30
0.0
 11
219.7234621257823
 21
384.6581640764927
 31
0.0
 12
215.1831976917336
 22
390.1122551996794
 32
0.0
 13
215.1831976917336
 23
390.1122551996794
 33
0.0
  0
POINT
  5
86D
330
7F3
100
AcDbEntity
  8
Defpoints
 62
     0
100
AcDbPoint
 10
215.1831976917336
 20
390.1122551996794
 30
0.0
  0
POINT
  5
86E
330
7F3
100
AcDbEntity
  8
Defpoints
 62
     0
100
AcDbPoint
 10
260.6289273515499
 20
350.9371909918585
 30
0.0
  0
ENDBLK
  5
7FA
330
7F3
100
AcDbEntity
  8
0
100
AcDbBlockEnd
  0
ENDSEC
  0
SECTION
  2
ENTITIES
  0
LINE
  5
57
330
1E
100
AcDbEntity
  8
STEMPEL
100
AcDbLine
 10
410.0
 20
110.0
 30
0.0
 11
39.99999999999997
 21
110.0
 31
0.0
  0
LINE
  5
58
330
1E
100
AcDbEntity
  8
STEMPEL
100
AcDbLine
 10
136.0000000000001
 20
109.9999999999999
 30
0.0
 11
136.0
 21
9.999999999999971
 31
0.0
  0
LINE
  5
59
330
1E
100
AcDbEntity
  8
STEMPEL
100
AcDbLine
 10
220.0
 20
110.0
 30
0.0
 11
220.0
 21
9.999999999999971
 31
0.0
  0
LINE
  5
5A
330
1E
100
AcDbEntity
  8
STEMPEL
100
AcDbLine
 10
332.0
 20
109.9999999999997
 30
0.0
 11
332.0
 21
40.0
 31
0.0
  0
LINE
  5
5B
330
1E
100
AcDbEntity
  8
STEMPEL
100
AcDbLine
 10
135.9999999999999
 20
29.99999999999997
 30
0.0
 11
39.99999999999997
 21
29.99999999999997
 31
0.0
  0
LINE
  5
5C
330
1E
100
AcDbEntity
  8
STEMPEL
100
AcDbLine
 10
410.0
 20
40.0
 30
0.0
 11
136.0000000000001
 21
39.99999999999997
 31
0.0
  0
LINE
  5
5D
330
1E
100
AcDbEntity
  8
STEMPEL
100
AcDbLine
 10
410.0
 20
80.0
 30
0.0
 11
136.0000000000001
 21
79.99999999999994
 31
0.0
  0
LINE
  5
5E
330
1E
100
AcDbEntity
  8
VOLL
100
AcDbLine
 10
54.00000000000009
 20
110.0
 30
0.0
 11
53.99999999999997
 21
9.999999999999971
 31
0.0
  0
LINE
  5
5F
330
1E
100
AcDbEntity
  8
VOLL
100
AcDbLine
 10
94.00000000000011
 20
109.9999999999999
 30
0.0
 11
94.0
 21
9.999999999999971
 31
0.0
  0
LINE
  5
60
330
1E
100
AcDbEntity
  8
VOLL
100
AcDbLine
 10
114.0000000000001
 20
109.9999999999999
 30
0.0
 11
114.0
 21
9.999999999999971
 31
0.0
  0
LINE
  5
61
330
1E
100
AcDbEntity
  8
VOLL
100
AcDbLine
 10
154.0000000000001
 20
79.99999999999994
 30
0.0
 11
154.0000000000001
 21
39.99999999999997
 31
0.0
  0
LINE
  5
62
330
1E
100
AcDbEntity
  8
VOLL
100
AcDbLine
 10
180.0000000000001
 20
109.9999999999998
 30
0.0
 11
180.0
 21
39.99999999999997
 31
0.0
  0
LINE
  5
63
330
1E
100
AcDbEntity
  8
HILF
100
AcDbLine
 10
40.00000000000008
 20
100.0
 30
0.0
 11
136.0000000000001
 21
100.0
 31
0.0
  0
LINE
  5
64
330
1E
100
AcDbEntity
  8
HILF
100
AcDbLine
 10
40.00000000000008
 20
90.00000000000005
 30
0.0
 11
136.0000000000001
 21
90.00000000000005
 31
0.0
  0
LINE
  5
65
330
1E
100
AcDbEntity
  8
HILF
100
AcDbLine
 10
40.00000000000008
 20
79.99999999999994
 30
0.0
 11
136.0000000000001
 21
79.99999999999994
 31
0.0
  0
LINE
  5
66
330
1E
100
AcDbEntity
  8
HILF
100
AcDbLine
 10
40.00000000000008
 20
69.99999999999994
 30
0.0
 11
136.0000000000001
 21
69.99999999999994
 31
0.0
  0
LINE
  5
67
330
1E
100
AcDbEntity
  8
HILF
100
AcDbLine
 10
40.00000000000008
 20
59.99999999999997
 30
0.0
 11
136.0000000000001
 21
59.99999999999997
 31
0.0
  0
LINE
  5
68
330
1E
100
AcDbEntity
  8
HILF
100
AcDbLine
 10
40.00000000000008
 20
49.99999999999997
 30
0.0
 11
136.0000000000001
 21
49.99999999999997
 31
0.0
  0
LINE
  5
69
330
1E
100
AcDbEntity
  8
HILF
100
AcDbLine
 10
40.00000000000008
 20
39.99999999999997
 30
0.0
 11
136.0000000000001
 21
39.99999999999997
 31
0.0
  0
LINE
  5
6A
330
1E
100
AcDbEntity
  8
HILF
100
AcDbLine
 10
136.0000000000001
 20
69.99999999999994
 30
0.0
 11
220.0
 21
69.99999999999994
 31
0.0
  0
LINE
  5
6B
330
1E
100
AcDbEntity
  8
HILF
100
AcDbLine
 10
136.0000000000001
 20
59.99999999999997
 30
0.0
 11
220.0
 21
59.99999999999997
 31
0.0
  0
LINE
  5
6C
330
1E
100
AcDbEntity
  8
HILF
100
AcDbLine
 10
136.0000000000001
 20
49.99999999999997
 30
0.0
 11
220.0
 21
49.99999999999997
 31
0.0
  0
LINE
  5
6D
330
1E
100
AcDbEntity
  8
HILF
100
AcDbLine
 10
224.7736801096948
 20
84.03758247564139
 30
0.0
 11
324.8353916556311
 21
84.03758247564139
 31
0.0
  0
LINE
  5
6E
330
1E
100
AcDbEntity
  8
HILF
100
AcDbLine
 10
224.7736801096948
 20
69.99999999999994
 30
0.0
 11
324.835391655631
 21
69.99999999999994
 31
0.0
  0
LINE
  5
6F
330
1E
100
AcDbEntity
  8
HILF
100
AcDbLine
 10
224.7736801096948
 20
59.99999999999997
 30
0.0
 11
324.835391655631
 21
59.99999999999997
 31
0.0
  0
LINE
  5
70
330
1E
100
AcDbEntity
  8
HILF
100
AcDbLine
 10
224.7736801096948
 20
49.99999999999997
 30
0.0
 11
324.835391655631
 21
49.99999999999997
 31
0.0
  0
LINE
  5
71
330
1E
100
AcDbEntity
  8
VOLL
100
AcDbLine
 10
332.0
 20
60.0
 30
0.0
 11
410.0
 21
60.0
 31
0.0
  0
LINE
  5
72
330
1E
100
AcDbEntity
  8
HILF
100
AcDbLine
 10
336.7238616296993
 20
83.77983636955827
 30
0.0
 11
404.8588839326728
 21
83.77983636955827
 31
0.0
  0
LINE
  5
73
330
1E
100
AcDbEntity
  8
HILF
100
AcDbLine
 10
223.4909699289885
 20
14.89398258028314
 30
0.0
 11
404.8588839326728
 21
14.89398258028314
 31
0.0
  0
TEXT
  5
74
330
1E
100
AcDbEntity
  8
TEXT
100
AcDbText
 10
63.86165979631819
 20
18.67381894984132
 30
0.0
 40
4.0
  1
Änderung
 41
0.8
  7
GREEKS
 72
     1
 11
74.60451693917534
 21
18.67381894984132
 31
0.0
100
AcDbText
  0
TEXT
  5
75
330
1E
100
AcDbEntity
  8
TEXT
100
AcDbText
 10
143.5163572150377
 20
102.4620895087088
 30
0.0
 40
5.0
  1
Maßstab
 41
0.8
  7
GREEKS
100
AcDbText
  0
TEXT
  5
76
330
1E
100
AcDbEntity
  8
TEXT
100
AcDbText
 10
184.2858954734051
 20
102.4184168434819
 30
0.0
 40
5.0
  1
Zul. Abw.
 41
0.8
  7
GREEKS
100
AcDbText
  0
TEXT
  5
77
330
1E
100
AcDbEntity
  8
TEXT
100
AcDbText
 10
224.877940380901
 20
102.5489328011779
 30
0.0
 40
5.0
  1
Benennung
 41
0.8
  7
GREEKS
100
AcDbText
  0
TEXT
  5
78
330
1E
100
AcDbEntity
  8
TEXT
100
AcDbText
 10
336.178754957634
 20
102.3132034537136
 30
0.0
 40
5.0
  1
Zeichnungs Nr.
 41
0.8
  7
GREEKS
100
AcDbText
  0
TEXT
  5
79
330
1E
100
AcDbEntity
  8
TEXT
100
AcDbText
 10
224.742238391136
 20
30.84560570193057
 30
0.0
 40
5.0
  1
Bauvorhaben
 41
0.8
  7
GREEKS
100
AcDbText
  0
TEXT
  5
7A
330
1E
100
AcDbEntity
  8
TEXT
100
AcDbText
 10
336.7238616296993
 20
73.1811823709997
 30
0.0
 40
5.0
  1
Ersatz für:
 41
0.8
  7
GREEKS
100
AcDbText
  0
TEXT
  5
7B
330
1E
100
AcDbEntity
  8
TEXT
100
AcDbText
 10
48.26641107045756
 20
13.65465846027192
 30
0.0
 40
4.0
  1
Index
 50
90.0
 41
0.8
  7
GREEKS
100
AcDbText
  0
TEXT
  5
7C
330
1E
100
AcDbEntity
  8
TEXT
100
AcDbText
 10
100.0934676075481
 20
18.6715626933981
 30
0.0
 40
4.0
  1
Tag
 41
0.8
  7
GREEKS
 72
     1
 11
103.8268009408814
 21
18.6715626933981
 31
0.0
100
AcDbText
  0
TEXT
  5
7D
330
1E
100
AcDbEntity
  8
TEXT
100
AcDbText
 10
119.0122744386592
 20
18.59324216966408
 30
0.0
 40
4.0
  1
Name
 41
0.8
  7
GREEKS
 72
     1
 11
125.3360839624688
 21
18.59324216966408
 31
0.0
100
AcDbText
  0
TEXT
  5
7E
330
1E
100
AcDbEntity
  8
TEXT
100
AcDbText
 10
162.3311673153651
 20
73.31880501229926
 30
0.0
 40
4.0
  1
Tag
 41
0.8
  7
GREEKS
100
AcDbText
  0
TEXT
  5
7F
330
1E
100
AcDbEntity
  8
TEXT
100
AcDbText
 10
192.4626584226295
 20
73.30961091915225
 30
0.0
 40
4.0
  1
Name
 41
0.8
  7
GREEKS
100
AcDbText
  0
TEXT
  5
80
330
1E
100
AcDbEntity
  8
TEXT
100
AcDbText
 10
137.5836127167615
 20
63.62990369617964
 30
0.0
 40
4.0
  1
Gez.
 41
0.8
  7
GREEKS
100
AcDbText
  0
TEXT
  5
81
330
1E
100
AcDbEntity
  8
TEXT
100
AcDbText
 10
137.5515086571672
 20
53.68926291428377
 30
0.0
 40
4.0
  1
Gepr.
 41
0.8
  7
GREEKS
100
AcDbText
  0
TEXT
  5
82
330
1E
100
AcDbEntity
  8
TEXT
100
AcDbText
 10
137.6006777387304
 20
43.52946389649807
 30
0.0
 40
4.0
  1
Norm.
 41
0.8
  7
GREEKS
100
AcDbText
  0
LINE
  5
83
330
1E
100
AcDbEntity
  8
STEMPEL
100
AcDbLine
 10
49.99999999999989
 20
10.0
 30
0.0
 11
410.0
 21
10.0
 31
0.0
  0
TEXT
  5
84
330
1E
100
AcDbEntity
  8
TEXT
100
AcDbText
 10
337.2400861497006
 20
52.07416177878602
 30
0.0
 40
5.0
  1
ersetzt durch:
 41
0.8
  7
GREEKS
100
AcDbText
  0
LINE
  5
85
330
1E
100
AcDbEntity
  8
STEMPEL
100
AcDbLine
 10
410.0
 20
10.0
 30
0.0
 11
39.99999999999989
 21
10.0
 31
0.0
  0
LINE
  5
86
330
1E
100
AcDbEntity
  8
STEMPEL
100
AcDbLine
 10
410.0
 20
10.0
 30
0.0
 11
410.0
 21
584.0
 31
0.0
  0
LINE
  5
87
330
1E
100
AcDbEntity
  8
STEMPEL
100
AcDbLine
 10
40.0
 20
10.0
 30
0.0
 11
39.99999999999989
 21
584.0
 31
0.0
  0
LINE
  5
88
330
1E
100
AcDbEntity
  8
STEMPEL
100
AcDbLine
 10
410.0
 20
584.0
 30
0.0
 11
39.99999999999989
 21
584.0
 31
0.0
  0
LINE
  5
89
330
1E
100
AcDbEntity
  8
HILF
100
AcDbLine
 10
0.0
 20
0.0
 30
0.0
 11
-0.0000000000001137
 21
594.0
 31
0.0
  0
LINE
  5
8A
330
1E
100
AcDbEntity
  8
HILF
100
AcDbLine
 10
419.9999999999999
 20
594.0000000000002
 30
0.0
 11
0.0
 21
594.0
 31
0.0
  0
LINE
  5
8B
330
1E
100
AcDbEntity
  8
HILF
100
AcDbLine
 10
420.0
 20
0.0
 30
0.0
 11
0.0
 21
0.0
 31
0.0
  0
LINE
  5
8C
330
1E
100
AcDbEntity
  8
HILF
100
AcDbLine
 10
31.08767135713856
 20
297.0
 30
0.0
 11
0.0000000000001137
 21
297.0
 31
0.0
  0
TEXT
  5
8D
330
1E
100
AcDbEntity
  8
TEXT
100
AcDbText
 10
138.622109822104
 20
73.14025471151666
 30
0.0
 40
4.0
  1
2011
 41
0.8
  7
GREEKS
100
AcDbText
  0
LINE
  5
8E
330
1E
100
AcDbEntity
  8
HILF
100
AcDbLine
 10
420.0
 20
-0.0000000000001137
 30
0.0
 11
419.9999999999999
 21
594.0
 31
0.0
  0
TEXT
  5
8F
330
1E
100
AcDbEntity
  8
VOLL
100
AcDbText
 10
78.07675471698113
 20
31.02594776470585
 30
0.0
 40
1.8
  1

  7
GREEKS
100
AcDbText
  0
TEXT
  5
90
330
1E
100
AcDbEntity
  8
TEXT
100
AcDbText
 10
41.85509950977674
 20
111.6719999999999
 30
0.0
 40
5.0
  1
Erstellt mit AUTOCAD 2004
 41
0.8
  7
GREEKS
100
AcDbText
  0
TEXT
  5
91
330
1E
100
AcDbEntity
  8
TEXT
100
AcDbText
 10
194.4216048581257
 20
63.0896391972351
 30
0.0
 40
4.0
  1
Koeh
 41
0.8
  7
GREEKS
 72
     1
 11
199.6787477152685
 21
63.0896391972351
 31
0.0
100
AcDbText
  0
TEXT
  5
92
330
1E
100
AcDbEntity
  8
TEXT
 62
     1
100
AcDbText
 10
345.3245635471204
 20
88.14901428913959
 30
0.0
 40
7.0
  1
03009080W
 41
0.8
  7
GREEKS
 72
     1
 11
369.3245635471204
 21
88.14901428913959
 31
0.0
100
AcDbText
  0
TEXT
  5
93
330
1E
100
AcDbEntity
  8
TEXT
 62
     1
100
AcDbText
 10
150.5006306481887
 20
88.14901428913959
 30
0.0
 40
7.0
  1
1:2
 41
0.8
  7
GREEKS
100
AcDbText
  0
TEXT
  5
94
330
1E
100
AcDbEntity
  8
TEXT
100
AcDbText
 10
160.398997108236
 20
63.10765040825732
 30
0.0
 40
4.0
  1
07.04.
 41
0.8
  7
GREEKS
 72
     1
 11
167.4085209177598
 21
63.10765040825732
 31
0.0
100
AcDbText
  0
TEXT
  5
95
330
1E
100
AcDbEntity
  8
TEXT
 62
     1
100
AcDbText
 10
226.8935731057402
 20
87.41748789253779
 30
0.0
 40
7.0
  1
Bogen DN80 87°
 41
0.8
  7
GREEKS
100
AcDbText
  0
TEXT
  5
96
330
1E
100
AcDbEntity
  8
TEXT
100
AcDbText
 10
225.1296391125315
 20
71.50334417585288
 30
0.0
 40
5.0
  1
mit Muffe und reduziertem
 41
0.8
  7
GREEKS
100
AcDbText
  0
TEXT
  5
97
330
1E
100
AcDbEntity
  8
TEXT
100
AcDbText
 10
225.1296391125315
 20
62.11580706774856
 30
0.0
 40
5.0
  1
Einschubende
 41
0.8
  7
GREEKS
100
AcDbText
  0
TEXT
  5
98
330
1E
100
AcDbEntity
  8
TEXT
100
AcDbText
 10
225.1296391125315
 20
51.64011943042158
 30
0.0
 40
5.0
  1
EDV-Art.Nr. 03009.080X
 41
0.8
  7
GREEKS
100
AcDbText
  0
TEXT
  5
99
330
1E
100
AcDbEntity
  8
TEXT
100
AcDbText
 10
224.9837501577827
 20
42.62974153022632
 30
0.0
 40
4.0
  1
03009080W.DWG
 41
0.8
  7
GREEKS
100
AcDbText
  0
TEXT
  5
9A
330
1E
100
AcDbEntity
  8
TEXT
100
AcDbText
 10
182.626132208084
 20
90.76363841023022
 30
0.0
 40
4.0
  1
DIN EN1123-2
 41
0.8
  7
GREEKS
 72
     1
 11
199.6166083985602
 21
90.76363841023022
 31
0.0
100
AcDbText
  0
INSERT
  5
9B
330
1E
100
AcDbEntity
  8
STEMPEL
100
AcDbBlockReference
  2
LOGO
 10
140.9955485457794
 20
45.02105276448322
 30
0.0
 41
2.0
 42
2.0
 43
2.0
  0
TEXT
  5
118
330
1E
100
AcDbEntity
  8
BEM
100
AcDbText
 10
417.3022923857165
 20
10.16790107998849
 30
0.0
 40
4.0
  1
Diese Zeichnung ist urheberrechtlich geschützt und bleibt unser Eigentum. Sie darf weder ganz noch teilweise verfielfältigt und nicht an Dritte weitergegeben werden.
 50
90.0
 41
0.8
  7
GREEKS
100
AcDbText
  0
LINE
  5
149
330
1E
100
AcDbEntity
  8
MITTEL
100
AcDbLine
 10
200.6289273515501
 20
407.8750649947515
 30
0.0
 11
200.6289273515497
 21
222.8771909918588
 31
0.0
  0
LINE
  5
14A
330
1E
100
AcDbEntity
  8
MITTEL
100
AcDbLine
 10
200.6289273515501
 20
407.8750649947515
 30
0.0
 11
338.437680064179
 21
415.0973156901857
 31
0.0
  0
TEXT
  5
1E4
330
1E
100
AcDbEntity
  8
TEXT
 62
     1
100
AcDbText
 10
307.2622808299524
 20
424.6528291261505
 30
0.0
 40
7.0
  1
DN80
 50
2.999999999999989
 41
0.8
  7
GREEKS
100
AcDbText
  0
TEXT
  5
489
330
1E
100
AcDbEntity
  8
TEXT
 62
     1
100
AcDbText
 10
234.6057658946468
 20
129.0783465745483
 30
0.0
 40
7.0
  1
und innen beschichtet
 41
0.8
  7
GREEKS
100
AcDbText
  0
TEXT
  5
48A
330
1E
100
AcDbEntity
  8
TEXT
 62
     1
100
AcDbText
 10
186.6560484572489
 20
139.8004583895517
 30
0.0
 40
7.0
  1
Werkstoff: E195 EN10305 feuerverzinkt
 41
0.8
  7
GREEKS
100
AcDbText
  0
TEXT
  5
49B
330
1E
100
AcDbEntity
  8
TEXT
 62
     1
100
AcDbText
 10
267.8664807571268
 20
207.495890225844
 30
0.0
 40
7.0
  1
Rohrende leicht eingezogen
 41
0.8
  7
GREEKS
100
AcDbText
  0
DIMENSION
  5
518
330
1E
100
AcDbEntity
  8
BEM
100
AcDbDimension
  2
*D1
 10
242.6289273515497
 20
206.156488368408
 30
0.0
 11
200.6289273515498
 21
212.6564883684081
 31
0.0
 70
    32
  1
%%c<>
 71
     5
 42
83.99999999999996
  3
Standard
100
AcDbAlignedDimension
 13
158.6289273515497
 23
232.8771909918588
 33
0.0
 14
242.6289273515497
 24
232.8771909918587
 34
0.0
100
AcDbRotatedDimension
1001
ACAD
1000
DSTYLE
1002
{
1070
    40
1040
2.0
1070
    41
1040
3.5
1070
    42
1040
1.0
1070
    43
1040
7.0
1070
    44
1040
1.0
1070
    73
1070
     0
1070
    74
1070
     0
1070
    77
1070
     1
1070
    78
1070
     8
1070
    79
1070
     2
1070
   140
1040
3.5
1070
   141
1040
1.5
1070
   146
1040
0.5142857142857144
1070
   147
1040
1.5
1070
   172
1070
     1
1070
   178
1070
     1
1070
   179
1070
     2
1070
   271
1070
     2
1070
   272
1070
     2
1070
   284
1070
     8
1070
   285
1070
     8
1070
   286
1070
     8
1002
}
  0
LINE
  5
519
330
1E
100
AcDbEntity
  8
STEMPEL
100
AcDbLine
 10
242.6289273515497
 20
232.8771909918587
 30
0.0
 11
242.1914840339201
 21
227.8771909918587
 31
0.0
  0
LINE
  5
51A
330
1E
100
AcDbEntity
  8
HILF
100
AcDbLine
 10
241.0228156114804
 20
232.8771909918587
 30
0.0
 11
160.2350390916191
 21
232.8771909918588
 31
0.0
  0
LINE
  5
51B
330
1E
100
AcDbEntity
  8
STEMPEL
100
AcDbLine
 10
242.6289273515497
 20
287.8771909918586
 30
0.0
 11
242.6289273515497
 21
232.8771909918587
 31
0.0
  0
LINE
  5
51C
330
1E
100
AcDbEntity
  8
STEMPEL
100
AcDbLine
 10
242.1914840339201
 20
227.8771909918587
 30
0.0
 11
159.0663706691793
 21
227.8771909918588
 31
0.0
  0
DIMENSION
  5
51D
330
1E
100
AcDbEntity
  8
BEM
100
AcDbDimension
  2
*D2
 10
141.2410303091939
 20
287.8771909918588
 30
0.0
 11
134.7410303091938
 21
257.8771909918589
 31
0.0
 70
    32
 71
     5
 42
60.0
  3
Standard
100
AcDbAlignedDimension
 13
159.0663706691793
 23
227.8771909918588
 33
0.0
 14
158.6289273515498
 24
287.8771909918588
 34
0.0
 50
90.0
100
AcDbRotatedDimension
1001
ACAD
1000
DSTYLE
1002
{
1070
    40
1040
2.0
1070
    41
1040
3.5
1070
    42
1040
1.0
1070
    43
1040
7.0
1070
    44
1040
1.0
1070
    73
1070
     0
1070
    74
1070
     0
1070
    77
1070
     1
1070
    78
1070
     8
1070
    79
1070
     2
1070
   140
1040
3.5
1070
   141
1040
1.5
1070
   146
1040
0.5142857142857144
1070
   147
1040
1.5
1070
   172
1070
     1
1070
   178
1070
     1
1070
   179
1070
     2
1070
   271
1070
     2
1070
   272
1070
     2
1070
   284
1070
     8
1070
   285
1070
     8
1070
   286
1070
     8
1002
}
  0
LINE
  5
51E
330
1E
100
AcDbEntity
  8
STEMPEL
100
AcDbLine
 10
158.6289273515497
 20
232.8771909918588
 30
0.0
 11
159.0663706691793
 21
227.8771909918588
 31
0.0
  0
LINE
  5
51F
330
1E
100
AcDbEntity
  8
STEMPEL
100
AcDbLine
 10
158.6289273515498
 20
287.8771909918588
 30
0.0
 11
158.6289273515497
 21
232.8771909918588
 31
0.0
  0
LINE
  5
520
330
1E
100
AcDbEntity
  8
HILF
100
AcDbLine
 10
159.94410433496
 20
290.9390531703378
 30
0.0
 11
241.3137503681395
 21
290.9390531703378
 31
0.0
  0
LINE
  5
521
330
1E
100
AcDbEntity
  8
HILF
100
AcDbLine
 10
158.0834300440494
 20
296.8049076216616
 30
0.0
 11
243.1744246590503
 21
296.8049076216616
 31
0.0
  0
ARC
  5
522
330
1E
100
AcDbEntity
  8
STEMPEL
100
AcDbCircle
 10
143.6289273515497
 20
287.8771909918589
 30
0.0
 40
15.0
100
AcDbArc
 50
0.0
 51
23.5564643091013
  0
ARC
  5
523
330
1E
100
AcDbEntity
  8
STEMPEL
100
AcDbCircle
 10
171.1289273515499
 20
299.8667698001409
 30
0.0
 40
15.0
100
AcDbArc
 50
179.9999999999999
 51
203.5564643091013
  0
ARC
  5
524
330
1E
100
AcDbEntity
  8
STEMPEL
100
AcDbCircle
 10
230.1289273515499
 20
299.8667698001407
 30
0.0
 40
15.0
100
AcDbArc
 50
336.4435356908987
 51
0.0
  0
ARC
  5
525
330
1E
100
AcDbEntity
  8
STEMPEL
100
AcDbCircle
 10
257.6289273515499
 20
287.8771909918587
 30
0.0
 40
15.0
100
AcDbArc
 50
156.4435356908985
 51
179.9999999999999
  0
LINE
  5
526
330
1E
100
AcDbEntity
  8
STEMPEL
100
AcDbLine
 10
245.12892735155
 20
350.9371909918586
 30
0.0
 11
245.1289273515499
 21
299.8667698001406
 31
0.0
  0
LINE
  5
527
330
1E
100
AcDbEntity
  8
STEMPEL
100
AcDbLine
 10
156.1289273515498
 20
350.9371909918586
 30
0.0
 11
156.1289273515498
 21
299.8667698001408
 31
0.0
  0
LINE
  5
5B1
330
1E
100
AcDbEntity
  8
STEMPEL
100
AcDbLine
 10
323.5314226656562
 20
363.145984962014
 30
0.0
 11
316.5821360113547
 21
362.7817882808609
 31
0.0
  0
LINE
  5
5B3
330
1E
100
AcDbEntity
  8
STEMPEL
100
AcDbLine
 10
318.1826879376275
 20
465.2059234139314
 30
0.0
 11
311.233401283326
 21
464.8417267327783
 31
0.0
  0
LINE
  5
5B6
330
1E
100
AcDbEntity
  8
STEMPEL
100
AcDbLine
 10
270.5563832037859
 20
366.9787382699722
 30
0.0
 11
259.8177200297846
 21
366.4159487805544
 31
0.0
  0
LINE
  5
5B9
330
1E
100
AcDbEntity
  8
STEMPEL
100
AcDbLine
 10
265.898483098164
 20
455.8567668631292
 30
0.0
 11
255.1598199241625
 21
455.2939773737113
 31
0.0
  0
LINE
  5
5BC
330
1E
100
AcDbEntity
  8
HILF
100
AcDbLine
 10
268.6312233642211
 20
454.7778098631439
 30
0.0
 11
273.1613715155937
 21
368.3374337711392
 31
0.0
  0
LINE
  5
5BD
330
1E
100
AcDbEntity
  8
HILF
100
AcDbLine
 10
273.6308947090272
 20
457.3523735061683
 30
0.0
 11
278.4027693188389
 21
366.2995818196484
 31
0.0
  0
LINE
  5
5BE
330
1E
100
AcDbEntity
  8
HILF
100
AcDbLine
 10
298.7012950783526
 20
459.4082872888847
 30
0.0
 11
303.5507329201001
 21
366.8755009718578
 31
0.0
  0
LINE
  5
5C0
330
1E
100
AcDbEntity
  8
STEMPEL
100
AcDbLine
 10
295.6616402341789
 20
460.5208421056736
 30
0.0
 11
276.4169101431126
 21
459.5122685386993
 31
0.0
  0
ARC
  5
5C3
330
1E
100
AcDbEntity
  8
STEMPEL
100
AcDbCircle
 10
277.044941618028
 20
447.5287141216444
 30
0.0
 40
12.0
100
AcDbArc
 50
92.99999999999995
 51
125.3280641221616
  0
ARC
  5
5C4
330
1E
100
AcDbEntity
  8
STEMPEL
100
AcDbCircle
 10
265.4797954482206
 20
463.845803141166
 30
0.0
 40
8.0
100
AcDbArc
 50
273.0
 51
305.3280641221617
  0
ARC
  5
5C6
330
1E
100
AcDbEntity
  8
STEMPEL
100
AcDbCircle
 10
295.0336087592636
 20
472.5043965227285
 30
0.0
 40
12.0
100
AcDbArc
 50
273.0
 51
298.3077230980242
  0
ARC
  5
5C8
330
1E
100
AcDbEntity
  8
STEMPEL
100
AcDbCircle
 10
312.4736137166433
 20
439.8724148622996
 30
0.0
 40
25.00009324312574
100
AcDbArc
 50
92.84351404565258
 51
118.0329424415661
  0
LINE
  5
5C9
330
1E
100
AcDbEntity
  8
STEMPEL
100
AcDbLine
 10
300.6440232685071
 20
365.4513103970381
 30
0.0
 11
281.3992931774408
 21
364.4427368300639
 31
0.0
  0
ARC
  5
5CC
330
1E
100
AcDbEntity
  8
STEMPEL
100
AcDbCircle
 10
280.7712617025256
 20
376.4262912471187
 30
0.0
 40
12.0
100
AcDbArc
 50
240.6719358778383
 51
273.0
  0
ARC
  5
5CE
330
1E
100
AcDbEntity
  8
STEMPEL
100
AcDbCircle
 10
270.9750708537295
 20
358.9897019919356
 30
0.0
 40
8.0
100
AcDbArc
 50
60.67193587783824
 51
92.99999999999995
  0
ARC
  5
5CF
330
1E
100
AcDbEntity
  8
STEMPEL
100
AcDbCircle
 10
301.2720547434223
 20
353.4677559799833
 30
0.0
 40
12.0
100
AcDbArc
 50
67.69227690198234
 51
92.99999999999995
  0
ARC
  5
5D2
330
1E
100
AcDbEntity
  8
STEMPEL
100
AcDbCircle
 10
315.205550632525
 20
387.7439531481108
 30
0.0
 40
25.00009324312574
100
AcDbArc
 50
247.9670575584374
 51
273.1564859543474
  0
LINE
  5
5D3
330
1E
100
AcDbEntity
  8
STEMPEL
100
AcDbLine
 10
335.9443805191596
 20
367.1356920656653
 30
0.0
 11
330.9446842616529
 21
462.5355797522766
 31
0.0
  0
ARC
  5
5D5
330
1E
100
AcDbEntity
  8
STEMPEL
100
AcDbCircle
 10
319.4701524612039
 20
440.6396368589689
 30
0.0
 40
24.6
100
AcDbArc
 50
68.00000000000718
 51
92.99999999999995
  0
LINE
  5
5D6
330
1E
100
AcDbEntity
  8
STEMPEL
100
AcDbLine
 10
330.9446842616529
 20
462.5355797522766
 30
0.0
 11
328.6854746592356
 21
463.4483596813119
 31
0.0
  0
ARC
  5
5D9
330
1E
100
AcDbEntity
  8
STEMPEL
100
AcDbCircle
 10
322.2439581420799
 20
387.7122715169766
 30
0.0
 40
24.6
100
AcDbArc
 50
273.0
 51
297.9999999999891
  0
LINE
  5
5DA
330
1E
100
AcDbEntity
  8
STEMPEL
100
AcDbLine
 10
335.9443805191596
 20
367.1356920656654
 30
0.0
 11
333.7929585866128
 21
365.9917607326471
 31
0.0
  0
ARC
  5
5DC
330
1E
100
AcDbEntity
  8
MITTEL
100
AcDbCircle
 10
260.6289273515499
 20
350.9371909918585
 30
0.0
 40
60.0
100
AcDbArc
 50
92.99999999999979
 51
179.9999999999999
  0
ARC
  5
5DD
330
1E
100
AcDbEntity
  8
STEMPEL
100
AcDbCircle
 10
260.6289273515499
 20
350.9371909918585
 30
0.0
 40
104.5
100
AcDbArc
 50
92.99999999999979
 51
179.9999999999999
  0
ARC
  5
5DE
330
1E
100
AcDbEntity
  8
STEMPEL
100
AcDbCircle
 10
260.6289273515499
 20
350.9371909918585
 30
0.0
 40
15.5
100
AcDbArc
 50
92.99999999999979
 51
179.9999999999999
  0
LINE
  5
5F3
330
1E
100
AcDbEntity
  8
STEMPEL
100
AcDbLine
 10
156.1289273515499
 20
350.9371909918585
 30
0.0
 11
245.12892735155
 21
350.9371909918585
 31
0.0
  0
DIMENSION
  5
601
330
1E
100
AcDbEntity
  8
BEM
100
AcDbDimension
  2
*D3
 10
196.576580991918
 20
485.1984397889101
 30
0.0
 11
262.644199795767
 21
495.1698172219247
 31
0.0
 70
    32
 71
     5
 42
132.9978740028928
 51
357.0000000000001
  3
Standard
100
AcDbAlignedDimension
 13
330.9446842616531
 23
462.5355797522767
 33
0.0
 14
200.6289273515501
 24
407.8750649947515
 34
0.0
 50
2.99999999999979
100
AcDbRotatedDimension
1001
ACAD
1000
DSTYLE
1002
{
1070
    40
1040
2.0
1070
    41
1040
3.5
1070
    42
1040
1.0
1070
    43
1040
7.0
1070
    44
1040
1.0
1070
    73
1070
     0
1070
    74
1070
     0
1070
    77
1070
     1
1070
    78
1070
     8
1070
    79
1070
     2
1070
   140
1040
3.5
1070
   141
1040
1.5
1070
   146
1040
0.5142857142857144
1070
   147
1040
1.5
1070
   172
1070
     1
1070
   178
1070
     1
1070
   179
1070
     2
1070
   271
1070
     2
1070
   272
1070
     2
1070
   284
1070
     8
1070
   285
1070
     8
1070
   286
1070
     8
1002
}
  0
DIMENSION
  5
60E
330
1E
100
AcDbEntity
  8
BEM
100
AcDbDimension
  2
*D4
 10
124.6580598394692
 20
227.8771909918588
 30
0.0
 11
118.1580598394692
 21
317.8761279933052
 31
0.0
 70
    32
 71
     5
 42
179.9978740028927
  3
Standard
100
AcDbAlignedDimension
 13
200.6289273515501
 23
407.8750649947515
 33
0.0
 14
159.0663706691793
 24
227.8771909918588
 34
0.0
 50
90.0
100
AcDbRotatedDimension
1001
ACAD
1000
DSTYLE
1002
{
1070
    40
1040
2.0
1070
    41
1040
3.5
1070
    42
1040
1.0
1070
    43
1040
7.0
1070
    44
1040
1.0
1070
    73
1070
     0
1070
    74
1070
     0
1070
    77
1070
     1
1070
    78
1070
     8
1070
    79
1070
     2
1070
   140
1040
3.5
1070
   141
1040
1.5
1070
   146
1040
0.5142857142857144
1070
   147
1040
1.5
1070
   172
1070
     1
1070
   178
1070
     1
1070
   179
1070
     2
1070
   271
1070
     2
1070
   272
1070
     2
1070
   284
1070
     8
1070
   285
1070
     8
1070
   286
1070
     8
1002
}
  0
DIMENSION
  5
62D
330
1E
100
AcDbEntity
  8
BEM
100
AcDbDimension
  2
*D5
 10
200.6289273515497
 20
222.8771909918588
 30
0.0
 11
229.0636288618534
 21
462.2515841770256
 31
0.0
 70
   162
 71
     5
 42
1.518436449235069
  3
Standard
100
AcDb2LineAngularDimension
 13
200.6289273515501
 23
407.8750649947515
 33
0.0
 14
338.437680064179
 24
415.0973156901857
 34
0.0
 15
200.6289273515501
 25
407.8750649947515
 35
0.0
 16
252.6671520724386
 26
440.3921567506047
 36
0.0
1001
ACAD
1000
DSTYLE
1002
{
1070
    40
1040
2.0
1070
    41
1040
3.5
1070
    42
1040
1.0
1070
    43
1040
7.0
1070
    44
1040
1.0
1070
    73
1070
     0
1070
    74
1070
     0
1070
    77
1070
     1
1070
    78
1070
     8
1070
    79
1070
     2
1070
   140
1040
3.5
1070
   141
1040
1.5
1070
   146
1040
0.5142857142857144
1070
   147
1040
1.5
1070
   172
1070
     1
1070
   178
1070
     1
1070
   179
1070
     2
1070
   271
1070
     2
1070
   272
1070
     2
1070
   284
1070
     8
1070
   285
1070
     8
1070
   286
1070
     8
1002
}
  0
DIMENSION
  5
799
330
1E
100
AcDbEntity
  8
BEM
100
AcDbDimension
  2
*D7
 10
245.1289273515499
 20
190.2211833566125
 30
0.0
 11
200.6289273515498
 21
196.7211833566125
 31
0.0
 70
    32
  1
%%c<>
 71
     5
 42
89.00000000000011
  3
Standard
100
AcDbAlignedDimension
 13
156.1289273515498
 23
299.8667698001408
 33
0.0
 14
245.1289273515499
 24
299.8667698001406
 34
0.0
100
AcDbRotatedDimension
1001
ACAD
1000
DSTYLE
1002
{
1070
    40
1040
2.0
1070
    41
1040
3.5
1070
    42
1040
1.0
1070
    43
1040
7.0
1070
    44
1040
1.0
1070
    73
1070
     0
1070
    74
1070
     0
1070
    77
1070
     1
1070
    78
1070
     8
1070
    79
1070
     2
1070
   140
1040
3.5
1070
   141
1040
1.5
1070
   146
1040
0.5142857142857144
1070
   147
1040
1.5
1070
   172
1070
     1
1070
   178
1070
     1
1070
   179
1070
     2
1070
   271
1070
     2
1070
   272
1070
     2
1070
   284
1070
     8
1070
   285
1070
     8
1070
   286
1070
     8
1002
}
  0
ARC
  5
7C3
330
1E
100
AcDbEntity
  8
SCHRAFF
100
AcDbCircle
 10
156.1289273515499
 20
350.9371909918586
 30
0.0
 40
5.0
100
AcDbArc
 50
323.1301023541559
 51
36.8698976458435
  0
ARC
  5
7C4
330
1E
100
AcDbEntity
  8
SCHRAFF
100
AcDbCircle
 10
161.12892735155
 20
350.9371909918585
 30
0.0
 40
5.0
100
AcDbArc
 50
323.1301023541559
 51
36.8698976458435
  0
ARC
  5
7C5
330
1E
100
AcDbEntity
  8
SCHRAFF
100
AcDbCircle
 10
166.1289273515499
 20
350.9371909918586
 30
0.0
 40
5.0
100
AcDbArc
 50
323.1301023541559
 51
36.8698976458435
  0
ARC
  5
7C6
330
1E
100
AcDbEntity
  8
SCHRAFF
100
AcDbCircle
 10
171.1289273515499
 20
350.9371909918585
 30
0.0
 40
5.0
100
AcDbArc
 50
323.1301023541559
 51
36.8698976458435
  0
ARC
  5
7C7
330
1E
100
AcDbEntity
  8
SCHRAFF
100
AcDbCircle
 10
176.1289273515499
 20
350.9371909918586
 30
0.0
 40
5.0
100
AcDbArc
 50
323.1301023541559
 51
36.8698976458435
  0
ARC
  5
7C8
330
1E
100
AcDbEntity
  8
SCHRAFF
100
AcDbCircle
 10
181.1289273515499
 20
350.9371909918586
 30
0.0
 40
5.0
100
AcDbArc
 50
323.1301023541559
 51
36.8698976458435
  0
ARC
  5
7C9
330
1E
100
AcDbEntity
  8
SCHRAFF
100
AcDbCircle
 10
186.1289273515498
 20
350.9371909918586
 30
0.0
 40
5.0
100
AcDbArc
 50
323.1301023541559
 51
36.8698976458435
  0
ARC
  5
7CA
330
1E
100
AcDbEntity
  8
SCHRAFF
100
AcDbCircle
 10
191.1289273515498
 20
350.9371909918586
 30
0.0
 40
5.0
100
AcDbArc
 50
323.1301023541559
 51
36.8698976458435
  0
ARC
  5
7CB
330
1E
100
AcDbEntity
  8
SCHRAFF
100
AcDbCircle
 10
196.1289273515498
 20
350.9371909918585
 30
0.0
 40
5.0
100
AcDbArc
 50
323.1301023541559
 51
36.8698976458435
  0
ARC
  5
7CC
330
1E
100
AcDbEntity
  8
SCHRAFF
100
AcDbCircle
 10
201.1289273515499
 20
350.9371909918587
 30
0.0
 40
5.0
100
AcDbArc
 50
323.1301023541559
 51
36.8698976458435
  0
ARC
  5
7CD
330
1E
100
AcDbEntity
  8
SCHRAFF
100
AcDbCircle
 10
206.1289273515498
 20
350.9371909918585
 30
0.0
 40
5.0
100
AcDbArc
 50
323.1301023541559
 51
36.8698976458435
  0
ARC
  5
7CE
330
1E
100
AcDbEntity
  8
SCHRAFF
100
AcDbCircle
 10
211.1289273515498
 20
350.9371909918586
 30
0.0
 40
5.0
100
AcDbArc
 50
323.1301023541559
 51
36.8698976458435
  0
ARC
  5
7CF
330
1E
100
AcDbEntity
  8
SCHRAFF
100
AcDbCircle
 10
216.1289273515497
 20
350.9371909918586
 30
0.0
 40
5.0
100
AcDbArc
 50
323.1301023541559
 51
36.8698976458435
  0
ARC
  5
7D1
330
1E
100
AcDbEntity
  8
SCHRAFF
100
AcDbCircle
 10
221.1289273515497
 20
350.9371909918585
 30
0.0
 40
5.0
100
AcDbArc
 50
323.1301023541559
 51
36.8698976458435
  0
ARC
  5
7D2
330
1E
100
AcDbEntity
  8
SCHRAFF
100
AcDbCircle
 10
226.1289273515497
 20
350.9371909918585
 30
0.0
 40
5.0
100
AcDbArc
 50
323.1301023541559
 51
36.8698976458435
  0
ARC
  5
7D3
330
1E
100
AcDbEntity
  8
SCHRAFF
100
AcDbCircle
 10
231.1289273515497
 20
350.9371909918585
 30
0.0
 40
5.0
100
AcDbArc
 50
323.1301023541559
 51
36.8698976458435
  0
ARC
  5
7D4
330
1E
100
AcDbEntity
  8
SCHRAFF
100
AcDbCircle
 10
236.1289273515497
 20
350.9371909918585
 30
0.0
 40
5.0
100
AcDbArc
 50
323.1301023541559
 51
36.8698976458435
  0
ARC
  5
7D5
330
1E
100
AcDbEntity
  8
SCHRAFF
100
AcDbCircle
 10
158.676349540558
 20
350.9190588820732
 30
0.0
 40
3.921848534013341
100
AcDbArc
 50
129.6848204209192
 51
229.4925967290922
  0
HATCH
  5
7DA
330
1E
100
AcDbEntity
  8
SCHRAFF
100
AcDbHatch
 10
0.0
 20
0.0
 30
0.0
210
0.0
220
0.0
230
1.0
  2
_USER
 70
     0
 71
     0
 91
        1
 92
        7
 72
     1
 73
     1
 93
        3
 10
156.171998428668
 20
353.9371909918586
 42
0.0071781429748548
 10
156.1289273515501
 20
350.9371909918589
 42
0.0
 10
156.1289273515501
 20
347.9371909918586
 42
-0.465286946329818
 97
        0
 75
     0
 76
     0
 52
44.99999999999996
 41
0.1
 77
     0
 78
     1
 53
227.9999999999997
 43
597.4449069823118
 44
629.57556892829
 45
-0.0743144825477391
 46
0.0669130606358862
 79
     0
 47
0.0252324720863775
 98
        1
 10
155.636816802208
 20
350.1411320715408
  0
ARC
  5
7DB
330
1E
100
AcDbEntity
  8
SCHRAFF
100
AcDbCircle
 10
243.2158182848412
 20
351.0378030112845
 30
0.0
 40
3.643320078737537
100
AcDbArc
 50
301.6750067393302
 51
52.73176247978807
  0
HATCH
  5
7DF
330
1E
100
AcDbEntity
  8
SCHRAFF
100
AcDbHatch
 10
0.0
 20
0.0
 30
0.0
210
0.0
220
0.0
230
1.0
  2
_USER
 70
     0
 71
     0
 91
        1
 92
        7
 72
     1
 73
     1
 93
        3
 10
245.12892735155
 20
347.9371909918584
 42
0.0
 10
245.12892735155
 20
350.9371909918583
 42
-0.0487329344018734
 10
245.4220210258045
 20
353.9371909918586
 42
-0.5264416860733585
 97
        0
 75
     0
 76
     0
 52
44.99999999999996
 41
0.1
 77
     0
 78
     1
 53
227.9999999999997
 43
597.4449069823118
 44
629.57556892829
 45
-0.0743144825477391
 46
0.0669130606358862
 79
     0
 47
0.0252324724374494
 98
        1
 10
245.5347683501159
 20
350.4276290461849
  0
DIMENSION
  5
7F2
330
1E
100
AcDbEntity
  8
BEM
100
AcDbDimension
  2
*D8
 10
260.6289273515499
 20
350.9371909918585
 30
0.0
 11
233.613965831548
 21
374.224590270952
 31
0.0
 70
   164
 71
     5
 42
59.99999999999997
  3
Standard
100
AcDbRadialDimension
 15
215.1831976917336
 25
390.1122551996794
 35
0.0
 40
0.0
1001
ACAD
1000
DSTYLE
1002
{
1070
    40
1040
2.0
1070
    41
1040
3.5
1070
    42
1040
1.0
1070
    43
1040
7.0
1070
    44
1040
1.0
1070
    73
1070
     0
1070
    74
1070
     0
1070
    77
1070
     1
1070
    78
1070
     8
1070
    79
1070
     2
1070
   140
1040
3.5
1070
   141
1040
1.5
1070
   146
1040
0.5142857142857144
1070
   147
1040
1.5
1070
   172
1070
     1
1070
   178
1070
     1
1070
   179
1070
     2
1070
   271
1070
     2
1070
   272
1070
     2
1070
   284
1070
     8
1070
   285
1070
     8
1070
   286
1070
     8
1070
   288
1070
     1
1002
}
  0
ENDSEC
  0
SECTION
  2
OBJECTS
  0
DICTIONARY
  5
C
330
0
100
AcDbDictionary
281
     1
  3
ACAD_COLOR
350
DF
  3
ACAD_GROUP
350
D
  3
ACAD_LAYOUT
350
19
  3
ACAD_MATERIAL
350
DE
  3
ACAD_MLINESTYLE
350
16
  3
ACAD_PLOTSETTINGS
350
18
  3
ACAD_PLOTSTYLENAME
350
E
  3
AcDbVariableDictionary
350
EA
  0
DICTIONARY
  5
A0
330
1E
100
AcDbDictionary
280
     1
281
     1
  3
ACAD_LAYOUTSELFREF
360
D4
  0
DICTIONARY
  5
A2
330
1A
100
AcDbDictionary
280
     1
281
     1
  3
ACAD_LAYOUTSELFREF
360
D3
  0
DICTIONARY
  5
DF
102
{ACAD_REACTORS
330
C
102
}
330
C
100
AcDbDictionary
281
     1
  0
DICTIONARY
  5
D
102
{ACAD_REACTORS
330
C
102
}
330
C
100
AcDbDictionary
281
     1
  0
DICTIONARY
  5
19
102
{ACAD_REACTORS
330
C
102
}
330
C
100
AcDbDictionary
281
     1
  3
Layout1
350
1D
  3
Model
350
21
  0
DICTIONARY
  5
DE
102
{ACAD_REACTORS
330
C
102
}
330
C
100
AcDbDictionary
281
     1
  0
DICTIONARY
  5
16
102
{ACAD_REACTORS
330
C
102
}
330
C
100
AcDbDictionary
281
     1
  3
Standard
350
17
  0
DICTIONARY
  5
18
102
{ACAD_REACTORS
330
C
102
}
330
C
100
AcDbDictionary
281
     1
  0
ACDBDICTIONARYWDFLT
  5
E
102
{ACAD_REACTORS
330
C
102
}
330
C
100
AcDbDictionary
281
     1
  3
Normal
350
F
100
AcDbDictionaryWithDefault
340
F
  0
DICTIONARY
  5
EA
102
{ACAD_REACTORS
330
C
102
}
330
C
100
AcDbDictionary
281
     1
  3
DIMASSOC
350
EB
  3
PROJECTNAME
350
EC
  0
XRECORD
  5
D4
102
{ACAD_REACTORS
330
A0
102
}
330
A0
100
AcDbXrecord
280
     1
340
1E
  0
XRECORD
  5
D3
102
{ACAD_REACTORS
330
A2
102
}
330
A2
100
AcDbXrecord
280
     1
340
1A
  0
LAYOUT
  5
1D
102
{ACAD_REACTORS
330
19
102
}
330
19
100
AcDbPlotSettings
  1

  2
\\NT_WORK01\HP LaserJet 5000 PCL 6
  4

  6

 40
0.0
 41
0.0
 42
0.0
 43
0.0
 44
0.0
 45
0.0
 46
0.0
 47
0.0
 48
0.0
 49
0.0
140
0.0
141
0.0
142
1.0
143
1.0
 70
   688
 72
     0
 73
     0
 74
     5
  7

 75
    16
147
1.0
 76
     0
 77
     2
 78
   300
148
0.0
149
0.0
100
AcDbLayout
  1
Layout1
 70
     0
 71
     1
 10
0.0
 20
0.0
 11
12.0
 21
9.0
 12
0.0
 22
0.0
 32
0.0
 14
1.000000000000000E+20
 24
1.000000000000000E+20
 34
1.000000000000000E+20
 15
-1.000000000000000E+20
 25
-1.000000000000000E+20
 35
-1.000000000000000E+20
146
0.0
 13
0.0
 23
0.0
 33
0.0
 16
1.0
 26
0.0
 36
0.0
 17
0.0
 27
1.0
 37
0.0
 76
     0
330
1A
  0
LAYOUT
  5
21
102
{ACAD_REACTORS
330
19
102
}
330
19
100
AcDbPlotSettings
  1

  2
none_device
  4
Letter_(8.50_x_11.00_Inches)
  6

 40
6.349999904632568
 41
6.349999904632568
 42
6.350006103515625
 43
6.350006103515625
 44
215.8999938964844
 45
279.3999938964844
 46
0.0
 47
0.0
 48
0.0
 49
0.0
140
0.0
141
0.0
142
1.0
143
1.0
 70
 11952
 72
     0
 73
     1
 74
     0
  7

 75
     0
147
1.0
 76
     0
 77
     2
 78
   300
148
2299.19079060625
149
89.3907803160642
100
AcDbLayout
  1
Model
 70
     1
 71
     0
 10
0.0
 20
0.0
 11
12.0
 21
9.0
 12
0.0
 22
0.0
 32
0.0
 14
0.0
 24
0.0
 34
0.0
 15
0.0
 25
0.0
 35
0.0
146
0.0
 13
0.0
 23
0.0
 33
0.0
 16
1.0
 26
0.0
 36
0.0
 17
0.0
 27
1.0
 37
0.0
 76
     0
330
1E
  0
MLINESTYLE
  5
17
102
{ACAD_REACTORS
330
16
102
}
330
16
100
AcDbMlineStyle
  2
STANDARD
 70
     0
  3

 62
   256
 51
90.0
 52
90.0
 71
     2
 49
0.5
 62
   256
  6
BYLAYER
 49
-0.5
 62
   256
  6
BYLAYER
  0
ACDBPLACEHOLDER
  5
F
102
{ACAD_REACTORS
330
E
102
}
330
E
  0
DICTIONARYVAR
  5
EB
102
{ACAD_REACTORS
330
EA
102
}
330
EA
100
DictionaryVariables
280
     0
  1
1
  0
DICTIONARYVAR
  5
EC
102
{ACAD_REACTORS
330
EA
102
}
330
EA
100
DictionaryVariables
280
     0
  1

  0
ENDSEC
  0
EOF
