  0
SECTION
  2
HEADER
  9
$ACADVER
  1
AC1018
  9
$ACADMAINTVER
 70
     2
  9
$DWGCODEPAGE
  3
ANSI_1252
  9
$INSBASE
 10
0.0
 20
0.0
 30
0.0
  9
$EXTMIN
 10
-0.0128100481844058
 20
-0.0181170681471485
 30
-0.0000000000000053
  9
$EXTMAX
 10
420.0128212946063
 20
594.0181329738
 30
0.0000000000000099
  9
$LIMMIN
 10
0.0
 20
0.0
  9
$LIMMAX
 10
419.9999999999999
 20
594.0
  9
$ORTHOMODE
 70
     0
  9
$REGENMODE
 70
     1
  9
$FILLMODE
 70
     1
  9
$QTEXTMODE
 70
     0
  9
$MIRRTEXT
 70
     1
  9
$LTSCALE
 40
20.0
  9
$ATTMODE
 70
     1
  9
$TEXTSIZE
 40
3.5
  9
$TRACEWID
 40
0.5
  9
$TEXTSTYLE
  7
STANDARD
  9
$CLAYER
  8
BEM
  9
$CELTYPE
  6
ByLayer
  9
$CECOLOR
 62
   256
  9
$CELTSCALE
 40
1.0
  9
$DISPSILH
 70
     0
  9
$DIMSCALE
 40
2.0
  9
$DIMASZ
 40
3.5
  9
$DIMEXO
 40
1.0
  9
$DIMDLI
 40
7.0
  9
$DIMRND
 40
0.0
  9
$DIMDLE
 40
0.0
  9
$DIMEXE
 40
1.0
  9
$DIMTP
 40
0.0
  9
$DIMTM
 40
0.0
  9
$DIMTXT
 40
3.5
  9
$DIMCEN
 40
1.5
  9
$DIMTSZ
 40
0.0
  9
$DIMTOL
 70
     0
  9
$DIMLIM
 70
     0
  9
$DIMTIH
 70
     0
  9
$DIMTOH
 70
     0
  9
$DIMSE1
 70
     0
  9
$DIMSE2
 70
     0
  9
$DIMTAD
 70
     1
  9
$DIMZIN
 70
     8
  9
$DIMBLK
  1

  9
$DIMASO
 70
     1
  9
$DIMSHO
 70
     0
  9
$DIMPOST
  1

  9
$DIMAPOST
  1

  9
$DIMALT
 70
     0
  9
$DIMALTD
 70
     2
  9
$DIMALTF
 40
25.4
  9
$DIMLFAC
 40
1.0
  9
$DIMTOFL
 70
     1
  9
$DIMTVP
 40
0.0
  9
$DIMTIX
 70
     0
  9
$DIMSOXD
 70
     0
  9
$DIMSAH
 70
     0
  9
$DIMBLK1
  1

  9
$DIMBLK2
  1

  9
$DIMSTYLE
  2
Standard
  9
$DIMCLRD
 70
     0
  9
$DIMCLRE
 70
     0
  9
$DIMCLRT
 70
     1
  9
$DIMTFAC
 40
0.5142857142857144
  9
$DIMGAP
 40
1.5
  9
$DIMJUST
 70
     0
  9
$DIMSD1
 70
     0
  9
$DIMSD2
 70
     0
  9
$DIMTOLJ
 70
     1
  9
$DIMTZIN
 70
     8
  9
$DIMALTZ
 70
     8
  9
$DIMALTTZ
 70
     8
  9
$DIMUPT
 70
     0
  9
$DIMDEC
 70
     2
  9
$DIMTDEC
 70
     2
  9
$DIMALTU
 70
     2
  9
$DIMALTTD
 70
     2
  9
$DIMTXSTY
  7
STANDARD
  9
$DIMAUNIT
 70
     0
  9
$DIMADEC
 70
     2
  9
$DIMALTRND
 40
0.0
  9
$DIMAZIN
 70
     2
  9
$DIMDSEP
 70
    46
  9
$DIMATFIT
 70
     3
  9
$DIMFRAC
 70
     0
  9
$DIMLDRBLK
  1

  9
$DIMLUNIT
 70
     2
  9
$DIMLWD
 70
    -2
  9
$DIMLWE
 70
    -2
  9
$DIMTMOVE
 70
     0
  9
$LUNITS
 70
     2
  9
$LUPREC
 70
     2
  9
$SKETCHINC
 40
1.0
  9
$FILLETRAD
 40
50.0
  9
$AUNITS
 70
     0
  9
$AUPREC
 70
     0
  9
$MENU
  1
ACAD
  9
$ELEVATION
 40
0.0
  9
$PELEVATION
 40
0.0
  9
$THICKNESS
 40
0.0
  9
$LIMCHECK
 70
     0
  9
$CHAMFERA
 40
0.0
  9
$CHAMFERB
 40
0.0
  9
$CHAMFERC
 40
0.0
  9
$CHAMFERD
 40
0.0
  9
$SKPOLY
 70
     0
  9
$TDCREATE
 40
2455397.864709028
  9
$TDUCREATE
 40
2455397.781375695
  9
$TDUPDATE
 40
2455659.307951134
  9
$TDUUPDATE
 40
2455659.224617801
  9
$TDINDWG
 40
0.0566612731
  9
$TDUSRTIMER
 40
0.0566612731
  9
$USRTIMER
 70
     1
  9
$ANGBASE
 50
0.0
  9
$ANGDIR
 70
     0
  9
$PDMODE
 70
     0
  9
$PDSIZE
 40
0.0
  9
$PLINEWID
 40
0.0
  9
$SPLFRAME
 70
     0
  9
$SPLINETYPE
 70
     6
  9
$SPLINESEGS
 70
     8
  9
$HANDSEED
  5
685
  9
$SURFTAB1
 70
     6
  9
$SURFTAB2
 70
     6
  9
$SURFTYPE
 70
     6
  9
$SURFU
 70
     6
  9
$SURFV
 70
     6
  9
$UCSBASE
  2

  9
$UCSNAME
  2

  9
$UCSORG
 10
0.0
 20
0.0
 30
0.0
  9
$UCSXDIR
 10
1.0
 20
0.0
 30
0.0
  9
$UCSYDIR
 10
0.0
 20
1.0
 30
0.0
  9
$UCSORTHOREF
  2

  9
$UCSORTHOVIEW
 70
     0
  9
$UCSORGTOP
 10
0.0
 20
0.0
 30
0.0
  9
$UCSORGBOTTOM
 10
0.0
 20
0.0
 30
0.0
  9
$UCSORGLEFT
 10
0.0
 20
0.0
 30
0.0
  9
$UCSORGRIGHT
 10
0.0
 20
0.0
 30
0.0
  9
$UCSORGFRONT
 10
0.0
 20
0.0
 30
0.0
  9
$UCSORGBACK
 10
0.0
 20
0.0
 30
0.0
  9
$PUCSBASE
  2

  9
$PUCSNAME
  2

  9
$PUCSORG
 10
0.0
 20
0.0
 30
0.0
  9
$PUCSXDIR
 10
1.0
 20
0.0
 30
0.0
  9
$PUCSYDIR
 10
0.0
 20
1.0
 30
0.0
  9
$PUCSORTHOREF
  2

  9
$PUCSORTHOVIEW
 70
     0
  9
$PUCSORGTOP
 10
0.0
 20
0.0
 30
0.0
  9
$PUCSORGBOTTOM
 10
0.0
 20
0.0
 30
0.0
  9
$PUCSORGLEFT
 10
0.0
 20
0.0
 30
0.0
  9
$PUCSORGRIGHT
 10
0.0
 20
0.0
 30
0.0
  9
$PUCSORGFRONT
 10
0.0
 20
0.0
 30
0.0
  9
$PUCSORGBACK
 10
0.0
 20
0.0
 30
0.0
  9
$USERI1
 70
     0
  9
$USERI2
 70
     0
  9
$USERI3
 70
     0
  9
$USERI4
 70
     0
  9
$USERI5
 70
     0
  9
$USERR1
 40
0.0
  9
$USERR2
 40
0.0
  9
$USERR3
 40
0.0
  9
$USERR4
 40
0.0
  9
$USERR5
 40
0.0
  9
$WORLDVIEW
 70
     1
  9
$SHADEDGE
 70
     3
  9
$SHADEDIF
 70
    70
  9
$TILEMODE
 70
     1
  9
$MAXACTVP
 70
    16
  9
$PINSBASE
 10
0.0
 20
0.0
 30
0.0
  9
$PLIMCHECK
 70
     0
  9
$PEXTMIN
 10
1.000000000000000E+20
 20
1.000000000000000E+20
 30
1.000000000000000E+20
  9
$PEXTMAX
 10
-1.000000000000000E+20
 20
-1.000000000000000E+20
 30
-1.000000000000000E+20
  9
$PLIMMIN
 10
0.0
 20
0.0
  9
$PLIMMAX
 10
12.0
 20
9.0
  9
$UNITMODE
 70
     0
  9
$VISRETAIN
 70
     0
  9
$PLINEGEN
 70
     0
  9
$PSLTSCALE
 70
     0
  9
$TREEDEPTH
 70
  3020
  9
$CMLSTYLE
  2
Standard
  9
$CMLJUST
 70
     0
  9
$CMLSCALE
 40
1.0
  9
$PROXYGRAPHICS
 70
     1
  9
$MEASUREMENT
 70
     0
  9
$CELWEIGHT
370
    -1
  9
$ENDCAPS
280
     0
  9
$JOINSTYLE
280
     0
  9
$LWDISPLAY
290
     0
  9
$INSUNITS
 70
     0
  9
$HYPERLINKBASE
  1

  9
$STYLESHEET
  1
monochrome 1.ctb
  9
$XEDIT
290
     1
  9
$CEPSNTYPE
380
     0
  9
$PSTYLEMODE
290
     1
  9
$FINGERPRINTGUID
  2
{D68B0D02-A558-11D7-B632-000102183313}
  9
$VERSIONGUID
  2
{62E3FCDB-FB0C-47BA-A5F7-D7CCB435A768}
  9
$EXTNAMES
290
     1
  9
$PSVPSCALE
 40
0.0
  9
$OLESTARTUP
290
     0
  9
$SORTENTS
280
   127
  9
$INDEXCTL
280
     0
  9
$HIDETEXT
280
     0
  9
$XCLIPFRAME
290
     0
  9
$HALOGAP
280
     0
  9
$OBSCOLOR
 70
   257
  9
$OBSLTYPE
280
     0
  9
$INTERSECTIONDISPLAY
280
     0
  9
$INTERSECTIONCOLOR
 70
   257
  9
$DIMASSOC
280
     1
  9
$PROJECTNAME
  1

  0
ENDSEC
  0
SECTION
  2
CLASSES
  0
CLASS
  1
ACDBDICTIONARYWDFLT
  2
AcDbDictionaryWithDefault
  3
ObjectDBX Classes
 90
        0
 91
        1
280
     0
281
     0
  0
CLASS
  1
DICTIONARYVAR
  2
AcDbDictionaryVar
  3
ObjectDBX Classes
 90
        0
 91
        2
280
     0
281
     0
  0
ENDSEC
  0
SECTION
  2
TABLES
  0
TABLE
  2
VPORT
  5
8
330
0
100
AcDbSymbolTable
 70
     3
  0
VPORT
  5
684
330
8
100
AcDbSymbolTableRecord
100
AcDbViewportTableRecord
  2
*Active
 70
     0
 10
0.0
 20
0.0
 11
1.0
 21
1.0
 12
210.0
 22
297.0
 13
0.0
 23
0.0
 14
1.0
 24
1.0
 15
10.0
 25
10.0
 16
0.0
 26
0.0
 36
1.0
 17
0.0
 27
0.0
 37
0.0
 40
594.0
 41
1.334231805929919
 42
50.0
 43
0.0
 44
0.0
 50
0.0
 51
0.0
 71
     0
 72
  1500
 73
     1
 74
     0
 75
     0
 76
     0
 77
     0
 78
     0
281
     0
 65
     1
110
0.0
120
0.0
130
0.0
111
1.0
121
0.0
131
0.0
112
0.0
122
1.0
132
0.0
 79
     0
146
0.0
  0
ENDTAB
  0
TABLE
  2
LTYPE
  5
5
330
0
100
AcDbSymbolTable
 70
     2
  0
LTYPE
  5
13
330
5
100
AcDbSymbolTableRecord
100
AcDbLinetypeTableRecord
  2
ByBlock
 70
     0
  3

 72
    65
 73
     0
 40
0.0
  0
LTYPE
  5
14
330
5
100
AcDbSymbolTableRecord
100
AcDbLinetypeTableRecord
  2
ByLayer
 70
     0
  3

 72
    65
 73
     0
 40
0.0
  0
LTYPE
  5
15
330
5
100
AcDbSymbolTableRecord
100
AcDbLinetypeTableRecord
  2
Continuous
 70
     0
  3
Solid line
 72
    65
 73
     0
 40
0.0
  0
LTYPE
  5
25
330
5
100
AcDbSymbolTableRecord
100
AcDbLinetypeTableRecord
  2
STRICHPUNKT
 70
     0
  3
__ . __ . __ . __ . __ . __ . __ . __ . __ . __
 72
    65
 73
     4
 40
1.0
 49
0.5
 74
     0
 49
-0.25
 74
     0
 49
0.0
 74
     0
 49
-0.25
 74
     0
  0
ENDTAB
  0
TABLE
  2
LAYER
  5
2
330
0
100
AcDbSymbolTable
 70
     9
  0
LAYER
  5
10
330
2
100
AcDbSymbolTableRecord
100
AcDbLayerTableRecord
  2
0
 70
     0
 62
     7
  6
Continuous
370
    -3
390
F
  0
LAYER
  5
2A
330
2
100
AcDbSymbolTableRecord
100
AcDbLayerTableRecord
  2
VOLL
 70
     0
 62
     1
  6
Continuous
370
    -3
390
F
  0
LAYER
  5
2B
330
2
100
AcDbSymbolTableRecord
100
AcDbLayerTableRecord
  2
HILF
 70
     0
 62
     2
  6
Continuous
370
    -3
390
F
  0
LAYER
  5
2C
330
2
100
AcDbSymbolTableRecord
100
AcDbLayerTableRecord
  2
MITTEL
 70
     0
 62
     2
  6
STRICHPUNKT
370
    -3
390
F
  0
LAYER
  5
2F
330
2
100
AcDbSymbolTableRecord
100
AcDbLayerTableRecord
  2
BEM
 70
     0
 62
     7
  6
Continuous
370
    -3
390
F
  0
LAYER
  5
30
330
2
100
AcDbSymbolTableRecord
100
AcDbLayerTableRecord
  2
STEMPEL
 70
     0
 62
     3
  6
Continuous
370
    -3
390
F
  0
LAYER
  5
31
330
2
100
AcDbSymbolTableRecord
100
AcDbLayerTableRecord
  2
TEXT
 70
     0
 62
     7
  6
Continuous
370
    -3
390
F
  0
LAYER
  5
170
330
2
100
AcDbSymbolTableRecord
100
AcDbLayerTableRecord
  2
Defpoints
 70
     0
 62
     7
  6
Continuous
290
     0
370
    -3
390
F
  0
LAYER
  5
171
330
2
100
AcDbSymbolTableRecord
100
AcDbLayerTableRecord
  2
SCHRAFF
 70
     0
 62
     7
  6
Continuous
370
    -3
390
F
  0
ENDTAB
  0
TABLE
  2
STYLE
  5
3
330
0
100
AcDbSymbolTable
 70
     2
  0
STYLE
  5
11
330
3
100
AcDbSymbolTableRecord
100
AcDbTextStyleTableRecord
  2
STANDARD
 70
     0
 40
0.0
 41
0.8
 50
0.0
 71
     0
 42
3.5
  3
simplex.shx
  4

  0
STYLE
  5
24
330
3
100
AcDbSymbolTableRecord
100
AcDbTextStyleTableRecord
  2
GREEKS
 70
     0
 40
0.0
 41
0.8
 50
0.0
 71
     0
 42
2.5
  3
SIMPLEX.shx
  4

  0
ENDTAB
  0
TABLE
  2
VIEW
  5
6
330
0
100
AcDbSymbolTable
 70
     0
  0
ENDTAB
  0
TABLE
  2
UCS
  5
7
330
0
100
AcDbSymbolTable
 70
     0
  0
ENDTAB
  0
TABLE
  2
APPID
  5
9
330
0
100
AcDbSymbolTable
 70
     1
  0
APPID
  5
12
330
9
100
AcDbSymbolTableRecord
100
AcDbRegAppTableRecord
  2
ACAD
 70
     0
  0
ENDTAB
  0
TABLE
  2
DIMSTYLE
  5
A
330
0
100
AcDbSymbolTable
 70
     1
100
AcDbDimStyleTable
 71
     1
340
9D
  0
DIMSTYLE
105
9D
102
{ACAD_REACTORS
330
1AE
330
1B3
330
397
330
3C7
330
415
330
42A
330
557
102
}
330
A
100
AcDbSymbolTableRecord
100
AcDbDimStyleTableRecord
  2
Standard
 70
     0
340
11
  0
ENDTAB
  0
TABLE
  2
BLOCK_RECORD
  5
1
330
0
100
AcDbSymbolTable
 70
    11
  0
BLOCK_RECORD
  5
1E
102
{ACAD_XDICTIONARY
360
A0
102
}
330
1
100
AcDbSymbolTableRecord
100
AcDbBlockTableRecord
  2
*Model_Space
340
21
  0
BLOCK_RECORD
  5
1A
102
{ACAD_XDICTIONARY
360
A2
102
}
330
1
100
AcDbSymbolTableRecord
100
AcDbBlockTableRecord
  2
*Paper_Space
340
1D
  0
BLOCK_RECORD
  5
22
330
1
100
AcDbSymbolTableRecord
100
AcDbBlockTableRecord
  2
LOGO
340
0
102
{BLKREFS
331
9B
102
}
  0
BLOCK_RECORD
  5
1E5
330
1
100
AcDbSymbolTableRecord
100
AcDbBlockTableRecord
  2
*D1
340
0
  0
BLOCK_RECORD
  5
1F1
330
1
100
AcDbSymbolTableRecord
100
AcDbBlockTableRecord
  2
*D2
340
0
  0
BLOCK_RECORD
  5
398
330
1
100
AcDbSymbolTableRecord
100
AcDbBlockTableRecord
  2
*D4
340
0
  0
BLOCK_RECORD
  5
3C8
330
1
100
AcDbSymbolTableRecord
100
AcDbBlockTableRecord
  2
*D5
340
0
  0
BLOCK_RECORD
  5
416
330
1
100
AcDbSymbolTableRecord
100
AcDbBlockTableRecord
  2
*D6
340
0
  0
BLOCK_RECORD
  5
42B
330
1
100
AcDbSymbolTableRecord
100
AcDbBlockTableRecord
  2
*D7
340
0
  0
BLOCK_RECORD
  5
558
330
1
100
AcDbSymbolTableRecord
100
AcDbBlockTableRecord
  2
*D8
340
0
  0
ENDTAB
  0
ENDSEC
  0
SECTION
  2
BLOCKS
  0
BLOCK
  5
35
330
1E
100
AcDbEntity
  8
0
100
AcDbBlockBegin
  2
*Model_Space
 70
     0
 10
0.0
 20
0.0
 30
0.0
  3
*Model_Space
  1

  0
ENDBLK
  5
36
330
1E
100
AcDbEntity
  8
0
100
AcDbBlockEnd
  0
BLOCK
  5
33
330
1A
100
AcDbEntity
 67
     1
  8
0
100
AcDbBlockBegin
  2
*Paper_Space
 70
     0
 10
0.0
 20
0.0
 30
0.0
  3
*Paper_Space
  1

  0
ENDBLK
  5
34
330
1A
100
AcDbEntity
 67
     1
  8
0
100
AcDbBlockEnd
  0
BLOCK
  5
37
330
22
100
AcDbEntity
  8
0
100
AcDbBlockBegin
  2
LOGO
 70
     0
 10
0.0
 20
0.0
 30
0.0
  3
LOGO
  1

  0
ARC
  5
38
330
22
100
AcDbEntity
  8
0
100
AcDbCircle
 10
11.59973089678112
 20
-9.271599258481501
 30
0.0
 40
4.5
100
AcDbArc
 50
270.0
 51
231.0575587310159
  0
LINE
  5
39
330
22
100
AcDbEntity
  8
0
100
AcDbLine
 10
3.599730896781125
 20
-4.771599258481529
 30
0.0
 11
3.599730896781153
 21
-11.77159925848133
 31
0.0
  0
LINE
  5
3A
330
22
100
AcDbEntity
  8
0
100
AcDbLine
 10
2.599730896781125
 20
-4.771599258481529
 30
0.0
 11
2.599730896781153
 21
-11.77159925848133
 31
0.0
  0
CIRCLE
  5
3B
330
22
100
AcDbEntity
  8
0
100
AcDbCircle
 10
11.59973089678112
 20
-9.271599258481501
 30
0.0
 40
3.5
  0
ARC
  5
3C
330
22
100
AcDbEntity
  8
0
100
AcDbCircle
 10
31.59973089678115
 20
-9.271599258481472
 30
0.0
 40
4.5
100
AcDbArc
 50
270.0
 51
231.0575587310182
  0
LINE
  5
3D
330
22
100
AcDbEntity
  8
0
100
AcDbLine
 10
17.59973089678112
 20
-4.771599258481472
 30
0.0
 11
17.59973089678115
 21
-13.77159925848147
 31
0.0
  0
ARC
  5
3E
330
22
100
AcDbEntity
  8
0
100
AcDbCircle
 10
22.59973089678116
 20
-7.271599258481472
 30
0.0
 40
2.5
100
AcDbArc
 50
293.1161887722295
 51
90.0
  0
CIRCLE
  5
3F
330
22
100
AcDbEntity
  8
0
100
AcDbCircle
 10
31.59973089678115
 20
-9.271599258481472
 30
0.0
 40
3.5
  0
ARC
  5
40
330
22
100
AcDbEntity
  8
0
100
AcDbCircle
 10
4.599730896781153
 20
-11.77159925848133
 30
0.0
 40
1.0
100
AcDbArc
 50
180.0
 51
270.0
  0
ARC
  5
41
330
22
100
AcDbEntity
  8
0
100
AcDbCircle
 10
4.599730896781153
 20
-11.77159925848133
 30
0.0
 40
2.0
100
AcDbArc
 50
179.9999999999992
 51
270.0
  0
LINE
  5
42
330
22
100
AcDbEntity
  8
0
100
AcDbLine
 10
11.59973089678115
 20
-13.77159925848144
 30
0.0
 11
4.599730896781153
 21
-13.77159925848147
 31
0.0
  0
LINE
  5
43
330
22
100
AcDbEntity
  8
0
100
AcDbLine
 10
8.771303772034769
 20
-12.77159925848136
 30
0.0
 11
4.599730896781153
 21
-12.77159925848133
 31
0.0
  0
LINE
  5
44
330
22
100
AcDbEntity
  8
0
100
AcDbLine
 10
31.59973089678115
 20
-13.77159925848147
 30
0.0
 11
23.6715276665056
 21
-13.77159925848144
 31
0.0
  0
LINE
  5
45
330
22
100
AcDbEntity
  8
0
100
AcDbLine
 10
23.56565672307022
 20
-9.51278021337896
 30
0.0
 11
24.4388546544846
 21
-12.77159925848144
 31
0.0
  0
LINE
  5
46
330
22
100
AcDbEntity
  8
0
100
AcDbLine
 10
22.59973089678116
 20
-9.771599258481472
 30
0.0
 11
18.59973089678112
 21
-9.771599258481472
 31
0.0
  0
LINE
  5
47
330
22
100
AcDbEntity
  8
0
100
AcDbLine
 10
18.59973089678115
 20
-13.77159925848144
 30
0.0
 11
17.59973089678115
 21
-13.77159925848144
 31
0.0
  0
LINE
  5
48
330
22
100
AcDbEntity
  8
0
100
AcDbLine
 10
18.59973089678115
 20
-9.771599258481472
 30
0.0
 11
18.59973089678115
 21
-13.77159925848144
 31
0.0
  0
LINE
  5
49
330
22
100
AcDbEntity
  8
0
100
AcDbLine
 10
22.59973089678116
 20
-9.771599258481472
 30
0.0
 11
23.67152766650562
 21
-13.77159925848147
 31
0.0
  0
ARC
  5
4A
330
22
100
AcDbEntity
  8
0
100
AcDbCircle
 10
22.59973089678116
 20
-7.271599258481472
 30
0.0
 40
2.5
100
AcDbArc
 50
270.0
 51
270.0000000000007
  0
LINE
  5
4B
330
22
100
AcDbEntity
  8
0
100
AcDbLine
 10
28.77130377203494
 20
-12.77159925848147
 30
0.0
 11
24.43885465448463
 21
-12.77159925848144
 31
0.0
  0
LINE
  5
4C
330
22
100
AcDbEntity
  8
0
100
AcDbLine
 10
3.599730896781125
 20
-4.771599258481472
 30
0.0
 11
2.599730896781125
 21
-4.771599258481472
 31
0.0
  0
LINE
  5
4D
330
22
100
AcDbEntity
  8
0
100
AcDbLine
 10
22.59973089678116
 20
-8.771599258481472
 30
0.0
 11
18.59973089678115
 21
-8.771599258481472
 31
0.0
  0
LINE
  5
4E
330
22
100
AcDbEntity
  8
0
100
AcDbLine
 10
22.59973089678116
 20
-5.771599258481472
 30
0.0
 11
18.59973089678115
 21
-5.771599258481472
 31
0.0
  0
LINE
  5
4F
330
22
100
AcDbEntity
  8
0
100
AcDbLine
 10
22.59973089678116
 20
-4.771599258481472
 30
0.0
 11
17.59973089678115
 21
-4.771599258481472
 31
0.0
  0
LINE
  5
50
330
22
100
AcDbEntity
  8
0
100
AcDbLine
 10
18.59973089678115
 20
-5.771599258481472
 30
0.0
 11
18.59973089678115
 21
-8.771599258481472
 31
0.0
  0
ARC
  5
51
330
22
100
AcDbEntity
  8
0
100
AcDbCircle
 10
22.59973089678116
 20
-7.271599258481472
 30
0.0
 40
1.5
100
AcDbArc
 50
270.0
 51
90.0
  0
ENDBLK
  5
52
330
22
100
AcDbEntity
  8
0
100
AcDbBlockEnd
  0
BLOCK
  5
1EF
330
1E5
100
AcDbEntity
  8
0
100
AcDbBlockBegin
  2
*D1
 70
     1
 10
0.0
 20
0.0
 30
0.0
  3
*D1
  1

  0
LINE
  5
61E
330
1E5
100
AcDbEntity
  8
BEM
 62
     0
370
    -2
100
AcDbLine
 10
167.3045411198858
 20
264.6701766791973
 30
0.0
 11
167.3045411198858
 21
234.2236218735299
 31
0.0
  0
LINE
  5
61F
330
1E5
100
AcDbEntity
  8
BEM
 62
     0
370
    -2
100
AcDbLine
 10
236.3045411198859
 20
264.6701766791971
 30
0.0
 11
236.3045411198859
 21
234.2236218735299
 31
0.0
  0
LINE
  5
620
330
1E5
100
AcDbEntity
  8
BEM
 62
     0
370
    -2
100
AcDbLine
 10
174.3045411198858
 20
236.2236218735299
 30
0.0
 11
229.3045411198858
 21
236.2236218735299
 31
0.0
  0
SOLID
  5
621
330
1E5
100
AcDbEntity
  8
BEM
 62
     0
100
AcDbTrace
 10
174.3045411198858
 20
237.3902885401966
 30
0.0
 11
174.3045411198858
 21
235.0569552068633
 31
0.0
 12
167.3045411198858
 22
236.2236218735299
 32
0.0
 13
167.3045411198858
 23
236.2236218735299
 33
0.0
  0
SOLID
  5
622
330
1E5
100
AcDbEntity
  8
BEM
 62
     0
100
AcDbTrace
 10
229.3045411198858
 20
237.3902885401966
 30
0.0
 11
229.3045411198858
 21
235.0569552068633
 31
0.0
 12
236.3045411198859
 22
236.2236218735299
 32
0.0
 13
236.3045411198859
 23
236.2236218735299
 33
0.0
  0
MTEXT
  5
623
330
1E5
100
AcDbEntity
  8
BEM
 62
     1
100
AcDbMText
 10
201.8045411198858
 20
242.7236218735299
 30
0.0
 40
7.0
 41
0.0
 71
     5
 72
     1
  1
\A1;%%c69
 73
     1
 44
1.0
  0
POINT
  5
624
330
1E5
100
AcDbEntity
  8
Defpoints
 62
     0
100
AcDbPoint
 10
167.3045411198858
 20
266.6701766791973
 30
0.0
  0
POINT
  5
625
330
1E5
100
AcDbEntity
  8
Defpoints
 62
     0
100
AcDbPoint
 10
236.3045411198859
 20
266.6701766791971
 30
0.0
  0
POINT
  5
626
330
1E5
100
AcDbEntity
  8
Defpoints
 62
     0
100
AcDbPoint
 10
236.3045411198859
 20
236.2236218735299
 30
0.0
  0
ENDBLK
  5
1F0
330
1E5
100
AcDbEntity
  8
0
100
AcDbBlockEnd
  0
BLOCK
  5
1FB
330
1F1
100
AcDbEntity
  8
0
100
AcDbBlockBegin
  2
*D2
 70
     1
 10
0.0
 20
0.0
 30
0.0
  3
*D2
  1

  0
LINE
  5
615
330
1F1
100
AcDbEntity
  8
BEM
 62
     0
370
    -2
100
AcDbLine
 10
165.7419844375154
 20
261.6701766791972
 30
0.0
 11
148.8801206445654
 21
261.6701766791972
 31
0.0
  0
LINE
  5
616
330
1F1
100
AcDbEntity
  8
BEM
 62
     0
370
    -2
100
AcDbLine
 10
165.3045411198858
 20
321.6701766791972
 30
0.0
 11
148.8801206445655
 21
321.6701766791972
 31
0.0
  0
LINE
  5
617
330
1F1
100
AcDbEntity
  8
BEM
 62
     0
370
    -2
100
AcDbLine
 10
150.8801206445654
 20
268.6701766791972
 30
0.0
 11
150.8801206445654
 21
314.6701766791972
 31
0.0
  0
SOLID
  5
618
330
1F1
100
AcDbEntity
  8
BEM
 62
     0
100
AcDbTrace
 10
149.7134539778988
 20
268.6701766791972
 30
0.0
 11
152.0467873112321
 21
268.6701766791972
 31
0.0
 12
150.8801206445654
 22
261.6701766791972
 32
0.0
 13
150.8801206445654
 23
261.6701766791972
 33
0.0
  0
SOLID
  5
619
330
1F1
100
AcDbEntity
  8
BEM
 62
     0
100
AcDbTrace
 10
149.7134539778988
 20
314.6701766791972
 30
0.0
 11
152.0467873112321
 21
314.6701766791972
 31
0.0
 12
150.8801206445655
 22
321.6701766791972
 32
0.0
 13
150.8801206445655
 23
321.6701766791972
 33
0.0
  0
MTEXT
  5
61A
330
1F1
100
AcDbEntity
  8
BEM
 62
     1
100
AcDbMText
 10
144.3801206445654
 20
291.6701766791973
 30
0.0
 40
7.0
 41
0.0
 71
     5
 72
     1
  1
\A1;60
 11
0.0000000000000001
 21
1.0
 31
0.0
 73
     1
 44
1.0
  0
POINT
  5
61B
330
1F1
100
AcDbEntity
  8
Defpoints
 62
     0
100
AcDbPoint
 10
167.7419844375154
 20
261.6701766791972
 30
0.0
  0
POINT
  5
61C
330
1F1
100
AcDbEntity
  8
Defpoints
 62
     0
100
AcDbPoint
 10
167.3045411198858
 20
321.6701766791972
 30
0.0
  0
POINT
  5
61D
330
1F1
100
AcDbEntity
  8
Defpoints
 62
     0
100
AcDbPoint
 10
150.8801206445655
 20
321.6701766791972
 30
0.0
  0
ENDBLK
  5
1FC
330
1F1
100
AcDbEntity
  8
0
100
AcDbBlockEnd
  0
BLOCK
  5
3A2
330
398
100
AcDbEntity
  8
0
100
AcDbBlockBegin
  2
*D4
 70
     1
 10
0.0
 20
0.0
 30
0.0
  3
*D4
  1

  0
LINE
  5
67A
330
398
100
AcDbEntity
  8
BEM
 62
     0
370
    -2
100
AcDbLine
 10
165.7419844375154
 20
261.6701766791972
 30
0.0
 11
131.8140612192287
 21
261.6701766791972
 31
0.0
  0
LINE
  5
67B
330
398
100
AcDbEntity
  8
BEM
 62
     0
370
    -2
100
AcDbLine
 10
199.804541119886
 20
411.6701766791972
 30
0.0
 11
131.8140612192288
 21
411.6701766791972
 31
0.0
  0
LINE
  5
67C
330
398
100
AcDbEntity
  8
BEM
 62
     0
370
    -2
100
AcDbLine
 10
133.8140612192287
 20
268.6701766791972
 30
0.0
 11
133.8140612192288
 21
404.6701766791972
 31
0.0
  0
SOLID
  5
67D
330
398
100
AcDbEntity
  8
BEM
 62
     0
100
AcDbTrace
 10
132.6473945525621
 20
268.6701766791972
 30
0.0
 11
134.9807278858954
 21
268.6701766791972
 31
0.0
 12
133.8140612192287
 22
261.6701766791972
 32
0.0
 13
133.8140612192287
 23
261.6701766791972
 33
0.0
  0
SOLID
  5
67E
330
398
100
AcDbEntity
  8
BEM
 62
     0
100
AcDbTrace
 10
132.6473945525621
 20
404.6701766791972
 30
0.0
 11
134.9807278858954
 21
404.6701766791972
 31
0.0
 12
133.8140612192288
 22
411.6701766791972
 32
0.0
 13
133.8140612192288
 23
411.6701766791972
 33
0.0
  0
MTEXT
  5
67F
330
398
100
AcDbEntity
  8
BEM
 62
     1
100
AcDbMText
 10
127.3140612192287
 20
336.6701766791973
 30
0.0
 40
7.0
 41
0.0
 71
     5
 72
     1
  1
\A1;150
 11
0.0000000000000001
 21
1.0
 31
0.0
 73
     1
 44
1.0
  0
POINT
  5
680
330
398
100
AcDbEntity
  8
Defpoints
 62
     0
100
AcDbPoint
 10
167.7419844375154
 20
261.6701766791972
 30
0.0
  0
POINT
  5
681
330
398
100
AcDbEntity
  8
Defpoints
 62
     0
100
AcDbPoint
 10
201.804541119886
 20
411.6701766791972
 30
0.0
  0
POINT
  5
682
330
398
100
AcDbEntity
  8
Defpoints
 62
     0
100
AcDbPoint
 10
133.8140612192288
 20
411.6701766791972
 30
0.0
  0
ENDBLK
  5
3A3
330
398
100
AcDbEntity
  8
0
100
AcDbBlockEnd
  0
BLOCK
  5
3CE
330
3C8
100
AcDbEntity
  8
0
100
AcDbBlockBegin
  2
*D5
 70
     1
 10
0.0
 20
0.0
 30
0.0
  3
*D5
  1

  0
LINE
  5
5EB
330
3C8
100
AcDbEntity
  8
BEM
 62
     0
370
    -2
100
AcDbLine
 10
239.2448921822464
 20
373.017761533509
 30
0.0
 11
216.5829169252011
 21
388.8884679416534
 31
0.0
  0
MTEXT
  5
5EC
330
3C8
100
AcDbEntity
  8
BEM
 62
     1
100
AcDbMText
 10
234.5094408809261
 20
384.2695737764591
 30
0.0
 40
7.0
 41
0.0
 71
     5
 72
     1
  1
\A1;R50
 11
0.8191075394112749
 21
-0.5736399906558179
 31
0.0
 73
     1
 44
1.0
  0
SOLID
  5
5ED
330
3C8
100
AcDbEntity
  8
BEM
 62
     0
100
AcDbTrace
 10
217.2521635809662
 20
389.8440934042998
 30
0.0
 11
215.9136702694359
 21
387.9328424790069
 31
0.0
 12
210.8491641493221
 22
392.9039478762441
 32
0.0
 13
210.8491641493221
 23
392.9039478762441
 33
0.0
  0
POINT
  5
5EE
330
3C8
100
AcDbEntity
  8
Defpoints
 62
     0
100
AcDbPoint
 10
210.8491641493221
 20
392.9039478762441
 30
0.0
  0
POINT
  5
5EF
330
3C8
100
AcDbEntity
  8
Defpoints
 62
     0
100
AcDbPoint
 10
251.804541119886
 20
364.2219483434532
 30
0.0
  0
ENDBLK
  5
3CF
330
3C8
100
AcDbEntity
  8
0
100
AcDbBlockEnd
  0
BLOCK
  5
420
330
416
100
AcDbEntity
  8
0
100
AcDbBlockBegin
  2
*D6
 70
     1
 10
0.0
 20
0.0
 30
0.0
  3
*D6
  1

  0
LINE
  5
5E2
330
416
100
AcDbEntity
  8
BEM
 62
     0
370
    -2
100
AcDbLine
 10
312.463846540111
 20
459.2922990374252
 30
0.0
 11
311.4454415104461
 21
478.7246246119313
 31
0.0
  0
LINE
  5
5E3
330
416
100
AcDbEntity
  8
BEM
 62
     0
370
    -2
100
AcDbLine
 10
201.6998692074001
 20
413.6674357487065
 30
0.0
 11
198.6003040831793
 21
472.8106615564789
 31
0.0
  0
LINE
  5
5E4
330
416
100
AcDbEntity
  8
BEM
 62
     0
370
    -2
100
AcDbLine
 10
304.55970667965
 20
476.3610138487216
 30
0.0
 11
205.6953827389472
 21
471.1797541806704
 31
0.0
  0
SOLID
  5
5E5
330
416
100
AcDbEntity
  8
BEM
 62
     0
100
AcDbTrace
 10
304.4986480640332
 20
477.5260816392687
 30
0.0
 11
304.6207652952668
 21
475.1959460581746
 31
0.0
 12
311.550113422932
 22
476.7273655424222
 32
0.0
 13
311.550113422932
 23
476.7273655424222
 33
0.0
  0
SOLID
  5
5E6
330
416
100
AcDbEntity
  8
BEM
 62
     0
100
AcDbTrace
 10
205.6343241233305
 20
472.3448219712174
 30
0.0
 11
205.7564413545641
 21
470.0146863901233
 31
0.0
 12
198.7049759956652
 22
470.8134024869697
 32
0.0
 13
198.7049759956652
 23
470.8134024869697
 33
0.0
  0
MTEXT
  5
5E7
330
416
100
AcDbEntity
  8
BEM
 62
     1
100
AcDbMText
 10
254.7873609937195
 20
480.2614759906007
 30
0.0
 40
7.0
 41
0.0
 71
     5
 72
     1
  1
\A1;113
 11
0.9986295347545739
 21
0.0523359562429426
 31
0.0
 73
     1
 44
1.0
  0
POINT
  5
5E8
330
416
100
AcDbEntity
  8
Defpoints
 62
     0
100
AcDbPoint
 10
312.5685184525969
 20
457.2950399679161
 30
0.0
  0
POINT
  5
5E9
330
416
100
AcDbEntity
  8
Defpoints
 62
     0
100
AcDbPoint
 10
201.804541119886
 20
411.6701766791972
 30
0.0
  0
POINT
  5
5EA
330
416
100
AcDbEntity
  8
Defpoints
 62
     0
100
AcDbPoint
 10
198.7049759956652
 20
470.8134024869697
 30
0.0
  0
ENDBLK
  5
421
330
416
100
AcDbEntity
  8
0
100
AcDbBlockEnd
  0
BLOCK
  5
436
330
42B
100
AcDbEntity
  8
0
100
AcDbBlockBegin
  2
*D7
 70
     1
 10
0.0
 20
0.0
 30
0.0
  3
*D7
  1

  0
LINE
  5
631
330
42B
100
AcDbEntity
  8
BEM
 62
     0
370
    -2
100
AcDbLine
 10
201.804541119886
 20
413.6701766791973
 30
0.0
 11
201.804541119886
 21
461.6240792772365
 31
0.0
  0
ARC
  5
632
330
42B
100
AcDbEntity
  8
BEM
 62
     0
370
    -2
100
AcDbCircle
 10
201.804541119886
 20
411.6701766791972
 30
0.0
 40
47.9539025980392
100
AcDbArc
 50
11.37111015745061
 51
81.62888984254923
  0
SOLID
  5
633
330
42B
100
AcDbEntity
  8
BEM
 62
     0
100
AcDbTrace
 10
249.9746467971962
 20
421.2708441918048
 30
0.0
 11
247.6596388391683
 21
420.978983610855
 31
0.0
 12
249.692724561032
 22
414.1798900272465
 32
0.0
 13
249.692724561032
 23
414.1798900272465
 33
0.0
  0
SOLID
  5
634
330
42B
100
AcDbEntity
  8
BEM
 62
     0
100
AcDbTrace
 10
208.7007202674153
 20
457.9496168929789
 30
0.0
 11
208.8710227083891
 21
460.2767270156511
 31
0.0
 12
201.8045411198861
 22
459.6240792772364
 32
0.0
 13
201.8045411198861
 23
459.6240792772364
 33
0.0
  0
MTEXT
  5
635
330
42B
100
AcDbEntity
  8
BEM
 62
     1
100
AcDbMText
 10
232.0010816032696
 20
456.9845943737028
 30
0.0
 40
7.0
 41
0.0
 71
     5
 72
     1
  1
\A1;87°
 11
0.8321610671139902
 21
-0.5545340011033635
 31
0.0
 73
     1
 44
1.0
  0
POINT
  5
636
330
42B
100
AcDbEntity
  8
Defpoints
 62
     0
100
AcDbPoint
 10
242.4717569214238
 20
437.0818734610609
 30
0.0
  0
POINT
  5
637
330
42B
100
AcDbEntity
  8
Defpoints
 62
     0
100
AcDbPoint
 10
201.804541119886
 20
411.6701766791972
 30
0.0
  0
POINT
  5
638
330
42B
100
AcDbEntity
  8
Defpoints
 62
     0
100
AcDbPoint
 10
201.804541119886
 20
411.6701766791972
 30
0.0
  0
POINT
  5
639
330
42B
100
AcDbEntity
  8
Defpoints
 62
     0
100
AcDbPoint
 10
292.1805140151748
 20
416.4065807191835
 30
0.0
  0
POINT
  5
63A
330
42B
100
AcDbEntity
  8
Defpoints
 62
     0
100
AcDbPoint
 10
201.8045411198858
 20
256.6701766791971
 30
0.0
  0
ENDBLK
  5
437
330
42B
100
AcDbEntity
  8
0
100
AcDbBlockEnd
  0
BLOCK
  5
562
330
558
100
AcDbEntity
  8
0
100
AcDbBlockBegin
  2
*D8
 70
     1
 10
0.0
 20
0.0
 30
0.0
  3
*D8
  1

  0
LINE
  5
5F9
330
558
100
AcDbEntity
  8
BEM
 62
     0
370
    -2
100
AcDbLine
 10
165.3045411198858
 20
341.4876009084687
 30
0.0
 11
165.3045411198858
 21
217.9947732706448
 31
0.0
  0
LINE
  5
5FA
330
558
100
AcDbEntity
  8
BEM
 62
     0
370
    -2
100
AcDbLine
 10
238.3045411198859
 20
341.4876009084687
 30
0.0
 11
238.3045411198859
 21
217.9947732706448
 31
0.0
  0
LINE
  5
5FB
330
558
100
AcDbEntity
  8
BEM
 62
     0
370
    -2
100
AcDbLine
 10
172.3045411198858
 20
219.9947732706448
 30
0.0
 11
231.3045411198859
 21
219.9947732706448
 31
0.0
  0
SOLID
  5
5FC
330
558
100
AcDbEntity
  8
BEM
 62
     0
100
AcDbTrace
 10
172.3045411198858
 20
221.1614399373114
 30
0.0
 11
172.3045411198858
 21
218.8281066039782
 31
0.0
 12
165.3045411198858
 22
219.9947732706448
 32
0.0
 13
165.3045411198858
 23
219.9947732706448
 33
0.0
  0
SOLID
  5
5FD
330
558
100
AcDbEntity
  8
BEM
 62
     0
100
AcDbTrace
 10
231.3045411198859
 20
221.1614399373114
 30
0.0
 11
231.3045411198859
 21
218.8281066039782
 31
0.0
 12
238.3045411198859
 22
219.9947732706448
 32
0.0
 13
238.3045411198859
 23
219.9947732706448
 33
0.0
  0
MTEXT
  5
5FE
330
558
100
AcDbEntity
  8
BEM
 62
     1
100
AcDbMText
 10
201.8045411198859
 20
226.4947732706448
 30
0.0
 40
7.0
 41
0.0
 71
     5
 72
     1
  1
\A1;%%c73
 73
     1
 44
1.0
  0
POINT
  5
5FF
330
558
100
AcDbEntity
  8
Defpoints
 62
     0
100
AcDbPoint
 10
165.3045411198858
 20
343.4876009084687
 30
0.0
  0
POINT
  5
600
330
558
100
AcDbEntity
  8
Defpoints
 62
     0
100
AcDbPoint
 10
238.3045411198859
 20
343.4876009084687
 30
0.0
  0
POINT
  5
601
330
558
100
AcDbEntity
  8
Defpoints
 62
     0
100
AcDbPoint
 10
238.3045411198859
 20
219.9947732706448
 30
0.0
  0
ENDBLK
  5
563
330
558
100
AcDbEntity
  8
0
100
AcDbBlockEnd
  0
ENDSEC
  0
SECTION
  2
ENTITIES
  0
LINE
  5
57
330
1E
100
AcDbEntity
  8
STEMPEL
100
AcDbLine
 10
410.0
 20
110.0
 30
0.0
 11
39.99999999999997
 21
110.0
 31
0.0
  0
LINE
  5
58
330
1E
100
AcDbEntity
  8
STEMPEL
100
AcDbLine
 10
136.0000000000001
 20
109.9999999999999
 30
0.0
 11
136.0
 21
9.999999999999971
 31
0.0
  0
LINE
  5
59
330
1E
100
AcDbEntity
  8
STEMPEL
100
AcDbLine
 10
220.0
 20
110.0
 30
0.0
 11
220.0
 21
9.999999999999971
 31
0.0
  0
LINE
  5
5A
330
1E
100
AcDbEntity
  8
STEMPEL
100
AcDbLine
 10
332.0
 20
109.9999999999997
 30
0.0
 11
332.0
 21
40.0
 31
0.0
  0
LINE
  5
5B
330
1E
100
AcDbEntity
  8
STEMPEL
100
AcDbLine
 10
135.9999999999999
 20
29.99999999999997
 30
0.0
 11
39.99999999999997
 21
29.99999999999997
 31
0.0
  0
LINE
  5
5C
330
1E
100
AcDbEntity
  8
STEMPEL
100
AcDbLine
 10
410.0
 20
40.0
 30
0.0
 11
136.0000000000001
 21
39.99999999999997
 31
0.0
  0
LINE
  5
5D
330
1E
100
AcDbEntity
  8
STEMPEL
100
AcDbLine
 10
410.0
 20
80.0
 30
0.0
 11
136.0000000000001
 21
79.99999999999994
 31
0.0
  0
LINE
  5
5E
330
1E
100
AcDbEntity
  8
VOLL
100
AcDbLine
 10
54.00000000000009
 20
110.0
 30
0.0
 11
53.99999999999997
 21
9.999999999999971
 31
0.0
  0
LINE
  5
5F
330
1E
100
AcDbEntity
  8
VOLL
100
AcDbLine
 10
94.00000000000011
 20
109.9999999999999
 30
0.0
 11
94.0
 21
9.999999999999971
 31
0.0
  0
LINE
  5
60
330
1E
100
AcDbEntity
  8
VOLL
100
AcDbLine
 10
114.0000000000001
 20
109.9999999999999
 30
0.0
 11
114.0
 21
9.999999999999971
 31
0.0
  0
LINE
  5
61
330
1E
100
AcDbEntity
  8
VOLL
100
AcDbLine
 10
154.0000000000001
 20
79.99999999999994
 30
0.0
 11
154.0000000000001
 21
39.99999999999997
 31
0.0
  0
LINE
  5
62
330
1E
100
AcDbEntity
  8
VOLL
100
AcDbLine
 10
180.0000000000001
 20
109.9999999999998
 30
0.0
 11
180.0
 21
39.99999999999997
 31
0.0
  0
LINE
  5
63
330
1E
100
AcDbEntity
  8
HILF
100
AcDbLine
 10
40.00000000000008
 20
100.0
 30
0.0
 11
136.0000000000001
 21
100.0
 31
0.0
  0
LINE
  5
64
330
1E
100
AcDbEntity
  8
HILF
100
AcDbLine
 10
40.00000000000008
 20
90.00000000000005
 30
0.0
 11
136.0000000000001
 21
90.00000000000005
 31
0.0
  0
LINE
  5
65
330
1E
100
AcDbEntity
  8
HILF
100
AcDbLine
 10
40.00000000000008
 20
79.99999999999994
 30
0.0
 11
136.0000000000001
 21
79.99999999999994
 31
0.0
  0
LINE
  5
66
330
1E
100
AcDbEntity
  8
HILF
100
AcDbLine
 10
40.00000000000008
 20
69.99999999999994
 30
0.0
 11
136.0000000000001
 21
69.99999999999994
 31
0.0
  0
LINE
  5
67
330
1E
100
AcDbEntity
  8
HILF
100
AcDbLine
 10
40.00000000000008
 20
59.99999999999997
 30
0.0
 11
136.0000000000001
 21
59.99999999999997
 31
0.0
  0
LINE
  5
68
330
1E
100
AcDbEntity
  8
HILF
100
AcDbLine
 10
40.00000000000008
 20
49.99999999999997
 30
0.0
 11
136.0000000000001
 21
49.99999999999997
 31
0.0
  0
LINE
  5
69
330
1E
100
AcDbEntity
  8
HILF
100
AcDbLine
 10
40.00000000000008
 20
39.99999999999997
 30
0.0
 11
136.0000000000001
 21
39.99999999999997
 31
0.0
  0
LINE
  5
6A
330
1E
100
AcDbEntity
  8
HILF
100
AcDbLine
 10
136.0000000000001
 20
69.99999999999994
 30
0.0
 11
220.0
 21
69.99999999999994
 31
0.0
  0
LINE
  5
6B
330
1E
100
AcDbEntity
  8
HILF
100
AcDbLine
 10
136.0000000000001
 20
59.99999999999997
 30
0.0
 11
220.0
 21
59.99999999999997
 31
0.0
  0
LINE
  5
6C
330
1E
100
AcDbEntity
  8
HILF
100
AcDbLine
 10
136.0000000000001
 20
49.99999999999997
 30
0.0
 11
220.0
 21
49.99999999999997
 31
0.0
  0
LINE
  5
6D
330
1E
100
AcDbEntity
  8
HILF
100
AcDbLine
 10
224.7736801096948
 20
84.03758247564139
 30
0.0
 11
324.8353916556311
 21
84.03758247564139
 31
0.0
  0
LINE
  5
6E
330
1E
100
AcDbEntity
  8
HILF
100
AcDbLine
 10
224.7736801096948
 20
69.99999999999994
 30
0.0
 11
324.835391655631
 21
69.99999999999994
 31
0.0
  0
LINE
  5
6F
330
1E
100
AcDbEntity
  8
HILF
100
AcDbLine
 10
224.7736801096948
 20
59.99999999999997
 30
0.0
 11
324.835391655631
 21
59.99999999999997
 31
0.0
  0
LINE
  5
70
330
1E
100
AcDbEntity
  8
HILF
100
AcDbLine
 10
224.7736801096948
 20
49.99999999999997
 30
0.0
 11
324.835391655631
 21
49.99999999999997
 31
0.0
  0
LINE
  5
71
330
1E
100
AcDbEntity
  8
VOLL
100
AcDbLine
 10
332.0
 20
60.0
 30
0.0
 11
410.0
 21
60.0
 31
0.0
  0
LINE
  5
72
330
1E
100
AcDbEntity
  8
HILF
100
AcDbLine
 10
336.7238616296993
 20
83.77983636955827
 30
0.0
 11
404.8588839326728
 21
83.77983636955827
 31
0.0
  0
LINE
  5
73
330
1E
100
AcDbEntity
  8
HILF
100
AcDbLine
 10
223.4909699289885
 20
14.89398258028314
 30
0.0
 11
404.8588839326728
 21
14.89398258028314
 31
0.0
  0
TEXT
  5
74
330
1E
100
AcDbEntity
  8
TEXT
100
AcDbText
 10
63.86165979631819
 20
18.67381894984132
 30
0.0
 40
4.0
  1
Änderung
 41
0.8
  7
GREEKS
 72
     1
 11
74.60451693917534
 21
18.67381894984132
 31
0.0
100
AcDbText
  0
TEXT
  5
75
330
1E
100
AcDbEntity
  8
TEXT
100
AcDbText
 10
143.5163572150377
 20
102.4620895087088
 30
0.0
 40
5.0
  1
Maßstab
 41
0.8
  7
GREEKS
100
AcDbText
  0
TEXT
  5
76
330
1E
100
AcDbEntity
  8
TEXT
100
AcDbText
 10
184.2858954734051
 20
102.4184168434819
 30
0.0
 40
5.0
  1
Zul. Abw.
 41
0.8
  7
GREEKS
100
AcDbText
  0
TEXT
  5
77
330
1E
100
AcDbEntity
  8
TEXT
100
AcDbText
 10
224.877940380901
 20
102.5489328011779
 30
0.0
 40
5.0
  1
Benennung
 41
0.8
  7
GREEKS
100
AcDbText
  0
TEXT
  5
78
330
1E
100
AcDbEntity
  8
TEXT
100
AcDbText
 10
336.178754957634
 20
102.3132034537136
 30
0.0
 40
5.0
  1
Zeichnungs Nr.
 41
0.8
  7
GREEKS
100
AcDbText
  0
TEXT
  5
79
330
1E
100
AcDbEntity
  8
TEXT
100
AcDbText
 10
224.742238391136
 20
30.84560570193057
 30
0.0
 40
5.0
  1
Bauvorhaben
 41
0.8
  7
GREEKS
100
AcDbText
  0
TEXT
  5
7A
330
1E
100
AcDbEntity
  8
TEXT
100
AcDbText
 10
336.7238616296993
 20
73.1811823709997
 30
0.0
 40
5.0
  1
Ersatz für:
 41
0.8
  7
GREEKS
100
AcDbText
  0
TEXT
  5
7B
330
1E
100
AcDbEntity
  8
TEXT
100
AcDbText
 10
48.26641107045756
 20
13.65465846027192
 30
0.0
 40
4.0
  1
Index
 50
90.0
 41
0.8
  7
GREEKS
100
AcDbText
  0
TEXT
  5
7C
330
1E
100
AcDbEntity
  8
TEXT
100
AcDbText
 10
100.0934676075481
 20
18.6715626933981
 30
0.0
 40
4.0
  1
Tag
 41
0.8
  7
GREEKS
 72
     1
 11
103.8268009408814
 21
18.6715626933981
 31
0.0
100
AcDbText
  0
TEXT
  5
7D
330
1E
100
AcDbEntity
  8
TEXT
100
AcDbText
 10
119.0122744386592
 20
18.59324216966408
 30
0.0
 40
4.0
  1
Name
 41
0.8
  7
GREEKS
 72
     1
 11
125.3360839624688
 21
18.59324216966408
 31
0.0
100
AcDbText
  0
TEXT
  5
7E
330
1E
100
AcDbEntity
  8
TEXT
100
AcDbText
 10
162.3311673153651
 20
73.31880501229926
 30
0.0
 40
4.0
  1
Tag
 41
0.8
  7
GREEKS
100
AcDbText
  0
TEXT
  5
7F
330
1E
100
AcDbEntity
  8
TEXT
100
AcDbText
 10
192.4626584226295
 20
73.30961091915225
 30
0.0
 40
4.0
  1
Name
 41
0.8
  7
GREEKS
100
AcDbText
  0
TEXT
  5
80
330
1E
100
AcDbEntity
  8
TEXT
100
AcDbText
 10
137.5836127167615
 20
63.62990369617964
 30
0.0
 40
4.0
  1
Gez.
 41
0.8
  7
GREEKS
100
AcDbText
  0
TEXT
  5
81
330
1E
100
AcDbEntity
  8
TEXT
100
AcDbText
 10
137.5515086571672
 20
53.68926291428377
 30
0.0
 40
4.0
  1
Gepr.
 41
0.8
  7
GREEKS
100
AcDbText
  0
TEXT
  5
82
330
1E
100
AcDbEntity
  8
TEXT
100
AcDbText
 10
137.6006777387304
 20
43.52946389649807
 30
0.0
 40
4.0
  1
Norm.
 41
0.8
  7
GREEKS
100
AcDbText
  0
LINE
  5
83
330
1E
100
AcDbEntity
  8
STEMPEL
100
AcDbLine
 10
49.99999999999989
 20
10.0
 30
0.0
 11
410.0
 21
10.0
 31
0.0
  0
TEXT
  5
84
330
1E
100
AcDbEntity
  8
TEXT
100
AcDbText
 10
337.2400861497006
 20
52.07416177878602
 30
0.0
 40
5.0
  1
ersetzt durch:
 41
0.8
  7
GREEKS
100
AcDbText
  0
LINE
  5
85
330
1E
100
AcDbEntity
  8
STEMPEL
100
AcDbLine
 10
410.0
 20
10.0
 30
0.0
 11
39.99999999999989
 21
10.0
 31
0.0
  0
LINE
  5
86
330
1E
100
AcDbEntity
  8
STEMPEL
100
AcDbLine
 10
410.0
 20
10.0
 30
0.0
 11
410.0
 21
584.0
 31
0.0
  0
LINE
  5
87
330
1E
100
AcDbEntity
  8
STEMPEL
100
AcDbLine
 10
40.0
 20
10.0
 30
0.0
 11
39.99999999999989
 21
584.0
 31
0.0
  0
LINE
  5
88
330
1E
100
AcDbEntity
  8
STEMPEL
100
AcDbLine
 10
410.0
 20
584.0
 30
0.0
 11
39.99999999999989
 21
584.0
 31
0.0
  0
LINE
  5
89
330
1E
100
AcDbEntity
  8
HILF
100
AcDbLine
 10
0.0
 20
0.0
 30
0.0
 11
-0.0000000000001137
 21
594.0
 31
0.0
  0
LINE
  5
8A
330
1E
100
AcDbEntity
  8
HILF
100
AcDbLine
 10
419.9999999999999
 20
594.0000000000002
 30
0.0
 11
0.0
 21
594.0
 31
0.0
  0
LINE
  5
8B
330
1E
100
AcDbEntity
  8
HILF
100
AcDbLine
 10
420.0
 20
0.0
 30
0.0
 11
0.0
 21
0.0
 31
0.0
  0
LINE
  5
8C
330
1E
100
AcDbEntity
  8
HILF
100
AcDbLine
 10
31.08767135713856
 20
297.0
 30
0.0
 11
0.0000000000001137
 21
297.0
 31
0.0
  0
TEXT
  5
8D
330
1E
100
AcDbEntity
  8
TEXT
100
AcDbText
 10
138.622109822104
 20
73.14025471151666
 30
0.0
 40
4.0
  1
2011
 41
0.8
  7
GREEKS
100
AcDbText
  0
LINE
  5
8E
330
1E
100
AcDbEntity
  8
HILF
100
AcDbLine
 10
420.0
 20
-0.0000000000001137
 30
0.0
 11
419.9999999999999
 21
594.0
 31
0.0
  0
TEXT
  5
8F
330
1E
100
AcDbEntity
  8
VOLL
100
AcDbText
 10
78.07675471698113
 20
31.02594776470585
 30
0.0
 40
1.8
  1

  7
GREEKS
100
AcDbText
  0
TEXT
  5
90
330
1E
100
AcDbEntity
  8
TEXT
100
AcDbText
 10
41.85509950977674
 20
111.6719999999999
 30
0.0
 40
5.0
  1
Erstellt mit AUTOCAD 2004
 41
0.8
  7
GREEKS
100
AcDbText
  0
TEXT
  5
91
330
1E
100
AcDbEntity
  8
TEXT
100
AcDbText
 10
194.4216048581257
 20
63.0896391972351
 30
0.0
 40
4.0
  1
Koeh
 41
0.8
  7
GREEKS
 72
     1
 11
199.6787477152685
 21
63.0896391972351
 31
0.0
100
AcDbText
  0
TEXT
  5
92
330
1E
100
AcDbEntity
  8
TEXT
 62
     1
100
AcDbText
 10
345.3245635471204
 20
88.14901428913959
 30
0.0
 40
7.0
  1
03009070W
 41
0.8
  7
GREEKS
 72
     1
 11
369.3245635471204
 21
88.14901428913959
 31
0.0
100
AcDbText
  0
TEXT
  5
93
330
1E
100
AcDbEntity
  8
TEXT
 62
     1
100
AcDbText
 10
150.5006306481887
 20
88.14901428913959
 30
0.0
 40
7.0
  1
1:2
 41
0.8
  7
GREEKS
100
AcDbText
  0
TEXT
  5
94
330
1E
100
AcDbEntity
  8
TEXT
100
AcDbText
 10
160.398997108236
 20
63.10765040825732
 30
0.0
 40
4.0
  1
07.04.
 41
0.8
  7
GREEKS
 72
     1
 11
167.4085209177598
 21
63.10765040825732
 31
0.0
100
AcDbText
  0
TEXT
  5
95
330
1E
100
AcDbEntity
  8
TEXT
 62
     1
100
AcDbText
 10
226.8935731057402
 20
87.41748789253779
 30
0.0
 40
7.0
  1
Bogen DN70 87°
 41
0.8
  7
GREEKS
100
AcDbText
  0
TEXT
  5
96
330
1E
100
AcDbEntity
  8
TEXT
100
AcDbText
 10
225.1296391125315
 20
71.50334417585288
 30
0.0
 40
5.0
  1
mit Muffe und reduziertem
 41
0.8
  7
GREEKS
100
AcDbText
  0
TEXT
  5
97
330
1E
100
AcDbEntity
  8
TEXT
100
AcDbText
 10
225.1296391125315
 20
62.11580706774856
 30
0.0
 40
5.0
  1
Einschubende
 41
0.8
  7
GREEKS
100
AcDbText
  0
TEXT
  5
98
330
1E
100
AcDbEntity
  8
TEXT
100
AcDbText
 10
225.1296391125315
 20
51.64011943042158
 30
0.0
 40
5.0
  1
EDV-Art.Nr. 03009.070X
 41
0.8
  7
GREEKS
100
AcDbText
  0
TEXT
  5
99
330
1E
100
AcDbEntity
  8
TEXT
100
AcDbText
 10
224.9837501577827
 20
42.62974153022632
 30
0.0
 40
4.0
  1
03009070W.DWG
 41
0.8
  7
GREEKS
100
AcDbText
  0
TEXT
  5
9A
330
1E
100
AcDbEntity
  8
TEXT
100
AcDbText
 10
182.626132208084
 20
90.76363841023022
 30
0.0
 40
4.0
  1
DIN EN1123-2
 41
0.8
  7
GREEKS
 72
     1
 11
199.6166083985602
 21
90.76363841023022
 31
0.0
100
AcDbText
  0
INSERT
  5
9B
330
1E
100
AcDbEntity
  8
STEMPEL
100
AcDbBlockReference
  2
LOGO
 10
140.9955485457794
 20
45.02105276448322
 30
0.0
 41
2.0
 42
2.0
 43
2.0
  0
TEXT
  5
118
330
1E
100
AcDbEntity
  8
BEM
100
AcDbText
 10
417.3022923857165
 20
10.16790107998849
 30
0.0
 40
4.0
  1
Diese Zeichnung ist urheberrechtlich geschützt und bleibt unser Eigentum. Sie darf weder ganz noch teilweise verfielfältigt und nicht an Dritte weitergegeben werden.
 50
90.0
 41
0.8
  7
GREEKS
100
AcDbText
  0
LINE
  5
149
330
1E
100
AcDbEntity
  8
MITTEL
100
AcDbLine
 10
201.804541119886
 20
411.6701766791972
 30
0.0
 11
201.8045411198858
 21
256.6701766791971
 31
0.0
  0
LINE
  5
14A
330
1E
100
AcDbEntity
  8
MITTEL
100
AcDbLine
 10
201.804541119886
 20
411.6701766791972
 30
0.0
 11
319.6428262209256
 21
417.8458195158643
 31
0.0
  0
DIMENSION
  5
1AE
330
1E
100
AcDbEntity
  8
BEM
100
AcDbDimension
  2
*D1
 10
236.3045411198859
 20
236.2236218735299
 30
0.0
 11
201.8045411198858
 21
242.7236218735299
 31
0.0
 70
    32
  1
%%c<>
 71
     5
 42
69.0
  3
Standard
100
AcDbAlignedDimension
 13
167.3045411198858
 23
266.6701766791973
 33
0.0
 14
236.3045411198859
 24
266.6701766791971
 34
0.0
100
AcDbRotatedDimension
1001
ACAD
1000
DSTYLE
1002
{
1070
    40
1040
2.0
1070
    41
1040
3.5
1070
    42
1040
1.0
1070
    43
1040
7.0
1070
    44
1040
1.0
1070
    73
1070
     0
1070
    74
1070
     0
1070
    77
1070
     1
1070
    78
1070
     8
1070
    79
1070
     2
1070
   140
1040
3.5
1070
   141
1040
1.5
1070
   146
1040
0.5142857142857144
1070
   147
1040
1.5
1070
   172
1070
     1
1070
   178
1070
     1
1070
   179
1070
     2
1070
   271
1070
     2
1070
   272
1070
     2
1070
   284
1070
     8
1070
   285
1070
     8
1070
   286
1070
     8
1002
}
  0
LINE
  5
1AF
330
1E
100
AcDbEntity
  8
STEMPEL
100
AcDbLine
 10
236.3045411198859
 20
266.6701766791971
 30
0.0
 11
235.8670978022562
 21
261.6701766791971
 31
0.0
  0
LINE
  5
1B0
330
1E
100
AcDbEntity
  8
HILF
100
AcDbLine
 10
234.6984293798165
 20
266.6701766791971
 30
0.0
 11
168.9106528599552
 21
266.6701766791972
 31
0.0
  0
LINE
  5
1B1
330
1E
100
AcDbEntity
  8
STEMPEL
100
AcDbLine
 10
236.3045411198859
 20
321.6701766791971
 30
0.0
 11
236.3045411198859
 21
266.6701766791971
 31
0.0
  0
LINE
  5
1B2
330
1E
100
AcDbEntity
  8
STEMPEL
100
AcDbLine
 10
235.8670978022562
 20
261.6701766791971
 30
0.0
 11
167.7419844375154
 21
261.6701766791972
 31
0.0
  0
DIMENSION
  5
1B3
330
1E
100
AcDbEntity
  8
BEM
100
AcDbDimension
  2
*D2
 10
150.8801206445655
 20
321.6701766791972
 30
0.0
 11
144.3801206445654
 21
291.6701766791973
 31
0.0
 70
    32
 71
     5
 42
60.0
  3
Standard
100
AcDbAlignedDimension
 13
167.7419844375154
 23
261.6701766791972
 33
0.0
 14
167.3045411198858
 24
321.6701766791972
 34
0.0
 50
90.0
100
AcDbRotatedDimension
1001
ACAD
1000
DSTYLE
1002
{
1070
    40
1040
2.0
1070
    41
1040
3.5
1070
    42
1040
1.0
1070
    43
1040
7.0
1070
    44
1040
1.0
1070
    73
1070
     0
1070
    74
1070
     0
1070
    77
1070
     1
1070
    78
1070
     8
1070
    79
1070
     2
1070
   140
1040
3.5
1070
   141
1040
1.5
1070
   146
1040
0.5142857142857144
1070
   147
1040
1.5
1070
   172
1070
     1
1070
   178
1070
     1
1070
   179
1070
     2
1070
   271
1070
     2
1070
   272
1070
     2
1070
   284
1070
     8
1070
   285
1070
     8
1070
   286
1070
     8
1002
}
  0
LINE
  5
1B4
330
1E
100
AcDbEntity
  8
STEMPEL
100
AcDbLine
 10
167.3045411198858
 20
266.6701766791973
 30
0.0
 11
167.7419844375154
 21
261.6701766791972
 31
0.0
  0
LINE
  5
1B5
330
1E
100
AcDbEntity
  8
STEMPEL
100
AcDbLine
 10
167.3045411198858
 20
321.6701766791972
 30
0.0
 11
167.3045411198858
 21
266.6701766791973
 31
0.0
  0
LINE
  5
1B6
330
1E
100
AcDbEntity
  8
HILF
100
AcDbLine
 10
167.161957757947
 20
338.0103753334171
 30
0.0
 11
236.4471244818247
 21
338.010375333417
 31
0.0
  0
LINE
  5
1B7
330
1E
100
AcDbEntity
  8
HILF
100
AcDbLine
 10
168.6605514204261
 20
327.1474022542489
 30
0.0
 11
234.9485308193457
 21
327.1474022542488
 31
0.0
  0
ARC
  5
1B8
330
1E
100
AcDbEntity
  8
STEMPEL
100
AcDbCircle
 10
225.3045411198858
 20
343.4876009084687
 30
0.0
 40
60.0
100
AcDbArc
 50
179.9999999999999
 51
190.4753138432288
  0
ARC
  5
1B9
330
1E
100
AcDbEntity
  8
STEMPEL
100
AcDbCircle
 10
107.3045411198859
 20
321.6701766791973
 30
0.0
 40
60.0
100
AcDbArc
 50
0.0
 51
10.47531384322892
  0
ARC
  5
1BA
330
1E
100
AcDbEntity
  8
STEMPEL
100
AcDbCircle
 10
178.3045411198859
 20
343.4876009084687
 30
0.0
 40
60.0
100
AcDbArc
 50
349.5246861567711
 51
0.0
  0
ARC
  5
1BB
330
1E
100
AcDbEntity
  8
STEMPEL
100
AcDbCircle
 10
296.3045411198859
 20
321.6701766791971
 30
0.0
 40
60.0
100
AcDbArc
 50
169.524686156771
 51
179.9999999999999
  0
LINE
  5
1BC
330
1E
100
AcDbEntity
  8
STEMPEL
100
AcDbLine
 10
238.3045411198859
 20
364.2219483434533
 30
0.0
 11
238.3045411198859
 21
343.4876009084687
 31
0.0
  0
LINE
  5
1BD
330
1E
100
AcDbEntity
  8
STEMPEL
100
AcDbLine
 10
165.3045411198859
 20
364.2219483434532
 30
0.0
 11
165.3045411198859
 21
343.4876009084687
 31
0.0
  0
TEXT
  5
1E4
330
1E
100
AcDbEntity
  8
TEXT
 62
     1
100
AcDbText
 10
289.3184498505085
 20
422.0793491487572
 30
0.0
 40
7.0
  1
DN70
 50
2.999999999999989
 41
0.8
  7
GREEKS
100
AcDbText
  0
LINE
  5
2EB
330
1E
100
AcDbEntity
  8
STEMPEL
100
AcDbLine
 10
306.3185568293977
 20
374.9897483799731
 30
0.0
 11
297.3181110105061
 21
374.5180550020476
 31
0.0
  0
LINE
  5
2ED
330
1E
100
AcDbEntity
  8
STEMPEL
100
AcDbLine
 10
301.9118693137418
 20
459.0743552063081
 30
0.0
 11
292.9114234948503
 21
458.6026618283827
 31
0.0
  0
LINE
  5
2F0
330
1E
100
AcDbEntity
  8
HILF
100
AcDbLine
 10
282.1903580426057
 20
454.1671975927436
 30
0.0
 11
286.1921444161426
 21
377.8085648041984
 31
0.0
  0
LINE
  5
2F1
330
1E
100
AcDbEntity
  8
HILF
100
AcDbLine
 10
260.2478761894901
 20
452.3735208350251
 30
0.0
 11
264.1823754994148
 21
377.2988017045782
 31
0.0
  0
LINE
  5
2F2
330
1E
100
AcDbEntity
  8
HILF
100
AcDbLine
 10
255.248204844684
 20
449.7989571920007
 30
0.0
 11
258.9409776961698
 21
379.3366536560691
 31
0.0
  0
LINE
  5
2F4
330
1E
100
AcDbEntity
  8
STEMPEL
100
AcDbLine
 10
279.6224000330311
 20
455.4027827549137
 30
0.0
 11
263.0338916235753
 21
454.5334158675561
 31
0.0
  0
ARC
  5
2F6
330
1E
100
AcDbEntity
  8
STEMPEL
100
AcDbCircle
 10
252.0967769286832
 20
458.8669504700227
 30
0.0
 40
8.0
100
AcDbArc
 50
273.0
 51
305.3280641221617
  0
LINE
  5
2F9
330
1E
100
AcDbEntity
  8
STEMPEL
100
AcDbLine
 10
252.5154645786272
 20
450.8779141919881
 30
0.0
 11
247.2774809048714
 21
450.6034030997234
 31
0.0
  0
ARC
  5
2FB
330
1E
100
AcDbEntity
  8
STEMPEL
100
AcDbCircle
 10
263.6619230984906
 20
442.5498614505013
 30
0.0
 40
12.0
100
AcDbArc
 50
92.99999999999997
 51
125.3280641221616
  0
ARC
  5
2FD
330
1E
100
AcDbEntity
  8
STEMPEL
100
AcDbCircle
 10
278.9943685581159
 20
467.3863371719686
 30
0.0
 40
12.0
100
AcDbArc
 50
273.0
 51
294.1831543930364
  0
ARC
  5
2FF
330
1E
100
AcDbEntity
  8
STEMPEL
100
AcDbCircle
 10
294.1516359281661
 20
433.6333499579039
 30
0.0
 40
25.00009324312574
100
AcDbArc
 50
92.84351404564935
 51
114.1831543930364
  0
LINE
  5
301
330
1E
100
AcDbEntity
  8
STEMPEL
100
AcDbLine
 10
283.7674077674724
 20
376.3113236023515
 30
0.0
 11
267.1788993580165
 21
375.4419567149939
 31
0.0
  0
ARC
  5
302
330
1E
100
AcDbEntity
  8
STEMPEL
100
AcDbCircle
 10
256.7546770343052
 20
369.9889218768658
 30
0.0
 40
8.0
100
AcDbArc
 50
60.67193587783828
 51
92.99999999999997
  0
LINE
  5
305
330
1E
100
AcDbEntity
  8
STEMPEL
100
AcDbLine
 10
256.3359893843619
 20
377.9779581549016
 30
0.0
 11
251.0980057106062
 21
377.7034470626401
 31
0.0
  0
ARC
  5
307
330
1E
100
AcDbEntity
  8
STEMPEL
100
AcDbCircle
 10
266.5508678831011
 20
387.4255111320488
 30
0.0
 40
12.0
100
AcDbArc
 50
240.6719358778383
 51
273.0
  0
ARC
  5
308
330
1E
100
AcDbEntity
  8
STEMPEL
100
AcDbCircle
 10
284.3954392423877
 20
364.3277691852967
 30
0.0
 40
12.0
100
AcDbArc
 50
71.81684560696355
 51
92.99999999999997
  0
ARC
  5
30B
330
1E
100
AcDbEntity
  8
STEMPEL
100
AcDbCircle
 10
295.9415256316748
 20
399.4802198692976
 30
0.0
 40
25.00009324312574
100
AcDbArc
 50
251.8168456069636
 51
273.1564859543507
  0
ARC
  5
30D
330
1E
100
AcDbEntity
  8
STEMPEL
100
AcDbCircle
 10
303.2202682198154
 20
434.1086168374437
 30
0.0
 40
25.0
100
AcDbArc
 50
68.04180368769049
 51
92.99999999999997
  0
ARC
  5
311
330
1E
100
AcDbEntity
  8
STEMPEL
100
AcDbCircle
 10
305.0101579233241
 20
399.9554867488374
 30
0.0
 40
25.0
100
AcDbArc
 50
273.0
 51
297.9581963123059
  0
ARC
  5
32E
330
1E
100
AcDbEntity
  8
MITTEL
100
AcDbCircle
 10
251.8045411198859
 20
364.2219483434533
 30
0.0
 40
50.0
100
AcDbArc
 50
92.99999999999997
 51
179.9999999999999
  0
ARC
  5
32F
330
1E
100
AcDbEntity
  8
STEMPEL
100
AcDbCircle
 10
251.8045411198859
 20
364.2219483434533
 30
0.0
 40
86.5
100
AcDbArc
 50
92.99999999999997
 51
179.9999999999999
  0
ARC
  5
330
330
1E
100
AcDbEntity
  8
STEMPEL
100
AcDbCircle
 10
251.8045411198859
 20
364.2219483434533
 30
0.0
 40
13.5
100
AcDbArc
 50
92.99999999999997
 51
179.9999999999999
  0
DIMENSION
  5
397
330
1E
100
AcDbEntity
  8
BEM
100
AcDbDimension
  2
*D4
 10
133.8140612192288
 20
411.6701766791972
 30
0.0
 11
127.3140612192287
 21
336.6701766791973
 31
0.0
 70
    32
 71
     5
 42
150.0
  3
Standard
100
AcDbAlignedDimension
 13
167.7419844375154
 23
261.6701766791972
 33
0.0
 14
201.804541119886
 24
411.6701766791972
 34
0.0
 50
90.0
100
AcDbRotatedDimension
1001
ACAD
1000
DSTYLE
1002
{
1070
    40
1040
2.0
1070
    41
1040
3.5
1070
    42
1040
1.0
1070
    43
1040
7.0
1070
    44
1040
1.0
1070
    73
1070
     0
1070
    74
1070
     0
1070
    77
1070
     1
1070
    78
1070
     8
1070
    79
1070
     2
1070
   140
1040
3.5
1070
   141
1040
1.5
1070
   146
1040
0.5142857142857144
1070
   147
1040
1.5
1070
   172
1070
     1
1070
   178
1070
     1
1070
   179
1070
     2
1070
   271
1070
     2
1070
   272
1070
     2
1070
   284
1070
     8
1070
   285
1070
     8
1070
   286
1070
     8
1002
}
  0
DIMENSION
  5
3C7
330
1E
100
AcDbEntity
  8
BEM
100
AcDbDimension
  2
*D5
 10
251.804541119886
 20
364.2219483434532
 30
0.0
 11
230.7807809416632
 21
378.9453747702858
 31
0.0
 70
   164
 71
     5
 42
50.00000000000003
 51
357.0000000000001
  3
Standard
100
AcDbRadialDimension
 15
210.8491641493221
 25
392.9039478762441
 35
0.0
 40
0.0
1001
ACAD
1000
DSTYLE
1002
{
1070
    40
1040
2.0
1070
    41
1040
3.5
1070
    42
1040
1.0
1070
    43
1040
7.0
1070
    44
1040
1.0
1070
    73
1070
     0
1070
    74
1070
     0
1070
    77
1070
     1
1070
    78
1070
     8
1070
    79
1070
     2
1070
   140
1040
3.5
1070
   141
1040
1.5
1070
   146
1040
0.5142857142857144
1070
   147
1040
1.5
1070
   172
1070
     1
1070
   178
1070
     1
1070
   179
1070
     2
1070
   271
1070
     2
1070
   272
1070
     2
1070
   284
1070
     8
1070
   285
1070
     8
1070
   286
1070
     8
1070
   288
1070
     1
1002
}
  0
DIMENSION
  5
415
330
1E
100
AcDbEntity
  8
BEM
100
AcDbDimension
  2
*D6
 10
198.7049759956652
 20
470.8134024869697
 30
0.0
 11
254.7873609937195
 21
480.2614759906007
 31
0.0
 70
    32
  1
<>
 71
     5
 42
112.9999999999999
 51
357.0000000000001
  3
Standard
100
AcDbAlignedDimension
 13
312.5685184525969
 23
457.2950399679161
 33
0.0
 14
201.804541119886
 24
411.6701766791972
 34
0.0
 50
2.999999999999891
100
AcDbRotatedDimension
1001
ACAD
1000
DSTYLE
1002
{
1070
    40
1040
2.0
1070
    41
1040
3.5
1070
    42
1040
1.0
1070
    43
1040
7.0
1070
    44
1040
1.0
1070
    73
1070
     0
1070
    74
1070
     0
1070
    77
1070
     1
1070
    78
1070
     8
1070
    79
1070
     2
1070
   140
1040
3.5
1070
   141
1040
1.5
1070
   146
1040
0.5142857142857144
1070
   147
1040
1.5
1070
   172
1070
     1
1070
   178
1070
     1
1070
   179
1070
     2
1070
   271
1070
     2
1070
   272
1070
     2
1070
   284
1070
     8
1070
   285
1070
     8
1070
   286
1070
     8
1002
}
  0
DIMENSION
  5
42A
330
1E
100
AcDbEntity
  8
BEM
100
AcDbDimension
  2
*D7
 10
201.8045411198858
 20
256.6701766791971
 30
0.0
 11
228.3966105960977
 21
451.5755474374619
 31
0.0
 70
   162
 71
     5
 42
1.518436449235067
  3
Standard
100
AcDb2LineAngularDimension
 13
201.804541119886
 23
411.6701766791972
 33
0.0
 14
292.1805140151748
 24
416.4065807191835
 34
0.0
 15
201.804541119886
 25
411.6701766791972
 35
0.0
 16
242.4717569214238
 26
437.0818734610609
 36
0.0
1001
ACAD
1000
DSTYLE
1002
{
1070
    40
1040
2.0
1070
    41
1040
3.5
1070
    42
1040
1.0
1070
    43
1040
7.0
1070
    44
1040
1.0
1070
    73
1070
     0
1070
    74
1070
     0
1070
    77
1070
     1
1070
    78
1070
     8
1070
    79
1070
     2
1070
   140
1040
3.5
1070
   141
1040
1.5
1070
   146
1040
0.5142857142857144
1070
   147
1040
1.5
1070
   172
1070
     1
1070
   178
1070
     1
1070
   179
1070
     2
1070
   271
1070
     2
1070
   272
1070
     2
1070
   284
1070
     8
1070
   285
1070
     8
1070
   286
1070
     8
1002
}
  0
TEXT
  5
489
330
1E
100
AcDbEntity
  8
TEXT
 62
     1
100
AcDbText
 10
234.6057658946468
 20
129.0783465745483
 30
0.0
 40
7.0
  1
und innen beschichtet
 41
0.8
  7
GREEKS
100
AcDbText
  0
TEXT
  5
48A
330
1E
100
AcDbEntity
  8
TEXT
 62
     1
100
AcDbText
 10
186.6560484572489
 20
139.8004583895517
 30
0.0
 40
7.0
  1
Werkstoff: E195 EN10305 feuerverzinkt
 41
0.8
  7
GREEKS
100
AcDbText
  0
TEXT
  5
49B
330
1E
100
AcDbEntity
  8
TEXT
 62
     1
100
AcDbText
 10
260.7778723368442
 20
261.7967351437775
 30
0.0
 40
7.0
  1
Rohrende leicht eingezogen
 41
0.8
  7
GREEKS
100
AcDbText
  0
HATCH
  5
4F4
330
1E
100
AcDbEntity
  8
BEM
100
AcDbHatch
 10
0.0
 20
0.0
 30
0.0
210
0.0
220
0.0
230
1.0
  2
_USER
 70
     0
 71
     0
 91
        1
 92
        7
 72
     1
 73
     1
 93
        3
 10
165.3406758350166
 20
366.7219483434533
 42
0.6287205805092951
 10
165.3045411198858
 20
361.7219483434533
 42
0.0
 10
165.3045411198858
 20
364.2219483434532
 42
-0.0072265656117143
 97
        0
 75
     0
 76
     0
 52
-0.000000000000031
 41
0.1
 77
     0
 78
     1
 53
359.9999999999998
 43
-11.37892586454784
 44
17.84273073495397
 45
0.0000000000000002
 46
0.1
 79
     0
 47
0.0246751604493177
 98
        1
 10
165.020219655541
 20
365.3576389907461
  0
ARC
  5
4F5
330
1E
100
AcDbEntity
  8
BEM
100
AcDbCircle
 10
166.5248723494924
 20
364.2132596509477
 30
0.0
 40
2.774137765288908
100
AcDbArc
 50
115.2690933019022
 51
243.90277444696
  0
ARC
  5
4F6
330
1E
100
AcDbEntity
  8
SCHRAFF
100
AcDbCircle
 10
204.3198309314329
 20
364.2219483434532
 30
0.0
 40
5.0
100
AcDbArc
 50
329.9999999999998
 51
29.99999999999995
  0
ARC
  5
4F7
330
1E
100
AcDbEntity
  8
SCHRAFF
100
AcDbCircle
 10
199.3198309314329
 20
364.2219483434534
 30
0.0
 40
5.0
100
AcDbArc
 50
329.9999999999998
 51
29.99999999999995
  0
ARC
  5
4F8
330
1E
100
AcDbEntity
  8
SCHRAFF
100
AcDbCircle
 10
194.3198309314328
 20
364.2219483434532
 30
0.0
 40
5.0
100
AcDbArc
 50
329.9999999999998
 51
29.99999999999995
  0
ARC
  5
4F9
330
1E
100
AcDbEntity
  8
SCHRAFF
100
AcDbCircle
 10
189.3198309314328
 20
364.2219483434533
 30
0.0
 40
5.0
100
AcDbArc
 50
329.9999999999998
 51
29.99999999999995
  0
ARC
  5
4FA
330
1E
100
AcDbEntity
  8
SCHRAFF
100
AcDbCircle
 10
184.3198309314329
 20
364.2219483434532
 30
0.0
 40
5.0
100
AcDbArc
 50
329.9999999999998
 51
29.99999999999995
  0
ARC
  5
4FB
330
1E
100
AcDbEntity
  8
SCHRAFF
100
AcDbCircle
 10
179.3198309314328
 20
364.2219483434533
 30
0.0
 40
5.0
100
AcDbArc
 50
329.9999999999998
 51
29.99999999999995
  0
ARC
  5
4FC
330
1E
100
AcDbEntity
  8
SCHRAFF
100
AcDbCircle
 10
174.3198309314329
 20
364.2219483434534
 30
0.0
 40
5.0
100
AcDbArc
 50
329.9999999999998
 51
29.99999999999995
  0
ARC
  5
4FD
330
1E
100
AcDbEntity
  8
SCHRAFF
100
AcDbCircle
 10
164.3198309314329
 20
364.2219483434534
 30
0.0
 40
5.0
100
AcDbArc
 50
329.9999999999998
 51
29.99999999999995
  0
ARC
  5
4FE
330
1E
100
AcDbEntity
  8
SCHRAFF
100
AcDbCircle
 10
169.3198309314329
 20
364.2219483434533
 30
0.0
 40
5.0
100
AcDbArc
 50
329.9999999999998
 51
29.99999999999995
  0
ARC
  5
4FF
330
1E
100
AcDbEntity
  8
SCHRAFF
100
AcDbCircle
 10
164.3198309314329
 20
364.2219483434534
 30
0.0
 40
5.0
100
AcDbArc
 50
329.9999999999998
 51
29.99999999999995
  0
LINE
  5
500
330
1E
100
AcDbEntity
  8
STEMPEL
100
AcDbLine
 10
165.3045411198858
 20
364.2219483434532
 30
0.0
 11
238.3045411198859
 21
364.2219483434532
 31
0.0
  0
HATCH
  5
501
330
1E
100
AcDbEntity
  8
BEM
100
AcDbHatch
 10
0.0
 20
0.0
 30
0.0
210
0.0
220
0.0
230
1.0
  2
_USER
 70
     0
 71
     0
 91
        1
 92
        7
 72
     1
 73
     1
 93
        3
 10
238.5380419584642
 20
366.721948343453
 42
0.0465987608925618
 10
238.3045411198859
 20
364.2219483434532
 42
0.0
 10
238.3045411198858
 20
361.7219483434532
 42
0.5556441052556418
 97
        0
 75
     0
 76
     0
 52
-0.000000000000031
 41
0.1
 77
     0
 78
     1
 53
359.9999999999998
 43
-11.37892586454784
 44
17.84273073495397
 45
0.0000000000000002
 46
0.1
 79
     0
 47
0.0246751604493177
 98
        1
 10
238.5298301152128
 20
364.7160858692706
  0
ARC
  5
502
330
1E
100
AcDbEntity
  8
BEM
100
AcDbCircle
 10
236.8662052398779
 20
364.2945711344426
 30
0.0
 40
2.947405321369405
100
AcDbArc
 50
299.2092583289775
 51
55.44318189520437
  0
ARC
  5
504
330
1E
100
AcDbEntity
  8
SCHRAFF
100
AcDbCircle
 10
224.3198309314329
 20
364.2219483434532
 30
0.0
 40
5.0
100
AcDbArc
 50
329.9999999999998
 51
29.99999999999995
  0
ARC
  5
505
330
1E
100
AcDbEntity
  8
SCHRAFF
100
AcDbCircle
 10
219.3198309314329
 20
364.2219483434533
 30
0.0
 40
5.0
100
AcDbArc
 50
329.9999999999998
 51
29.99999999999995
  0
ARC
  5
506
330
1E
100
AcDbEntity
  8
SCHRAFF
100
AcDbCircle
 10
214.3198309314329
 20
364.2219483434532
 30
0.0
 40
5.0
100
AcDbArc
 50
329.9999999999998
 51
29.99999999999995
  0
ARC
  5
507
330
1E
100
AcDbEntity
  8
SCHRAFF
100
AcDbCircle
 10
209.3198309314329
 20
364.2219483434532
 30
0.0
 40
5.0
100
AcDbArc
 50
329.9999999999998
 51
29.99999999999995
  0
ARC
  5
508
330
1E
100
AcDbEntity
  8
SCHRAFF
100
AcDbCircle
 10
229.3198309314329
 20
364.2219483434532
 30
0.0
 40
5.0
100
AcDbArc
 50
329.9999999999998
 51
29.99999999999995
  0
LINE
  5
509
330
1E
100
AcDbEntity
  8
STEMPEL
100
AcDbLine
 10
316.7308386417085
 20
377.8732395013834
 30
0.0
 11
312.5685184525969
 21
457.2950399679161
 31
0.0
  0
DIMENSION
  5
557
330
1E
100
AcDbEntity
  8
BEM
100
AcDbDimension
  2
*D8
 10
238.3045411198859
 20
219.9947732706448
 30
0.0
 11
201.8045411198859
 21
226.4947732706448
 31
0.0
 70
    32
  1
%%c<>
 71
     5
 42
73.00000000000008
  3
Standard
100
AcDbAlignedDimension
 13
165.3045411198858
 23
343.4876009084687
 33
0.0
 14
238.3045411198859
 24
343.4876009084687
 34
0.0
100
AcDbRotatedDimension
1001
ACAD
1000
DSTYLE
1002
{
1070
    40
1040
2.0
1070
    41
1040
3.5
1070
    42
1040
1.0
1070
    43
1040
7.0
1070
    44
1040
1.0
1070
    73
1070
     0
1070
    74
1070
     0
1070
    77
1070
     1
1070
    78
1070
     8
1070
    79
1070
     2
1070
   140
1040
3.5
1070
   141
1040
1.5
1070
   146
1040
0.5142857142857144
1070
   147
1040
1.5
1070
   172
1070
     1
1070
   178
1070
     1
1070
   179
1070
     2
1070
   271
1070
     2
1070
   272
1070
     2
1070
   284
1070
     8
1070
   285
1070
     8
1070
   286
1070
     8
1002
}
  0
ENDSEC
  0
SECTION
  2
OBJECTS
  0
DICTIONARY
  5
C
330
0
100
AcDbDictionary
281
     1
  3
ACAD_COLOR
350
DF
  3
ACAD_GROUP
350
D
  3
ACAD_LAYOUT
350
19
  3
ACAD_MATERIAL
350
DE
  3
ACAD_MLINESTYLE
350
16
  3
ACAD_PLOTSETTINGS
350
18
  3
ACAD_PLOTSTYLENAME
350
E
  3
AcDbVariableDictionary
350
EA
  0
DICTIONARY
  5
A0
330
1E
100
AcDbDictionary
280
     1
281
     1
  3
ACAD_LAYOUTSELFREF
360
D4
  0
DICTIONARY
  5
A2
330
1A
100
AcDbDictionary
280
     1
281
     1
  3
ACAD_LAYOUTSELFREF
360
D3
  0
DICTIONARY
  5
DF
102
{ACAD_REACTORS
330
C
102
}
330
C
100
AcDbDictionary
281
     1
  0
DICTIONARY
  5
D
102
{ACAD_REACTORS
330
C
102
}
330
C
100
AcDbDictionary
281
     1
  0
DICTIONARY
  5
19
102
{ACAD_REACTORS
330
C
102
}
330
C
100
AcDbDictionary
281
     1
  3
Layout1
350
1D
  3
Model
350
21
  0
DICTIONARY
  5
DE
102
{ACAD_REACTORS
330
C
102
}
330
C
100
AcDbDictionary
281
     1
  0
DICTIONARY
  5
16
102
{ACAD_REACTORS
330
C
102
}
330
C
100
AcDbDictionary
281
     1
  3
Standard
350
17
  0
DICTIONARY
  5
18
102
{ACAD_REACTORS
330
C
102
}
330
C
100
AcDbDictionary
281
     1
  0
ACDBDICTIONARYWDFLT
  5
E
102
{ACAD_REACTORS
330
C
102
}
330
C
100
AcDbDictionary
281
     1
  3
Normal
350
F
100
AcDbDictionaryWithDefault
340
F
  0
DICTIONARY
  5
EA
102
{ACAD_REACTORS
330
C
102
}
330
C
100
AcDbDictionary
281
     1
  3
DIMASSOC
350
EB
  3
PROJECTNAME
350
EC
  0
XRECORD
  5
D4
102
{ACAD_REACTORS
330
A0
102
}
330
A0
100
AcDbXrecord
280
     1
340
1E
  0
XRECORD
  5
D3
102
{ACAD_REACTORS
330
A2
102
}
330
A2
100
AcDbXrecord
280
     1
340
1A
  0
LAYOUT
  5
1D
102
{ACAD_REACTORS
330
19
102
}
330
19
100
AcDbPlotSettings
  1

  2
\\NT_WORK01\HP LaserJet 5000 PCL 6
  4

  6

 40
0.0
 41
0.0
 42
0.0
 43
0.0
 44
0.0
 45
0.0
 46
0.0
 47
0.0
 48
0.0
 49
0.0
140
0.0
141
0.0
142
1.0
143
1.0
 70
   688
 72
     0
 73
     0
 74
     5
  7

 75
    16
147
1.0
 76
     0
 77
     2
 78
   300
148
0.0
149
0.0
100
AcDbLayout
  1
Layout1
 70
     0
 71
     1
 10
0.0
 20
0.0
 11
12.0
 21
9.0
 12
0.0
 22
0.0
 32
0.0
 14
1.000000000000000E+20
 24
1.000000000000000E+20
 34
1.000000000000000E+20
 15
-1.000000000000000E+20
 25
-1.000000000000000E+20
 35
-1.000000000000000E+20
146
0.0
 13
0.0
 23
0.0
 33
0.0
 16
1.0
 26
0.0
 36
0.0
 17
0.0
 27
1.0
 37
0.0
 76
     0
330
1A
  0
LAYOUT
  5
21
102
{ACAD_REACTORS
330
19
102
}
330
19
100
AcDbPlotSettings
  1

  2
none_device
  4
Letter_(8.50_x_11.00_Inches)
  6

 40
6.349999904632568
 41
6.349999904632568
 42
6.350006103515625
 43
6.350006103515625
 44
215.8999938964844
 45
279.3999938964844
 46
0.0
 47
0.0
 48
0.0
 49
0.0
140
0.0
141
0.0
142
1.0
143
1.0
 70
 11952
 72
     0
 73
     1
 74
     0
  7

 75
     0
147
1.0
 76
     0
 77
     2
 78
   300
148
2299.19079060625
149
89.3907803160642
100
AcDbLayout
  1
Model
 70
     1
 71
     0
 10
0.0
 20
0.0
 11
12.0
 21
9.0
 12
0.0
 22
0.0
 32
0.0
 14
0.0
 24
0.0
 34
0.0
 15
0.0
 25
0.0
 35
0.0
146
0.0
 13
0.0
 23
0.0
 33
0.0
 16
1.0
 26
0.0
 36
0.0
 17
0.0
 27
1.0
 37
0.0
 76
     0
330
1E
  0
MLINESTYLE
  5
17
102
{ACAD_REACTORS
330
16
102
}
330
16
100
AcDbMlineStyle
  2
STANDARD
 70
     0
  3

 62
   256
 51
90.0
 52
90.0
 71
     2
 49
0.5
 62
   256
  6
BYLAYER
 49
-0.5
 62
   256
  6
BYLAYER
  0
ACDBPLACEHOLDER
  5
F
102
{ACAD_REACTORS
330
E
102
}
330
E
  0
DICTIONARYVAR
  5
EB
102
{ACAD_REACTORS
330
EA
102
}
330
EA
100
DictionaryVariables
280
     0
  1
1
  0
DICTIONARYVAR
  5
EC
102
{ACAD_REACTORS
330
EA
102
}
330
EA
100
DictionaryVariables
280
     0
  1

  0
ENDSEC
  0
EOF
