  0
SECTION
  2
HEADER
  9
$ACADVER
  1
AC1018
  9
$ACADMAINTVER
 70
     2
  9
$DWGCODEPAGE
  3
ANSI_1252
  9
$INSBASE
 10
0.0
 20
0.0
 30
0.0
  9
$EXTMIN
 10
-0.0480524721101574
 20
-0.0679599248414888
 30
-0.0000000000000058
  9
$EXTMAX
 10
1050.048072030928
 20
1485.067987586599
 30
0.0000000000000104
  9
$LIMMIN
 10
0.0
 20
0.0
  9
$LIMMAX
 10
1050.0
 20
1485.0
  9
$ORTHOMODE
 70
     1
  9
$REGENMODE
 70
     1
  9
$FILLMODE
 70
     1
  9
$QTEXTMODE
 70
     0
  9
$MIRRTEXT
 70
     1
  9
$LTSCALE
 40
50.0
  9
$ATTMODE
 70
     1
  9
$TEXTSIZE
 40
2.5
  9
$TRACEWID
 40
0.5
  9
$TEXTSTYLE
  7
GREEKS
  9
$CLAYER
  8
BEM
  9
$CELTYPE
  6
ByLayer
  9
$CECOLOR
 62
   256
  9
$CELTSCALE
 40
1.0
  9
$DISPSILH
 70
     0
  9
$DIMSCALE
 40
5.0
  9
$DIMASZ
 40
3.5
  9
$DIMEXO
 40
1.0
  9
$DIMDLI
 40
7.0
  9
$DIMRND
 40
0.0
  9
$DIMDLE
 40
0.0
  9
$DIMEXE
 40
1.0
  9
$DIMTP
 40
3.0
  9
$DIMTM
 40
3.0
  9
$DIMTXT
 40
3.5
  9
$DIMCEN
 40
1.5
  9
$DIMTSZ
 40
0.0
  9
$DIMTOL
 70
     0
  9
$DIMLIM
 70
     0
  9
$DIMTIH
 70
     0
  9
$DIMTOH
 70
     0
  9
$DIMSE1
 70
     0
  9
$DIMSE2
 70
     0
  9
$DIMTAD
 70
     1
  9
$DIMZIN
 70
     8
  9
$DIMBLK
  1

  9
$DIMASO
 70
     1
  9
$DIMSHO
 70
     0
  9
$DIMPOST
  1

  9
$DIMAPOST
  1

  9
$DIMALT
 70
     0
  9
$DIMALTD
 70
     2
  9
$DIMALTF
 40
25.4
  9
$DIMLFAC
 40
1.0
  9
$DIMTOFL
 70
     1
  9
$DIMTVP
 40
0.0
  9
$DIMTIX
 70
     0
  9
$DIMSOXD
 70
     0
  9
$DIMSAH
 70
     0
  9
$DIMBLK1
  1

  9
$DIMBLK2
  1

  9
$DIMSTYLE
  2
Standard
  9
$DIMCLRD
 70
     0
  9
$DIMCLRE
 70
     0
  9
$DIMCLRT
 70
     1
  9
$DIMTFAC
 40
0.5
  9
$DIMGAP
 40
1.5
  9
$DIMJUST
 70
     0
  9
$DIMSD1
 70
     0
  9
$DIMSD2
 70
     0
  9
$DIMTOLJ
 70
     1
  9
$DIMTZIN
 70
     8
  9
$DIMALTZ
 70
     8
  9
$DIMALTTZ
 70
     8
  9
$DIMUPT
 70
     0
  9
$DIMDEC
 70
     2
  9
$DIMTDEC
 70
     2
  9
$DIMALTU
 70
     2
  9
$DIMALTTD
 70
     2
  9
$DIMTXSTY
  7
GREEKS
  9
$DIMAUNIT
 70
     0
  9
$DIMADEC
 70
     2
  9
$DIMALTRND
 40
0.0
  9
$DIMAZIN
 70
     2
  9
$DIMDSEP
 70
    46
  9
$DIMATFIT
 70
     3
  9
$DIMFRAC
 70
     0
  9
$DIMLDRBLK
  1

  9
$DIMLUNIT
 70
     2
  9
$DIMLWD
 70
    -2
  9
$DIMLWE
 70
    -2
  9
$DIMTMOVE
 70
     0
  9
$LUNITS
 70
     2
  9
$LUPREC
 70
     2
  9
$SKETCHINC
 40
1.0
  9
$FILLETRAD
 40
0.0
  9
$AUNITS
 70
     0
  9
$AUPREC
 70
     2
  9
$MENU
  1
ACAD
  9
$ELEVATION
 40
0.0
  9
$PELEVATION
 40
0.0
  9
$THICKNESS
 40
0.0
  9
$LIMCHECK
 70
     0
  9
$CHAMFERA
 40
0.0
  9
$CHAMFERB
 40
0.0
  9
$CHAMFERC
 40
0.0
  9
$CHAMFERD
 40
0.0
  9
$SKPOLY
 70
     0
  9
$TDCREATE
 40
2452283.557685648
  9
$TDUCREATE
 40
2452283.474352315
  9
$TDUPDATE
 40
2455658.325828901
  9
$TDUUPDATE
 40
2455658.242495567
  9
$TDINDWG
 40
0.0069787500
  9
$TDUSRTIMER
 40
0.0069787500
  9
$USRTIMER
 70
     1
  9
$ANGBASE
 50
0.0
  9
$ANGDIR
 70
     0
  9
$PDMODE
 70
     0
  9
$PDSIZE
 40
0.0
  9
$PLINEWID
 40
0.0
  9
$SPLFRAME
 70
     0
  9
$SPLINETYPE
 70
     6
  9
$SPLINESEGS
 70
     8
  9
$HANDSEED
  5
12C54
  9
$SURFTAB1
 70
     6
  9
$SURFTAB2
 70
     6
  9
$SURFTYPE
 70
     6
  9
$SURFU
 70
     6
  9
$SURFV
 70
     6
  9
$UCSBASE
  2

  9
$UCSNAME
  2

  9
$UCSORG
 10
0.0
 20
0.0
 30
0.0
  9
$UCSXDIR
 10
1.0
 20
0.0
 30
0.0
  9
$UCSYDIR
 10
0.0
 20
1.0
 30
0.0
  9
$UCSORTHOREF
  2

  9
$UCSORTHOVIEW
 70
     0
  9
$UCSORGTOP
 10
0.0
 20
0.0
 30
0.0
  9
$UCSORGBOTTOM
 10
0.0
 20
0.0
 30
0.0
  9
$UCSORGLEFT
 10
0.0
 20
0.0
 30
0.0
  9
$UCSORGRIGHT
 10
0.0
 20
0.0
 30
0.0
  9
$UCSORGFRONT
 10
0.0
 20
0.0
 30
0.0
  9
$UCSORGBACK
 10
0.0
 20
0.0
 30
0.0
  9
$PUCSBASE
  2

  9
$PUCSNAME
  2

  9
$PUCSORG
 10
0.0
 20
0.0
 30
0.0
  9
$PUCSXDIR
 10
1.0
 20
0.0
 30
0.0
  9
$PUCSYDIR
 10
0.0
 20
1.0
 30
0.0
  9
$PUCSORTHOREF
  2

  9
$PUCSORTHOVIEW
 70
     0
  9
$PUCSORGTOP
 10
0.0
 20
0.0
 30
0.0
  9
$PUCSORGBOTTOM
 10
0.0
 20
0.0
 30
0.0
  9
$PUCSORGLEFT
 10
0.0
 20
0.0
 30
0.0
  9
$PUCSORGRIGHT
 10
0.0
 20
0.0
 30
0.0
  9
$PUCSORGFRONT
 10
0.0
 20
0.0
 30
0.0
  9
$PUCSORGBACK
 10
0.0
 20
0.0
 30
0.0
  9
$USERI1
 70
     0
  9
$USERI2
 70
     0
  9
$USERI3
 70
     0
  9
$USERI4
 70
     0
  9
$USERI5
 70
     0
  9
$USERR1
 40
0.0
  9
$USERR2
 40
0.0
  9
$USERR3
 40
0.0
  9
$USERR4
 40
0.0
  9
$USERR5
 40
0.0
  9
$WORLDVIEW
 70
     1
  9
$SHADEDGE
 70
     3
  9
$SHADEDIF
 70
    70
  9
$TILEMODE
 70
     1
  9
$MAXACTVP
 70
    16
  9
$PINSBASE
 10
286.2553998418513
 20
50.00000000000001
 30
-2.58105543498411
  9
$PLIMCHECK
 70
     0
  9
$PEXTMIN
 10
1.000000000000000E+20
 20
1.000000000000000E+20
 30
1.000000000000000E+20
  9
$PEXTMAX
 10
-1.000000000000000E+20
 20
-1.000000000000000E+20
 30
-1.000000000000000E+20
  9
$PLIMMIN
 10
0.0
 20
0.0
  9
$PLIMMAX
 10
12.0
 20
9.0
  9
$UNITMODE
 70
     0
  9
$VISRETAIN
 70
     0
  9
$PLINEGEN
 70
     0
  9
$PSLTSCALE
 70
     0
  9
$TREEDEPTH
 70
  3020
  9
$CMLSTYLE
  2
Standard
  9
$CMLJUST
 70
     0
  9
$CMLSCALE
 40
1.0
  9
$PROXYGRAPHICS
 70
     1
  9
$MEASUREMENT
 70
     0
  9
$CELWEIGHT
370
    -1
  9
$ENDCAPS
280
     0
  9
$JOINSTYLE
280
     0
  9
$LWDISPLAY
290
     0
  9
$INSUNITS
 70
     0
  9
$HYPERLINKBASE
  1

  9
$STYLESHEET
  1
monochrome 1.ctb
  9
$XEDIT
290
     1
  9
$CEPSNTYPE
380
     0
  9
$PSTYLEMODE
290
     1
  9
$FINGERPRINTGUID
  2
{B9F9836F-0561-4FB0-B0D9-E9F0C5C23CA5}
  9
$VERSIONGUID
  2
{0D8B6EFD-0466-47D0-A559-981E5271CE58}
  9
$EXTNAMES
290
     1
  9
$PSVPSCALE
 40
0.0
  9
$OLESTARTUP
290
     0
  9
$SORTENTS
280
   127
  9
$INDEXCTL
280
     0
  9
$HIDETEXT
280
     1
  9
$XCLIPFRAME
290
     0
  9
$HALOGAP
280
     0
  9
$OBSCOLOR
 70
   257
  9
$OBSLTYPE
280
     0
  9
$INTERSECTIONDISPLAY
280
     0
  9
$INTERSECTIONCOLOR
 70
   257
  9
$DIMASSOC
280
     2
  9
$PROJECTNAME
  1

  0
ENDSEC
  0
SECTION
  2
CLASSES
  0
CLASS
  1
ACDBDICTIONARYWDFLT
  2
AcDbDictionaryWithDefault
  3
ObjectDBX Classes
 90
        0
 91
        1
280
     0
281
     0
  0
CLASS
  1
DICTIONARYVAR
  2
AcDbDictionaryVar
  3
ObjectDBX Classes
 90
        0
 91
        3
280
     0
281
     0
  0
ENDSEC
  0
SECTION
  2
TABLES
  0
TABLE
  2
VPORT
  5
12B82
330
0
100
AcDbSymbolTable
 70
     3
  0
VPORT
  5
12C53
330
12B82
100
AcDbSymbolTableRecord
100
AcDbViewportTableRecord
  2
*Active
 70
     0
 10
0.0
 20
0.0
 11
1.0
 21
1.0
 12
524.9999999999998
 22
742.4999999999999
 13
0.0
 23
0.0
 14
1.0
 24
1.0
 15
10.0
 25
10.0
 16
0.0
 26
0.0
 36
1.0
 17
0.0
 27
0.0
 37
0.0
 40
1485.0
 41
1.334231805929919
 42
50.0
 43
0.0
 44
0.0
 50
0.0
 51
0.0
 71
     0
 72
  1500
 73
     1
 74
     0
 75
     0
 76
     0
 77
     0
 78
     0
281
     0
 65
     1
110
0.0
120
0.0
130
0.0
111
1.0
121
0.0
131
0.0
112
0.0
122
1.0
132
0.0
 79
     0
146
0.0
  0
ENDTAB
  0
TABLE
  2
LTYPE
  5
12B7F
330
0
100
AcDbSymbolTable
 70
     2
  0
LTYPE
  5
12B8D
330
12B7F
100
AcDbSymbolTableRecord
100
AcDbLinetypeTableRecord
  2
ByBlock
 70
     0
  3

 72
    65
 73
     0
 40
0.0
  0
LTYPE
  5
12B8E
330
12B7F
100
AcDbSymbolTableRecord
100
AcDbLinetypeTableRecord
  2
ByLayer
 70
     0
  3

 72
    65
 73
     0
 40
0.0
  0
LTYPE
  5
12B8F
330
12B7F
100
AcDbSymbolTableRecord
100
AcDbLinetypeTableRecord
  2
Continuous
 70
     0
  3
Solid line
 72
    65
 73
     0
 40
0.0
  0
LTYPE
  5
12BAC
330
12B7F
100
AcDbSymbolTableRecord
100
AcDbLinetypeTableRecord
  2
STRICHPUNKT
 70
     0
  3
__ . __ . __ . __ . __ . __ . __ . __ . __ . __
 72
    65
 73
     4
 40
1.0
 49
0.5
 74
     0
 49
-0.25
 74
     0
 49
0.0
 74
     0
 49
-0.25
 74
     0
  0
ENDTAB
  0
TABLE
  2
LAYER
  5
12B7C
330
0
100
AcDbSymbolTable
 70
     9
  0
LAYER
  5
12B8A
330
12B7C
100
AcDbSymbolTableRecord
100
AcDbLayerTableRecord
  2
0
 70
     0
 62
     7
  6
Continuous
370
    -3
390
12B89
  0
LAYER
  5
12BAF
330
12B7C
100
AcDbSymbolTableRecord
100
AcDbLayerTableRecord
  2
VOLL
 70
     0
 62
     1
  6
Continuous
370
    -3
390
12B89
  0
LAYER
  5
12BB0
330
12B7C
100
AcDbSymbolTableRecord
100
AcDbLayerTableRecord
  2
HILF
 70
     0
 62
     2
  6
Continuous
370
    -3
390
12B89
  0
LAYER
  5
12BB1
330
12B7C
100
AcDbSymbolTableRecord
100
AcDbLayerTableRecord
  2
MITTEL
 70
     0
 62
     2
  6
STRICHPUNKT
370
    -3
390
12B89
  0
LAYER
  5
12BB2
330
12B7C
100
AcDbSymbolTableRecord
100
AcDbLayerTableRecord
  2
BEM
 70
     0
 62
     7
  6
Continuous
370
    -3
390
12B89
  0
LAYER
  5
12BB3
330
12B7C
100
AcDbSymbolTableRecord
100
AcDbLayerTableRecord
  2
STEMPEL
 70
     0
 62
     3
  6
Continuous
370
    -3
390
12B89
  0
LAYER
  5
12BB4
330
12B7C
100
AcDbSymbolTableRecord
100
AcDbLayerTableRecord
  2
TEXT
 70
     0
 62
     7
  6
Continuous
370
    -3
390
12B89
  0
LAYER
  5
12BB5
330
12B7C
100
AcDbSymbolTableRecord
100
AcDbLayerTableRecord
  2
DEFPOINTS
 70
     0
 62
     7
  6
Continuous
290
     0
370
    -3
390
12B89
  0
LAYER
  5
12BB6
330
12B7C
100
AcDbSymbolTableRecord
100
AcDbLayerTableRecord
  2
SCHRAFF
 70
     0
 62
     7
  6
Continuous
370
    -3
390
12B89
  0
ENDTAB
  0
TABLE
  2
STYLE
  5
12B7D
330
0
100
AcDbSymbolTable
 70
     2
  0
STYLE
  5
12B8B
330
12B7D
100
AcDbSymbolTableRecord
100
AcDbTextStyleTableRecord
  2
STANDARD
 70
     0
 40
0.0
 41
1.0
 50
0.0
 71
     0
 42
3.5
  3
txt
  4

  0
STYLE
  5
12BAB
330
12B7D
100
AcDbSymbolTableRecord
100
AcDbTextStyleTableRecord
  2
GREEKS
 70
     0
 40
0.0
 41
0.8
 50
0.0
 71
     0
 42
2.5
  3
SIMPLEX.shx
  4

  0
ENDTAB
  0
TABLE
  2
VIEW
  5
12B80
330
0
100
AcDbSymbolTable
 70
     0
  0
ENDTAB
  0
TABLE
  2
UCS
  5
12B81
330
0
100
AcDbSymbolTable
 70
     0
  0
ENDTAB
  0
TABLE
  2
APPID
  5
12B83
330
0
100
AcDbSymbolTable
 70
     1
  0
APPID
  5
12B8C
330
12B83
100
AcDbSymbolTableRecord
100
AcDbRegAppTableRecord
  2
ACAD
 70
     0
  0
ENDTAB
  0
TABLE
  2
DIMSTYLE
  5
12B84
330
0
100
AcDbSymbolTable
 70
     1
100
AcDbDimStyleTable
 71
     1
340
12BBD
  0
DIMSTYLE
105
12BBD
102
{ACAD_REACTORS
330
12AFA
330
12AFB
102
}
330
12B84
100
AcDbSymbolTableRecord
100
AcDbDimStyleTableRecord
  2
Standard
 70
     0
340
12B8B
  0
ENDTAB
  0
TABLE
  2
BLOCK_RECORD
  5
12B7B
330
0
100
AcDbSymbolTable
 70
    12
  0
BLOCK_RECORD
  5
12B9A
330
12B7B
100
AcDbSymbolTableRecord
100
AcDbBlockTableRecord
  2
*Model_Space
340
12B9D
  0
BLOCK_RECORD
  5
12B96
330
12B7B
100
AcDbSymbolTableRecord
100
AcDbBlockTableRecord
  2
*Paper_Space
340
12B99
  0
BLOCK_RECORD
  5
12B9E
330
12B7B
100
AcDbSymbolTableRecord
100
AcDbBlockTableRecord
  2
LOGO
340
0
102
{BLKREFS
331
12B01
102
}
  0
BLOCK_RECORD
  5
12BA0
330
12B7B
100
AcDbSymbolTableRecord
100
AcDbBlockTableRecord
  2
*D1
340
0
  0
BLOCK_RECORD
  5
12BA2
330
12B7B
100
AcDbSymbolTableRecord
100
AcDbBlockTableRecord
  2
*X3
340
0
102
{BLKREFS
331
12B34
102
}
  0
BLOCK_RECORD
  5
12BA3
330
12B7B
100
AcDbSymbolTableRecord
100
AcDbBlockTableRecord
  2
*X4
340
0
102
{BLKREFS
331
12B79
102
}
  0
BLOCK_RECORD
  5
12BA8
330
12B7B
100
AcDbSymbolTableRecord
100
AcDbBlockTableRecord
  2
*D9
340
0
  0
BLOCK_RECORD
  5
12BE3
330
12B7B
100
AcDbSymbolTableRecord
100
AcDbBlockTableRecord
  2
*D10
340
0
  0
BLOCK_RECORD
  5
12BEF
330
12B7B
100
AcDbSymbolTableRecord
100
AcDbBlockTableRecord
  2
*D11
340
0
  0
ENDTAB
  0
ENDSEC
  0
SECTION
  2
BLOCKS
  0
BLOCK
  5
12BBA
330
12B9A
100
AcDbEntity
  8
0
100
AcDbBlockBegin
  2
*Model_Space
 70
     0
 10
0.0
 20
0.0
 30
0.0
  3
*Model_Space
  1

  0
ENDBLK
  5
12BBB
330
12B9A
100
AcDbEntity
  8
0
100
AcDbBlockEnd
  0
BLOCK
  5
12BB8
330
12B96
100
AcDbEntity
 67
     1
  8
0
100
AcDbBlockBegin
  2
*Paper_Space
 70
     0
 10
0.0
 20
0.0
 30
0.0
  3
*Paper_Space
  1

  0
ENDBLK
  5
12BB9
330
12B96
100
AcDbEntity
 67
     1
  8
0
100
AcDbBlockEnd
  0
BLOCK
  5
44
330
12B9E
100
AcDbEntity
  8
0
100
AcDbBlockBegin
  2
LOGO
 70
     0
 10
0.0
 20
0.0
 30
0.0
  3
LOGO
  1

  0
ARC
  5
45
330
12B9E
100
AcDbEntity
  8
0
100
AcDbCircle
 10
11.59973089678112
 20
-9.271599258481501
 30
0.0
 40
4.5
100
AcDbArc
 50
270.0
 51
231.0575587310159
  0
LINE
  5
46
330
12B9E
100
AcDbEntity
  8
0
100
AcDbLine
 10
3.599730896781125
 20
-4.771599258481529
 30
0.0
 11
3.599730896781153
 21
-11.77159925848133
 31
0.0
  0
LINE
  5
47
330
12B9E
100
AcDbEntity
  8
0
100
AcDbLine
 10
2.599730896781125
 20
-4.771599258481529
 30
0.0
 11
2.599730896781153
 21
-11.77159925848133
 31
0.0
  0
CIRCLE
  5
48
330
12B9E
100
AcDbEntity
  8
0
100
AcDbCircle
 10
11.59973089678112
 20
-9.271599258481501
 30
0.0
 40
3.5
  0
ARC
  5
49
330
12B9E
100
AcDbEntity
  8
0
100
AcDbCircle
 10
31.59973089678115
 20
-9.271599258481472
 30
0.0
 40
4.5
100
AcDbArc
 50
270.0
 51
231.0575587310182
  0
LINE
  5
4A
330
12B9E
100
AcDbEntity
  8
0
100
AcDbLine
 10
17.59973089678112
 20
-4.771599258481472
 30
0.0
 11
17.59973089678115
 21
-13.77159925848147
 31
0.0
  0
ARC
  5
4B
330
12B9E
100
AcDbEntity
  8
0
100
AcDbCircle
 10
22.59973089678116
 20
-7.271599258481472
 30
0.0
 40
2.5
100
AcDbArc
 50
293.1161887722295
 51
90.0
  0
CIRCLE
  5
4C
330
12B9E
100
AcDbEntity
  8
0
100
AcDbCircle
 10
31.59973089678115
 20
-9.271599258481472
 30
0.0
 40
3.5
  0
ARC
  5
4D
330
12B9E
100
AcDbEntity
  8
0
100
AcDbCircle
 10
4.599730896781153
 20
-11.77159925848133
 30
0.0
 40
1.0
100
AcDbArc
 50
180.0
 51
270.0
  0
ARC
  5
4E
330
12B9E
100
AcDbEntity
  8
0
100
AcDbCircle
 10
4.599730896781153
 20
-11.77159925848133
 30
0.0
 40
2.0
100
AcDbArc
 50
179.9999999999992
 51
270.0
  0
LINE
  5
4F
330
12B9E
100
AcDbEntity
  8
0
100
AcDbLine
 10
11.59973089678115
 20
-13.77159925848144
 30
0.0
 11
4.599730896781153
 21
-13.77159925848147
 31
0.0
  0
LINE
  5
50
330
12B9E
100
AcDbEntity
  8
0
100
AcDbLine
 10
8.771303772034769
 20
-12.77159925848136
 30
0.0
 11
4.599730896781153
 21
-12.77159925848133
 31
0.0
  0
LINE
  5
51
330
12B9E
100
AcDbEntity
  8
0
100
AcDbLine
 10
31.59973089678115
 20
-13.77159925848147
 30
0.0
 11
23.6715276665056
 21
-13.77159925848144
 31
0.0
  0
LINE
  5
52
330
12B9E
100
AcDbEntity
  8
0
100
AcDbLine
 10
23.56565672307022
 20
-9.51278021337896
 30
0.0
 11
24.4388546544846
 21
-12.77159925848144
 31
0.0
  0
LINE
  5
53
330
12B9E
100
AcDbEntity
  8
0
100
AcDbLine
 10
22.59973089678116
 20
-9.771599258481472
 30
0.0
 11
18.59973089678112
 21
-9.771599258481472
 31
0.0
  0
LINE
  5
54
330
12B9E
100
AcDbEntity
  8
0
100
AcDbLine
 10
18.59973089678115
 20
-13.77159925848144
 30
0.0
 11
17.59973089678115
 21
-13.77159925848144
 31
0.0
  0
LINE
  5
55
330
12B9E
100
AcDbEntity
  8
0
100
AcDbLine
 10
18.59973089678115
 20
-9.771599258481472
 30
0.0
 11
18.59973089678115
 21
-13.77159925848144
 31
0.0
  0
LINE
  5
56
330
12B9E
100
AcDbEntity
  8
0
100
AcDbLine
 10
22.59973089678116
 20
-9.771599258481472
 30
0.0
 11
23.67152766650562
 21
-13.77159925848147
 31
0.0
  0
ARC
  5
57
330
12B9E
100
AcDbEntity
  8
0
100
AcDbCircle
 10
22.59973089678116
 20
-7.271599258481472
 30
0.0
 40
2.5
100
AcDbArc
 50
270.0
 51
270.0000000000007
  0
LINE
  5
58
330
12B9E
100
AcDbEntity
  8
0
100
AcDbLine
 10
28.77130377203494
 20
-12.77159925848147
 30
0.0
 11
24.43885465448463
 21
-12.77159925848144
 31
0.0
  0
LINE
  5
59
330
12B9E
100
AcDbEntity
  8
0
100
AcDbLine
 10
3.599730896781125
 20
-4.771599258481472
 30
0.0
 11
2.599730896781125
 21
-4.771599258481472
 31
0.0
  0
LINE
  5
5A
330
12B9E
100
AcDbEntity
  8
0
100
AcDbLine
 10
22.59973089678116
 20
-8.771599258481472
 30
0.0
 11
18.59973089678115
 21
-8.771599258481472
 31
0.0
  0
LINE
  5
5B
330
12B9E
100
AcDbEntity
  8
0
100
AcDbLine
 10
22.59973089678116
 20
-5.771599258481472
 30
0.0
 11
18.59973089678115
 21
-5.771599258481472
 31
0.0
  0
LINE
  5
5C
330
12B9E
100
AcDbEntity
  8
0
100
AcDbLine
 10
22.59973089678116
 20
-4.771599258481472
 30
0.0
 11
17.59973089678115
 21
-4.771599258481472
 31
0.0
  0
LINE
  5
5D
330
12B9E
100
AcDbEntity
  8
0
100
AcDbLine
 10
18.59973089678115
 20
-5.771599258481472
 30
0.0
 11
18.59973089678115
 21
-8.771599258481472
 31
0.0
  0
ARC
  5
5E
330
12B9E
100
AcDbEntity
  8
0
100
AcDbCircle
 10
22.59973089678116
 20
-7.271599258481472
 30
0.0
 40
1.5
100
AcDbArc
 50
270.0
 51
90.0
  0
ENDBLK
  5
5F
330
12B9E
100
AcDbEntity
  8
0
100
AcDbBlockEnd
  0
BLOCK
  5
108B7
330
12BA0
100
AcDbEntity
  8
0
100
AcDbBlockBegin
  2
*D1
 70
     1
 10
0.0
 20
0.0
 30
0.0
  3
*D1
  1

  0
LINE
  5
108B8
330
12BA0
100
AcDbEntity
  8
0
  6
ByBlock
 62
     0
100
AcDbLine
 10
412.7651087002959
 20
756.5550742876845
 30
0.0
 11
412.7651087002959
 21
675.3590259711034
 31
0.0
  0
LINE
  5
108B9
330
12BA0
100
AcDbEntity
  8
0
  6
ByBlock
 62
     0
100
AcDbLine
 10
736.6651087002958
 20
756.5550742876845
 30
0.0
 11
736.6651087002958
 21
675.3590259711034
 31
0.0
  0
LINE
  5
108BA
330
12BA0
100
AcDbEntity
  8
0
  6
ByBlock
 62
     0
100
AcDbLine
 10
430.2651087002959
 20
680.3590259711035
 30
0.0
 11
719.1651087002958
 21
680.3590259711035
 31
0.0
  0
SOLID
  5
108BB
330
12BA0
100
AcDbEntity
  8
0
  6
ByBlock
 62
     0
100
AcDbTrace
 10
430.2651087002959
 20
683.2756926377701
 30
0.0
 11
430.2651087002959
 21
677.4423593044368
 31
0.0
 12
412.7651087002959
 22
680.3590259711035
 32
0.0
 13
412.7651087002959
 23
680.3590259711035
 33
0.0
  0
SOLID
  5
108BC
330
12BA0
100
AcDbEntity
  8
0
  6
ByBlock
 62
     0
100
AcDbTrace
 10
719.1651087002958
 20
683.2756926377701
 30
0.0
 11
719.1651087002958
 21
677.4423593044368
 31
0.0
 12
736.6651087002958
 22
680.3590259711035
 32
0.0
 13
736.6651087002958
 23
680.3590259711035
 33
0.0
  0
TEXT
  5
108BD
330
12BA0
100
AcDbEntity
  8
0
  6
ByBlock
 62
     1
100
AcDbText
 10
525.3817753669625
 20
689.1090259711035
 30
0.0
 40
17.5
  1
%%c324%%p2.6
 41
0.8
  7
GREEKS
 72
     1
 11
574.7151087002959
 21
697.8590259711035
 31
0.0
100
AcDbText
 73
     2
  0
POINT
  5
108BE
330
12BA0
100
AcDbEntity
  8
DEFPOINTS
  6
ByBlock
 62
     0
100
AcDbPoint
 10
412.7651087002959
 20
761.5550742876845
 30
0.0
  0
POINT
  5
108BF
330
12BA0
100
AcDbEntity
  8
DEFPOINTS
  6
ByBlock
 62
     0
100
AcDbPoint
 10
736.6651087002958
 20
761.5550742876845
 30
0.0
  0
POINT
  5
108C0
330
12BA0
100
AcDbEntity
  8
DEFPOINTS
  6
ByBlock
 62
     0
100
AcDbPoint
 10
736.6651087002958
 20
680.3590259711035
 30
0.0
  0
ENDBLK
  5
108C1
330
12BA0
100
AcDbEntity
  8
0
100
AcDbBlockEnd
  0
BLOCK
  5
10AC7
330
12BA2
100
AcDbEntity
  8
0
100
AcDbBlockBegin
  2
*X3
 70
     1
 10
0.0
 20
0.0
 30
0.0
  3
*X3
  1

  0
LINE
  5
10AC9
330
12BA2
100
AcDbEntity
  8
0
 62
     0
100
AcDbLine
 10
411.0077440224545
 20
938.6000000000001
 30
0.0
 11
412.765108700296
 21
938.6000000000001
 31
0.0
  0
LINE
  5
10ACA
330
12BA2
100
AcDbEntity
  8
0
 62
     0
100
AcDbLine
 10
411.0164081557582
 20
938.7
 30
0.0
 11
412.765108700296
 21
938.7
 31
0.0
  0
LINE
  5
10ACB
330
12BA2
100
AcDbEntity
  8
0
 62
     0
100
AcDbLine
 10
411.0274416266387
 20
938.8000000000001
 30
0.0
 11
412.765108700296
 21
938.8000000000001
 31
0.0
  0
LINE
  5
10ACC
330
12BA2
100
AcDbEntity
  8
0
 62
     0
100
AcDbLine
 10
411.0408629419543
 20
938.9000000000001
 30
0.0
 11
412.765108700296
 21
938.9000000000001
 31
0.0
  0
LINE
  5
10ACD
330
12BA2
100
AcDbEntity
  8
0
 62
     0
100
AcDbLine
 10
411.0566948746955
 20
939.0
 30
0.0
 11
412.791772054323
 21
939.0
 31
0.0
  0
LINE
  5
10ACE
330
12BA2
100
AcDbEntity
  8
0
 62
     0
100
AcDbLine
 10
411.0749646621842
 20
939.1
 30
0.0
 11
412.8495070812419
 21
939.1
 31
0.0
  0
LINE
  5
10ACF
330
12BA2
100
AcDbEntity
  8
0
 62
     0
100
AcDbLine
 10
411.0957042485664
 20
939.2000000000001
 30
0.0
 11
412.9072421081609
 21
939.2000000000001
 31
0.0
  0
LINE
  5
10AD0
330
12BA2
100
AcDbEntity
  8
0
 62
     0
100
AcDbLine
 10
411.1189505768051
 20
939.3
 30
0.0
 11
412.9649771350799
 21
939.3
 31
0.0
  0
LINE
  5
10AD1
330
12BA2
100
AcDbEntity
  8
0
 62
     0
100
AcDbLine
 10
411.1447459366741
 20
939.4000000000001
 30
0.0
 11
413.0227121619989
 21
939.4000000000001
 31
0.0
  0
LINE
  5
10AD2
330
12BA2
100
AcDbEntity
  8
0
 62
     0
100
AcDbLine
 10
411.1731383768105
 20
939.4999999999999
 30
0.0
 11
413.0804471889178
 21
939.4999999999999
 31
0.0
  0
LINE
  5
10AD3
330
12BA2
100
AcDbEntity
  8
0
 62
     0
100
AcDbLine
 10
411.2041821907963
 20
939.6
 30
0.0
 11
413.1381822158368
 21
939.6
 31
0.0
  0
LINE
  5
10AD4
330
12BA2
100
AcDbEntity
  8
0
 62
     0
100
AcDbLine
 10
411.2379384896051
 20
939.7
 30
0.0
 11
413.1959172427557
 21
939.7
 31
0.0
  0
LINE
  5
10AD5
330
12BA2
100
AcDbEntity
  8
0
 62
     0
100
AcDbLine
 10
411.2744758757266
 20
939.8000000000001
 30
0.0
 11
413.2536522696747
 21
939.8000000000001
 31
0.0
  0
LINE
  5
10AD6
330
12BA2
100
AcDbEntity
  8
0
 62
     0
100
AcDbLine
 10
411.3138712380296
 20
939.9
 30
0.0
 11
413.3113872965936
 21
939.9
 31
0.0
  0
LINE
  5
10AD7
330
12BA2
100
AcDbEntity
  8
0
 62
     0
100
AcDbLine
 10
411.3562106912334
 20
940.0
 30
0.0
 11
413.3691223235126
 21
940.0
 31
0.0
  0
LINE
  5
10AD8
330
12BA2
100
AcDbEntity
  8
0
 62
     0
100
AcDbLine
 10
411.4015906900516
 20
940.0999999999999
 30
0.0
 11
413.4268573504315
 21
940.0999999999999
 31
0.0
  0
LINE
  5
10AD9
330
12BA2
100
AcDbEntity
  8
0
 62
     0
100
AcDbLine
 10
411.4501193561578
 20
940.2000000000001
 30
0.0
 11
413.4845923773506
 21
940.2000000000001
 31
0.0
  0
LINE
  5
10ADA
330
12BA2
100
AcDbEntity
  8
0
 62
     0
100
AcDbLine
 10
411.5019180667734
 20
940.3
 30
0.0
 11
413.5423274042695
 21
940.3
 31
0.0
  0
LINE
  5
10ADB
330
12BA2
100
AcDbEntity
  8
0
 62
     0
100
AcDbLine
 10
411.5571233678807
 20
940.4000000000001
 30
0.0
 11
413.6000624311884
 21
940.4000000000001
 31
0.0
  0
LINE
  5
10ADC
330
12BA2
100
AcDbEntity
  8
0
 62
     0
100
AcDbLine
 10
411.6158892942171
 20
940.4999999999999
 30
0.0
 11
413.6577974581074
 21
940.4999999999999
 31
0.0
  0
LINE
  5
10ADD
330
12BA2
100
AcDbEntity
  8
0
 62
     0
100
AcDbLine
 10
411.6783902043862
 20
940.6
 30
0.0
 11
413.7155324850263
 21
940.6
 31
0.0
  0
LINE
  5
10ADE
330
12BA2
100
AcDbEntity
  8
0
 62
     0
100
AcDbLine
 10
411.7448242756965
 20
940.7
 30
0.0
 11
413.7732675119454
 21
940.7
 31
0.0
  0
LINE
  5
10ADF
330
12BA2
100
AcDbEntity
  8
0
 62
     0
100
AcDbLine
 10
411.8154178543852
 20
940.8000000000001
 30
0.0
 11
413.8310025388643
 21
940.8000000000001
 31
0.0
  0
LINE
  5
10AE0
330
12BA2
100
AcDbEntity
  8
0
 62
     0
100
AcDbLine
 10
411.8904309299209
 20
940.9
 30
0.0
 11
413.8887375657833
 21
940.9
 31
0.0
  0
LINE
  5
10AE1
330
12BA2
100
AcDbEntity
  8
0
 62
     0
100
AcDbLine
 10
411.9701641085229
 20
941.0
 30
0.0
 11
413.9464725927022
 21
941.0
 31
0.0
  0
LINE
  5
10AE2
330
12BA2
100
AcDbEntity
  8
0
 62
     0
100
AcDbLine
 10
412.0549676193659
 20
941.0999999999999
 30
0.0
 11
414.0042076196212
 21
941.0999999999999
 31
0.0
  0
LINE
  5
10AE3
330
12BA2
100
AcDbEntity
  8
0
 62
     0
100
AcDbLine
 10
412.1452531278665
 20
941.2
 30
0.0
 11
414.0619426465402
 21
941.2
 31
0.0
  0
LINE
  5
10AE4
330
12BA2
100
AcDbEntity
  8
0
 62
     0
100
AcDbLine
 10
412.2415095065835
 20
941.3
 30
0.0
 11
414.1196776734592
 21
941.3
 31
0.0
  0
LINE
  5
10AE5
330
12BA2
100
AcDbEntity
  8
0
 62
     0
100
AcDbLine
 10
412.3443243186856
 20
941.4000000000001
 30
0.0
 11
414.1774127003781
 21
941.4000000000001
 31
0.0
  0
LINE
  5
10AE6
330
12BA2
100
AcDbEntity
  8
0
 62
     0
100
AcDbLine
 10
412.4544137729212
 20
941.5
 30
0.0
 11
414.2351477272971
 21
941.5
 31
0.0
  0
LINE
  5
10AE7
330
12BA2
100
AcDbEntity
  8
0
 62
     0
100
AcDbLine
 10
412.5726656415213
 20
941.6
 30
0.0
 11
414.292882754216
 21
941.6
 31
0.0
  0
LINE
  5
10AE8
330
12BA2
100
AcDbEntity
  8
0
 62
     0
100
AcDbLine
 10
412.7002027584291
 20
941.6999999999999
 30
0.0
 11
414.3506177811349
 21
941.6999999999999
 31
0.0
  0
LINE
  5
10AE9
330
12BA2
100
AcDbEntity
  8
0
 62
     0
100
AcDbLine
 10
412.838480661428
 20
941.8000000000001
 30
0.0
 11
414.4083528080539
 21
941.8000000000001
 31
0.0
  0
LINE
  5
10AEA
330
12BA2
100
AcDbEntity
  8
0
 62
     0
100
AcDbLine
 10
412.9894449968796
 20
941.9
 30
0.0
 11
414.4660878349729
 21
941.9
 31
0.0
  0
LINE
  5
10AEB
330
12BA2
100
AcDbEntity
  8
0
 62
     0
100
AcDbLine
 10
413.1558007454584
 20
942.0
 30
0.0
 11
414.5238228618918
 21
942.0
 31
0.0
  0
LINE
  5
10AEC
330
12BA2
100
AcDbEntity
  8
0
 62
     0
100
AcDbLine
 10
413.3415094079499
 20
942.1000000000001
 30
0.0
 11
414.5815578888108
 21
942.1000000000001
 31
0.0
  0
LINE
  5
10AED
330
12BA2
100
AcDbEntity
  8
0
 62
     0
100
AcDbLine
 10
413.552807544617
 20
942.2
 30
0.0
 11
414.6392929157298
 21
942.2
 31
0.0
  0
LINE
  5
10AEE
330
12BA2
100
AcDbEntity
  8
0
 62
     0
100
AcDbLine
 10
413.8006304376362
 20
942.3
 30
0.0
 11
414.6970279426487
 21
942.3
 31
0.0
  0
LINE
  5
10AEF
330
12BA2
100
AcDbEntity
  8
0
 62
     0
100
AcDbLine
 10
414.1079506202965
 20
942.4000000000001
 30
0.0
 11
414.7547629695678
 21
942.4000000000001
 31
0.0
  0
LINE
  5
10AF0
330
12BA2
100
AcDbEntity
  8
0
 62
     0
100
AcDbLine
 10
414.5461880652426
 20
942.5
 30
0.0
 11
414.8124979964866
 21
942.5
 31
0.0
  0
LINE
  5
10AF1
330
12BA2
100
AcDbEntity
  8
0
 62
     0
100
AcDbLine
 10
411.0014348279616
 20
938.4999999999999
 30
0.0
 11
412.765108700296
 21
938.4999999999999
 31
0.0
  0
LINE
  5
10AF2
330
12BA2
100
AcDbEntity
  8
0
 62
     0
100
AcDbLine
 10
410.9974701605193
 20
938.4
 30
0.0
 11
412.765108700296
 21
938.4
 31
0.0
  0
LINE
  5
10AF3
330
12BA2
100
AcDbEntity
  8
0
 62
     0
100
AcDbLine
 10
410.9958435088315
 20
938.3
 30
0.0
 11
412.765108700296
 21
938.3
 31
0.0
  0
LINE
  5
10AF4
330
12BA2
100
AcDbEntity
  8
0
 62
     0
100
AcDbLine
 10
410.9965522083773
 20
938.2000000000001
 30
0.0
 11
412.765108700296
 21
938.2000000000001
 31
0.0
  0
LINE
  5
10AF5
330
12BA2
100
AcDbEntity
  8
0
 62
     0
100
AcDbLine
 10
410.9995974195368
 20
938.1
 30
0.0
 11
412.765108700296
 21
938.1
 31
0.0
  0
LINE
  5
10AF6
330
12BA2
100
AcDbEntity
  8
0
 62
     0
100
AcDbLine
 10
411.0049841371102
 20
938.0
 30
0.0
 11
412.765108700296
 21
938.0
 31
0.0
  0
LINE
  5
10AF7
330
12BA2
100
AcDbEntity
  8
0
 62
     0
100
AcDbLine
 10
411.0127212314139
 20
937.9000000000001
 30
0.0
 11
412.765108700296
 21
937.9000000000001
 31
0.0
  0
LINE
  5
10AF8
330
12BA2
100
AcDbEntity
  8
0
 62
     0
100
AcDbLine
 10
411.0228215217456
 20
937.8
 30
0.0
 11
412.765108700296
 21
937.8
 31
0.0
  0
LINE
  5
10AF9
330
12BA2
100
AcDbEntity
  8
0
 62
     0
100
AcDbLine
 10
411.0353018836481
 20
937.7
 30
0.0
 11
412.765108700296
 21
937.7
 31
0.0
  0
LINE
  5
10AFA
330
12BA2
100
AcDbEntity
  8
0
 62
     0
100
AcDbLine
 10
411.0501833920893
 20
937.6000000000001
 30
0.0
 11
412.765108700296
 21
937.6000000000001
 31
0.0
  0
LINE
  5
10AFB
330
12BA2
100
AcDbEntity
  8
0
 62
     0
100
AcDbLine
 10
411.0674915034398
 20
937.5
 30
0.0
 11
412.765108700296
 21
937.5
 31
0.0
  0
LINE
  5
10AFC
330
12BA2
100
AcDbEntity
  8
0
 62
     0
100
AcDbLine
 10
411.0872562799996
 20
937.4
 30
0.0
 11
412.765108700296
 21
937.4
 31
0.0
  0
LINE
  5
10AFD
330
12BA2
100
AcDbEntity
  8
0
 62
     0
100
AcDbLine
 10
411.1095126618374
 20
937.3000000000001
 30
0.0
 11
412.765108700296
 21
937.3000000000001
 31
0.0
  0
LINE
  5
10AFE
330
12BA2
100
AcDbEntity
  8
0
 62
     0
100
AcDbLine
 10
411.134300791907
 20
937.1999999999999
 30
0.0
 11
412.765108700296
 21
937.1999999999999
 31
0.0
  0
LINE
  5
10AFF
330
12BA2
100
AcDbEntity
  8
0
 62
     0
100
AcDbLine
 10
411.1616664018494
 20
937.1
 30
0.0
 11
412.765108700296
 21
937.1
 31
0.0
  0
LINE
  5
10B00
330
12BA2
100
AcDbEntity
  8
0
 62
     0
100
AcDbLine
 10
411.1916612676494
 20
937.0
 30
0.0
 11
412.765108700296
 21
937.0
 31
0.0
  0
LINE
  5
10B01
330
12BA2
100
AcDbEntity
  8
0
 62
     0
100
AcDbLine
 10
411.2243437464934
 20
936.9000000000001
 30
0.0
 11
412.765108700296
 21
936.9000000000001
 31
0.0
  0
LINE
  5
10B02
330
12BA2
100
AcDbEntity
  8
0
 62
     0
100
AcDbLine
 10
411.2597794088867
 20
936.8
 30
0.0
 11
412.765108700296
 21
936.8
 31
0.0
  0
LINE
  5
10B03
330
12BA2
100
AcDbEntity
  8
0
 62
     0
100
AcDbLine
 10
411.2980417835082
 20
936.7
 30
0.0
 11
412.765108700296
 21
936.7
 31
0.0
  0
LINE
  5
10B04
330
12BA2
100
AcDbEntity
  8
0
 62
     0
100
AcDbLine
 10
411.3392132366419
 20
936.5999999999999
 30
0.0
 11
412.765108700296
 21
936.5999999999999
 31
0.0
  0
LINE
  5
10B05
330
12BA2
100
AcDbEntity
  8
0
 62
     0
100
AcDbLine
 10
411.3833860136156
 20
936.5
 30
0.0
 11
412.765108700296
 21
936.5
 31
0.0
  0
LINE
  5
10B06
330
12BA2
100
AcDbEntity
  8
0
 62
     0
100
AcDbLine
 10
411.4306634769595
 20
936.4
 30
0.0
 11
412.765108700296
 21
936.4
 31
0.0
  0
LINE
  5
10B07
330
12BA2
100
AcDbEntity
  8
0
 62
     0
100
AcDbLine
 10
411.4811615855348
 20
936.3000000000001
 30
0.0
 11
412.765108700296
 21
936.3000000000001
 31
0.0
  0
LINE
  5
10B08
330
12BA2
100
AcDbEntity
  8
0
 62
     0
100
AcDbLine
 10
411.5350106715535
 20
936.2
 30
0.0
 11
412.765108700296
 21
936.2
 31
0.0
  0
LINE
  5
10B09
330
12BA2
100
AcDbEntity
  8
0
 62
     0
100
AcDbLine
 10
411.5923575894126
 20
936.1
 30
0.0
 11
412.765108700296
 21
936.1
 31
0.0
  0
LINE
  5
10B0A
330
12BA2
100
AcDbEntity
  8
0
 62
     0
100
AcDbLine
 10
411.6533683333826
 20
936.0
 30
0.0
 11
412.765108700296
 21
936.0
 31
0.0
  0
LINE
  5
10B0B
330
12BA2
100
AcDbEntity
  8
0
 62
     0
100
AcDbLine
 10
411.7182312530448
 20
935.9000000000001
 30
0.0
 11
412.765108700296
 21
935.9000000000001
 31
0.0
  0
LINE
  5
10B0C
330
12BA2
100
AcDbEntity
  8
0
 62
     0
100
AcDbLine
 10
411.7871610399232
 20
935.8
 30
0.0
 11
412.765108700296
 21
935.8
 31
0.0
  0
LINE
  5
10B0D
330
12BA2
100
AcDbEntity
  8
0
 62
     0
100
AcDbLine
 10
411.8604037220634
 20
935.7000000000001
 30
0.0
 11
412.765108700296
 21
935.7000000000001
 31
0.0
  0
LINE
  5
10B0E
330
12BA2
100
AcDbEntity
  8
0
 62
     0
100
AcDbLine
 10
411.938242994902
 20
935.5999999999999
 30
0.0
 11
412.765108700296
 21
935.5999999999999
 31
0.0
  0
LINE
  5
10B0F
330
12BA2
100
AcDbEntity
  8
0
 62
     0
100
AcDbLine
 10
412.0210083518687
 20
935.5
 30
0.0
 11
412.765108700296
 21
935.5
 31
0.0
  0
LINE
  5
10B10
330
12BA2
100
AcDbEntity
  8
0
 62
     0
100
AcDbLine
 10
412.1090856818642
 20
935.4
 30
0.0
 11
412.765108700296
 21
935.4
 31
0.0
  0
LINE
  5
10B11
330
12BA2
100
AcDbEntity
  8
0
 62
     0
100
AcDbLine
 10
412.2029313154525
 20
935.3000000000001
 30
0.0
 11
412.765108700296
 21
935.3000000000001
 31
0.0
  0
LINE
  5
10B12
330
12BA2
100
AcDbEntity
  8
0
 62
     0
100
AcDbLine
 10
412.303091001382
 20
935.2
 30
0.0
 11
412.765108700296
 21
935.2
 31
0.0
  0
LINE
  5
10B13
330
12BA2
100
AcDbEntity
  8
0
 62
     0
100
AcDbLine
 10
412.4102261140158
 20
935.1
 30
0.0
 11
412.765108700296
 21
935.1
 31
0.0
  0
LINE
  5
10B14
330
12BA2
100
AcDbEntity
  8
0
 62
     0
100
AcDbLine
 10
412.525150783505
 20
935.0
 30
0.0
 11
412.765108700296
 21
935.0
 31
0.0
  0
LINE
  5
10B15
330
12BA2
100
AcDbEntity
  8
0
 62
     0
100
AcDbLine
 10
412.6488861050495
 20
934.9000000000001
 30
0.0
 11
412.765108700296
 21
934.9000000000001
 31
0.0
  0
ENDBLK
  5
10B16
330
12BA2
100
AcDbEntity
  8
0
100
AcDbBlockEnd
  0
BLOCK
  5
10B20
330
12BA3
100
AcDbEntity
  8
0
100
AcDbBlockBegin
  2
*X4
 70
     1
 10
0.0
 20
0.0
 30
0.0
  3
*X4
  1

  0
LINE
  5
10B22
330
12BA3
100
AcDbEntity
  8
0
 62
     0
100
AcDbLine
 10
736.6651087002958
 20
851.8
 30
0.0
 11
739.3906182932023
 21
851.8
 31
0.0
  0
LINE
  5
10B23
330
12BA3
100
AcDbEntity
  8
0
 62
     0
100
AcDbLine
 10
736.6651087002958
 20
851.9000000000001
 30
0.0
 11
739.4098611295268
 21
851.9000000000001
 31
0.0
  0
LINE
  5
10B24
330
12BA3
100
AcDbEntity
  8
0
 62
     0
100
AcDbLine
 10
736.6651087002958
 20
852.0
 30
0.0
 11
739.4272388750937
 21
852.0
 31
0.0
  0
LINE
  5
10B25
330
12BA3
100
AcDbEntity
  8
0
 62
     0
100
AcDbLine
 10
736.6651087002958
 20
852.1
 30
0.0
 11
739.4427689714847
 21
852.1
 31
0.0
  0
LINE
  5
10B26
330
12BA3
100
AcDbEntity
  8
0
 62
     0
100
AcDbLine
 10
736.6852730697027
 20
852.2
 30
0.0
 11
739.4564668222288
 21
852.2
 31
0.0
  0
LINE
  5
10B27
330
12BA3
100
AcDbEntity
  8
0
 62
     0
100
AcDbLine
 10
736.7430080966218
 20
852.3000000000001
 30
0.0
 11
739.4683458716964
 21
852.3000000000001
 31
0.0
  0
LINE
  5
10B28
330
12BA3
100
AcDbEntity
  8
0
 62
     0
100
AcDbLine
 10
736.8007431235407
 20
852.4
 30
0.0
 11
739.4784176727831
 21
852.4
 31
0.0
  0
LINE
  5
10B29
330
12BA3
100
AcDbEntity
  8
0
 62
     0
100
AcDbLine
 10
736.8584781504596
 20
852.5
 30
0.0
 11
739.4866919442031
 21
852.5
 31
0.0
  0
LINE
  5
10B2A
330
12BA3
100
AcDbEntity
  8
0
 62
     0
100
AcDbLine
 10
736.9162131773785
 20
852.5999999999999
 30
0.0
 11
739.4931766180648
 21
852.5999999999999
 31
0.0
  0
LINE
  5
10B2B
330
12BA3
100
AcDbEntity
  8
0
 62
     0
100
AcDbLine
 10
736.9739482042976
 20
852.7000000000001
 30
0.0
 11
739.4978778782824
 21
852.7000000000001
 31
0.0
  0
LINE
  5
10B2C
330
12BA3
100
AcDbEntity
  8
0
 62
     0
100
AcDbLine
 10
737.0316832312165
 20
852.8
 30
0.0
 11
739.5008001902612
 21
852.8
 31
0.0
  0
LINE
  5
10B2D
330
12BA3
100
AcDbEntity
  8
0
 62
     0
100
AcDbLine
 10
737.0894182581355
 20
852.9000000000001
 30
0.0
 11
739.5019463221915
 21
852.9000000000001
 31
0.0
  0
LINE
  5
10B2E
330
12BA3
100
AcDbEntity
  8
0
 62
     0
100
AcDbLine
 10
737.1471532850545
 20
853.0
 30
0.0
 11
739.5013173581902
 21
853.0
 31
0.0
  0
LINE
  5
10B2F
330
12BA3
100
AcDbEntity
  8
0
 62
     0
100
AcDbLine
 10
737.2048883119735
 20
853.1
 30
0.0
 11
739.4989127034349
 21
853.1
 31
0.0
  0
LINE
  5
10B30
330
12BA3
100
AcDbEntity
  8
0
 62
     0
100
AcDbLine
 10
737.2626233388924
 20
853.2
 30
0.0
 11
739.4947300813472
 21
853.2
 31
0.0
  0
LINE
  5
10B31
330
12BA3
100
AcDbEntity
  8
0
 62
     0
100
AcDbLine
 10
737.3203583658114
 20
853.3000000000001
 30
0.0
 11
739.488765522796
 21
853.3000000000001
 31
0.0
  0
LINE
  5
10B32
330
12BA3
100
AcDbEntity
  8
0
 62
     0
100
AcDbLine
 10
737.3780933927304
 20
853.4
 30
0.0
 11
739.4810133471985
 21
853.4
 31
0.0
  0
LINE
  5
10B33
330
12BA3
100
AcDbEntity
  8
0
 62
     0
100
AcDbLine
 10
737.4358284196492
 20
853.5
 30
0.0
 11
739.4714661353098
 21
853.5
 31
0.0
  0
LINE
  5
10B34
330
12BA3
100
AcDbEntity
  8
0
 62
     0
100
AcDbLine
 10
737.4935634465682
 20
853.5999999999999
 30
0.0
 11
739.4601146933939
 21
853.5999999999999
 31
0.0
  0
LINE
  5
10B35
330
12BA3
100
AcDbEntity
  8
0
 62
     0
100
AcDbLine
 10
737.5512984734872
 20
853.7
 30
0.0
 11
739.4469480083698
 21
853.7
 31
0.0
  0
LINE
  5
10B36
330
12BA3
100
AcDbEntity
  8
0
 62
     0
100
AcDbLine
 10
737.6090335004062
 20
853.8
 30
0.0
 11
739.4319531934128
 21
853.8
 31
0.0
  0
LINE
  5
10B37
330
12BA3
100
AcDbEntity
  8
0
 62
     0
100
AcDbLine
 10
737.6667685273251
 20
853.9000000000001
 30
0.0
 11
739.4151154233753
 21
853.9000000000001
 31
0.0
  0
LINE
  5
10B38
330
12BA3
100
AcDbEntity
  8
0
 62
     0
100
AcDbLine
 10
737.7245035542442
 20
854.0
 30
0.0
 11
739.3964178592526
 21
854.0
 31
0.0
  0
LINE
  5
10B39
330
12BA3
100
AcDbEntity
  8
0
 62
     0
100
AcDbLine
 10
737.7822385811631
 20
854.1
 30
0.0
 11
739.3758415607676
 21
854.1
 31
0.0
  0
LINE
  5
10B3A
330
12BA3
100
AcDbEntity
  8
0
 62
     0
100
AcDbLine
 10
737.8399736080821
 20
854.1999999999999
 30
0.0
 11
739.3533653859804
 21
854.1999999999999
 31
0.0
  0
LINE
  5
10B3B
330
12BA3
100
AcDbEntity
  8
0
 62
     0
100
AcDbLine
 10
737.8977086350011
 20
854.3000000000001
 30
0.0
 11
739.328965876624
 21
854.3000000000001
 31
0.0
  0
LINE
  5
10B3C
330
12BA3
100
AcDbEntity
  8
0
 62
     0
100
AcDbLine
 10
737.95544366192
 20
854.4
 30
0.0
 11
739.3026171276431
 21
854.4
 31
0.0
  0
LINE
  5
10B3D
330
12BA3
100
AcDbEntity
  8
0
 62
     0
100
AcDbLine
 10
738.0131786888389
 20
854.4999999999999
 30
0.0
 11
739.2742906391426
 21
854.4999999999999
 31
0.0
  0
LINE
  5
10B3E
330
12BA3
100
AcDbEntity
  8
0
 62
     0
100
AcDbLine
 10
738.0709137157579
 20
854.6000000000001
 30
0.0
 11
739.2439551486384
 21
854.6000000000001
 31
0.0
  0
LINE
  5
10B3F
330
12BA3
100
AcDbEntity
  8
0
 62
     0
100
AcDbLine
 10
738.1286487426769
 20
854.7
 30
0.0
 11
739.2115764411332
 21
854.7
 31
0.0
  0
LINE
  5
10B40
330
12BA3
100
AcDbEntity
  8
0
 62
     0
100
AcDbLine
 10
738.1863837695958
 20
854.8
 30
0.0
 11
739.1771171340977
 21
854.8
 31
0.0
  0
LINE
  5
10B41
330
12BA3
100
AcDbEntity
  8
0
 62
     0
100
AcDbLine
 10
738.2441187965148
 20
854.9000000000001
 30
0.0
 11
739.1405364339102
 21
854.9000000000001
 31
0.0
  0
LINE
  5
10B42
330
12BA3
100
AcDbEntity
  8
0
 62
     0
100
AcDbLine
 10
738.3018538234336
 20
855.0
 30
0.0
 11
739.1017898596747
 21
855.0
 31
0.0
  0
LINE
  5
10B43
330
12BA3
100
AcDbEntity
  8
0
 62
     0
100
AcDbLine
 10
738.3595888503527
 20
855.1
 30
0.0
 11
739.0608289295706
 21
855.1
 31
0.0
  0
LINE
  5
10B44
330
12BA3
100
AcDbEntity
  8
0
 62
     0
100
AcDbLine
 10
738.4173238772716
 20
855.2000000000001
 30
0.0
 11
739.0176008039556
 21
855.2000000000001
 31
0.0
  0
LINE
  5
10B45
330
12BA3
100
AcDbEntity
  8
0
 62
     0
100
AcDbLine
 10
738.4750589041906
 20
855.3
 30
0.0
 11
738.9720478783058
 21
855.3
 31
0.0
  0
LINE
  5
10B46
330
12BA3
100
AcDbEntity
  8
0
 62
     0
100
AcDbLine
 10
738.5327939311096
 20
855.4
 30
0.0
 11
738.9241073176705
 21
855.4
 31
0.0
  0
LINE
  5
10B47
330
12BA3
100
AcDbEntity
  8
0
 62
     0
100
AcDbLine
 10
738.5905289580286
 20
855.4999999999999
 30
0.0
 11
738.8737105225916
 21
855.4999999999999
 31
0.0
  0
LINE
  5
10B48
330
12BA3
100
AcDbEntity
  8
0
 62
     0
100
AcDbLine
 10
738.6482639849475
 20
855.6
 30
0.0
 11
738.8207825142646
 21
855.6
 31
0.0
  0
LINE
  5
10B49
330
12BA3
100
AcDbEntity
  8
0
 62
     0
100
AcDbLine
 10
738.7059990118665
 20
855.7
 30
0.0
 11
738.7652412240115
 21
855.7
 31
0.0
  0
LINE
  5
10B4A
330
12BA3
100
AcDbEntity
  8
0
 62
     0
100
AcDbLine
 10
736.6651087002958
 20
851.7000000000001
 30
0.0
 11
739.3694907954141
 21
851.7000000000001
 31
0.0
  0
LINE
  5
10B4B
330
12BA3
100
AcDbEntity
  8
0
 62
     0
100
AcDbLine
 10
736.6651087002958
 20
851.6
 30
0.0
 11
739.346456831924
 21
851.6
 31
0.0
  0
LINE
  5
10B4C
330
12BA3
100
AcDbEntity
  8
0
 62
     0
100
AcDbLine
 10
736.6651087002958
 20
851.5
 30
0.0
 11
739.3214922458659
 21
851.5
 31
0.0
  0
LINE
  5
10B4D
330
12BA3
100
AcDbEntity
  8
0
 62
     0
100
AcDbLine
 10
736.6651087002958
 20
851.4000000000001
 30
0.0
 11
739.2945703923567
 21
851.4000000000001
 31
0.0
  0
LINE
  5
10B4E
330
12BA3
100
AcDbEntity
  8
0
 62
     0
100
AcDbLine
 10
736.6651087002958
 20
851.3000000000001
 30
0.0
 11
739.2656619849398
 21
851.3000000000001
 31
0.0
  0
LINE
  5
10B4F
330
12BA3
100
AcDbEntity
  8
0
 62
     0
100
AcDbLine
 10
736.6651087002958
 20
851.2
 30
0.0
 11
739.2347349216495
 21
851.2
 31
0.0
  0
LINE
  5
10B50
330
12BA3
100
AcDbEntity
  8
0
 62
     0
100
AcDbLine
 10
736.6651087002958
 20
851.1000000000001
 30
0.0
 11
739.2017540880997
 21
851.1000000000001
 31
0.0
  0
LINE
  5
10B51
330
12BA3
100
AcDbEntity
  8
0
 62
     0
100
AcDbLine
 10
736.6651087002958
 20
851.0
 30
0.0
 11
739.1666811345308
 21
851.0
 31
0.0
  0
LINE
  5
10B52
330
12BA3
100
AcDbEntity
  8
0
 62
     0
100
AcDbLine
 10
736.6651087002958
 20
850.9
 30
0.0
 11
739.1294742231994
 21
850.9
 31
0.0
  0
LINE
  5
10B53
330
12BA3
100
AcDbEntity
  8
0
 62
     0
100
AcDbLine
 10
736.6651087002958
 20
850.8
 30
0.0
 11
739.0900877418182
 21
850.8
 31
0.0
  0
LINE
  5
10B54
330
12BA3
100
AcDbEntity
  8
0
 62
     0
100
AcDbLine
 10
736.6651087002958
 20
850.7000000000001
 30
0.0
 11
739.0484719779508
 21
850.7000000000001
 31
0.0
  0
LINE
  5
10B55
330
12BA3
100
AcDbEntity
  8
0
 62
     0
100
AcDbLine
 10
736.6651087002958
 20
850.6
 30
0.0
 11
739.0045727482702
 21
850.6
 31
0.0
  0
LINE
  5
10B56
330
12BA3
100
AcDbEntity
  8
0
 62
     0
100
AcDbLine
 10
736.6651087002958
 20
850.5
 30
0.0
 11
738.9583309753903
 21
850.5
 31
0.0
  0
LINE
  5
10B57
330
12BA3
100
AcDbEntity
  8
0
 62
     0
100
AcDbLine
 10
736.6651087002958
 20
850.4000000000001
 30
0.0
 11
738.9096822034802
 21
850.4000000000001
 31
0.0
  0
LINE
  5
10B58
330
12BA3
100
AcDbEntity
  8
0
 62
     0
100
AcDbLine
 10
736.6651087002958
 20
850.3
 30
0.0
 11
738.8585560420251
 21
850.3
 31
0.0
  0
LINE
  5
10B59
330
12BA3
100
AcDbEntity
  8
0
 62
     0
100
AcDbLine
 10
736.6651087002958
 20
850.2
 30
0.0
 11
738.8048755247915
 21
850.2
 31
0.0
  0
LINE
  5
10B5A
330
12BA3
100
AcDbEntity
  8
0
 62
     0
100
AcDbLine
 10
736.6651087002958
 20
850.1000000000001
 30
0.0
 11
738.7485563681415
 21
850.1000000000001
 31
0.0
  0
LINE
  5
10B5B
330
12BA3
100
AcDbEntity
  8
0
 62
     0
100
AcDbLine
 10
736.6651087002958
 20
850.0
 30
0.0
 11
738.6895061091681
 21
850.0
 31
0.0
  0
LINE
  5
10B5C
330
12BA3
100
AcDbEntity
  8
0
 62
     0
100
AcDbLine
 10
736.6651087002958
 20
849.9
 30
0.0
 11
738.6276230994175
 21
849.9
 31
0.0
  0
LINE
  5
10B5D
330
12BA3
100
AcDbEntity
  8
0
 62
     0
100
AcDbLine
 10
736.6651087002958
 20
849.8000000000001
 30
0.0
 11
738.5627953239082
 21
849.8000000000001
 31
0.0
  0
LINE
  5
10B5E
330
12BA3
100
AcDbEntity
  8
0
 62
     0
100
AcDbLine
 10
736.6651087002958
 20
849.6999999999999
 30
0.0
 11
738.4948990072921
 21
849.6999999999999
 31
0.0
  0
LINE
  5
10B5F
330
12BA3
100
AcDbEntity
  8
0
 62
     0
100
AcDbLine
 10
736.6651087002958
 20
849.6
 30
0.0
 11
738.4237969586625
 21
849.6
 31
0.0
  0
LINE
  5
10B60
330
12BA3
100
AcDbEntity
  8
0
 62
     0
100
AcDbLine
 10
736.6651087002958
 20
849.5
 30
0.0
 11
738.3493365928305
 21
849.5
 31
0.0
  0
LINE
  5
10B61
330
12BA3
100
AcDbEntity
  8
0
 62
     0
100
AcDbLine
 10
736.6651087002958
 20
849.4000000000001
 30
0.0
 11
738.2713475475067
 21
849.4000000000001
 31
0.0
  0
LINE
  5
10B62
330
12BA3
100
AcDbEntity
  8
0
 62
     0
100
AcDbLine
 10
736.6651087002958
 20
849.3
 30
0.0
 11
738.189638790901
 21
849.3
 31
0.0
  0
LINE
  5
10B63
330
12BA3
100
AcDbEntity
  8
0
 62
     0
100
AcDbLine
 10
736.6651087002958
 20
849.2
 30
0.0
 11
738.1039950799439
 21
849.2
 31
0.0
  0
LINE
  5
10B64
330
12BA3
100
AcDbEntity
  8
0
 62
     0
100
AcDbLine
 10
736.6651087002958
 20
849.0999999999999
 30
0.0
 11
738.0141725814688
 21
849.0999999999999
 31
0.0
  0
LINE
  5
10B65
330
12BA3
100
AcDbEntity
  8
0
 62
     0
100
AcDbLine
 10
736.6651087002958
 20
849.0
 30
0.0
 11
737.9198934008272
 21
849.0
 31
0.0
  0
LINE
  5
10B66
330
12BA3
100
AcDbEntity
  8
0
 62
     0
100
AcDbLine
 10
736.6651087002958
 20
848.9
 30
0.0
 11
737.8208386645147
 21
848.9
 31
0.0
  0
LINE
  5
10B67
330
12BA3
100
AcDbEntity
  8
0
 62
     0
100
AcDbLine
 10
736.6651087002958
 20
848.8000000000001
 30
0.0
 11
737.7166396594191
 21
848.8000000000001
 31
0.0
  0
LINE
  5
10B68
330
12BA3
100
AcDbEntity
  8
0
 62
     0
100
AcDbLine
 10
736.6651087002958
 20
848.7
 30
0.0
 11
737.6068663150166
 21
848.7
 31
0.0
  0
LINE
  5
10B69
330
12BA3
100
AcDbEntity
  8
0
 62
     0
100
AcDbLine
 10
736.6651087002958
 20
848.6
 30
0.0
 11
737.4910119820581
 21
848.6
 31
0.0
  0
LINE
  5
10B6A
330
12BA3
100
AcDbEntity
  8
0
 62
     0
100
AcDbLine
 10
736.6651087002958
 20
848.4999999999999
 30
0.0
 11
737.3684729352159
 21
848.4999999999999
 31
0.0
  0
LINE
  5
10B6B
330
12BA3
100
AcDbEntity
  8
0
 62
     0
100
AcDbLine
 10
736.6651087002958
 20
848.4000000000001
 30
0.0
 11
737.2385201697203
 21
848.4000000000001
 31
0.0
  0
LINE
  5
10B6C
330
12BA3
100
AcDbEntity
  8
0
 62
     0
100
AcDbLine
 10
736.6651087002958
 20
848.3
 30
0.0
 11
737.1002596144062
 21
848.3
 31
0.0
  0
LINE
  5
10B6D
330
12BA3
100
AcDbEntity
  8
0
 62
     0
100
AcDbLine
 10
736.6651087002958
 20
848.2000000000001
 30
0.0
 11
736.9525743379333
 21
848.2000000000001
 31
0.0
  0
LINE
  5
10B6E
330
12BA3
100
AcDbEntity
  8
0
 62
     0
100
AcDbLine
 10
736.6651087002958
 20
848.0999999999999
 30
0.0
 11
736.7940376285928
 21
848.0999999999999
 31
0.0
  0
ENDBLK
  5
10B6F
330
12BA3
100
AcDbEntity
  8
0
100
AcDbBlockEnd
  0
BLOCK
  5
12AD4
330
12BA8
100
AcDbEntity
  8
0
100
AcDbBlockBegin
  2
*D9
 70
     1
 10
0.0
 20
0.0
 30
0.0
  3
*D9
  1

  0
LINE
  5
12AD5
330
12BA8
100
AcDbEntity
  8
0
  6
ByBlock
 62
     0
100
AcDbLine
 10
649.2172945574063
 20
1024.601017181359
 30
0.0
 11
683.7181888410718
 21
1084.35831898723
 31
0.0
  0
LINE
  5
12AD6
330
12BA8
100
AcDbEntity
  8
0
  6
ByBlock
 62
     0
100
AcDbLine
 10
574.715108700296
 20
900.5594460019048
 30
0.0
 11
574.715108700296
 21
1113.565606283456
 31
0.0
  0
ARC
  5
12AD7
330
12BA8
100
AcDbEntity
  8
0
  6
ByBlock
 62
     0
100
AcDbCircle
 10
574.715108700296
 20
895.559446001905
 30
0.0
 40
213.0061602815513
100
AcDbArc
 50
64.70858847168315
 51
85.29141152831678
  0
SOLID
  5
12AD8
330
12BA8
100
AcDbEntity
  8
0
  6
ByBlock
 62
     0
100
AcDbTrace
 10
667.0694403426282
 20
1090.731923110869
 30
0.0
 11
664.3627571881999
 21
1085.564559752316
 31
0.0
 12
681.2181888410719
 22
1080.028191968308
 32
0.0
 13
681.2181888410719
 23
1080.028191968308
 33
0.0
  0
SOLID
  5
12AD9
330
12BA8
100
AcDbEntity
  8
0
  6
ByBlock
 62
     0
100
AcDbTrace
 10
592.0805245954396
 20
1104.932525602665
 30
0.0
 11
592.3201499029857
 21
1110.76093511897
 31
0.0
 12
574.715108700296
 22
1108.565606283456
 32
0.0
 13
574.715108700296
 23
1108.565606283456
 33
0.0
  0
TEXT
  5
12ADA
330
12BA8
100
AcDbEntity
  8
0
  6
ByBlock
 62
     1
100
AcDbText
 10
618.7778639727353
 20
1116.556425189963
 30
0.0
 40
17.5
  1
30%%d
 50
345.4540534848269
 41
0.8
  7
GREEKS
 72
     1
 11
635.1720309091328
 21
1121.342331746994
 31
0.0
100
AcDbText
 73
     2
  0
POINT
  5
12ADB
330
12BA8
100
AcDbEntity
  8
DEFPOINTS
  6
ByBlock
 62
     0
100
AcDbPoint
 10
626.1411220733838
 20
1102.264524474691
 30
0.0
  0
POINT
  5
12ADC
330
12BA8
100
AcDbEntity
  8
DEFPOINTS
  6
ByBlock
 62
     0
100
AcDbPoint
 10
574.715108700296
 20
895.5594460019048
 30
0.0
  0
POINT
  5
12ADD
330
12BA8
100
AcDbEntity
  8
DEFPOINTS
  6
ByBlock
 62
     0
100
AcDbPoint
 10
574.715108700296
 20
895.559446001905
 30
0.0
  0
POINT
  5
12ADE
330
12BA8
100
AcDbEntity
  8
DEFPOINTS
  6
ByBlock
 62
     0
100
AcDbPoint
 10
646.7172945574064
 20
1020.270890162437
 30
0.0
  0
POINT
  5
12ADF
330
12BA8
100
AcDbEntity
  8
DEFPOINTS
  6
ByBlock
 62
     0
100
AcDbPoint
 10
574.715108700296
 20
751.5550742876844
 30
0.0
  0
ENDBLK
  5
12AE0
330
12BA8
100
AcDbEntity
  8
0
100
AcDbBlockEnd
  0
BLOCK
  5
12BED
330
12BE3
100
AcDbEntity
  8
0
100
AcDbBlockBegin
  2
*D10
 70
     1
 10
0.0
 20
0.0
 30
0.0
  3
*D10
  1

  0
LINE
  5
12BE4
330
12BE3
100
AcDbEntity
  8
BEM
 62
     0
370
    -2
100
AcDbLine
 10
570.3849816813738
 20
898.0594460019048
 30
0.0
 11
404.151405424951
 21
994.0344460019046
 31
0.0
  0
LINE
  5
12BE5
330
12BE3
100
AcDbEntity
  8
BEM
 62
     0
370
    -2
100
AcDbLine
 10
497.1343533955941
 20
1095.085636124592
 30
0.0
 11
471.153591282061
 21
1110.085636124592
 31
0.0
  0
LINE
  5
12BE6
330
12BE3
100
AcDbEntity
  8
BEM
 62
     0
370
    -2
100
AcDbLine
 10
417.2315324438732
 20
1006.689890568132
 30
0.0
 11
466.7337183009832
 21
1092.430191558364
 31
0.0
  0
SOLID
  5
12BE7
330
12BE3
100
AcDbEntity
  8
BEM
 62
     0
100
AcDbTrace
 10
414.7056250161686
 20
1008.148223901466
 30
0.0
 11
419.7574398715778
 21
1005.231557234799
 31
0.0
 12
408.4815324438732
 22
991.5344460019047
 32
0.0
 13
408.4815324438732
 23
991.5344460019047
 33
0.0
  0
SOLID
  5
12BE8
330
12BE3
100
AcDbEntity
  8
BEM
 62
     0
100
AcDbTrace
 10
464.2078108732786
 20
1093.888524891698
 30
0.0
 11
469.2596257286878
 21
1090.971858225031
 31
0.0
 12
475.4837183009833
 22
1107.585636124592
 32
0.0
 13
475.4837183009833
 23
1107.585636124592
 33
0.0
  0
MTEXT
  5
12BE9
330
12BE3
100
AcDbEntity
  8
BEM
 62
     1
100
AcDbMText
 10
427.9097125609312
 20
1057.685041063249
 30
0.0
 40
17.5
 41
0.0
 71
     5
 72
     1
  1
\A1;134
  7
GREEKS
 11
0.5000000000000001
 21
0.8660254037844385
 31
0.0
 73
     1
 44
1.0
  0
POINT
  5
12BEA
330
12BE3
100
AcDbEntity
  8
DEFPOINTS
 62
     0
100
AcDbPoint
 10
574.715108700296
 20
895.5594460019048
 30
0.0
  0
POINT
  5
12BEB
330
12BE3
100
AcDbEntity
  8
DEFPOINTS
 62
     0
100
AcDbPoint
 10
501.4644804145163
 20
1092.585636124592
 30
0.0
  0
POINT
  5
12BEC
330
12BE3
100
AcDbEntity
  8
DEFPOINTS
 62
     0
100
AcDbPoint
 10
475.4837183009833
 20
1107.585636124592
 30
0.0
  0
ENDBLK
  5
12BEE
330
12BE3
100
AcDbEntity
  8
0
100
AcDbBlockEnd
  0
BLOCK
  5
12BF9
330
12BEF
100
AcDbEntity
  8
0
100
AcDbBlockBegin
  2
*D11
 70
     1
 10
0.0
 20
0.0
 30
0.0
  3
*D11
  1

  0
LINE
  5
12BF0
330
12BEF
100
AcDbEntity
  8
BEM
 62
     0
370
    -2
100
AcDbLine
 10
407.7651087002959
 20
761.5550742876846
 30
0.0
 11
377.765108700296
 21
761.5550742876846
 31
0.0
  0
LINE
  5
12BF1
330
12BEF
100
AcDbEntity
  8
BEM
 62
     0
370
    -2
100
AcDbLine
 10
569.715108700296
 20
895.5594460019048
 30
0.0
 11
377.765108700296
 21
895.5594460019048
 31
0.0
  0
LINE
  5
12BF2
330
12BEF
100
AcDbEntity
  8
BEM
 62
     0
370
    -2
100
AcDbLine
 10
382.765108700296
 20
779.0550742876846
 30
0.0
 11
382.765108700296
 21
878.0594460019047
 31
0.0
  0
SOLID
  5
12BF3
330
12BEF
100
AcDbEntity
  8
BEM
 62
     0
100
AcDbTrace
 10
379.8484420336293
 20
779.0550742876846
 30
0.0
 11
385.6817753669627
 21
779.0550742876846
 31
0.0
 12
382.765108700296
 22
761.5550742876846
 32
0.0
 13
382.765108700296
 23
761.5550742876846
 33
0.0
  0
SOLID
  5
12BF4
330
12BEF
100
AcDbEntity
  8
BEM
 62
     0
100
AcDbTrace
 10
379.8484420336293
 20
878.0594460019047
 30
0.0
 11
385.6817753669627
 21
878.0594460019047
 31
0.0
 12
382.765108700296
 22
895.5594460019048
 32
0.0
 13
382.765108700296
 23
895.5594460019048
 33
0.0
  0
MTEXT
  5
12BF5
330
12BEF
100
AcDbEntity
  8
BEM
 62
     1
100
AcDbMText
 10
366.5151087002958
 20
828.5572601447947
 30
0.0
 40
17.5
 41
0.0
 71
     5
 72
     1
  1
\A1;134
  7
GREEKS
 11
0.0000000000000001
 21
1.0
 31
0.0
 73
     1
 44
1.0
  0
POINT
  5
12BF6
330
12BEF
100
AcDbEntity
  8
DEFPOINTS
 62
     0
100
AcDbPoint
 10
412.7651087002959
 20
761.5550742876846
 30
0.0
  0
POINT
  5
12BF7
330
12BEF
100
AcDbEntity
  8
DEFPOINTS
 62
     0
100
AcDbPoint
 10
574.715108700296
 20
895.5594460019048
 30
0.0
  0
POINT
  5
12BF8
330
12BEF
100
AcDbEntity
  8
DEFPOINTS
 62
     0
100
AcDbPoint
 10
382.765108700296
 20
895.5594460019048
 30
0.0
  0
ENDBLK
  5
12BFA
330
12BEF
100
AcDbEntity
  8
0
100
AcDbBlockEnd
  0
ENDSEC
  0
SECTION
  2
ENTITIES
  0
DIMENSION
  5
12AFA
330
12B9A
100
AcDbEntity
  8
BEM
100
AcDbDimension
  2
*D10
 10
475.4837183009833
 20
1107.585636124592
 30
0.0
 11
427.9097125609312
 21
1057.685041063249
 31
0.0
 70
    32
 71
     5
 42
134.00437171422
  3
Standard
100
AcDbAlignedDimension
 13
574.715108700296
 23
895.5594460019048
 33
0.0
 14
501.4644804145162
 24
1092.585636124592
 34
0.0
 50
60.0
100
AcDbRotatedDimension
1001
ACAD
1000
DSTYLE
1002
{
1070
    40
1040
5.0
1070
    41
1040
3.5
1070
    42
1040
1.0
1070
    43
1040
7.0
1070
    44
1040
1.0
1070
    47
1040
3.0
1070
    48
1040
3.0
1070
    73
1070
     0
1070
    74
1070
     0
1070
    77
1070
     1
1070
    78
1070
     8
1070
    79
1070
     2
1070
   140
1040
3.5
1070
   141
1040
1.5
1070
   146
1040
0.5
1070
   147
1040
1.5
1070
   172
1070
     1
1070
   178
1070
     1
1070
   179
1070
     2
1070
   271
1070
     2
1070
   272
1070
     2
1070
   284
1070
     8
1070
   285
1070
     8
1070
   286
1070
     8
1070
   340
1005
12BAB
1002
}
  0
DIMENSION
  5
12AFB
330
12B9A
100
AcDbEntity
  8
BEM
100
AcDbDimension
  2
*D11
 10
382.765108700296
 20
895.5594460019048
 30
0.0
 11
366.5151087002958
 21
828.5572601447947
 31
0.0
 70
    32
 71
     5
 42
134.0043717142201
  3
Standard
100
AcDbAlignedDimension
 13
412.7651087002959
 23
761.5550742876846
 33
0.0
 14
574.715108700296
 24
895.5594460019048
 34
0.0
 50
90.0
100
AcDbRotatedDimension
1001
ACAD
1000
DSTYLE
1002
{
1070
    40
1040
5.0
1070
    41
1040
3.5
1070
    42
1040
1.0
1070
    43
1040
7.0
1070
    44
1040
1.0
1070
    47
1040
3.0
1070
    48
1040
3.0
1070
    73
1070
     0
1070
    74
1070
     0
1070
    77
1070
     1
1070
    78
1070
     8
1070
    79
1070
     2
1070
   140
1040
3.5
1070
   141
1040
1.5
1070
   146
1040
0.5
1070
   147
1040
1.5
1070
   172
1070
     1
1070
   178
1070
     1
1070
   179
1070
     2
1070
   271
1070
     2
1070
   272
1070
     2
1070
   284
1070
     8
1070
   285
1070
     8
1070
   286
1070
     8
1070
   340
1005
12BAB
1002
}
  0
LINE
  5
12AFC
330
12B9A
100
AcDbEntity
  8
STEMPEL
100
AcDbLine
 10
781.9701087002958
 20
930.6356361245926
 30
0.0
 11
501.4644804145163
 21
1092.585636124592
 31
0.0
  0
LINE
  5
12AFD
330
12B9A
100
AcDbEntity
  8
STEMPEL
100
AcDbLine
 10
736.6651087002958
 20
852.1650742876845
 30
0.0
 11
412.765108700296
 21
938.9538177161252
 31
0.0
  0
ARC
  5
12AFE
330
12B9A
100
AcDbEntity
  8
SCHRAFF
100
AcDbCircle
 10
520.8488745107684
 20
909.8557687538363
 30
0.0
 40
5.705091079773839
100
AcDbArc
 50
300.4824135024093
 51
29.51758649759066
  0
TEXT
  5
12AFF
330
12B9A
100
AcDbEntity
  8
TEXT
 62
     1
100
AcDbText
 10
273.9036994186759
 20
439.8504167589382
 30
0.0
 40
17.5
  1
Rohrenden leicht entgratet
 41
0.8
  7
GREEKS
100
AcDbText
  0
DIMENSION
  5
12B00
330
12B9A
100
AcDbEntity
  8
BEM
100
AcDbDimension
  2
*D1
 10
736.6651087002958
 20
680.3590259711035
 30
0.0
 11
574.7151087002959
 21
697.8590259711035
 31
0.0
  1
%%c324%%p2.6
 71
     5
 42
-1.0
100
AcDbAlignedDimension
 13
412.7651087002959
 23
761.5550742876845
 33
0.0
 14
736.6651087002958
 24
761.5550742876845
 34
0.0
100
AcDbRotatedDimension
  0
INSERT
  5
12B01
330
12B9A
100
AcDbEntity
  8
STEMPEL
100
AcDbBlockReference
  2
LOGO
 10
377.4888713644485
 20
112.552631911208
 30
0.0
 41
5.0
 42
5.0
 43
5.0
  0
LINE
  5
12B02
330
12B9A
100
AcDbEntity
  8
HILF
100
AcDbLine
 10
1050.0
 20
0.0
 30
0.0
 11
0.0
 21
0.0
 31
0.0
  0
LINE
  5
12B03
330
12B9A
100
AcDbEntity
  8
STEMPEL
100
AcDbLine
 10
1025.0
 20
25.0
 30
0.0
 11
99.99999999999971
 21
25.0
 31
0.0
  0
LINE
  5
12B04
330
12B9A
100
AcDbEntity
  8
STEMPEL
100
AcDbLine
 10
124.9999999999997
 20
25.0
 30
0.0
 11
1025.0
 21
25.0
 31
0.0
  0
LINE
  5
12B05
330
12B9A
100
AcDbEntity
  8
HILF
100
AcDbLine
 10
365.0000000000003
 20
124.9999999999999
 30
0.0
 11
575.0
 21
124.9999999999999
 31
0.0
  0
LINE
  5
12B06
330
12B9A
100
AcDbEntity
  8
HILF
100
AcDbLine
 10
365.0000000000003
 20
149.9999999999999
 30
0.0
 11
575.0
 21
149.9999999999999
 31
0.0
  0
LINE
  5
12B07
330
12B9A
100
AcDbEntity
  8
HILF
100
AcDbLine
 10
365.0000000000003
 20
174.9999999999998
 30
0.0
 11
575.0
 21
174.9999999999998
 31
0.0
  0
LINE
  5
12B08
330
12B9A
100
AcDbEntity
  8
STEMPEL
100
AcDbLine
 10
1025.0
 20
200.0
 30
0.0
 11
365.0000000000003
 21
199.9999999999998
 31
0.0
  0
LINE
  5
12B09
330
12B9A
100
AcDbEntity
  8
STEMPEL
100
AcDbLine
 10
1025.0
 20
100.0
 30
0.0
 11
365.0000000000003
 21
99.99999999999992
 31
0.0
  0
LINE
  5
12B0A
330
12B9A
100
AcDbEntity
  8
STEMPEL
100
AcDbLine
 10
1025.0
 20
275.0000000000001
 30
0.0
 11
99.99999999999992
 21
275.0
 31
0.0
  0
TEXT
  5
12B0B
330
12B9A
100
AcDbEntity
  8
TEXT
100
AcDbText
 10
511.0540121453142
 20
157.7240979930877
 30
0.0
 40
10.0
  1
Koeh
 41
0.8
  7
GREEKS
 72
     1
 11
524.1968692881714
 21
157.7240979930877
 31
0.0
100
AcDbText
  0
TEXT
  5
12B0C
330
12B9A
100
AcDbEntity
  8
TEXT
100
AcDbText
 10
485.7147386835128
 20
256.0460421087048
 30
0.0
 40
12.5
  1
Zul. Abw.
 41
0.8
  7
GREEKS
100
AcDbText
  0
TEXT
  5
12B0D
330
12B9A
100
AcDbEntity
  8
TEXT
100
AcDbText
 10
506.1566460565737
 20
183.2740272978806
 30
0.0
 40
10.0
  1
Name
 41
0.8
  7
GREEKS
100
AcDbText
  0
TEXT
  5
12B0F
330
12B9A
100
AcDbEntity
  8
TEXT
 62
     1
100
AcDbText
 10
471.7846544748148
 20
351.64847138984
 30
0.0
 40
17.5
  1
Werkstoff: EN 10219 S235
 41
0.8
  7
GREEKS
100
AcDbText
  0
LINE
  5
12B10
330
12B9A
100
AcDbEntity
  8
HILF
100
AcDbLine
 10
1050.0
 20
1485.0
 30
0.0
 11
0.0
 21
1485.0
 31
0.0
  0
LINE
  5
12B11
330
12B9A
100
AcDbEntity
  8
STEMPEL
100
AcDbLine
 10
1025.0
 20
1460.0
 30
0.0
 11
99.99999999999971
 21
1460.0
 31
0.0
  0
LINE
  5
12B12
330
12B9A
100
AcDbEntity
  8
STEMPEL
100
AcDbLine
 10
736.6651087002958
 20
761.5550742876846
 30
0.0
 11
412.7651087002959
 21
761.5550742876846
 31
0.0
  0
LINE
  5
12B13
330
12B9A
100
AcDbEntity
  8
HILF
100
AcDbLine
 10
0.0
 20
0.0
 30
0.0
 11
-0.0000000000002842
 21
1485.0
 31
0.0
  0
LINE
  5
12B14
330
12B9A
100
AcDbEntity
  8
STEMPEL
100
AcDbLine
 10
100.0
 20
25.0
 30
0.0
 11
99.99999999999971
 21
1460.0
 31
0.0
  0
TEXT
  5
12B15
330
12B9A
100
AcDbEntity
  8
TEXT
100
AcDbText
 10
104.6377487744418
 20
279.1799999999999
 30
0.0
 40
12.5
  1
Erstellt mit AUTOCAD 2004
 41
0.8
  7
GREEKS
100
AcDbText
  0
TEXT
  5
12B16
330
12B9A
100
AcDbEntity
  8
TEXT
100
AcDbText
 10
170.8791740339942
 20
46.68454737460329
 30
0.0
 40
10.0
  1
Änderung
 41
0.8
  7
GREEKS
 72
     1
 11
197.7363168911371
 21
46.68454737460329
 31
0.0
100
AcDbText
  0
LINE
  5
12B17
330
12B9A
100
AcDbEntity
  8
HILF
100
AcDbLine
 10
100.0000000000002
 20
99.99999999999992
 30
0.0
 11
365.0000000000003
 21
99.99999999999992
 31
0.0
  0
LINE
  5
12B18
330
12B9A
100
AcDbEntity
  8
HILF
100
AcDbLine
 10
100.0000000000002
 20
124.9999999999999
 30
0.0
 11
365.0000000000003
 21
124.9999999999999
 31
0.0
  0
LINE
  5
12B19
330
12B9A
100
AcDbEntity
  8
HILF
100
AcDbLine
 10
100.0000000000002
 20
149.9999999999999
 30
0.0
 11
365.0000000000003
 21
149.9999999999999
 31
0.0
  0
LINE
  5
12B1A
330
12B9A
100
AcDbEntity
  8
HILF
100
AcDbLine
 10
100.0000000000002
 20
174.9999999999998
 30
0.0
 11
365.0000000000003
 21
174.9999999999998
 31
0.0
  0
LINE
  5
12B1B
330
12B9A
100
AcDbEntity
  8
HILF
100
AcDbLine
 10
100.0000000000002
 20
199.9999999999998
 30
0.0
 11
365.0000000000003
 21
199.9999999999998
 31
0.0
  0
LINE
  5
12B1C
330
12B9A
100
AcDbEntity
  8
HILF
100
AcDbLine
 10
100.0000000000002
 20
225.0000000000001
 30
0.0
 11
365.0000000000003
 21
225.0000000000001
 31
0.0
  0
LINE
  5
12B1D
330
12B9A
100
AcDbEntity
  8
HILF
100
AcDbLine
 10
100.0000000000002
 20
250.0000000000001
 30
0.0
 11
365.0000000000003
 21
250.0000000000001
 31
0.0
  0
LINE
  5
12B1E
330
12B9A
100
AcDbEntity
  8
STEMPEL
100
AcDbLine
 10
364.9999999999997
 20
74.99999999999992
 30
0.0
 11
99.99999999999992
 21
74.99999999999992
 31
0.0
  0
TEXT
  5
12B1F
330
12B9A
100
AcDbEntity
  8
TEXT
100
AcDbText
 10
120.6660276761439
 20
34.13664615067979
 30
0.0
 40
10.0
  1
Index
 50
90.0
 41
0.8
  7
GREEKS
100
AcDbText
  0
LINE
  5
12B20
330
12B9A
100
AcDbEntity
  8
VOLL
100
AcDbLine
 10
135.0000000000002
 20
275.0000000000001
 30
0.0
 11
134.9999999999999
 21
24.99999999999993
 31
0.0
  0
LINE
  5
12B21
330
12B9A
100
AcDbEntity
  8
HILF
100
AcDbLine
 10
77.7191783928464
 20
742.5000000000001
 30
0.0
 11
0.0000000000002842
 21
742.5000000000001
 31
0.0
  0
TEXT
  5
12B22
330
12B9A
100
AcDbEntity
  8
TEXT
100
AcDbText
 10
275.2764282932893
 20
46.67890673349525
 30
0.0
 40
10.0
  1
Tag
 41
0.8
  7
GREEKS
 72
     1
 11
284.6097616266226
 21
46.67890673349525
 31
0.0
100
AcDbText
  0
LINE
  5
12B23
330
12B9A
100
AcDbEntity
  8
VOLL
100
AcDbLine
 10
310.0000000000003
 20
274.9999999999999
 30
0.0
 11
310.0
 21
24.99999999999993
 31
0.0
  0
LINE
  5
12B24
330
12B9A
100
AcDbEntity
  8
VOLL
100
AcDbLine
 10
260.0000000000003
 20
274.9999999999999
 30
0.0
 11
260.0
 21
24.99999999999993
 31
0.0
  0
TEXT
  5
12B25
330
12B9A
100
AcDbEntity
  8
TEXT
100
AcDbText
 10
323.235869436516
 20
46.4831054241602
 30
0.0
 40
10.0
  1
Name
 41
0.8
  7
GREEKS
 72
     1
 11
339.0453932460397
 21
46.4831054241602
 31
0.0
100
AcDbText
  0
LINE
  5
12B26
330
12B9A
100
AcDbEntity
  8
STEMPEL
100
AcDbLine
 10
365.0000000000003
 20
274.9999999999999
 30
0.0
 11
365.0
 21
24.99999999999993
 31
0.0
  0
TEXT
  5
12B27
330
12B9A
100
AcDbEntity
  8
TEXT
100
AcDbText
 10
425.9974927705902
 20
157.7691260206433
 30
0.0
 40
10.0
  1
06.04.
 41
0.8
  7
GREEKS
 72
     1
 11
443.5213022943996
 21
157.7691260206433
 31
0.0
100
AcDbText
  0
TEXT
  5
12B28
330
12B9A
100
AcDbEntity
  8
TEXT
100
AcDbText
 10
430.8279182884127
 20
183.2970125307481
 30
0.0
 40
10.0
  1
Tag
 41
0.8
  7
GREEKS
100
AcDbText
  0
TEXT
  5
12B29
330
12B9A
100
AcDbEntity
  8
TEXT
100
AcDbText
 10
368.9590317919039
 20
159.0747592404491
 30
0.0
 40
10.0
  1
Gez.
 41
0.8
  7
GREEKS
100
AcDbText
  0
LINE
  5
12B2A
330
12B9A
100
AcDbEntity
  8
VOLL
100
AcDbLine
 10
410.0000000000003
 20
199.9999999999998
 30
0.0
 11
410.0000000000003
 21
99.99999999999992
 31
0.0
  0
TEXT
  5
12B2B
330
12B9A
100
AcDbEntity
  8
TEXT
100
AcDbText
 10
368.8787716429181
 20
134.2231572857094
 30
0.0
 40
10.0
  1
Gepr.
 41
0.8
  7
GREEKS
100
AcDbText
  0
TEXT
  5
12B2C
330
12B9A
100
AcDbEntity
  8
TEXT
100
AcDbText
 10
369.0016943468259
 20
108.8236597412452
 30
0.0
 40
10.0
  1
Norm.
 41
0.8
  7
GREEKS
100
AcDbText
  0
TEXT
  5
12B2D
330
12B9A
100
AcDbEntity
  8
TEXT
 62
     1
100
AcDbText
 10
401.2515766204717
 20
220.372535722849
 30
0.0
 40
17.5
  1
1:5
 41
0.8
  7
GREEKS
100
AcDbText
  0
TEXT
  5
12B2E
330
12B9A
100
AcDbEntity
  8
TEXT
100
AcDbText
 10
383.7908930375943
 20
256.1552237717722
 30
0.0
 40
12.5
  1
Maßstab
 41
0.8
  7
GREEKS
100
AcDbText
  0
TEXT
  5
12B2F
330
12B9A
100
AcDbEntity
  8
TEXT
100
AcDbText
 10
371.55527455526
 20
182.8506367787916
 30
0.0
 40
10.0
  1
2011
 41
0.8
  7
GREEKS
100
AcDbText
  0
LINE
  5
12B30
330
12B9A
100
AcDbEntity
  8
VOLL
100
AcDbLine
 10
475.0000000000002
 20
274.9999999999996
 30
0.0
 11
475.0
 21
99.99999999999992
 31
0.0
  0
LINE
  5
12B31
330
12B9A
100
AcDbEntity
  8
STEMPEL
100
AcDbLine
 10
412.765108700296
 20
938.9538177161252
 30
0.0
 11
501.4644804145163
 21
1092.585636124592
 31
0.0
  0
ARC
  5
12B32
330
12B9A
100
AcDbEntity
  8
SCHRAFF
100
AcDbCircle
 10
438.7451792761978
 20
931.8553875875506
 30
0.0
 40
5.705091079773839
100
AcDbArc
 50
300.4824135024093
 51
29.51758649759066
  0
LINE
  5
12B33
330
12B9A
100
AcDbEntity
  8
STEMPEL
100
AcDbLine
 10
412.765108700296
 20
938.9538177161252
 30
0.0
 11
412.7651087002959
 21
761.5550742876846
 31
0.0
  0
INSERT
  5
12B34
330
12B9A
100
AcDbEntity
  8
SCHRAFF
100
AcDbBlockReference
  2
*X3
 10
0.0
 20
0.0
 30
0.0
1001
ACAD
1000
HATCH
1002
{
1070
    16
1000
_U,I
1040
0.1
1040
0.0
1070
     0
1002
}
  0
ARC
  5
12B35
330
12B9A
100
AcDbEntity
  8
SCHRAFF
100
AcDbCircle
 10
415.2785286917863
 20
938.2803488591649
 30
0.0
 40
4.282730267439339
100
AcDbArc
 50
95.93543971742866
 51
234.064560282572
  0
ARC
  5
12B36
330
12B9A
100
AcDbEntity
  8
SCHRAFF
100
AcDbCircle
 10
410.4361872069359
 20
939.5778503495064
 30
0.0
 40
5.705091079773839
100
AcDbArc
 50
300.4824135024093
 51
29.51758649759066
  0
ARC
  5
12B37
330
12B9A
100
AcDbEntity
  8
SCHRAFF
100
AcDbCircle
 10
415.2658163383813
 20
938.2837551239937
 30
0.0
 40
5.705091079773839
100
AcDbArc
 50
300.4824135024093
 51
29.51758649759066
  0
ARC
  5
12B38
330
12B9A
100
AcDbEntity
  8
SCHRAFF
100
AcDbCircle
 10
429.0859210133071
 20
934.4435780385758
 30
0.0
 40
5.705091079773839
100
AcDbArc
 50
300.4824135024093
 51
29.51758649759066
  0
ARC
  5
12B39
330
12B9A
100
AcDbEntity
  8
SCHRAFF
100
AcDbCircle
 10
420.0954454698266
 20
936.989659898481
 30
0.0
 40
5.705091079773839
100
AcDbArc
 50
300.4824135024093
 51
29.51758649759066
  0
ARC
  5
12B3A
330
12B9A
100
AcDbEntity
  8
SCHRAFF
100
AcDbCircle
 10
424.2562918818615
 20
935.7376732640883
 30
0.0
 40
5.705091079773839
100
AcDbArc
 50
300.4824135024093
 51
29.51758649759066
  0
ARC
  5
12B3B
330
12B9A
100
AcDbEntity
  8
SCHRAFF
100
AcDbCircle
 10
433.9155501447522
 20
933.1494828130631
 30
0.0
 40
5.705091079773839
100
AcDbArc
 50
300.4824135024093
 51
29.51758649759066
  0
ARC
  5
12B3C
330
12B9A
100
AcDbEntity
  8
SCHRAFF
100
AcDbCircle
 10
477.3822123277605
 20
921.5026257834498
 30
0.0
 40
5.705091079773839
100
AcDbArc
 50
300.4824135024093
 51
29.51758649759066
  0
ARC
  5
12B3D
330
12B9A
100
AcDbEntity
  8
SCHRAFF
100
AcDbCircle
 10
458.0636958019788
 20
926.6790066855
 30
0.0
 40
5.705091079773839
100
AcDbArc
 50
300.4824135024093
 51
29.51758649759066
  0
ARC
  5
12B3E
330
12B9A
100
AcDbEntity
  8
SCHRAFF
100
AcDbCircle
 10
448.4044375390882
 20
929.2671971365253
 30
0.0
 40
5.705091079773839
100
AcDbArc
 50
300.4824135024093
 51
29.51758649759066
  0
ARC
  5
12B3F
330
12B9A
100
AcDbEntity
  8
SCHRAFF
100
AcDbCircle
 10
443.574808407643
 20
930.561292362038
 30
0.0
 40
5.705091079773839
100
AcDbArc
 50
300.4824135024093
 51
29.51758649759066
  0
ARC
  5
12B40
330
12B9A
100
AcDbEntity
  8
SCHRAFF
100
AcDbCircle
 10
453.2340666705335
 20
927.973101911013
 30
0.0
 40
5.705091079773839
100
AcDbArc
 50
300.4824135024093
 51
29.51758649759066
  0
ARC
  5
12B41
330
12B9A
100
AcDbEntity
  8
SCHRAFF
100
AcDbCircle
 10
467.7229540648697
 20
924.090816234475
 30
0.0
 40
5.705091079773839
100
AcDbArc
 50
300.4824135024093
 51
29.51758649759066
  0
ARC
  5
12B42
330
12B9A
100
AcDbEntity
  8
SCHRAFF
100
AcDbCircle
 10
462.8933249334242
 20
925.3849114599878
 30
0.0
 40
5.705091079773839
100
AcDbArc
 50
300.4824135024093
 51
29.51758649759066
  0
ARC
  5
12B43
330
12B9A
100
AcDbEntity
  8
SCHRAFF
100
AcDbCircle
 10
472.5525831963151
 20
922.7967210089627
 30
0.0
 40
5.705091079773839
100
AcDbArc
 50
300.4824135024093
 51
29.51758649759066
  0
ARC
  5
12B44
330
12B9A
100
AcDbEntity
  8
SCHRAFF
100
AcDbCircle
 10
506.3599871164325
 20
913.738054430374
 30
0.0
 40
5.705091079773839
100
AcDbArc
 50
300.4824135024093
 51
29.51758649759066
  0
ARC
  5
12B45
330
12B9A
100
AcDbEntity
  8
SCHRAFF
100
AcDbCircle
 10
487.041470590651
 20
918.9144353324245
 30
0.0
 40
5.705091079773839
100
AcDbArc
 50
300.4824135024093
 51
29.51758649759066
  0
ARC
  5
12B46
330
12B9A
100
AcDbEntity
  8
SCHRAFF
100
AcDbCircle
 10
491.8710997220962
 20
917.620340106912
 30
0.0
 40
5.705091079773839
100
AcDbArc
 50
300.4824135024093
 51
29.51758649759066
  0
ARC
  5
12B47
330
12B9A
100
AcDbEntity
  8
SCHRAFF
100
AcDbCircle
 10
496.7007288535417
 20
916.3262448813989
 30
0.0
 40
5.705091079773839
100
AcDbArc
 50
300.4824135024093
 51
29.51758649759066
  0
ARC
  5
12B48
330
12B9A
100
AcDbEntity
  8
SCHRAFF
100
AcDbCircle
 10
501.530357984987
 20
915.0321496558866
 30
0.0
 40
5.705091079773839
100
AcDbArc
 50
300.4824135024093
 51
29.51758649759066
  0
ARC
  5
12B49
330
12B9A
100
AcDbEntity
  8
SCHRAFF
100
AcDbCircle
 10
482.2118414592057
 20
920.2085305579371
 30
0.0
 40
5.705091079773839
100
AcDbArc
 50
300.4824135024093
 51
29.51758649759066
  0
ARC
  5
12B4A
330
12B9A
100
AcDbEntity
  8
SCHRAFF
100
AcDbCircle
 10
511.1896162478777
 20
912.4439592048615
 30
0.0
 40
5.705091079773839
100
AcDbArc
 50
300.4824135024093
 51
29.51758649759066
  0
ARC
  5
12B4B
330
12B9A
100
AcDbEntity
  8
SCHRAFF
100
AcDbCircle
 10
516.0192453793231
 20
911.1498639793488
 30
0.0
 40
5.705091079773839
100
AcDbArc
 50
300.4824135024093
 51
29.51758649759066
  0
LINE
  5
12B4D
330
12B9A
100
AcDbEntity
  8
HILF
100
AcDbLine
 10
1050.0
 20
-0.0000000000002842
 30
0.0
 11
1050.0
 21
1485.0
 31
0.0
  0
LINE
  5
12B4E
330
12B9A
100
AcDbEntity
  8
STEMPEL
100
AcDbLine
 10
1025.0
 20
25.0
 30
0.0
 11
1025.0
 21
1460.0
 31
0.0
  0
LINE
  5
12B50
330
12B9A
100
AcDbEntity
  8
HILF
100
AcDbLine
 10
583.7274248224712
 20
37.23495645070784
 30
0.0
 11
1012.147209831682
 21
37.23495645070784
 31
0.0
  0
TEXT
  5
12B51
330
12B9A
100
AcDbEntity
  8
TEXT
100
AcDbText
 10
843.1002153742515
 20
130.185404446965
 30
0.0
 40
12.5
  1
ersetzt durch:
 41
0.8
  7
GREEKS
100
AcDbText
  0
TEXT
  5
12B52
330
12B9A
100
AcDbEntity
  8
TEXT
100
AcDbText
 10
841.8096540742482
 20
182.9529559274992
 30
0.0
 40
12.5
  1
Ersatz für:
 41
0.8
  7
GREEKS
100
AcDbText
  0
TEXT
  5
12B53
330
12B9A
100
AcDbEntity
  8
TEXT
100
AcDbText
 10
840.4468873940851
 20
255.7830086342841
 30
0.0
 40
12.5
  1
Zeichnungs Nr.
 41
0.8
  7
GREEKS
100
AcDbText
  0
LINE
  5
12B54
330
12B9A
100
AcDbEntity
  8
HILF
100
AcDbLine
 10
841.8096540742482
 20
209.4495909238957
 30
0.0
 11
1012.147209831682
 21
209.4495909238957
 31
0.0
  0
LINE
  5
12B55
330
12B9A
100
AcDbEntity
  8
VOLL
100
AcDbLine
 10
830.0
 20
150.0
 30
0.0
 11
1025.0
 21
150.0
 31
0.0
  0
TEXT
  5
12B56
330
12B9A
100
AcDbEntity
  8
TEXT
 62
     1
100
AcDbText
 10
591.7846544748149
 20
321.64847138984
 30
0.0
 40
17.5
  1
feuerverzinkt und innen beschichtet
 41
0.8
  7
GREEKS
100
AcDbText
  0
LINE
  5
12B57
330
12B9A
100
AcDbEntity
  8
HILF
100
AcDbLine
 10
586.9342002742369
 20
124.9999999999999
 30
0.0
 11
812.0884791390775
 21
124.9999999999999
 31
0.0
  0
LINE
  5
12B58
330
12B9A
100
AcDbEntity
  8
HILF
100
AcDbLine
 10
586.9342002742369
 20
149.9999999999999
 30
0.0
 11
812.0884791390775
 21
149.9999999999999
 31
0.0
  0
LINE
  5
12B59
330
12B9A
100
AcDbEntity
  8
HILF
100
AcDbLine
 10
586.9342002742369
 20
174.9999999999998
 30
0.0
 11
812.0884791390775
 21
174.9999999999998
 31
0.0
  0
LINE
  5
12B5A
330
12B9A
100
AcDbEntity
  8
HILF
100
AcDbLine
 10
586.9342002742369
 20
210.0939561891034
 30
0.0
 11
812.0884791390777
 21
210.0939561891034
 31
0.0
  0
TEXT
  5
12B5B
330
12B9A
100
AcDbEntity
  8
TEXT
 62
     1
100
AcDbText
 10
587.207320850568
 20
218.5437197313445
 30
0.0
 40
17.5
  1
Bogen 30%%d DN300
 41
0.8
  7
GREEKS
100
AcDbText
  0
LINE
  5
12B5C
330
12B9A
100
AcDbEntity
  8
STEMPEL
100
AcDbLine
 10
575.0
 20
275.0000000000001
 30
0.0
 11
575.0
 21
24.99999999999993
 31
0.0
  0
TEXT
  5
12B5D
330
12B9A
100
AcDbEntity
  8
TEXT
100
AcDbText
 10
586.8555959778399
 20
77.11401425482641
 30
0.0
 40
12.5
  1
Bauvorhaben
 41
0.8
  7
GREEKS
100
AcDbText
  0
TEXT
  5
12B5E
330
12B9A
100
AcDbEntity
  8
TEXT
100
AcDbText
 10
587.8240977813288
 20
181.1007260038562
 30
0.0
 40
12.5
  1
Muffenlos
 41
0.8
  7
GREEKS
100
AcDbText
  0
TEXT
  5
12B5F
330
12B9A
100
AcDbEntity
  8
TEXT
100
AcDbText
 10
587.1948509522525
 20
256.3723320029449
 30
0.0
 40
12.5
  1
Benennung
 41
0.8
  7
GREEKS
100
AcDbText
  0
TEXT
  5
12B60
330
12B9A
100
AcDbEntity
  8
TEXT
100
AcDbText
 10
587.4593753944567
 20
106.5743538255658
 30
0.0
 40
10.0
  1
03007300W.DWG
 41
0.8
  7
GREEKS
100
AcDbText
  0
TEXT
  5
12B61
330
12B9A
100
AcDbEntity
  8
TEXT
100
AcDbText
 10
587.8240977813288
 20
129.100298576054
 30
0.0
 40
12.5
  1
EDV-Art.Nr. 03007.300X
 41
0.8
  7
GREEKS
100
AcDbText
  0
LINE
  5
12B62
330
12B9A
100
AcDbEntity
  8
STEMPEL
100
AcDbLine
 10
830.0
 20
274.9999999999994
 30
0.0
 11
830.0
 21
100.0
 31
0.0
  0
TEXT
  5
12B63
330
12B9A
100
AcDbEntity
  8
TEXT
 62
     1
100
AcDbText
 10
865.6981709757456
 20
220.372535722849
 30
0.0
 40
17.5
  1
03007300W
 41
0.8
  7
GREEKS
 72
     1
 11
925.6981709757456
 21
220.372535722849
 31
0.0
100
AcDbText
  0
DIMENSION
  5
12B64
330
12B9A
100
AcDbEntity
  8
BEM
100
AcDbDimension
  2
*D9
 10
574.715108700296
 20
751.5550742876844
 30
0.0
 11
635.1720309091328
 21
1121.342331746994
 31
0.0
 70
   130
 71
     5
 42
-1.0
 53
345.4540534848269
100
AcDb2LineAngularDimension
 13
574.715108700296
 23
895.559446001905
 33
0.0
 14
646.7172945574064
 24
1020.270890162437
 34
0.0
 15
574.715108700296
 25
895.5594460019048
 35
0.0
 16
626.1411220733838
 26
1102.264524474691
 36
0.0
  0
LINE
  5
12B65
330
12B9A
100
AcDbEntity
  8
MITTEL
100
AcDbLine
 10
574.715108700296
 20
895.559446001905
 30
0.0
 11
646.7172945574064
 21
1020.270890162437
 31
0.0
  0
TEXT
  5
12B66
330
12B9A
100
AcDbEntity
  8
TEXT
 62
     1
100
AcDbText
 10
567.0953502652698
 20
797.1511217759797
 30
0.0
 40
17.5
  1
DN300
 50
90.0
 41
0.8
  7
GREEKS
100
AcDbText
  0
LINE
  5
12B67
330
12B9A
100
AcDbEntity
  8
MITTEL
100
AcDbLine
 10
574.715108700296
 20
895.5594460019048
 30
0.0
 11
574.715108700296
 21
751.5550742876844
 31
0.0
  0
ARC
  5
12B68
330
12B9A
100
AcDbEntity
  8
SCHRAFF
100
AcDbCircle
 10
559.485907562331
 20
899.5030069497355
 30
0.0
 40
5.705091079773839
100
AcDbArc
 50
300.4824135024093
 51
29.51758649759066
  0
ARC
  5
12B69
330
12B9A
100
AcDbEntity
  8
SCHRAFF
100
AcDbCircle
 10
540.16739103655
 20
904.6793878517858
 30
0.0
 40
5.705091079773839
100
AcDbArc
 50
300.4824135024093
 51
29.51758649759066
  0
ARC
  5
12B6A
330
12B9A
100
AcDbEntity
  8
SCHRAFF
100
AcDbCircle
 10
530.5081327736592
 20
907.2675783028111
 30
0.0
 40
5.705091079773839
100
AcDbArc
 50
300.4824135024093
 51
29.51758649759066
  0
ARC
  5
12B6B
330
12B9A
100
AcDbEntity
  8
SCHRAFF
100
AcDbCircle
 10
525.6785036422138
 20
908.5616735283236
 30
0.0
 40
5.705091079773839
100
AcDbArc
 50
300.4824135024093
 51
29.51758649759066
  0
ARC
  5
12B6C
330
12B9A
100
AcDbEntity
  8
SCHRAFF
100
AcDbCircle
 10
535.3377619051046
 20
905.9734830772985
 30
0.0
 40
5.705091079773839
100
AcDbArc
 50
300.4824135024093
 51
29.51758649759066
  0
ARC
  5
12B6D
330
12B9A
100
AcDbEntity
  8
SCHRAFF
100
AcDbCircle
 10
549.8266492994402
 20
902.0911974007606
 30
0.0
 40
5.705091079773839
100
AcDbArc
 50
300.4824135024093
 51
29.51758649759066
  0
ARC
  5
12B6E
330
12B9A
100
AcDbEntity
  8
SCHRAFF
100
AcDbCircle
 10
544.997020167995
 20
903.3852926262733
 30
0.0
 40
5.705091079773839
100
AcDbArc
 50
300.4824135024093
 51
29.51758649759066
  0
ARC
  5
12B6F
330
12B9A
100
AcDbEntity
  8
SCHRAFF
100
AcDbCircle
 10
554.656278430886
 20
900.7971021752483
 30
0.0
 40
5.705091079773839
100
AcDbArc
 50
300.4824135024093
 51
29.51758649759066
  0
ARC
  5
12B70
330
12B9A
100
AcDbEntity
  8
SCHRAFF
100
AcDbCircle
 10
564.3155366937764
 20
898.2089117242232
 30
0.0
 40
5.705091079773839
100
AcDbArc
 50
300.4824135024093
 51
29.51758649759066
  0
ARC
  5
12B71
330
12B9A
100
AcDbEntity
  8
SCHRAFF
100
AcDbCircle
 10
569.1451658252222
 20
896.9148164987101
 30
0.0
 40
5.705091079773839
100
AcDbArc
 50
300.4824135024093
 51
29.51758649759066
  0
LINE
  5
12B74
330
12B9A
100
AcDbEntity
  8
STEMPEL
100
AcDbLine
 10
736.6651087002958
 20
852.1650742876845
 30
0.0
 11
781.9701087002958
 21
930.6356361245926
 31
0.0
  0
LINE
  5
12B77
330
12B9A
100
AcDbEntity
  8
STEMPEL
100
AcDbLine
 10
736.6651087002958
 20
852.1650742876845
 30
0.0
 11
736.6651087002958
 21
761.5550742876846
 31
0.0
  0
ARC
  5
12B78
330
12B9A
100
AcDbEntity
  8
SCHRAFF
100
AcDbCircle
 10
733.8679665302918
 20
852.9145662732522
 30
0.0
 40
5.633998621917357
100
AcDbArc
 50
299.7670922997378
 51
30.23290770026221
  0
INSERT
  5
12B79
330
12B9A
100
AcDbEntity
  8
SCHRAFF
100
AcDbBlockReference
  2
*X4
 10
0.0
 20
0.0
 30
0.0
1001
ACAD
1000
HATCH
1002
{
1070
    16
1000
_U,I
1040
0.1
1040
0.0
1070
     0
1002
}
  0
TEXT
  5
12BC5
330
12B9A
100
AcDbEntity
  8
BEM
100
AcDbText
 10
1043.255730964291
 20
25.41975269997152
 30
0.0
 40
10.0
  1
Diese Zeichnung ist urheberrechtlich geschützt und bleibt unser Eigentum. Sie darf weder ganz noch teilweise verfielfältigt und nicht an Dritte weitergegeben werden.
 50
90.0
 41
0.8
  7
GREEKS
100
AcDbText
  0
TEXT
  5
12BC7
330
12B9A
100
AcDbEntity
  8
TEXT
100
AcDbText
 10
481.7206788119809
 20
222.0963751266015
 30
0.0
 40
10.0
  1
DIN EN1123-2
 41
0.8
  7
GREEKS
 72
     1
 11
524.1968692881714
 21
222.0963751266015
 31
0.0
100
AcDbText
  0
ARC
  5
12C31
330
12B9A
100
AcDbEntity
  8
SCHRAFF
100
AcDbCircle
 10
727.8869326193596
 20
854.3800882811313
 30
0.0
 40
5.705091079773839
100
AcDbArc
 50
300.4824135024093
 51
29.51758649759066
  0
ARC
  5
12C32
330
12B9A
100
AcDbEntity
  8
SCHRAFF
100
AcDbCircle
 10
723.0573034879139
 20
855.6741835066443
 30
0.0
 40
5.705091079773839
100
AcDbArc
 50
300.4824135024093
 51
29.51758649759066
  0
ARC
  5
12C33
330
12B9A
100
AcDbEntity
  8
SCHRAFF
100
AcDbCircle
 10
713.3980452250234
 20
858.2623739576694
 30
0.0
 40
5.705091079773839
100
AcDbArc
 50
300.4824135024093
 51
29.51758649759066
  0
ARC
  5
12C34
330
12B9A
100
AcDbEntity
  8
SCHRAFF
100
AcDbCircle
 10
703.7387869621325
 20
860.8505644086944
 30
0.0
 40
5.705091079773839
100
AcDbArc
 50
300.4824135024093
 51
29.51758649759066
  0
ARC
  5
12C35
330
12B9A
100
AcDbEntity
  8
SCHRAFF
100
AcDbCircle
 10
708.5684160935777
 20
859.5564691831819
 30
0.0
 40
5.705091079773839
100
AcDbArc
 50
300.4824135024093
 51
29.51758649759066
  0
ARC
  5
12C36
330
12B9A
100
AcDbEntity
  8
SCHRAFF
100
AcDbCircle
 10
694.079528699242
 20
863.4387548597196
 30
0.0
 40
5.705091079773839
100
AcDbArc
 50
300.4824135024093
 51
29.51758649759066
  0
ARC
  5
12C37
330
12B9A
100
AcDbEntity
  8
SCHRAFF
100
AcDbCircle
 10
684.4202704363513
 20
866.0269453107448
 30
0.0
 40
5.705091079773839
100
AcDbArc
 50
300.4824135024093
 51
29.51758649759066
  0
ARC
  5
12C38
330
12B9A
100
AcDbEntity
  8
SCHRAFF
100
AcDbCircle
 10
689.2498995677966
 20
864.7328500852323
 30
0.0
 40
5.705091079773839
100
AcDbArc
 50
300.4824135024093
 51
29.51758649759066
  0
ARC
  5
12C39
330
12B9A
100
AcDbEntity
  8
SCHRAFF
100
AcDbCircle
 10
698.9091578306875
 20
862.1446596342071
 30
0.0
 40
5.705091079773839
100
AcDbArc
 50
300.4824135024093
 51
29.51758649759066
  0
ARC
  5
12C3A
330
12B9A
100
AcDbEntity
  8
SCHRAFF
100
AcDbCircle
 10
718.2276743564685
 20
856.9682787321566
 30
0.0
 40
5.705091079773839
100
AcDbArc
 50
300.4824135024093
 51
29.51758649759066
  0
ARC
  5
12C3B
330
12B9A
100
AcDbEntity
  8
SCHRAFF
100
AcDbCircle
 10
674.7610121734606
 20
868.6151357617701
 30
0.0
 40
5.705091079773839
100
AcDbArc
 50
300.4824135024093
 51
29.51758649759066
  0
ARC
  5
12C3C
330
12B9A
100
AcDbEntity
  8
SCHRAFF
100
AcDbCircle
 10
669.9313830420152
 20
869.9092309872826
 30
0.0
 40
5.705091079773839
100
AcDbArc
 50
300.4824135024093
 51
29.51758649759066
  0
ARC
  5
12C3D
330
12B9A
100
AcDbEntity
  8
SCHRAFF
100
AcDbCircle
 10
640.9536082533431
 20
877.6738023403584
 30
0.0
 40
5.705091079773839
100
AcDbArc
 50
300.4824135024093
 51
29.51758649759066
  0
ARC
  5
12C3E
330
12B9A
100
AcDbEntity
  8
SCHRAFF
100
AcDbCircle
 10
660.2721247791245
 20
872.4974214383077
 30
0.0
 40
5.705091079773839
100
AcDbArc
 50
300.4824135024093
 51
29.51758649759066
  0
ARC
  5
12C3F
330
12B9A
100
AcDbEntity
  8
SCHRAFF
100
AcDbCircle
 10
655.4424956476792
 20
873.7915166638201
 30
0.0
 40
5.705091079773839
100
AcDbArc
 50
300.4824135024093
 51
29.51758649759066
  0
ARC
  5
12C40
330
12B9A
100
AcDbEntity
  8
SCHRAFF
100
AcDbCircle
 10
650.6128665162337
 20
875.0856118893333
 30
0.0
 40
5.705091079773839
100
AcDbArc
 50
300.4824135024093
 51
29.51758649759066
  0
ARC
  5
12C41
330
12B9A
100
AcDbEntity
  8
SCHRAFF
100
AcDbCircle
 10
645.7832373847884
 20
876.3797071148456
 30
0.0
 40
5.705091079773839
100
AcDbArc
 50
300.4824135024093
 51
29.51758649759066
  0
ARC
  5
12C42
330
12B9A
100
AcDbEntity
  8
SCHRAFF
100
AcDbCircle
 10
665.10175391057
 20
871.2033262127953
 30
0.0
 40
5.705091079773839
100
AcDbArc
 50
300.4824135024093
 51
29.51758649759066
  0
ARC
  5
12C43
330
12B9A
100
AcDbEntity
  8
SCHRAFF
100
AcDbCircle
 10
631.2943499904524
 20
880.2619927913838
 30
0.0
 40
5.705091079773839
100
AcDbArc
 50
300.4824135024093
 51
29.51758649759066
  0
ARC
  5
12C44
330
12B9A
100
AcDbEntity
  8
SCHRAFF
100
AcDbCircle
 10
621.6350917275617
 20
882.8501832424089
 30
0.0
 40
5.705091079773839
100
AcDbArc
 50
300.4824135024093
 51
29.51758649759066
  0
ARC
  5
12C45
330
12B9A
100
AcDbEntity
  8
SCHRAFF
100
AcDbCircle
 10
626.4647208590071
 20
881.5560880168961
 30
0.0
 40
5.705091079773839
100
AcDbArc
 50
300.4824135024093
 51
29.51758649759066
  0
ARC
  5
12C46
330
12B9A
100
AcDbEntity
  8
SCHRAFF
100
AcDbCircle
 10
611.975833464671
 20
885.4383736934341
 30
0.0
 40
5.705091079773839
100
AcDbArc
 50
300.4824135024093
 51
29.51758649759066
  0
ARC
  5
12C47
330
12B9A
100
AcDbEntity
  8
SCHRAFF
100
AcDbCircle
 10
602.3165752017805
 20
888.0265641444591
 30
0.0
 40
5.705091079773839
100
AcDbArc
 50
300.4824135024093
 51
29.51758649759066
  0
ARC
  5
12C48
330
12B9A
100
AcDbEntity
  8
SCHRAFF
100
AcDbCircle
 10
607.1462043332258
 20
886.7324689189466
 30
0.0
 40
5.705091079773839
100
AcDbArc
 50
300.4824135024093
 51
29.51758649759066
  0
ARC
  5
12C49
330
12B9A
100
AcDbEntity
  8
SCHRAFF
100
AcDbCircle
 10
616.8054625961162
 20
884.1442784679211
 30
0.0
 40
5.705091079773839
100
AcDbArc
 50
300.4824135024093
 51
29.51758649759066
  0
ARC
  5
12C4A
330
12B9A
100
AcDbEntity
  8
SCHRAFF
100
AcDbCircle
 10
636.1239791218979
 20
878.9678975658709
 30
0.0
 40
5.705091079773839
100
AcDbArc
 50
300.4824135024093
 51
29.51758649759066
  0
ARC
  5
12C4B
330
12B9A
100
AcDbEntity
  8
SCHRAFF
100
AcDbCircle
 10
592.6573169388896
 20
890.6147545954842
 30
0.0
 40
5.705091079773839
100
AcDbArc
 50
300.4824135024093
 51
29.51758649759066
  0
ARC
  5
12C4C
330
12B9A
100
AcDbEntity
  8
SCHRAFF
100
AcDbCircle
 10
582.9980586759988
 20
893.2029450465094
 30
0.0
 40
5.705091079773839
100
AcDbArc
 50
300.4824135024093
 51
29.51758649759066
  0
ARC
  5
12C4D
330
12B9A
100
AcDbEntity
  8
SCHRAFF
100
AcDbCircle
 10
578.8372122639641
 20
894.4549316809023
 30
0.0
 40
5.705091079773839
100
AcDbArc
 50
300.4824135024093
 51
29.51758649759066
  0
ARC
  5
12C4E
330
12B9A
100
AcDbEntity
  8
SCHRAFF
100
AcDbCircle
 10
587.8276878074445
 20
891.9088498209969
 30
0.0
 40
5.705091079773839
100
AcDbArc
 50
300.4824135024093
 51
29.51758649759066
  0
ARC
  5
12C4F
330
12B9A
100
AcDbEntity
  8
SCHRAFF
100
AcDbCircle
 10
574.0075831325188
 20
895.7490269064148
 30
0.0
 40
5.705091079773839
100
AcDbArc
 50
300.4824135024093
 51
29.51758649759066
  0
ARC
  5
12C50
330
12B9A
100
AcDbEntity
  8
SCHRAFF
100
AcDbCircle
 10
597.4869460703352
 20
889.3206593699717
 30
0.0
 40
5.705091079773839
100
AcDbArc
 50
300.4824135024093
 51
29.51758649759066
  0
ARC
  5
12C51
330
12B9A
100
AcDbEntity
  8
SCHRAFF
100
AcDbCircle
 10
679.5906413049058
 20
867.3210405362574
 30
0.0
 40
5.705091079773839
100
AcDbArc
 50
300.4824135024093
 51
29.51758649759066
  0
ENDSEC
  0
SECTION
  2
OBJECTS
  0
DICTIONARY
  5
12B86
330
0
100
AcDbDictionary
281
     1
  3
ACAD_COLOR
350
12B95
  3
ACAD_GROUP
350
12B87
  3
ACAD_LAYOUT
350
12B93
  3
ACAD_MATERIAL
350
12B94
  3
ACAD_MLINESTYLE
350
12B90
  3
ACAD_PLOTSETTINGS
350
12B92
  3
ACAD_PLOTSTYLENAME
350
12B88
  3
AcDbVariableDictionary
350
12BDC
  0
DICTIONARY
  5
12B95
102
{ACAD_REACTORS
330
12B86
102
}
330
12B86
100
AcDbDictionary
281
     1
  0
DICTIONARY
  5
12B87
102
{ACAD_REACTORS
330
12B86
102
}
330
12B86
100
AcDbDictionary
281
     1
  0
DICTIONARY
  5
12B93
102
{ACAD_REACTORS
330
12B86
102
}
330
12B86
100
AcDbDictionary
281
     1
  3
Layout1
350
12B99
  3
Model
350
12B9D
  0
DICTIONARY
  5
12B94
102
{ACAD_REACTORS
330
12B86
102
}
330
12B86
100
AcDbDictionary
281
     1
  0
DICTIONARY
  5
12B90
102
{ACAD_REACTORS
330
12B86
102
}
330
12B86
100
AcDbDictionary
281
     1
  3
Standard
350
12B91
  0
DICTIONARY
  5
12B92
102
{ACAD_REACTORS
330
12B86
102
}
330
12B86
100
AcDbDictionary
281
     1
  0
ACDBDICTIONARYWDFLT
  5
12B88
102
{ACAD_REACTORS
330
12B86
102
}
330
12B86
100
AcDbDictionary
281
     1
  3
Normal
350
12B89
100
AcDbDictionaryWithDefault
340
12B89
  0
DICTIONARY
  5
12BDC
102
{ACAD_REACTORS
330
12B86
102
}
330
12B86
100
AcDbDictionary
281
     1
  3
DIMASSOC
350
12BDE
  3
HIDETEXT
350
12BDD
  3
PROJECTNAME
350
12BDF
  0
LAYOUT
  5
12B99
102
{ACAD_REACTORS
330
12B93
102
}
330
12B93
100
AcDbPlotSettings
  1

  2
RICOH Aficio 2027 PCL 6
  4

  6

 40
0.0
 41
0.0
 42
0.0
 43
0.0
 44
0.0
 45
0.0
 46
0.0
 47
0.0
 48
0.0
 49
0.0
140
0.0
141
0.0
142
1.0
143
1.0
 70
   688
 72
     0
 73
     0
 74
     5
  7
monochrome1.ctb
 75
    16
147
1.0
 76
     0
 77
     2
 78
   300
148
0.0
149
0.0
100
AcDbLayout
  1
Layout1
 70
     0
 71
     1
 10
0.0
 20
0.0
 11
12.0
 21
9.0
 12
286.2553998418513
 22
50.00000000000001
 32
-2.58105543498411
 14
1.000000000000000E+20
 24
1.000000000000000E+20
 34
1.000000000000000E+20
 15
-1.000000000000000E+20
 25
-1.000000000000000E+20
 35
-1.000000000000000E+20
146
0.0
 13
0.0
 23
0.0
 33
0.0
 16
1.0
 26
0.0
 36
0.0
 17
0.0
 27
1.0
 37
0.0
 76
     0
330
12B96
  0
LAYOUT
  5
12B9D
102
{ACAD_REACTORS
330
12B93
102
}
330
12B93
100
AcDbPlotSettings
  1

  2
RICOH Aficio 2027 PCL 6
  4
A4
  6

 40
5.027083396911621
 41
5.027085304260253
 42
5.027084350585937
 43
5.027069091796875
 44
209.9733276367187
 45
296.9259948730469
 46
0.0
 47
0.0
 48
0.0
 49
0.0
140
0.0
141
0.0
142
1.0
143
1.0
 70
 11952
 72
     0
 73
     1
 74
     0
  7
monochrome1.ctb
 75
     0
147
1.0
 76
     0
 77
     2
 78
   300
148
5749.737974108374
149
225.2379483828901
100
AcDbLayout
  1
Model
 70
     1
 71
     0
 10
0.0
 20
0.0
 11
12.0
 21
9.0
 12
0.0
 22
0.0
 32
0.0
 14
0.0
 24
0.0
 34
0.0
 15
0.0
 25
0.0
 35
0.0
146
0.0
 13
0.0
 23
0.0
 33
0.0
 16
1.0
 26
0.0
 36
0.0
 17
0.0
 27
1.0
 37
0.0
 76
     0
330
12B9A
  0
MLINESTYLE
  5
12B91
102
{ACAD_REACTORS
330
12B90
102
}
330
12B90
100
AcDbMlineStyle
  2
STANDARD
 70
     0
  3

 62
   256
 51
90.0
 52
90.0
 71
     2
 49
0.5
 62
   256
  6
BYLAYER
 49
-0.5
 62
   256
  6
BYLAYER
  0
ACDBPLACEHOLDER
  5
12B89
102
{ACAD_REACTORS
330
12B88
102
}
330
12B88
  0
DICTIONARYVAR
  5
12BDE
102
{ACAD_REACTORS
330
12BDC
102
}
330
12BDC
100
DictionaryVariables
280
     0
  1
2
  0
DICTIONARYVAR
  5
12BDD
102
{ACAD_REACTORS
330
12BDC
102
}
330
12BDC
100
DictionaryVariables
280
     0
  1
1
  0
DICTIONARYVAR
  5
12BDF
102
{ACAD_REACTORS
330
12BDC
102
}
330
12BDC
100
DictionaryVariables
280
     0
  1

  0
ENDSEC
  0
EOF
