  0
SECTION
  2
HEADER
  9
$ACADVER
  1
AC1018
  9
$ACADMAINTVER
 70
     2
  9
$DWGCODEPAGE
  3
ANSI_1252
  9
$INSBASE
 10
0.0
 20
0.0
 30
0.0
  9
$EXTMIN
 10
-0.0480524721101574
 20
-0.0679599248414888
 30
-0.0000000000000058
  9
$EXTMAX
 10
1050.048072030928
 20
1485.067987586599
 30
0.0000000000000104
  9
$LIMMIN
 10
0.0
 20
0.0
  9
$LIMMAX
 10
1050.0
 20
1485.0
  9
$ORTHOMODE
 70
     1
  9
$REGENMODE
 70
     1
  9
$FILLMODE
 70
     1
  9
$QTEXTMODE
 70
     0
  9
$MIRRTEXT
 70
     1
  9
$LTSCALE
 40
50.0
  9
$ATTMODE
 70
     1
  9
$TEXTSIZE
 40
2.5
  9
$TRACEWID
 40
0.5
  9
$TEXTSTYLE
  7
GREEKS
  9
$CLAYER
  8
VOLL
  9
$CELTYPE
  6
ByLayer
  9
$CECOLOR
 62
   256
  9
$CELTSCALE
 40
1.0
  9
$DISPSILH
 70
     0
  9
$DIMSCALE
 40
5.0
  9
$DIMASZ
 40
3.5
  9
$DIMEXO
 40
1.0
  9
$DIMDLI
 40
7.0
  9
$DIMRND
 40
0.0
  9
$DIMDLE
 40
0.0
  9
$DIMEXE
 40
1.0
  9
$DIMTP
 40
3.0
  9
$DIMTM
 40
3.0
  9
$DIMTXT
 40
3.5
  9
$DIMCEN
 40
1.5
  9
$DIMTSZ
 40
0.0
  9
$DIMTOL
 70
     0
  9
$DIMLIM
 70
     0
  9
$DIMTIH
 70
     0
  9
$DIMTOH
 70
     0
  9
$DIMSE1
 70
     0
  9
$DIMSE2
 70
     0
  9
$DIMTAD
 70
     1
  9
$DIMZIN
 70
     8
  9
$DIMBLK
  1

  9
$DIMASO
 70
     1
  9
$DIMSHO
 70
     0
  9
$DIMPOST
  1

  9
$DIMAPOST
  1

  9
$DIMALT
 70
     0
  9
$DIMALTD
 70
     2
  9
$DIMALTF
 40
25.4
  9
$DIMLFAC
 40
1.0
  9
$DIMTOFL
 70
     1
  9
$DIMTVP
 40
0.0
  9
$DIMTIX
 70
     0
  9
$DIMSOXD
 70
     0
  9
$DIMSAH
 70
     0
  9
$DIMBLK1
  1

  9
$DIMBLK2
  1

  9
$DIMSTYLE
  2
Standard
  9
$DIMCLRD
 70
     0
  9
$DIMCLRE
 70
     0
  9
$DIMCLRT
 70
     1
  9
$DIMTFAC
 40
0.5
  9
$DIMGAP
 40
1.5
  9
$DIMJUST
 70
     0
  9
$DIMSD1
 70
     0
  9
$DIMSD2
 70
     0
  9
$DIMTOLJ
 70
     1
  9
$DIMTZIN
 70
     8
  9
$DIMALTZ
 70
     8
  9
$DIMALTTZ
 70
     8
  9
$DIMUPT
 70
     0
  9
$DIMDEC
 70
     2
  9
$DIMTDEC
 70
     2
  9
$DIMALTU
 70
     2
  9
$DIMALTTD
 70
     2
  9
$DIMTXSTY
  7
GREEKS
  9
$DIMAUNIT
 70
     0
  9
$DIMADEC
 70
     2
  9
$DIMALTRND
 40
0.0
  9
$DIMAZIN
 70
     2
  9
$DIMDSEP
 70
    46
  9
$DIMATFIT
 70
     3
  9
$DIMFRAC
 70
     0
  9
$DIMLDRBLK
  1

  9
$DIMLUNIT
 70
     2
  9
$DIMLWD
 70
    -2
  9
$DIMLWE
 70
    -2
  9
$DIMTMOVE
 70
     0
  9
$LUNITS
 70
     2
  9
$LUPREC
 70
     2
  9
$SKETCHINC
 40
1.0
  9
$FILLETRAD
 40
0.0
  9
$AUNITS
 70
     0
  9
$AUPREC
 70
     2
  9
$MENU
  1
ACAD
  9
$ELEVATION
 40
0.0
  9
$PELEVATION
 40
0.0
  9
$THICKNESS
 40
0.0
  9
$LIMCHECK
 70
     0
  9
$CHAMFERA
 40
0.0
  9
$CHAMFERB
 40
0.0
  9
$CHAMFERC
 40
0.0
  9
$CHAMFERD
 40
0.0
  9
$SKPOLY
 70
     0
  9
$TDCREATE
 40
2452283.556942592
  9
$TDUCREATE
 40
2452283.473609259
  9
$TDUPDATE
 40
2455658.324016019
  9
$TDUUPDATE
 40
2455658.240682685
  9
$TDINDWG
 40
0.0242453819
  9
$TDUSRTIMER
 40
0.0242453819
  9
$USRTIMER
 70
     1
  9
$ANGBASE
 50
0.0
  9
$ANGDIR
 70
     0
  9
$PDMODE
 70
     0
  9
$PDSIZE
 40
0.0
  9
$PLINEWID
 40
0.0
  9
$SPLFRAME
 70
     0
  9
$SPLINETYPE
 70
     6
  9
$SPLINESEGS
 70
     8
  9
$HANDSEED
  5
14C57
  9
$SURFTAB1
 70
     6
  9
$SURFTAB2
 70
     6
  9
$SURFTYPE
 70
     6
  9
$SURFU
 70
     6
  9
$SURFV
 70
     6
  9
$UCSBASE
  2

  9
$UCSNAME
  2

  9
$UCSORG
 10
0.0
 20
0.0
 30
0.0
  9
$UCSXDIR
 10
1.0
 20
0.0
 30
0.0
  9
$UCSYDIR
 10
0.0
 20
1.0
 30
0.0
  9
$UCSORTHOREF
  2

  9
$UCSORTHOVIEW
 70
     0
  9
$UCSORGTOP
 10
0.0
 20
0.0
 30
0.0
  9
$UCSORGBOTTOM
 10
0.0
 20
0.0
 30
0.0
  9
$UCSORGLEFT
 10
0.0
 20
0.0
 30
0.0
  9
$UCSORGRIGHT
 10
0.0
 20
0.0
 30
0.0
  9
$UCSORGFRONT
 10
0.0
 20
0.0
 30
0.0
  9
$UCSORGBACK
 10
0.0
 20
0.0
 30
0.0
  9
$PUCSBASE
  2

  9
$PUCSNAME
  2

  9
$PUCSORG
 10
0.0
 20
0.0
 30
0.0
  9
$PUCSXDIR
 10
1.0
 20
0.0
 30
0.0
  9
$PUCSYDIR
 10
0.0
 20
1.0
 30
0.0
  9
$PUCSORTHOREF
  2

  9
$PUCSORTHOVIEW
 70
     0
  9
$PUCSORGTOP
 10
0.0
 20
0.0
 30
0.0
  9
$PUCSORGBOTTOM
 10
0.0
 20
0.0
 30
0.0
  9
$PUCSORGLEFT
 10
0.0
 20
0.0
 30
0.0
  9
$PUCSORGRIGHT
 10
0.0
 20
0.0
 30
0.0
  9
$PUCSORGFRONT
 10
0.0
 20
0.0
 30
0.0
  9
$PUCSORGBACK
 10
0.0
 20
0.0
 30
0.0
  9
$USERI1
 70
     0
  9
$USERI2
 70
     0
  9
$USERI3
 70
     0
  9
$USERI4
 70
     0
  9
$USERI5
 70
     0
  9
$USERR1
 40
0.0
  9
$USERR2
 40
0.0
  9
$USERR3
 40
0.0
  9
$USERR4
 40
0.0
  9
$USERR5
 40
0.0
  9
$WORLDVIEW
 70
     1
  9
$SHADEDGE
 70
     3
  9
$SHADEDIF
 70
    70
  9
$TILEMODE
 70
     1
  9
$MAXACTVP
 70
    16
  9
$PINSBASE
 10
547.6538878075595
 20
50.00000000000001
 30
-2.58105543498411
  9
$PLIMCHECK
 70
     0
  9
$PEXTMIN
 10
1.000000000000000E+20
 20
1.000000000000000E+20
 30
1.000000000000000E+20
  9
$PEXTMAX
 10
-1.000000000000000E+20
 20
-1.000000000000000E+20
 30
-1.000000000000000E+20
  9
$PLIMMIN
 10
0.0
 20
0.0
  9
$PLIMMAX
 10
12.0
 20
9.0
  9
$UNITMODE
 70
     0
  9
$VISRETAIN
 70
     0
  9
$PLINEGEN
 70
     0
  9
$PSLTSCALE
 70
     0
  9
$TREEDEPTH
 70
  3020
  9
$CMLSTYLE
  2
Standard
  9
$CMLJUST
 70
     0
  9
$CMLSCALE
 40
1.0
  9
$PROXYGRAPHICS
 70
     1
  9
$MEASUREMENT
 70
     0
  9
$CELWEIGHT
370
    -1
  9
$ENDCAPS
280
     0
  9
$JOINSTYLE
280
     0
  9
$LWDISPLAY
290
     0
  9
$INSUNITS
 70
     0
  9
$HYPERLINKBASE
  1

  9
$STYLESHEET
  1
monochrome 1.ctb
  9
$XEDIT
290
     1
  9
$CEPSNTYPE
380
     0
  9
$PSTYLEMODE
290
     1
  9
$FINGERPRINTGUID
  2
{316D4E66-E69B-4AE9-993D-E85C33FCD8D8}
  9
$VERSIONGUID
  2
{01EDA3B6-613A-43DE-A000-A3C549470F34}
  9
$EXTNAMES
290
     1
  9
$PSVPSCALE
 40
0.0
  9
$OLESTARTUP
290
     0
  9
$SORTENTS
280
   127
  9
$INDEXCTL
280
     0
  9
$HIDETEXT
280
     1
  9
$XCLIPFRAME
290
     0
  9
$HALOGAP
280
     0
  9
$OBSCOLOR
 70
   257
  9
$OBSLTYPE
280
     0
  9
$INTERSECTIONDISPLAY
280
     0
  9
$INTERSECTIONCOLOR
 70
   257
  9
$DIMASSOC
280
     2
  9
$PROJECTNAME
  1

  0
ENDSEC
  0
SECTION
  2
CLASSES
  0
CLASS
  1
ACDBDICTIONARYWDFLT
  2
AcDbDictionaryWithDefault
  3
ObjectDBX Classes
 90
        0
 91
        1
280
     0
281
     0
  0
CLASS
  1
DICTIONARYVAR
  2
AcDbDictionaryVar
  3
ObjectDBX Classes
 90
        0
 91
        3
280
     0
281
     0
  0
ENDSEC
  0
SECTION
  2
TABLES
  0
TABLE
  2
VPORT
  5
14B07
330
0
100
AcDbSymbolTable
 70
     3
  0
VPORT
  5
14C56
330
14B07
100
AcDbSymbolTableRecord
100
AcDbViewportTableRecord
  2
*Active
 70
     0
 10
0.0
 20
0.0
 11
1.0
 21
1.0
 12
524.9999999999998
 22
742.4999999999999
 13
0.0
 23
0.0
 14
1.0
 24
1.0
 15
10.0
 25
10.0
 16
0.0
 26
0.0
 36
1.0
 17
0.0
 27
0.0
 37
0.0
 40
1485.0
 41
1.334231805929919
 42
50.0
 43
0.0
 44
0.0
 50
0.0
 51
0.0
 71
     0
 72
  1500
 73
     1
 74
     0
 75
     0
 76
     0
 77
     0
 78
     0
281
     0
 65
     1
110
0.0
120
0.0
130
0.0
111
1.0
121
0.0
131
0.0
112
0.0
122
1.0
132
0.0
 79
     0
146
0.0
  0
ENDTAB
  0
TABLE
  2
LTYPE
  5
14B04
330
0
100
AcDbSymbolTable
 70
     2
  0
LTYPE
  5
14B12
330
14B04
100
AcDbSymbolTableRecord
100
AcDbLinetypeTableRecord
  2
ByBlock
 70
     0
  3

 72
    65
 73
     0
 40
0.0
  0
LTYPE
  5
14B13
330
14B04
100
AcDbSymbolTableRecord
100
AcDbLinetypeTableRecord
  2
ByLayer
 70
     0
  3

 72
    65
 73
     0
 40
0.0
  0
LTYPE
  5
14B14
330
14B04
100
AcDbSymbolTableRecord
100
AcDbLinetypeTableRecord
  2
Continuous
 70
     0
  3
Solid line
 72
    65
 73
     0
 40
0.0
  0
LTYPE
  5
14B31
330
14B04
100
AcDbSymbolTableRecord
100
AcDbLinetypeTableRecord
  2
STRICHPUNKT
 70
     0
  3
__ . __ . __ . __ . __ . __ . __ . __ . __ . __
 72
    65
 73
     4
 40
1.0
 49
0.5
 74
     0
 49
-0.25
 74
     0
 49
0.0
 74
     0
 49
-0.25
 74
     0
  0
ENDTAB
  0
TABLE
  2
LAYER
  5
14B01
330
0
100
AcDbSymbolTable
 70
     9
  0
LAYER
  5
14B0F
330
14B01
100
AcDbSymbolTableRecord
100
AcDbLayerTableRecord
  2
0
 70
     0
 62
     7
  6
Continuous
370
    -3
390
14B0E
  0
LAYER
  5
14B34
330
14B01
100
AcDbSymbolTableRecord
100
AcDbLayerTableRecord
  2
VOLL
 70
     0
 62
     1
  6
Continuous
370
    -3
390
14B0E
  0
LAYER
  5
14B35
330
14B01
100
AcDbSymbolTableRecord
100
AcDbLayerTableRecord
  2
HILF
 70
     0
 62
     2
  6
Continuous
370
    -3
390
14B0E
  0
LAYER
  5
14B36
330
14B01
100
AcDbSymbolTableRecord
100
AcDbLayerTableRecord
  2
MITTEL
 70
     0
 62
     2
  6
STRICHPUNKT
370
    -3
390
14B0E
  0
LAYER
  5
14B37
330
14B01
100
AcDbSymbolTableRecord
100
AcDbLayerTableRecord
  2
BEM
 70
     0
 62
     7
  6
Continuous
370
    -3
390
14B0E
  0
LAYER
  5
14B38
330
14B01
100
AcDbSymbolTableRecord
100
AcDbLayerTableRecord
  2
STEMPEL
 70
     0
 62
     3
  6
Continuous
370
    -3
390
14B0E
  0
LAYER
  5
14B39
330
14B01
100
AcDbSymbolTableRecord
100
AcDbLayerTableRecord
  2
TEXT
 70
     0
 62
     7
  6
Continuous
370
    -3
390
14B0E
  0
LAYER
  5
14B3A
330
14B01
100
AcDbSymbolTableRecord
100
AcDbLayerTableRecord
  2
DEFPOINTS
 70
     0
 62
     7
  6
Continuous
290
     0
370
    -3
390
14B0E
  0
LAYER
  5
14B3B
330
14B01
100
AcDbSymbolTableRecord
100
AcDbLayerTableRecord
  2
SCHRAFF
 70
     0
 62
     7
  6
Continuous
370
    -3
390
14B0E
  0
ENDTAB
  0
TABLE
  2
STYLE
  5
14B02
330
0
100
AcDbSymbolTable
 70
     2
  0
STYLE
  5
14B10
330
14B02
100
AcDbSymbolTableRecord
100
AcDbTextStyleTableRecord
  2
STANDARD
 70
     0
 40
0.0
 41
1.0
 50
0.0
 71
     0
 42
3.5
  3
txt
  4

  0
STYLE
  5
14B30
330
14B02
100
AcDbSymbolTableRecord
100
AcDbTextStyleTableRecord
  2
GREEKS
 70
     0
 40
0.0
 41
0.8
 50
0.0
 71
     0
 42
2.5
  3
SIMPLEX.shx
  4

  0
ENDTAB
  0
TABLE
  2
VIEW
  5
14B05
330
0
100
AcDbSymbolTable
 70
     0
  0
ENDTAB
  0
TABLE
  2
UCS
  5
14B06
330
0
100
AcDbSymbolTable
 70
     0
  0
ENDTAB
  0
TABLE
  2
APPID
  5
14B08
330
0
100
AcDbSymbolTable
 70
     1
  0
APPID
  5
14B11
330
14B08
100
AcDbSymbolTableRecord
100
AcDbRegAppTableRecord
  2
ACAD
 70
     0
  0
ENDTAB
  0
TABLE
  2
DIMSTYLE
  5
14B09
330
0
100
AcDbSymbolTable
 70
     1
100
AcDbDimStyleTable
 71
     1
340
14B42
  0
DIMSTYLE
105
14B42
102
{ACAD_REACTORS
330
14A85
330
14A86
330
14A89
102
}
330
14B09
100
AcDbSymbolTableRecord
100
AcDbDimStyleTableRecord
  2
Standard
 70
     0
340
14B10
  0
ENDTAB
  0
TABLE
  2
BLOCK_RECORD
  5
14B00
330
0
100
AcDbSymbolTable
 70
    13
  0
BLOCK_RECORD
  5
14B1F
330
14B00
100
AcDbSymbolTableRecord
100
AcDbBlockTableRecord
  2
*Model_Space
340
14B22
  0
BLOCK_RECORD
  5
14B1B
330
14B00
100
AcDbSymbolTableRecord
100
AcDbBlockTableRecord
  2
*Paper_Space
340
14B1E
  0
BLOCK_RECORD
  5
14B23
330
14B00
100
AcDbSymbolTableRecord
100
AcDbBlockTableRecord
  2
LOGO
340
0
102
{BLKREFS
331
14A96
102
}
  0
BLOCK_RECORD
  5
14B29
330
14B00
100
AcDbSymbolTableRecord
100
AcDbBlockTableRecord
  2
*D5
340
0
  0
BLOCK_RECORD
  5
14B2C
330
14B00
100
AcDbSymbolTableRecord
100
AcDbBlockTableRecord
  2
*X6
340
0
102
{BLKREFS
331
14AC0
102
}
  0
BLOCK_RECORD
  5
14B2D
330
14B00
100
AcDbSymbolTableRecord
100
AcDbBlockTableRecord
  2
*X7
340
0
102
{BLKREFS
331
14AFA
102
}
  0
BLOCK_RECORD
  5
14BD4
330
14B00
100
AcDbSymbolTableRecord
100
AcDbBlockTableRecord
  2
*D10
340
0
  0
BLOCK_RECORD
  5
14BE0
330
14B00
100
AcDbSymbolTableRecord
100
AcDbBlockTableRecord
  2
*D11
340
0
  0
BLOCK_RECORD
  5
14C22
330
14B00
100
AcDbSymbolTableRecord
100
AcDbBlockTableRecord
  2
*D12
340
0
  0
ENDTAB
  0
ENDSEC
  0
SECTION
  2
BLOCKS
  0
BLOCK
  5
14B3F
330
14B1F
100
AcDbEntity
  8
0
100
AcDbBlockBegin
  2
*Model_Space
 70
     0
 10
0.0
 20
0.0
 30
0.0
  3
*Model_Space
  1

  0
ENDBLK
  5
14B40
330
14B1F
100
AcDbEntity
  8
0
100
AcDbBlockEnd
  0
BLOCK
  5
14B3D
330
14B1B
100
AcDbEntity
 67
     1
  8
0
100
AcDbBlockBegin
  2
*Paper_Space
 70
     0
 10
0.0
 20
0.0
 30
0.0
  3
*Paper_Space
  1

  0
ENDBLK
  5
14B3E
330
14B1B
100
AcDbEntity
 67
     1
  8
0
100
AcDbBlockEnd
  0
BLOCK
  5
44
330
14B23
100
AcDbEntity
  8
0
100
AcDbBlockBegin
  2
LOGO
 70
     0
 10
0.0
 20
0.0
 30
0.0
  3
LOGO
  1

  0
ARC
  5
45
330
14B23
100
AcDbEntity
  8
0
100
AcDbCircle
 10
11.59973089678112
 20
-9.271599258481501
 30
0.0
 40
4.5
100
AcDbArc
 50
270.0
 51
231.0575587310159
  0
LINE
  5
46
330
14B23
100
AcDbEntity
  8
0
100
AcDbLine
 10
3.599730896781125
 20
-4.771599258481529
 30
0.0
 11
3.599730896781153
 21
-11.77159925848133
 31
0.0
  0
LINE
  5
47
330
14B23
100
AcDbEntity
  8
0
100
AcDbLine
 10
2.599730896781125
 20
-4.771599258481529
 30
0.0
 11
2.599730896781153
 21
-11.77159925848133
 31
0.0
  0
CIRCLE
  5
48
330
14B23
100
AcDbEntity
  8
0
100
AcDbCircle
 10
11.59973089678112
 20
-9.271599258481501
 30
0.0
 40
3.5
  0
ARC
  5
49
330
14B23
100
AcDbEntity
  8
0
100
AcDbCircle
 10
31.59973089678115
 20
-9.271599258481472
 30
0.0
 40
4.5
100
AcDbArc
 50
270.0
 51
231.0575587310182
  0
LINE
  5
4A
330
14B23
100
AcDbEntity
  8
0
100
AcDbLine
 10
17.59973089678112
 20
-4.771599258481472
 30
0.0
 11
17.59973089678115
 21
-13.77159925848147
 31
0.0
  0
ARC
  5
4B
330
14B23
100
AcDbEntity
  8
0
100
AcDbCircle
 10
22.59973089678116
 20
-7.271599258481472
 30
0.0
 40
2.5
100
AcDbArc
 50
293.1161887722295
 51
90.0
  0
CIRCLE
  5
4C
330
14B23
100
AcDbEntity
  8
0
100
AcDbCircle
 10
31.59973089678115
 20
-9.271599258481472
 30
0.0
 40
3.5
  0
ARC
  5
4D
330
14B23
100
AcDbEntity
  8
0
100
AcDbCircle
 10
4.599730896781153
 20
-11.77159925848133
 30
0.0
 40
1.0
100
AcDbArc
 50
180.0
 51
270.0
  0
ARC
  5
4E
330
14B23
100
AcDbEntity
  8
0
100
AcDbCircle
 10
4.599730896781153
 20
-11.77159925848133
 30
0.0
 40
2.0
100
AcDbArc
 50
179.9999999999992
 51
270.0
  0
LINE
  5
4F
330
14B23
100
AcDbEntity
  8
0
100
AcDbLine
 10
11.59973089678115
 20
-13.77159925848144
 30
0.0
 11
4.599730896781153
 21
-13.77159925848147
 31
0.0
  0
LINE
  5
50
330
14B23
100
AcDbEntity
  8
0
100
AcDbLine
 10
8.771303772034769
 20
-12.77159925848136
 30
0.0
 11
4.599730896781153
 21
-12.77159925848133
 31
0.0
  0
LINE
  5
51
330
14B23
100
AcDbEntity
  8
0
100
AcDbLine
 10
31.59973089678115
 20
-13.77159925848147
 30
0.0
 11
23.6715276665056
 21
-13.77159925848144
 31
0.0
  0
LINE
  5
52
330
14B23
100
AcDbEntity
  8
0
100
AcDbLine
 10
23.56565672307022
 20
-9.51278021337896
 30
0.0
 11
24.4388546544846
 21
-12.77159925848144
 31
0.0
  0
LINE
  5
53
330
14B23
100
AcDbEntity
  8
0
100
AcDbLine
 10
22.59973089678116
 20
-9.771599258481472
 30
0.0
 11
18.59973089678112
 21
-9.771599258481472
 31
0.0
  0
LINE
  5
54
330
14B23
100
AcDbEntity
  8
0
100
AcDbLine
 10
18.59973089678115
 20
-13.77159925848144
 30
0.0
 11
17.59973089678115
 21
-13.77159925848144
 31
0.0
  0
LINE
  5
55
330
14B23
100
AcDbEntity
  8
0
100
AcDbLine
 10
18.59973089678115
 20
-9.771599258481472
 30
0.0
 11
18.59973089678115
 21
-13.77159925848144
 31
0.0
  0
LINE
  5
56
330
14B23
100
AcDbEntity
  8
0
100
AcDbLine
 10
22.59973089678116
 20
-9.771599258481472
 30
0.0
 11
23.67152766650562
 21
-13.77159925848147
 31
0.0
  0
ARC
  5
57
330
14B23
100
AcDbEntity
  8
0
100
AcDbCircle
 10
22.59973089678116
 20
-7.271599258481472
 30
0.0
 40
2.5
100
AcDbArc
 50
270.0
 51
270.0000000000007
  0
LINE
  5
58
330
14B23
100
AcDbEntity
  8
0
100
AcDbLine
 10
28.77130377203494
 20
-12.77159925848147
 30
0.0
 11
24.43885465448463
 21
-12.77159925848144
 31
0.0
  0
LINE
  5
59
330
14B23
100
AcDbEntity
  8
0
100
AcDbLine
 10
3.599730896781125
 20
-4.771599258481472
 30
0.0
 11
2.599730896781125
 21
-4.771599258481472
 31
0.0
  0
LINE
  5
5A
330
14B23
100
AcDbEntity
  8
0
100
AcDbLine
 10
22.59973089678116
 20
-8.771599258481472
 30
0.0
 11
18.59973089678115
 21
-8.771599258481472
 31
0.0
  0
LINE
  5
5B
330
14B23
100
AcDbEntity
  8
0
100
AcDbLine
 10
22.59973089678116
 20
-5.771599258481472
 30
0.0
 11
18.59973089678115
 21
-5.771599258481472
 31
0.0
  0
LINE
  5
5C
330
14B23
100
AcDbEntity
  8
0
100
AcDbLine
 10
22.59973089678116
 20
-4.771599258481472
 30
0.0
 11
17.59973089678115
 21
-4.771599258481472
 31
0.0
  0
LINE
  5
5D
330
14B23
100
AcDbEntity
  8
0
100
AcDbLine
 10
18.59973089678115
 20
-5.771599258481472
 30
0.0
 11
18.59973089678115
 21
-8.771599258481472
 31
0.0
  0
ARC
  5
5E
330
14B23
100
AcDbEntity
  8
0
100
AcDbCircle
 10
22.59973089678116
 20
-7.271599258481472
 30
0.0
 40
1.5
100
AcDbArc
 50
270.0
 51
90.0
  0
ENDBLK
  5
5F
330
14B23
100
AcDbEntity
  8
0
100
AcDbBlockEnd
  0
BLOCK
  5
1494D
330
14B29
100
AcDbEntity
  8
0
100
AcDbBlockBegin
  2
*D5
 70
     1
 10
0.0
 20
0.0
 30
0.0
  3
*D5
  1

  0
LINE
  5
1494E
330
14B29
100
AcDbEntity
  8
0
  6
ByBlock
 62
     0
100
AcDbLine
 10
613.8210283398389
 20
1012.215969757957
 30
0.0
 11
649.4756545820987
 21
1073.97159393443
 31
0.0
  0
LINE
  5
1494F
330
14B29
100
AcDbEntity
  8
0
  6
ByBlock
 62
     0
100
AcDbLine
 10
546.3234959564146
 20
900.3068142843414
 30
0.0
 11
546.3234959564146
 21
1101.611131535709
 31
0.0
  0
ARC
  5
14950
330
14B29
100
AcDbEntity
  8
0
  6
ByBlock
 62
     0
100
AcDbCircle
 10
546.3234959564146
 20
895.3068142843415
 30
0.0
 40
201.3043172513679
100
AcDbArc
 50
64.982467124719
 51
85.01753287528094
  0
SOLID
  5
14951
330
14B29
100
AcDbEntity
  8
0
  6
ByBlock
 62
     0
100
AcDbTrace
 10
632.8013641506429
 20
1080.311351413907
 30
0.0
 11
630.1070389312407
 21
1075.137533733522
 31
0.0
 12
646.9756545820987
 22
1069.641466915508
 32
0.0
 13
646.9756545820987
 23
1069.641466915508
 33
0.0
  0
SOLID
  5
14952
330
14B29
100
AcDbEntity
  8
0
  6
ByBlock
 62
     0
100
AcDbTrace
 10
563.6801790457403
 20
1092.936557195577
 30
0.0
 11
563.9337337998737
 21
1098.764377351041
 31
0.0
 12
546.3234959564146
 22
1096.611131535709
 32
0.0
 13
546.3234959564146
 23
1096.611131535709
 33
0.0
  0
TEXT
  5
14953
330
14B29
100
AcDbEntity
  8
0
  6
ByBlock
 62
     1
100
AcDbText
 10
589.7856301159309
 20
1102.307543601654
 30
0.0
 40
17.5
  1
30%%d
 50
345.0891787370866
 41
0.8
  7
GREEKS
 72
     1
 11
606.2099423408977
 21
1106.988951407851
 31
0.0
100
AcDbText
 73
     2
  0
POINT
  5
14954
330
14B29
100
AcDbEntity
  8
DEFPOINTS
  6
ByBlock
 62
     0
100
AcDbPoint
 10
595.2093311143951
 20
1090.585085643308
 30
0.0
  0
POINT
  5
14955
330
14B29
100
AcDbEntity
  8
DEFPOINTS
  6
ByBlock
 62
     0
100
AcDbPoint
 10
546.3234959564146
 20
895.3068142843413
 30
0.0
  0
POINT
  5
14956
330
14B29
100
AcDbEntity
  8
DEFPOINTS
  6
ByBlock
 62
     0
100
AcDbPoint
 10
546.3234959564147
 20
895.3068142843417
 30
0.0
  0
POINT
  5
14957
330
14B29
100
AcDbEntity
  8
DEFPOINTS
  6
ByBlock
 62
     0
100
AcDbPoint
 10
611.3210283398388
 20
1007.885842739035
 30
0.0
  0
POINT
  5
14958
330
14B29
100
AcDbEntity
  8
DEFPOINTS
  6
ByBlock
 62
     0
100
AcDbPoint
 10
546.3234959564146
 20
765.3117495174932
 30
0.0
  0
ENDBLK
  5
14959
330
14B29
100
AcDbEntity
  8
0
100
AcDbBlockEnd
  0
BLOCK
  5
1497B
330
14B2C
100
AcDbEntity
  8
0
100
AcDbBlockBegin
  2
*X6
 70
     1
 10
0.0
 20
0.0
 30
0.0
  3
*X6
  1

  0
LINE
  5
1497D
330
14B2C
100
AcDbEntity
  8
0
 62
     0
100
AcDbLine
 10
408.6571086194563
 20
931.6
 30
0.0
 11
409.8234959564146
 21
931.6
 31
0.0
  0
LINE
  5
1497E
330
14B2C
100
AcDbEntity
  8
0
 62
     0
100
AcDbLine
 10
408.6674224850825
 20
931.7
 30
0.0
 11
409.8234959564146
 21
931.7
 31
0.0
  0
LINE
  5
1497F
330
14B2C
100
AcDbEntity
  8
0
 62
     0
100
AcDbLine
 10
408.6808195738282
 20
931.8000000000001
 30
0.0
 11
409.8234959564146
 21
931.8000000000001
 31
0.0
  0
LINE
  5
14980
330
14B2C
100
AcDbEntity
  8
0
 62
     0
100
AcDbLine
 10
408.6973378996482
 20
931.9
 30
0.0
 11
409.8339580910883
 21
931.9
 31
0.0
  0
LINE
  5
14981
330
14B2C
100
AcDbEntity
  8
0
 62
     0
100
AcDbLine
 10
408.7170251990484
 20
932.0
 30
0.0
 11
409.8916931180072
 21
932.0
 31
0.0
  0
LINE
  5
14982
330
14B2C
100
AcDbEntity
  8
0
 62
     0
100
AcDbLine
 10
408.7399396480706
 20
932.0999999999999
 30
0.0
 11
409.9494281449262
 21
932.0999999999999
 31
0.0
  0
LINE
  5
14983
330
14B2C
100
AcDbEntity
  8
0
 62
     0
100
AcDbLine
 10
408.7661507683357
 20
932.2
 30
0.0
 11
410.0071631718452
 21
932.2
 31
0.0
  0
LINE
  5
14984
330
14B2C
100
AcDbEntity
  8
0
 62
     0
100
AcDbLine
 10
408.7957405567864
 20
932.3
 30
0.0
 11
410.0648981987641
 21
932.3
 31
0.0
  0
LINE
  5
14985
330
14B2C
100
AcDbEntity
  8
0
 62
     0
100
AcDbLine
 10
408.8288048847904
 20
932.4000000000001
 30
0.0
 11
410.1226332256831
 21
932.4000000000001
 31
0.0
  0
LINE
  5
14986
330
14B2C
100
AcDbEntity
  8
0
 62
     0
100
AcDbLine
 10
408.8654552268055
 20
932.5000000000001
 30
0.0
 11
410.180368252602
 21
932.5000000000001
 31
0.0
  0
LINE
  5
14987
330
14B2C
100
AcDbEntity
  8
0
 62
     0
100
AcDbLine
 10
408.9058207983354
 20
932.6
 30
0.0
 11
410.238103279521
 21
932.6
 31
0.0
  0
LINE
  5
14988
330
14B2C
100
AcDbEntity
  8
0
 62
     0
100
AcDbLine
 10
408.9500512095618
 20
932.6999999999999
 30
0.0
 11
410.2958383064399
 21
932.6999999999999
 31
0.0
  0
LINE
  5
14989
330
14B2C
100
AcDbEntity
  8
0
 62
     0
100
AcDbLine
 10
408.9983197780657
 20
932.8000000000001
 30
0.0
 11
410.3535733333589
 21
932.8000000000001
 31
0.0
  0
LINE
  5
1498A
330
14B2C
100
AcDbEntity
  8
0
 62
     0
100
AcDbLine
 10
409.0508276963504
 20
932.9
 30
0.0
 11
410.4113083602779
 21
932.9
 31
0.0
  0
LINE
  5
1498B
330
14B2C
100
AcDbEntity
  8
0
 62
     0
100
AcDbLine
 10
409.107809325123
 20
933.0
 30
0.0
 11
410.4690433871968
 21
933.0
 31
0.0
  0
LINE
  5
1498C
330
14B2C
100
AcDbEntity
  8
0
 62
     0
100
AcDbLine
 10
409.1695389936989
 20
933.1000000000001
 30
0.0
 11
410.5267784141158
 21
933.1000000000001
 31
0.0
  0
LINE
  5
1498D
330
14B2C
100
AcDbEntity
  8
0
 62
     0
100
AcDbLine
 10
409.2363398544412
 20
933.2
 30
0.0
 11
410.5845134410348
 21
933.2
 31
0.0
  0
LINE
  5
1498E
330
14B2C
100
AcDbEntity
  8
0
 62
     0
100
AcDbLine
 10
409.3085955924097
 20
933.3
 30
0.0
 11
410.6422484679537
 21
933.3
 31
0.0
  0
LINE
  5
1498F
330
14B2C
100
AcDbEntity
  8
0
 62
     0
100
AcDbLine
 10
409.3867661925947
 20
933.4000000000001
 30
0.0
 11
410.6999834948728
 21
933.4000000000001
 31
0.0
  0
LINE
  5
14990
330
14B2C
100
AcDbEntity
  8
0
 62
     0
100
AcDbLine
 10
409.4714096198084
 20
933.5
 30
0.0
 11
410.7577185217916
 21
933.5
 31
0.0
  0
LINE
  5
14991
330
14B2C
100
AcDbEntity
  8
0
 62
     0
100
AcDbLine
 10
409.5632123660172
 20
933.6
 30
0.0
 11
410.8154535487106
 21
933.6
 31
0.0
  0
LINE
  5
14992
330
14B2C
100
AcDbEntity
  8
0
 62
     0
100
AcDbLine
 10
409.6630337494799
 20
933.7000000000001
 30
0.0
 11
410.8731885756296
 21
933.7000000000001
 31
0.0
  0
LINE
  5
14993
330
14B2C
100
AcDbEntity
  8
0
 62
     0
100
AcDbLine
 10
409.7719724009802
 20
933.8
 30
0.0
 11
410.9309236025485
 21
933.8
 31
0.0
  0
LINE
  5
14994
330
14B2C
100
AcDbEntity
  8
0
 62
     0
100
AcDbLine
 10
409.8914702891757
 20
933.9
 30
0.0
 11
410.9886586294676
 21
933.9
 31
0.0
  0
LINE
  5
14995
330
14B2C
100
AcDbEntity
  8
0
 62
     0
100
AcDbLine
 10
410.0234840744058
 20
934.0
 30
0.0
 11
411.0463936563864
 21
934.0
 31
0.0
  0
LINE
  5
14996
330
14B2C
100
AcDbEntity
  8
0
 62
     0
100
AcDbLine
 10
410.1707864287913
 20
934.1000000000001
 30
0.0
 11
411.1041286833055
 21
934.1000000000001
 31
0.0
  0
LINE
  5
14997
330
14B2C
100
AcDbEntity
  8
0
 62
     0
100
AcDbLine
 10
410.3375434850496
 20
934.2
 30
0.0
 11
411.1618637102244
 21
934.2
 31
0.0
  0
LINE
  5
14998
330
14B2C
100
AcDbEntity
  8
0
 62
     0
100
AcDbLine
 10
410.5305613692608
 20
934.3000000000001
 30
0.0
 11
411.2195987371434
 21
934.3000000000001
 31
0.0
  0
LINE
  5
14999
330
14B2C
100
AcDbEntity
  8
0
 62
     0
100
AcDbLine
 10
410.762501894858
 20
934.4000000000001
 30
0.0
 11
411.2773337640623
 21
934.4000000000001
 31
0.0
  0
LINE
  5
1499A
330
14B2C
100
AcDbEntity
  8
0
 62
     0
100
AcDbLine
 10
411.0631636983468
 20
934.5
 30
0.0
 11
411.3350687909813
 21
934.5
 31
0.0
  0
LINE
  5
1499B
330
14B2C
100
AcDbEntity
  8
0
 62
     0
100
AcDbLine
 10
408.649849131497
 20
931.4999999999999
 30
0.0
 11
409.8234959564146
 21
931.4999999999999
 31
0.0
  0
LINE
  5
1499C
330
14B2C
100
AcDbEntity
  8
0
 62
     0
100
AcDbLine
 10
408.6456239337638
 20
931.4000000000001
 30
0.0
 11
409.8234959564146
 21
931.4000000000001
 31
0.0
  0
LINE
  5
1499D
330
14B2C
100
AcDbEntity
  8
0
 62
     0
100
AcDbLine
 10
408.6444214160005
 20
931.3
 30
0.0
 11
409.8234959564146
 21
931.3
 31
0.0
  0
LINE
  5
1499E
330
14B2C
100
AcDbEntity
  8
0
 62
     0
100
AcDbLine
 10
408.6462382846965
 20
931.2000000000001
 30
0.0
 11
409.8234959564146
 21
931.2000000000001
 31
0.0
  0
LINE
  5
1499F
330
14B2C
100
AcDbEntity
  8
0
 62
     0
100
AcDbLine
 10
408.6510795178255
 20
931.0999999999999
 30
0.0
 11
409.8234959564146
 21
931.0999999999999
 31
0.0
  0
LINE
  5
149A0
330
14B2C
100
AcDbEntity
  8
0
 62
     0
100
AcDbLine
 10
408.6589584332982
 20
931.0
 30
0.0
 11
409.8234959564146
 21
931.0
 31
0.0
  0
LINE
  5
149A1
330
14B2C
100
AcDbEntity
  8
0
 62
     0
100
AcDbLine
 10
408.6698968733444
 20
930.9000000000001
 30
0.0
 11
409.8234959564146
 21
930.9000000000001
 31
0.0
  0
LINE
  5
149A2
330
14B2C
100
AcDbEntity
  8
0
 62
     0
100
AcDbLine
 10
408.6839255108238
 20
930.8000000000001
 30
0.0
 11
409.8234959564146
 21
930.8000000000001
 31
0.0
  0
LINE
  5
149A3
330
14B2C
100
AcDbEntity
  8
0
 62
     0
100
AcDbLine
 10
408.7010842876315
 20
930.7
 30
0.0
 11
409.8234959564146
 21
930.7
 31
0.0
  0
LINE
  5
149A4
330
14B2C
100
AcDbEntity
  8
0
 62
     0
100
AcDbLine
 10
408.7214230001231
 20
930.6
 30
0.0
 11
409.8234959564146
 21
930.6
 31
0.0
  0
LINE
  5
149A5
330
14B2C
100
AcDbEntity
  8
0
 62
     0
100
AcDbLine
 10
408.7450020521957
 20
930.4999999999999
 30
0.0
 11
409.8234959564146
 21
930.4999999999999
 31
0.0
  0
LINE
  5
149A6
330
14B2C
100
AcDbEntity
  8
0
 62
     0
100
AcDbLine
 10
408.7718934037146
 20
930.4
 30
0.0
 11
409.8234959564146
 21
930.4
 31
0.0
  0
LINE
  5
149A7
330
14B2C
100
AcDbEntity
  8
0
 62
     0
100
AcDbLine
 10
408.802181750937
 20
930.3
 30
0.0
 11
409.8234959564146
 21
930.3
 31
0.0
  0
LINE
  5
149A8
330
14B2C
100
AcDbEntity
  8
0
 62
     0
100
AcDbLine
 10
408.8359659872278
 20
930.2000000000001
 30
0.0
 11
409.8234959564146
 21
930.2000000000001
 31
0.0
  0
LINE
  5
149A9
330
14B2C
100
AcDbEntity
  8
0
 62
     0
100
AcDbLine
 10
408.8733610077799
 20
930.1
 30
0.0
 11
409.8234959564146
 21
930.1
 31
0.0
  0
LINE
  5
149AA
330
14B2C
100
AcDbEntity
  8
0
 62
     0
100
AcDbLine
 10
408.9144999428246
 20
930.0
 30
0.0
 11
409.8234959564146
 21
930.0
 31
0.0
  0
LINE
  5
149AB
330
14B2C
100
AcDbEntity
  8
0
 62
     0
100
AcDbLine
 10
408.9595369322813
 20
929.9000000000001
 30
0.0
 11
409.8234959564146
 21
929.9000000000001
 31
0.0
  0
LINE
  5
149AC
330
14B2C
100
AcDbEntity
  8
0
 62
     0
100
AcDbLine
 10
409.0086505944609
 20
929.8
 30
0.0
 11
409.8234959564146
 21
929.8
 31
0.0
  0
LINE
  5
149AD
330
14B2C
100
AcDbEntity
  8
0
 62
     0
100
AcDbLine
 10
409.0620483976662
 20
929.7
 30
0.0
 11
409.8234959564146
 21
929.7
 31
0.0
  0
LINE
  5
149AE
330
14B2C
100
AcDbEntity
  8
0
 62
     0
100
AcDbLine
 10
409.1199722247494
 20
929.6000000000001
 30
0.0
 11
409.8234959564146
 21
929.6000000000001
 31
0.0
  0
LINE
  5
149AF
330
14B2C
100
AcDbEntity
  8
0
 62
     0
100
AcDbLine
 10
409.1827055403568
 20
929.4999999999999
 30
0.0
 11
409.8234959564146
 21
929.4999999999999
 31
0.0
  0
LINE
  5
149B0
330
14B2C
100
AcDbEntity
  8
0
 62
     0
100
AcDbLine
 10
409.2505827508732
 20
929.4
 30
0.0
 11
409.8234959564146
 21
929.4
 31
0.0
  0
LINE
  5
149B1
330
14B2C
100
AcDbEntity
  8
0
 62
     0
100
AcDbLine
 10
409.3240016254226
 20
929.3000000000001
 30
0.0
 11
409.8234959564146
 21
929.3000000000001
 31
0.0
  0
LINE
  5
149B2
330
14B2C
100
AcDbEntity
  8
0
 62
     0
100
AcDbLine
 10
409.403440088074
 20
929.1999999999999
 30
0.0
 11
409.8234959564146
 21
929.1999999999999
 31
0.0
  0
LINE
  5
149B3
330
14B2C
100
AcDbEntity
  8
0
 62
     0
100
AcDbLine
 10
409.4894794150095
 20
929.1
 30
0.0
 11
409.8234959564146
 21
929.1
 31
0.0
  0
LINE
  5
149B4
330
14B2C
100
AcDbEntity
  8
0
 62
     0
100
AcDbLine
 10
409.5828370990719
 20
929.0
 30
0.0
 11
409.8234959564146
 21
929.0
 31
0.0
  0
LINE
  5
149B5
330
14B2C
100
AcDbEntity
  8
0
 62
     0
100
AcDbLine
 10
409.684414819597
 20
928.9000000000001
 30
0.0
 11
409.8234959564146
 21
928.9000000000001
 31
0.0
  0
LINE
  5
149B6
330
14B2C
100
AcDbEntity
  8
0
 62
     0
100
AcDbLine
 10
409.7953710020701
 20
928.8
 30
0.0
 11
409.8234959564146
 21
928.8
 31
0.0
  0
ENDBLK
  5
149B7
330
14B2C
100
AcDbEntity
  8
0
100
AcDbBlockEnd
  0
BLOCK
  5
149C1
330
14B2D
100
AcDbEntity
  8
0
100
AcDbBlockBegin
  2
*X7
 70
     1
 10
0.0
 20
0.0
 30
0.0
  3
*X7
  1

  0
LINE
  5
149C3
330
14B2D
100
AcDbEntity
  8
0
 62
     0
100
AcDbLine
 10
682.8234959564142
 20
858.5
 30
0.0
 11
685.0490973553229
 21
858.5
 31
0.0
  0
LINE
  5
149C4
330
14B2D
100
AcDbEntity
  8
0
 62
     0
100
AcDbLine
 10
682.8234959564142
 20
858.6
 30
0.0
 11
685.0650037213097
 21
858.6
 31
0.0
  0
LINE
  5
149C5
330
14B2D
100
AcDbEntity
  8
0
 62
     0
100
AcDbLine
 10
682.8234959564142
 20
858.7000000000001
 30
0.0
 11
685.0782467974892
 21
858.7000000000001
 31
0.0
  0
LINE
  5
149C6
330
14B2D
100
AcDbEntity
  8
0
 62
     0
100
AcDbLine
 10
682.8629003908617
 20
858.8
 30
0.0
 11
685.0888540028809
 21
858.8
 31
0.0
  0
LINE
  5
149C7
330
14B2D
100
AcDbEntity
  8
0
 62
     0
100
AcDbLine
 10
682.9206354177808
 20
858.9
 30
0.0
 11
685.0968470280451
 21
858.9
 31
0.0
  0
LINE
  5
149C8
330
14B2D
100
AcDbEntity
  8
0
 62
     0
100
AcDbLine
 10
682.9783704446996
 20
859.0
 30
0.0
 11
685.1022420607365
 21
859.0
 31
0.0
  0
LINE
  5
149C9
330
14B2D
100
AcDbEntity
  8
0
 62
     0
100
AcDbLine
 10
683.0361054716186
 20
859.1000000000001
 30
0.0
 11
685.1050499516303
 21
859.1000000000001
 31
0.0
  0
LINE
  5
149CA
330
14B2D
100
AcDbEntity
  8
0
 62
     0
100
AcDbLine
 10
683.0938404985375
 20
859.2
 30
0.0
 11
685.1052763241345
 21
859.2
 31
0.0
  0
LINE
  5
149CB
330
14B2D
100
AcDbEntity
  8
0
 62
     0
100
AcDbLine
 10
683.1515755254566
 20
859.3000000000001
 30
0.0
 11
685.1029216308984
 21
859.3000000000001
 31
0.0
  0
LINE
  5
149CC
330
14B2D
100
AcDbEntity
  8
0
 62
     0
100
AcDbLine
 10
683.2093105523755
 20
859.4000000000001
 30
0.0
 11
685.0979811583488
 21
859.4000000000001
 31
0.0
  0
LINE
  5
149CD
330
14B2D
100
AcDbEntity
  8
0
 62
     0
100
AcDbLine
 10
683.2670455792944
 20
859.5
 30
0.0
 11
685.0904449793615
 21
859.5
 31
0.0
  0
LINE
  5
149CE
330
14B2D
100
AcDbEntity
  8
0
 62
     0
100
AcDbLine
 10
683.3247806062133
 20
859.6
 30
0.0
 11
685.0802978529543
 21
859.6
 31
0.0
  0
LINE
  5
149CF
330
14B2D
100
AcDbEntity
  8
0
 62
     0
100
AcDbLine
 10
683.3825156331323
 20
859.7000000000001
 30
0.0
 11
685.0675190686175
 21
859.7000000000001
 31
0.0
  0
LINE
  5
149D0
330
14B2D
100
AcDbEntity
  8
0
 62
     0
100
AcDbLine
 10
683.4402506600513
 20
859.8
 30
0.0
 11
685.0520822315324
 21
859.8
 31
0.0
  0
LINE
  5
149D1
330
14B2D
100
AcDbEntity
  8
0
 62
     0
100
AcDbLine
 10
683.4979856869702
 20
859.9000000000001
 30
0.0
 11
685.0339549833894
 21
859.9000000000001
 31
0.0
  0
LINE
  5
149D2
330
14B2D
100
AcDbEntity
  8
0
 62
     0
100
AcDbLine
 10
683.5557207138893
 20
860.0
 30
0.0
 11
685.0130986517413
 21
860.0
 31
0.0
  0
LINE
  5
149D3
330
14B2D
100
AcDbEntity
  8
0
 62
     0
100
AcDbLine
 10
683.6134557408082
 20
860.1
 30
0.0
 11
684.9894678187304
 21
860.1
 31
0.0
  0
LINE
  5
149D4
330
14B2D
100
AcDbEntity
  8
0
 62
     0
100
AcDbLine
 10
683.6711907677272
 20
860.2
 30
0.0
 11
684.9630097974708
 21
860.2
 31
0.0
  0
LINE
  5
149D5
330
14B2D
100
AcDbEntity
  8
0
 62
     0
100
AcDbLine
 10
683.7289257946462
 20
860.3000000000001
 30
0.0
 11
684.9336640012288
 21
860.3000000000001
 31
0.0
  0
LINE
  5
149D6
330
14B2D
100
AcDbEntity
  8
0
 62
     0
100
AcDbLine
 10
683.7866608215652
 20
860.4
 30
0.0
 11
684.9013611865949
 21
860.4
 31
0.0
  0
LINE
  5
149D7
330
14B2D
100
AcDbEntity
  8
0
 62
     0
100
AcDbLine
 10
683.844395848484
 20
860.5
 30
0.0
 11
684.866022546837
 21
860.5
 31
0.0
  0
LINE
  5
149D8
330
14B2D
100
AcDbEntity
  8
0
 62
     0
100
AcDbLine
 10
683.902130875403
 20
860.5999999999999
 30
0.0
 11
684.8275586251718
 21
860.5999999999999
 31
0.0
  0
LINE
  5
149D9
330
14B2D
100
AcDbEntity
  8
0
 62
     0
100
AcDbLine
 10
683.959865902322
 20
860.7000000000001
 30
0.0
 11
684.7858680092928
 21
860.7000000000001
 31
0.0
  0
LINE
  5
149DA
330
14B2D
100
AcDbEntity
  8
0
 62
     0
100
AcDbLine
 10
684.0176009292409
 20
860.8
 30
0.0
 11
684.7408357574113
 21
860.8
 31
0.0
  0
LINE
  5
149DB
330
14B2D
100
AcDbEntity
  8
0
 62
     0
100
AcDbLine
 10
684.0753359561599
 20
860.9000000000001
 30
0.0
 11
684.6923314912829
 21
860.9000000000001
 31
0.0
  0
LINE
  5
149DC
330
14B2D
100
AcDbEntity
  8
0
 62
     0
100
AcDbLine
 10
684.1330709830789
 20
861.0
 30
0.0
 11
684.6402070716853
 21
861.0
 31
0.0
  0
LINE
  5
149DD
330
14B2D
100
AcDbEntity
  8
0
 62
     0
100
AcDbLine
 10
684.1908060099979
 20
861.1
 30
0.0
 11
684.5842937444022
 21
861.1
 31
0.0
  0
LINE
  5
149DE
330
14B2D
100
AcDbEntity
  8
0
 62
     0
100
AcDbLine
 10
684.2485410369168
 20
861.2
 30
0.0
 11
684.5243986066391
 21
861.2
 31
0.0
  0
LINE
  5
149DF
330
14B2D
100
AcDbEntity
  8
0
 62
     0
100
AcDbLine
 10
684.3062760638359
 20
861.3000000000001
 30
0.0
 11
684.4603001899078
 21
861.3000000000001
 31
0.0
  0
LINE
  5
149E0
330
14B2D
100
AcDbEntity
  8
0
 62
     0
100
AcDbLine
 10
684.3640110907548
 20
861.4
 30
0.0
 11
684.3917428779592
 21
861.4
 31
0.0
  0
LINE
  5
149E1
330
14B2D
100
AcDbEntity
  8
0
 62
     0
100
AcDbLine
 10
682.8234959564142
 20
858.4000000000001
 30
0.0
 11
685.0304942608955
 21
858.4000000000001
 31
0.0
  0
LINE
  5
149E2
330
14B2D
100
AcDbEntity
  8
0
 62
     0
100
AcDbLine
 10
682.8234959564142
 20
858.3
 30
0.0
 11
685.009154615717
 21
858.3
 31
0.0
  0
LINE
  5
149E3
330
14B2D
100
AcDbEntity
  8
0
 62
     0
100
AcDbLine
 10
682.8234959564142
 20
858.2
 30
0.0
 11
684.9850317672512
 21
858.2
 31
0.0
  0
LINE
  5
149E4
330
14B2D
100
AcDbEntity
  8
0
 62
     0
100
AcDbLine
 10
682.8234959564142
 20
858.1000000000001
 30
0.0
 11
684.9580716914858
 21
858.1000000000001
 31
0.0
  0
LINE
  5
149E5
330
14B2D
100
AcDbEntity
  8
0
 62
     0
100
AcDbLine
 10
682.8234959564142
 20
858.0
 30
0.0
 11
684.9282123414894
 21
858.0
 31
0.0
  0
LINE
  5
149E6
330
14B2D
100
AcDbEntity
  8
0
 62
     0
100
AcDbLine
 10
682.8234959564142
 20
857.9
 30
0.0
 11
684.8953828661826
 21
857.9
 31
0.0
  0
LINE
  5
149E7
330
14B2D
100
AcDbEntity
  8
0
 62
     0
100
AcDbLine
 10
682.8234959564142
 20
857.8000000000001
 30
0.0
 11
684.8595026744924
 21
857.8000000000001
 31
0.0
  0
LINE
  5
149E8
330
14B2D
100
AcDbEntity
  8
0
 62
     0
100
AcDbLine
 10
682.8234959564142
 20
857.6999999999999
 30
0.0
 11
684.8204803133167
 21
857.6999999999999
 31
0.0
  0
LINE
  5
149E9
330
14B2D
100
AcDbEntity
  8
0
 62
     0
100
AcDbLine
 10
682.8234959564142
 20
857.6
 30
0.0
 11
684.7782121189059
 21
857.6
 31
0.0
  0
LINE
  5
149EA
330
14B2D
100
AcDbEntity
  8
0
 62
     0
100
AcDbLine
 10
682.8234959564142
 20
857.5000000000001
 30
0.0
 11
684.7325805896338
 21
857.5000000000001
 31
0.0
  0
LINE
  5
149EB
330
14B2D
100
AcDbEntity
  8
0
 62
     0
100
AcDbLine
 10
682.8234959564142
 20
857.4000000000001
 30
0.0
 11
684.6834524125429
 21
857.4000000000001
 31
0.0
  0
LINE
  5
149EC
330
14B2D
100
AcDbEntity
  8
0
 62
     0
100
AcDbLine
 10
682.8234959564142
 20
857.3
 30
0.0
 11
684.6306760549378
 21
857.3
 31
0.0
  0
LINE
  5
149ED
330
14B2D
100
AcDbEntity
  8
0
 62
     0
100
AcDbLine
 10
682.8234959564142
 20
857.2
 30
0.0
 11
684.5740788032811
 21
857.2
 31
0.0
  0
LINE
  5
149EE
330
14B2D
100
AcDbEntity
  8
0
 62
     0
100
AcDbLine
 10
682.8234959564142
 20
857.0999999999999
 30
0.0
 11
684.5134630911779
 21
857.0999999999999
 31
0.0
  0
LINE
  5
149EF
330
14B2D
100
AcDbEntity
  8
0
 62
     0
100
AcDbLine
 10
682.8234959564142
 20
857.0
 30
0.0
 11
684.448601900885
 21
857.0
 31
0.0
  0
LINE
  5
149F0
330
14B2D
100
AcDbEntity
  8
0
 62
     0
100
AcDbLine
 10
682.8234959564142
 20
856.9
 30
0.0
 11
684.3792329400632
 21
856.9
 31
0.0
  0
LINE
  5
149F1
330
14B2D
100
AcDbEntity
  8
0
 62
     0
100
AcDbLine
 10
682.8234959564142
 20
856.8000000000001
 30
0.0
 11
684.3050511738603
 21
856.8000000000001
 31
0.0
  0
LINE
  5
149F2
330
14B2D
100
AcDbEntity
  8
0
 62
     0
100
AcDbLine
 10
682.8234959564142
 20
856.7
 30
0.0
 11
684.2256991096651
 21
856.7
 31
0.0
  0
LINE
  5
149F3
330
14B2D
100
AcDbEntity
  8
0
 62
     0
100
AcDbLine
 10
682.8234959564142
 20
856.6
 30
0.0
 11
684.1407539506454
 21
856.6
 31
0.0
  0
LINE
  5
149F4
330
14B2D
100
AcDbEntity
  8
0
 62
     0
100
AcDbLine
 10
682.8234959564142
 20
856.4999999999999
 30
0.0
 11
684.0497102894946
 21
856.4999999999999
 31
0.0
  0
LINE
  5
149F5
330
14B2D
100
AcDbEntity
  8
0
 62
     0
100
AcDbLine
 10
682.8234959564142
 20
856.4000000000001
 30
0.0
 11
683.9519562887369
 21
856.4000000000001
 31
0.0
  0
LINE
  5
149F6
330
14B2D
100
AcDbEntity
  8
0
 62
     0
100
AcDbLine
 10
682.8234959564142
 20
856.3
 30
0.0
 11
683.8467400691696
 21
856.3
 31
0.0
  0
LINE
  5
149F7
330
14B2D
100
AcDbEntity
  8
0
 62
     0
100
AcDbLine
 10
682.8234959564142
 20
856.2000000000001
 30
0.0
 11
683.7331208727792
 21
856.2000000000001
 31
0.0
  0
LINE
  5
149F8
330
14B2D
100
AcDbEntity
  8
0
 62
     0
100
AcDbLine
 10
682.8234959564142
 20
856.0999999999999
 30
0.0
 11
683.6098955868626
 21
856.0999999999999
 31
0.0
  0
LINE
  5
149F9
330
14B2D
100
AcDbEntity
  8
0
 62
     0
100
AcDbLine
 10
682.8234959564142
 20
856.0
 30
0.0
 11
683.4754834331951
 21
856.0
 31
0.0
  0
LINE
  5
149FA
330
14B2D
100
AcDbEntity
  8
0
 62
     0
100
AcDbLine
 10
682.8234959564142
 20
855.9000000000001
 30
0.0
 11
683.3277353013512
 21
855.9000000000001
 31
0.0
  0
LINE
  5
149FB
330
14B2D
100
AcDbEntity
  8
0
 62
     0
100
AcDbLine
 10
682.8234959564142
 20
855.8000000000001
 30
0.0
 11
683.1635968345234
 21
855.8000000000001
 31
0.0
  0
LINE
  5
149FC
330
14B2D
100
AcDbEntity
  8
0
 62
     0
100
AcDbLine
 10
682.8234959564142
 20
855.7
 30
0.0
 11
682.9784585913239
 21
855.7
 31
0.0
  0
ENDBLK
  5
149FD
330
14B2D
100
AcDbEntity
  8
0
100
AcDbBlockEnd
  0
BLOCK
  5
14BDE
330
14BD4
100
AcDbEntity
  8
0
100
AcDbBlockBegin
  2
*D10
 70
     1
 10
0.0
 20
0.0
 30
0.0
  3
*D10
  1

  0
LINE
  5
14BD5
330
14BD4
100
AcDbEntity
  8
BEM
 62
     0
370
    -2
100
AcDbLine
 10
541.9933689374923
 20
897.8068142843413
 30
0.0
 11
397.8001392073835
 21
981.0568142843413
 31
0.0
  0
LINE
  5
14BD6
330
14BD4
100
AcDbEntity
  8
BEM
 62
     0
370
    -2
100
AcDbLine
 10
486.2784337043407
 20
1074.305715720113
 30
0.0
 11
460.2976715908076
 21
1089.305715720113
 31
0.0
  0
LINE
  5
14BD7
330
14BD4
100
AcDbEntity
  8
BEM
 62
     0
370
    -2
100
AcDbLine
 10
410.8802662263056
 20
993.712258850569
 30
0.0
 11
455.8777986097298
 21
1071.650271153886
 31
0.0
  0
SOLID
  5
14BD8
330
14BD4
100
AcDbEntity
  8
BEM
 62
     0
100
AcDbTrace
 10
408.354358798601
 20
995.1705921839025
 30
0.0
 11
413.4061736540102
 21
992.2539255172358
 31
0.0
 12
402.1302662263056
 22
978.5568142843414
 32
0.0
 13
402.1302662263056
 23
978.5568142843414
 33
0.0
  0
SOLID
  5
14BD9
330
14BD4
100
AcDbEntity
  8
BEM
 62
     0
100
AcDbTrace
 10
453.3518911820253
 20
1073.108604487219
 30
0.0
 11
458.4037060374344
 21
1070.191937820552
 31
0.0
 12
464.6277986097298
 22
1086.805715720113
 32
0.0
 13
464.6277986097298
 23
1086.805715720113
 33
0.0
  0
MTEXT
  5
14BDA
330
14BD4
100
AcDbEntity
  8
BEM
 62
     1
100
AcDbMText
 10
419.3061196065205
 20
1040.806265002227
 30
0.0
 40
17.5
 41
0.0
 71
     5
 72
     1
  1
\A1;125
  7
GREEKS
 11
0.5000000000000001
 21
0.8660254037844385
 31
0.0
 73
     1
 44
1.0
  0
POINT
  5
14BDB
330
14BD4
100
AcDbEntity
  8
DEFPOINTS
 62
     0
100
AcDbPoint
 10
546.3234959564146
 20
895.3068142843413
 30
0.0
  0
POINT
  5
14BDC
330
14BD4
100
AcDbEntity
  8
DEFPOINTS
 62
     0
100
AcDbPoint
 10
490.608560723263
 20
1071.805715720113
 30
0.0
  0
POINT
  5
14BDD
330
14BD4
100
AcDbEntity
  8
DEFPOINTS
 62
     0
100
AcDbPoint
 10
464.6277986097298
 20
1086.805715720113
 30
0.0
  0
ENDBLK
  5
14BDF
330
14BD4
100
AcDbEntity
  8
0
100
AcDbBlockEnd
  0
BLOCK
  5
14BEA
330
14BE0
100
AcDbEntity
  8
0
100
AcDbBlockBegin
  2
*D11
 70
     1
 10
0.0
 20
0.0
 30
0.0
  3
*D11
  1

  0
LINE
  5
14BE1
330
14BE0
100
AcDbEntity
  8
BEM
 62
     0
370
    -2
100
AcDbLine
 10
404.8234959564146
 20
770.3117495174932
 30
0.0
 11
374.8234959564146
 21
770.3117495174932
 31
0.0
  0
LINE
  5
14BE2
330
14BE0
100
AcDbEntity
  8
BEM
 62
     0
370
    -2
100
AcDbLine
 10
541.3234959564146
 20
895.3068142843413
 30
0.0
 11
374.8234959564146
 21
895.3068142843413
 31
0.0
  0
LINE
  5
14BE3
330
14BE0
100
AcDbEntity
  8
BEM
 62
     0
370
    -2
100
AcDbLine
 10
379.8234959564146
 20
787.8117495174932
 30
0.0
 11
379.8234959564146
 21
877.8068142843414
 31
0.0
  0
SOLID
  5
14BE4
330
14BE0
100
AcDbEntity
  8
BEM
 62
     0
100
AcDbTrace
 10
376.9068292897479
 20
787.8117495174932
 30
0.0
 11
382.7401626230813
 21
787.8117495174932
 31
0.0
 12
379.8234959564146
 22
770.3117495174932
 32
0.0
 13
379.8234959564146
 23
770.3117495174932
 33
0.0
  0
SOLID
  5
14BE5
330
14BE0
100
AcDbEntity
  8
BEM
 62
     0
100
AcDbTrace
 10
376.9068292897479
 20
877.8068142843414
 30
0.0
 11
382.7401626230813
 21
877.8068142843414
 31
0.0
 12
379.8234959564146
 22
895.3068142843413
 32
0.0
 13
379.8234959564146
 23
895.3068142843413
 33
0.0
  0
MTEXT
  5
14BE6
330
14BE0
100
AcDbEntity
  8
BEM
 62
     1
100
AcDbMText
 10
363.5734959564145
 20
832.8092819009174
 30
0.0
 40
17.5
 41
0.0
 71
     5
 72
     1
  1
\A1;125
  7
GREEKS
 11
0.0000000000000001
 21
1.0
 31
0.0
 73
     1
 44
1.0
  0
POINT
  5
14BE7
330
14BE0
100
AcDbEntity
  8
DEFPOINTS
 62
     0
100
AcDbPoint
 10
409.8234959564146
 20
770.3117495174932
 30
0.0
  0
POINT
  5
14BE8
330
14BE0
100
AcDbEntity
  8
DEFPOINTS
 62
     0
100
AcDbPoint
 10
546.3234959564146
 20
895.3068142843413
 30
0.0
  0
POINT
  5
14BE9
330
14BE0
100
AcDbEntity
  8
DEFPOINTS
 62
     0
100
AcDbPoint
 10
379.8234959564146
 20
895.3068142843413
 30
0.0
  0
ENDBLK
  5
14BEB
330
14BE0
100
AcDbEntity
  8
0
100
AcDbBlockEnd
  0
BLOCK
  5
14C2C
330
14C22
100
AcDbEntity
  8
0
100
AcDbBlockBegin
  2
*D12
 70
     1
 10
0.0
 20
0.0
 30
0.0
  3
*D12
  1

  0
LINE
  5
14C2E
330
14C22
100
AcDbEntity
  8
BEM
 62
     0
370
    -2
100
AcDbLine
 10
682.8234959564143
 20
765.3117495174932
 30
0.0
 11
682.8234959564143
 21
719.0570910579501
 31
0.0
  0
LINE
  5
14C2F
330
14C22
100
AcDbEntity
  8
BEM
 62
     0
370
    -2
100
AcDbLine
 10
409.8234959564146
 20
765.3117495174932
 30
0.0
 11
409.8234959564146
 21
719.0570910579501
 31
0.0
  0
LINE
  5
14C30
330
14C22
100
AcDbEntity
  8
BEM
 62
     0
370
    -2
100
AcDbLine
 10
665.3234959564144
 20
724.0570910579501
 30
0.0
 11
427.3234959564145
 21
724.0570910579501
 31
0.0
  0
SOLID
  5
14C31
330
14C22
100
AcDbEntity
  8
BEM
 62
     0
100
AcDbTrace
 10
665.3234959564144
 20
726.9737577246168
 30
0.0
 11
665.3234959564144
 21
721.1404243912835
 31
0.0
 12
682.8234959564143
 22
724.0570910579501
 32
0.0
 13
682.8234959564143
 23
724.0570910579501
 33
0.0
  0
SOLID
  5
14C32
330
14C22
100
AcDbEntity
  8
BEM
 62
     0
100
AcDbTrace
 10
427.3234959564145
 20
726.9737577246168
 30
0.0
 11
427.3234959564145
 21
721.1404243912835
 31
0.0
 12
409.8234959564146
 22
724.0570910579501
 32
0.0
 13
409.8234959564146
 23
724.0570910579501
 33
0.0
  0
MTEXT
  5
14C33
330
14C22
100
AcDbEntity
  8
BEM
 62
     1
100
AcDbMText
 10
546.3234959564145
 20
740.3070910579502
 30
0.0
 40
17.5
 41
0.0
 71
     5
 72
     1
  1
\A1;%%c273
  7
GREEKS
 73
     1
 44
1.0
  0
POINT
  5
14C34
330
14C22
100
AcDbEntity
  8
DEFPOINTS
 62
     0
100
AcDbPoint
 10
682.8234959564143
 20
770.3117495174932
 30
0.0
  0
POINT
  5
14C35
330
14C22
100
AcDbEntity
  8
DEFPOINTS
 62
     0
100
AcDbPoint
 10
409.8234959564146
 20
770.3117495174932
 30
0.0
  0
POINT
  5
14C36
330
14C22
100
AcDbEntity
  8
DEFPOINTS
 62
     0
100
AcDbPoint
 10
409.8234959564146
 20
724.0570910579501
 30
0.0
  0
ENDBLK
  5
14C2D
330
14C22
100
AcDbEntity
  8
0
100
AcDbBlockEnd
  0
ENDSEC
  0
SECTION
  2
ENTITIES
  0
DIMENSION
  5
14A85
330
14B1F
100
AcDbEntity
  8
BEM
100
AcDbDimension
  2
*D10
 10
464.6277986097298
 20
1086.805715720113
 30
0.0
 11
419.3061196065205
 21
1040.806265002227
 31
0.0
 70
    32
 71
     5
 42
124.9950647668484
  3
Standard
100
AcDbAlignedDimension
 13
546.3234959564146
 23
895.3068142843413
 33
0.0
 14
490.608560723263
 24
1071.805715720113
 34
0.0
 50
60.0
100
AcDbRotatedDimension
1001
ACAD
1000
DSTYLE
1002
{
1070
    40
1040
5.0
1070
    41
1040
3.5
1070
    42
1040
1.0
1070
    43
1040
7.0
1070
    44
1040
1.0
1070
    47
1040
3.0
1070
    48
1040
3.0
1070
    73
1070
     0
1070
    74
1070
     0
1070
    77
1070
     1
1070
    78
1070
     8
1070
    79
1070
     2
1070
   140
1040
3.5
1070
   141
1040
1.5
1070
   146
1040
0.5
1070
   147
1040
1.5
1070
   172
1070
     1
1070
   178
1070
     1
1070
   179
1070
     2
1070
   271
1070
     2
1070
   272
1070
     2
1070
   284
1070
     8
1070
   285
1070
     8
1070
   286
1070
     8
1070
   340
1005
14B30
1002
}
  0
DIMENSION
  5
14A86
330
14B1F
100
AcDbEntity
  8
BEM
100
AcDbDimension
  2
*D11
 10
379.8234959564146
 20
895.3068142843413
 30
0.0
 11
363.5734959564145
 21
832.8092819009174
 31
0.0
 70
    32
 71
     5
 42
124.9950647668481
  3
Standard
100
AcDbAlignedDimension
 13
409.8234959564146
 23
770.3117495174932
 33
0.0
 14
546.3234959564146
 24
895.3068142843413
 34
0.0
 50
90.0
100
AcDbRotatedDimension
1001
ACAD
1000
DSTYLE
1002
{
1070
    40
1040
5.0
1070
    41
1040
3.5
1070
    42
1040
1.0
1070
    43
1040
7.0
1070
    44
1040
1.0
1070
    47
1040
3.0
1070
    48
1040
3.0
1070
    73
1070
     0
1070
    74
1070
     0
1070
    77
1070
     1
1070
    78
1070
     8
1070
    79
1070
     2
1070
   140
1040
3.5
1070
   141
1040
1.5
1070
   146
1040
0.5
1070
   147
1040
1.5
1070
   172
1070
     1
1070
   178
1070
     1
1070
   179
1070
     2
1070
   271
1070
     2
1070
   272
1070
     2
1070
   284
1070
     8
1070
   285
1070
     8
1070
   286
1070
     8
1070
   340
1005
14B30
1002
}
  0
LINE
  5
14A87
330
14B1F
100
AcDbEntity
  8
STEMPEL
100
AcDbLine
 10
727.0334959564145
 20
935.3057157201131
 30
0.0
 11
490.608560723263
 21
1071.805715720113
 31
0.0
  0
LINE
  5
14A88
330
14B1F
100
AcDbEntity
  8
STEMPEL
100
AcDbLine
 10
682.8234959564142
 20
858.7317495174932
 30
0.0
 11
409.8234959564146
 21
931.8818790511896
 31
0.0
  0
DIMENSION
  5
14A89
330
14B1F
100
AcDbEntity
  8
BEM
100
AcDbDimension
  2
*D12
 10
409.8234959564146
 20
724.0570910579501
 30
0.0
 11
546.3234959564145
 21
740.3070910579502
 31
0.0
 70
    32
  1
%%c<>
 71
     5
 42
272.9999999999998
  3
Standard
100
AcDbAlignedDimension
 13
682.8234959564143
 23
770.3117495174932
 33
0.0
 14
409.8234959564146
 24
770.3117495174932
 34
0.0
100
AcDbRotatedDimension
1001
ACAD
1000
DSTYLE
1002
{
1070
    40
1040
5.0
1070
    41
1040
3.5
1070
    42
1040
1.0
1070
    43
1040
7.0
1070
    44
1040
1.0
1070
    47
1040
3.0
1070
    48
1040
3.0
1070
    73
1070
     0
1070
    74
1070
     0
1070
    77
1070
     1
1070
    78
1070
     8
1070
    79
1070
     2
1070
   140
1040
3.5
1070
   141
1040
1.5
1070
   146
1040
0.5
1070
   147
1040
1.5
1070
   172
1070
     1
1070
   178
1070
     1
1070
   179
1070
     2
1070
   271
1070
     2
1070
   272
1070
     2
1070
   284
1070
     8
1070
   285
1070
     8
1070
   286
1070
     8
1070
   340
1005
14B30
1002
}
  0
LINE
  5
14A8A
330
14B1F
100
AcDbEntity
  8
STEMPEL
100
AcDbLine
 10
682.8234959564143
 20
770.3117495174932
 30
0.0
 11
409.8234959564146
 21
770.3117495174932
 31
0.0
  0
TEXT
  5
14A8B
330
14B1F
100
AcDbEntity
  8
TEXT
 62
     1
100
AcDbText
 10
539.09595833283
 20
807.8838559455304
 30
0.0
 40
17.5
  1
DN250
 50
90.0
 41
0.8
  7
GREEKS
100
AcDbText
  0
TEXT
  5
14A8C
330
14B1F
100
AcDbEntity
  8
TEXT
 62
     1
100
AcDbText
 10
273.9036994186759
 20
439.8504167589382
 30
0.0
 40
17.5
  1
Rohrenden leicht entgratet
 41
0.8
  7
GREEKS
100
AcDbText
  0
LINE
  5
14A8D
330
14B1F
100
AcDbEntity
  8
STEMPEL
100
AcDbLine
 10
1025.0
 20
275.0000000000001
 30
0.0
 11
99.99999999999992
 21
275.0
 31
0.0
  0
LINE
  5
14A8E
330
14B1F
100
AcDbEntity
  8
STEMPEL
100
AcDbLine
 10
1025.0
 20
100.0
 30
0.0
 11
365.0000000000003
 21
99.99999999999992
 31
0.0
  0
LINE
  5
14A8F
330
14B1F
100
AcDbEntity
  8
STEMPEL
100
AcDbLine
 10
1025.0
 20
200.0
 30
0.0
 11
365.0000000000003
 21
199.9999999999998
 31
0.0
  0
LINE
  5
14A90
330
14B1F
100
AcDbEntity
  8
HILF
100
AcDbLine
 10
365.0000000000003
 20
174.9999999999998
 30
0.0
 11
575.0
 21
174.9999999999998
 31
0.0
  0
LINE
  5
14A91
330
14B1F
100
AcDbEntity
  8
HILF
100
AcDbLine
 10
365.0000000000003
 20
149.9999999999999
 30
0.0
 11
575.0
 21
149.9999999999999
 31
0.0
  0
LINE
  5
14A92
330
14B1F
100
AcDbEntity
  8
HILF
100
AcDbLine
 10
365.0000000000003
 20
124.9999999999999
 30
0.0
 11
575.0
 21
124.9999999999999
 31
0.0
  0
LINE
  5
14A93
330
14B1F
100
AcDbEntity
  8
STEMPEL
100
AcDbLine
 10
124.9999999999997
 20
25.0
 30
0.0
 11
1025.0
 21
25.0
 31
0.0
  0
LINE
  5
14A94
330
14B1F
100
AcDbEntity
  8
STEMPEL
100
AcDbLine
 10
1025.0
 20
25.0
 30
0.0
 11
99.99999999999971
 21
25.0
 31
0.0
  0
LINE
  5
14A95
330
14B1F
100
AcDbEntity
  8
HILF
100
AcDbLine
 10
1050.0
 20
0.0
 30
0.0
 11
0.0
 21
0.0
 31
0.0
  0
INSERT
  5
14A96
330
14B1F
100
AcDbEntity
  8
STEMPEL
100
AcDbBlockReference
  2
LOGO
 10
377.4888713644485
 20
112.552631911208
 30
0.0
 41
5.0
 42
5.0
 43
5.0
  0
TEXT
  5
14A97
330
14B1F
100
AcDbEntity
  8
TEXT
100
AcDbText
 10
511.0540121453142
 20
157.7240979930877
 30
0.0
 40
10.0
  1
Koeh
 41
0.8
  7
GREEKS
 72
     1
 11
524.1968692881714
 21
157.7240979930877
 31
0.0
100
AcDbText
  0
TEXT
  5
14A98
330
14B1F
100
AcDbEntity
  8
TEXT
100
AcDbText
 10
506.1566460565737
 20
183.2740272978806
 30
0.0
 40
10.0
  1
Name
 41
0.8
  7
GREEKS
100
AcDbText
  0
TEXT
  5
14A99
330
14B1F
100
AcDbEntity
  8
TEXT
100
AcDbText
 10
485.7147386835128
 20
256.0460421087048
 30
0.0
 40
12.5
  1
Zul. Abw.
 41
0.8
  7
GREEKS
100
AcDbText
  0
TEXT
  5
14A9A
330
14B1F
100
AcDbEntity
  8
TEXT
 62
     1
100
AcDbText
 10
471.7846544748148
 20
351.64847138984
 30
0.0
 40
17.5
  1
Werkstoff: EN 10219 S235
 41
0.8
  7
GREEKS
100
AcDbText
  0
LINE
  5
14A9C
330
14B1F
100
AcDbEntity
  8
STEMPEL
100
AcDbLine
 10
1025.0
 20
1460.0
 30
0.0
 11
99.99999999999971
 21
1460.0
 31
0.0
  0
LINE
  5
14A9D
330
14B1F
100
AcDbEntity
  8
HILF
100
AcDbLine
 10
1050.0
 20
1485.0
 30
0.0
 11
0.0
 21
1485.0
 31
0.0
  0
LINE
  5
14A9E
330
14B1F
100
AcDbEntity
  8
STEMPEL
100
AcDbLine
 10
100.0
 20
25.0
 30
0.0
 11
99.99999999999971
 21
1460.0
 31
0.0
  0
LINE
  5
14A9F
330
14B1F
100
AcDbEntity
  8
HILF
100
AcDbLine
 10
0.0
 20
0.0
 30
0.0
 11
-0.0000000000002842
 21
1485.0
 31
0.0
  0
TEXT
  5
14AA0
330
14B1F
100
AcDbEntity
  8
TEXT
100
AcDbText
 10
104.6377487744418
 20
279.1799999999999
 30
0.0
 40
12.5
  1
Erstellt mit AUTOCAD 2004
 41
0.8
  7
GREEKS
100
AcDbText
  0
TEXT
  5
14AA1
330
14B1F
100
AcDbEntity
  8
TEXT
100
AcDbText
 10
164.5864391002692
 20
46.68454737460329
 30
0.0
 40
10.0
  1
Änderung
 41
0.8
  7
GREEKS
 72
     1
 11
191.4435819574121
 21
46.68454737460329
 31
0.0
100
AcDbText
  0
LINE
  5
14AA2
330
14B1F
100
AcDbEntity
  8
STEMPEL
100
AcDbLine
 10
364.9999999999997
 20
74.99999999999992
 30
0.0
 11
99.99999999999992
 21
74.99999999999992
 31
0.0
  0
LINE
  5
14AA3
330
14B1F
100
AcDbEntity
  8
HILF
100
AcDbLine
 10
100.0000000000002
 20
250.0000000000001
 30
0.0
 11
365.0000000000003
 21
250.0000000000001
 31
0.0
  0
LINE
  5
14AA4
330
14B1F
100
AcDbEntity
  8
HILF
100
AcDbLine
 10
100.0000000000002
 20
225.0000000000001
 30
0.0
 11
365.0000000000003
 21
225.0000000000001
 31
0.0
  0
LINE
  5
14AA5
330
14B1F
100
AcDbEntity
  8
HILF
100
AcDbLine
 10
100.0000000000002
 20
199.9999999999998
 30
0.0
 11
365.0000000000003
 21
199.9999999999998
 31
0.0
  0
LINE
  5
14AA6
330
14B1F
100
AcDbEntity
  8
HILF
100
AcDbLine
 10
100.0000000000002
 20
174.9999999999998
 30
0.0
 11
365.0000000000003
 21
174.9999999999998
 31
0.0
  0
LINE
  5
14AA7
330
14B1F
100
AcDbEntity
  8
HILF
100
AcDbLine
 10
100.0000000000002
 20
149.9999999999999
 30
0.0
 11
365.0000000000003
 21
149.9999999999999
 31
0.0
  0
LINE
  5
14AA8
330
14B1F
100
AcDbEntity
  8
HILF
100
AcDbLine
 10
100.0000000000002
 20
124.9999999999999
 30
0.0
 11
365.0000000000003
 21
124.9999999999999
 31
0.0
  0
LINE
  5
14AA9
330
14B1F
100
AcDbEntity
  8
HILF
100
AcDbLine
 10
100.0000000000002
 20
99.99999999999992
 30
0.0
 11
365.0000000000003
 21
99.99999999999992
 31
0.0
  0
LINE
  5
14AAA
330
14B1F
100
AcDbEntity
  8
VOLL
100
AcDbLine
 10
135.0000000000002
 20
275.0000000000001
 30
0.0
 11
134.9999999999999
 21
24.99999999999993
 31
0.0
  0
TEXT
  5
14AAB
330
14B1F
100
AcDbEntity
  8
TEXT
100
AcDbText
 10
120.6660276761439
 20
34.13664615067979
 30
0.0
 40
10.0
  1
Index
 50
90.0
 41
0.8
  7
GREEKS
100
AcDbText
  0
LINE
  5
14AAC
330
14B1F
100
AcDbEntity
  8
HILF
100
AcDbLine
 10
77.7191783928464
 20
742.5000000000001
 30
0.0
 11
0.0000000000002842
 21
742.5000000000001
 31
0.0
  0
LINE
  5
14AAD
330
14B1F
100
AcDbEntity
  8
VOLL
100
AcDbLine
 10
260.0000000000003
 20
274.9999999999999
 30
0.0
 11
260.0
 21
24.99999999999993
 31
0.0
  0
LINE
  5
14AAE
330
14B1F
100
AcDbEntity
  8
VOLL
100
AcDbLine
 10
310.0000000000003
 20
274.9999999999999
 30
0.0
 11
310.0
 21
24.99999999999993
 31
0.0
  0
TEXT
  5
14AAF
330
14B1F
100
AcDbEntity
  8
TEXT
100
AcDbText
 10
274.2609029640008
 20
46.67890673349525
 30
0.0
 40
10.0
  1
Tag
 41
0.8
  7
GREEKS
 72
     1
 11
283.5942362973341
 21
46.67890673349525
 31
0.0
100
AcDbText
  0
TEXT
  5
14AB0
330
14B1F
100
AcDbEntity
  8
TEXT
100
AcDbText
 10
321.2631057832852
 20
46.4831054241602
 30
0.0
 40
10.0
  1
Name
 41
0.8
  7
GREEKS
 72
     1
 11
337.072629592809
 21
46.4831054241602
 31
0.0
100
AcDbText
  0
LINE
  5
14AB1
330
14B1F
100
AcDbEntity
  8
STEMPEL
100
AcDbLine
 10
365.0000000000003
 20
274.9999999999999
 30
0.0
 11
365.0
 21
24.99999999999993
 31
0.0
  0
TEXT
  5
14AB2
330
14B1F
100
AcDbEntity
  8
TEXT
100
AcDbText
 10
425.9974927705902
 20
157.7691260206433
 30
0.0
 40
10.0
  1
06.04.
 41
0.8
  7
GREEKS
 72
     1
 11
443.5213022943996
 21
157.7691260206433
 31
0.0
100
AcDbText
  0
TEXT
  5
14AB3
330
14B1F
100
AcDbEntity
  8
TEXT
100
AcDbText
 10
430.8279182884127
 20
183.2970125307481
 30
0.0
 40
10.0
  1
Tag
 41
0.8
  7
GREEKS
100
AcDbText
  0
TEXT
  5
14AB4
330
14B1F
100
AcDbEntity
  8
TEXT
100
AcDbText
 10
368.9590317919039
 20
159.0747592404491
 30
0.0
 40
10.0
  1
Gez.
 41
0.8
  7
GREEKS
100
AcDbText
  0
LINE
  5
14AB5
330
14B1F
100
AcDbEntity
  8
VOLL
100
AcDbLine
 10
410.0000000000003
 20
199.9999999999998
 30
0.0
 11
410.0000000000003
 21
99.99999999999992
 31
0.0
  0
TEXT
  5
14AB6
330
14B1F
100
AcDbEntity
  8
TEXT
100
AcDbText
 10
369.0016943468259
 20
108.8236597412452
 30
0.0
 40
10.0
  1
Norm.
 41
0.8
  7
GREEKS
100
AcDbText
  0
TEXT
  5
14AB7
330
14B1F
100
AcDbEntity
  8
TEXT
100
AcDbText
 10
368.8787716429181
 20
134.2231572857094
 30
0.0
 40
10.0
  1
Gepr.
 41
0.8
  7
GREEKS
100
AcDbText
  0
TEXT
  5
14AB8
330
14B1F
100
AcDbEntity
  8
TEXT
100
AcDbText
 10
383.7908930375943
 20
256.1552237717722
 30
0.0
 40
12.5
  1
Maßstab
 41
0.8
  7
GREEKS
100
AcDbText
  0
TEXT
  5
14AB9
330
14B1F
100
AcDbEntity
  8
TEXT
 62
     1
100
AcDbText
 10
401.2515766204717
 20
220.372535722849
 30
0.0
 40
17.5
  1
1:5
 41
0.8
  7
GREEKS
100
AcDbText
  0
TEXT
  5
14ABA
330
14B1F
100
AcDbEntity
  8
TEXT
100
AcDbText
 10
371.55527455526
 20
182.8506367787916
 30
0.0
 40
10.0
  1
2011
 41
0.8
  7
GREEKS
100
AcDbText
  0
LINE
  5
14ABB
330
14B1F
100
AcDbEntity
  8
VOLL
100
AcDbLine
 10
475.0000000000002
 20
274.9999999999996
 30
0.0
 11
475.0
 21
99.99999999999992
 31
0.0
  0
LINE
  5
14ABC
330
14B1F
100
AcDbEntity
  8
STEMPEL
100
AcDbLine
 10
409.8234959564146
 20
931.8818790511896
 30
0.0
 11
490.608560723263
 21
1071.805715720113
 31
0.0
  0
LINE
  5
14ABD
330
14B1F
100
AcDbEntity
  8
STEMPEL
100
AcDbLine
 10
409.8234959564146
 20
931.8818790511896
 30
0.0
 11
409.8234959564146
 21
770.3117495174932
 31
0.0
  0
ARC
  5
14ABE
330
14B1F
100
AcDbEntity
  8
SCHRAFF
100
AcDbCircle
 10
418.5286353228964
 20
929.538235767238
 30
0.0
 40
3.811488253428933
100
AcDbArc
 50
293.0852241088059
 51
36.91477589119089
  0
ARC
  5
14ABF
330
14B1F
100
AcDbEntity
  8
SCHRAFF
100
AcDbCircle
 10
410.1069446847236
 20
931.8484645406932
 30
0.0
 40
3.811488253428933
100
AcDbArc
 50
293.0852241088059
 51
36.91477589119089
  0
INSERT
  5
14AC0
330
14B1F
100
AcDbEntity
  8
SCHRAFF
100
AcDbBlockReference
  2
*X6
 10
0.0
 20
0.0
 30
0.0
1001
ACAD
1000
HATCH
1002
{
1070
    16
1000
_U,I
1040
0.1
1040
0.0
1070
     0
1002
}
  0
ARC
  5
14AC1
330
14B1F
100
AcDbEntity
  8
SCHRAFF
100
AcDbCircle
 10
411.9571386400409
 20
931.3101712171754
 30
0.0
 40
3.312732838629309
100
AcDbArc
 50
100.0962282125388
 51
229.9037717874606
  0
ARC
  5
14AC2
330
14B1F
100
AcDbEntity
  8
SCHRAFF
100
AcDbCircle
 10
414.3245951079084
 20
930.7183485158439
 30
0.0
 40
3.811488253428933
100
AcDbArc
 50
293.0852241088059
 51
36.91477589119089
  0
ARC
  5
14AC3
330
14B1F
100
AcDbEntity
  8
SCHRAFF
100
AcDbCircle
 10
423.3582644543417
 20
928.2441405417253
 30
0.0
 40
3.811488253428933
100
AcDbArc
 50
293.0852241088059
 51
36.91477589119089
  0
ARC
  5
14AC4
330
14B1F
100
AcDbEntity
  8
SCHRAFF
100
AcDbCircle
 10
428.1878935857873
 20
926.9500453162129
 30
0.0
 40
3.811488253428933
100
AcDbArc
 50
293.0852241088059
 51
36.91477589119089
  0
ARC
  5
14AC5
330
14B1F
100
AcDbEntity
  8
SCHRAFF
100
AcDbCircle
 10
433.0175227172325
 20
925.6559500907002
 30
0.0
 40
3.811488253428933
100
AcDbArc
 50
293.0852241088059
 51
36.91477589119089
  0
ARC
  5
14AC6
330
14B1F
100
AcDbEntity
  8
SCHRAFF
100
AcDbCircle
 10
437.847151848678
 20
924.3618548651873
 30
0.0
 40
3.811488253428933
100
AcDbArc
 50
293.0852241088059
 51
36.91477589119089
  0
ARC
  5
14AC7
330
14B1F
100
AcDbEntity
  8
SCHRAFF
100
AcDbCircle
 10
481.3138140316859
 20
912.714997835574
 30
0.0
 40
3.811488253428933
100
AcDbArc
 50
293.0852241088059
 51
36.91477589119089
  0
ARC
  5
14AC8
330
14B1F
100
AcDbEntity
  8
SCHRAFF
100
AcDbCircle
 10
466.8249266373502
 20
916.5972835121118
 30
0.0
 40
3.811488253428933
100
AcDbArc
 50
293.0852241088059
 51
36.91477589119089
  0
ARC
  5
14AC9
330
14B1F
100
AcDbEntity
  8
SCHRAFF
100
AcDbCircle
 10
461.9952975059046
 20
917.8913787376247
 30
0.0
 40
3.811488253428933
100
AcDbArc
 50
293.0852241088059
 51
36.91477589119089
  0
ARC
  5
14ACA
330
14B1F
100
AcDbEntity
  8
SCHRAFF
100
AcDbCircle
 10
457.1656683744593
 20
919.1854739631372
 30
0.0
 40
3.811488253428933
100
AcDbArc
 50
293.0852241088059
 51
36.91477589119089
  0
ARC
  5
14ACB
330
14B1F
100
AcDbEntity
  8
SCHRAFF
100
AcDbCircle
 10
471.6545557687954
 20
915.3031882865995
 30
0.0
 40
3.811488253428933
100
AcDbArc
 50
293.0852241088059
 51
36.91477589119089
  0
ARC
  5
14ACC
330
14B1F
100
AcDbEntity
  8
SCHRAFF
100
AcDbCircle
 10
476.4841849002407
 20
914.0090930610867
 30
0.0
 40
3.811488253428933
100
AcDbArc
 50
293.0852241088059
 51
36.91477589119089
  0
ARC
  5
14ACD
330
14B1F
100
AcDbEntity
  8
SCHRAFF
100
AcDbCircle
 10
442.6767809801233
 20
923.0677596396748
 30
0.0
 40
3.811488253428933
100
AcDbArc
 50
293.0852241088059
 51
36.91477589119089
  0
ARC
  5
14ACE
330
14B1F
100
AcDbEntity
  8
SCHRAFF
100
AcDbCircle
 10
447.5064101115686
 20
921.7736644141623
 30
0.0
 40
3.811488253428933
100
AcDbArc
 50
293.0852241088059
 51
36.91477589119089
  0
ARC
  5
14ACF
330
14B1F
100
AcDbEntity
  8
SCHRAFF
100
AcDbCircle
 10
452.3360392430141
 20
920.4795691886499
 30
0.0
 40
3.811488253428933
100
AcDbArc
 50
293.0852241088059
 51
36.91477589119089
  0
ARC
  5
14AD0
330
14B1F
100
AcDbEntity
  8
SCHRAFF
100
AcDbCircle
 10
500.6323305574674
 20
907.5386169335237
 30
0.0
 40
3.811488253428933
100
AcDbArc
 50
293.0852241088059
 51
36.91477589119089
  0
ARC
  5
14AD1
330
14B1F
100
AcDbEntity
  8
SCHRAFF
100
AcDbCircle
 10
490.9730722945769
 20
910.1268073845488
 30
0.0
 40
3.811488253428933
100
AcDbArc
 50
293.0852241088059
 51
36.91477589119089
  0
ARC
  5
14AD2
330
14B1F
100
AcDbEntity
  8
SCHRAFF
100
AcDbCircle
 10
486.1434431631315
 20
911.4209026100615
 30
0.0
 40
3.811488253428933
100
AcDbArc
 50
293.0852241088059
 51
36.91477589119089
  0
ARC
  5
14AD3
330
14B1F
100
AcDbEntity
  8
SCHRAFF
100
AcDbCircle
 10
495.8027014260222
 20
908.8327121590365
 30
0.0
 40
3.811488253428933
100
AcDbArc
 50
293.0852241088059
 51
36.91477589119089
  0
ARC
  5
14AD4
330
14B1F
100
AcDbEntity
  8
SCHRAFF
100
AcDbCircle
 10
510.2915888203581
 20
904.9504264824985
 30
0.0
 40
3.811488253428933
100
AcDbArc
 50
293.0852241088059
 51
36.91477589119089
  0
ARC
  5
14AD5
330
14B1F
100
AcDbEntity
  8
SCHRAFF
100
AcDbCircle
 10
505.4619596889128
 20
906.244521708011
 30
0.0
 40
3.811488253428933
100
AcDbArc
 50
293.0852241088059
 51
36.91477589119089
  0
ARC
  5
14AD6
330
14B1F
100
AcDbEntity
  8
SCHRAFF
100
AcDbCircle
 10
519.9508470832488
 20
902.362236031473
 30
0.0
 40
3.811488253428933
100
AcDbArc
 50
293.0852241088059
 51
36.91477589119089
  0
ARC
  5
14AD7
330
14B1F
100
AcDbEntity
  8
SCHRAFF
100
AcDbCircle
 10
515.1212179518036
 20
903.6563312569859
 30
0.0
 40
3.811488253428933
100
AcDbArc
 50
293.0852241088059
 51
36.91477589119089
  0
LINE
  5
14AD9
330
14B1F
100
AcDbEntity
  8
STEMPEL
100
AcDbLine
 10
1025.0
 20
25.0
 30
0.0
 11
1025.0
 21
1460.0
 31
0.0
  0
LINE
  5
14ADA
330
14B1F
100
AcDbEntity
  8
HILF
100
AcDbLine
 10
1050.0
 20
-0.0000000000002842
 30
0.0
 11
1050.0
 21
1485.0
 31
0.0
  0
LINE
  5
14ADC
330
14B1F
100
AcDbEntity
  8
HILF
100
AcDbLine
 10
583.7274248224712
 20
37.23495645070784
 30
0.0
 11
1012.147209831682
 21
37.23495645070784
 31
0.0
  0
LINE
  5
14ADD
330
14B1F
100
AcDbEntity
  8
VOLL
100
AcDbLine
 10
830.0
 20
150.0
 30
0.0
 11
1025.0
 21
150.0
 31
0.0
  0
LINE
  5
14ADE
330
14B1F
100
AcDbEntity
  8
HILF
100
AcDbLine
 10
841.8096540742482
 20
209.4495909238957
 30
0.0
 11
1012.147209831682
 21
209.4495909238957
 31
0.0
  0
TEXT
  5
14ADF
330
14B1F
100
AcDbEntity
  8
TEXT
100
AcDbText
 10
840.4468873940851
 20
255.7830086342841
 30
0.0
 40
12.5
  1
Zeichnungs Nr.
 41
0.8
  7
GREEKS
100
AcDbText
  0
TEXT
  5
14AE0
330
14B1F
100
AcDbEntity
  8
TEXT
100
AcDbText
 10
841.8096540742482
 20
182.9529559274992
 30
0.0
 40
12.5
  1
Ersatz für:
 41
0.8
  7
GREEKS
100
AcDbText
  0
TEXT
  5
14AE1
330
14B1F
100
AcDbEntity
  8
TEXT
100
AcDbText
 10
843.1002153742515
 20
130.185404446965
 30
0.0
 40
12.5
  1
ersetzt durch:
 41
0.8
  7
GREEKS
100
AcDbText
  0
TEXT
  5
14AE2
330
14B1F
100
AcDbEntity
  8
TEXT
 62
     1
100
AcDbText
 10
591.7846544748149
 20
321.64847138984
 30
0.0
 40
17.5
  1
feuerverzinkt und innen beschichtet
 41
0.8
  7
GREEKS
100
AcDbText
  0
LINE
  5
14AE3
330
14B1F
100
AcDbEntity
  8
HILF
100
AcDbLine
 10
586.9342002742369
 20
210.0939561891034
 30
0.0
 11
812.0884791390777
 21
210.0939561891034
 31
0.0
  0
LINE
  5
14AE4
330
14B1F
100
AcDbEntity
  8
HILF
100
AcDbLine
 10
586.9342002742369
 20
174.9999999999998
 30
0.0
 11
812.0884791390775
 21
174.9999999999998
 31
0.0
  0
LINE
  5
14AE5
330
14B1F
100
AcDbEntity
  8
HILF
100
AcDbLine
 10
586.9342002742369
 20
149.9999999999999
 30
0.0
 11
812.0884791390775
 21
149.9999999999999
 31
0.0
  0
LINE
  5
14AE6
330
14B1F
100
AcDbEntity
  8
HILF
100
AcDbLine
 10
586.9342002742369
 20
124.9999999999999
 30
0.0
 11
812.0884791390775
 21
124.9999999999999
 31
0.0
  0
TEXT
  5
14AE7
330
14B1F
100
AcDbEntity
  8
TEXT
 62
     1
100
AcDbText
 10
587.207320850568
 20
218.5437197313445
 30
0.0
 40
17.5
  1
Bogen 30%%d DN250
 41
0.8
  7
GREEKS
100
AcDbText
  0
LINE
  5
14AE8
330
14B1F
100
AcDbEntity
  8
STEMPEL
100
AcDbLine
 10
575.0
 20
275.0000000000001
 30
0.0
 11
575.0
 21
24.99999999999993
 31
0.0
  0
TEXT
  5
14AE9
330
14B1F
100
AcDbEntity
  8
TEXT
100
AcDbText
 10
586.8555959778399
 20
77.11401425482641
 30
0.0
 40
12.5
  1
Bauvorhaben
 41
0.8
  7
GREEKS
100
AcDbText
  0
TEXT
  5
14AEA
330
14B1F
100
AcDbEntity
  8
TEXT
100
AcDbText
 10
587.4593753944567
 20
106.5743538255658
 30
0.0
 40
10.0
  1
03007250W.DWG
 41
0.8
  7
GREEKS
100
AcDbText
  0
TEXT
  5
14AEB
330
14B1F
100
AcDbEntity
  8
TEXT
100
AcDbText
 10
587.1948509522525
 20
256.3723320029449
 30
0.0
 40
12.5
  1
Benennung
 41
0.8
  7
GREEKS
100
AcDbText
  0
TEXT
  5
14AEC
330
14B1F
100
AcDbEntity
  8
TEXT
100
AcDbText
 10
587.8240977813288
 20
181.1007260038562
 30
0.0
 40
12.5
  1
Muffenlos
 41
0.8
  7
GREEKS
100
AcDbText
  0
TEXT
  5
14AED
330
14B1F
100
AcDbEntity
  8
TEXT
100
AcDbText
 10
587.8240977813288
 20
129.100298576054
 30
0.0
 40
12.5
  1
EDV-Art.Nr. 03007.250X
 41
0.8
  7
GREEKS
100
AcDbText
  0
LINE
  5
14AEE
330
14B1F
100
AcDbEntity
  8
STEMPEL
100
AcDbLine
 10
830.0
 20
274.9999999999994
 30
0.0
 11
830.0
 21
100.0
 31
0.0
  0
TEXT
  5
14AEF
330
14B1F
100
AcDbEntity
  8
TEXT
 62
     1
100
AcDbText
 10
866.0727161995719
 20
220.372535722849
 30
0.0
 40
17.5
  1
03007250W
 41
0.8
  7
GREEKS
 72
     1
 11
926.0727161995719
 21
220.372535722849
 31
0.0
100
AcDbText
  0
LINE
  5
14AF1
330
14B1F
100
AcDbEntity
  8
STEMPEL
100
AcDbLine
 10
682.8234959564142
 20
858.7317495174932
 30
0.0
 11
727.0334959564145
 21
935.3057157201131
 31
0.0
  0
DIMENSION
  5
14AF3
330
14B1F
100
AcDbEntity
  8
BEM
100
AcDbDimension
  2
*D5
 10
546.3234959564146
 20
765.3117495174932
 30
0.0
 11
606.2099423408977
 21
1106.988951407851
 31
0.0
 70
   130
 71
     5
 42
-1.0
 53
345.0891787370866
100
AcDb2LineAngularDimension
 13
546.3234959564147
 23
895.3068142843417
 33
0.0
 14
611.3210283398388
 24
1007.885842739035
 34
0.0
 15
546.3234959564146
 25
895.3068142843413
 35
0.0
 16
595.2093311143951
 26
1090.585085643308
 36
0.0
  0
LINE
  5
14AF4
330
14B1F
100
AcDbEntity
  8
MITTEL
100
AcDbLine
 10
546.3234959564147
 20
895.3068142843417
 30
0.0
 11
611.3210283398388
 21
1007.885842739035
 31
0.0
  0
LINE
  5
14AF5
330
14B1F
100
AcDbEntity
  8
MITTEL
100
AcDbLine
 10
546.3234959564146
 20
895.3068142843413
 30
0.0
 11
546.3234959564146
 21
765.3117495174932
 31
0.0
  0
ARC
  5
14AF6
330
14B1F
100
AcDbEntity
  8
SCHRAFF
100
AcDbCircle
 10
529.6101053461393
 20
899.7740455804478
 30
0.0
 40
3.811488253428933
100
AcDbArc
 50
293.0852241088059
 51
36.91477589119089
  0
ARC
  5
14AF7
330
14B1F
100
AcDbEntity
  8
SCHRAFF
100
AcDbCircle
 10
524.780476214694
 20
901.0681408059607
 30
0.0
 40
3.811488253428933
100
AcDbArc
 50
293.0852241088059
 51
36.91477589119089
  0
ARC
  5
14AF8
330
14B1F
100
AcDbEntity
  8
SCHRAFF
100
AcDbCircle
 10
539.2693636090304
 20
897.185855129423
 30
0.0
 40
3.811488253428933
100
AcDbArc
 50
293.0852241088059
 51
36.91477589119089
  0
ARC
  5
14AF9
330
14B1F
100
AcDbEntity
  8
SCHRAFF
100
AcDbCircle
 10
534.4397344775846
 20
898.4799503549355
 30
0.0
 40
3.811488253428933
100
AcDbArc
 50
293.0852241088059
 51
36.91477589119089
  0
INSERT
  5
14AFA
330
14B1F
100
AcDbEntity
  8
SCHRAFF
100
AcDbBlockReference
  2
*X7
 10
0.0
 20
0.0
 30
0.0
1001
ACAD
1000
HATCH
1002
{
1070
    16
1000
_U,I
1040
0.1
1040
0.0
1070
     0
1002
}
  0
ARC
  5
14AFB
330
14B1F
100
AcDbEntity
  8
SCHRAFF
100
AcDbCircle
 10
681.2298237326168
 20
859.1587727028594
 30
0.0
 40
3.875671874529564
100
AcDbArc
 50
294.2801735429475
 51
35.71982645705442
  0
LINE
  5
14AFD
330
14B1F
100
AcDbEntity
  8
STEMPEL
100
AcDbLine
 10
682.8234959564142
 20
858.7317495174932
 30
0.0
 11
682.8234959564143
 21
770.3117495174932
 31
0.0
  0
TEXT
  5
14BAA
330
14B1F
100
AcDbEntity
  8
BEM
100
AcDbText
 10
1043.255730964291
 20
25.41975269997152
 30
0.0
 40
10.0
  1
Diese Zeichnung ist urheberrechtlich geschützt und bleibt unser Eigentum. Sie darf weder ganz noch teilweise verfielfältigt und nicht an Dritte weitergegeben werden.
 50
90.0
 41
0.8
  7
GREEKS
100
AcDbText
  0
TEXT
  5
14BAC
330
14B1F
100
AcDbEntity
  8
TEXT
100
AcDbText
 10
481.7206788119809
 20
218.6546755757033
 30
0.0
 40
10.0
  1
DIN EN1123-2
 41
0.8
  7
GREEKS
 72
     1
 11
524.1968692881714
 21
218.6546755757033
 31
0.0
100
AcDbText
  0
ARC
  5
14C37
330
14B1F
100
AcDbEntity
  8
SCHRAFF
100
AcDbCircle
 10
663.6157636100878
 20
863.8673376674221
 30
0.0
 40
3.811488253428933
100
AcDbArc
 50
293.0852241088059
 51
36.91477589119089
  0
ARC
  5
14C38
330
14B1F
100
AcDbEntity
  8
SCHRAFF
100
AcDbCircle
 10
668.4453927415335
 20
862.5732424419096
 30
0.0
 40
3.811488253428933
100
AcDbArc
 50
293.0852241088059
 51
36.91477589119089
  0
ARC
  5
14C39
330
14B1F
100
AcDbEntity
  8
SCHRAFF
100
AcDbCircle
 10
653.9565053471972
 20
866.4555281184473
 30
0.0
 40
3.811488253428933
100
AcDbArc
 50
293.0852241088059
 51
36.91477589119089
  0
ARC
  5
14C3A
330
14B1F
100
AcDbEntity
  8
SCHRAFF
100
AcDbCircle
 10
658.7861344786424
 20
865.1614328929344
 30
0.0
 40
3.811488253428933
100
AcDbArc
 50
293.0852241088059
 51
36.91477589119089
  0
ARC
  5
14C3B
330
14B1F
100
AcDbEntity
  8
SCHRAFF
100
AcDbCircle
 10
644.2972470843066
 20
869.0437185694724
 30
0.0
 40
3.811488253428933
100
AcDbArc
 50
293.0852241088059
 51
36.91477589119089
  0
ARC
  5
14C3C
330
14B1F
100
AcDbEntity
  8
SCHRAFF
100
AcDbCircle
 10
649.126876215752
 20
867.7496233439596
 30
0.0
 40
3.811488253428933
100
AcDbArc
 50
293.0852241088059
 51
36.91477589119089
  0
ARC
  5
14C3D
330
14B1F
100
AcDbEntity
  8
SCHRAFF
100
AcDbCircle
 10
634.6379888214159
 20
871.6319090204976
 30
0.0
 40
3.811488253428933
100
AcDbArc
 50
293.0852241088059
 51
36.91477589119089
  0
ARC
  5
14C3E
330
14B1F
100
AcDbEntity
  8
SCHRAFF
100
AcDbCircle
 10
639.4676179528612
 20
870.3378137949851
 30
0.0
 40
3.811488253428933
100
AcDbArc
 50
293.0852241088059
 51
36.91477589119089
  0
ARC
  5
14C3F
330
14B1F
100
AcDbEntity
  8
SCHRAFF
100
AcDbCircle
 10
624.9787305585252
 20
874.2200994715231
 30
0.0
 40
3.811488253428933
100
AcDbArc
 50
293.0852241088059
 51
36.91477589119089
  0
ARC
  5
14C40
330
14B1F
100
AcDbEntity
  8
SCHRAFF
100
AcDbCircle
 10
615.3194722956345
 20
876.8082899225481
 30
0.0
 40
3.811488253428933
100
AcDbArc
 50
293.0852241088059
 51
36.91477589119089
  0
ARC
  5
14C41
330
14B1F
100
AcDbEntity
  8
SCHRAFF
100
AcDbCircle
 10
620.14910142708
 20
875.5141946970354
 30
0.0
 40
3.811488253428933
100
AcDbArc
 50
293.0852241088059
 51
36.91477589119089
  0
ARC
  5
14C42
330
14B1F
100
AcDbEntity
  8
SCHRAFF
100
AcDbCircle
 10
629.8083596899706
 20
872.9260042460103
 30
0.0
 40
3.811488253428933
100
AcDbArc
 50
293.0852241088059
 51
36.91477589119089
  0
ARC
  5
14C43
330
14B1F
100
AcDbEntity
  8
SCHRAFF
100
AcDbCircle
 10
581.5120683755171
 20
885.8669565011364
 30
0.0
 40
3.811488253428933
100
AcDbArc
 50
293.0852241088059
 51
36.91477589119089
  0
ARC
  5
14C44
330
14B1F
100
AcDbEntity
  8
SCHRAFF
100
AcDbCircle
 10
576.6824392440716
 20
887.1610517266489
 30
0.0
 40
3.811488253428933
100
AcDbArc
 50
293.0852241088059
 51
36.91477589119089
  0
ARC
  5
14C45
330
14B1F
100
AcDbEntity
  8
SCHRAFF
100
AcDbCircle
 10
571.8528101126264
 20
888.4551469521614
 30
0.0
 40
3.811488253428933
100
AcDbArc
 50
293.0852241088059
 51
36.91477589119089
  0
ARC
  5
14C46
330
14B1F
100
AcDbEntity
  8
SCHRAFF
100
AcDbCircle
 10
605.6602140327438
 20
879.3964803735732
 30
0.0
 40
3.811488253428933
100
AcDbArc
 50
293.0852241088059
 51
36.91477589119089
  0
ARC
  5
14C47
330
14B1F
100
AcDbEntity
  8
SCHRAFF
100
AcDbCircle
 10
600.8305849012986
 20
880.6905755990861
 30
0.0
 40
3.811488253428933
100
AcDbArc
 50
293.0852241088059
 51
36.91477589119089
  0
ARC
  5
14C48
330
14B1F
100
AcDbEntity
  8
SCHRAFF
100
AcDbCircle
 10
586.3416975069624
 20
884.5728612756238
 30
0.0
 40
3.811488253428933
100
AcDbArc
 50
293.0852241088059
 51
36.91477589119089
  0
ARC
  5
14C49
330
14B1F
100
AcDbEntity
  8
SCHRAFF
100
AcDbCircle
 10
591.1713266384078
 20
883.2787660501113
 30
0.0
 40
3.811488253428933
100
AcDbArc
 50
293.0852241088059
 51
36.91477589119089
  0
ARC
  5
14C4A
330
14B1F
100
AcDbEntity
  8
SCHRAFF
100
AcDbCircle
 10
596.0009557698533
 20
881.9846708245984
 30
0.0
 40
3.811488253428933
100
AcDbArc
 50
293.0852241088059
 51
36.91477589119089
  0
ARC
  5
14C4B
330
14B1F
100
AcDbEntity
  8
SCHRAFF
100
AcDbCircle
 10
610.4898431641891
 20
878.1023851480606
 30
0.0
 40
3.811488253428933
100
AcDbArc
 50
293.0852241088059
 51
36.91477589119089
  0
ARC
  5
14C4C
330
14B1F
100
AcDbEntity
  8
SCHRAFF
100
AcDbCircle
 10
567.0231809811812
 20
889.7492421776739
 30
0.0
 40
3.811488253428933
100
AcDbArc
 50
293.0852241088059
 51
36.91477589119089
  0
ARC
  5
14C4D
330
14B1F
100
AcDbEntity
  8
SCHRAFF
100
AcDbCircle
 10
562.1935518497357
 20
891.0433374031867
 30
0.0
 40
3.811488253428933
100
AcDbArc
 50
293.0852241088059
 51
36.91477589119089
  0
ARC
  5
14C4E
330
14B1F
100
AcDbEntity
  8
SCHRAFF
100
AcDbCircle
 10
557.3639227182905
 20
892.3374326286994
 30
0.0
 40
3.811488253428933
100
AcDbArc
 50
293.0852241088059
 51
36.91477589119089
  0
ARC
  5
14C4F
330
14B1F
100
AcDbEntity
  8
SCHRAFF
100
AcDbCircle
 10
552.5342935868449
 20
893.6315278542119
 30
0.0
 40
3.811488253428933
100
AcDbArc
 50
293.0852241088059
 51
36.91477589119089
  0
ARC
  5
14C50
330
14B1F
100
AcDbEntity
  8
SCHRAFF
100
AcDbCircle
 10
543.5006242404115
 20
896.1057358283305
 30
0.0
 40
3.811488253428933
100
AcDbArc
 50
293.0852241088059
 51
36.91477589119089
  0
ARC
  5
14C51
330
14B1F
100
AcDbEntity
  8
SCHRAFF
100
AcDbCircle
 10
547.7046644553995
 20
894.9256230797246
 30
0.0
 40
3.811488253428933
100
AcDbArc
 50
293.0852241088059
 51
36.91477589119089
  0
ARC
  5
14C52
330
14B1F
100
AcDbEntity
  8
SCHRAFF
100
AcDbCircle
 10
673.2750218729787
 20
861.2791472163968
 30
0.0
 40
3.811488253428933
100
AcDbArc
 50
293.0852241088059
 51
36.91477589119089
  0
ARC
  5
14C54
330
14B1F
100
AcDbEntity
  8
SCHRAFF
100
AcDbCircle
 10
678.1046510044241
 20
859.9850519908843
 30
0.0
 40
3.811488253428933
100
AcDbArc
 50
293.0852241088059
 51
36.91477589119089
  0
ENDSEC
  0
SECTION
  2
OBJECTS
  0
DICTIONARY
  5
14B0B
330
0
100
AcDbDictionary
281
     1
  3
ACAD_COLOR
350
14B1A
  3
ACAD_GROUP
350
14B0C
  3
ACAD_LAYOUT
350
14B18
  3
ACAD_MATERIAL
350
14B19
  3
ACAD_MLINESTYLE
350
14B15
  3
ACAD_PLOTSETTINGS
350
14B17
  3
ACAD_PLOTSTYLENAME
350
14B0D
  3
AcDbVariableDictionary
350
14BCD
  0
DICTIONARY
  5
14B1A
102
{ACAD_REACTORS
330
14B0B
102
}
330
14B0B
100
AcDbDictionary
281
     1
  0
DICTIONARY
  5
14B0C
102
{ACAD_REACTORS
330
14B0B
102
}
330
14B0B
100
AcDbDictionary
281
     1
  0
DICTIONARY
  5
14B18
102
{ACAD_REACTORS
330
14B0B
102
}
330
14B0B
100
AcDbDictionary
281
     1
  3
Layout1
350
14B1E
  3
Model
350
14B22
  0
DICTIONARY
  5
14B19
102
{ACAD_REACTORS
330
14B0B
102
}
330
14B0B
100
AcDbDictionary
281
     1
  0
DICTIONARY
  5
14B15
102
{ACAD_REACTORS
330
14B0B
102
}
330
14B0B
100
AcDbDictionary
281
     1
  3
Standard
350
14B16
  0
DICTIONARY
  5
14B17
102
{ACAD_REACTORS
330
14B0B
102
}
330
14B0B
100
AcDbDictionary
281
     1
  0
ACDBDICTIONARYWDFLT
  5
14B0D
102
{ACAD_REACTORS
330
14B0B
102
}
330
14B0B
100
AcDbDictionary
281
     1
  3
Normal
350
14B0E
100
AcDbDictionaryWithDefault
340
14B0E
  0
DICTIONARY
  5
14BCD
102
{ACAD_REACTORS
330
14B0B
102
}
330
14B0B
100
AcDbDictionary
281
     1
  3
DIMASSOC
350
14BCF
  3
HIDETEXT
350
14BCE
  3
PROJECTNAME
350
14BD0
  0
LAYOUT
  5
14B1E
102
{ACAD_REACTORS
330
14B18
102
}
330
14B18
100
AcDbPlotSettings
  1

  2
RICOH Aficio 2027 PCL 6
  4

  6

 40
0.0
 41
0.0
 42
0.0
 43
0.0
 44
0.0
 45
0.0
 46
0.0
 47
0.0
 48
0.0
 49
0.0
140
0.0
141
0.0
142
1.0
143
1.0
 70
   688
 72
     0
 73
     0
 74
     5
  7
monochrome1.ctb
 75
    16
147
1.0
 76
     0
 77
     2
 78
   300
148
0.0
149
0.0
100
AcDbLayout
  1
Layout1
 70
     0
 71
     1
 10
0.0
 20
0.0
 11
12.0
 21
9.0
 12
547.6538878075595
 22
50.00000000000001
 32
-2.58105543498411
 14
1.000000000000000E+20
 24
1.000000000000000E+20
 34
1.000000000000000E+20
 15
-1.000000000000000E+20
 25
-1.000000000000000E+20
 35
-1.000000000000000E+20
146
0.0
 13
0.0
 23
0.0
 33
0.0
 16
1.0
 26
0.0
 36
0.0
 17
0.0
 27
1.0
 37
0.0
 76
     0
330
14B1B
  0
LAYOUT
  5
14B22
102
{ACAD_REACTORS
330
14B18
102
}
330
14B18
100
AcDbPlotSettings
  1

  2
RICOH Aficio 2027 PCL 6
  4
A4
  6

 40
5.027083396911621
 41
5.027085304260253
 42
5.027084350585937
 43
5.027069091796875
 44
209.9733276367187
 45
296.9259948730469
 46
0.0
 47
0.0
 48
0.0
 49
0.0
140
0.0
141
0.0
142
1.0
143
1.0
 70
 11952
 72
     0
 73
     1
 74
     0
  7
monochrome1.ctb
 75
     0
147
1.0
 76
     0
 77
     2
 78
   300
148
5763.968420040872
149
239.4683943153884
100
AcDbLayout
  1
Model
 70
     1
 71
     0
 10
0.0
 20
0.0
 11
12.0
 21
9.0
 12
0.0
 22
0.0
 32
0.0
 14
0.0
 24
0.0
 34
0.0
 15
0.0
 25
0.0
 35
0.0
146
0.0
 13
0.0
 23
0.0
 33
0.0
 16
1.0
 26
0.0
 36
0.0
 17
0.0
 27
1.0
 37
0.0
 76
     0
330
14B1F
  0
MLINESTYLE
  5
14B16
102
{ACAD_REACTORS
330
14B15
102
}
330
14B15
100
AcDbMlineStyle
  2
STANDARD
 70
     0
  3

 62
   256
 51
90.0
 52
90.0
 71
     2
 49
0.5
 62
   256
  6
BYLAYER
 49
-0.5
 62
   256
  6
BYLAYER
  0
ACDBPLACEHOLDER
  5
14B0E
102
{ACAD_REACTORS
330
14B0D
102
}
330
14B0D
  0
DICTIONARYVAR
  5
14BCF
102
{ACAD_REACTORS
330
14BCD
102
}
330
14BCD
100
DictionaryVariables
280
     0
  1
2
  0
DICTIONARYVAR
  5
14BCE
102
{ACAD_REACTORS
330
14BCD
102
}
330
14BCD
100
DictionaryVariables
280
     0
  1
1
  0
DICTIONARYVAR
  5
14BD0
102
{ACAD_REACTORS
330
14BCD
102
}
330
14BCD
100
DictionaryVariables
280
     0
  1

  0
ENDSEC
  0
EOF
